<?xml version="1.0" standalone="no"?>
<!DOCTYPE svg PUBLIC "-//W3C//DTD SVG 1.1//EN" "http://www.w3.org/Graphics/SVG/1.1/DTD/svg11.dtd" >
<svg>
<metadata>
Created by FontForge 20120731 at Thu Nov  8 00:25:11 2018
 By Salim,,,
Copyright 2015 Google Inc. All Rights Reserved.
</metadata>
<defs>
<font id="NotoSans-SemiCondensedItalic" horiz-adv-x="0" >
  <font-face 
    font-family="Noto Sans SemCond"
    font-weight="400"
    font-style="italic"
    font-stretch="semi-condensed"
    units-per-em="1000"
    panose-1="2 11 5 2 4 5 4 9 2 4"
    ascent="800"
    descent="-200"
    x-height="536"
    cap-height="714"
    bbox="-641 -389 2681 1072"
    underline-thickness="50"
    underline-position="-75"
    slope="-12"
    unicode-range="U+000D-FFFD"
  />
<missing-glyph horiz-adv-x="582" 
d="M93 0v714h399v-714h-399zM142 49h301v616h-301v-616z" />
    <glyph glyph-name="f_f" unicode="ff" horiz-adv-x="570" 
d="M-57 -240q-33 0 -59 9v72q12 -4 24.5 -6.5t26.5 -2.5q32 0 51 26.5t32 87.5l111 523h-80l7 40l87 29l12 51q21 95 58 135.5t108 40.5q23 0 46.5 -5.5t39.5 -12.5l-25 -65q-13 5 -27 8.5t-30 3.5q-35 0 -54.5 -24t-32.5 -82l-12 -52h200l12 54q21 94 58 134.5t109 40.5
q23 0 47 -5.5t40 -12.5l-26 -65q-13 5 -27 8.5t-29 3.5q-36 0 -55.5 -24t-32.5 -82l-12 -52h101l-14 -67h-100l-113 -531q-12 -54 -30 -94t-48.5 -62t-78.5 -22q-37 0 -59 9v72q11 -4 24 -6.5t28 -2.5q32 0 50.5 27t31.5 87l111 523h-200l-113 -531q-17 -80 -51.5 -129
t-105.5 -49z" />
    <glyph glyph-name="f_f_i" unicode="ffi" horiz-adv-x="803" 
d="M-57 -240q-33 0 -59 9v72q12 -4 24.5 -6.5t26.5 -2.5q32 0 51 26.5t32 87.5l111 523h-80l7 40l87 29l12 51q21 95 58 135.5t108 40.5q23 0 46.5 -5.5t39.5 -12.5l-25 -65q-13 5 -27 8.5t-30 3.5q-35 0 -54.5 -24t-32.5 -82l-12 -52h200l12 54q21 94 58 134.5t109 40.5
q23 0 47 -5.5t40 -12.5l-26 -65q-13 5 -27 8.5t-29 3.5q-36 0 -55.5 -24t-32.5 -82l-12 -52h101l-14 -67h-100l-113 -531q-12 -54 -30 -94t-48.5 -62t-78.5 -22q-37 0 -59 9v72q11 -4 24 -6.5t28 -2.5q32 0 50.5 27t31.5 87l111 523h-200l-113 -531q-17 -80 -51.5 -129
t-105.5 -49zM768 625q-20 0 -32 11.5t-12 32.5q0 26 15 46.5t43 20.5q42 0 42 -42q0 -31 -17 -50t-39 -19zM587 0l114 536h84l-114 -536h-84z" />
    <glyph glyph-name="f_f_l" unicode="ffl" horiz-adv-x="803" 
d="M-57 -240q-33 0 -59 9v72q12 -4 24.5 -6.5t26.5 -2.5q32 0 51 26.5t32 87.5l111 523h-80l7 40l87 29l12 51q21 95 58 135.5t108 40.5q23 0 46.5 -5.5t39.5 -12.5l-25 -65q-13 5 -27 8.5t-30 3.5q-35 0 -54.5 -24t-32.5 -82l-12 -52h200l12 54q21 94 58 134.5t109 40.5
q23 0 47 -5.5t40 -12.5l-26 -65q-13 5 -27 8.5t-29 3.5q-36 0 -55.5 -24t-32.5 -82l-12 -52h101l-14 -67h-100l-113 -531q-12 -54 -30 -94t-48.5 -62t-78.5 -22q-37 0 -59 9v72q11 -4 24 -6.5t28 -2.5q32 0 50.5 27t31.5 87l111 523h-200l-113 -531q-17 -80 -51.5 -129
t-105.5 -49zM588 0l161 760h84l-162 -760h-83z" />
    <glyph glyph-name="f_i" unicode="fi" horiz-adv-x="518" 
d="M-57 -240q-33 0 -59 9v72q12 -4 24.5 -6.5t26.5 -2.5q36 0 53.5 29t29.5 85l111 523h-80l7 40l87 29l12 51q21 95 58 135.5t108 40.5q23 0 46.5 -5.5t39.5 -12.5l-25 -65q-13 5 -27 8.5t-30 3.5q-35 0 -54.5 -24t-32.5 -82l-12 -52h100l-13 -67h-100l-113 -531
q-17 -80 -51.5 -129t-105.5 -49zM484 625q-20 0 -32.5 11.5t-12.5 32.5q0 26 15 46.5t44 20.5q42 0 42 -42q0 -31 -16.5 -50t-39.5 -19zM302 0l114 536h84l-114 -536h-84z" />
    <glyph glyph-name="f_l" unicode="fl" horiz-adv-x="518" 
d="M-57 -240q-33 0 -59 9v72q12 -4 24.5 -6.5t26.5 -2.5q36 0 53.5 29t29.5 85l111 523h-80l7 40l87 29l12 51q21 95 58 135.5t108 40.5q23 0 46.5 -5.5t39.5 -12.5l-25 -65q-13 5 -27 8.5t-30 3.5q-35 0 -54.5 -24t-32.5 -82l-12 -52h100l-13 -67h-100l-113 -531
q-17 -80 -51.5 -129t-105.5 -49zM302 0l162 760h84l-162 -760h-84z" />
    <glyph glyph-name=".notdef" horiz-adv-x="582" 
d="M93 0v714h399v-714h-399zM142 49h301v616h-301v-616z" />
    <glyph glyph-name="NULL" 
 />
    <glyph glyph-name="NULL" 
 />
    <glyph glyph-name="CR" unicode="&#xd;" horiz-adv-x="227" 
 />
    <glyph glyph-name="space" unicode=" " horiz-adv-x="227" 
 />
    <glyph glyph-name="exclam" unicode="!" horiz-adv-x="251" 
d="M71 200l94 514h101l-127 -514h-68zM65 -12q-23 0 -36 13t-13 37q0 32 17.5 56.5t54.5 24.5q21 0 34 -13t13 -38q0 -31 -18 -55.5t-52 -24.5z" />
    <glyph glyph-name="quotedbl" unicode="&#x22;" horiz-adv-x="372" 
d="M270 456l37 258h93l-73 -258h-57zM105 456l38 258h92l-73 -258h-57z" />
    <glyph glyph-name="numbersign" unicode="#" horiz-adv-x="564" 
d="M63 0l62 212h-106l8 65h117l50 165h-113l8 64h124l61 208h68l-62 -208h124l62 208h65l-60 -208h107l-8 -64h-119l-50 -165h116l-8 -65h-127l-63 -212h-68l65 212h-124l-63 -212h-66zM212 277h123l49 165h-124z" />
    <glyph glyph-name="dollar" unicode="$" horiz-adv-x="492" 
d="M141 -58l24 107q-41 2 -79 11.5t-64 23.5l3 80q32 -19 73 -30.5t81 -13.5l47 219q-52 25 -85.5 59.5t-33.5 95.5q0 85 53.5 129t135.5 51l19 85h56l-18 -85q38 -3 70 -12.5t59 -24.5l-33 -69q-23 14 -51 24t-60 12l-45 -211q59 -28 91.5 -62.5t32.5 -93.5
q0 -57 -26 -96.5t-70.5 -62t-99.5 -28.5l-24 -108h-56zM243 418l39 185q-46 -5 -72 -31.5t-26 -72.5q0 -49 59 -81zM236 123q46 6 73.5 33.5t27.5 71.5q0 27 -13.5 47t-46.5 39z" />
    <glyph glyph-name="percent" unicode="%" horiz-adv-x="729" 
d="M171 276q-49 0 -76 34.5t-27 99.5q0 30 5.5 71t18 83t33.5 78.5t52 59t73 22.5q50 0 77 -33t27 -96q0 -29 -6 -69.5t-19 -84t-34 -81t-52 -61t-72 -23.5zM105 0l472 714h73l-471 -714h-74zM178 339q23 0 41 20.5t30.5 52t20.5 67t12 66t4 47.5q0 37 -11 53.5t-32 16.5
q-23 0 -40.5 -19t-30.5 -49.5t-20.5 -65t-11.5 -66t-4 -51.5q0 -72 42 -72zM506 -10q-50 0 -76.5 34t-26.5 99q0 32 6 73.5t18.5 83.5t33.5 78t52 58t72 22q50 0 77 -33t27 -95q0 -29 -6 -69.5t-19 -84t-34.5 -81.5t-52 -61.5t-71.5 -23.5zM513 53q23 0 40.5 20.5t30.5 52
t20.5 67t11.5 66t4 47.5q0 37 -11 53.5t-32 16.5q-23 0 -40.5 -19.5t-30 -50t-20.5 -65t-11.5 -65.5t-3.5 -51q0 -72 42 -72z" />
    <glyph glyph-name="ampersand" unicode="&#x26;" horiz-adv-x="583" 
d="M179 -10q-72 0 -116.5 42t-44.5 120q0 81 46 138.5t130 103.5q-16 32 -27.5 67.5t-11.5 75.5q0 52 20 94.5t59 68t95 25.5q61 0 98.5 -34t37.5 -94q0 -49 -22.5 -88t-61 -70.5t-85.5 -60.5l103 -180q25 28 45 64.5t33 75.5h84q-21 -58 -52.5 -111t-70.5 -96l80 -131h-99
l-42 74q-41 -36 -86.5 -60t-111.5 -24zM265 433q28 19 55.5 41.5t45.5 50.5t18 63q0 31 -15 50t-46 19q-43 0 -65.5 -33.5t-22.5 -82.5q0 -59 30 -108zM196 62q46 0 80 22t65 51l-115 204q-52 -33 -88 -74t-36 -104q0 -47 25.5 -73t68.5 -26z" />
    <glyph glyph-name="quotesingle" unicode="'" horiz-adv-x="208" 
d="M107 456l37 258h92l-72 -258h-57z" />
    <glyph glyph-name="parenleft" unicode="(" horiz-adv-x="278" 
d="M97 -158q-31 57 -48 130.5t-17 149.5q0 174 63.5 323t178.5 271h76q-106 -123 -171.5 -273.5t-65.5 -320.5q0 -160 50 -280h-66z" />
    <glyph glyph-name="parenright" unicode=")" horiz-adv-x="278" 
d="M-76 -158q106 123 171.5 273.5t65.5 320.5q0 78 -12.5 150t-37.5 130h67q31 -58 47.5 -130.5t16.5 -150.5q0 -175 -63 -323.5t-179 -269.5h-76z" />
    <glyph glyph-name="asterisk" unicode="*" horiz-adv-x="481" 
d="M341 348l-50 168l-106 -143l-59 56l130 121l-155 45l27 75l153 -76l14 169l83 -14l-48 -164l171 15v-78l-163 14l80 -159z" />
    <glyph glyph-name="plus" unicode="+" horiz-adv-x="520" 
d="M311 388h181v-70h-181v-204h-71v204h-181v70h181v204h71v-204z" />
    <glyph glyph-name="comma" unicode="," horiz-adv-x="236" 
d="M-44 -130q16 37 34.5 80.5t34.5 86.5t27 78h91l3 -11q-24 -56 -57.5 -117.5t-67.5 -116.5h-65z" />
    <glyph glyph-name="hyphen" unicode="-" horiz-adv-x="293" 
d="M22 229l17 79h226l-17 -79h-226z" />
    <glyph glyph-name="period" unicode="." horiz-adv-x="236" 
d="M65 -12q-48 0 -48 49q0 32 17.5 57t54.5 25q21 0 33.5 -13t12.5 -37q0 -31 -18 -56t-52 -25z" />
    <glyph glyph-name="slash" unicode="/" horiz-adv-x="348" 
d="M-47 -1l393 716h83l-392 -716h-84z" />
    <glyph glyph-name="zero" unicode="0" horiz-adv-x="492" 
d="M200 -10q-77 0 -116.5 55t-39.5 161q0 55 9.5 123.5t30.5 137.5t54 127.5t79.5 94.5t107.5 36q79 0 117.5 -53t38.5 -154q0 -64 -10 -136t-31.5 -141.5t-54.5 -126t-79 -90.5t-106 -34zM209 64q37 0 66.5 30.5t52 81t38 111.5t23 122t7.5 111q0 130 -76 130
q-35 0 -65 -30.5t-53.5 -80t-40 -109t-25 -118.5t-8.5 -106q0 -142 81 -142z" />
    <glyph glyph-name="one" unicode="1" horiz-adv-x="492" 
d="M173 0l99 464q9 40 17.5 76.5t19.5 72.5q-13 -13 -26 -24t-29 -22l-86 -61l-39 60l206 148h76l-152 -714h-86z" />
    <glyph glyph-name="two" unicode="2" horiz-adv-x="492" 
d="M-10 0l14 69l207 206q57 57 97 101.5t61 87t21 92.5q0 43 -24 68.5t-68 25.5q-39 0 -71.5 -17t-64.5 -41l-38 59q38 32 83 52.5t103 20.5q80 0 124 -42.5t44 -112.5q0 -58 -22.5 -108.5t-68 -104.5t-115.5 -120l-160 -156v-3h288l-16 -77h-394z" />
    <glyph glyph-name="three" unicode="3" horiz-adv-x="492" 
d="M172 -10q-51 0 -90.5 9t-73.5 26v83q32 -20 76 -32.5t87 -12.5q77 0 117.5 41.5t40.5 107.5q0 60 -33.5 90.5t-95.5 30.5h-53l15 71h53q49 0 89 19.5t63.5 55t23.5 82.5q0 43 -25 66.5t-66 23.5q-40 0 -74.5 -14t-68.5 -39l-35 62q38 28 83.5 46t104.5 18q80 0 123.5 -41
t43.5 -109q0 -76 -46 -132t-127 -72v-4q50 -11 82 -49t32 -100q0 -59 -26.5 -110.5t-81 -84t-138.5 -32.5z" />
    <glyph glyph-name="four" unicode="4" horiz-adv-x="492" 
d="M244 0l34 160h-281l14 74l372 482h95l-101 -482h94l-16 -74h-95l-34 -160h-82zM94 234h201l46 218q10 43 23 91t21 78h-4q-14 -25 -32 -51t-30 -43z" />
    <glyph glyph-name="five" unicode="5" horiz-adv-x="492" 
d="M165 -10q-43 0 -80.5 9t-65.5 25v84q31 -20 68 -32.5t78 -12.5q63 0 102.5 25t58.5 65.5t19 88.5q0 60 -31.5 93t-87.5 33q-26 0 -49.5 -5t-50.5 -12l-33 30l94 333h299l-16 -77h-226l-59 -209q17 4 35 7t40 3q80 0 127 -49t47 -135q0 -47 -14.5 -94t-46 -85.5t-83 -61.5
t-125.5 -23z" />
    <glyph glyph-name="six" unicode="6" horiz-adv-x="492" 
d="M216 -10q-78 0 -122.5 52t-44.5 153q0 71 15.5 149.5t46.5 151t78 124.5q38 44 93 74t128 30q52 0 88 -11l-18 -74q-15 5 -34 8.5t-42 3.5q-86 0 -151 -67.5t-100 -213.5h4q26 36 64.5 58t84.5 22q67 0 104.5 -45.5t37.5 -123.5q0 -49 -13.5 -100.5t-42 -94.5
t-72.5 -69.5t-104 -26.5zM223 63q35 0 61.5 19t44 50.5t26.5 68.5t9 72q0 51 -22 78.5t-66 27.5q-32 0 -57.5 -14.5t-44 -35.5t-26.5 -43q-8 -19 -12 -44.5t-4 -52.5q0 -53 21.5 -89.5t69.5 -36.5z" />
    <glyph glyph-name="seven" unicode="7" horiz-adv-x="492" 
d="M63 0l349 638h-310l16 76h397l-12 -66l-350 -648h-90z" />
    <glyph glyph-name="eight" unicode="8" horiz-adv-x="492" 
d="M211 -10q-93 0 -139 48.5t-46 120.5q0 79 47 132t132 90q-36 31 -56.5 67.5t-20.5 88.5q0 56 25.5 98.5t70.5 66t103 23.5q57 0 93.5 -20.5t54 -54.5t17.5 -75q0 -51 -21 -88.5t-57.5 -65.5t-81.5 -49q49 -35 75.5 -77t26.5 -102q0 -53 -24.5 -99.5t-74 -75t-124.5 -28.5
zM279 413q63 27 95.5 63.5t32.5 88.5q0 41 -23.5 64.5t-63.5 23.5q-50 0 -79.5 -31t-29.5 -85q0 -42 18.5 -71.5t49.5 -52.5zM217 61q45 0 74 18.5t43 48t14 62.5q0 46 -22.5 82t-66.5 65q-42 -17 -75.5 -39t-52.5 -54t-19 -79t29 -75.5t76 -28.5z" />
    <glyph glyph-name="nine" unicode="9" horiz-adv-x="492" 
d="M135 -10q-29 0 -56 4t-50 11v77q23 -8 49 -13t57 -5q90 0 146.5 69t87.5 208h-5q-23 -35 -60 -56t-81 -21q-72 0 -110 47t-38 128q0 52 15 102.5t44.5 92t73 66t100.5 24.5q79 0 121.5 -52t42.5 -152q0 -68 -13.5 -143.5t-39 -145t-62.5 -119.5q-42 -58 -97.5 -90
t-124.5 -32zM245 335q39 0 70 20.5t50 58.5q24 42 24 114q0 56 -22.5 89.5t-64.5 33.5q-46 0 -78 -30.5t-48.5 -77.5t-16.5 -97q0 -53 22 -82t64 -29z" />
    <glyph glyph-name="colon" unicode=":" horiz-adv-x="237" 
d="M145 416q-48 0 -48 48q0 33 18 57.5t54 24.5q21 0 33.5 -12.5t12.5 -36.5q0 -32 -18 -56.5t-52 -24.5zM62 -12q-22 0 -35.5 13t-13.5 36q0 32 18 57t55 25q21 0 33.5 -13t12.5 -37q0 -31 -18.5 -56t-51.5 -25z" />
    <glyph glyph-name="semicolon" unicode=";" horiz-adv-x="237" 
d="M147 416q-48 0 -48 48q0 33 17.5 57.5t54.5 24.5q21 0 33.5 -12.5t12.5 -36.5q0 -32 -18 -56.5t-52 -24.5zM-49 -130q26 60 52 125.5t44 119.5h90l4 -11q-24 -56 -57.5 -117.5t-68.5 -116.5h-64z" />
    <glyph glyph-name="less" unicode="&#x3c;" horiz-adv-x="520" 
d="M493 122l-434 204v50l434 221v-78l-341 -166l341 -153v-78z" />
    <glyph glyph-name="equal" unicode="=" horiz-adv-x="520" 
d="M63 419v70h425v-70h-425zM63 215v70h425v-70h-425z" />
    <glyph glyph-name="greater" unicode="&#x3e;" horiz-adv-x="520" 
d="M59 200l341 152l-341 167v78l434 -221v-50l-434 -204v78z" />
    <glyph glyph-name="question" unicode="?" horiz-adv-x="378" 
d="M103 200q8 45 20.5 78t33.5 60.5t53 56.5q31 29 57 54t41.5 53t15.5 66q0 82 -81 82q-34 0 -65.5 -12t-59.5 -27l-27 64q37 23 80 36t84 13q71 0 112.5 -36t41.5 -107q0 -67 -35 -117t-96 -102q-36 -30 -56 -52.5t-31.5 -47t-19.5 -62.5h-68zM103 -12q-49 0 -49 49
q0 32 18 57t55 25q20 0 32.5 -13t12.5 -37q0 -31 -18 -56t-51 -25z" />
    <glyph glyph-name="at" unicode="@" horiz-adv-x="752" 
d="M324 -88q-87 0 -150.5 36t-97.5 103t-34 159q0 95 30 185.5t86 163t135.5 115t179.5 42.5q89 0 146 -37t84.5 -99t27.5 -137q0 -63 -14.5 -122.5t-41 -107t-63 -76t-80.5 -28.5q-50 0 -69 25t-22 60h-3q-20 -37 -50.5 -61t-71.5 -24q-48 0 -75.5 31.5t-27.5 93.5
q0 54 17 105t48 92t72.5 65.5t91.5 24.5q40 0 68.5 -8t51.5 -18l-51 -199q-7 -27 -10.5 -45.5t-3.5 -32.5q0 -27 11 -38t29 -11q29 0 52.5 26t40 67t25.5 87t9 87q0 64 -20 113t-64.5 77t-116.5 28q-81 0 -145.5 -36.5t-110.5 -98.5t-70.5 -140.5t-24.5 -163.5
q0 -109 54.5 -175.5t165.5 -66.5q46 0 93 11.5t85 27.5v-61q-90 -39 -186 -39zM334 169q38 0 65 40.5t47 112.5l34 131q-8 4 -20 6.5t-28 2.5q-32 0 -59.5 -19.5t-47.5 -52t-31 -71.5t-11 -77t13 -55.5t38 -17.5z" />
    <glyph glyph-name="A" unicode="A" horiz-adv-x="504" 
d="M-60 0l355 715h97l57 -715h-86l-17 224h-204l-108 -224h-94zM179 301h163l-9 187q-2 33 -4.5 70t-1.5 66h-3q-12 -31 -27.5 -65.5t-33.5 -72.5z" />
    <glyph glyph-name="B" unicode="B" horiz-adv-x="538" 
d="M26 0l151 714h166q86 0 138 -38t52 -117q0 -71 -39.5 -120.5t-111.5 -65.5v-4q45 -13 73 -49t28 -91q0 -71 -31.5 -122t-89 -79t-134.5 -28h-202zM198 409h95q65 0 107.5 37.5t42.5 101.5q0 45 -26.5 68.5t-86.5 23.5h-83zM127 74h103q80 0 121.5 43t41.5 113
q0 47 -27.5 77t-89.5 30h-93z" />
    <glyph glyph-name="C" unicode="C" horiz-adv-x="513" 
d="M278 -10q-104 0 -161.5 67.5t-57.5 189.5q0 63 14 129.5t42.5 128.5t71 111.5t100 78.5t129.5 29q90 0 153 -38l-38 -71q-23 14 -51.5 23.5t-63.5 9.5q-55 0 -98 -25t-74.5 -67.5t-52.5 -94.5t-31.5 -106.5t-10.5 -103.5q0 -89 37.5 -137t108.5 -48q35 0 68 8t67 20v-77
q-35 -13 -70.5 -20t-81.5 -7z" />
    <glyph glyph-name="D" unicode="D" horiz-adv-x="593" 
d="M26 0l151 714h150q114 0 177.5 -64t63.5 -194q0 -88 -24 -170t-72.5 -146.5t-121 -102t-169.5 -37.5h-155zM127 76h61q72 0 126 31.5t90.5 86t54.5 122t18 139.5q0 97 -43 140t-117 43h-70z" />
    <glyph glyph-name="E" unicode="E" horiz-adv-x="460" 
d="M26 0l151 714h324l-16 -76h-239l-47 -227h222l-15 -76h-223l-56 -259h239l-16 -76h-324z" />
    <glyph glyph-name="F" unicode="F" horiz-adv-x="429" 
d="M26 0l151 714h325l-16 -76h-240l-53 -257h223l-16 -77h-224l-64 -304h-86z" />
    <glyph glyph-name="G" unicode="G" horiz-adv-x="610" 
d="M300 -10q-116 0 -178.5 66t-62.5 188q0 100 26.5 187.5t75 153t115 102.5t147.5 37q58 0 103 -11.5t83 -31.5l-36 -74q-35 18 -72 29.5t-81 11.5q-59 0 -108.5 -31.5t-86 -87t-56.5 -127.5t-20 -153q0 -83 38.5 -133t121.5 -50q31 0 58.5 4.5t48.5 11.5l47 219h-121
l16 75h207l-76 -351q-43 -16 -89.5 -25.5t-99.5 -9.5z" />
    <glyph glyph-name="H" unicode="H" horiz-adv-x="608" 
d="M27 0l151 714h85l-64 -303h270l64 303h85l-151 -714h-85l70 334h-269l-71 -334h-85z" />
    <glyph glyph-name="I" unicode="I" horiz-adv-x="301" 
d="M-31 0l10 48l82 18l124 582l-75 18l10 48h243l-10 -48l-83 -18l-124 -582l75 -18l-9 -48h-243z" />
    <glyph glyph-name="J" unicode="J" horiz-adv-x="247" 
d="M-80 -191q-23 0 -42 3.5t-31 8.5l9 75q14 -4 29.5 -7t32.5 -3q84 0 110 120l150 708h86l-152 -720q-21 -98 -70 -141.5t-122 -43.5z" />
    <glyph glyph-name="K" unicode="K" horiz-adv-x="504" 
d="M26 0l151 714h86l-75 -350l60 73l242 277h100l-278 -319l137 -395h-94l-112 339l-72 -59l-59 -280h-86z" />
    <glyph glyph-name="L" unicode="L" horiz-adv-x="426" 
d="M26 0l151 714h86l-136 -637h238l-16 -77h-323z" />
    <glyph glyph-name="M" unicode="M" horiz-adv-x="770" 
d="M25 0l151 714h121l52 -583h3l297 583h131l-150 -714h-86l95 446q11 50 21 91.5t18 70.5h-2l-314 -608h-75l-56 607h-3q-4 -31 -11.5 -76.5t-16.5 -87.5l-94 -443h-81z" />
    <glyph glyph-name="N" unicode="N" horiz-adv-x="636" 
d="M25 0l151 714h95l173 -582h3q6 42 16 95.5t19 96.5l83 390h82l-151 -714h-94l-175 587h-3q-3 -27 -9.5 -64t-13.5 -75t-14 -68l-80 -380h-82z" />
    <glyph glyph-name="O" unicode="O" horiz-adv-x="638" 
d="M283 -10q-109 0 -167 66t-58 186q0 88 22.5 174t65.5 156t105.5 111.5t142.5 41.5q106 0 162.5 -66t56.5 -186q0 -68 -13 -136.5t-39 -131t-65.5 -111t-92.5 -76.5t-120 -28zM288 67q56 0 100 37t74 97t45.5 131.5t15.5 141.5q0 85 -35.5 129.5t-99.5 44.5
q-46 0 -84 -24.5t-67 -66.5t-48.5 -94.5t-29.5 -109t-10 -110.5q0 -86 36.5 -131t102.5 -45z" />
    <glyph glyph-name="P" unicode="P" horiz-adv-x="507" 
d="M26 0l151 714h142q102 0 148.5 -48t46.5 -127q0 -120 -73.5 -190t-212.5 -70h-57l-59 -279h-86zM186 353h50q89 0 139.5 46t50.5 134q0 55 -30 80.5t-90 25.5h-59z" />
    <glyph glyph-name="Q" unicode="Q" horiz-adv-x="638" 
d="M379 -170l-85 161q-4 -1 -8 -1h-8q-107 2 -163.5 68t-56.5 184q0 88 22.5 174t65.5 156t105.5 111.5t142.5 41.5q106 0 162.5 -66t56.5 -186q0 -71 -15 -144t-44 -137.5t-73 -113t-102 -70.5l106 -178h-106zM288 67q57 0 101 37t74 97t45 131.5t15 141.5
q0 85 -35.5 129.5t-99.5 44.5q-46 0 -84 -24.5t-67 -66.5t-48.5 -94.5t-29.5 -109t-10 -110.5q0 -86 36.5 -131t102.5 -45z" />
    <glyph glyph-name="R" unicode="R" horiz-adv-x="516" 
d="M26 0l151 714h139q99 0 149 -44t50 -127q0 -82 -40 -143.5t-126 -84.5l98 -315h-94l-84 296h-95l-62 -296h-86zM190 370h65q59 0 97 22t56 59.5t18 83.5q0 55 -30 79.5t-89 24.5h-60z" />
    <glyph glyph-name="S" unicode="S" horiz-adv-x="458" 
d="M159 -10q-49 0 -87 8t-68 24l4 87q28 -17 67 -29.5t85 -12.5q63 0 106.5 32.5t43.5 99.5q0 40 -22 68.5t-80 69.5q-50 36 -82 75.5t-32 105.5q0 64 29.5 110.5t80.5 71t114 24.5q48 0 88.5 -11t73.5 -29l-36 -75q-25 15 -59 26t-69 11q-57 0 -94 -32t-37 -89
q0 -30 10.5 -51t31.5 -39.5t54 -42.5q37 -26 64 -51.5t41.5 -57.5t14.5 -77q0 -102 -65 -159t-177 -57z" />
    <glyph glyph-name="T" unicode="T" horiz-adv-x="443" 
d="M120 0l135 637h-169l17 77h424l-16 -77h-169l-135 -637h-87z" />
    <glyph glyph-name="U" unicode="U" horiz-adv-x="602" 
d="M255 -10q-96 0 -144.5 47t-48.5 133q0 36 11 91l97 453h86l-98 -457q-4 -22 -7 -44.5t-3 -37.5q0 -52 28.5 -80t84.5 -28q75 0 113 43.5t58 132.5l101 471h85l-102 -478q-16 -76 -47 -131t-83 -85t-131 -30z" />
    <glyph glyph-name="V" unicode="V" horiz-adv-x="498" 
d="M140 0l-50 714h86l27 -451q2 -39 3.5 -79t-0.5 -80h2q12 32 28.5 69.5t37.5 82.5l218 458h94l-352 -714h-94z" />
    <glyph glyph-name="W" unicode="W" horiz-adv-x="782" 
d="M112 0l-12 714h84l4 -440q1 -42 -1 -83t-4 -75h2q13 38 31 82.5t36 85.5l188 430h85l7 -424q2 -47 1 -93t-2 -81h3q14 40 29 81t31 82l181 435h91l-309 -714h-93l-8 457q-1 29 -0.5 63t1.5 63h-3q-9 -28 -21 -56.5t-29 -68.5l-199 -458h-93z" />
    <glyph glyph-name="X" unicode="X" horiz-adv-x="470" 
d="M-55 0l264 377l-99 337h88l72 -269l185 269h93l-242 -343l103 -371h-91l-74 301l-205 -301h-94z" />
    <glyph glyph-name="Y" unicode="Y" horiz-adv-x="453" 
d="M122 0l58 271l-91 443h87l63 -348l209 348h95l-278 -445l-57 -269h-86z" />
    <glyph glyph-name="Z" unicode="Z" horiz-adv-x="459" 
d="M-21 0l13 67l399 570h-269l16 77h370l-13 -68l-399 -569h287l-16 -77h-388z" />
    <glyph glyph-name="bracketleft" unicode="[" horiz-adv-x="287" 
d="M-16 -159l187 875h192l-16 -69h-112l-157 -737h113l-15 -69h-192z" />
    <glyph glyph-name="backslash" unicode="\" horiz-adv-x="350" 
d="M205 -1l-100 716h77l100 -716h-77z" />
    <glyph glyph-name="bracketright" unicode="]" horiz-adv-x="287" 
d="M-70 -159l14 69h113l156 737h-112l15 69h191l-186 -875h-191z" />
    <glyph glyph-name="asciicircum" unicode="^" horiz-adv-x="508" 
d="M28 290l219 427h51l185 -427h-75l-142 329l-160 -329h-78z" />
    <glyph glyph-name="underscore" unicode="_" horiz-adv-x="361" 
d="M-90 -153l14 66h363l-14 -66h-363z" />
    <glyph glyph-name="grave" unicode="`" horiz-adv-x="267" 
d="M247 606q-17 18 -37 45.5t-37.5 55.5t-26.5 49v10h93q10 -37 26 -75t35 -74l-1 -11h-52z" />
    <glyph glyph-name="a" unicode="a" horiz-adv-x="515" 
d="M170 -10q-60 0 -95.5 43.5t-35.5 127.5q0 68 17 136t49 124.5t77.5 90.5t102.5 34q46 0 75 -25t43 -63h4l29 78h66l-114 -536h-67l11 91h-4q-32 -43 -71 -72t-87 -29zM197 61q35 0 66.5 27t56 71.5t38.5 96.5q9 36 13 66t4 55q0 43 -21.5 70t-59.5 27q-37 0 -68 -28
t-53.5 -74t-34.5 -101.5t-12 -109.5q0 -100 71 -100z" />
    <glyph glyph-name="b" unicode="b" horiz-adv-x="520" 
d="M236 -10q-47 0 -77 25t-43 61h-4l-30 -76h-65l161 760h84l-42 -202q-8 -38 -17.5 -71t-11.5 -41h3q32 43 69.5 71t86.5 28q60 0 95.5 -43t35.5 -126q0 -67 -16 -135t-47.5 -125t-77 -91.5t-104.5 -34.5zM229 61q37 0 68 29t52.5 76t33.5 101.5t12 106.5q0 100 -73 100
q-34 0 -66 -28.5t-57.5 -75t-40 -102t-14.5 -108.5q0 -46 21 -72.5t64 -26.5z" />
    <glyph glyph-name="c" unicode="c" horiz-adv-x="403" 
d="M213 -10q-79 0 -126 46.5t-47 139.5q0 68 17 133.5t50.5 119t82.5 85.5t112 32q65 0 117 -25l-27 -70q-17 9 -40.5 16t-48.5 7q-41 0 -74 -25.5t-56 -68t-35 -95t-12 -105.5q0 -58 26 -88.5t73 -30.5q29 0 56 8.5t55 22.5v-71q-25 -13 -56 -22t-67 -9z" />
    <glyph glyph-name="d" unicode="d" horiz-adv-x="521" 
d="M169 -10q-59 0 -94.5 43t-35.5 128q0 67 16.5 134.5t47.5 124t77 91t104 34.5q46 0 76 -24.5t43 -60.5h4q5 31 9.5 59.5t11.5 60.5l38 180h83l-161 -760h-68l9 90h-3q-33 -44 -70.5 -72t-86.5 -28zM198 61q36 0 68 30t56.5 77.5t39 102.5t14.5 106q0 44 -20 70.5
t-64 26.5q-38 0 -69 -29t-52.5 -76t-33 -102t-11.5 -106q0 -100 72 -100z" />
    <glyph glyph-name="e" unicode="e" horiz-adv-x="456" 
d="M213 -10q-83 0 -128.5 50t-45.5 138q0 70 18 136t51.5 118.5t80.5 83t105 30.5q67 0 102 -31.5t35 -88.5q0 -82 -71 -136.5t-219 -54.5h-13q-2 -12 -3 -25.5t-1 -26.5q0 -59 26 -91t80 -32q34 0 64 9.5t66 27.5v-71q-34 -17 -68 -26.5t-79 -9.5zM140 302h6q89 0 146.5 29
t57.5 89q0 25 -15.5 40.5t-47.5 15.5q-44 0 -85 -47t-62 -127z" />
    <glyph glyph-name="f" unicode="f" horiz-adv-x="286" 
d="M-57 -240q-33 0 -59 9v72q12 -4 24.5 -6.5t26.5 -2.5q36 0 53.5 29t29.5 85l111 523h-80l7 40l87 29l12 51q21 95 58 135.5t108 40.5q23 0 46.5 -5.5t39.5 -12.5l-25 -65q-13 5 -27 8.5t-30 3.5q-35 0 -54.5 -24t-32.5 -82l-12 -52h100l-13 -67h-100l-113 -531
q-17 -80 -51.5 -129t-105.5 -49z" />
    <glyph glyph-name="g" unicode="g" horiz-adv-x="522" 
d="M151 -240q-43 0 -80.5 9.5t-62.5 23.5v79q23 -16 63 -28.5t79 -12.5q58 0 94.5 31.5t52.5 100.5l9 37q5 24 12.5 52t9.5 36h-3q-31 -43 -69 -70.5t-87 -27.5q-59 0 -94.5 43t-35.5 126q0 67 16.5 135t48 125t77.5 92t105 35q47 0 75.5 -25t42.5 -63h4l28 78h67l-121 -568
q-24 -112 -81.5 -160t-149.5 -48zM198 61q35 0 67 30t56.5 78t39 103.5t14.5 106.5q0 43 -19.5 69t-62.5 26q-39 0 -69.5 -29t-52.5 -76t-33.5 -102t-11.5 -106q0 -100 72 -100z" />
    <glyph glyph-name="h" unicode="h" horiz-adv-x="517" 
d="M18 0l161 760h84l-43 -198q-6 -27 -14 -56.5t-15 -57.5h4q25 38 63.5 67.5t93.5 29.5q56 0 88 -31.5t32 -92.5q0 -20 -4 -43.5t-9 -47.5l-71 -330h-84l71 333q5 24 8 43.5t3 35.5q0 28 -14.5 44.5t-45.5 16.5q-32 0 -65 -22t-61 -69.5t-44 -126.5l-54 -255h-84z" />
    <glyph glyph-name="i" unicode="i" horiz-adv-x="234" 
d="M199 625q-20 0 -32.5 11.5t-12.5 32.5q0 26 15 46.5t44 20.5q42 0 42 -42q0 -31 -16.5 -50t-39.5 -19zM17 0l114 536h84l-114 -536h-84z" />
    <glyph glyph-name="j" unicode="j" horiz-adv-x="234" 
d="M198 625q-20 0 -31.5 11.5t-11.5 32.5q0 26 14.5 46.5t43.5 20.5q42 0 42 -42q0 -31 -17 -50t-40 -19zM-69 -240q-35 0 -58 9v72q11 -4 24.5 -6.5t27.5 -2.5q31 0 50 25t31 83l126 596h83l-128 -603q-11 -53 -29 -91.5t-48 -60t-79 -21.5z" />
    <glyph glyph-name="k" unicode="k" horiz-adv-x="446" 
d="M17 0l161 760h85l-70 -326q-13 -58 -23 -95.5t-16 -58.5h2l228 256h97l-205 -225l112 -311h-92l-87 252l-68 -60l-39 -192h-85z" />
    <glyph glyph-name="l" unicode="l" horiz-adv-x="233" 
d="M17 0l162 760h84l-162 -760h-84z" />
    <glyph glyph-name="m" unicode="m" horiz-adv-x="779" 
d="M17 0l114 536h69l-11 -88h5q25 38 62.5 68t89.5 30q48 0 75 -26.5t34 -74.5h3q28 41 68 71t92 30q55 0 85.5 -31t30.5 -90q0 -21 -3 -40.5t-8 -40.5l-72 -344h-85l74 345q4 21 6 37t2 30q0 28 -14 44.5t-44 16.5q-46 0 -90 -49.5t-64 -143.5l-59 -280h-84l73 348
q9 39 9 62q0 30 -13.5 46.5t-43.5 16.5q-50 0 -95 -55t-68 -165l-53 -253h-85z" />
    <glyph glyph-name="n" unicode="n" horiz-adv-x="517" 
d="M15 -2l114 540h73l-11 -89h1q26 37 65 68t94 31q56 0 89.5 -31.5t33.5 -91.5q0 -23 -4 -47.5t-9 -45.5l-71 -334h-88l71 338q5 22 8.5 41.5t3.5 35.5q0 58 -59 58q-49 0 -97 -52t-72 -168l-54 -253h-88z" />
    <glyph glyph-name="o" unicode="o" horiz-adv-x="506" 
d="M213 -9q-81 0 -127 50.5t-46 139.5q0 58 15 121t46.5 118t79 89.5t113.5 34.5q81 0 127 -51t46 -140q0 -61 -16 -125t-47.5 -117.5t-79 -86.5t-111.5 -33zM219 62q35 0 64.5 24t51.5 65.5t34 95.5t12 113q0 44 -20.5 78.5t-69.5 34.5q-40 0 -71 -26.5t-52 -70.5
t-32 -95.5t-11 -101.5q0 -56 24 -86.5t70 -30.5z" />
    <glyph glyph-name="p" unicode="p" horiz-adv-x="520" 
d="M-32 -237l164 773h69l-11 -92h3q32 44 71 72.5t87 28.5q59 0 94.5 -42.5t35.5 -127.5q0 -67 -16.5 -135t-47.5 -125t-77 -91t-104 -34q-46 0 -75.5 25t-43.5 61h-4q-2 -20 -6.5 -47t-8.5 -46l-47 -220h-83zM229 61q38 0 68.5 28.5t52.5 75.5t33.5 102t11.5 108
q0 100 -73 100q-34 0 -66 -29t-57.5 -76t-40 -102.5t-14.5 -108.5q0 -45 21 -71.5t64 -26.5z" />
    <glyph glyph-name="q" unicode="q" horiz-adv-x="521" 
d="M254 -240l49 230q3 14 8.5 35t10.5 39.5t6 23.5h-3q-31 -42 -69 -70t-87 -28q-59 0 -94.5 43t-35.5 126q0 66 16.5 134.5t48 125.5t77.5 92t105 35q47 0 75.5 -25t42.5 -63h4l28 78h66l-164 -776h-84zM198 61q34 0 66 29.5t57 76.5t39.5 103t14.5 108q0 41 -20 68.5
t-63 27.5q-38 0 -68.5 -29t-52.5 -75.5t-33.5 -101.5t-11.5 -107q0 -100 72 -100z" />
    <glyph glyph-name="r" unicode="r" horiz-adv-x="353" 
d="M18 0l113 536h68l-11 -95h4q28 44 62.5 74.5t84.5 30.5q13 0 26 -1.5t25 -5.5l-21 -80q-21 7 -45 7q-44 0 -78 -31.5t-57 -79.5t-33 -97l-54 -258h-84z" />
    <glyph glyph-name="s" unicode="s" horiz-adv-x="389" 
d="M135 -10q-44 0 -78 9t-58 22v80q23 -15 58.5 -27.5t72.5 -12.5q52 0 80 23t28 62q0 29 -16 49.5t-61 51.5q-49 33 -73.5 66t-24.5 81q0 67 46 109.5t125 42.5q45 0 83 -11t65 -25l-31 -67q-23 13 -51.5 22.5t-64.5 9.5q-41 0 -64 -20.5t-23 -53.5q0 -26 14.5 -46
t59.5 -50q31 -23 54 -43.5t36 -45.5t13 -61q0 -79 -51 -122t-139 -43z" />
    <glyph glyph-name="t" unicode="t" horiz-adv-x="298" 
d="M155 -10q-49 0 -79.5 25t-30.5 82q0 31 9 71l63 301h-70l9 42l78 32l55 115h53l-27 -122h114l-14 -67h-113l-64 -303q-3 -14 -6 -29.5t-3 -28.5q0 -21 10 -34t34 -13q15 0 30 3t32 8v-65q-14 -7 -37.5 -12t-42.5 -5z" />
    <glyph glyph-name="u" unicode="u" horiz-adv-x="518" 
d="M164 -10q-56 0 -88 31.5t-32 90.5q0 21 3 42.5t8 44.5l72 337h85l-73 -340q-9 -44 -9 -72q0 -29 14 -45.5t45 -16.5q33 0 66 23t61 72t45 127l54 252h83l-114 -536h-68l9 88h-4q-26 -38 -65 -68t-92 -30z" />
    <glyph glyph-name="v" unicode="v" horiz-adv-x="419" 
d="M94 0l-42 536h84l18 -298q2 -22 3.5 -53t2 -59t-0.5 -42h4q13 32 32 74t34 71l150 307h89l-270 -536h-104z" />
    <glyph glyph-name="w" unicode="w" horiz-adv-x="657" 
d="M69 0l-10 536h82l2 -293q1 -46 -1 -84.5t-4 -66.5h3q10 29 25.5 68.5t28.5 67.5l135 308h92l7 -293q0 -33 -0.5 -75t-1.5 -77h3q13 36 29.5 80.5t36.5 90.5l115 274h88l-236 -536h-100l-5 305q-2 35 -1 67t2 71h-3q-10 -31 -21 -57.5t-29 -66.5l-138 -319h-99z" />
    <glyph glyph-name="x" unicode="x" horiz-adv-x="432" 
d="M-40 0l210 277l-92 259h86l64 -195l139 195h96l-202 -264l99 -272h-86l-71 207l-148 -207h-95z" />
    <glyph glyph-name="y" unicode="y" horiz-adv-x="420" 
d="M-31 -240q-21 0 -35.5 3t-27.5 7l4 70q12 -4 26 -6.5t29 -2.5q37 0 61.5 24.5t47.5 68.5l36 72l-56 540h84l22 -277q4 -42 6 -90.5t1 -80.5h3q6 18 18 45.5t24 55.5t22 47l147 300h89l-318 -631q-37 -71 -77 -108t-106 -37z" />
    <glyph glyph-name="z" unicode="z" horiz-adv-x="386" 
d="M-23 0l12 57l298 413h-197l14 66h289l-13 -65l-294 -405h218l-14 -66h-313z" />
    <glyph glyph-name="braceleft" unicode="{" horiz-adv-x="342" 
d="M214 -158q-144 0 -144 112q0 15 2.5 30.5t6.5 32.5l25 115q6 27 6 48q0 68 -95 68l16 70q56 0 88.5 22t43.5 73l34 160q17 80 60 110.5t127 30.5h12l-15 -70q-47 0 -71 -17t-35 -65l-35 -158q-10 -50 -39 -82t-86 -42v-2q38 -10 56 -35t18 -63q0 -25 -8 -57l-24 -113
q-2 -13 -4 -24t-2 -19q0 -31 19 -43t54 -12v-70h-10z" />
    <glyph glyph-name="bar" unicode="|" horiz-adv-x="483" 
d="M218 -240v1001h71v-1001h-71z" />
    <glyph glyph-name="braceright" unicode="}" horiz-adv-x="342" 
d="M-45 -158v70q50 0 77.5 17t37.5 65l35 158q11 50 39.5 82t85.5 41v3q-38 10 -56 35t-18 62q0 25 8 57l25 114q6 24 6 43q0 31 -21 43t-61 12l15 70h6q141 0 141 -111q0 -14 -2.5 -30.5t-6.5 -33.5l-25 -116q-3 -13 -5 -25t-2 -22q0 -68 95 -68l-15 -70q-56 0 -89 -22
t-43 -73l-34 -160q-12 -55 -35 -86t-60 -43t-93 -12h-5z" />
    <glyph glyph-name="asciitilde" unicode="~" horiz-adv-x="520" 
d="M262 319q-32 15 -54.5 21t-42.5 6q-25 0 -54 -16.5t-52 -42.5v78q44 52 111 52q28 0 55 -7t65 -24q32 -15 54.5 -21t42.5 -6q27 0 56 16.5t51 42.5v-77q-47 -53 -112 -53q-29 0 -55.5 7t-64.5 24z" />
    <glyph glyph-name="uni00A0" unicode="&#xa0;" horiz-adv-x="227" 
 />
    <glyph glyph-name="exclamdown" unicode="&#xa1;" horiz-adv-x="251" 
d="M166 414q-47 0 -47 49q0 33 18 57.5t52 24.5q22 0 34.5 -13t12.5 -37q0 -31 -17.5 -56t-52.5 -25zM-14 -183l131 515h59l-89 -515h-101z" />
    <glyph glyph-name="cent" unicode="&#xa2;" horiz-adv-x="492" 
d="M186 -10l22 104q-55 14 -86 59t-31 121q0 62 15 123.5t44.5 113.5t72.5 87t98 44l17 82h60l-18 -82q51 -4 91 -23l-27 -70q-17 9 -40.5 16t-48.5 7q-41 0 -74 -25.5t-56 -68t-35.5 -95t-12.5 -106.5q0 -59 26 -88.5t73 -29.5q29 0 55.5 8t52.5 21l6 -69
q-24 -13 -55 -21.5t-68 -9.5l-20 -98h-61z" />
    <glyph glyph-name="sterling" unicode="&#xa3;" horiz-adv-x="493" 
d="M-15 0l14 71q40 12 69.5 45t43.5 96l23 108h-86l14 65h86l35 167q20 89 70 130t124 41q46 0 82 -11.5t65 -29.5l-36 -67q-21 13 -49 24.5t-63 11.5q-40 0 -69.5 -24.5t-42.5 -87.5l-32 -154h153l-14 -65h-153l-23 -107q-12 -58 -36 -88.5t-53 -47.5h306l-16 -77h-412z
" />
    <glyph glyph-name="currency" unicode="&#xa4;" horiz-adv-x="534" 
d="M452 140l-64 62q-47 -33 -105 -33q-30 0 -57.5 9t-49.5 25l-63 -62l-42 44l62 62q-34 48 -34 106q0 57 34 106l-63 63l43 45l63 -64q23 17 50.5 26t56.5 9t55.5 -9t49.5 -26l64 64l44 -44l-63 -63q16 -23 25.5 -50.5t9.5 -56.5q0 -30 -9 -57t-26 -50l63 -63zM282 232
q34 0 62.5 16.5t45 44t16.5 60.5q0 34 -17 62t-45 44.5t-61 16.5t-61 -16.5t-44.5 -44.5t-16.5 -62t16.5 -61.5t44 -43.5t60.5 -16z" />
    <glyph glyph-name="yen" unicode="&#xa5;" horiz-adv-x="491" 
d="M142 0l28 129h-126l14 64h125l17 80h-125l13 64h101l-73 377h84l58 -345l203 345h90l-233 -377h103l-13 -64h-128l-17 -80h128l-13 -64h-127l-29 -129h-80z" />
    <glyph glyph-name="brokenbar" unicode="&#xa6;" horiz-adv-x="483" 
d="M218 380v381h71v-381h-71zM218 -240v381h71v-381h-71z" />
    <glyph glyph-name="section" unicode="&#xa7;" horiz-adv-x="434" 
d="M150 8q-45 0 -79 8.5t-55 21.5v73q25 -17 60.5 -28t71.5 -11q55 0 85.5 22.5t30.5 62.5q0 24 -19 43t-64 42q-47 25 -78 56.5t-31 83.5t31 86.5t77 56.5q-24 17 -37.5 41t-13.5 57q0 58 45.5 98.5t128.5 41.5q86 0 145 -34l-29 -60q-29 14 -57 22t-58 8
q-37 0 -66.5 -17.5t-29.5 -55.5q0 -27 19.5 -44.5t62.5 -39.5q50 -27 79 -57t29 -76q0 -50 -28 -87.5t-75 -63.5q20 -16 34 -38t14 -54q0 -69 -50.5 -113.5t-142.5 -44.5zM251 289q29 17 50 44.5t21 61.5q0 29 -21.5 50t-72.5 47q-32 -11 -56.5 -36.5t-24.5 -62.5
q0 -32 23 -53.5t81 -50.5z" />
    <glyph glyph-name="dieresis" unicode="&#xa8;" horiz-adv-x="523" 
d="M411 631q-18 0 -29 10.5t-11 29.5q0 24 14 42t39 18q38 0 38 -38q0 -29 -16 -45.5t-35 -16.5zM242 631q-17 0 -28 10.5t-11 29.5q0 24 13.5 42t39.5 18q37 0 37 -38q0 -29 -15.5 -45.5t-35.5 -16.5z" />
    <glyph glyph-name="copyright" unicode="&#xa9;" horiz-adv-x="831" 
d="M416 -10q-82 0 -149 28t-116 77.5t-75.5 116.5t-26.5 145q0 81 27.5 148t77 116t116.5 76t146 27q78 0 145 -27.5t116.5 -77t77.5 -116.5t28 -146q0 -80 -27.5 -147t-76.5 -116.5t-116 -76.5t-147 -27zM416 43q88 0 158 41t111 112t41 161q0 66 -23 123t-64.5 100t-98 67
t-124.5 24q-92 0 -162 -41t-109.5 -112t-39.5 -161q0 -89 40.5 -160.5t110.5 -112.5t160 -41zM430 133q-98 0 -147.5 60t-49.5 163q0 100 52.5 162t149.5 62q63 0 123 -30l-28 -59q-49 25 -94 25q-60 0 -93.5 -42t-33.5 -117q0 -79 30 -119.5t96 -40.5q23 0 51 6.5t54 16.5
v-63q-25 -11 -51 -17.5t-59 -6.5z" />
    <glyph glyph-name="ordfeminine" unicode="&#xaa;" horiz-adv-x="314" 
d="M161 383q-34 0 -59.5 27.5t-25.5 85.5q0 55 17.5 107t52.5 85.5t86 33.5q30 0 47 -15t24 -35h4l17 44h44l-69 -327h-46l7 53h-3q-18 -26 -40 -42.5t-56 -16.5zM179 435q26 0 45.5 17.5t32 44.5t19 56t6.5 52q0 31 -12.5 48t-38.5 17q-29 0 -51 -25t-33.5 -64t-11.5 -79
q0 -67 44 -67z" />
    <glyph glyph-name="guillemotleft" unicode="&#xab;" horiz-adv-x="456" 
d="M142 57l-106 209l1 13l183 189l46 -39l-141 -163l77 -183zM326 57l-101 197l1 13l175 198l49 -36l-137 -174l73 -172z" />
    <glyph glyph-name="logicalnot" unicode="&#xac;" horiz-adv-x="520" 
d="M489 388v-263h-70v193h-360v70h430z" />
    <glyph glyph-name="uni00AD" unicode="&#xad;" horiz-adv-x="293" 
d="M22 229l17 79h226l-17 -79h-226z" />
    <glyph glyph-name="registered" unicode="&#xae;" horiz-adv-x="831" 
d="M416 -10q-82 0 -149 28t-116 77.5t-75.5 116.5t-26.5 145q0 81 27.5 148t77 116t116.5 76t146 27q78 0 145 -27.5t116.5 -77t77.5 -116.5t28 -146q0 -80 -27.5 -147t-76.5 -116.5t-116 -76.5t-147 -27zM416 43q88 0 158 41t111 112t41 161q0 66 -23 123t-64.5 100t-98 67
t-124.5 24q-92 0 -162 -41t-109.5 -112t-39.5 -161q0 -89 40.5 -160.5t110.5 -112.5t160 -41zM280 141v434h124q158 0 158 -128q0 -46 -22 -73.5t-54 -41.5l109 -191h-83l-94 171h-63v-171h-75zM354 372h48q39 0 61.5 19t22.5 53q0 69 -85 69h-47v-141z" />
    <glyph glyph-name="overscore" unicode="&#xaf;" horiz-adv-x="394" 
d="M98 760l15 65h397l-16 -65h-396z" />
    <glyph glyph-name="degree" unicode="&#xb0;" horiz-adv-x="405" 
d="M202 431q-68 0 -109.5 40t-41.5 106t41.5 106.5t109.5 40.5q67 0 109.5 -40.5t42.5 -106.5t-43 -106t-109 -40zM203 487q43 0 65.5 24.5t22.5 65.5t-22.5 66t-65.5 25q-45 0 -67 -25t-22 -66t22.5 -65.5t66.5 -24.5z" />
    <glyph glyph-name="plusminus" unicode="&#xb1;" horiz-adv-x="520" 
d="M311 396h181v-70h-181v-204h-71v204h-181v70h181v204h71v-204zM59 0v70h434v-70h-434z" />
    <glyph glyph-name="uni00B2" unicode="&#xb2;" horiz-adv-x="326" 
d="M59 416l10 54l127 119q52 48 78.5 83t26.5 73q0 24 -13.5 38t-38.5 14q-23 0 -44.5 -10t-43.5 -28l-28 46q29 24 60.5 36.5t68.5 12.5q56 0 81.5 -30t25.5 -69q0 -52 -29.5 -94t-87.5 -94l-101 -92h177l-13 -59h-256z" />
    <glyph glyph-name="uni00B3" unicode="&#xb3;" horiz-adv-x="326" 
d="M173 409q-31 0 -58 7t-48 18v63q23 -14 51 -23t57 -9q47 0 70.5 22.5t23.5 60.5q0 63 -76 63h-41l12 54h40q44 0 70.5 21.5t26.5 56.5q0 56 -57 54q-25 0 -46 -8.5t-41 -22.5l-26 46q23 19 55 30.5t70 11.5q56 0 84 -28t28 -70q0 -44 -25.5 -73t-71.5 -43v-4
q30 -9 47.5 -32t17.5 -57q0 -60 -41.5 -99t-121.5 -39z" />
    <glyph glyph-name="acute" unicode="&#xb4;" horiz-adv-x="259" 
d="M114 606l1 12q29 32 59.5 73t51.5 75h97v-9q-14 -19 -42 -48t-59 -57.5t-54 -45.5h-54z" />
    <glyph glyph-name="uni03BC" unicode="&#x3bc;" horiz-adv-x="521" 
d="M-33 -240l164 776h84l-72 -340q-9 -44 -9 -68q0 -32 14 -49t46 -17t64.5 22t60 70t45.5 127l55 255h83l-114 -536h-68l9 85h-4q-27 -37 -63 -66t-86 -29t-71 43h-4q-2 -20 -7 -51.5t-9 -50.5l-36 -171h-82z" />
    <glyph glyph-name="paragraph" unicode="&#xb6;" horiz-adv-x="582" 
d="M320 -127v412q-22 -7 -57 -7q-84 0 -128.5 60t-44.5 178q0 128 52 186t141 58h238v-887h-56v819h-89v-819h-56z" />
    <glyph glyph-name="periodcentered" unicode="&#xb7;" horiz-adv-x="237" 
d="M123 287q-48 0 -48 49q0 32 17.5 57t54.5 25q21 0 33.5 -13t12.5 -37q0 -31 -18 -56t-52 -25z" />
    <glyph glyph-name="cedilla" unicode="&#xb8;" horiz-adv-x="199" 
d="M-29 -240q-31 0 -52 6v51q20 -5 43 -5q77 0 77 55q0 22 -17.5 33t-49.5 15l49 85h53l-32 -55q27 -7 46.5 -24.5t19.5 -51.5q0 -49 -36.5 -79t-100.5 -30z" />
    <glyph glyph-name="uni00B9" unicode="&#xb9;" horiz-adv-x="326" 
d="M174 415l58 272q4 21 10.5 45t11.5 41q-9 -7 -18.5 -16t-19.5 -16l-55 -37l-27 45l138 94h61l-92 -428h-67z" />
    <glyph glyph-name="ordmasculine" unicode="&#xba;" horiz-adv-x="317" 
d="M191 383q-50 0 -81 31.5t-31 93.5q0 52 17.5 101t53.5 81t89 32q55 0 82.5 -33t27.5 -90q0 -51 -16.5 -101t-51.5 -82.5t-90 -32.5zM197 435q32 0 52.5 24t30.5 61t10 75q0 74 -56 74q-32 0 -53.5 -23.5t-32 -59.5t-10.5 -75q0 -76 59 -76z" />
    <glyph glyph-name="guillemotright" unicode="&#xbb;" horiz-adv-x="456" 
d="M235 57l-47 39l141 163l-77 183l60 26l106 -210l-1 -14zM53 60l-49 36l137 173l-73 173l60 26l100 -197v-14z" />
    <glyph glyph-name="onequarter" unicode="&#xbc;" horiz-adv-x="701" 
d="M70 0l528 714h75l-528 -714h-75zM147 286l58 272q4 21 10.5 45t11.5 41q-9 -7 -18.5 -16t-19.5 -16l-55 -37l-27 45l138 94h61l-92 -428h-67zM509 1l20 96h-166l10 50l224 285h69l-60 -278h56l-11 -57h-57l-20 -96h-65zM440 154h101l23 105q5 24 10 45.5t11 41.5
q-7 -13 -22 -33.5t-26 -34.5z" />
    <glyph glyph-name="onehalf" unicode="&#xbd;" horiz-adv-x="763" 
d="M69 0l528 714h75l-528 -714h-75zM147 286l58 272q4 21 10.5 45t11.5 41q-9 -7 -18.5 -16t-19.5 -16l-55 -37l-27 45l138 94h61l-92 -428h-67zM411 1l10 54l127 119q52 48 78.5 83t26.5 73q0 24 -13.5 38t-38.5 14q-23 0 -44.5 -10t-43.5 -28l-28 46q29 24 60.5 36.5
t68.5 12.5q56 0 81.5 -30t25.5 -69q0 -52 -29.5 -94t-87.5 -94l-101 -92h177l-13 -59h-256z" />
    <glyph glyph-name="threequarters" unicode="&#xbe;" horiz-adv-x="742" 
d="M149 279q-31 0 -58 7t-48 18v63q23 -14 51 -23t57 -9q47 0 70.5 22.5t23.5 60.5q0 63 -76 63h-41l12 54h40q44 0 70.5 21.5t26.5 56.5q0 56 -57 54q-25 0 -46 -8.5t-41 -22.5l-26 46q23 19 55 30.5t70 11.5q56 0 84 -28t28 -70q0 -44 -25.5 -73t-71.5 -43v-4
q30 -9 47.5 -32t17.5 -57q0 -60 -41.5 -99t-121.5 -39zM115 0l528 714h75l-528 -714h-75zM549 0l20 96h-166l10 50l224 285h69l-60 -278h56l-11 -57h-57l-20 -96h-65zM480 153h101l23 105q5 24 10 45.5t11 41.5q-7 -13 -22 -33.5t-26 -34.5z" />
    <glyph glyph-name="questiondown" unicode="&#xbf;" horiz-adv-x="378" 
d="M275 331q-8 -45 -20.5 -78t-33.5 -60.5t-53 -56.5q-31 -29 -57 -54t-41.5 -53t-15.5 -66q0 -82 81 -82q34 0 65.5 12t59.5 27l27 -64q-37 -23 -80 -36t-84 -13q-71 0 -112.5 36t-41.5 107q0 67 35 117t96 102q36 30 56 52.5t31.5 47t19.5 62.5h68zM275 543q49 0 49 -49
q0 -32 -18 -57t-55 -25q-20 0 -32.5 13t-12.5 37q0 31 18 56t51 25z" />
    <glyph glyph-name="Agrave" unicode="&#xc0;" horiz-adv-x="504" 
d="M-60 0l355 715h97l57 -715h-86l-17 224h-204l-108 -224h-94zM179 301h163l-9 187q-2 33 -4.5 70t-1.5 66h-3q-12 -31 -27.5 -65.5t-33.5 -72.5zM360 787q-17 18 -37 45.5t-37.5 55.5t-26.5 49v10h93q10 -37 26 -75t35 -74l-1 -11h-52z" />
    <glyph glyph-name="Aacute" unicode="&#xc1;" horiz-adv-x="504" 
d="M-60 0l355 715h97l57 -715h-86l-17 224h-204l-108 -224h-94zM179 301h163l-9 187q-2 33 -4.5 70t-1.5 66h-3q-12 -31 -27.5 -65.5t-33.5 -72.5zM305 787l1 12q29 32 59.5 73t51.5 75h97v-9q-14 -19 -42 -48t-59 -57.5t-54 -45.5h-54z" />
    <glyph glyph-name="Acircumflex" unicode="&#xc2;" horiz-adv-x="504" 
d="M-60 0l355 715h97l57 -715h-86l-17 224h-204l-108 -224h-94zM179 301h163l-9 187q-2 33 -4.5 70t-1.5 66h-3q-12 -31 -27.5 -65.5t-33.5 -72.5zM206 787l1 12q19 19 44.5 45t49 53t38.5 50h79q8 -23 21 -50t27 -53t25 -45l-1 -12h-51q-34 36 -70 92q-29 -28 -57 -51.5
t-53 -40.5h-53z" />
    <glyph glyph-name="Atilde" unicode="&#xc3;" horiz-adv-x="504" 
d="M-60 0l355 715h97l57 -715h-86l-17 224h-204l-108 -224h-94zM179 301h163l-9 187q-2 33 -4.5 70t-1.5 66h-3q-12 -31 -27.5 -65.5t-33.5 -72.5zM198 788q14 61 40.5 94t67.5 33q28 0 51 -14.5t41.5 -28.5t35.5 -14q20 0 31 13t21 45h52q-15 -65 -42.5 -96t-65.5 -31
q-26 0 -48 14t-41.5 28.5t-39.5 14.5q-19 0 -31 -14.5t-21 -43.5h-51z" />
    <glyph glyph-name="Adieresis" unicode="&#xc4;" horiz-adv-x="504" 
d="M-60 0l355 715h97l57 -715h-86l-17 224h-204l-108 -224h-94zM179 301h163l-9 187q-2 33 -4.5 70t-1.5 66h-3q-12 -31 -27.5 -65.5t-33.5 -72.5zM445 812q-18 0 -29 10.5t-11 29.5q0 24 14 42t39 18q38 0 38 -38q0 -29 -16 -45.5t-35 -16.5zM276 812q-17 0 -28 10.5
t-11 29.5q0 24 13.5 42t39.5 18q37 0 37 -38q0 -29 -15.5 -45.5t-35.5 -16.5z" />
    <glyph glyph-name="Aring" unicode="&#xc5;" horiz-adv-x="504" 
d="M-60 0l355 715h97l57 -715h-86l-17 224h-204l-108 -224h-94zM179 301h163l-9 187q-2 33 -4.5 70t-1.5 66h-3q-12 -31 -27.5 -65.5t-33.5 -72.5zM362 784q-48 0 -76.5 27t-28.5 76q0 48 30 75t75 27q47 0 76.5 -27t29.5 -73q0 -49 -29.5 -77t-76.5 -28zM363 832
q25 0 40 15t15 40q0 26 -15 40.5t-40 14.5t-40 -14.5t-15 -40.5q0 -25 14 -40t41 -15z" />
    <glyph glyph-name="AE" unicode="&#xc6;" horiz-adv-x="725" 
d="M-61 0l413 714h415l-16 -76h-239l-48 -227h223l-15 -76h-224l-54 -259h238l-16 -76h-325l48 224h-178l-127 -224h-95zM206 302h149l71 335h-31z" />
    <glyph glyph-name="Ccedilla" unicode="&#xc7;" horiz-adv-x="513" 
d="M278 -10q-104 0 -161.5 67.5t-57.5 189.5q0 63 14 129.5t42.5 128.5t71 111.5t100 78.5t129.5 29q90 0 153 -38l-38 -71q-23 14 -51.5 23.5t-63.5 9.5q-55 0 -98 -25t-74.5 -67.5t-52.5 -94.5t-31.5 -106.5t-10.5 -103.5q0 -89 37.5 -137t108.5 -48q35 0 68 8t67 20v-77
q-35 -13 -70.5 -20t-81.5 -7zM191 -240q-31 0 -52 6v51q20 -5 43 -5q77 0 77 55q0 22 -17.5 33t-49.5 15l49 85h53l-32 -55q27 -7 46.5 -24.5t19.5 -51.5q0 -49 -36.5 -79t-100.5 -30z" />
    <glyph glyph-name="Egrave" unicode="&#xc8;" horiz-adv-x="460" 
d="M26 0l151 714h324l-16 -76h-239l-47 -227h222l-15 -76h-223l-56 -259h239l-16 -76h-324zM350 787q-17 18 -37 45.5t-37.5 55.5t-26.5 49v10h93q10 -37 26 -75t35 -74l-1 -11h-52z" />
    <glyph glyph-name="Eacute" unicode="&#xc9;" horiz-adv-x="460" 
d="M26 0l151 714h324l-16 -76h-239l-47 -227h222l-15 -76h-223l-56 -259h239l-16 -76h-324zM295 786l1 12q29 32 59.5 73t51.5 75h97v-9q-14 -19 -42 -48t-59 -57.5t-54 -45.5h-54z" />
    <glyph glyph-name="Ecircumflex" unicode="&#xca;" horiz-adv-x="460" 
d="M26 0l151 714h324l-16 -76h-239l-47 -227h222l-15 -76h-223l-56 -259h239l-16 -76h-324zM201 779l1 12q19 19 44.5 45t49 53t38.5 50h79q8 -23 21 -50t27 -53t25 -45l-1 -12h-51q-34 36 -70 92q-29 -28 -57 -51.5t-53 -40.5h-53z" />
    <glyph glyph-name="Edieresis" unicode="&#xcb;" horiz-adv-x="460" 
d="M26 0l151 714h324l-16 -76h-239l-47 -227h222l-15 -76h-223l-56 -259h239l-16 -76h-324zM438 804q-18 0 -29 10.5t-11 29.5q0 24 14 42t39 18q38 0 38 -38q0 -29 -16 -45.5t-35 -16.5zM269 804q-17 0 -28 10.5t-11 29.5q0 24 13.5 42t39.5 18q37 0 37 -38
q0 -29 -15.5 -45.5t-35.5 -16.5z" />
    <glyph glyph-name="Igrave" unicode="&#xcc;" horiz-adv-x="301" 
d="M-31 0l10 48l82 18l124 582l-75 18l10 48h243l-10 -48l-83 -18l-124 -582l75 -18l-9 -48h-243zM258 787q-17 18 -37 45.5t-37.5 55.5t-26.5 49v10h93q10 -37 26 -75t35 -74l-1 -11h-52z" />
    <glyph glyph-name="Iacute" unicode="&#xcd;" horiz-adv-x="301" 
d="M-31 0l10 48l82 18l124 582l-75 18l10 48h243l-10 -48l-83 -18l-124 -582l75 -18l-9 -48h-243zM204 786l1 12q29 32 59.5 73t51.5 75h97v-9q-14 -19 -42 -48t-59 -57.5t-54 -45.5h-54z" />
    <glyph glyph-name="Icircumflex" unicode="&#xce;" horiz-adv-x="301" 
d="M-31 0l10 48l82 18l124 582l-75 18l10 48h243l-10 -48l-83 -18l-124 -582l75 -18l-9 -48h-243zM108 787l1 12q19 19 44.5 45t49 53t38.5 50h79q8 -23 21 -50t27 -53t25 -45l-1 -12h-51q-34 36 -70 92q-29 -28 -57 -51.5t-53 -40.5h-53z" />
    <glyph glyph-name="Idieresis" unicode="&#xcf;" horiz-adv-x="301" 
d="M-31 0l10 48l82 18l124 582l-75 18l10 48h243l-10 -48l-83 -18l-124 -582l75 -18l-9 -48h-243zM346 812q-18 0 -29 10.5t-11 29.5q0 24 14 42t39 18q38 0 38 -38q0 -29 -16 -45.5t-35 -16.5zM177 812q-17 0 -28 10.5t-11 29.5q0 24 13.5 42t39.5 18q37 0 37 -38
q0 -29 -15.5 -45.5t-35.5 -16.5z" />
    <glyph glyph-name="Eth" unicode="&#xd0;" horiz-adv-x="593" 
d="M26 0l67 323h-64l16 73h64l68 318h150q114 0 177.5 -64t63.5 -194q0 -89 -24 -171t-72.5 -146t-121 -101.5t-169.5 -37.5h-155zM127 76h61q74 0 128 33t90 88t53.5 122.5t17.5 135.5q0 97 -43 140t-117 43h-70l-52 -242h131l-16 -73h-131z" />
    <glyph glyph-name="Ntilde" unicode="&#xd1;" horiz-adv-x="636" 
d="M25 0l151 714h95l173 -582h3q6 42 16 95.5t19 96.5l83 390h82l-151 -714h-94l-175 587h-3q-3 -27 -9.5 -64t-13.5 -75t-14 -68l-80 -380h-82zM266 780q14 61 40.5 94t67.5 33q28 0 51 -14.5t41.5 -28.5t35.5 -14q20 0 31 13t21 45h52q-15 -65 -42.5 -96t-65.5 -31
q-26 0 -48 14t-41.5 28.5t-39.5 14.5q-19 0 -31 -14.5t-21 -43.5h-51z" />
    <glyph glyph-name="Ograve" unicode="&#xd2;" horiz-adv-x="638" 
d="M283 -10q-109 0 -167 66t-58 186q0 88 22.5 174t65.5 156t105.5 111.5t142.5 41.5q106 0 162.5 -66t56.5 -186q0 -68 -13 -136.5t-39 -131t-65.5 -111t-92.5 -76.5t-120 -28zM288 67q56 0 100 37t74 97t45.5 131.5t15.5 141.5q0 85 -35.5 129.5t-99.5 44.5
q-46 0 -84 -24.5t-67 -66.5t-48.5 -94.5t-29.5 -109t-10 -110.5q0 -86 36.5 -131t102.5 -45zM428 787q-17 18 -37 45.5t-37.5 55.5t-26.5 49v10h93q10 -37 26 -75t35 -74l-1 -11h-52z" />
    <glyph glyph-name="Oacute" unicode="&#xd3;" horiz-adv-x="638" 
d="M283 -10q-109 0 -167 66t-58 186q0 88 22.5 174t65.5 156t105.5 111.5t142.5 41.5q106 0 162.5 -66t56.5 -186q0 -68 -13 -136.5t-39 -131t-65.5 -111t-92.5 -76.5t-120 -28zM288 67q56 0 100 37t74 97t45.5 131.5t15.5 141.5q0 85 -35.5 129.5t-99.5 44.5
q-46 0 -84 -24.5t-67 -66.5t-48.5 -94.5t-29.5 -109t-10 -110.5q0 -86 36.5 -131t102.5 -45zM373 786l1 12q29 32 59.5 73t51.5 75h97v-9q-14 -19 -42 -48t-59 -57.5t-54 -45.5h-54z" />
    <glyph glyph-name="Ocircumflex" unicode="&#xd4;" horiz-adv-x="638" 
d="M283 -10q-109 0 -167 66t-58 186q0 88 22.5 174t65.5 156t105.5 111.5t142.5 41.5q106 0 162.5 -66t56.5 -186q0 -68 -13 -136.5t-39 -131t-65.5 -111t-92.5 -76.5t-120 -28zM288 67q56 0 100 37t74 97t45.5 131.5t15.5 141.5q0 85 -35.5 129.5t-99.5 44.5
q-46 0 -84 -24.5t-67 -66.5t-48.5 -94.5t-29.5 -109t-10 -110.5q0 -86 36.5 -131t102.5 -45zM272 779l1 12q19 19 44.5 45t49 53t38.5 50h79q8 -23 21 -50t27 -53t25 -45l-1 -12h-51q-34 36 -70 92q-29 -28 -57 -51.5t-53 -40.5h-53z" />
    <glyph glyph-name="Otilde" unicode="&#xd5;" horiz-adv-x="638" 
d="M283 -10q-109 0 -167 66t-58 186q0 88 22.5 174t65.5 156t105.5 111.5t142.5 41.5q106 0 162.5 -66t56.5 -186q0 -68 -13 -136.5t-39 -131t-65.5 -111t-92.5 -76.5t-120 -28zM288 67q56 0 100 37t74 97t45.5 131.5t15.5 141.5q0 85 -35.5 129.5t-99.5 44.5
q-46 0 -84 -24.5t-67 -66.5t-48.5 -94.5t-29.5 -109t-10 -110.5q0 -86 36.5 -131t102.5 -45zM264 780q14 61 40.5 94t67.5 33q28 0 51 -14.5t41.5 -28.5t35.5 -14q20 0 31 13t21 45h52q-15 -65 -42.5 -96t-65.5 -31q-26 0 -48 14t-41.5 28.5t-39.5 14.5q-19 0 -31 -14.5
t-21 -43.5h-51z" />
    <glyph glyph-name="Odieresis" unicode="&#xd6;" horiz-adv-x="638" 
d="M283 -10q-109 0 -167 66t-58 186q0 88 22.5 174t65.5 156t105.5 111.5t142.5 41.5q106 0 162.5 -66t56.5 -186q0 -68 -13 -136.5t-39 -131t-65.5 -111t-92.5 -76.5t-120 -28zM288 67q56 0 100 37t74 97t45.5 131.5t15.5 141.5q0 85 -35.5 129.5t-99.5 44.5
q-46 0 -84 -24.5t-67 -66.5t-48.5 -94.5t-29.5 -109t-10 -110.5q0 -86 36.5 -131t102.5 -45zM511 804q-18 0 -29 10.5t-11 29.5q0 24 14 42t39 18q38 0 38 -38q0 -29 -16 -45.5t-35 -16.5zM342 804q-17 0 -28 10.5t-11 29.5q0 24 13.5 42t39.5 18q37 0 37 -38
q0 -29 -15.5 -45.5t-35.5 -16.5z" />
    <glyph glyph-name="multiply" unicode="&#xd7;" horiz-adv-x="520" 
d="M434 560l49 -49l-158 -158l156 -158l-48 -49l-158 157l-156 -157l-50 49l157 158l-157 157l49 50l157 -158z" />
    <glyph glyph-name="Oslash" unicode="&#xd8;" horiz-adv-x="638" 
d="M84 -44l-52 39l66 89q-40 62 -40 158q0 88 22.5 174t65.5 156t105.5 111.5t142.5 41.5q44 0 78 -12.5t63 -37.5l58 79l53 -39l-69 -92q18 -28 27 -67t9 -83q0 -68 -13 -136.5t-39 -131t-65.5 -111t-92.5 -76.5t-120 -28q-85 0 -140 45zM161 170l322 435
q-17 21 -40.5 32.5t-54.5 11.5q-57 0 -101.5 -36t-74.5 -95t-46 -128.5t-17 -136.5q0 -50 12 -83zM288 67q56 0 99 35t73 93t46 128.5t17 140.5q0 21 -2.5 39t-7.5 33l-320 -431q33 -38 95 -38z" />
    <glyph glyph-name="Ugrave" unicode="&#xd9;" horiz-adv-x="602" 
d="M255 -10q-96 0 -144.5 47t-48.5 133q0 36 11 91l97 453h86l-98 -457q-4 -22 -7 -44.5t-3 -37.5q0 -52 28.5 -80t84.5 -28q75 0 113 43.5t58 132.5l101 471h85l-102 -478q-16 -76 -47 -131t-83 -85t-131 -30zM409 787q-17 18 -37 45.5t-37.5 55.5t-26.5 49v10h93
q10 -37 26 -75t35 -74l-1 -11h-52z" />
    <glyph glyph-name="Uacute" unicode="&#xda;" horiz-adv-x="602" 
d="M255 -10q-96 0 -144.5 47t-48.5 133q0 36 11 91l97 453h86l-98 -457q-4 -22 -7 -44.5t-3 -37.5q0 -52 28.5 -80t84.5 -28q75 0 113 43.5t58 132.5l101 471h85l-102 -478q-16 -76 -47 -131t-83 -85t-131 -30zM355 786l1 12q29 32 59.5 73t51.5 75h97v-9q-14 -19 -42 -48
t-59 -57.5t-54 -45.5h-54z" />
    <glyph glyph-name="Ucircumflex" unicode="&#xdb;" horiz-adv-x="602" 
d="M255 -10q-96 0 -144.5 47t-48.5 133q0 36 11 91l97 453h86l-98 -457q-4 -22 -7 -44.5t-3 -37.5q0 -52 28.5 -80t84.5 -28q75 0 113 43.5t58 132.5l101 471h85l-102 -478q-16 -76 -47 -131t-83 -85t-131 -30zM257 779l1 12q19 19 44.5 45t49 53t38.5 50h79q8 -23 21 -50
t27 -53t25 -45l-1 -12h-51q-34 36 -70 92q-29 -28 -57 -51.5t-53 -40.5h-53z" />
    <glyph glyph-name="Udieresis" unicode="&#xdc;" horiz-adv-x="602" 
d="M255 -10q-96 0 -144.5 47t-48.5 133q0 36 11 91l97 453h86l-98 -457q-4 -22 -7 -44.5t-3 -37.5q0 -52 28.5 -80t84.5 -28q75 0 113 43.5t58 132.5l101 471h85l-102 -478q-16 -76 -47 -131t-83 -85t-131 -30zM494 804q-18 0 -29 10.5t-11 29.5q0 24 14 42t39 18
q38 0 38 -38q0 -29 -16 -45.5t-35 -16.5zM325 804q-17 0 -28 10.5t-11 29.5q0 24 13.5 42t39.5 18q37 0 37 -38q0 -29 -15.5 -45.5t-35.5 -16.5z" />
    <glyph glyph-name="Yacute" unicode="&#xdd;" horiz-adv-x="453" 
d="M122 0l58 271l-91 443h87l63 -348l209 348h95l-278 -445l-57 -269h-86zM281 786l1 12q29 32 59.5 73t51.5 75h97v-9q-14 -19 -42 -48t-59 -57.5t-54 -45.5h-54z" />
    <glyph glyph-name="Thorn" unicode="&#xde;" horiz-adv-x="506" 
d="M26 0l151 714h86l-26 -124h55q102 0 149 -48t47 -127q0 -119 -74 -189.5t-213 -70.5h-57l-32 -155h-86zM160 230h50q88 0 139 45.5t51 133.5q0 55 -29.5 80.5t-90.5 25.5h-60z" />
    <glyph glyph-name="germandbls" unicode="&#xdf;" horiz-adv-x="521" 
d="M-71 -240q-34 0 -58 9v73q23 -9 50 -9q32 0 50.5 24.5t30.5 79.5l135 636q20 95 71.5 143.5t138.5 48.5q71 0 113 -33.5t42 -92.5q0 -50 -26 -85t-62 -66q-30 -26 -52.5 -49t-22.5 -52q0 -22 19 -42.5t33 -37.5q31 -30 50 -62t19 -76q0 -59 -25 -99t-67 -60t-94 -20
q-38 0 -68 8.5t-49 22.5l4 79q20 -16 49 -27.5t58 -11.5q52 0 78.5 28t26.5 71q0 31 -12.5 53.5t-41.5 51.5q-34 32 -49 59t-15 56q0 46 24.5 77t58.5 58q33 27 56.5 53t23.5 64q0 30 -21.5 46t-56.5 16q-50 0 -78 -31t-42 -92l-134 -632q-12 -54 -30 -94.5t-48 -62.5
t-79 -22z" />
    <glyph glyph-name="agrave" unicode="&#xe0;" horiz-adv-x="515" 
d="M170 -10q-60 0 -95.5 43.5t-35.5 127.5q0 68 17 136t49 124.5t77.5 90.5t102.5 34q46 0 75 -25t43 -63h4l29 78h66l-114 -536h-67l11 91h-4q-32 -43 -71 -72t-87 -29zM197 61q35 0 66.5 27t56 71.5t38.5 96.5q9 36 13 66t4 55q0 43 -21.5 70t-59.5 27q-37 0 -68 -28
t-53.5 -74t-34.5 -101.5t-12 -109.5q0 -100 71 -100zM327 609q-17 18 -37 45.5t-37.5 55.5t-26.5 49v10h93q10 -37 26 -75t35 -74l-1 -11h-52z" />
    <glyph glyph-name="aacute" unicode="&#xe1;" horiz-adv-x="515" 
d="M170 -10q-60 0 -95.5 43.5t-35.5 127.5q0 68 17 136t49 124.5t77.5 90.5t102.5 34q46 0 75 -25t43 -63h4l29 78h66l-114 -536h-67l11 91h-4q-32 -43 -71 -72t-87 -29zM197 61q35 0 66.5 27t56 71.5t38.5 96.5q9 36 13 66t4 55q0 43 -21.5 70t-59.5 27q-37 0 -68 -28
t-53.5 -74t-34.5 -101.5t-12 -109.5q0 -100 71 -100zM273 608l1 12q29 32 59.5 73t51.5 75h97v-9q-14 -19 -42 -48t-59 -57.5t-54 -45.5h-54z" />
    <glyph glyph-name="acircumflex" unicode="&#xe2;" horiz-adv-x="515" 
d="M170 -10q-60 0 -95.5 43.5t-35.5 127.5q0 68 17 136t49 124.5t77.5 90.5t102.5 34q46 0 75 -25t43 -63h4l29 78h66l-114 -536h-67l11 91h-4q-32 -43 -71 -72t-87 -29zM197 61q35 0 66.5 27t56 71.5t38.5 96.5q9 36 13 66t4 55q0 43 -21.5 70t-59.5 27q-37 0 -68 -28
t-53.5 -74t-34.5 -101.5t-12 -109.5q0 -100 71 -100zM179 607l1 12q19 19 44.5 45t49 53t38.5 50h79q8 -23 21 -50t27 -53t25 -45l-1 -12h-51q-34 36 -70 92q-29 -28 -57 -51.5t-53 -40.5h-53z" />
    <glyph glyph-name="atilde" unicode="&#xe3;" horiz-adv-x="515" 
d="M170 -10q-60 0 -95.5 43.5t-35.5 127.5q0 68 17 136t49 124.5t77.5 90.5t102.5 34q46 0 75 -25t43 -63h4l29 78h66l-114 -536h-67l11 91h-4q-32 -43 -71 -72t-87 -29zM197 61q35 0 66.5 27t56 71.5t38.5 96.5q9 36 13 66t4 55q0 43 -21.5 70t-59.5 27q-37 0 -68 -28
t-53.5 -74t-34.5 -101.5t-12 -109.5q0 -100 71 -100zM171 608q14 61 40.5 94t67.5 33q28 0 51 -14.5t41.5 -28.5t35.5 -14q20 0 31 13t21 45h52q-15 -65 -42.5 -96t-65.5 -31q-26 0 -48 14t-41.5 28.5t-39.5 14.5q-19 0 -31 -14.5t-21 -43.5h-51z" />
    <glyph glyph-name="adieresis" unicode="&#xe4;" horiz-adv-x="515" 
d="M170 -10q-60 0 -95.5 43.5t-35.5 127.5q0 68 17 136t49 124.5t77.5 90.5t102.5 34q46 0 75 -25t43 -63h4l29 78h66l-114 -536h-67l11 91h-4q-32 -43 -71 -72t-87 -29zM197 61q35 0 66.5 27t56 71.5t38.5 96.5q9 36 13 66t4 55q0 43 -21.5 70t-59.5 27q-37 0 -68 -28
t-53.5 -74t-34.5 -101.5t-12 -109.5q0 -100 71 -100zM418 632q-18 0 -29 10.5t-11 29.5q0 24 14 42t39 18q38 0 38 -38q0 -29 -16 -45.5t-35 -16.5zM249 632q-17 0 -28 10.5t-11 29.5q0 24 13.5 42t39.5 18q37 0 37 -38q0 -29 -15.5 -45.5t-35.5 -16.5z" />
    <glyph glyph-name="aring" unicode="&#xe5;" horiz-adv-x="515" 
d="M170 -10q-60 0 -95.5 43.5t-35.5 127.5q0 68 17 136t49 124.5t77.5 90.5t102.5 34q46 0 75 -25t43 -63h4l29 78h66l-114 -536h-67l11 91h-4q-32 -43 -71 -72t-87 -29zM197 61q35 0 66.5 27t56 71.5t38.5 96.5q9 36 13 66t4 55q0 43 -21.5 70t-59.5 27q-37 0 -68 -28
t-53.5 -74t-34.5 -101.5t-12 -109.5q0 -100 71 -100zM336 607q-48 0 -76.5 27t-28.5 76q0 48 30 75t75 27q47 0 76.5 -27t29.5 -73q0 -49 -29.5 -77t-76.5 -28zM337 655q25 0 40 15t15 40q0 26 -15 40.5t-40 14.5t-40 -14.5t-15 -40.5q0 -25 14 -40t41 -15z" />
    <glyph glyph-name="ae" unicode="&#xe6;" horiz-adv-x="745" 
d="M158 -10q-54 0 -86.5 44t-32.5 126q0 74 18 143.5t50.5 124t76.5 86.5t96 32q41 0 67.5 -24t40.5 -61h4l27 75h56l-13 -66q23 32 59 54t84 22q51 0 86.5 -30t35.5 -90q0 -83 -71 -137t-218 -54h-15q-2 -12 -3 -25.5t-1 -26.5q0 -57 25.5 -90t82.5 -33q33 0 64.5 11
t66.5 27l-3 -73q-35 -17 -69.5 -26t-74.5 -9q-48 0 -82.5 19t-51.5 57l-13 -66h-59l12 89h-3q-34 -46 -70.5 -72.5t-85.5 -26.5zM435 302h7q89 0 146 29t57 88q0 29 -15.5 43t-41.5 14q-50 0 -90 -47t-63 -127zM187 61q34 0 64.5 26t54 70.5t37.5 98.5q9 35 13 65.5t4 56.5
q0 44 -18.5 70t-50.5 26q-35 0 -65 -27t-52.5 -72t-35 -100.5t-12.5 -113.5q0 -100 61 -100z" />
    <glyph glyph-name="ccedilla" unicode="&#xe7;" horiz-adv-x="403" 
d="M213 -10q-79 0 -126 46.5t-47 139.5q0 68 17 133.5t50.5 119t82.5 85.5t112 32q65 0 117 -25l-27 -70q-17 9 -40.5 16t-48.5 7q-41 0 -74 -25.5t-56 -68t-35 -95t-12 -105.5q0 -58 26 -88.5t73 -30.5q29 0 56 8.5t55 22.5v-71q-25 -13 -56 -22t-67 -9zM113 -240
q-31 0 -52 6v51q20 -5 43 -5q77 0 77 55q0 22 -17.5 33t-49.5 15l49 85h53l-32 -55q27 -7 46.5 -24.5t19.5 -51.5q0 -49 -36.5 -79t-100.5 -30z" />
    <glyph glyph-name="egrave" unicode="&#xe8;" horiz-adv-x="456" 
d="M213 -10q-83 0 -128.5 50t-45.5 138q0 70 18 136t51.5 118.5t80.5 83t105 30.5q67 0 102 -31.5t35 -88.5q0 -82 -71 -136.5t-219 -54.5h-13q-2 -12 -3 -25.5t-1 -26.5q0 -59 26 -91t80 -32q34 0 64 9.5t66 27.5v-71q-34 -17 -68 -26.5t-79 -9.5zM140 302h6q89 0 146.5 29
t57.5 89q0 25 -15.5 40.5t-47.5 15.5q-44 0 -85 -47t-62 -127zM302 606q-17 18 -37 45.5t-37.5 55.5t-26.5 49v10h93q10 -37 26 -75t35 -74l-1 -11h-52z" />
    <glyph glyph-name="eacute" unicode="&#xe9;" horiz-adv-x="456" 
d="M213 -10q-83 0 -128.5 50t-45.5 138q0 70 18 136t51.5 118.5t80.5 83t105 30.5q67 0 102 -31.5t35 -88.5q0 -82 -71 -136.5t-219 -54.5h-13q-2 -12 -3 -25.5t-1 -26.5q0 -59 26 -91t80 -32q34 0 64 9.5t66 27.5v-71q-34 -17 -68 -26.5t-79 -9.5zM140 302h6q89 0 146.5 29
t57.5 89q0 25 -15.5 40.5t-47.5 15.5q-44 0 -85 -47t-62 -127zM248 606l1 12q29 32 59.5 73t51.5 75h97v-9q-14 -19 -42 -48t-59 -57.5t-54 -45.5h-54z" />
    <glyph glyph-name="ecircumflex" unicode="&#xea;" horiz-adv-x="456" 
d="M213 -10q-83 0 -128.5 50t-45.5 138q0 70 18 136t51.5 118.5t80.5 83t105 30.5q67 0 102 -31.5t35 -88.5q0 -82 -71 -136.5t-219 -54.5h-13q-2 -12 -3 -25.5t-1 -26.5q0 -59 26 -91t80 -32q34 0 64 9.5t66 27.5v-71q-34 -17 -68 -26.5t-79 -9.5zM140 302h6q89 0 146.5 29
t57.5 89q0 25 -15.5 40.5t-47.5 15.5q-44 0 -85 -47t-62 -127zM157 606l1 12q19 19 44.5 45t49 53t38.5 50h79q8 -23 21 -50t27 -53t25 -45l-1 -12h-51q-34 36 -70 92q-29 -28 -57 -51.5t-53 -40.5h-53z" />
    <glyph glyph-name="edieresis" unicode="&#xeb;" horiz-adv-x="456" 
d="M213 -10q-83 0 -128.5 50t-45.5 138q0 70 18 136t51.5 118.5t80.5 83t105 30.5q67 0 102 -31.5t35 -88.5q0 -82 -71 -136.5t-219 -54.5h-13q-2 -12 -3 -25.5t-1 -26.5q0 -59 26 -91t80 -32q34 0 64 9.5t66 27.5v-71q-34 -17 -68 -26.5t-79 -9.5zM140 302h6q89 0 146.5 29
t57.5 89q0 25 -15.5 40.5t-47.5 15.5q-44 0 -85 -47t-62 -127zM397 631q-18 0 -29 10.5t-11 29.5q0 24 14 42t39 18q38 0 38 -38q0 -29 -16 -45.5t-35 -16.5zM228 631q-17 0 -28 10.5t-11 29.5q0 24 13.5 42t39.5 18q37 0 37 -38q0 -29 -15.5 -45.5t-35.5 -16.5z" />
    <glyph glyph-name="igrave" unicode="&#xec;" horiz-adv-x="234" 
d="M17 0l114 536h84l-114 -536h-84zM187 609q-17 18 -37 45.5t-37.5 55.5t-26.5 49v10h93q10 -37 26 -75t35 -74l-1 -11h-52z" />
    <glyph glyph-name="iacute" unicode="&#xed;" horiz-adv-x="234" 
d="M17 0l114 536h84l-114 -536h-84zM133 608l1 12q29 32 59.5 73t51.5 75h97v-9q-14 -19 -42 -48t-59 -57.5t-54 -45.5h-54z" />
    <glyph glyph-name="icircumflex" unicode="&#xee;" horiz-adv-x="234" 
d="M17 0l114 536h84l-114 -536h-84zM37 606l1 12q19 19 44.5 45t49 53t38.5 50h79q8 -23 21 -50t27 -53t25 -45l-1 -12h-51q-34 36 -70 92q-29 -28 -57 -51.5t-53 -40.5h-53z" />
    <glyph glyph-name="idieresis" unicode="&#xef;" horiz-adv-x="234" 
d="M17 0l114 536h84l-114 -536h-84zM276 631q-18 0 -29 10.5t-11 29.5q0 24 14 42t39 18q38 0 38 -38q0 -29 -16 -45.5t-35 -16.5zM107 631q-17 0 -28 10.5t-11 29.5q0 24 13.5 42t39.5 18q37 0 37 -38q0 -29 -15.5 -45.5t-35.5 -16.5z" />
    <glyph glyph-name="eth" unicode="&#xf0;" horiz-adv-x="509" 
d="M201 -10q-79 0 -124.5 47t-45.5 134q0 54 16 107.5t46.5 97.5t74.5 70.5t101 26.5q51 0 79 -24.5t40 -56.5l3 1q0 62 -13 115.5t-53 103.5l-118 -67l-27 49l107 61q-13 13 -30.5 27.5t-38.5 29.5l44 54q23 -15 46.5 -32.5t45.5 -39.5l115 67l30 -48l-107 -62
q34 -48 54.5 -107t20.5 -137q0 -55 -8.5 -113t-27 -112t-49 -97.5t-75.5 -69t-106 -25.5zM207 61q43 0 73.5 23.5t50 59.5t28.5 75.5t9 71.5q0 44 -22 78t-73 34q-40 0 -69.5 -20.5t-48.5 -54.5t-28.5 -74.5t-9.5 -80.5q0 -52 21.5 -82t68.5 -30z" />
    <glyph glyph-name="ntilde" unicode="&#xf1;" horiz-adv-x="517" 
d="M15 -2l114 540h73l-11 -89h1q26 37 65 68t94 31q56 0 89.5 -31.5t33.5 -91.5q0 -23 -4 -47.5t-9 -45.5l-71 -334h-88l71 338q5 22 8.5 41.5t3.5 35.5q0 58 -59 58q-49 0 -97 -52t-72 -168l-54 -253h-88zM172 608q14 61 40.5 94t67.5 33q28 0 51 -14.5t41.5 -28.5
t35.5 -14q20 0 31 13t21 45h52q-15 -65 -42.5 -96t-65.5 -31q-26 0 -48 14t-41.5 28.5t-39.5 14.5q-19 0 -31 -14.5t-21 -43.5h-51z" />
    <glyph glyph-name="ograve" unicode="&#xf2;" horiz-adv-x="506" 
d="M213 -9q-81 0 -127 50.5t-46 139.5q0 58 15 121t46.5 118t79 89.5t113.5 34.5q81 0 127 -51t46 -140q0 -61 -16 -125t-47.5 -117.5t-79 -86.5t-111.5 -33zM219 62q35 0 64.5 24t51.5 65.5t34 95.5t12 113q0 44 -20.5 78.5t-69.5 34.5q-40 0 -71 -26.5t-52 -70.5
t-32 -95.5t-11 -101.5q0 -56 24 -86.5t70 -30.5zM312 606q-17 18 -37 45.5t-37.5 55.5t-26.5 49v10h93q10 -37 26 -75t35 -74l-1 -11h-52z" />
    <glyph glyph-name="oacute" unicode="&#xf3;" horiz-adv-x="506" 
d="M213 -9q-81 0 -127 50.5t-46 139.5q0 58 15 121t46.5 118t79 89.5t113.5 34.5q81 0 127 -51t46 -140q0 -61 -16 -125t-47.5 -117.5t-79 -86.5t-111.5 -33zM219 62q35 0 64.5 24t51.5 65.5t34 95.5t12 113q0 44 -20.5 78.5t-69.5 34.5q-40 0 -71 -26.5t-52 -70.5
t-32 -95.5t-11 -101.5q0 -56 24 -86.5t70 -30.5zM258 606l1 12q29 32 59.5 73t51.5 75h97v-9q-14 -19 -42 -48t-59 -57.5t-54 -45.5h-54z" />
    <glyph glyph-name="ocircumflex" unicode="&#xf4;" horiz-adv-x="506" 
d="M213 -9q-81 0 -127 50.5t-46 139.5q0 58 15 121t46.5 118t79 89.5t113.5 34.5q81 0 127 -51t46 -140q0 -61 -16 -125t-47.5 -117.5t-79 -86.5t-111.5 -33zM219 62q35 0 64.5 24t51.5 65.5t34 95.5t12 113q0 44 -20.5 78.5t-69.5 34.5q-40 0 -71 -26.5t-52 -70.5
t-32 -95.5t-11 -101.5q0 -56 24 -86.5t70 -30.5zM162 606l1 12q19 19 44.5 45t49 53t38.5 50h79q8 -23 21 -50t27 -53t25 -45l-1 -12h-51q-34 36 -70 92q-29 -28 -57 -51.5t-53 -40.5h-53z" />
    <glyph glyph-name="otilde" unicode="&#xf5;" horiz-adv-x="506" 
d="M213 -9q-81 0 -127 50.5t-46 139.5q0 58 15 121t46.5 118t79 89.5t113.5 34.5q81 0 127 -51t46 -140q0 -61 -16 -125t-47.5 -117.5t-79 -86.5t-111.5 -33zM219 62q35 0 64.5 24t51.5 65.5t34 95.5t12 113q0 44 -20.5 78.5t-69.5 34.5q-40 0 -71 -26.5t-52 -70.5
t-32 -95.5t-11 -101.5q0 -56 24 -86.5t70 -30.5zM151 607q14 61 40.5 94t67.5 33q28 0 51 -14.5t41.5 -28.5t35.5 -14q20 0 31 13t21 45h52q-15 -65 -42.5 -96t-65.5 -31q-26 0 -48 14t-41.5 28.5t-39.5 14.5q-19 0 -31 -14.5t-21 -43.5h-51z" />
    <glyph glyph-name="odieresis" unicode="&#xf6;" horiz-adv-x="506" 
d="M213 -9q-81 0 -127 50.5t-46 139.5q0 58 15 121t46.5 118t79 89.5t113.5 34.5q81 0 127 -51t46 -140q0 -61 -16 -125t-47.5 -117.5t-79 -86.5t-111.5 -33zM219 62q35 0 64.5 24t51.5 65.5t34 95.5t12 113q0 44 -20.5 78.5t-69.5 34.5q-40 0 -71 -26.5t-52 -70.5
t-32 -95.5t-11 -101.5q0 -56 24 -86.5t70 -30.5zM400 631q-18 0 -29 10.5t-11 29.5q0 24 14 42t39 18q38 0 38 -38q0 -29 -16 -45.5t-35 -16.5zM231 631q-17 0 -28 10.5t-11 29.5q0 24 13.5 42t39.5 18q37 0 37 -38q0 -29 -15.5 -45.5t-35.5 -16.5z" />
    <glyph glyph-name="divide" unicode="&#xf7;" horiz-adv-x="520" 
d="M276 465q-24 0 -39 14.5t-15 46.5t15 46.5t39 14.5q23 0 38 -14.5t15 -46.5t-15.5 -46.5t-37.5 -14.5zM59 318v70h433v-70h-433zM276 118q-24 0 -39 15t-15 46q0 33 15 47t39 14q23 0 38 -14t15 -47q0 -32 -15.5 -46.5t-37.5 -14.5z" />
    <glyph glyph-name="oslash" unicode="&#xf8;" horiz-adv-x="506" 
d="M62 -46l-49 35l56 76q-29 47 -29 116q0 45 9.5 95t29 97.5t50 86t71.5 61.5t94 23q65 0 106 -32l47 64l49 -34l-56 -72q14 -22 20 -51.5t6 -60.5q0 -46 -9.5 -97t-29 -99t-49.5 -86.5t-71 -61.5t-93 -23q-31 0 -57 8t-47 22zM128 143l226 306q-10 11 -25 18.5t-38 7.5
q-39 0 -69.5 -25t-52.5 -66.5t-34 -91.5t-13 -100q0 -34 6 -49zM219 60q46 0 82.5 39t58.5 103t23 140q1 13 -0.5 24.5t-3.5 19.5l-223 -303q23 -23 63 -23z" />
    <glyph glyph-name="ugrave" unicode="&#xf9;" horiz-adv-x="518" 
d="M164 -10q-56 0 -88 31.5t-32 90.5q0 21 3 42.5t8 44.5l72 337h85l-73 -340q-9 -44 -9 -72q0 -29 14 -45.5t45 -16.5q33 0 66 23t61 72t45 127l54 252h83l-114 -536h-68l9 88h-4q-26 -38 -65 -68t-92 -30zM329 606q-17 18 -37 45.5t-37.5 55.5t-26.5 49v10h93
q10 -37 26 -75t35 -74l-1 -11h-52z" />
    <glyph glyph-name="uacute" unicode="&#xfa;" horiz-adv-x="518" 
d="M164 -10q-56 0 -88 31.5t-32 90.5q0 21 3 42.5t8 44.5l72 337h85l-73 -340q-9 -44 -9 -72q0 -29 14 -45.5t45 -16.5q33 0 66 23t61 72t45 127l54 252h83l-114 -536h-68l9 88h-4q-26 -38 -65 -68t-92 -30zM275 606l1 12q29 32 59.5 73t51.5 75h97v-9q-14 -19 -42 -48
t-59 -57.5t-54 -45.5h-54z" />
    <glyph glyph-name="ucircumflex" unicode="&#xfb;" horiz-adv-x="518" 
d="M164 -10q-56 0 -88 31.5t-32 90.5q0 21 3 42.5t8 44.5l72 337h85l-73 -340q-9 -44 -9 -72q0 -29 14 -45.5t45 -16.5q33 0 66 23t61 72t45 127l54 252h83l-114 -536h-68l9 88h-4q-26 -38 -65 -68t-92 -30zM180 606l1 12q19 19 44.5 45t49 53t38.5 50h79q8 -23 21 -50
t27 -53t25 -45l-1 -12h-51q-34 36 -70 92q-29 -28 -57 -51.5t-53 -40.5h-53z" />
    <glyph glyph-name="udieresis" unicode="&#xfc;" horiz-adv-x="518" 
d="M164 -10q-56 0 -88 31.5t-32 90.5q0 21 3 42.5t8 44.5l72 337h85l-73 -340q-9 -44 -9 -72q0 -29 14 -45.5t45 -16.5q33 0 66 23t61 72t45 127l54 252h83l-114 -536h-68l9 88h-4q-26 -38 -65 -68t-92 -30zM416 631q-18 0 -29 10.5t-11 29.5q0 24 14 42t39 18q38 0 38 -38
q0 -29 -16 -45.5t-35 -16.5zM247 631q-17 0 -28 10.5t-11 29.5q0 24 13.5 42t39.5 18q37 0 37 -38q0 -29 -15.5 -45.5t-35.5 -16.5z" />
    <glyph glyph-name="yacute" unicode="&#xfd;" horiz-adv-x="420" 
d="M-31 -240q-21 0 -35.5 3t-27.5 7l4 70q12 -4 26 -6.5t29 -2.5q37 0 61.5 24.5t47.5 68.5l36 72l-56 540h84l22 -277q4 -42 6 -90.5t1 -80.5h3q6 18 18 45.5t24 55.5t22 47l147 300h89l-318 -631q-37 -71 -77 -108t-106 -37zM214 606l1 12q29 32 59.5 73t51.5 75h97v-9
q-14 -19 -42 -48t-59 -57.5t-54 -45.5h-54z" />
    <glyph glyph-name="thorn" unicode="&#xfe;" horiz-adv-x="520" 
d="M-32 -237l211 997h84l-45 -207q-13 -62 -26 -105h3q31 41 69 69t87 28q60 0 95 -42.5t35 -127.5q0 -67 -16 -135t-47.5 -124.5t-76.5 -91t-104 -34.5q-47 0 -77 25t-44 61h-4q-2 -16 -5 -41t-7 -41l-49 -231h-83zM229 61q39 0 70 30t52 77.5t32.5 102t11.5 104.5
q0 100 -73 100q-34 0 -66 -27.5t-57.5 -72.5t-39.5 -99q-7 -30 -11 -60.5t-4 -56.5q0 -45 20.5 -71.5t64.5 -26.5z" />
    <glyph glyph-name="ydieresis" unicode="&#xff;" horiz-adv-x="420" 
d="M-31 -240q-21 0 -35.5 3t-27.5 7l4 70q12 -4 26 -6.5t29 -2.5q37 0 61.5 24.5t47.5 68.5l36 72l-56 540h84l22 -277q4 -42 6 -90.5t1 -80.5h3q6 18 18 45.5t24 55.5t22 47l147 300h89l-318 -631q-37 -71 -77 -108t-106 -37zM355 631q-18 0 -29 10.5t-11 29.5q0 24 14 42
t39 18q38 0 38 -38q0 -29 -16 -45.5t-35 -16.5zM186 631q-17 0 -28 10.5t-11 29.5q0 24 13.5 42t39.5 18q37 0 37 -38q0 -29 -15.5 -45.5t-35.5 -16.5z" />
    <glyph glyph-name="Amacron" unicode="&#x100;" horiz-adv-x="504" 
d="M-60 0l355 715h97l57 -715h-86l-17 224h-204l-108 -224h-94zM179 301h163l-9 187q-2 33 -4.5 70t-1.5 66h-3q-12 -31 -27.5 -65.5t-33.5 -72.5zM222 788l14 67h259l-15 -67h-258z" />
    <glyph glyph-name="amacron" unicode="&#x101;" horiz-adv-x="515" 
d="M170 -10q-60 0 -95.5 43.5t-35.5 127.5q0 68 17 136t49 124.5t77.5 90.5t102.5 34q46 0 75 -25t43 -63h4l29 78h66l-114 -536h-67l11 91h-4q-32 -43 -71 -72t-87 -29zM197 61q35 0 66.5 27t56 71.5t38.5 96.5q9 36 13 66t4 55q0 43 -21.5 70t-59.5 27q-37 0 -68 -28
t-53.5 -74t-34.5 -101.5t-12 -109.5q0 -100 71 -100zM195 608l14 67h259l-15 -67h-258z" />
    <glyph glyph-name="Abreve" unicode="&#x102;" horiz-adv-x="504" 
d="M-60 0l355 715h97l57 -715h-86l-17 224h-204l-108 -224h-94zM179 301h163l-9 187q-2 33 -4.5 70t-1.5 66h-3q-12 -31 -27.5 -65.5t-33.5 -72.5zM354 787q-53 0 -84 28t-31 79q0 7 0.5 13.5t1.5 13.5h51q0 -33 16 -49t54 -16q39 0 60 16.5t29 48.5h54
q-14 -69 -52.5 -101.5t-98.5 -32.5z" />
    <glyph glyph-name="abreve" unicode="&#x103;" horiz-adv-x="515" 
d="M170 -10q-60 0 -95.5 43.5t-35.5 127.5q0 68 17 136t49 124.5t77.5 90.5t102.5 34q46 0 75 -25t43 -63h4l29 78h66l-114 -536h-67l11 91h-4q-32 -43 -71 -72t-87 -29zM197 61q35 0 66.5 27t56 71.5t38.5 96.5q9 36 13 66t4 55q0 43 -21.5 70t-59.5 27q-37 0 -68 -28
t-53.5 -74t-34.5 -101.5t-12 -109.5q0 -100 71 -100zM327 607q-53 0 -84 28t-31 79q0 7 0.5 13.5t1.5 13.5h51q0 -33 16 -49t54 -16q39 0 60 16.5t29 48.5h54q-14 -69 -52.5 -101.5t-98.5 -32.5z" />
    <glyph glyph-name="Aogonek" unicode="&#x104;" horiz-adv-x="504" 
d="M-60 0l355 715h97l57 -715h-86l-17 224h-204l-108 -224h-94zM179 301h163l-9 187q-2 33 -4.5 70t-1.5 66h-3q-12 -31 -27.5 -65.5t-33.5 -72.5zM350 -220q-37 0 -60 20t-23 58q0 44 27.5 77t74.5 65h58q-34 -29 -61.5 -60.5t-27.5 -68.5q0 -33 33 -33q17 0 39 5l-5 -55
q-12 -4 -26.5 -6t-28.5 -2z" />
    <glyph glyph-name="aogonek" unicode="&#x105;" horiz-adv-x="515" 
d="M170 -10q-60 0 -95.5 43.5t-35.5 127.5q0 68 17 136t49 124.5t77.5 90.5t102.5 34q46 0 75 -25t43 -63h4l29 78h66l-114 -536h-67l11 91h-4q-32 -43 -71 -72t-87 -29zM197 61q35 0 66.5 27t56 71.5t38.5 96.5q9 36 13 66t4 55q0 43 -21.5 70t-59.5 27q-37 0 -68 -28
t-53.5 -74t-34.5 -101.5t-12 -109.5q0 -100 71 -100zM303 -220q-37 0 -60 20t-23 58q0 44 27.5 77t74.5 65h58q-34 -29 -61.5 -60.5t-27.5 -68.5q0 -33 33 -33q17 0 39 5l-5 -55q-12 -4 -26.5 -6t-28.5 -2z" />
    <glyph glyph-name="Cacute" unicode="&#x106;" horiz-adv-x="513" 
d="M278 -10q-104 0 -161.5 67.5t-57.5 189.5q0 63 14 129.5t42.5 128.5t71 111.5t100 78.5t129.5 29q90 0 153 -38l-38 -71q-23 14 -51.5 23.5t-63.5 9.5q-55 0 -98 -25t-74.5 -67.5t-52.5 -94.5t-31.5 -106.5t-10.5 -103.5q0 -89 37.5 -137t108.5 -48q35 0 68 8t67 20v-77
q-35 -13 -70.5 -20t-81.5 -7zM350 786l1 12q29 32 59.5 73t51.5 75h97v-9q-14 -19 -42 -48t-59 -57.5t-54 -45.5h-54z" />
    <glyph glyph-name="cacute" unicode="&#x107;" horiz-adv-x="403" 
d="M213 -10q-79 0 -126 46.5t-47 139.5q0 68 17 133.5t50.5 119t82.5 85.5t112 32q65 0 117 -25l-27 -70q-17 9 -40.5 16t-48.5 7q-41 0 -74 -25.5t-56 -68t-35 -95t-12 -105.5q0 -58 26 -88.5t73 -30.5q29 0 56 8.5t55 22.5v-71q-25 -13 -56 -22t-67 -9zM232 608l1 12
q29 32 59.5 73t51.5 75h97v-9q-14 -19 -42 -48t-59 -57.5t-54 -45.5h-54z" />
    <glyph glyph-name="Ccircumflex" unicode="&#x108;" horiz-adv-x="513" 
d="M278 -10q-104 0 -161.5 67.5t-57.5 189.5q0 63 14 129.5t42.5 128.5t71 111.5t100 78.5t129.5 29q90 0 153 -38l-38 -71q-23 14 -51.5 23.5t-63.5 9.5q-55 0 -98 -25t-74.5 -67.5t-52.5 -94.5t-31.5 -106.5t-10.5 -103.5q0 -89 37.5 -137t108.5 -48q35 0 68 8t67 20v-77
q-35 -13 -70.5 -20t-81.5 -7zM266 779l1 12q19 19 44.5 45t49 53t38.5 50h79q8 -23 21 -50t27 -53t25 -45l-1 -12h-51q-34 36 -70 92q-29 -28 -57 -51.5t-53 -40.5h-53z" />
    <glyph glyph-name="ccircumflex" unicode="&#x109;" horiz-adv-x="403" 
d="M213 -10q-79 0 -126 46.5t-47 139.5q0 68 17 133.5t50.5 119t82.5 85.5t112 32q65 0 117 -25l-27 -70q-17 9 -40.5 16t-48.5 7q-41 0 -74 -25.5t-56 -68t-35 -95t-12 -105.5q0 -58 26 -88.5t73 -30.5q29 0 56 8.5t55 22.5v-71q-25 -13 -56 -22t-67 -9zM147 606l1 12
q19 19 44.5 45t49 53t38.5 50h79q8 -23 21 -50t27 -53t25 -45l-1 -12h-51q-34 36 -70 92q-29 -28 -57 -51.5t-53 -40.5h-53z" />
    <glyph glyph-name="Cdot" unicode="&#x10a;" horiz-adv-x="513" 
d="M278 -10q-104 0 -161.5 67.5t-57.5 189.5q0 63 14 129.5t42.5 128.5t71 111.5t100 78.5t129.5 29q90 0 153 -38l-38 -71q-23 14 -51.5 23.5t-63.5 9.5q-55 0 -98 -25t-74.5 -67.5t-52.5 -94.5t-31.5 -106.5t-10.5 -103.5q0 -89 37.5 -137t108.5 -48q35 0 68 8t67 20v-77
q-35 -13 -70.5 -20t-81.5 -7zM428 800q-20 0 -32 12t-12 33q0 26 15 46t43 20q43 0 43 -43q0 -30 -17 -49t-40 -19z" />
    <glyph glyph-name="cdot" unicode="&#x10b;" horiz-adv-x="403" 
d="M213 -10q-79 0 -126 46.5t-47 139.5q0 68 17 133.5t50.5 119t82.5 85.5t112 32q65 0 117 -25l-27 -70q-17 9 -40.5 16t-48.5 7q-41 0 -74 -25.5t-56 -68t-35 -95t-12 -105.5q0 -58 26 -88.5t73 -30.5q29 0 56 8.5t55 22.5v-71q-25 -13 -56 -22t-67 -9zM308 625
q-20 0 -32 12t-12 33q0 26 15 46t43 20q43 0 43 -43q0 -30 -17 -49t-40 -19z" />
    <glyph glyph-name="Ccaron" unicode="&#x10c;" horiz-adv-x="513" 
d="M278 -10q-104 0 -161.5 67.5t-57.5 189.5q0 63 14 129.5t42.5 128.5t71 111.5t100 78.5t129.5 29q90 0 153 -38l-38 -71q-23 14 -51.5 23.5t-63.5 9.5q-55 0 -98 -25t-74.5 -67.5t-52.5 -94.5t-31.5 -106.5t-10.5 -103.5q0 -89 37.5 -137t108.5 -48q35 0 68 8t67 20v-77
q-35 -13 -70.5 -20t-81.5 -7zM377 779q-7 22 -20 49.5t-27 54t-25 44.5l1 12h50q16 -15 33.5 -39.5t36.5 -52.5q60 57 112 92h52v-12q-16 -16 -42.5 -43t-52 -55.5t-38.5 -49.5h-80z" />
    <glyph glyph-name="ccaron" unicode="&#x10d;" horiz-adv-x="403" 
d="M213 -10q-79 0 -126 46.5t-47 139.5q0 68 17 133.5t50.5 119t82.5 85.5t112 32q65 0 117 -25l-27 -70q-17 9 -40.5 16t-48.5 7q-41 0 -74 -25.5t-56 -68t-35 -95t-12 -105.5q0 -58 26 -88.5t73 -30.5q29 0 56 8.5t55 22.5v-71q-25 -13 -56 -22t-67 -9zM256 606
q-7 22 -20 49.5t-27 54t-25 44.5l1 12h50q16 -15 33.5 -39.5t36.5 -52.5q60 57 112 92h52v-12q-16 -16 -42.5 -43t-52 -55.5t-38.5 -49.5h-80z" />
    <glyph glyph-name="Dcaron" unicode="&#x10e;" horiz-adv-x="593" 
d="M26 0l151 714h150q114 0 177.5 -64t63.5 -194q0 -88 -24 -170t-72.5 -146.5t-121 -102t-169.5 -37.5h-155zM127 76h61q72 0 126 31.5t90.5 86t54.5 122t18 139.5q0 97 -43 140t-117 43h-70zM346 779q-7 22 -20 49.5t-27 54t-25 44.5l1 12h50q16 -15 33.5 -39.5
t36.5 -52.5q60 57 112 92h52v-12q-16 -16 -42.5 -43t-52 -55.5t-38.5 -49.5h-80z" />
    <glyph glyph-name="dcaron" unicode="&#x10f;" horiz-adv-x="569" 
d="M169 -10q-59 0 -94.5 43t-35.5 128q0 67 16.5 134.5t47.5 124t77 91t104 34.5q46 0 76 -24.5t43 -60.5h4q5 31 9.5 59.5t11.5 60.5l38 180h83l-161 -760h-68l9 90h-3q-33 -44 -70.5 -72t-86.5 -28zM198 61q36 0 68 30t56.5 77.5t39 102.5t14.5 106q0 44 -20 70.5
t-64 26.5q-38 0 -69 -29t-52.5 -76t-33 -102t-11.5 -106q0 -100 72 -100zM559 600v12q17 31 36.5 73.5t29.5 74.5h81v-10q-7 -18 -23.5 -45t-36.5 -56t-39 -49h-48z" />
    <glyph glyph-name="Dcroat" unicode="&#x110;" horiz-adv-x="593" 
d="M26 0l67 323h-64l16 73h64l68 318h150q114 0 177.5 -64t63.5 -194q0 -89 -24 -171t-72.5 -146t-121 -101.5t-169.5 -37.5h-155zM127 76h61q74 0 128 33t90 88t53.5 122.5t17.5 135.5q0 97 -43 140t-117 43h-70l-52 -242h131l-16 -73h-131z" />
    <glyph glyph-name="dcroat" unicode="&#x111;" horiz-adv-x="521" 
d="M169 -10q-59 0 -94.5 43.5t-35.5 127.5q0 66 16 134t47 125t76.5 91.5t103.5 34.5q47 0 77.5 -24.5t43.5 -59.5h4q3 20 7 43.5t8 45.5l11 56h-147l13 63h149l18 90h83l-18 -90h67l-13 -63h-68l-129 -607h-68l9 90h-3q-33 -43 -70.5 -71.5t-86.5 -28.5zM198 61q35 0 67 30
t57 77.5t39.5 102.5t14.5 106q0 45 -20.5 71t-64.5 26q-38 0 -68.5 -29t-52 -76t-33 -102t-11.5 -106q0 -100 72 -100z" />
    <glyph glyph-name="Emacron" unicode="&#x112;" horiz-adv-x="460" 
d="M26 0l151 714h324l-16 -76h-239l-47 -227h222l-15 -76h-223l-56 -259h239l-16 -76h-324zM217 780l14 67h259l-15 -67h-258z" />
    <glyph glyph-name="emacron" unicode="&#x113;" horiz-adv-x="456" 
d="M213 -10q-83 0 -128.5 50t-45.5 138q0 70 18 136t51.5 118.5t80.5 83t105 30.5q67 0 102 -31.5t35 -88.5q0 -82 -71 -136.5t-219 -54.5h-13q-2 -12 -3 -25.5t-1 -26.5q0 -59 26 -91t80 -32q34 0 64 9.5t66 27.5v-71q-34 -17 -68 -26.5t-79 -9.5zM140 302h6q89 0 146.5 29
t57.5 89q0 25 -15.5 40.5t-47.5 15.5q-44 0 -85 -47t-62 -127zM175 607l14 67h259l-15 -67h-258z" />
    <glyph glyph-name="Ebreve" unicode="&#x114;" horiz-adv-x="460" 
d="M26 0l151 714h324l-16 -76h-239l-47 -227h222l-15 -76h-223l-56 -259h239l-16 -76h-324zM349 779q-53 0 -84 28t-31 79q0 7 0.5 13.5t1.5 13.5h51q0 -33 16 -49t54 -16q39 0 60 16.5t29 48.5h54q-14 -69 -52.5 -101.5t-98.5 -32.5z" />
    <glyph glyph-name="ebreve" unicode="&#x115;" horiz-adv-x="456" 
d="M213 -10q-83 0 -128.5 50t-45.5 138q0 70 18 136t51.5 118.5t80.5 83t105 30.5q67 0 102 -31.5t35 -88.5q0 -82 -71 -136.5t-219 -54.5h-13q-2 -12 -3 -25.5t-1 -26.5q0 -59 26 -91t80 -32q34 0 64 9.5t66 27.5v-71q-34 -17 -68 -26.5t-79 -9.5zM140 302h6q89 0 146.5 29
t57.5 89q0 25 -15.5 40.5t-47.5 15.5q-44 0 -85 -47t-62 -127zM311 606q-53 0 -84 28t-31 79q0 7 0.5 13.5t1.5 13.5h51q0 -33 16 -49t54 -16q39 0 60 16.5t29 48.5h54q-14 -69 -52.5 -101.5t-98.5 -32.5z" />
    <glyph glyph-name="Edotaccent" unicode="&#x116;" horiz-adv-x="460" 
d="M26 0l151 714h324l-16 -76h-239l-47 -227h222l-15 -76h-223l-56 -259h239l-16 -76h-324zM358 793q-20 0 -32 12t-12 33q0 26 15 46t43 20q43 0 43 -43q0 -30 -17 -49t-40 -19z" />
    <glyph glyph-name="edotaccent" unicode="&#x117;" horiz-adv-x="456" 
d="M213 -10q-83 0 -128.5 50t-45.5 138q0 70 18 136t51.5 118.5t80.5 83t105 30.5q67 0 102 -31.5t35 -88.5q0 -82 -71 -136.5t-219 -54.5h-13q-2 -12 -3 -25.5t-1 -26.5q0 -59 26 -91t80 -32q34 0 64 9.5t66 27.5v-71q-34 -17 -68 -26.5t-79 -9.5zM140 302h6q89 0 146.5 29
t57.5 89q0 25 -15.5 40.5t-47.5 15.5q-44 0 -85 -47t-62 -127zM319 625q-20 0 -32 12t-12 33q0 26 15 46t43 20q43 0 43 -43q0 -30 -17 -49t-40 -19z" />
    <glyph glyph-name="Eogonek" unicode="&#x118;" horiz-adv-x="460" 
d="M26 0l151 714h324l-16 -76h-239l-47 -227h222l-15 -76h-223l-56 -259h239l-16 -76h-324zM244 -220q-37 0 -60 20t-23 58q0 44 27.5 77t74.5 65h58q-34 -29 -61.5 -60.5t-27.5 -68.5q0 -33 33 -33q17 0 39 5l-5 -55q-12 -4 -26.5 -6t-28.5 -2z" />
    <glyph glyph-name="eogonek" unicode="&#x119;" horiz-adv-x="456" 
d="M213 -10q-83 0 -128.5 50t-45.5 138q0 70 18 136t51.5 118.5t80.5 83t105 30.5q67 0 102 -31.5t35 -88.5q0 -82 -71 -136.5t-219 -54.5h-13q-2 -12 -3 -25.5t-1 -26.5q0 -59 26 -91t80 -32q34 0 64 9.5t66 27.5v-71q-12 -6 -24 -11q-41 -34 -70 -69t-29 -69q0 -17 9 -25
t23 -8q10 0 19.5 1t19.5 3l-5 -55q-12 -4 -26.5 -5.5t-28.5 -1.5q-37 0 -59.5 20t-22.5 57q0 40 22 70t60 59q-17 -2 -35 -2zM140 302h6q89 0 146.5 29t57.5 89q0 25 -15.5 40.5t-47.5 15.5q-44 0 -85 -47t-62 -127z" />
    <glyph glyph-name="Ecaron" unicode="&#x11a;" horiz-adv-x="460" 
d="M26 0l151 714h324l-16 -76h-239l-47 -227h222l-15 -76h-223l-56 -259h239l-16 -76h-324zM305 779q-7 22 -20 49.5t-27 54t-25 44.5l1 12h50q16 -15 33.5 -39.5t36.5 -52.5q60 57 112 92h52v-12q-16 -16 -42.5 -43t-52 -55.5t-38.5 -49.5h-80z" />
    <glyph glyph-name="ecaron" unicode="&#x11b;" horiz-adv-x="456" 
d="M213 -10q-83 0 -128.5 50t-45.5 138q0 70 18 136t51.5 118.5t80.5 83t105 30.5q67 0 102 -31.5t35 -88.5q0 -82 -71 -136.5t-219 -54.5h-13q-2 -12 -3 -25.5t-1 -26.5q0 -59 26 -91t80 -32q34 0 64 9.5t66 27.5v-71q-34 -17 -68 -26.5t-79 -9.5zM140 302h6q89 0 146.5 29
t57.5 89q0 25 -15.5 40.5t-47.5 15.5q-44 0 -85 -47t-62 -127zM263 606q-7 22 -20 49.5t-27 54t-25 44.5l1 12h50q16 -15 33.5 -39.5t36.5 -52.5q60 57 112 92h52v-12q-16 -16 -42.5 -43t-52 -55.5t-38.5 -49.5h-80z" />
    <glyph glyph-name="Gcircumflex" unicode="&#x11c;" horiz-adv-x="610" 
d="M300 -10q-116 0 -178.5 66t-62.5 188q0 100 26.5 187.5t75 153t115 102.5t147.5 37q58 0 103 -11.5t83 -31.5l-36 -74q-35 18 -72 29.5t-81 11.5q-59 0 -108.5 -31.5t-86 -87t-56.5 -127.5t-20 -153q0 -83 38.5 -133t121.5 -50q31 0 58.5 4.5t48.5 11.5l47 219h-121
l16 75h207l-76 -351q-43 -16 -89.5 -25.5t-99.5 -9.5zM288 779l1 12q19 19 44.5 45t49 53t38.5 50h79q8 -23 21 -50t27 -53t25 -45l-1 -12h-51q-34 36 -70 92q-29 -28 -57 -51.5t-53 -40.5h-53z" />
    <glyph glyph-name="gcircumflex" unicode="&#x11d;" horiz-adv-x="522" 
d="M151 -240q-43 0 -80.5 9.5t-62.5 23.5v79q23 -16 63 -28.5t79 -12.5q58 0 94.5 31.5t52.5 100.5l9 37q5 24 12.5 52t9.5 36h-3q-31 -43 -69 -70.5t-87 -27.5q-59 0 -94.5 43t-35.5 126q0 67 16.5 135t48 125t77.5 92t105 35q47 0 75.5 -25t42.5 -63h4l28 78h67l-121 -568
q-24 -112 -81.5 -160t-149.5 -48zM198 61q35 0 67 30t56.5 78t39 103.5t14.5 106.5q0 43 -19.5 69t-62.5 26q-39 0 -69.5 -29t-52.5 -76t-33.5 -102t-11.5 -106q0 -100 72 -100zM169 607l1 12q19 19 44.5 45t49 53t38.5 50h79q8 -23 21 -50t27 -53t25 -45l-1 -12h-51
q-34 36 -70 92q-29 -28 -57 -51.5t-53 -40.5h-53z" />
    <glyph glyph-name="Gbreve" unicode="&#x11e;" horiz-adv-x="610" 
d="M300 -10q-116 0 -178.5 66t-62.5 188q0 100 26.5 187.5t75 153t115 102.5t147.5 37q58 0 103 -11.5t83 -31.5l-36 -74q-35 18 -72 29.5t-81 11.5q-59 0 -108.5 -31.5t-86 -87t-56.5 -127.5t-20 -153q0 -83 38.5 -133t121.5 -50q31 0 58.5 4.5t48.5 11.5l47 219h-121
l16 75h207l-76 -351q-43 -16 -89.5 -25.5t-99.5 -9.5zM439 779q-53 0 -84 28t-31 79q0 7 0.5 13.5t1.5 13.5h51q0 -33 16 -49t54 -16q39 0 60 16.5t29 48.5h54q-14 -69 -52.5 -101.5t-98.5 -32.5z" />
    <glyph glyph-name="gbreve" unicode="&#x11f;" horiz-adv-x="522" 
d="M151 -240q-43 0 -80.5 9.5t-62.5 23.5v79q23 -16 63 -28.5t79 -12.5q58 0 94.5 31.5t52.5 100.5l9 37q5 24 12.5 52t9.5 36h-3q-31 -43 -69 -70.5t-87 -27.5q-59 0 -94.5 43t-35.5 126q0 67 16.5 135t48 125t77.5 92t105 35q47 0 75.5 -25t42.5 -63h4l28 78h67l-121 -568
q-24 -112 -81.5 -160t-149.5 -48zM198 61q35 0 67 30t56.5 78t39 103.5t14.5 106.5q0 43 -19.5 69t-62.5 26q-39 0 -69.5 -29t-52.5 -76t-33.5 -102t-11.5 -106q0 -100 72 -100zM317 607q-53 0 -84 28t-31 79q0 7 0.5 13.5t1.5 13.5h51q0 -33 16 -49t54 -16q39 0 60 16.5
t29 48.5h54q-14 -69 -52.5 -101.5t-98.5 -32.5z" />
    <glyph glyph-name="Gdot" unicode="&#x120;" horiz-adv-x="610" 
d="M300 -10q-116 0 -178.5 66t-62.5 188q0 100 26.5 187.5t75 153t115 102.5t147.5 37q58 0 103 -11.5t83 -31.5l-36 -74q-35 18 -72 29.5t-81 11.5q-59 0 -108.5 -31.5t-86 -87t-56.5 -127.5t-20 -153q0 -83 38.5 -133t121.5 -50q31 0 58.5 4.5t48.5 11.5l47 219h-121
l16 75h207l-76 -351q-43 -16 -89.5 -25.5t-99.5 -9.5zM449 798q-20 0 -32 12t-12 33q0 26 15 46t43 20q43 0 43 -43q0 -30 -17 -49t-40 -19z" />
    <glyph glyph-name="gdot" unicode="&#x121;" horiz-adv-x="522" 
d="M151 -240q-43 0 -80.5 9.5t-62.5 23.5v79q23 -16 63 -28.5t79 -12.5q58 0 94.5 31.5t52.5 100.5l9 37q5 24 12.5 52t9.5 36h-3q-31 -43 -69 -70.5t-87 -27.5q-59 0 -94.5 43t-35.5 126q0 67 16.5 135t48 125t77.5 92t105 35q47 0 75.5 -25t42.5 -63h4l28 78h67l-121 -568
q-24 -112 -81.5 -160t-149.5 -48zM198 61q35 0 67 30t56.5 78t39 103.5t14.5 106.5q0 43 -19.5 69t-62.5 26q-39 0 -69.5 -29t-52.5 -76t-33.5 -102t-11.5 -106q0 -100 72 -100zM327 625q-20 0 -32 12t-12 33q0 26 15 46t43 20q43 0 43 -43q0 -30 -17 -49t-40 -19z" />
    <glyph glyph-name="uni0122" unicode="&#x122;" horiz-adv-x="610" 
d="M300 -10q-116 0 -178.5 66t-62.5 188q0 100 26.5 187.5t75 153t115 102.5t147.5 37q58 0 103 -11.5t83 -31.5l-36 -74q-35 18 -72 29.5t-81 11.5q-59 0 -108.5 -31.5t-86 -87t-56.5 -127.5t-20 -153q0 -83 38.5 -133t121.5 -50q31 0 58.5 4.5t48.5 11.5l47 219h-121
l16 75h207l-76 -351q-43 -16 -89.5 -25.5t-99.5 -9.5zM174 -221v13q10 16 24 42.5t27 55t20 49.5h80v-10q-6 -18 -23 -45.5t-38.5 -56t-41.5 -48.5h-48z" />
    <glyph glyph-name="uni0123" unicode="&#x123;" horiz-adv-x="522" 
d="M151 -240q-43 0 -80.5 9.5t-62.5 23.5v79q23 -16 63 -28.5t79 -12.5q58 0 94.5 31.5t52.5 100.5l9 37q5 24 12.5 52t9.5 36h-3q-31 -43 -69 -70.5t-87 -27.5q-59 0 -94.5 43t-35.5 126q0 67 16.5 135t48 125t77.5 92t105 35q47 0 75.5 -25t42.5 -63h4l28 78h67l-121 -568
q-24 -112 -81.5 -160t-149.5 -48zM198 61q35 0 67 30t56.5 78t39 103.5t14.5 106.5q0 43 -19.5 69t-62.5 26q-39 0 -69.5 -29t-52.5 -76t-33.5 -102t-11.5 -106q0 -100 72 -100zM272 606v10q7 18 24.5 45.5t38.5 56t41 48.5h48v-12q-11 -16 -24.5 -43t-26.5 -56t-20 -49h-81
z" />
    <glyph glyph-name="Hcircumflex" unicode="&#x124;" horiz-adv-x="608" 
d="M27 0l151 714h85l-64 -303h270l64 303h85l-151 -714h-85l70 334h-269l-71 -334h-85zM258 779l1 12q19 19 44.5 45t49 53t38.5 50h79q8 -23 21 -50t27 -53t25 -45l-1 -12h-51q-34 36 -70 92q-29 -28 -57 -51.5t-53 -40.5h-53z" />
    <glyph glyph-name="hcircumflex" unicode="&#x125;" horiz-adv-x="517" 
d="M18 0l161 760h84l-43 -198q-6 -27 -14 -56.5t-15 -57.5h4q25 38 63.5 67.5t93.5 29.5q56 0 88 -31.5t32 -92.5q0 -20 -4 -43.5t-9 -47.5l-71 -330h-84l71 333q5 24 8 43.5t3 35.5q0 28 -14.5 44.5t-45.5 16.5q-32 0 -65 -22t-61 -69.5t-44 -126.5l-54 -255h-84zM83 830
l1 12q19 19 44.5 45t49 53t38.5 50h79q8 -23 21 -50t27 -53t25 -45l-1 -12h-51q-34 36 -70 92q-29 -28 -57 -51.5t-53 -40.5h-53z" />
    <glyph glyph-name="Hbar" unicode="&#x126;" horiz-adv-x="607" 
d="M26 0l111 525h-82l15 69h81l26 120h86l-26 -120h269l26 120h87l-25 -120h80l-14 -69h-81l-111 -525h-87l71 334h-270l-70 -334h-86zM198 410h270l24 115h-270z" />
    <glyph glyph-name="hbar" unicode="&#x127;" horiz-adv-x="518" 
d="M18 0l129 607h-70l15 63h68l19 90h84l-20 -90h141l-14 -63h-140q-14 -62 -24.5 -102t-16.5 -65h4q25 38 64 68t93 30q56 0 88 -32t32 -93q0 -20 -4 -43t-9 -48l-69 -322h-84l70 324q4 24 7.5 43.5t3.5 35.5q0 63 -61 63q-32 0 -65 -22t-61 -70.5t-44 -126.5l-52 -247h-84
z" />
    <glyph glyph-name="Itilde" unicode="&#x128;" horiz-adv-x="301" 
d="M-31 0l10 48l82 18l124 582l-75 18l10 48h243l-10 -48l-83 -18l-124 -582l75 -18l-9 -48h-243zM99 788q14 61 40.5 94t67.5 33q28 0 51 -14.5t41.5 -28.5t35.5 -14q20 0 31 13t21 45h52q-15 -65 -42.5 -96t-65.5 -31q-26 0 -48 14t-41.5 28.5t-39.5 14.5q-19 0 -31 -14.5
t-21 -43.5h-51z" />
    <glyph glyph-name="itilde" unicode="&#x129;" horiz-adv-x="234" 
d="M17 0l114 536h84l-114 -536h-84zM29 607q14 61 40.5 94t67.5 33q28 0 51 -14.5t41.5 -28.5t35.5 -14q20 0 31 13t21 45h52q-15 -65 -42.5 -96t-65.5 -31q-26 0 -48 14t-41.5 28.5t-39.5 14.5q-19 0 -31 -14.5t-21 -43.5h-51z" />
    <glyph glyph-name="Imacron" unicode="&#x12a;" horiz-adv-x="301" 
d="M-31 0l10 48l82 18l124 582l-75 18l10 48h243l-10 -48l-83 -18l-124 -582l75 -18l-9 -48h-243zM124 788l14 67h259l-15 -67h-258z" />
    <glyph glyph-name="imacron" unicode="&#x12b;" horiz-adv-x="234" 
d="M17 0l114 536h84l-114 -536h-84zM54 607l14 67h259l-15 -67h-258z" />
    <glyph glyph-name="Ibreve" unicode="&#x12c;" horiz-adv-x="301" 
d="M-31 0l10 48l82 18l124 582l-75 18l10 48h243l-10 -48l-83 -18l-124 -582l75 -18l-9 -48h-243zM256 787q-53 0 -84 28t-31 79q0 7 0.5 13.5t1.5 13.5h51q0 -33 16 -49t54 -16q39 0 60 16.5t29 48.5h54q-14 -69 -52.5 -101.5t-98.5 -32.5z" />
    <glyph glyph-name="ibreve" unicode="&#x12d;" horiz-adv-x="234" 
d="M17 0l114 536h84l-114 -536h-84zM187 606q-53 0 -84 28t-31 79q0 7 0.5 13.5t1.5 13.5h51q0 -33 16 -49t54 -16q39 0 60 16.5t29 48.5h54q-14 -69 -52.5 -101.5t-98.5 -32.5z" />
    <glyph glyph-name="Iogonek" unicode="&#x12e;" horiz-adv-x="301" 
d="M-31 0l10 48l82 18l124 582l-75 18l10 48h243l-10 -48l-83 -18l-124 -582l75 -18l-9 -48h-243zM81 -220q-37 0 -60 20t-23 58q0 44 27.5 77t74.5 65h58q-34 -29 -61.5 -60.5t-27.5 -68.5q0 -33 33 -33q17 0 39 5l-5 -55q-12 -4 -26.5 -6t-28.5 -2z" />
    <glyph glyph-name="iogonek" unicode="&#x12f;" horiz-adv-x="234" 
d="M199 625q-20 0 -32.5 11.5t-12.5 32.5q0 26 15 46.5t44 20.5q42 0 42 -42q0 -31 -16.5 -50t-39.5 -19zM17 0l114 536h84l-114 -536h-84zM31 -220q-37 0 -60 20t-23 58q0 44 27.5 77t74.5 65h58q-34 -29 -61.5 -60.5t-27.5 -68.5q0 -33 33 -33q17 0 39 5l-5 -55
q-12 -4 -26.5 -6t-28.5 -2z" />
    <glyph glyph-name="Idotaccent" unicode="&#x130;" horiz-adv-x="301" 
d="M-31 0l10 48l82 18l124 582l-75 18l10 48h243l-10 -48l-83 -18l-124 -582l75 -18l-9 -48h-243zM264 806q-20 0 -32 12t-12 33q0 26 15 46t43 20q43 0 43 -43q0 -30 -17 -49t-40 -19z" />
    <glyph glyph-name="IJ" unicode="&#x132;" horiz-adv-x="550" 
d="M-31 0l10 48l82 18l124 582l-75 18l10 48h243l-10 -48l-83 -18l-124 -582l75 -18l-9 -48h-243zM223 -191q-23 0 -42 3.5t-31 8.5l9 75q14 -4 29.5 -7t32.5 -3q84 0 110 120l150 708h86l-152 -720q-21 -98 -70 -141.5t-122 -43.5z" />
    <glyph glyph-name="ij" unicode="&#x133;" horiz-adv-x="468" 
d="M199 625q-20 0 -32.5 11.5t-12.5 32.5q0 26 15 46.5t44 20.5q42 0 42 -42q0 -31 -16.5 -50t-39.5 -19zM17 0l114 536h84l-114 -536h-84zM432 625q-20 0 -31.5 11.5t-11.5 32.5q0 26 14.5 46.5t43.5 20.5q42 0 42 -42q0 -31 -17 -50t-40 -19zM165 -240q-35 0 -58 9v72
q11 -4 24.5 -6.5t27.5 -2.5q31 0 50 25t31 83l126 596h83l-128 -603q-11 -53 -29 -91.5t-48 -60t-79 -21.5z" />
    <glyph glyph-name="Jcircumflex" unicode="&#x134;" horiz-adv-x="247" 
d="M-80 -191q-23 0 -42 3.5t-31 8.5l9 75q14 -4 29.5 -7t32.5 -3q84 0 110 120l150 708h86l-152 -720q-21 -98 -70 -141.5t-122 -43.5zM80 779l1 12q19 19 44.5 45t49 53t38.5 50h79q8 -23 21 -50t27 -53t25 -45l-1 -12h-51q-34 36 -70 92q-29 -28 -57 -51.5t-53 -40.5h-53z
" />
    <glyph glyph-name="jcircumflex" unicode="&#x135;" horiz-adv-x="234" 
d="M-69 -240q-35 0 -58 9v72q11 -4 24.5 -6.5t27.5 -2.5q31 0 50 25t31 83l126 596h83l-128 -603q-11 -53 -29 -91.5t-48 -60t-79 -21.5zM38 606l1 12q19 19 44.5 45t49 53t38.5 50h79q8 -23 21 -50t27 -53t25 -45l-1 -12h-51q-34 36 -70 92q-29 -28 -57 -51.5t-53 -40.5
h-53z" />
    <glyph glyph-name="uni0136" unicode="&#x136;" horiz-adv-x="504" 
d="M26 0l151 714h86l-75 -350l60 73l242 277h100l-278 -319l137 -395h-94l-112 339l-72 -59l-59 -280h-86zM107 -221v13q10 16 24 42.5t27 55t20 49.5h80v-10q-6 -18 -23 -45.5t-38.5 -56t-41.5 -48.5h-48z" />
    <glyph glyph-name="uni0137" unicode="&#x137;" horiz-adv-x="446" 
d="M17 0l161 760h85l-70 -326q-13 -58 -23 -95.5t-16 -58.5h2l228 256h97l-205 -225l112 -311h-92l-87 252l-68 -60l-39 -192h-85zM81 -221v13q10 16 24 42.5t27 55t20 49.5h80v-10q-6 -18 -23 -45.5t-38.5 -56t-41.5 -48.5h-48z" />
    <glyph glyph-name="kgreenlandic" unicode="&#x138;" horiz-adv-x="446" 
d="M17 0l114 536h84l-30 -138q-7 -32 -15.5 -62.5t-15.5 -55.5h2l228 256h97l-205 -225l112 -311h-92l-87 252l-68 -60l-39 -192h-85z" />
    <glyph glyph-name="Lacute" unicode="&#x139;" horiz-adv-x="426" 
d="M26 0l151 714h86l-136 -637h238l-16 -77h-323zM215 786l1 12q29 32 59.5 73t51.5 75h97v-9q-14 -19 -42 -48t-59 -57.5t-54 -45.5h-54z" />
    <glyph glyph-name="lacute" unicode="&#x13a;" horiz-adv-x="233" 
d="M17 0l162 760h84l-162 -760h-84zM178 832l1 12q29 32 59.5 73t51.5 75h97v-9q-14 -19 -42 -48t-59 -57.5t-54 -45.5h-54z" />
    <glyph glyph-name="uni013B" unicode="&#x13b;" horiz-adv-x="426" 
d="M26 0l151 714h86l-136 -637h238l-16 -77h-323zM77 -221v13q10 16 24 42.5t27 55t20 49.5h80v-10q-6 -18 -23 -45.5t-38.5 -56t-41.5 -48.5h-48z" />
    <glyph glyph-name="uni013C" unicode="&#x13c;" horiz-adv-x="233" 
d="M17 0l162 760h84l-162 -760h-84zM-44 -221v13q10 16 24 42.5t27 55t20 49.5h80v-10q-6 -18 -23 -45.5t-38.5 -56t-41.5 -48.5h-48z" />
    <glyph glyph-name="Lcaron" unicode="&#x13d;" horiz-adv-x="426" 
d="M26 0l151 714h86l-136 -637h238l-16 -77h-323zM326 552v12q17 31 36.5 73.5t29.5 74.5h81v-10q-7 -18 -23.5 -45t-36.5 -56t-39 -49h-48z" />
    <glyph glyph-name="lcaron" unicode="&#x13e;" horiz-adv-x="281" 
d="M17 0l162 760h84l-162 -760h-84zM271 600v12q17 31 36.5 73.5t29.5 74.5h81v-10q-7 -18 -23.5 -45t-36.5 -56t-39 -49h-48z" />
    <glyph glyph-name="Ldot" unicode="&#x13f;" horiz-adv-x="426" 
d="M26 0l151 714h86l-136 -637h238l-16 -77h-323zM339 303q-20 0 -32 12t-12 33q0 26 15 46t43 20q43 0 43 -43q0 -30 -17 -49t-40 -19z" />
    <glyph glyph-name="ldot" unicode="&#x140;" horiz-adv-x="293" 
d="M17 0l162 760h84l-162 -760h-84zM276 298q-20 0 -32 12t-12 33q0 26 15 46t43 20q43 0 43 -43q0 -30 -17 -49t-40 -19z" />
    <glyph glyph-name="Lslash" unicode="&#x141;" horiz-adv-x="428" 
d="M28 0l54 254l-53 -31l-31 56l102 60l79 375h86l-67 -315l105 60l32 -54l-155 -91l-50 -237h238l-16 -77h-324z" />
    <glyph glyph-name="lslash" unicode="&#x142;" horiz-adv-x="243" 
d="M20 0l64 298l-57 -33l-27 54l100 60l82 381h84l-70 -329l62 36l27 -54l-106 -62l-75 -351h-84z" />
    <glyph glyph-name="Nacute" unicode="&#x143;" horiz-adv-x="636" 
d="M25 0l151 714h95l173 -582h3q6 42 16 95.5t19 96.5l83 390h82l-151 -714h-94l-175 587h-3q-3 -27 -9.5 -64t-13.5 -75t-14 -68l-80 -380h-82zM376 786l1 12q29 32 59.5 73t51.5 75h97v-9q-14 -19 -42 -48t-59 -57.5t-54 -45.5h-54z" />
    <glyph glyph-name="nacute" unicode="&#x144;" horiz-adv-x="517" 
d="M15 -2l114 540h73l-11 -89h1q26 37 65 68t94 31q56 0 89.5 -31.5t33.5 -91.5q0 -23 -4 -47.5t-9 -45.5l-71 -334h-88l71 338q5 22 8.5 41.5t3.5 35.5q0 58 -59 58q-49 0 -97 -52t-72 -168l-54 -253h-88zM277 606l1 12q29 32 59.5 73t51.5 75h97v-9q-14 -19 -42 -48
t-59 -57.5t-54 -45.5h-54z" />
    <glyph glyph-name="uni0145" unicode="&#x145;" horiz-adv-x="636" 
d="M25 0l151 714h95l173 -582h3q6 42 16 95.5t19 96.5l83 390h82l-151 -714h-94l-175 587h-3q-3 -27 -9.5 -64t-13.5 -75t-14 -68l-80 -380h-82zM157 -221v13q10 16 24 42.5t27 55t20 49.5h80v-10q-6 -18 -23 -45.5t-38.5 -56t-41.5 -48.5h-48z" />
    <glyph glyph-name="uni0146" unicode="&#x146;" horiz-adv-x="517" 
d="M15 -2l114 540h73l-11 -89h1q26 37 65 68t94 31q56 0 89.5 -31.5t33.5 -91.5q0 -23 -4 -47.5t-9 -45.5l-71 -334h-88l71 338q5 22 8.5 41.5t3.5 35.5q0 58 -59 58q-49 0 -97 -52t-72 -168l-54 -253h-88zM100 -221v13q10 16 24 42.5t27 55t20 49.5h80v-10
q-6 -18 -23 -45.5t-38.5 -56t-41.5 -48.5h-48z" />
    <glyph glyph-name="Ncaron" unicode="&#x147;" horiz-adv-x="636" 
d="M25 0l151 714h95l173 -582h3q6 42 16 95.5t19 96.5l83 390h82l-151 -714h-94l-175 587h-3q-3 -27 -9.5 -64t-13.5 -75t-14 -68l-80 -380h-82zM380 779q-7 22 -20 49.5t-27 54t-25 44.5l1 12h50q16 -15 33.5 -39.5t36.5 -52.5q60 57 112 92h52v-12q-16 -16 -42.5 -43
t-52 -55.5t-38.5 -49.5h-80z" />
    <glyph glyph-name="ncaron" unicode="&#x148;" horiz-adv-x="517" 
d="M15 -2l114 540h73l-11 -89h1q26 37 65 68t94 31q56 0 89.5 -31.5t33.5 -91.5q0 -23 -4 -47.5t-9 -45.5l-71 -334h-88l71 338q5 22 8.5 41.5t3.5 35.5q0 58 -59 58q-49 0 -97 -52t-72 -168l-54 -253h-88zM284 606q-7 22 -20 49.5t-27 54t-25 44.5l1 12h50
q16 -15 33.5 -39.5t36.5 -52.5q60 57 112 92h52v-12q-16 -16 -42.5 -43t-52 -55.5t-38.5 -49.5h-80z" />
    <glyph glyph-name="napostrophe" unicode="&#x149;" horiz-adv-x="583" 
d="M80 -2l114 540h73l-11 -89h1q26 37 65 68t94 31q56 0 89.5 -31.5t33.5 -91.5q0 -23 -4 -47.5t-9 -45.5l-71 -334h-88l71 338q5 22 8.5 41.5t3.5 35.5q0 58 -59 58q-49 0 -97 -52t-72 -168l-54 -253h-88zM28 469q27 60 53.5 125t43.5 120h90l4 -11q-24 -55 -57.5 -117
t-68.5 -117h-65z" />
    <glyph glyph-name="Eng" unicode="&#x14a;" horiz-adv-x="636" 
d="M303 -190q-21 0 -40.5 3.5t-30.5 9.5l8 75q28 -11 64 -11q39 0 67 26t39 84l-182 593h-4q-4 -35 -12 -83t-18 -95l-87 -412h-82l151 714h96l173 -572h3q6 37 14 83.5t18 90.5l84 398h83l-150 -711q-21 -97 -68 -145t-126 -48z" />
    <glyph glyph-name="eng" unicode="&#x14b;" horiz-adv-x="517" 
d="M217 -240q-17 0 -31.5 2.5t-26.5 6.5v72q12 -4 25.5 -6.5t27.5 -2.5q31 0 49 25t31 84l83 394q5 23 8.5 42.5t3.5 35.5q0 28 -14.5 44t-46.5 16q-49 0 -97.5 -51.5t-73.5 -167.5l-53 -254h-85l114 536h69l-11 -89h5q26 37 64.5 68t92.5 31t87.5 -30t33.5 -91
q0 -23 -4 -46l-8 -46l-86 -401q-18 -86 -52 -129t-105 -43z" />
    <glyph glyph-name="Omacron" unicode="&#x14c;" horiz-adv-x="638" 
d="M283 -10q-109 0 -167 66t-58 186q0 88 22.5 174t65.5 156t105.5 111.5t142.5 41.5q106 0 162.5 -66t56.5 -186q0 -68 -13 -136.5t-39 -131t-65.5 -111t-92.5 -76.5t-120 -28zM288 67q56 0 100 37t74 97t45.5 131.5t15.5 141.5q0 85 -35.5 129.5t-99.5 44.5
q-46 0 -84 -24.5t-67 -66.5t-48.5 -94.5t-29.5 -109t-10 -110.5q0 -86 36.5 -131t102.5 -45zM290 780l14 67h259l-15 -67h-258z" />
    <glyph glyph-name="omacron" unicode="&#x14d;" horiz-adv-x="506" 
d="M213 -9q-81 0 -127 50.5t-46 139.5q0 58 15 121t46.5 118t79 89.5t113.5 34.5q81 0 127 -51t46 -140q0 -61 -16 -125t-47.5 -117.5t-79 -86.5t-111.5 -33zM219 62q35 0 64.5 24t51.5 65.5t34 95.5t12 113q0 44 -20.5 78.5t-69.5 34.5q-40 0 -71 -26.5t-52 -70.5
t-32 -95.5t-11 -101.5q0 -56 24 -86.5t70 -30.5zM178 607l14 67h259l-15 -67h-258z" />
    <glyph glyph-name="Obreve" unicode="&#x14e;" horiz-adv-x="638" 
d="M283 -10q-109 0 -167 66t-58 186q0 88 22.5 174t65.5 156t105.5 111.5t142.5 41.5q106 0 162.5 -66t56.5 -186q0 -68 -13 -136.5t-39 -131t-65.5 -111t-92.5 -76.5t-120 -28zM288 67q56 0 100 37t74 97t45.5 131.5t15.5 141.5q0 85 -35.5 129.5t-99.5 44.5
q-46 0 -84 -24.5t-67 -66.5t-48.5 -94.5t-29.5 -109t-10 -110.5q0 -86 36.5 -131t102.5 -45zM423 779q-53 0 -84 28t-31 79q0 7 0.5 13.5t1.5 13.5h51q0 -33 16 -49t54 -16q39 0 60 16.5t29 48.5h54q-14 -69 -52.5 -101.5t-98.5 -32.5z" />
    <glyph glyph-name="obreve" unicode="&#x14f;" horiz-adv-x="506" 
d="M213 -9q-81 0 -127 50.5t-46 139.5q0 58 15 121t46.5 118t79 89.5t113.5 34.5q81 0 127 -51t46 -140q0 -61 -16 -125t-47.5 -117.5t-79 -86.5t-111.5 -33zM219 62q35 0 64.5 24t51.5 65.5t34 95.5t12 113q0 44 -20.5 78.5t-69.5 34.5q-40 0 -71 -26.5t-52 -70.5
t-32 -95.5t-11 -101.5q0 -56 24 -86.5t70 -30.5zM313 606q-53 0 -84 28t-31 79q0 7 0.5 13.5t1.5 13.5h51q0 -33 16 -49t54 -16q39 0 60 16.5t29 48.5h54q-14 -69 -52.5 -101.5t-98.5 -32.5z" />
    <glyph glyph-name="Ohungarumlaut" unicode="&#x150;" horiz-adv-x="638" 
d="M283 -10q-109 0 -167 66t-58 186q0 88 22.5 174t65.5 156t105.5 111.5t142.5 41.5q106 0 162.5 -66t56.5 -186q0 -68 -13 -136.5t-39 -131t-65.5 -111t-92.5 -76.5t-120 -28zM288 67q56 0 100 37t74 97t45.5 131.5t15.5 141.5q0 85 -35.5 129.5t-99.5 44.5
q-46 0 -84 -24.5t-67 -66.5t-48.5 -94.5t-29.5 -109t-10 -110.5q0 -86 36.5 -131t102.5 -45zM465 779l1 12q30 34 60.5 75t49.5 73h88l-1 -9q-13 -19 -40 -47.5t-58 -57t-56 -46.5h-44zM304 779l1 12q29 34 59.5 75t49.5 73h88v-9q-14 -19 -41 -47.5t-58 -57t-56 -46.5h-43z
" />
    <glyph glyph-name="ohungarumlaut" unicode="&#x151;" horiz-adv-x="506" 
d="M213 -9q-81 0 -127 50.5t-46 139.5q0 58 15 121t46.5 118t79 89.5t113.5 34.5q81 0 127 -51t46 -140q0 -61 -16 -125t-47.5 -117.5t-79 -86.5t-111.5 -33zM219 62q35 0 64.5 24t51.5 65.5t34 95.5t12 113q0 44 -20.5 78.5t-69.5 34.5q-40 0 -71 -26.5t-52 -70.5
t-32 -95.5t-11 -101.5q0 -56 24 -86.5t70 -30.5zM358 606l1 12q30 34 60.5 75t49.5 73h88l-1 -9q-13 -19 -40 -47.5t-58 -57t-56 -46.5h-44zM197 606l1 12q29 34 59.5 75t49.5 73h88v-9q-14 -19 -41 -47.5t-58 -57t-56 -46.5h-43z" />
    <glyph glyph-name="OE" unicode="&#x152;" horiz-adv-x="757" 
d="M283 -8q-109 0 -167 67t-58 182q0 68 13.5 137t40.5 131t67.5 110t94 76t119.5 28q63 0 102 -9h304l-15 -76h-240l-48 -227h223l-15 -76h-224l-55 -259h240l-17 -76h-292q-32 -8 -73 -8zM292 69q28 0 47 6l119 563q-14 4 -31 6t-39 2q-57 0 -101 -35t-75 -93.5
t-47 -129.5t-16 -143q0 -85 36.5 -130.5t106.5 -45.5z" />
    <glyph glyph-name="oe" unicode="&#x153;" horiz-adv-x="780" 
d="M208 -9q-77 0 -122.5 50.5t-45.5 140.5q0 44 9.5 94t29 97.5t50 86t72 61.5t95.5 23q63 0 98 -29.5t49 -79.5q34 53 80.5 82t99.5 29q59 0 96 -29.5t37 -90.5q0 -82 -70 -136.5t-217 -54.5h-17q-3 -25 -3 -52q0 -59 26 -91t80 -32q34 0 64.5 10t65.5 27v-71
q-35 -18 -71 -27t-76 -9q-119 0 -154 107q-29 -49 -73.5 -77.5t-102.5 -28.5zM463 302h8q90 0 146.5 29t56.5 91q0 23 -14 38.5t-42 15.5q-51 0 -93.5 -48.5t-61.5 -125.5zM216 62q40 0 71 26t52 69t32 96t11 108q0 53 -22.5 82.5t-68.5 29.5q-39 0 -70 -26t-52.5 -69
t-32.5 -94.5t-11 -102.5q0 -59 23.5 -89t67.5 -30z" />
    <glyph glyph-name="Racute" unicode="&#x154;" horiz-adv-x="516" 
d="M26 0l151 714h139q99 0 149 -44t50 -127q0 -82 -40 -143.5t-126 -84.5l98 -315h-94l-84 296h-95l-62 -296h-86zM190 370h65q59 0 97 22t56 59.5t18 83.5q0 55 -30 79.5t-89 24.5h-60zM312 786l1 12q29 32 59.5 73t51.5 75h97v-9q-14 -19 -42 -48t-59 -57.5t-54 -45.5h-54
z" />
    <glyph glyph-name="racute" unicode="&#x155;" horiz-adv-x="353" 
d="M18 0l113 536h68l-11 -95h4q28 44 62.5 74.5t84.5 30.5q13 0 26 -1.5t25 -5.5l-21 -80q-21 7 -45 7q-44 0 -78 -31.5t-57 -79.5t-33 -97l-54 -258h-84zM212 606l1 12q29 32 59.5 73t51.5 75h97v-9q-14 -19 -42 -48t-59 -57.5t-54 -45.5h-54z" />
    <glyph glyph-name="uni0156" unicode="&#x156;" horiz-adv-x="516" 
d="M26 0l151 714h139q99 0 149 -44t50 -127q0 -82 -40 -143.5t-126 -84.5l98 -315h-94l-84 296h-95l-62 -296h-86zM190 370h65q59 0 97 22t56 59.5t18 83.5q0 55 -30 79.5t-89 24.5h-60zM110 -221v13q10 16 24 42.5t27 55t20 49.5h80v-10q-6 -18 -23 -45.5t-38.5 -56
t-41.5 -48.5h-48z" />
    <glyph glyph-name="uni0157" unicode="&#x157;" horiz-adv-x="353" 
d="M18 0l113 536h68l-11 -95h4q28 44 62.5 74.5t84.5 30.5q13 0 26 -1.5t25 -5.5l-21 -80q-21 7 -45 7q-44 0 -78 -31.5t-57 -79.5t-33 -97l-54 -258h-84zM-27 -221v13q10 16 24 42.5t27 55t20 49.5h80v-10q-6 -18 -23 -45.5t-38.5 -56t-41.5 -48.5h-48z" />
    <glyph glyph-name="Rcaron" unicode="&#x158;" horiz-adv-x="516" 
d="M26 0l151 714h139q99 0 149 -44t50 -127q0 -82 -40 -143.5t-126 -84.5l98 -315h-94l-84 296h-95l-62 -296h-86zM190 370h65q59 0 97 22t56 59.5t18 83.5q0 55 -30 79.5t-89 24.5h-60zM314 779q-7 22 -20 49.5t-27 54t-25 44.5l1 12h50q16 -15 33.5 -39.5t36.5 -52.5
q60 57 112 92h52v-12q-16 -16 -42.5 -43t-52 -55.5t-38.5 -49.5h-80z" />
    <glyph glyph-name="rcaron" unicode="&#x159;" horiz-adv-x="353" 
d="M18 0l113 536h68l-11 -95h4q28 44 62.5 74.5t84.5 30.5q13 0 26 -1.5t25 -5.5l-21 -80q-21 7 -45 7q-44 0 -78 -31.5t-57 -79.5t-33 -97l-54 -258h-84zM231 606q-7 22 -20 49.5t-27 54t-25 44.5l1 12h50q16 -15 33.5 -39.5t36.5 -52.5q60 57 112 92h52v-12
q-16 -16 -42.5 -43t-52 -55.5t-38.5 -49.5h-80z" />
    <glyph glyph-name="Sacute" unicode="&#x15a;" horiz-adv-x="458" 
d="M159 -10q-49 0 -87 8t-68 24l4 87q28 -17 67 -29.5t85 -12.5q63 0 106.5 32.5t43.5 99.5q0 40 -22 68.5t-80 69.5q-50 36 -82 75.5t-32 105.5q0 64 29.5 110.5t80.5 71t114 24.5q48 0 88.5 -11t73.5 -29l-36 -75q-25 15 -59 26t-69 11q-57 0 -94 -32t-37 -89
q0 -30 10.5 -51t31.5 -39.5t54 -42.5q37 -26 64 -51.5t41.5 -57.5t14.5 -77q0 -102 -65 -159t-177 -57zM277 786l1 12q29 32 59.5 73t51.5 75h97v-9q-14 -19 -42 -48t-59 -57.5t-54 -45.5h-54z" />
    <glyph glyph-name="sacute" unicode="&#x15b;" horiz-adv-x="389" 
d="M135 -10q-44 0 -78 9t-58 22v80q23 -15 58.5 -27.5t72.5 -12.5q52 0 80 23t28 62q0 29 -16 49.5t-61 51.5q-49 33 -73.5 66t-24.5 81q0 67 46 109.5t125 42.5q45 0 83 -11t65 -25l-31 -67q-23 13 -51.5 22.5t-64.5 9.5q-41 0 -64 -20.5t-23 -53.5q0 -26 14.5 -46
t59.5 -50q31 -23 54 -43.5t36 -45.5t13 -61q0 -79 -51 -122t-139 -43zM203 606l1 12q29 32 59.5 73t51.5 75h97v-9q-14 -19 -42 -48t-59 -57.5t-54 -45.5h-54z" />
    <glyph glyph-name="Scircumflex" unicode="&#x15c;" horiz-adv-x="458" 
d="M159 -10q-49 0 -87 8t-68 24l4 87q28 -17 67 -29.5t85 -12.5q63 0 106.5 32.5t43.5 99.5q0 40 -22 68.5t-80 69.5q-50 36 -82 75.5t-32 105.5q0 64 29.5 110.5t80.5 71t114 24.5q48 0 88.5 -11t73.5 -29l-36 -75q-25 15 -59 26t-69 11q-57 0 -94 -32t-37 -89
q0 -30 10.5 -51t31.5 -39.5t54 -42.5q37 -26 64 -51.5t41.5 -57.5t14.5 -77q0 -102 -65 -159t-177 -57zM178 779l1 12q19 19 44.5 45t49 53t38.5 50h79q8 -23 21 -50t27 -53t25 -45l-1 -12h-51q-34 36 -70 92q-29 -28 -57 -51.5t-53 -40.5h-53z" />
    <glyph glyph-name="scircumflex" unicode="&#x15d;" horiz-adv-x="389" 
d="M135 -10q-44 0 -78 9t-58 22v80q23 -15 58.5 -27.5t72.5 -12.5q52 0 80 23t28 62q0 29 -16 49.5t-61 51.5q-49 33 -73.5 66t-24.5 81q0 67 46 109.5t125 42.5q45 0 83 -11t65 -25l-31 -67q-23 13 -51.5 22.5t-64.5 9.5q-41 0 -64 -20.5t-23 -53.5q0 -26 14.5 -46
t59.5 -50q31 -23 54 -43.5t36 -45.5t13 -61q0 -79 -51 -122t-139 -43zM107 606l1 12q19 19 44.5 45t49 53t38.5 50h79q8 -23 21 -50t27 -53t25 -45l-1 -12h-51q-34 36 -70 92q-29 -28 -57 -51.5t-53 -40.5h-53z" />
    <glyph glyph-name="Scedilla" unicode="&#x15e;" horiz-adv-x="458" 
d="M159 -10q-49 0 -87 8t-68 24l4 87q28 -17 67 -29.5t85 -12.5q63 0 106.5 32.5t43.5 99.5q0 40 -22 68.5t-80 69.5q-50 36 -82 75.5t-32 105.5q0 64 29.5 110.5t80.5 71t114 24.5q48 0 88.5 -11t73.5 -29l-36 -75q-25 15 -59 26t-69 11q-57 0 -94 -32t-37 -89
q0 -30 10.5 -51t31.5 -39.5t54 -42.5q37 -26 64 -51.5t41.5 -57.5t14.5 -77q0 -102 -65 -159t-177 -57zM101 -240q-31 0 -52 6v51q20 -5 43 -5q77 0 77 55q0 22 -17.5 33t-49.5 15l49 85h53l-32 -55q27 -7 46.5 -24.5t19.5 -51.5q0 -49 -36.5 -79t-100.5 -30z" />
    <glyph glyph-name="scedilla" unicode="&#x15f;" horiz-adv-x="389" 
d="M135 -10q-44 0 -78 9t-58 22v80q23 -15 58.5 -27.5t72.5 -12.5q52 0 80 23t28 62q0 29 -16 49.5t-61 51.5q-49 33 -73.5 66t-24.5 81q0 67 46 109.5t125 42.5q45 0 83 -11t65 -25l-31 -67q-23 13 -51.5 22.5t-64.5 9.5q-41 0 -64 -20.5t-23 -53.5q0 -26 14.5 -46
t59.5 -50q31 -23 54 -43.5t36 -45.5t13 -61q0 -79 -51 -122t-139 -43zM68 -240q-31 0 -52 6v51q20 -5 43 -5q77 0 77 55q0 22 -17.5 33t-49.5 15l49 85h53l-32 -55q27 -7 46.5 -24.5t19.5 -51.5q0 -49 -36.5 -79t-100.5 -30z" />
    <glyph glyph-name="Scaron" unicode="&#x160;" horiz-adv-x="458" 
d="M159 -10q-49 0 -87 8t-68 24l4 87q28 -17 67 -29.5t85 -12.5q63 0 106.5 32.5t43.5 99.5q0 40 -22 68.5t-80 69.5q-50 36 -82 75.5t-32 105.5q0 64 29.5 110.5t80.5 71t114 24.5q48 0 88.5 -11t73.5 -29l-36 -75q-25 15 -59 26t-69 11q-57 0 -94 -32t-37 -89
q0 -30 10.5 -51t31.5 -39.5t54 -42.5q37 -26 64 -51.5t41.5 -57.5t14.5 -77q0 -102 -65 -159t-177 -57zM287 779q-7 22 -20 49.5t-27 54t-25 44.5l1 12h50q16 -15 33.5 -39.5t36.5 -52.5q60 57 112 92h52v-12q-16 -16 -42.5 -43t-52 -55.5t-38.5 -49.5h-80z" />
    <glyph glyph-name="scaron" unicode="&#x161;" horiz-adv-x="389" 
d="M135 -10q-44 0 -78 9t-58 22v80q23 -15 58.5 -27.5t72.5 -12.5q52 0 80 23t28 62q0 29 -16 49.5t-61 51.5q-49 33 -73.5 66t-24.5 81q0 67 46 109.5t125 42.5q45 0 83 -11t65 -25l-31 -67q-23 13 -51.5 22.5t-64.5 9.5q-41 0 -64 -20.5t-23 -53.5q0 -26 14.5 -46
t59.5 -50q31 -23 54 -43.5t36 -45.5t13 -61q0 -79 -51 -122t-139 -43zM214 606q-7 22 -20 49.5t-27 54t-25 44.5l1 12h50q16 -15 33.5 -39.5t36.5 -52.5q60 57 112 92h52v-12q-16 -16 -42.5 -43t-52 -55.5t-38.5 -49.5h-80z" />
    <glyph glyph-name="uni021A" unicode="&#x21a;" horiz-adv-x="443" 
d="M120 0l135 637h-169l17 77h424l-16 -77h-169l-135 -637h-87zM61 -221v13q10 16 24 42.5t27 55t20 49.5h80v-10q-6 -18 -23 -45.5t-38.5 -56t-41.5 -48.5h-48z" />
    <glyph glyph-name="uni021B" unicode="&#x21b;" horiz-adv-x="298" 
d="M155 -10q-49 0 -79.5 25t-30.5 82q0 31 9 71l63 301h-70l9 42l78 32l55 115h53l-27 -122h114l-14 -67h-113l-64 -303q-3 -14 -6 -29.5t-3 -28.5q0 -21 10 -34t34 -13q15 0 30 3t32 8v-65q-14 -7 -37.5 -12t-42.5 -5zM11 -221v13q10 16 24 42.5t27 55t20 49.5h80v-10
q-6 -18 -23 -45.5t-38.5 -56t-41.5 -48.5h-48z" />
    <glyph glyph-name="Tcaron" unicode="&#x164;" horiz-adv-x="443" 
d="M120 0l135 637h-169l17 77h424l-16 -77h-169l-135 -637h-87zM282 779q-7 22 -20 49.5t-27 54t-25 44.5l1 12h50q16 -15 33.5 -39.5t36.5 -52.5q60 57 112 92h52v-12q-16 -16 -42.5 -43t-52 -55.5t-38.5 -49.5h-80z" />
    <glyph glyph-name="tcaron" unicode="&#x165;" horiz-adv-x="302" 
d="M155 -10q-49 0 -79.5 25t-30.5 82q0 31 9 71l63 301h-70l9 42l78 32l55 115h53l-27 -122h114l-14 -67h-113l-64 -303q-3 -14 -6 -29.5t-3 -28.5q0 -21 10 -34t34 -13q15 0 30 3t32 8v-65q-14 -7 -37.5 -12t-42.5 -5zM270 596v12q17 31 36.5 73.5t29.5 74.5h81v-10
q-7 -18 -23.5 -45t-36.5 -56t-39 -49h-48z" />
    <glyph glyph-name="Tbar" unicode="&#x166;" horiz-adv-x="443" 
d="M120 0l70 330h-119l14 69h119l51 238h-169l17 77h424l-16 -77h-169l-51 -238h123l-14 -69h-123l-70 -330h-87z" />
    <glyph glyph-name="tbar" unicode="&#x167;" horiz-adv-x="297" 
d="M154 -10q-49 0 -79 25t-30 82q0 29 9 70l23 114h-61l13 64h62l26 124h-70l9 42l78 32l55 115h53l-27 -122h114l-14 -67h-113l-27 -124h104l-13 -64h-104l-25 -115q-3 -14 -5.5 -29t-2.5 -28q0 -22 10.5 -35t35.5 -13q14 0 28.5 3t31.5 8v-65q-14 -7 -37.5 -12t-43.5 -5z
" />
    <glyph glyph-name="Utilde" unicode="&#x168;" horiz-adv-x="602" 
d="M255 -10q-96 0 -144.5 47t-48.5 133q0 36 11 91l97 453h86l-98 -457q-4 -22 -7 -44.5t-3 -37.5q0 -52 28.5 -80t84.5 -28q75 0 113 43.5t58 132.5l101 471h85l-102 -478q-16 -76 -47 -131t-83 -85t-131 -30zM248 780q14 61 40.5 94t67.5 33q28 0 51 -14.5t41.5 -28.5
t35.5 -14q20 0 31 13t21 45h52q-15 -65 -42.5 -96t-65.5 -31q-26 0 -48 14t-41.5 28.5t-39.5 14.5q-19 0 -31 -14.5t-21 -43.5h-51z" />
    <glyph glyph-name="utilde" unicode="&#x169;" horiz-adv-x="518" 
d="M164 -10q-56 0 -88 31.5t-32 90.5q0 21 3 42.5t8 44.5l72 337h85l-73 -340q-9 -44 -9 -72q0 -29 14 -45.5t45 -16.5q33 0 66 23t61 72t45 127l54 252h83l-114 -536h-68l9 88h-4q-26 -38 -65 -68t-92 -30zM173 607q14 61 40.5 94t67.5 33q28 0 51 -14.5t41.5 -28.5
t35.5 -14q20 0 31 13t21 45h52q-15 -65 -42.5 -96t-65.5 -31q-26 0 -48 14t-41.5 28.5t-39.5 14.5q-19 0 -31 -14.5t-21 -43.5h-51z" />
    <glyph glyph-name="Umacron" unicode="&#x16a;" horiz-adv-x="602" 
d="M255 -10q-96 0 -144.5 47t-48.5 133q0 36 11 91l97 453h86l-98 -457q-4 -22 -7 -44.5t-3 -37.5q0 -52 28.5 -80t84.5 -28q75 0 113 43.5t58 132.5l101 471h85l-102 -478q-16 -76 -47 -131t-83 -85t-131 -30zM273 780l14 67h259l-15 -67h-258z" />
    <glyph glyph-name="umacron" unicode="&#x16b;" horiz-adv-x="518" 
d="M164 -10q-56 0 -88 31.5t-32 90.5q0 21 3 42.5t8 44.5l72 337h85l-73 -340q-9 -44 -9 -72q0 -29 14 -45.5t45 -16.5q33 0 66 23t61 72t45 127l54 252h83l-114 -536h-68l9 88h-4q-26 -38 -65 -68t-92 -30zM196 607l14 67h259l-15 -67h-258z" />
    <glyph glyph-name="Ubreve" unicode="&#x16c;" horiz-adv-x="602" 
d="M255 -10q-96 0 -144.5 47t-48.5 133q0 36 11 91l97 453h86l-98 -457q-4 -22 -7 -44.5t-3 -37.5q0 -52 28.5 -80t84.5 -28q75 0 113 43.5t58 132.5l101 471h85l-102 -478q-16 -76 -47 -131t-83 -85t-131 -30zM404 779q-53 0 -84 28t-31 79q0 7 0.5 13.5t1.5 13.5h51
q0 -33 16 -49t54 -16q39 0 60 16.5t29 48.5h54q-14 -69 -52.5 -101.5t-98.5 -32.5z" />
    <glyph glyph-name="ubreve" unicode="&#x16d;" horiz-adv-x="518" 
d="M164 -10q-56 0 -88 31.5t-32 90.5q0 21 3 42.5t8 44.5l72 337h85l-73 -340q-9 -44 -9 -72q0 -29 14 -45.5t45 -16.5q33 0 66 23t61 72t45 127l54 252h83l-114 -536h-68l9 88h-4q-26 -38 -65 -68t-92 -30zM328 606q-53 0 -84 28t-31 79q0 7 0.5 13.5t1.5 13.5h51
q0 -33 16 -49t54 -16q39 0 60 16.5t29 48.5h54q-14 -69 -52.5 -101.5t-98.5 -32.5z" />
    <glyph glyph-name="Uring" unicode="&#x16e;" horiz-adv-x="602" 
d="M255 -10q-96 0 -144.5 47t-48.5 133q0 36 11 91l97 453h86l-98 -457q-4 -22 -7 -44.5t-3 -37.5q0 -52 28.5 -80t84.5 -28q75 0 113 43.5t58 132.5l101 471h85l-102 -478q-16 -76 -47 -131t-83 -85t-131 -30zM412 780q-48 0 -76.5 27t-28.5 76q0 48 30 75t75 27
q47 0 76.5 -27t29.5 -73q0 -49 -29.5 -77t-76.5 -28zM413 828q25 0 40 15t15 40q0 26 -15 40.5t-40 14.5t-40 -14.5t-15 -40.5q0 -25 14 -40t41 -15z" />
    <glyph glyph-name="uring" unicode="&#x16f;" horiz-adv-x="518" 
d="M164 -10q-56 0 -88 31.5t-32 90.5q0 21 3 42.5t8 44.5l72 337h85l-73 -340q-9 -44 -9 -72q0 -29 14 -45.5t45 -16.5q33 0 66 23t61 72t45 127l54 252h83l-114 -536h-68l9 88h-4q-26 -38 -65 -68t-92 -30zM336 607q-48 0 -76.5 27t-28.5 76q0 48 30 75t75 27
q47 0 76.5 -27t29.5 -73q0 -49 -29.5 -77t-76.5 -28zM337 655q25 0 40 15t15 40q0 26 -15 40.5t-40 14.5t-40 -14.5t-15 -40.5q0 -25 14 -40t41 -15z" />
    <glyph glyph-name="Uhungarumlaut" unicode="&#x170;" horiz-adv-x="602" 
d="M255 -10q-96 0 -144.5 47t-48.5 133q0 36 11 91l97 453h86l-98 -457q-4 -22 -7 -44.5t-3 -37.5q0 -52 28.5 -80t84.5 -28q75 0 113 43.5t58 132.5l101 471h85l-102 -478q-16 -76 -47 -131t-83 -85t-131 -30zM450 779l1 12q30 34 60.5 75t49.5 73h88l-1 -9
q-13 -19 -40 -47.5t-58 -57t-56 -46.5h-44zM289 779l1 12q29 34 59.5 75t49.5 73h88v-9q-14 -19 -41 -47.5t-58 -57t-56 -46.5h-43z" />
    <glyph glyph-name="uhungarumlaut" unicode="&#x171;" horiz-adv-x="518" 
d="M164 -10q-56 0 -88 31.5t-32 90.5q0 21 3 42.5t8 44.5l72 337h85l-73 -340q-9 -44 -9 -72q0 -29 14 -45.5t45 -16.5q33 0 66 23t61 72t45 127l54 252h83l-114 -536h-68l9 88h-4q-26 -38 -65 -68t-92 -30zM372 606l1 12q30 34 60.5 75t49.5 73h88l-1 -9q-13 -19 -40 -47.5
t-58 -57t-56 -46.5h-44zM211 606l1 12q29 34 59.5 75t49.5 73h88v-9q-14 -19 -41 -47.5t-58 -57t-56 -46.5h-43z" />
    <glyph glyph-name="Uogonek" unicode="&#x172;" horiz-adv-x="602" 
d="M255 -10q-96 0 -144.5 47t-48.5 133q0 36 11 91l97 453h86l-98 -457q-4 -22 -7 -44.5t-3 -37.5q0 -52 28.5 -80t84.5 -28q75 0 113 43.5t58 132.5l101 471h85l-102 -478q-16 -76 -47 -131t-83 -85t-131 -30zM240 -220q-37 0 -60 20t-23 58q0 44 27.5 77t74.5 65h58
q-34 -29 -61.5 -60.5t-27.5 -68.5q0 -33 33 -33q17 0 39 5l-5 -55q-12 -4 -26.5 -6t-28.5 -2z" />
    <glyph glyph-name="uogonek" unicode="&#x173;" horiz-adv-x="518" 
d="M164 -10q-56 0 -88 31.5t-32 90.5q0 21 3 42.5t8 44.5l72 337h85l-73 -340q-9 -44 -9 -72q0 -29 14 -45.5t45 -16.5q33 0 66 23t61 72t45 127l54 252h83l-114 -536h-68l9 88h-4q-26 -38 -65 -68t-92 -30zM301 -220q-37 0 -60 20t-23 58q0 44 27.5 77t74.5 65h58
q-34 -29 -61.5 -60.5t-27.5 -68.5q0 -33 33 -33q17 0 39 5l-5 -55q-12 -4 -26.5 -6t-28.5 -2z" />
    <glyph glyph-name="Wcircumflex" unicode="&#x174;" horiz-adv-x="782" 
d="M112 0l-12 714h84l4 -440q1 -42 -1 -83t-4 -75h2q13 38 31 82.5t36 85.5l188 430h85l7 -424q2 -47 1 -93t-2 -81h3q14 40 29 81t31 82l181 435h91l-309 -714h-93l-8 457q-1 29 -0.5 63t1.5 63h-3q-9 -28 -21 -56.5t-29 -68.5l-199 -458h-93zM343 779l1 12q19 19 44.5 45
t49 53t38.5 50h79q8 -23 21 -50t27 -53t25 -45l-1 -12h-51q-34 36 -70 92q-29 -28 -57 -51.5t-53 -40.5h-53z" />
    <glyph glyph-name="wcircumflex" unicode="&#x175;" horiz-adv-x="657" 
d="M69 0l-10 536h82l2 -293q1 -46 -1 -84.5t-4 -66.5h3q10 29 25.5 68.5t28.5 67.5l135 308h92l7 -293q0 -33 -0.5 -75t-1.5 -77h3q13 36 29.5 80.5t36.5 90.5l115 274h88l-236 -536h-100l-5 305q-2 35 -1 67t2 71h-3q-10 -31 -21 -57.5t-29 -66.5l-138 -319h-99zM243 606
l1 12q19 19 44.5 45t49 53t38.5 50h79q8 -23 21 -50t27 -53t25 -45l-1 -12h-51q-34 36 -70 92q-29 -28 -57 -51.5t-53 -40.5h-53z" />
    <glyph glyph-name="Ycircumflex" unicode="&#x176;" horiz-adv-x="453" 
d="M122 0l58 271l-91 443h87l63 -348l209 348h95l-278 -445l-57 -269h-86zM180 779l1 12q19 19 44.5 45t49 53t38.5 50h79q8 -23 21 -50t27 -53t25 -45l-1 -12h-51q-34 36 -70 92q-29 -28 -57 -51.5t-53 -40.5h-53z" />
    <glyph glyph-name="ycircumflex" unicode="&#x177;" horiz-adv-x="420" 
d="M-31 -240q-21 0 -35.5 3t-27.5 7l4 70q12 -4 26 -6.5t29 -2.5q37 0 61.5 24.5t47.5 68.5l36 72l-56 540h84l22 -277q4 -42 6 -90.5t1 -80.5h3q6 18 18 45.5t24 55.5t22 47l147 300h89l-318 -631q-37 -71 -77 -108t-106 -37zM116 606l1 12q19 19 44.5 45t49 53t38.5 50h79
q8 -23 21 -50t27 -53t25 -45l-1 -12h-51q-34 36 -70 92q-29 -28 -57 -51.5t-53 -40.5h-53z" />
    <glyph glyph-name="Ydieresis" unicode="&#x178;" horiz-adv-x="453" 
d="M122 0l58 271l-91 443h87l63 -348l209 348h95l-278 -445l-57 -269h-86zM418 804q-18 0 -29 10.5t-11 29.5q0 24 14 42t39 18q38 0 38 -38q0 -29 -16 -45.5t-35 -16.5zM249 804q-17 0 -28 10.5t-11 29.5q0 24 13.5 42t39.5 18q37 0 37 -38q0 -29 -15.5 -45.5t-35.5 -16.5z
" />
    <glyph glyph-name="Zacute" unicode="&#x179;" horiz-adv-x="459" 
d="M-21 0l13 67l399 570h-269l16 77h370l-13 -68l-399 -569h287l-16 -77h-388zM284 786l1 12q29 32 59.5 73t51.5 75h97v-9q-14 -19 -42 -48t-59 -57.5t-54 -45.5h-54z" />
    <glyph glyph-name="zacute" unicode="&#x17a;" horiz-adv-x="386" 
d="M-23 0l12 57l298 413h-197l14 66h289l-13 -65l-294 -405h218l-14 -66h-313zM209 606l1 12q29 32 59.5 73t51.5 75h97v-9q-14 -19 -42 -48t-59 -57.5t-54 -45.5h-54z" />
    <glyph glyph-name="Zdotaccent" unicode="&#x17b;" horiz-adv-x="459" 
d="M-21 0l13 67l399 570h-269l16 77h370l-13 -68l-399 -569h287l-16 -77h-388zM340 798q-20 0 -32 12t-12 33q0 26 15 46t43 20q43 0 43 -43q0 -30 -17 -49t-40 -19z" />
    <glyph glyph-name="zdotaccent" unicode="&#x17c;" horiz-adv-x="386" 
d="M-23 0l12 57l298 413h-197l14 66h289l-13 -65l-294 -405h218l-14 -66h-313zM270 625q-20 0 -32 12t-12 33q0 26 15 46t43 20q43 0 43 -43q0 -30 -17 -49t-40 -19z" />
    <glyph glyph-name="Zcaron" unicode="&#x17d;" horiz-adv-x="459" 
d="M-21 0l13 67l399 570h-269l16 77h370l-13 -68l-399 -569h287l-16 -77h-388zM291 779q-7 22 -20 49.5t-27 54t-25 44.5l1 12h50q16 -15 33.5 -39.5t36.5 -52.5q60 57 112 92h52v-12q-16 -16 -42.5 -43t-52 -55.5t-38.5 -49.5h-80z" />
    <glyph glyph-name="zcaron" unicode="&#x17e;" horiz-adv-x="386" 
d="M-23 0l12 57l298 413h-197l14 66h289l-13 -65l-294 -405h218l-14 -66h-313zM218 606q-7 22 -20 49.5t-27 54t-25 44.5l1 12h50q16 -15 33.5 -39.5t36.5 -52.5q60 57 112 92h52v-12q-16 -16 -42.5 -43t-52 -55.5t-38.5 -49.5h-80z" />
    <glyph glyph-name="longs" unicode="&#x17f;" horiz-adv-x="253" 
d="M-70 -240q-34 0 -58 9v72q11 -4 24 -6.5t27 -2.5q32 0 51.5 28.5t30.5 85.5l136 643q19 91 57 133.5t110 42.5q23 0 46.5 -5.5t40.5 -12.5l-25 -65q-13 5 -27.5 8.5t-29.5 3.5q-37 0 -57 -27t-31 -83l-137 -646q-12 -54 -30.5 -94t-49 -62t-78.5 -22z" />
    <glyph glyph-name="florin" unicode="&#x192;" horiz-adv-x="492" 
d="M42 -240q-18 0 -33.5 3t-27.5 7v72q13 -4 27.5 -7.5t28.5 -3.5q30 0 49 27t32 86l98 462h-83l7 38l90 30l15 75q20 99 59.5 137t108.5 38q24 0 47.5 -5.5t40.5 -13.5l-26 -66q-14 6 -28.5 10t-30.5 4q-35 0 -55 -23.5t-32 -83.5l-16 -74h104l-14 -66h-104l-99 -468
q-19 -88 -54 -133t-104 -45z" />
    <glyph glyph-name="Aringacute" unicode="&#x1fa;" horiz-adv-x="504" 
d="M305 826v9q25 25 54 58t51 63h105v-8q-15 -16 -41.5 -38.5t-56 -45t-53.5 -38.5h-59zM-59 0l314 628q-26 24 -26 69q0 48 30 75.5t76 27.5q47 0 77 -28t30 -74q0 -30 -13 -51.5t-34 -34.5l55 -612h-86l-18 221h-203l-108 -221h-94zM335 642q25 0 40 14.5t15 39.5
q0 26 -15 41t-40 15q-24 0 -39 -15t-15 -41q0 -25 13.5 -39.5t40.5 -14.5zM180 299h161l-10 169q-2 30 -4.5 60.5t-3.5 56.5h-9q-12 -26 -25 -55.5t-29 -61.5z" />
    <glyph glyph-name="aringacute" unicode="&#x1fb;" horiz-adv-x="515" 
d="M305 825v9q25 25 53.5 58t50.5 63h107v-8q-14 -15 -40.5 -37t-57 -45t-55.5 -40h-58zM328 584q-48 0 -77 27.5t-29 74.5q0 49 30.5 76.5t75.5 27.5q46 0 76 -27.5t30 -74.5q0 -49 -29.5 -76.5t-76.5 -27.5zM328 632q24 0 39.5 14.5t15.5 39.5q0 26 -15.5 41t-39.5 15
q-25 0 -39.5 -15t-14.5 -41q0 -54 54 -54zM170 -10q-60 0 -95.5 43t-35.5 126q0 68 17 136.5t49 125t77.5 91t102.5 34.5q45 0 74.5 -24t43.5 -62h5l28 76h66l-114 -536h-67l11 89h-4q-32 -42 -71.5 -70.5t-86.5 -28.5zM197 61q35 0 67 27t56 71.5t39 96.5q9 36 12.5 65.5
t3.5 55.5q0 43 -21.5 70t-59.5 27q-37 0 -68 -28t-53.5 -74.5t-34.5 -102t-12 -110.5q0 -98 71 -98z" />
    <glyph glyph-name="AEacute" unicode="&#x1fc;" horiz-adv-x="725" 
d="M-61 0l413 714h415l-16 -76h-239l-48 -227h223l-15 -76h-224l-54 -259h238l-16 -76h-325l48 224h-178l-127 -224h-95zM206 302h149l71 335h-31zM417 786l1 12q29 32 59.5 73t51.5 75h97v-9q-14 -19 -42 -48t-59 -57.5t-54 -45.5h-54z" />
    <glyph glyph-name="aeacute" unicode="&#x1fd;" horiz-adv-x="745" 
d="M158 -10q-54 0 -86.5 44t-32.5 126q0 74 18 143.5t50.5 124t76.5 86.5t96 32q41 0 67.5 -24t40.5 -61h4l27 75h56l-13 -66q23 32 59 54t84 22q51 0 86.5 -30t35.5 -90q0 -83 -71 -137t-218 -54h-15q-2 -12 -3 -25.5t-1 -26.5q0 -57 25.5 -90t82.5 -33q33 0 64.5 11
t66.5 27l-3 -73q-35 -17 -69.5 -26t-74.5 -9q-48 0 -82.5 19t-51.5 57l-13 -66h-59l12 89h-3q-34 -46 -70.5 -72.5t-85.5 -26.5zM435 302h7q89 0 146 29t57 88q0 29 -15.5 43t-41.5 14q-50 0 -90 -47t-63 -127zM187 61q34 0 64.5 26t54 70.5t37.5 98.5q9 35 13 65.5t4 56.5
q0 44 -18.5 70t-50.5 26q-35 0 -65 -27t-52.5 -72t-35 -100.5t-12.5 -113.5q0 -100 61 -100zM388 606l1 12q29 32 59.5 73t51.5 75h97v-9q-14 -19 -42 -48t-59 -57.5t-54 -45.5h-54z" />
    <glyph glyph-name="Oslashacute" unicode="&#x1fe;" horiz-adv-x="638" 
d="M84 -44l-52 39l66 89q-40 62 -40 158q0 88 22.5 174t65.5 156t105.5 111.5t142.5 41.5q44 0 78 -12.5t63 -37.5l58 79l53 -39l-69 -92q18 -28 27 -67t9 -83q0 -68 -13 -136.5t-39 -131t-65.5 -111t-92.5 -76.5t-120 -28q-85 0 -140 45zM161 170l322 435
q-17 21 -40.5 32.5t-54.5 11.5q-57 0 -101.5 -36t-74.5 -95t-46 -128.5t-17 -136.5q0 -50 12 -83zM288 67q56 0 99 35t73 93t46 128.5t17 140.5q0 21 -2.5 39t-7.5 33l-320 -431q33 -38 95 -38zM378 778l1 12q29 32 59.5 73t51.5 75h97v-9q-14 -19 -42 -48t-59 -57.5
t-54 -45.5h-54z" />
    <glyph glyph-name="oslashacute" unicode="&#x1ff;" horiz-adv-x="506" 
d="M62 -46l-49 35l56 76q-29 47 -29 116q0 45 9.5 95t29 97.5t50 86t71.5 61.5t94 23q65 0 106 -32l47 64l49 -34l-56 -72q14 -22 20 -51.5t6 -60.5q0 -46 -9.5 -97t-29 -99t-49.5 -86.5t-71 -61.5t-93 -23q-31 0 -57 8t-47 22zM128 143l226 306q-10 11 -25 18.5t-38 7.5
q-39 0 -69.5 -25t-52.5 -66.5t-34 -91.5t-13 -100q0 -34 6 -49zM219 60q46 0 82.5 39t58.5 103t23 140q1 13 -0.5 24.5t-3.5 19.5l-223 -303q23 -23 63 -23zM280 606l1 12q29 32 59.5 73t51.5 75h97v-9q-14 -19 -42 -48t-59 -57.5t-54 -45.5h-54z" />
    <glyph glyph-name="uni0218" unicode="&#x218;" horiz-adv-x="458" 
d="M159 -10q-49 0 -87 8t-68 24l4 87q28 -17 67 -29.5t85 -12.5q63 0 106.5 32.5t43.5 99.5q0 40 -22 68.5t-80 69.5q-50 36 -82 75.5t-32 105.5q0 64 29.5 110.5t80.5 71t114 24.5q48 0 88.5 -11t73.5 -29l-36 -75q-25 15 -59 26t-69 11q-57 0 -94 -32t-37 -89
q0 -30 10.5 -51t31.5 -39.5t54 -42.5q37 -26 64 -51.5t41.5 -57.5t14.5 -77q0 -102 -65 -159t-177 -57zM69 -221v13q10 16 24 42.5t27 55t20 49.5h80v-10q-6 -18 -23 -45.5t-38.5 -56t-41.5 -48.5h-48z" />
    <glyph glyph-name="uni0219" unicode="&#x219;" horiz-adv-x="389" 
d="M135 -10q-44 0 -78 9t-58 22v80q23 -15 58.5 -27.5t72.5 -12.5q52 0 80 23t28 62q0 29 -16 49.5t-61 51.5q-49 33 -73.5 66t-24.5 81q0 67 46 109.5t125 42.5q45 0 83 -11t65 -25l-31 -67q-23 13 -51.5 22.5t-64.5 9.5q-41 0 -64 -20.5t-23 -53.5q0 -26 14.5 -46
t59.5 -50q31 -23 54 -43.5t36 -45.5t13 -61q0 -79 -51 -122t-139 -43zM34 -221v13q10 16 24 42.5t27 55t20 49.5h80v-10q-6 -18 -23 -45.5t-38.5 -56t-41.5 -48.5h-48z" />
    <glyph glyph-name="circumflex" unicode="&#x2c6;" horiz-adv-x="366" 
d="M114 606l1 12q19 19 44.5 45t49 53t38.5 50h79q8 -23 21 -50t27 -53t25 -45l-1 -12h-51q-34 36 -70 92q-29 -28 -57 -51.5t-53 -40.5h-53z" />
    <glyph glyph-name="caron" unicode="&#x2c7;" horiz-adv-x="366" 
d="M217 606q-7 22 -20 49.5t-27 54t-25 44.5l1 12h50q16 -15 33.5 -39.5t36.5 -52.5q60 57 112 92h52v-12q-16 -16 -42.5 -43t-52 -55.5t-38.5 -49.5h-80z" />
    <glyph glyph-name="macron" unicode="&#x2c9;" horiz-adv-x="338" 
d="M112 607l14 67h259l-15 -67h-258z" />
    <glyph glyph-name="breve" unicode="&#x2d8;" horiz-adv-x="344" 
d="M253 606q-53 0 -84 28t-31 79q0 7 0.5 13.5t1.5 13.5h51q0 -33 16 -49t54 -16q39 0 60 16.5t29 48.5h54q-14 -69 -52.5 -101.5t-98.5 -32.5z" />
    <glyph glyph-name="dotaccent" unicode="&#x2d9;" horiz-adv-x="181" 
d="M172 625q-20 0 -32 12t-12 33q0 26 15 46t43 20q43 0 43 -43q0 -30 -17 -49t-40 -19z" />
    <glyph glyph-name="ring" unicode="&#x2da;" horiz-adv-x="298" 
d="M242 607q-48 0 -76.5 27t-28.5 76q0 48 30 75t75 27q47 0 76.5 -27t29.5 -73q0 -49 -29.5 -77t-76.5 -28zM243 655q25 0 40 15t15 40q0 26 -15 40.5t-40 14.5t-40 -14.5t-15 -40.5q0 -25 14 -40t41 -15z" />
    <glyph glyph-name="ogonek" unicode="&#x2db;" horiz-adv-x="237" 
d="M39 -220q-37 0 -60 20t-23 58q0 44 27.5 77t74.5 65h58q-34 -29 -61.5 -60.5t-27.5 -68.5q0 -33 33 -33q17 0 39 5l-5 -55q-12 -4 -26.5 -6t-28.5 -2z" />
    <glyph glyph-name="tilde" unicode="&#x2dc;" horiz-adv-x="393" 
d="M112 607q14 61 40.5 94t67.5 33q28 0 51 -14.5t41.5 -28.5t35.5 -14q20 0 31 13t21 45h52q-15 -65 -42.5 -96t-65.5 -31q-26 0 -48 14t-41.5 28.5t-39.5 14.5q-19 0 -31 -14.5t-21 -43.5h-51z" />
    <glyph glyph-name="hungarumlaut" unicode="&#x2dd;" horiz-adv-x="409" 
d="M275 606l1 12q30 34 60.5 75t49.5 73h88l-1 -9q-13 -19 -40 -47.5t-58 -57t-56 -46.5h-44zM114 606l1 12q29 34 59.5 75t49.5 73h88v-9q-14 -19 -41 -47.5t-58 -57t-56 -46.5h-43z" />
    <glyph glyph-name="tonos" unicode="&#x384;" horiz-adv-x="533" 
d="M278 606l1 13q12 23 27.5 55t30.5 65t24 57h88v-12q-9 -18 -30 -51.5t-45.5 -68.5t-43.5 -58h-52z" />
    <glyph glyph-name="dieresistonos" unicode="&#x385;" horiz-adv-x="465" 
d="M269 679v11q11 19 24 45.5t25.5 53.5t20.5 49h89l-1 -10q-13 -20 -32.5 -47t-42 -54t-43.5 -48h-40zM190 631q-17 0 -28 10.5t-11 29.5q0 24 13.5 42t38.5 18q37 0 37 -38q0 -29 -15 -45.5t-35 -16.5zM409 631q-17 0 -28 10.5t-11 29.5q0 24 13.5 42t38.5 18q37 0 37 -38
q0 -29 -15.5 -45.5t-34.5 -16.5z" />
    <glyph glyph-name="Alphatonos" unicode="&#x386;" horiz-adv-x="507" 
d="M-57 0l355 715h97l57 -715h-86l-17 224h-204l-108 -224h-94zM182 301h163l-9 187q-2 33 -4.5 70t-1.5 66h-3q-12 -31 -27.5 -65.5t-33.5 -72.5zM40 524l1 13q12 23 27.5 55t30.5 65t24 57h88v-12q-9 -18 -30 -51.5t-45.5 -68.5t-43.5 -58h-52z" />
    <glyph glyph-name="anoteleia" unicode="&#x387;" horiz-adv-x="237" 
d="M124 287q-48 0 -48 49q0 32 17.5 57t54.5 25q21 0 33.5 -13t12.5 -37q0 -31 -18 -56t-52 -25z" />
    <glyph glyph-name="Epsilontonos" unicode="&#x388;" horiz-adv-x="554" 
d="M120 0l151 714h324l-16 -76h-239l-47 -227h222l-15 -76h-223l-56 -259h239l-16 -76h-324zM46 524l1 13q12 23 27.5 55t30.5 65t24 57h88v-12q-9 -18 -30 -51.5t-45.5 -68.5t-43.5 -58h-52z" />
    <glyph glyph-name="Etatonos" unicode="&#x389;" horiz-adv-x="691" 
d="M110 0l151 714h85l-64 -303h270l64 303h85l-151 -714h-85l70 334h-269l-71 -334h-85zM39 524l1 13q12 23 27.5 55t30.5 65t24 57h88v-12q-9 -18 -30 -51.5t-45.5 -68.5t-43.5 -58h-52z" />
    <glyph glyph-name="Iotatonos" unicode="&#x38a;" horiz-adv-x="438" 
d="M107 0l10 48l82 18l124 582l-75 18l10 48h243l-10 -48l-83 -18l-124 -582l75 -18l-9 -48h-243zM39 524l1 13q12 23 27.5 55t30.5 65t24 57h88v-12q-9 -18 -30 -51.5t-45.5 -68.5t-43.5 -58h-52z" />
    <glyph glyph-name="Omicrontonos" unicode="&#x38c;" horiz-adv-x="691" 
d="M336 -10q-109 0 -167 66t-58 186q0 88 22.5 174t65.5 156t105.5 111.5t142.5 41.5q106 0 162.5 -66t56.5 -186q0 -68 -13 -136.5t-39 -131t-65.5 -111t-92.5 -76.5t-120 -28zM341 67q56 0 100 37t74 97t45.5 131.5t15.5 141.5q0 85 -35.5 129.5t-99.5 44.5
q-46 0 -84 -24.5t-67 -66.5t-48.5 -94.5t-29.5 -109t-10 -110.5q0 -86 36.5 -131t102.5 -45zM39 524l1 13q12 23 27.5 55t30.5 65t24 57h88v-12q-9 -18 -30 -51.5t-45.5 -68.5t-43.5 -58h-52z" />
    <glyph glyph-name="Upsilontonos" unicode="&#x38e;" horiz-adv-x="586" 
d="M256 0l58 271l-91 443h87l63 -348l209 348h95l-278 -445l-57 -269h-86zM27 524l1 13q12 23 27.5 55t30.5 65t24 57h88v-12q-9 -18 -30 -51.5t-45.5 -68.5t-43.5 -58h-52z" />
    <glyph glyph-name="Omegatonos" unicode="&#x38f;" horiz-adv-x="713" 
d="M46 524l1 13q12 23 27.5 55t30.5 65t24 57h88v-12q-9 -18 -30 -51.5t-45.5 -68.5t-43.5 -58h-52zM45 0l15 76h152q-33 37 -57 95t-24 139q0 78 21.5 152t63.5 133.5t102.5 94.5t138.5 35t128 -32t74.5 -87.5t24.5 -126.5q0 -85 -25.5 -161t-70.5 -137t-104 -105h157
l-16 -76h-260l14 69q63 43 111.5 106t75.5 139t27 162q0 76 -34 124t-109 48q-57 0 -100.5 -31.5t-72 -83.5t-43 -113t-14.5 -120q0 -79 21.5 -133.5t59.5 -97.5l-14 -69h-242z" />
    <glyph glyph-name="iotadieresistonos" unicode="&#x390;" horiz-adv-x="282" 
d="M146 -10q-47 0 -76.5 24t-29.5 80q0 14 3 32t7 38l78 372h84l-80 -377q-3 -13 -5 -26.5t-2 -25.5q0 -20 9.5 -33t31.5 -13q14 0 28.5 3.5t31.5 8.5v-66q-14 -6 -37 -11.5t-43 -5.5zM165 679v11q11 19 24 45.5t25.5 53.5t20.5 49h89l-1 -10q-13 -20 -32.5 -47t-42 -54
t-43.5 -48h-40zM86 631q-17 0 -28 10.5t-11 29.5q0 24 13.5 42t38.5 18q37 0 37 -38q0 -29 -15 -45.5t-35 -16.5zM305 631q-17 0 -28 10.5t-11 29.5q0 24 13.5 42t38.5 18q37 0 37 -38q0 -29 -15.5 -45.5t-34.5 -16.5z" />
    <glyph glyph-name="Alpha" unicode="&#x391;" horiz-adv-x="504" 
d="M-60 0l355 715h97l57 -715h-86l-17 224h-204l-108 -224h-94zM179 301h163l-9 187q-2 33 -4.5 70t-1.5 66h-3q-12 -31 -27.5 -65.5t-33.5 -72.5z" />
    <glyph glyph-name="Beta" unicode="&#x392;" horiz-adv-x="538" 
d="M26 0l151 714h166q86 0 138 -38t52 -117q0 -71 -39.5 -120.5t-111.5 -65.5v-4q45 -13 73 -49t28 -91q0 -71 -31.5 -122t-89 -79t-134.5 -28h-202zM198 409h95q65 0 107.5 37.5t42.5 101.5q0 45 -26.5 68.5t-86.5 23.5h-83zM127 74h103q80 0 121.5 43t41.5 113
q0 47 -27.5 77t-89.5 30h-93z" />
    <glyph glyph-name="Gamma" unicode="&#x393;" horiz-adv-x="422" 
d="M26 0l151 714h319l-16 -77h-234l-134 -637h-86z" />
    <glyph glyph-name="Epsilon" unicode="&#x395;" horiz-adv-x="460" 
d="M26 0l151 714h324l-16 -76h-239l-47 -227h222l-15 -76h-223l-56 -259h239l-16 -76h-324z" />
    <glyph glyph-name="Zeta" unicode="&#x396;" horiz-adv-x="459" 
d="M-21 0l13 67l399 570h-269l16 77h370l-13 -68l-399 -569h287l-16 -77h-388z" />
    <glyph glyph-name="Eta" unicode="&#x397;" horiz-adv-x="608" 
d="M27 0l151 714h85l-64 -303h270l64 303h85l-151 -714h-85l70 334h-269l-71 -334h-85z" />
    <glyph glyph-name="Theta" unicode="&#x398;" horiz-adv-x="645" 
d="M286 -10q-111 0 -169.5 66t-58.5 187q0 67 14 135.5t42 130.5t69 111t95 77t120 28q104 0 162.5 -65.5t58.5 -187.5q0 -91 -21.5 -177t-64 -155t-104.5 -109.5t-143 -40.5zM289 67q46 0 84 24.5t67 67t49 95t30 109.5t10 111q0 84 -36.5 129t-101.5 45q-47 0 -85.5 -24.5
t-68 -66.5t-49 -94.5t-29.5 -109t-10 -109.5q0 -86 36.5 -131.5t103.5 -45.5zM226 327l16 75h206l-16 -75h-206z" />
    <glyph glyph-name="Iota" unicode="&#x399;" horiz-adv-x="301" 
d="M-31 0l10 48l82 18l124 582l-75 18l10 48h243l-10 -48l-83 -18l-124 -582l75 -18l-9 -48h-243z" />
    <glyph glyph-name="Kappa" unicode="&#x39a;" horiz-adv-x="504" 
d="M26 0l151 714h86l-75 -350l60 73l242 277h100l-278 -319l137 -395h-94l-112 339l-72 -59l-59 -280h-86z" />
    <glyph glyph-name="Lambda" unicode="&#x39b;" horiz-adv-x="503" 
d="M-60 0l357 714h95l58 -714h-86l-33 459q-3 37 -4 77.5t-2 76.5q-15 -38 -34 -80.5t-42 -91.5l-216 -441h-93z" />
    <glyph glyph-name="Mu" unicode="&#x39c;" horiz-adv-x="770" 
d="M25 0l151 714h121l52 -583h3l297 583h131l-150 -714h-86l95 446q11 50 21 91.5t18 70.5h-2l-314 -608h-75l-56 607h-3q-4 -31 -11.5 -76.5t-16.5 -87.5l-94 -443h-81z" />
    <glyph glyph-name="Nu" unicode="&#x39d;" horiz-adv-x="636" 
d="M25 0l151 714h95l173 -582h3q6 42 16 95.5t19 96.5l83 390h82l-151 -714h-94l-175 587h-3q-3 -27 -9.5 -64t-13.5 -75t-14 -68l-80 -380h-82z" />
    <glyph glyph-name="Xi" unicode="&#x39e;" horiz-adv-x="460" 
d="M132 638l16 76h351l-16 -76h-351zM102 335l16 76h283l-16 -76h-283zM-18 0l16 76h381l-16 -76h-381z" />
    <glyph glyph-name="Omicron" unicode="&#x39f;" horiz-adv-x="638" 
d="M283 -10q-109 0 -167 66t-58 186q0 88 22.5 174t65.5 156t105.5 111.5t142.5 41.5q106 0 162.5 -66t56.5 -186q0 -68 -13 -136.5t-39 -131t-65.5 -111t-92.5 -76.5t-120 -28zM288 67q56 0 100 37t74 97t45.5 131.5t15.5 141.5q0 85 -35.5 129.5t-99.5 44.5
q-46 0 -84 -24.5t-67 -66.5t-48.5 -94.5t-29.5 -109t-10 -110.5q0 -86 36.5 -131t102.5 -45z" />
    <glyph glyph-name="Pi" unicode="&#x3a0;" horiz-adv-x="606" 
d="M26 0l151 714h440l-151 -714h-86l135 637h-269l-134 -637h-86z" />
    <glyph glyph-name="Rho" unicode="&#x3a1;" horiz-adv-x="507" 
d="M26 0l151 714h142q102 0 148.5 -48t46.5 -127q0 -120 -73.5 -190t-212.5 -70h-57l-59 -279h-86zM186 353h50q89 0 139.5 46t50.5 134q0 55 -30 80.5t-90 25.5h-59z" />
    <glyph glyph-name="Sigma" unicode="&#x3a3;" horiz-adv-x="464" 
d="M-23 0l14 70l243 301l-115 273l14 70h375l-16 -76h-280l113 -272l-233 -290h304l-16 -76h-403z" />
    <glyph glyph-name="Tau" unicode="&#x3a4;" horiz-adv-x="443" 
d="M120 0l135 637h-169l17 77h424l-16 -77h-169l-135 -637h-87z" />
    <glyph glyph-name="Upsilon" unicode="&#x3a5;" horiz-adv-x="453" 
d="M122 0l58 271l-91 443h87l63 -348l209 348h95l-278 -445l-57 -269h-86z" />
    <glyph glyph-name="Phi" unicode="&#x3a6;" horiz-adv-x="685" 
d="M236 -10l24 110q-94 7 -146.5 60.5t-52.5 152.5q0 88 33.5 160t103 115.5t176.5 47.5l18 88h86l-18 -88q92 -5 145 -58.5t53 -150.5q0 -61 -18 -118.5t-56 -103.5t-97 -74t-141 -31l-24 -110h-86zM274 174l83 388q-73 -1 -119 -36.5t-68 -91.5t-22 -118q0 -67 33 -103.5
t93 -38.5zM361 174q71 3 117.5 38.5t69 91t22.5 119.5t-32.5 100.5t-94.5 38.5z" />
    <glyph glyph-name="Chi" unicode="&#x3a7;" horiz-adv-x="470" 
d="M-55 0l264 377l-99 337h88l72 -269l185 269h93l-242 -343l103 -371h-91l-74 301l-205 -301h-94z" />
    <glyph glyph-name="Psi" unicode="&#x3a8;" horiz-adv-x="677" 
d="M237 0l46 216h-5q-69 1 -111 25.5t-60.5 65t-18.5 90.5q0 23 3 50t10 57l44 210h88l-46 -219q-7 -30 -9.5 -52.5t-2.5 -39.5q0 -59 29.5 -85.5t88.5 -26.5h5l90 423h86l-89 -423h5q60 0 97.5 23.5t59 64.5t32.5 96l51 239h88l-52 -248q-15 -72 -46.5 -128.5t-88.5 -89
t-150 -32.5h-12l-46 -216h-86z" />
    <glyph glyph-name="Iotadieresis" unicode="&#x3aa;" horiz-adv-x="301" 
d="M-31 0l10 48l82 18l124 582l-75 18l10 48h243l-10 -48l-83 -18l-124 -582l75 -18l-9 -48h-243zM346 812q-18 0 -29 10.5t-11 29.5q0 24 14 42t39 18q38 0 38 -38q0 -29 -16 -45.5t-35 -16.5zM177 812q-17 0 -28 10.5t-11 29.5q0 24 13.5 42t39.5 18q37 0 37 -38
q0 -29 -15.5 -45.5t-35.5 -16.5z" />
    <glyph glyph-name="Upsilondieresis" unicode="&#x3ab;" horiz-adv-x="453" 
d="M122 0l58 271l-91 443h87l63 -348l209 348h95l-278 -445l-57 -269h-86zM418 804q-18 0 -29 10.5t-11 29.5q0 24 14 42t39 18q38 0 38 -38q0 -29 -16 -45.5t-35 -16.5zM249 804q-17 0 -28 10.5t-11 29.5q0 24 13.5 42t39.5 18q37 0 37 -38q0 -29 -15.5 -45.5t-35.5 -16.5z
" />
    <glyph glyph-name="alphatonos" unicode="&#x3ac;" horiz-adv-x="522" 
d="M170 -10q-58 0 -94 43.5t-36 126.5q0 73 17 142t49 124t77 87.5t100 32.5q50 0 79.5 -25.5t43.5 -63.5h4q8 19 20 41.5t25 37.5h69q-16 -33 -36 -92t-33 -122l-38 -175q-8 -34 -8 -55q0 -32 28 -32q13 0 30 6v-63q-9 -5 -25.5 -9t-32.5 -4q-46 0 -65 26.5t-18 67.5h-3
q-31 -41 -68 -67.5t-85 -26.5zM198 61q35 0 65.5 27t54.5 71.5t38 95.5q9 35 13 65t4 56q0 45 -21.5 71.5t-60.5 26.5q-38 0 -68.5 -29t-52 -75.5t-33 -101t-11.5 -105.5q0 -102 72 -102zM289 606l1 13q12 23 27.5 55t30.5 65t24 57h88v-12q-9 -18 -30 -51.5t-45.5 -68.5
t-43.5 -58h-52z" />
    <glyph glyph-name="epsilontonos" unicode="&#x3ad;" horiz-adv-x="403" 
d="M180 -10q-80 0 -120.5 37.5t-40.5 97.5q0 67 38.5 106.5t100.5 50.5v4q-28 13 -47 38.5t-19 66.5q0 51 25.5 85t67 51.5t90.5 17.5q44 0 78 -9t63 -26l-34 -65q-19 13 -46 21.5t-58 8.5q-46 0 -76 -23t-30 -68q0 -32 20 -51t63 -19h48l-14 -69h-49q-58 0 -97 -26.5
t-39 -79.5q0 -35 21.5 -57t70.5 -22q38 0 72.5 11t65.5 27v-71q-26 -14 -65.5 -25.5t-88.5 -11.5zM246 606l1 13q12 23 27.5 55t30.5 65t24 57h88v-12q-9 -18 -30 -51.5t-45.5 -68.5t-43.5 -58h-52z" />
    <glyph glyph-name="etatonos" unicode="&#x3ae;" horiz-adv-x="517" 
d="M252 -240l123 575q5 23 8.5 42.5t3.5 35.5q0 28 -14.5 44t-46.5 16t-65.5 -22.5t-61 -71.5t-44.5 -127l-53 -252h-85l114 536h69l-11 -89h5q26 37 64.5 68t92.5 31t87.5 -30t33.5 -91q0 -23 -4 -47t-8 -45l-124 -573h-84zM292 606l1 13q12 23 27.5 55t30.5 65t24 57h88
v-12q-9 -18 -30 -51.5t-45.5 -68.5t-43.5 -58h-52z" />
    <glyph glyph-name="iotatonos" unicode="&#x3af;" horiz-adv-x="281" 
d="M146 -10q-47 0 -76.5 24t-29.5 80q0 14 3 32t7 38l78 372h84l-80 -377q-3 -13 -5 -26.5t-2 -25.5q0 -20 9.5 -33t31.5 -13q14 0 28.5 3.5t31.5 8.5v-66q-14 -6 -37 -11.5t-43 -5.5zM147 606l1 13q12 23 27.5 55t30.5 65t24 57h88v-12q-9 -18 -30 -51.5t-45.5 -68.5
t-43.5 -58h-52z" />
    <glyph glyph-name="upsilondieresistonos" unicode="&#x3b0;" horiz-adv-x="518" 
d="M211 -10q-79 0 -119.5 41t-40.5 115q0 21 3.5 46.5t11.5 65.5l59 278h84l-59 -280q-8 -37 -11.5 -60.5t-3.5 -42.5q0 -47 22.5 -69.5t60.5 -22.5q40 0 69 24t49 65t32.5 91.5t19.5 104t9.5 103t2.5 87.5h84q0 -72 -7 -148t-23.5 -147t-47 -127.5t-78.5 -90t-117 -33.5z
M298 679v11q11 19 24 45.5t25.5 53.5t20.5 49h89l-1 -10q-13 -20 -32.5 -47t-42 -54t-43.5 -48h-40zM219 631q-17 0 -28 10.5t-11 29.5q0 24 13.5 42t38.5 18q37 0 37 -38q0 -29 -15 -45.5t-35 -16.5zM438 631q-17 0 -28 10.5t-11 29.5q0 24 13.5 42t38.5 18q37 0 37 -38
q0 -29 -15.5 -45.5t-34.5 -16.5z" />
    <glyph glyph-name="alpha" unicode="&#x3b1;" horiz-adv-x="522" 
d="M170 -10q-58 0 -94 43.5t-36 126.5q0 73 17 142t49 124t77 87.5t100 32.5q50 0 79.5 -25.5t43.5 -63.5h4q8 19 20 41.5t25 37.5h69q-16 -33 -36 -92t-33 -122l-38 -175q-8 -34 -8 -55q0 -32 28 -32q13 0 30 6v-63q-9 -5 -25.5 -9t-32.5 -4q-46 0 -65 26.5t-18 67.5h-3
q-31 -41 -68 -67.5t-85 -26.5zM198 61q35 0 65.5 27t54.5 71.5t38 95.5q9 35 13 65t4 56q0 45 -21.5 71.5t-60.5 26.5q-38 0 -68.5 -29t-52 -75.5t-33 -101t-11.5 -105.5q0 -102 72 -102z" />
    <glyph glyph-name="beta" unicode="&#x3b2;" horiz-adv-x="522" 
d="M-33 -240l168 790q13 62 37.5 110.5t68 76.5t114.5 28q75 0 118 -41.5t43 -115.5q0 -81 -40.5 -137t-120.5 -73q49 -10 80.5 -50t31.5 -108q0 -66 -25.5 -123t-75.5 -92t-123 -35q-47 0 -79 14.5t-54 31.5l-60 -276h-83zM235 61q53 0 85.5 27t48 67.5t15.5 81.5
q0 57 -27.5 91t-90.5 34h-27l15 72h28q52 0 85 23.5t48 62t15 82.5q0 40 -21 66t-65 26q-58 0 -85 -41.5t-41 -103.5l-95 -449q20 -17 50.5 -28t61.5 -11z" />
    <glyph glyph-name="gamma" unicode="&#x3b3;" horiz-adv-x="417" 
d="M23 -240q11 61 33 121.5t51 121.5l-55 533h85l23 -280q4 -34 6 -80t0 -85h3q15 43 34 86t35 77l138 282h90l-261 -516q-32 -64 -56.5 -131t-38.5 -129h-87z" />
    <glyph glyph-name="delta" unicode="&#x3b4;" horiz-adv-x="505" 
d="M209 -10q-59 0 -99 24t-60 64.5t-20 91.5q0 109 63 183t170 107q-31 31 -53 67t-22 83q0 68 47 111t126 43q54 0 93.5 -16t64.5 -34l-36 -63q-25 16 -55.5 29.5t-67.5 13.5q-46 0 -68 -23t-22 -60t22 -65t57 -61q45 -45 73.5 -96.5t28.5 -123.5q0 -73 -27 -135.5
t-80.5 -101t-134.5 -38.5zM217 61q49 0 82 30t49.5 76.5t16.5 95.5q0 54 -16.5 91t-42.5 63q-54 -17 -97 -50t-68 -81t-25 -107q0 -55 26 -86.5t75 -31.5z" />
    <glyph glyph-name="epsilon" unicode="&#x3b5;" horiz-adv-x="403" 
d="M180 -10q-80 0 -120.5 37.5t-40.5 97.5q0 67 38.5 106.5t100.5 50.5v4q-28 13 -47 38.5t-19 66.5q0 51 25.5 85t67 51.5t90.5 17.5q44 0 78 -9t63 -26l-34 -65q-19 13 -46 21.5t-58 8.5q-46 0 -76 -23t-30 -68q0 -32 20 -51t63 -19h48l-14 -69h-49q-58 0 -97 -26.5
t-39 -79.5q0 -35 21.5 -57t70.5 -22q38 0 72.5 11t65.5 27v-71q-26 -14 -65.5 -25.5t-88.5 -11.5z" />
    <glyph glyph-name="zeta" unicode="&#x3b6;" horiz-adv-x="400" 
d="M141 -201q38 36 62 69t24 66q0 26 -20.5 41t-55.5 31q-59 29 -87 65.5t-28 106.5q0 87 44.5 173t120 171.5t168.5 171.5q-20 -3 -46.5 -4t-60.5 -1h-93l16 71h295l-13 -63q-62 -59 -123 -121.5t-111 -127t-80 -128.5t-30 -126q0 -49 20.5 -75t67.5 -51q46 -22 73.5 -47.5
t27.5 -71.5q0 -44 -24.5 -81.5t-58.5 -68.5h-88z" />
    <glyph glyph-name="eta" unicode="&#x3b7;" horiz-adv-x="517" 
d="M252 -240l123 575q5 23 8.5 42.5t3.5 35.5q0 28 -14.5 44t-46.5 16t-65.5 -22.5t-61 -71.5t-44.5 -127l-53 -252h-85l114 536h69l-11 -89h5q26 37 64.5 68t92.5 31t87.5 -30t33.5 -91q0 -23 -4 -47t-8 -45l-124 -573h-84z" />
    <glyph glyph-name="theta" unicode="&#x3b8;" horiz-adv-x="499" 
d="M190 -10q-72 0 -110.5 49t-38.5 149q0 46 6.5 100.5t18.5 109.5q24 107 60.5 190.5t89 131t126.5 47.5q68 0 108 -46.5t40 -156.5q0 -52 -11 -122.5t-30 -136.5q-25 -96 -60.5 -166.5t-84.5 -109.5t-114 -39zM157 424h233q8 41 12 79.5t4 68.5q0 125 -73 125
q-60 0 -102.5 -73t-73.5 -200zM199 60q61 0 103.5 77.5t74.5 215.5h-236q-10 -49 -14 -89.5t-4 -73.5q0 -68 19 -99t57 -31z" />
    <glyph glyph-name="iota" unicode="&#x3b9;" horiz-adv-x="281" 
d="M146 -10q-47 0 -76.5 24t-29.5 80q0 14 3 32t7 38l78 372h84l-80 -377q-3 -13 -5 -26.5t-2 -25.5q0 -20 9.5 -33t31.5 -13q14 0 28.5 3.5t31.5 8.5v-66q-14 -6 -37 -11.5t-43 -5.5z" />
    <glyph glyph-name="kappa" unicode="&#x3ba;" horiz-adv-x="446" 
d="M17 0l114 536h84l-30 -138q-7 -32 -15.5 -62.5t-15.5 -55.5h2l228 256h97l-205 -225l112 -311h-92l-87 252l-68 -60l-39 -192h-85z" />
    <glyph glyph-name="lambda" unicode="&#x3bb;" horiz-adv-x="444" 
d="M349 -10q-45 0 -66 25.5t-25 82.5l-12 193q-2 29 -3.5 63.5t-1.5 66.5q-11 -28 -21.5 -54t-23.5 -51l-162 -316h-88l281 528l-5 84q-4 40 -16.5 62t-43.5 22q-24 0 -43 -6l-7 68q12 3 30 5.5t34 2.5q68 0 93.5 -36t31.5 -107l36 -508q5 -54 33 -54q7 0 15.5 1t16.5 4v-66
q-23 -10 -53 -10z" />
    <glyph glyph-name="nu" unicode="&#x3bd;" horiz-adv-x="445" 
d="M95 0l-41 536h85l20 -310q2 -37 3.5 -72.5t3.5 -69.5q81 87 132 201.5t80 250.5h85q-33 -159 -97.5 -289.5t-182.5 -246.5h-88z" />
    <glyph glyph-name="xi" unicode="&#x3be;" horiz-adv-x="400" 
d="M136 -201q38 36 63 69t25 66q-1 27 -20.5 42.5t-56.5 31.5q-58 26 -87 64t-29 104q0 80 47.5 142t141.5 83v3q-42 14 -66 42.5t-24 74.5q0 61 42.5 108t107.5 65q-22 -2 -41.5 -3.5t-44.5 -1.5h-34l16 71h279l-15 -67h-12q-54 0 -103.5 -21t-80.5 -58t-31 -86
q0 -46 29 -70.5t92 -24.5h42l-15 -69h-38q-55 0 -102 -20.5t-75 -60t-28 -96.5q0 -47 21 -70.5t70 -46.5q39 -18 69.5 -44t30.5 -75q0 -45 -24.5 -82t-58.5 -70h-90z" />
    <glyph glyph-name="omicron" unicode="&#x3bf;" horiz-adv-x="506" 
d="M213 -9q-81 0 -127 50.5t-46 139.5q0 58 15 121t46.5 118t79 89.5t113.5 34.5q81 0 127 -51t46 -140q0 -61 -16 -125t-47.5 -117.5t-79 -86.5t-111.5 -33zM219 62q35 0 64.5 24t51.5 65.5t34 95.5t12 113q0 44 -20.5 78.5t-69.5 34.5q-40 0 -71 -26.5t-52 -70.5
t-32 -95.5t-11 -101.5q0 -56 24 -86.5t70 -30.5z" />
    <glyph glyph-name="pi" unicode="&#x3c0;" horiz-adv-x="545" 
d="M393 -9q-43 0 -66 22.5t-23 63.5q0 25 9 68l67 319h-162l-100 -464h-84l100 464h-95l7 35l80 37h442l-14 -72h-90l-68 -326q-6 -26 -6 -45q0 -31 30 -31q10 0 20 2.5t18 5.5v-66q-14 -5 -31 -9t-34 -4z" />
    <glyph glyph-name="rho" unicode="&#x3c1;" horiz-adv-x="515" 
d="M-32 -240l116 551q14 67 39.5 120t70 83.5t114.5 30.5q82 0 125.5 -49.5t43.5 -141.5q0 -45 -9 -95.5t-27.5 -98t-47.5 -86t-68 -61.5t-89 -23q-44 0 -75 15t-53 40q-4 -31 -10 -59t-13 -62l-34 -164h-83zM227 61q41 0 72 28t51.5 72.5t30.5 95.5t10 97q0 56 -21.5 88
t-67.5 32q-58 0 -89 -47t-49 -135l-39 -181q16 -20 41.5 -35t60.5 -15z" />
    <glyph glyph-name="sigma1" unicode="&#x3c2;" horiz-adv-x="403" 
d="M145 -204q43 41 64.5 74t21.5 62q0 23 -15 38.5t-56 34.5q-33 17 -60.5 40t-43.5 59t-17 94q0 58 16.5 119.5t49.5 113t82.5 83.5t115.5 32q34 0 63 -6.5t54 -18.5l-27 -69q-17 8 -40 15t-51 7q-44 0 -77 -26.5t-55 -68t-33 -87.5t-11 -85q0 -59 23 -88t69 -51
q40 -20 69 -46t29 -78q0 -40 -23 -77t-58 -71h-90z" />
    <glyph glyph-name="sigma" unicode="&#x3c3;" horiz-adv-x="524" 
d="M212 -9q-78 0 -125 48.5t-47 150.5q0 65 16.5 127t51 111.5t89 78.5t130.5 29h220l-14 -71h-114q13 -26 24 -59.5t11 -85.5q0 -51 -13.5 -108.5t-42 -107.5t-74.5 -81.5t-112 -31.5zM219 62q41 0 70 24.5t47.5 65.5t27 91t8.5 101q0 38 -6.5 68.5t-16.5 52.5h-29
q-53 0 -90.5 -23.5t-60.5 -63t-33.5 -88t-10.5 -98.5q0 -67 24.5 -98.5t69.5 -31.5z" />
    <glyph glyph-name="tau" unicode="&#x3c4;" horiz-adv-x="372" 
d="M208 -10q-50 0 -82 24.5t-32 82.5q0 17 3.5 40t8.5 47l60 280h-128l7 35l79 37h282l-15 -72h-141l-61 -285q-4 -20 -7 -37.5t-3 -31.5q0 -22 11.5 -35.5t35.5 -13.5q15 0 30 3.5t32 7.5v-65q-14 -7 -37 -12t-43 -5z" />
    <glyph glyph-name="upsilon" unicode="&#x3c5;" horiz-adv-x="518" 
d="M211 -10q-79 0 -119.5 41t-40.5 115q0 21 3.5 46.5t11.5 65.5l59 278h84l-59 -280q-8 -37 -11.5 -60.5t-3.5 -42.5q0 -47 22.5 -69.5t60.5 -22.5q40 0 69 24t49 65t32.5 91.5t19.5 104t9.5 103t2.5 87.5h84q0 -72 -7 -148t-23.5 -147t-47 -127.5t-78.5 -90t-117 -33.5z
" />
    <glyph glyph-name="phi" unicode="&#x3c6;" horiz-adv-x="627" 
d="M158 -240l49 231q-72 10 -119.5 59.5t-47.5 145.5q0 100 40.5 185t119.5 161l55 -48q-64 -64 -97.5 -135.5t-33.5 -156.5q0 -71 29 -102.5t70 -37.5l66 315q17 77 54.5 123t109.5 46q65 0 99.5 -45t34.5 -127q0 -65 -16.5 -131t-52.5 -121.5t-92.5 -91t-136.5 -40.5
l-48 -230h-83zM306 61q56 6 94 38.5t60.5 79.5t32.5 98.5t10 96.5q0 54 -15 77.5t-40 23.5q-31 0 -48.5 -25.5t-28.5 -82.5z" />
    <glyph glyph-name="chi" unicode="&#x3c7;" horiz-adv-x="449" 
d="M-115 -240l273 412l-20 229q-3 36 -13 52t-31 16q-8 0 -16 -2l-16 -4l-7 65q26 12 61 12q52 0 73.5 -31t26.5 -87l12 -160l170 274h89l-245 -381l23 -252q4 -37 14.5 -55t35.5 -18q9 0 18.5 2t17.5 5v-66q-13 -5 -29.5 -8t-33.5 -3q-54 0 -75.5 34.5t-26.5 94.5l-14 178
l-194 -307h-93z" />
    <glyph glyph-name="psi" unicode="&#x3c8;" horiz-adv-x="644" 
d="M170 -240l50 232q-86 9 -126 54.5t-40 121.5q0 46 13 108l55 260h84l-56 -266q-5 -26 -8.5 -50t-3.5 -44q0 -50 22 -79t75 -34l148 697h82l-148 -696q63 5 104 46t64 107.5t32.5 149t9.5 169.5h85q0 -106 -14 -202.5t-48 -172t-94 -120.5t-154 -50l-49 -231h-83z" />
    <glyph glyph-name="omega" unicode="&#x3c9;" horiz-adv-x="650" 
d="M156 -10q-59 0 -89.5 44.5t-30.5 119.5q0 91 34 191.5t90 190.5h87q-35 -58 -63.5 -122t-45.5 -130t-17 -129q0 -51 15.5 -71.5t39.5 -20.5q35 0 57.5 35.5t37.5 106.5l29 139h83l-29 -132q-11 -53 -11 -82q0 -67 49 -67q28 0 50.5 23t38.5 60.5t26.5 82.5t15.5 90.5
t5 83.5q0 76 -10 133h84q11 -61 11 -132q0 -46 -7 -101.5t-22.5 -110.5t-42 -100.5t-64 -73.5t-89.5 -28q-44 0 -69 24t-33 62q-23 -42 -54.5 -64t-75.5 -22z" />
    <glyph glyph-name="iotadieresis" unicode="&#x3ca;" horiz-adv-x="281" 
d="M146 -10q-47 0 -76.5 24t-29.5 80q0 14 3 32t7 38l78 372h84l-80 -377q-3 -13 -5 -26.5t-2 -25.5q0 -20 9.5 -33t31.5 -13q14 0 28.5 3.5t31.5 8.5v-66q-14 -6 -37 -11.5t-43 -5.5zM277 631q-18 0 -29 10.5t-11 29.5q0 24 14 42t39 18q38 0 38 -38q0 -29 -16 -45.5
t-35 -16.5zM108 631q-17 0 -28 10.5t-11 29.5q0 24 13.5 42t39.5 18q37 0 37 -38q0 -29 -15.5 -45.5t-35.5 -16.5z" />
    <glyph glyph-name="upsilondieresis" unicode="&#x3cb;" horiz-adv-x="518" 
d="M211 -10q-79 0 -119.5 41t-40.5 115q0 21 3.5 46.5t11.5 65.5l59 278h84l-59 -280q-8 -37 -11.5 -60.5t-3.5 -42.5q0 -47 22.5 -69.5t60.5 -22.5q40 0 69 24t49 65t32.5 91.5t19.5 104t9.5 103t2.5 87.5h84q0 -72 -7 -148t-23.5 -147t-47 -127.5t-78.5 -90t-117 -33.5z
M408 631q-18 0 -29 10.5t-11 29.5q0 24 14 42t39 18q38 0 38 -38q0 -29 -16 -45.5t-35 -16.5zM239 631q-17 0 -28 10.5t-11 29.5q0 24 13.5 42t39.5 18q37 0 37 -38q0 -29 -15.5 -45.5t-35.5 -16.5z" />
    <glyph glyph-name="omicrontonos" unicode="&#x3cc;" horiz-adv-x="506" 
d="M213 -9q-81 0 -127 50.5t-46 139.5q0 58 15 121t46.5 118t79 89.5t113.5 34.5q81 0 127 -51t46 -140q0 -61 -16 -125t-47.5 -117.5t-79 -86.5t-111.5 -33zM219 62q35 0 64.5 24t51.5 65.5t34 95.5t12 113q0 44 -20.5 78.5t-69.5 34.5q-40 0 -71 -26.5t-52 -70.5
t-32 -95.5t-11 -101.5q0 -56 24 -86.5t70 -30.5zM263 606l1 13q12 23 27.5 55t30.5 65t24 57h88v-12q-9 -18 -30 -51.5t-45.5 -68.5t-43.5 -58h-52z" />
    <glyph glyph-name="upsilontonos" unicode="&#x3cd;" horiz-adv-x="518" 
d="M211 -10q-79 0 -119.5 41t-40.5 115q0 21 3.5 46.5t11.5 65.5l59 278h84l-59 -280q-8 -37 -11.5 -60.5t-3.5 -42.5q0 -47 22.5 -69.5t60.5 -22.5q40 0 69 24t49 65t32.5 91.5t19.5 104t9.5 103t2.5 87.5h84q0 -72 -7 -148t-23.5 -147t-47 -127.5t-78.5 -90t-117 -33.5z
M278 606l1 13q12 23 27.5 55t30.5 65t24 57h88v-12q-9 -18 -30 -51.5t-45.5 -68.5t-43.5 -58h-52z" />
    <glyph glyph-name="omegatonos" unicode="&#x3ce;" horiz-adv-x="650" 
d="M156 -10q-59 0 -89.5 44.5t-30.5 119.5q0 91 34 191.5t90 190.5h87q-35 -58 -63.5 -122t-45.5 -130t-17 -129q0 -51 15.5 -71.5t39.5 -20.5q35 0 57.5 35.5t37.5 106.5l29 139h83l-29 -132q-11 -53 -11 -82q0 -67 49 -67q28 0 50.5 23t38.5 60.5t26.5 82.5t15.5 90.5
t5 83.5q0 76 -10 133h84q11 -61 11 -132q0 -46 -7 -101.5t-22.5 -110.5t-42 -100.5t-64 -73.5t-89.5 -28q-44 0 -69 24t-33 62q-23 -42 -54.5 -64t-75.5 -22zM346 606l1 13q12 23 27.5 55t30.5 65t24 57h88v-12q-9 -18 -30 -51.5t-45.5 -68.5t-43.5 -58h-52z" />
    <glyph glyph-name="afii10023" unicode="&#x401;" horiz-adv-x="460" 
d="M26 0l151 714h324l-16 -76h-239l-47 -227h222l-15 -76h-223l-56 -259h239l-16 -76h-324zM439 804q-18 0 -29 10.5t-11 29.5q0 24 14 42t39 18q38 0 38 -38q0 -29 -16 -45.5t-35 -16.5zM270 804q-17 0 -28 10.5t-11 29.5q0 24 13.5 42t39.5 18q37 0 37 -38
q0 -29 -15.5 -45.5t-35.5 -16.5z" />
    <glyph glyph-name="afii10051" unicode="&#x402;" horiz-adv-x="594" 
d="M339 -10q-19 0 -37.5 3t-30.5 8l6 75q23 -10 55 -10q44 0 64.5 27.5t29.5 75.5l13 63q3 14 5 29t2 29q0 71 -89 71h-105l-76 -361h-86l135 637h-139l16 77h394l-17 -77h-168l-43 -199h99q83 0 123.5 -35t40.5 -102q0 -16 -2 -37.5t-6 -40.5l-14 -70q-17 -83 -57 -123
t-113 -40z" />
    <glyph glyph-name="afii10052" unicode="&#x403;" horiz-adv-x="422" 
d="M26 0l151 714h319l-16 -77h-234l-134 -637h-86zM292 786l1 12q29 32 59.5 73t51.5 75h97v-9q-14 -19 -42 -48t-59 -57.5t-54 -45.5h-54z" />
    <glyph glyph-name="afii10053" unicode="&#x404;" horiz-adv-x="521" 
d="M281 -10q-112 0 -167 69t-55 189q0 65 14.5 132.5t43.5 129t72 110t100 76.5t128 28q92 0 155 -38l-39 -71q-23 14 -51.5 23.5t-63.5 9.5q-65 0 -114 -34t-81.5 -88t-49.5 -115h261l-16 -76h-262q-4 -21 -5 -42.5t-1 -42.5q0 -87 36.5 -135.5t110.5 -48.5q35 0 68.5 8
t67.5 20v-75q-35 -14 -72 -21.5t-80 -7.5z" />
    <glyph glyph-name="afii10054" unicode="&#x405;" horiz-adv-x="458" 
d="M159 -10q-49 0 -87 8t-68 24l4 87q28 -17 67 -29.5t85 -12.5q63 0 106.5 32.5t43.5 99.5q0 40 -22 68.5t-80 69.5q-50 36 -82 75.5t-32 105.5q0 64 29.5 110.5t80.5 71t114 24.5q48 0 88.5 -11t73.5 -29l-36 -75q-25 15 -59 26t-69 11q-57 0 -94 -32t-37 -89
q0 -30 10.5 -51t31.5 -39.5t54 -42.5q37 -26 64 -51.5t41.5 -57.5t14.5 -77q0 -102 -65 -159t-177 -57z" />
    <glyph glyph-name="afii10055" unicode="&#x406;" horiz-adv-x="301" 
d="M-31 0l10 48l82 18l124 582l-75 18l10 48h243l-10 -48l-83 -18l-124 -582l75 -18l-9 -48h-243z" />
    <glyph glyph-name="afii10056" unicode="&#x407;" horiz-adv-x="301" 
d="M-31 0l10 48l82 18l124 582l-75 18l10 48h243l-10 -48l-83 -18l-124 -582l75 -18l-9 -48h-243zM346 812q-18 0 -29 10.5t-11 29.5q0 24 14 42t39 18q38 0 38 -38q0 -29 -16 -45.5t-35 -16.5zM177 812q-17 0 -28 10.5t-11 29.5q0 24 13.5 42t39.5 18q37 0 37 -38
q0 -29 -15.5 -45.5t-35.5 -16.5z" />
    <glyph glyph-name="afii10057" unicode="&#x408;" horiz-adv-x="247" 
d="M-80 -191q-23 0 -42 3.5t-31 8.5l9 75q14 -4 29.5 -7t32.5 -3q84 0 110 120l150 708h86l-152 -720q-21 -98 -70 -141.5t-122 -43.5z" />
    <glyph glyph-name="afii10058" unicode="&#x409;" horiz-adv-x="799" 
d="M12 -9q-16 0 -30.5 2.5t-24.5 6.5v76q10 -4 21.5 -6.5t23.5 -2.5q24 0 43.5 10.5t37 40.5t37.5 87q20 55 45 138t52 179.5t54 191.5h300l-63 -301h40q73 0 116.5 -21.5t62.5 -59.5t19 -88q0 -115 -70 -179.5t-194 -64.5h-148l134 635h-135q-15 -57 -33 -120.5
t-36.5 -126.5t-35 -117.5t-30.5 -92.5q-22 -63 -46 -104.5t-57 -62t-83 -20.5zM435 74h61q82 0 122 44t40 119q0 55 -30 78t-85 23h-51z" />
    <glyph glyph-name="afii10059" unicode="&#x40a;" horiz-adv-x="805" 
d="M26 0l151 714h86l-64 -301h229l64 301h85l-63 -301h40q72 0 115.5 -21.5t63 -60t19.5 -88.5q0 -119 -72 -181t-192 -62h-147l71 337h-230l-70 -337h-86zM442 74h60q80 0 121 42.5t41 119.5q0 56 -30.5 78.5t-86.5 22.5h-48z" />
    <glyph glyph-name="afii10060" unicode="&#x40b;" horiz-adv-x="597" 
d="M92 0l135 637h-140l17 77h393l-16 -77h-168l-43 -199h102q82 0 120.5 -35t38.5 -103q0 -18 -2.5 -37.5t-7.5 -41.5l-46 -221h-87l50 227q4 17 5.5 33t1.5 30q0 38 -21 54.5t-67 16.5h-103l-77 -361h-85z" />
    <glyph glyph-name="afii10061" unicode="&#x40c;" horiz-adv-x="503" 
d="M26 0l151 714h86l-74 -346l300 346h101l-314 -354l179 -360h-96l-172 358l-75 -358h-86zM319 786l1 12q29 32 59.5 73t51.5 75h97v-9q-14 -19 -42 -48t-59 -57.5t-54 -45.5h-54z" />
    <glyph glyph-name="afii10062" unicode="&#x40e;" horiz-adv-x="493" 
d="M59 -10q-21 0 -41 4t-32 9v82q29 -17 69 -17q31 0 54 13t45.5 43.5t50.5 81.5l-108 508h86l60 -306q7 -31 13 -64t10 -60q11 27 24 55.5t29 56.5l171 318h95l-306 -547q-52 -91 -101.5 -134t-118.5 -43zM351 785q-75 0 -108.5 32t-33.5 84q0 9 1 18.5t3 16.5h72
q-3 -17 -3 -31q0 -28 16.5 -44.5t56.5 -16.5q42 0 68.5 20.5t36.5 71.5h77q-14 -73 -58.5 -112t-127.5 -39z" />
    <glyph glyph-name="afii10145" unicode="&#x40f;" horiz-adv-x="606" 
d="M165 -189l41 189h-180l152 714h86l-136 -638h269l135 638h86l-151 -714h-179l-40 -189h-83z" />
    <glyph glyph-name="afii10017" unicode="&#x410;" horiz-adv-x="504" 
d="M-60 0l355 715h97l57 -715h-86l-17 224h-204l-108 -224h-94zM179 301h163l-9 187q-2 33 -4.5 70t-1.5 66h-3q-12 -31 -27.5 -65.5t-33.5 -72.5z" />
    <glyph glyph-name="afii10018" unicode="&#x411;" horiz-adv-x="508" 
d="M27 0l151 714h331l-17 -77h-244l-48 -224h57q73 0 116 -21.5t62.5 -60.5t19.5 -89q0 -117 -71.5 -179.5t-193.5 -62.5h-163zM128 74h76q80 0 121 42.5t41 119.5q0 56 -30.5 79t-86.5 23h-64z" />
    <glyph glyph-name="afii10019" unicode="&#x412;" horiz-adv-x="538" 
d="M26 0l151 714h166q86 0 138 -38t52 -117q0 -71 -39.5 -120.5t-111.5 -65.5v-4q45 -13 73 -49t28 -91q0 -71 -31.5 -122t-89 -79t-134.5 -28h-202zM198 409h95q65 0 107.5 37.5t42.5 101.5q0 45 -26.5 68.5t-86.5 23.5h-83zM127 74h103q80 0 121.5 43t41.5 113
q0 47 -27.5 77t-89.5 30h-93z" />
    <glyph glyph-name="afii10020" unicode="&#x413;" horiz-adv-x="422" 
d="M26 0l151 714h319l-16 -77h-234l-134 -637h-86z" />
    <glyph glyph-name="afii10021" unicode="&#x414;" horiz-adv-x="569" 
d="M-88 -188l56 265h47q42 63 83.5 140.5t80 162t69 170t49.5 164.5h274l-135 -637h79l-56 -265h-83l40 188h-382l-40 -188h-82zM110 77h239l120 560h-110q-18 -65 -46.5 -141t-62.5 -153t-70 -146t-70 -120z" />
    <glyph glyph-name="afii10022" unicode="&#x415;" horiz-adv-x="460" 
d="M26 0l151 714h324l-16 -76h-239l-47 -227h222l-15 -76h-223l-56 -259h239l-16 -76h-324z" />
    <glyph glyph-name="afii10024" unicode="&#x416;" horiz-adv-x="704" 
d="M-56 0l300 375l-145 339h91l142 -341l72 341h83l-72 -341l278 341h99l-293 -354l147 -360h-93l-141 359l-76 -359h-83l76 359l-284 -359h-101z" />
    <glyph glyph-name="afii10025" unicode="&#x417;" horiz-adv-x="484" 
d="M160 -10q-52 0 -93 8.5t-76 25.5v85q31 -20 76 -33t94 -13q60 0 98.5 21.5t57 56.5t18.5 77q0 60 -36 87.5t-102 27.5h-84l15 73h80q48 0 89 17t66 51t25 85q0 46 -26 69t-73 23q-41 0 -77.5 -14.5t-71.5 -38.5l-34 62q45 32 92.5 48t108.5 16q79 0 124 -41.5t45 -111.5
q0 -77 -46 -130t-126 -70l-1 -3q53 -10 87.5 -47.5t34.5 -104.5q0 -62 -30 -113.5t-89.5 -82t-145.5 -30.5z" />
    <glyph glyph-name="afii10026" unicode="&#x418;" horiz-adv-x="634" 
d="M26 0l151 714h82l-76 -359q-7 -35 -16 -75t-18 -77.5t-15 -63.5h2l409 575h100l-151 -714h-81l76 360q8 38 17 80t17.5 80t16.5 63h-2l-411 -583h-101z" />
    <glyph glyph-name="afii10027" unicode="&#x419;" horiz-adv-x="634" 
d="M26 0l151 714h82l-76 -359q-7 -35 -16 -75t-18 -77.5t-15 -63.5h2l409 575h100l-151 -714h-81l76 360q8 38 17 80t17.5 80t16.5 63h-2l-411 -583h-101zM425 785q-75 0 -108.5 32t-33.5 84q0 9 1 18.5t3 16.5h72q-3 -17 -3 -31q0 -28 16.5 -44.5t56.5 -16.5
q42 0 68.5 20.5t36.5 71.5h77q-14 -73 -58.5 -112t-127.5 -39z" />
    <glyph glyph-name="afii10028" unicode="&#x41a;" horiz-adv-x="503" 
d="M26 0l151 714h86l-74 -346l300 346h101l-314 -354l179 -360h-96l-172 358l-75 -358h-86z" />
    <glyph glyph-name="afii10029" unicode="&#x41b;" horiz-adv-x="577" 
d="M15 -9q-18 0 -32.5 2.5t-24.5 6.5v76q10 -4 22 -6.5t24 -2.5q36 0 61 25t51 97q16 43 35 104.5t40 132.5t42 145t40 143h319l-152 -714h-86l135 635h-155q-15 -55 -33 -120t-37.5 -131t-37.5 -124.5t-33 -99.5q-21 -54 -43.5 -92t-54.5 -57.5t-80 -19.5z" />
    <glyph glyph-name="afii10030" unicode="&#x41c;" horiz-adv-x="770" 
d="M25 0l151 714h121l52 -583h3l297 583h131l-150 -714h-86l95 446q11 50 21 91.5t18 70.5h-2l-314 -608h-75l-56 607h-3q-4 -31 -11.5 -76.5t-16.5 -87.5l-94 -443h-81z" />
    <glyph glyph-name="afii10031" unicode="&#x41d;" horiz-adv-x="608" 
d="M27 0l151 714h85l-64 -303h270l64 303h85l-151 -714h-85l70 334h-269l-71 -334h-85z" />
    <glyph glyph-name="afii10032" unicode="&#x41e;" horiz-adv-x="638" 
d="M283 -10q-109 0 -167 66t-58 186q0 88 22.5 174t65.5 156t105.5 111.5t142.5 41.5q106 0 162.5 -66t56.5 -186q0 -68 -13 -136.5t-39 -131t-65.5 -111t-92.5 -76.5t-120 -28zM288 67q56 0 100 37t74 97t45.5 131.5t15.5 141.5q0 85 -35.5 129.5t-99.5 44.5
q-46 0 -84 -24.5t-67 -66.5t-48.5 -94.5t-29.5 -109t-10 -110.5q0 -86 36.5 -131t102.5 -45z" />
    <glyph glyph-name="afii10033" unicode="&#x41f;" horiz-adv-x="606" 
d="M26 0l151 714h440l-151 -714h-86l135 637h-269l-134 -637h-86z" />
    <glyph glyph-name="afii10034" unicode="&#x420;" horiz-adv-x="507" 
d="M26 0l151 714h142q102 0 148.5 -48t46.5 -127q0 -120 -73.5 -190t-212.5 -70h-57l-59 -279h-86zM186 353h50q89 0 139.5 46t50.5 134q0 55 -30 80.5t-90 25.5h-59z" />
    <glyph glyph-name="afii10035" unicode="&#x421;" horiz-adv-x="513" 
d="M278 -10q-104 0 -161.5 67.5t-57.5 189.5q0 63 14 129.5t42.5 128.5t71 111.5t100 78.5t129.5 29q90 0 153 -38l-38 -71q-23 14 -51.5 23.5t-63.5 9.5q-55 0 -98 -25t-74.5 -67.5t-52.5 -94.5t-31.5 -106.5t-10.5 -103.5q0 -89 37.5 -137t108.5 -48q35 0 68 8t67 20v-77
q-35 -13 -70.5 -20t-81.5 -7z" />
    <glyph glyph-name="afii10036" unicode="&#x422;" horiz-adv-x="443" 
d="M120 0l135 637h-169l17 77h424l-16 -77h-169l-135 -637h-87z" />
    <glyph glyph-name="afii10037" unicode="&#x423;" horiz-adv-x="493" 
d="M59 -10q-21 0 -41 4t-32 9v82q29 -17 69 -17q31 0 54 13t45.5 43.5t50.5 81.5l-108 508h86l60 -306q7 -31 13 -64t10 -60q11 27 24 55.5t29 56.5l171 318h95l-306 -547q-52 -91 -101.5 -134t-118.5 -43z" />
    <glyph glyph-name="afii10038" unicode="&#x424;" horiz-adv-x="685" 
d="M236 -10l24 110q-94 7 -146.5 60.5t-52.5 152.5q0 88 33.5 160t103 115.5t176.5 47.5l18 88h86l-18 -88q92 -5 145 -58.5t53 -150.5q0 -61 -18 -118.5t-56 -103.5t-97 -74t-141 -31l-24 -110h-86zM274 174l83 388q-73 -1 -119 -36.5t-68 -91.5t-22 -118q0 -67 33 -103.5
t93 -38.5zM361 174q71 3 117.5 38.5t69 91t22.5 119.5t-32.5 100.5t-94.5 38.5z" />
    <glyph glyph-name="afii10039" unicode="&#x425;" horiz-adv-x="470" 
d="M-55 0l264 377l-99 337h88l72 -269l185 269h93l-242 -343l103 -371h-91l-74 301l-205 -301h-94z" />
    <glyph glyph-name="afii10040" unicode="&#x426;" horiz-adv-x="608" 
d="M410 -188l41 188h-424l151 714h86l-135 -637h260l135 637h86l-134 -637h74l-57 -265h-83z" />
    <glyph glyph-name="afii10041" unicode="&#x427;" horiz-adv-x="576" 
d="M348 0l62 291q-32 -16 -76.5 -29t-92.5 -13q-67 0 -103.5 34t-36.5 96q0 37 10 76l55 259h85l-53 -254q-9 -39 -9 -62q0 -36 18.5 -54t59.5 -18q42 0 83.5 11.5t75.5 26.5l73 350h87l-151 -714h-87z" />
    <glyph glyph-name="afii10042" unicode="&#x428;" horiz-adv-x="853" 
d="M25 0l151 714h87l-136 -637h217l134 637h87l-135 -637h216l134 637h86l-151 -714h-690z" />
    <glyph glyph-name="afii10043" unicode="&#x429;" horiz-adv-x="863" 
d="M667 -188l40 188h-682l151 714h87l-136 -637h217l134 637h87l-135 -637h216l135 637h85l-135 -637h75l-57 -265h-82z" />
    <glyph glyph-name="afii10044" unicode="&#x42a;" horiz-adv-x="573" 
d="M95 0l135 637h-147l17 77h232l-64 -301h54q72 0 115.5 -21.5t62.5 -60.5t19 -89q0 -116 -71.5 -179t-190.5 -63h-162zM197 74h71q81 0 122 42.5t41 119.5q0 56 -30 79t-85 23h-63z" />
    <glyph glyph-name="afii10045" unicode="&#x42b;" horiz-adv-x="726" 
d="M26 0l151 714h86l-64 -301h53q72 0 115.5 -21.5t63 -60t19.5 -88.5q0 -114 -71 -178.5t-193 -64.5h-160zM500 0l151 714h86l-151 -714h-86zM127 74h71q82 0 122.5 44t40.5 119q0 55 -30.5 78t-85.5 23h-62z" />
    <glyph glyph-name="afii10046" unicode="&#x42c;" horiz-adv-x="503" 
d="M26 0l151 714h85l-63 -301h54q73 0 116 -21.5t62 -60t19 -88.5q0 -114 -70.5 -178.5t-192.5 -64.5h-161zM127 74h72q83 0 123 44t40 119q0 55 -30 78t-85 23h-64z" />
    <glyph glyph-name="afii10047" unicode="&#x42d;" horiz-adv-x="522" 
d="M146 -10q-44 0 -79 8t-68 25v82q35 -17 70.5 -27.5t79.5 -10.5q100 0 160.5 70.5t82.5 196.5h-263l16 77h257q2 13 3 28t1 32q0 81 -35.5 129t-105.5 48q-39 0 -71 -9t-64 -22l-23 71q35 15 77.5 25.5t90.5 10.5q103 0 161.5 -64t58.5 -189q0 -69 -11.5 -138t-37 -130.5
t-66.5 -109.5t-99 -75.5t-135 -27.5z" />
    <glyph glyph-name="afii10048" unicode="&#x42e;" horiz-adv-x="861" 
d="M519 -10q-75 0 -122 31.5t-69 87t-22 128.5q0 23 2 47t6 50h-132l-70 -334h-86l151 714h86l-64 -303h128q21 86 61.5 157.5t101.5 114t142 42.5q96 0 150 -64.5t54 -184.5q0 -67 -12.5 -135.5t-38 -131.5t-63.5 -112t-88.5 -78t-114.5 -29zM523 67q45 0 81 26.5t62.5 71
t44 99t26.5 110.5t9 105q0 83 -33 126t-93 43q-43 0 -78 -25t-62.5 -68t-46.5 -96.5t-28.5 -110.5t-9.5 -110q0 -76 30 -123.5t98 -47.5z" />
    <glyph glyph-name="afii10049" unicode="&#x42f;" horiz-adv-x="517" 
d="M-45 0l235 323q-38 20 -62 57.5t-24 97.5q0 78 33 130.5t91 79t133 26.5h166l-150 -714h-87l63 297h-85l-211 -297h-102zM311 370h58l57 270h-69q-74 0 -119.5 -39t-45.5 -116q0 -53 29.5 -84t89.5 -31z" />
    <glyph glyph-name="afii10065" unicode="&#x430;" horiz-adv-x="515" 
d="M170 -10q-60 0 -95.5 43.5t-35.5 127.5q0 68 17 136t49 124.5t77.5 90.5t102.5 34q46 0 75 -25t43 -63h4l29 78h66l-114 -536h-67l11 91h-4q-32 -43 -71 -72t-87 -29zM197 61q35 0 66.5 27t56 71.5t38.5 96.5q9 36 13 66t4 55q0 43 -21.5 70t-59.5 27q-37 0 -68 -28
t-53.5 -74t-34.5 -101.5t-12 -109.5q0 -100 71 -100z" />
    <glyph glyph-name="afii10066" unicode="&#x431;" horiz-adv-x="493" 
d="M207 -10q-78 0 -122.5 51t-44.5 154q0 48 8.5 109.5t26.5 126.5t48 124t73.5 103t101.5 62q16 5 44.5 12t62 13.5t65.5 11.5t56 8l6 -72q-28 -3 -65 -9.5t-74 -14.5t-65 -17q-62 -20 -104.5 -82t-67.5 -153h3q25 31 64.5 56t88.5 25q68 0 102.5 -44t34.5 -125
q0 -61 -14.5 -121t-44 -109.5t-75 -79t-108.5 -29.5zM214 61q40 0 68 26.5t45.5 67t26 85t8.5 81.5q0 51 -17 79t-56 28q-31 0 -59 -15.5t-51 -39t-38 -47.5q-7 -37 -11.5 -71t-4.5 -63q0 -61 21 -96t68 -35z" />
    <glyph glyph-name="afii10067" unicode="&#x432;" horiz-adv-x="497" 
d="M226 -10q-94 0 -140.5 53t-46.5 147q0 66 16.5 129.5t50 114.5t84.5 81t120 30q76 0 118.5 -33t42.5 -96q0 -60 -36 -95t-95 -48v-3q40 -10 65.5 -36.5t25.5 -76.5q0 -41 -21 -79t-66 -63t-118 -25zM138 304h98q40 0 74.5 11t55 34t20.5 59q0 30 -19 49t-60 19
q-63 0 -106 -45t-63 -127zM233 59q59 0 87.5 29.5t28.5 69.5q0 38 -27.5 58.5t-85.5 20.5h-109q-1 -11 -1.5 -23t-0.5 -25q0 -70 29 -100t79 -30z" />
    <glyph glyph-name="afii10068" unicode="&#x433;" horiz-adv-x="407" 
d="M173 -10q-65 0 -111 31t-47 100q0 51 23 85.5t60.5 57.5t78.5 41q54 25 89.5 49t35.5 67q0 25 -15.5 39.5t-50.5 14.5q-34 0 -66 -10t-59 -23l-22 66q32 15 71.5 26t85.5 11q63 0 102 -29t39 -91q0 -45 -21.5 -77t-56.5 -54t-74 -40q-44 -20 -74 -37t-45 -37.5t-15 -51.5
q0 -32 21.5 -49.5t64.5 -17.5q35 0 68.5 11t64.5 26v-74q-32 -16 -68 -25t-79 -9z" />
    <glyph glyph-name="afii10069" unicode="&#x434;" horiz-adv-x="511" 
d="M201 -10q-79 0 -120 50t-41 132q0 54 14 113.5t42.5 111.5t72.5 84t104 32q49 0 78 -21.5t44 -49.5h3q1 11 1 23v21q0 109 -29 161t-90 52q-23 0 -48.5 -6.5t-47.5 -16.5l-21 64q25 13 60 21.5t69 8.5q100 0 146 -74t46 -210q0 -60 -9.5 -128t-30.5 -133t-54 -118
t-80 -85t-109 -32zM208 61q37 0 66.5 26t51.5 69t37 94.5t22 103.5q-13 40 -39.5 66t-65.5 26q-34 0 -62.5 -24t-49 -64t-32 -88.5t-11.5 -96.5q0 -51 19.5 -81.5t63.5 -30.5z" />
    <glyph glyph-name="afii10070" unicode="&#x435;" horiz-adv-x="456" 
d="M213 -10q-83 0 -128.5 50t-45.5 138q0 70 18 136t51.5 118.5t80.5 83t105 30.5q67 0 102 -31.5t35 -88.5q0 -82 -71 -136.5t-219 -54.5h-13q-2 -12 -3 -25.5t-1 -26.5q0 -59 26 -91t80 -32q34 0 64 9.5t66 27.5v-71q-34 -17 -68 -26.5t-79 -9.5zM140 302h6q89 0 146.5 29
t57.5 89q0 25 -15.5 40.5t-47.5 15.5q-44 0 -85 -47t-62 -127z" />
    <glyph glyph-name="afii10072" unicode="&#x436;" horiz-adv-x="761" 
d="M25 -9q-28 0 -52 6l15 70q17 -5 38 -5q42 0 73.5 28.5t52.5 73.5t31.5 95.5t10.5 94.5q0 55 -20 87.5t-64 32.5q-22 0 -43 -6v70q12 3 27 5t30 2q76 0 115 -49t39 -138q0 -13 -1 -26.5t-3 -27.5h76l49 232h79l-50 -232h73q9 43 27.5 85.5t47.5 77.5t68.5 56.5t92.5 21.5
q14 0 28 -1.5t28 -5.5l-17 -69q-8 2 -18.5 3t-21.5 1q-41 0 -72 -27.5t-51.5 -71.5t-31 -95t-10.5 -97q0 -55 19 -87.5t64 -32.5q13 0 23 1.5t21 4.5v-70q-11 -2 -26.5 -4.5t-31.5 -2.5q-76 0 -115 48.5t-39 138.5q0 14 1 29t3 31h-76l-50 -238h-78l51 238h-73
q-16 -67 -47 -123t-79 -90t-113 -34z" />
    <glyph glyph-name="afii10073" unicode="&#x437;" horiz-adv-x="397" 
d="M130 -10q-40 0 -77 9t-62 23v79q25 -16 61 -28.5t80 -12.5q58 0 91 29.5t33 76.5q0 36 -20 57.5t-69 21.5h-63l16 69h44q32 0 60.5 10t46.5 31t18 56q0 64 -73 64q-29 0 -55.5 -7.5t-58.5 -22.5l-24 64q36 19 72 28t80 9q68 0 105.5 -32t37.5 -90q0 -54 -30.5 -90.5
t-85.5 -50.5l-1 -3q38 -10 60 -38.5t22 -74.5q0 -50 -23.5 -90t-70 -63.5t-114.5 -23.5z" />
    <glyph glyph-name="afii10074" unicode="&#x438;" horiz-adv-x="518" 
d="M164 -10q-56 0 -88 31.5t-32 90.5q0 21 3 42.5t8 44.5l72 337h85l-73 -340q-9 -44 -9 -72q0 -29 14 -45.5t45 -16.5q33 0 66 23t61 72t45 127l54 252h83l-114 -536h-68l9 88h-4q-26 -38 -65 -68t-92 -30z" />
    <glyph glyph-name="afii10075" unicode="&#x439;" horiz-adv-x="518" 
d="M164 -10q-56 0 -88 31.5t-32 90.5q0 21 3 42.5t8 44.5l72 337h85l-73 -340q-9 -44 -9 -72q0 -29 14 -45.5t45 -16.5q33 0 66 23t61 72t45 127l54 252h83l-114 -536h-68l9 88h-4q-26 -38 -65 -68t-92 -30zM329 605q-75 0 -108.5 32t-33.5 84q0 9 1 18.5t3 16.5h72
q-3 -17 -3 -31q0 -28 16.5 -44.5t56.5 -16.5q42 0 68.5 20.5t36.5 71.5h77q-14 -73 -58.5 -112t-127.5 -39z" />
    <glyph glyph-name="afii10076" unicode="&#x43a;" horiz-adv-x="438" 
d="M18 0l113 536h83l-54 -256l224 256h101l-237 -262l144 -274h-97l-137 270l-56 -270h-84z" />
    <glyph glyph-name="afii10077" unicode="&#x43b;" horiz-adv-x="486" 
d="M-6 -7q-13 0 -23 2.5t-17 4.5v73q14 -6 31 -6q29 1 49.5 20.5t39.5 65t41 122.5q26 89 53 148.5t70.5 88.5t116.5 29q31 0 59.5 -4t55.5 -10l-113 -527h-84l101 465q-14 3 -34 3q-39 0 -63 -20.5t-43.5 -69t-44.5 -130.5q-25 -84 -49.5 -140.5t-58.5 -85t-87 -29.5z" />
    <glyph glyph-name="afii10078" unicode="&#x43c;" horiz-adv-x="630" 
d="M18 0l114 535h110l36 -424h2l215 424h117l-112 -535h-78l64 302q8 34 16.5 69t16.5 67h-2l-226 -438h-67l-41 437h-2q-5 -28 -11 -63t-13 -69l-63 -305h-76z" />
    <glyph glyph-name="afii10079" unicode="&#x43d;" horiz-adv-x="533" 
d="M18 0l114 536h83l-46 -223h212l48 223h84l-114 -536h-84l51 242h-213l-51 -242h-84z" />
    <glyph glyph-name="afii10080" unicode="&#x43e;" horiz-adv-x="506" 
d="M213 -9q-81 0 -127 50.5t-46 139.5q0 58 15 121t46.5 118t79 89.5t113.5 34.5q81 0 127 -51t46 -140q0 -61 -16 -125t-47.5 -117.5t-79 -86.5t-111.5 -33zM219 62q35 0 64.5 24t51.5 65.5t34 95.5t12 113q0 44 -20.5 78.5t-69.5 34.5q-40 0 -71 -26.5t-52 -70.5
t-32 -95.5t-11 -101.5q0 -56 24 -86.5t70 -30.5z" />
    <glyph glyph-name="afii10081" unicode="&#x43f;" horiz-adv-x="517" 
d="M15 -2l114 540h73l-11 -89h1q26 37 65 68t94 31q56 0 89.5 -31.5t33.5 -91.5q0 -23 -4 -47.5t-9 -45.5l-71 -334h-88l71 338q5 22 8.5 41.5t3.5 35.5q0 58 -59 58q-49 0 -97 -52t-72 -168l-54 -253h-88z" />
    <glyph glyph-name="afii10082" unicode="&#x440;" horiz-adv-x="520" 
d="M-32 -237l164 773h69l-11 -92h3q32 44 71 72.5t87 28.5q59 0 94.5 -42.5t35.5 -127.5q0 -67 -16.5 -135t-47.5 -125t-77 -91t-104 -34q-46 0 -75.5 25t-43.5 61h-4q-2 -20 -6.5 -47t-8.5 -46l-47 -220h-83zM229 61q38 0 68.5 28.5t52.5 75.5t33.5 102t11.5 108
q0 100 -73 100q-34 0 -66 -29t-57.5 -76t-40 -102.5t-14.5 -108.5q0 -45 21 -71.5t64 -26.5z" />
    <glyph glyph-name="afii10083" unicode="&#x441;" horiz-adv-x="403" 
d="M213 -10q-79 0 -126 46.5t-47 139.5q0 68 17 133.5t50.5 119t82.5 85.5t112 32q65 0 117 -25l-27 -70q-17 9 -40.5 16t-48.5 7q-41 0 -74 -25.5t-56 -68t-35 -95t-12 -105.5q0 -58 26 -88.5t73 -30.5q29 0 56 8.5t55 22.5v-71q-25 -13 -56 -22t-67 -9z" />
    <glyph glyph-name="afii10084" unicode="&#x442;" horiz-adv-x="779" 
d="M17 0l114 536h69l-11 -88h5q25 38 62.5 68t89.5 30q48 0 75 -26.5t34 -74.5h3q28 41 68 71t92 30q55 0 85.5 -31t30.5 -90q0 -21 -3 -40.5t-8 -40.5l-72 -344h-85l74 345q4 21 6 37t2 30q0 28 -14 44.5t-44 16.5q-46 0 -90 -49.5t-64 -143.5l-59 -280h-84l73 348
q9 39 9 62q0 30 -13.5 46.5t-43.5 16.5q-50 0 -95 -55t-68 -165l-53 -253h-85z" />
    <glyph glyph-name="afii10085" unicode="&#x443;" horiz-adv-x="420" 
d="M-31 -240q-21 0 -35.5 3t-27.5 7l4 70q12 -4 26 -6.5t29 -2.5q37 0 61.5 24.5t47.5 68.5l36 72l-56 540h84l22 -277q4 -42 6 -90.5t1 -80.5h3q6 18 18 45.5t24 55.5t22 47l147 300h89l-318 -631q-37 -71 -77 -108t-106 -37z" />
    <glyph glyph-name="afii10086" unicode="&#x444;" horiz-adv-x="612" 
d="M159 -240l49 232q-82 10 -125.5 64.5t-43.5 148.5q0 61 17.5 120t53 107.5t89.5 78.5t126 33l46 216h78l-45 -216q80 -11 125 -63t45 -147q0 -63 -19 -123.5t-56 -109.5t-90.5 -78.5t-122.5 -30.5l-48 -232h-79zM223 63l87 410q-48 -3 -83 -27.5t-58 -63.5t-34 -85
t-11 -92q0 -63 26.5 -100t72.5 -42zM302 63q50 3 85.5 29.5t57.5 67t32.5 86.5t10.5 86q0 64 -26.5 99.5t-71.5 40.5z" />
    <glyph glyph-name="afii10087" unicode="&#x445;" horiz-adv-x="432" 
d="M-40 0l210 277l-92 259h86l64 -195l139 195h96l-202 -264l99 -272h-86l-71 207l-148 -207h-95z" />
    <glyph glyph-name="afii10088" unicode="&#x446;" horiz-adv-x="535" 
d="M337 -186l40 183q-26 7 -38 28t-12 62h-4q-27 -40 -66 -68.5t-93 -28.5q-56 0 -88 31t-32 91q0 22 3 43.5t8 44.5l72 336h85l-73 -340q-9 -44 -9 -71q0 -30 14 -46.5t45 -16.5q32 0 65.5 23t61.5 72t45 127l54 252h83l-79 -373q-10 -41 -10 -66q0 -34 35 -34q14 0 32 6
l-55 -255h-84z" />
    <glyph glyph-name="afii10089" unicode="&#x447;" horiz-adv-x="503" 
d="M284 0l35 162q5 28 12.5 55t14.5 48h-3q-26 -36 -65.5 -59.5t-87.5 -23.5q-58 0 -89 33t-31 91q0 21 3.5 45.5t8.5 50.5l29 134h85l-30 -139q-5 -25 -8 -44t-3 -36q0 -33 16.5 -47.5t45.5 -14.5q33 0 64.5 18.5t58 62t42.5 119.5l18 81h83l-114 -536h-85z" />
    <glyph glyph-name="afii10090" unicode="&#x448;" horiz-adv-x="778" 
d="M160 -10q-56 0 -86 32t-30 90q0 21 3 42.5t8 43.5l72 338h85l-73 -340q-5 -23 -7.5 -40t-2.5 -32q0 -28 14.5 -44.5t44.5 -16.5q47 0 91 52.5t65 149.5l58 271h84l-74 -344q-9 -42 -9 -65q0 -64 57 -64q50 0 94 55.5t67 164.5l54 253h84l-114 -536h-68l9 85h-4
q-26 -36 -62 -65.5t-88 -29.5q-48 0 -75 26.5t-34 74.5h-3q-28 -41 -68 -71t-92 -30z" />
    <glyph glyph-name="afii10091" unicode="&#x449;" horiz-adv-x="795" 
d="M597 -186l40 183q-26 7 -38.5 27t-13.5 60h-3q-26 -38 -63 -66t-87 -28q-48 0 -75 26.5t-34 74.5h-3q-28 -41 -68 -71t-92 -30q-56 0 -86 32t-30 90q0 21 3 42.5t8 43.5l72 338h85l-73 -341q-5 -23 -7.5 -39.5t-2.5 -31.5q0 -28 14.5 -44.5t44.5 -16.5q47 0 91 52.5
t65 149.5l58 271h84l-74 -344q-9 -42 -9 -65q0 -64 57 -64q50 0 94 55.5t67 164.5l54 253h84l-82 -384q-3 -16 -5 -31t-2 -24q0 -34 34 -34q9 0 17.5 2t15.5 4l-56 -255h-84z" />
    <glyph glyph-name="afii10092" unicode="&#x44a;" horiz-adv-x="535" 
d="M280 -10q-74 0 -114.5 35t-40.5 105q0 22 3.5 46.5t8.5 46.5l52 240h-146l15 73h230l-49 -232q18 3 40.5 6t45.5 3q77 0 114.5 -36t37.5 -103q0 -51 -22 -92.5t-65.5 -66.5t-109.5 -25zM288 58q54 0 80 33.5t26 75.5t-22.5 59.5t-66.5 17.5q-19 0 -40 -2t-41 -6
q-8 -38 -11.5 -61t-3.5 -38q0 -35 17.5 -57t61.5 -22z" />
    <glyph glyph-name="afii10093" unicode="&#x44b;" horiz-adv-x="660" 
d="M204 -10q-72 0 -113 34t-41 106q0 20 3 42.5t7 43.5l68 320h84l-49 -232q19 3 41 6t45 3q76 0 113.5 -36.5t37.5 -101.5q0 -51 -22 -93t-65.5 -67t-108.5 -25zM443 0l113 536h84l-114 -536h-83zM210 58q54 0 80 33t26 76q0 42 -22 59.5t-66 17.5q-38 0 -80 -8
q-8 -40 -12 -62t-4 -37q0 -36 18 -57.5t60 -21.5z" />
    <glyph glyph-name="afii10094" unicode="&#x44c;" horiz-adv-x="469" 
d="M207 -10q-74 0 -115.5 34t-41.5 107q0 19 3 42t7 44l68 319h84l-50 -233q20 4 44 7t50 3q82 0 118.5 -38.5t36.5 -100.5q0 -52 -23.5 -93.5t-69.5 -66t-111 -24.5zM215 58q58 0 85 33t27 76q0 37 -20.5 57t-68.5 20q-24 0 -47 -2t-43 -6q-8 -39 -12 -61.5t-4 -37.5
q0 -33 17.5 -56t65.5 -23z" />
    <glyph glyph-name="afii10095" unicode="&#x44d;" horiz-adv-x="410" 
d="M109 -10q-35 0 -64.5 6.5t-46.5 14.5v78q26 -13 52.5 -20.5t55.5 -7.5q68 0 109.5 50t57.5 130h-192l14 70h188q1 8 1.5 18t0.5 18q0 66 -25.5 97t-75.5 31q-27 0 -52.5 -7t-47.5 -18l-22 65q27 13 60.5 21.5t73.5 8.5q88 0 131 -51t43 -142q0 -63 -14 -127t-44.5 -117
t-80.5 -85.5t-122 -32.5z" />
    <glyph glyph-name="afii10096" unicode="&#x44e;" horiz-adv-x="706" 
d="M422 -9q-82 0 -124 51.5t-42 136.5q0 33 5 63h-108l-52 -242h-83l114 536h83l-47 -223h105q29 109 88.5 170t139.5 61q81 0 123 -51.5t42 -137.5q0 -61 -15.5 -125t-46 -118t-76 -87.5t-106.5 -33.5zM428 62q33 0 61 25t48.5 68t31.5 96.5t11 109.5q0 53 -21 82.5
t-62 29.5q-39 0 -68 -28.5t-49 -73.5t-29.5 -96.5t-9.5 -97.5q0 -53 21 -84t66 -31z" />
    <glyph glyph-name="afii10097" unicode="&#x44f;" horiz-adv-x="479" 
d="M11 -6q-13 0 -23 2t-16 4v67q9 -3 24 -3q23 0 39 16.5t34 57.5q17 42 37 69t51 39q-41 13 -61 43.5t-20 73.5q0 76 52.5 124.5t151.5 48.5h178l-114 -536h-83l46 217h-52q-42 0 -63 -22.5t-45 -77.5q-27 -61 -54.5 -92t-81.5 -31zM252 286h70l38 180h-91q-53 0 -81 -29
t-28 -75q0 -41 25 -58.5t67 -17.5z" />
    <glyph glyph-name="afii10071" unicode="&#x451;" horiz-adv-x="456" 
d="M213 -10q-83 0 -128.5 50t-45.5 138q0 70 18 136t51.5 118.5t80.5 83t105 30.5q67 0 102 -31.5t35 -88.5q0 -82 -71 -136.5t-219 -54.5h-13q-2 -12 -3 -25.5t-1 -26.5q0 -59 26 -91t80 -32q34 0 64 9.5t66 27.5v-71q-34 -17 -68 -26.5t-79 -9.5zM140 302h6q89 0 146.5 29
t57.5 89q0 25 -15.5 40.5t-47.5 15.5q-44 0 -85 -47t-62 -127zM396 631q-18 0 -29 10.5t-11 29.5q0 24 14 42t39 18q38 0 38 -38q0 -29 -16 -45.5t-35 -16.5zM227 631q-17 0 -28 10.5t-11 29.5q0 24 13.5 42t39.5 18q37 0 37 -38q0 -29 -15.5 -45.5t-35.5 -16.5z" />
    <glyph glyph-name="afii10099" unicode="&#x452;" horiz-adv-x="517" 
d="M218 -239q-17 0 -32 2.5t-26 6.5v74q11 -4 24.5 -7t27.5 -3q32 0 50.5 28t29.5 81l82 386q4 20 7 36.5t3 29.5q0 63 -61 63q-32 0 -65 -22t-60.5 -70t-44.5 -126l-51 -240h-84l128 606h-67l14 64h67l19 90h84l-20 -90h143l-14 -64h-142l-12 -56q-6 -30 -13 -57t-17 -59h4
q26 40 64 68.5t93 28.5q56 0 88 -32t32 -93q0 -19 -3.5 -39t-7.5 -42l-83 -391q-17 -80 -50.5 -126.5t-106.5 -46.5z" />
    <glyph glyph-name="afii10100" unicode="&#x453;" horiz-adv-x="407" 
d="M173 -10q-65 0 -111 31t-47 100q0 51 23 85.5t60.5 57.5t78.5 41q54 25 89.5 49t35.5 67q0 25 -15.5 39.5t-50.5 14.5q-34 0 -66 -10t-59 -23l-22 66q32 15 71.5 26t85.5 11q63 0 102 -29t39 -91q0 -45 -21.5 -77t-56.5 -54t-74 -40q-44 -20 -74 -37t-45 -37.5t-15 -51.5
q0 -32 21.5 -49.5t64.5 -17.5q35 0 68.5 11t64.5 26v-74q-32 -16 -68 -25t-79 -9zM248 606l1 12q29 32 59.5 73t51.5 75h97v-9q-14 -19 -42 -48t-59 -57.5t-54 -45.5h-54z" />
    <glyph glyph-name="afii10101" unicode="&#x454;" horiz-adv-x="408" 
d="M212 -10q-79 0 -125.5 46t-46.5 139q0 61 15.5 126t47 120.5t81.5 90t119 34.5q65 0 117 -25l-27 -69q-17 9 -40.5 16t-49.5 7q-54 0 -96 -45.5t-63 -118.5h189l-16 -70h-188q-2 -16 -3 -31.5t-1 -31.5q0 -53 24.5 -85.5t74.5 -32.5q32 0 58.5 9t54.5 22v-70
q-24 -13 -57.5 -22t-67.5 -9z" />
    <glyph glyph-name="afii10102" unicode="&#x455;" horiz-adv-x="389" 
d="M135 -10q-44 0 -78 9t-58 22v80q23 -15 58.5 -27.5t72.5 -12.5q52 0 80 23t28 62q0 29 -16 49.5t-61 51.5q-49 33 -73.5 66t-24.5 81q0 67 46 109.5t125 42.5q45 0 83 -11t65 -25l-31 -67q-23 13 -51.5 22.5t-64.5 9.5q-41 0 -64 -20.5t-23 -53.5q0 -26 14.5 -46
t59.5 -50q31 -23 54 -43.5t36 -45.5t13 -61q0 -79 -51 -122t-139 -43z" />
    <glyph glyph-name="afii10103" unicode="&#x456;" horiz-adv-x="234" 
d="M199 625q-20 0 -32.5 11.5t-12.5 32.5q0 26 15 46.5t44 20.5q42 0 42 -42q0 -31 -16.5 -50t-39.5 -19zM17 0l114 536h84l-114 -536h-84z" />
    <glyph glyph-name="afii10104" unicode="&#x457;" horiz-adv-x="234" 
d="M17 0l114 536h84l-114 -536h-84zM276 631q-18 0 -29 10.5t-11 29.5q0 24 14 42t39 18q38 0 38 -38q0 -29 -16 -45.5t-35 -16.5zM107 631q-17 0 -28 10.5t-11 29.5q0 24 13.5 42t39.5 18q37 0 37 -38q0 -29 -15.5 -45.5t-35.5 -16.5z" />
    <glyph glyph-name="afii10105" unicode="&#x458;" horiz-adv-x="234" 
d="M198 625q-20 0 -31.5 11.5t-11.5 32.5q0 26 14.5 46.5t43.5 20.5q42 0 42 -42q0 -31 -17 -50t-40 -19zM-69 -240q-35 0 -58 9v72q11 -4 24.5 -6.5t27.5 -2.5q31 0 50 25t31 83l126 596h83l-128 -603q-11 -53 -29 -91.5t-48 -60t-79 -21.5z" />
    <glyph glyph-name="afii10106" unicode="&#x459;" horiz-adv-x="699" 
d="M443 -10q-73 0 -113 34.5t-40 105.5q0 20 3 43t7 43l52 250q-4 1 -11 1.5t-15 0.5q-33 0 -54.5 -22t-40.5 -70t-42 -127q-25 -83 -49 -140t-58 -86t-87 -30q-13 0 -23.5 2.5t-17.5 4.5v73q5 -2 14 -4t17 -2q29 1 49 20.5t39 64.5t41 120q25 86 50.5 146.5t66.5 91.5
t112 31q29 0 57 -5t49 -10l-47 -222q19 3 41.5 6t45.5 3q76 0 114 -36t38 -103q0 -50 -22 -92t-66 -67t-110 -25zM450 58q37 0 60.5 16t35 41t11.5 52q0 42 -22 59.5t-67 17.5q-20 0 -40 -2t-40 -6q-8 -40 -12 -62.5t-4 -36.5q0 -37 18 -58t60 -21z" />
    <glyph glyph-name="afii10107" unicode="&#x45a;" horiz-adv-x="732" 
d="M477 -10q-73 0 -114 35t-41 105q0 44 16 112h-185l-51 -242h-84l114 536h84l-47 -223h184l48 223h84l-49 -232q18 4 40.5 7t45.5 3q76 -1 114 -37t38 -103q0 -50 -22 -92t-66 -67t-109 -25zM484 58q55 0 80 34t25 75q0 42 -22 60t-66 18q-37 0 -80 -8q-8 -41 -12 -63
t-4 -37q0 -37 18.5 -58t60.5 -21z" />
    <glyph glyph-name="afii10108" unicode="&#x45b;" horiz-adv-x="518" 
d="M18 0l129 607h-70l15 63h68l19 90h84l-20 -90h141l-14 -63h-140q-14 -62 -24.5 -102t-16.5 -65h4q25 38 64 68t93 30q56 0 88 -32t32 -93q0 -20 -4 -43t-9 -48l-69 -322h-84l70 324q4 24 7.5 43.5t3.5 35.5q0 63 -61 63q-32 0 -65 -22t-61 -70.5t-44 -126.5l-52 -247h-84
z" />
    <glyph glyph-name="afii10109" unicode="&#x45c;" horiz-adv-x="438" 
d="M18 0l113 536h83l-54 -256l224 256h101l-237 -262l144 -274h-97l-137 270l-56 -270h-84zM246 606l1 12q29 32 59.5 73t51.5 75h97v-9q-14 -19 -42 -48t-59 -57.5t-54 -45.5h-54z" />
    <glyph glyph-name="afii10110" unicode="&#x45e;" horiz-adv-x="420" 
d="M-31 -240q-21 0 -35.5 3t-27.5 7l4 70q12 -4 26 -6.5t29 -2.5q37 0 61.5 24.5t47.5 68.5l36 72l-56 540h84l22 -277q4 -42 6 -90.5t1 -80.5h3q6 18 18 45.5t24 55.5t22 47l147 300h89l-318 -631q-37 -71 -77 -108t-106 -37zM268 605q-75 0 -108.5 32t-33.5 84q0 9 1 18.5
t3 16.5h72q-3 -17 -3 -31q0 -28 16.5 -44.5t56.5 -16.5q42 0 68.5 20.5t36.5 71.5h77q-14 -73 -58.5 -112t-127.5 -39z" />
    <glyph glyph-name="afii10193" unicode="&#x45f;" horiz-adv-x="517" 
d="M164 -10q-56 0 -88 31.5t-32 90.5q0 21 3 42.5t8 44.5l72 337h85l-73 -340q-9 -44 -9 -72q0 -29 14 -45.5t45 -16.5q33 0 66 23t61 72t45 127l54 252h83l-114 -536h-68l9 88h-4q-26 -38 -65 -68t-92 -30zM116 -237l44 179l70 24h17l-47 -203h-84z" />
    <glyph glyph-name="afii10050" unicode="&#x490;" horiz-adv-x="426" 
d="M26 0l151 714h239l31 147h83l-49 -224h-235l-134 -637h-86z" />
    <glyph glyph-name="afii10098" unicode="&#x491;" horiz-adv-x="353" 
d="M16 0l114 536h174l34 155h83l-47 -222h-176l-99 -469h-83z" />
    <glyph glyph-name="Wgrave" unicode="&#x1e80;" horiz-adv-x="782" 
d="M112 0l-12 714h84l4 -440q1 -42 -1 -83t-4 -75h2q13 38 31 82.5t36 85.5l188 430h85l7 -424q2 -47 1 -93t-2 -81h3q14 40 29 81t31 82l181 435h91l-309 -714h-93l-8 457q-1 29 -0.5 63t1.5 63h-3q-9 -28 -21 -56.5t-29 -68.5l-199 -458h-93zM499 787q-17 18 -37 45.5
t-37.5 55.5t-26.5 49v10h93q10 -37 26 -75t35 -74l-1 -11h-52z" />
    <glyph glyph-name="wgrave" unicode="&#x1e81;" horiz-adv-x="657" 
d="M69 0l-10 536h82l2 -293q1 -46 -1 -84.5t-4 -66.5h3q10 29 25.5 68.5t28.5 67.5l135 308h92l7 -293q0 -33 -0.5 -75t-1.5 -77h3q13 36 29.5 80.5t36.5 90.5l115 274h88l-236 -536h-100l-5 305q-2 35 -1 67t2 71h-3q-10 -31 -21 -57.5t-29 -66.5l-138 -319h-99zM392 606
q-17 18 -37 45.5t-37.5 55.5t-26.5 49v10h93q10 -37 26 -75t35 -74l-1 -11h-52z" />
    <glyph glyph-name="Wacute" unicode="&#x1e82;" horiz-adv-x="782" 
d="M112 0l-12 714h84l4 -440q1 -42 -1 -83t-4 -75h2q13 38 31 82.5t36 85.5l188 430h85l7 -424q2 -47 1 -93t-2 -81h3q14 40 29 81t31 82l181 435h91l-309 -714h-93l-8 457q-1 29 -0.5 63t1.5 63h-3q-9 -28 -21 -56.5t-29 -68.5l-199 -458h-93zM445 786l1 12q29 32 59.5 73
t51.5 75h97v-9q-14 -19 -42 -48t-59 -57.5t-54 -45.5h-54z" />
    <glyph glyph-name="wacute" unicode="&#x1e83;" horiz-adv-x="657" 
d="M69 0l-10 536h82l2 -293q1 -46 -1 -84.5t-4 -66.5h3q10 29 25.5 68.5t28.5 67.5l135 308h92l7 -293q0 -33 -0.5 -75t-1.5 -77h3q13 36 29.5 80.5t36.5 90.5l115 274h88l-236 -536h-100l-5 305q-2 35 -1 67t2 71h-3q-10 -31 -21 -57.5t-29 -66.5l-138 -319h-99zM338 606
l1 12q29 32 59.5 73t51.5 75h97v-9q-14 -19 -42 -48t-59 -57.5t-54 -45.5h-54z" />
    <glyph glyph-name="Wdieresis" unicode="&#x1e84;" horiz-adv-x="782" 
d="M112 0l-12 714h84l4 -440q1 -42 -1 -83t-4 -75h2q13 38 31 82.5t36 85.5l188 430h85l7 -424q2 -47 1 -93t-2 -81h3q14 40 29 81t31 82l181 435h91l-309 -714h-93l-8 457q-1 29 -0.5 63t1.5 63h-3q-9 -28 -21 -56.5t-29 -68.5l-199 -458h-93zM580 804q-18 0 -29 10.5
t-11 29.5q0 24 14 42t39 18q38 0 38 -38q0 -29 -16 -45.5t-35 -16.5zM411 804q-17 0 -28 10.5t-11 29.5q0 24 13.5 42t39.5 18q37 0 37 -38q0 -29 -15.5 -45.5t-35.5 -16.5z" />
    <glyph glyph-name="wdieresis" unicode="&#x1e85;" horiz-adv-x="657" 
d="M69 0l-10 536h82l2 -293q1 -46 -1 -84.5t-4 -66.5h3q10 29 25.5 68.5t28.5 67.5l135 308h92l7 -293q0 -33 -0.5 -75t-1.5 -77h3q13 36 29.5 80.5t36.5 90.5l115 274h88l-236 -536h-100l-5 305q-2 35 -1 67t2 71h-3q-10 -31 -21 -57.5t-29 -66.5l-138 -319h-99zM480 631
q-18 0 -29 10.5t-11 29.5q0 24 14 42t39 18q38 0 38 -38q0 -29 -16 -45.5t-35 -16.5zM311 631q-17 0 -28 10.5t-11 29.5q0 24 13.5 42t39.5 18q37 0 37 -38q0 -29 -15.5 -45.5t-35.5 -16.5z" />
    <glyph glyph-name="Ygrave" unicode="&#x1ef2;" horiz-adv-x="453" 
d="M122 0l58 271l-91 443h87l63 -348l209 348h95l-278 -445l-57 -269h-86zM335 787q-17 18 -37 45.5t-37.5 55.5t-26.5 49v10h93q10 -37 26 -75t35 -74l-1 -11h-52z" />
    <glyph glyph-name="ygrave" unicode="&#x1ef3;" horiz-adv-x="420" 
d="M-31 -240q-21 0 -35.5 3t-27.5 7l4 70q12 -4 26 -6.5t29 -2.5q37 0 61.5 24.5t47.5 68.5l36 72l-56 540h84l22 -277q4 -42 6 -90.5t1 -80.5h3q6 18 18 45.5t24 55.5t22 47l147 300h89l-318 -631q-37 -71 -77 -108t-106 -37zM269 606q-17 18 -37 45.5t-37.5 55.5t-26.5 49
v10h93q10 -37 26 -75t35 -74l-1 -11h-52z" />
    <glyph glyph-name="endash" unicode="&#x2013;" horiz-adv-x="470" 
d="M26 231l16 76h397l-16 -76h-397z" />
    <glyph glyph-name="emdash" unicode="&#x2014;" horiz-adv-x="939" 
d="M26 231l16 76h866l-15 -76h-867z" />
    <glyph glyph-name="afii00208" unicode="&#x2015;" horiz-adv-x="949" 
d="M26 231l16 76h866l-15 -76h-867z" />
    <glyph glyph-name="underscoredbl" unicode="&#x2017;" horiz-adv-x="395" 
d="M-72 -103l13 58h397l-12 -58h-398zM-97 -228l13 58h397l-13 -58h-397z" />
    <glyph glyph-name="quoteleft" unicode="&#x2018;" horiz-adv-x="173" 
d="M62 469l-3 11q24 56 57.5 118t67.5 116h65q-17 -36 -35 -80t-34.5 -87t-27.5 -78h-90z" />
    <glyph glyph-name="quoteright" unicode="&#x2019;" horiz-adv-x="173" 
d="M57 469q27 60 53.5 125t43.5 120h90l4 -11q-24 -55 -57.5 -117t-68.5 -117h-65z" />
    <glyph glyph-name="quotesinglbase" unicode="&#x201a;" horiz-adv-x="229" 
d="M-48 -130q16 37 34.5 80.5t35 86.5t27.5 78h90l4 -11q-25 -56 -58 -117.5t-68 -116.5h-65z" />
    <glyph glyph-name="quotereversed" unicode="&#x201b;" horiz-adv-x="173" 
d="M137 469q-13 55 -21.5 117t-11.5 117l8 11h83q-2 -58 -1 -124t5 -121h-62z" />
    <glyph glyph-name="quotedblleft" unicode="&#x201c;" horiz-adv-x="347" 
d="M236 469l-4 11q25 57 59 119t68 115h64q-17 -38 -35 -81.5t-34 -86t-28 -77.5h-90zM63 469l-3 11q25 57 58 119t67 115h65q-16 -36 -34.5 -80.5t-35 -87.5t-27.5 -77h-90z" />
    <glyph glyph-name="quotedblright" unicode="&#x201d;" horiz-adv-x="347" 
d="M230 469q26 59 52 124t45 121h90l4 -11q-23 -55 -57.5 -117t-69.5 -117h-64zM57 469q26 59 52.5 124t44.5 121h89l4 -11q-23 -55 -57 -117t-69 -117h-64z" />
    <glyph glyph-name="quotedblbase" unicode="&#x201e;" horiz-adv-x="390" 
d="M118 -130q16 36 34 79.5t34 87t28 78.5h90l4 -11q-24 -56 -57.5 -117.5t-67.5 -116.5h-65zM-55 -130q26 58 52 124.5t45 120.5h89l4 -11q-24 -56 -57.5 -117.5t-68.5 -116.5h-64z" />
    <glyph glyph-name="dagger" unicode="&#x2020;" horiz-adv-x="445" 
d="M111 0l127 500l-140 -14l17 82l135 -14l22 206h96l-66 -206l149 14l-17 -82l-143 13l-85 -499h-95z" />
    <glyph glyph-name="daggerdbl" unicode="&#x2021;" horiz-adv-x="445" 
d="M112 0l62 187l-147 -14l17 81l141 -13l13 143l46 135l-146 -13l17 81l141 -14l18 187h96l-61 -187l149 14l-18 -81l-143 13l-11 -135l-48 -143l149 13l-18 -81l-143 14l-18 -187h-96z" />
    <glyph glyph-name="bullet" unicode="&#x2022;" horiz-adv-x="368" 
d="M201 237q-51 0 -82.5 31.5t-31.5 96.5q0 67 31.5 97.5t82.5 30.5t83 -30.5t32 -97.5q0 -65 -32 -96.5t-83 -31.5z" />
    <glyph glyph-name="ellipsis" unicode="&#x2026;" horiz-adv-x="712" 
d="M65 -12q-48 0 -48 49q0 32 17.5 57t54.5 25q21 0 33.5 -13t12.5 -37q0 -31 -18 -56t-52 -25zM303 -12q-48 0 -48 49q0 32 17.5 57t54.5 25q21 0 33.5 -13t12.5 -37q0 -31 -18 -56t-52 -25zM541 -12q-48 0 -48 49q0 32 17.5 57t54.5 25q21 0 33.5 -13t12.5 -37
q0 -31 -18 -56t-52 -25z" />
    <glyph glyph-name="perthousand" unicode="&#x2030;" horiz-adv-x="1034" 
d="M171 276q-49 0 -76 34.5t-27 99.5q0 30 5.5 71t18 83t33.5 78.5t52 59t73 22.5q50 0 77 -33t27 -96q0 -29 -6 -69.5t-19 -84t-34 -81t-52 -61t-72 -23.5zM105 0l472 714h73l-471 -714h-74zM178 339q23 0 41 20.5t30.5 52t20.5 67t12 66t4 47.5q0 37 -11 53.5t-32 16.5
q-23 0 -40.5 -19t-30.5 -49.5t-20.5 -65t-11.5 -66t-4 -51.5q0 -72 42 -72zM506 -10q-50 0 -76.5 34t-26.5 99q0 32 6 73.5t18.5 83.5t33.5 78t52 58t72 22q50 0 77 -33t27 -95q0 -29 -6 -69.5t-19 -84t-34.5 -81.5t-52 -61.5t-71.5 -23.5zM810 -10q-49 0 -76 34t-27 99
q0 32 6 73.5t18.5 83.5t33.5 78t52 58t72 22q50 0 77 -33t27 -95q0 -29 -6 -69.5t-19 -84t-34.5 -81.5t-52 -61.5t-71.5 -23.5zM513 53q23 0 40.5 20.5t30.5 52t20.5 67t11.5 66t4 47.5q0 37 -11 53.5t-32 16.5q-23 0 -40.5 -19.5t-30 -50t-20.5 -65t-11.5 -65.5t-3.5 -51
q0 -72 42 -72zM818 53q23 0 41 20.5t30.5 52t20.5 67t11.5 66t3.5 47.5q0 37 -11 53.5t-31 16.5q-23 0 -41 -19.5t-30.5 -50t-20.5 -65t-11.5 -65.5t-3.5 -51q0 -72 42 -72z" />
    <glyph glyph-name="minute" unicode="&#x2032;" horiz-adv-x="209" 
d="M69 474l113 240h92l-148 -240h-57z" />
    <glyph glyph-name="second" unicode="&#x2033;" horiz-adv-x="374" 
d="M234 474l113 240h92l-148 -240h-57zM69 474l113 240h92l-148 -240h-57z" />
    <glyph glyph-name="guilsinglleft" unicode="&#x2039;" horiz-adv-x="272" 
d="M142 57l-106 207l1 14l183 190l46 -39l-141 -165l77 -181z" />
    <glyph glyph-name="guilsinglright" unicode="&#x203a;" horiz-adv-x="272" 
d="M50 57l-46 39l140 165l-76 181l60 26l105 -207l-1 -13z" />
    <glyph glyph-name="exclamdbl" unicode="&#x203c;" horiz-adv-x="470" 
d="M289 200l94 514h101l-127 -514h-68zM283 -12q-23 0 -36 13t-13 37q0 32 17.5 56.5t54.5 24.5q21 0 34 -13t13 -38q0 -31 -18 -55.5t-52 -24.5zM71 200l94 514h101l-127 -514h-68zM65 -12q-23 0 -36 13t-13 37q0 32 17.5 56.5t54.5 24.5q21 0 34 -13t13 -38
q0 -31 -18 -55.5t-52 -24.5z" />
    <glyph glyph-name="fraction" unicode="&#x2044;" horiz-adv-x="122" 
d="M-237 0l528 714h75l-528 -714h-75z" />
    <glyph glyph-name="nsuperior" unicode="&#x207f;" horiz-adv-x="336" 
d="M62.75 285.8l74.1035 323.987h47.4512l-7.15039 -53.3984h0.650391q16.9004 22.1992 42.252 40.7988q25.3506 18.5996 61.1016 18.5996q36.4014 0 58.1777 -18.8994q21.7754 -18.8994 21.7754 -54.8984q0 -13.7988 -2.59961 -28.498q-2.60059 -14.7002 -5.85059 -27.2998
l-46.1514 -200.392h-57.2021l46.1514 202.792q3.25 13.1992 5.52539 24.8994q2.27539 11.6992 2.27539 21.2988q0 34.7988 -38.3516 34.7988q-31.8516 0 -63.0527 -31.1992q-31.2012 -31.1982 -46.8018 -100.796l-35.1016 -151.794h-57.2021z" />
    <glyph glyph-name="franc" unicode="&#x20a3;" horiz-adv-x="492" 
d="M62 0l27 131h-76l14 64h76l110 519h318l-16 -76h-235l-54 -254h220l-16 -76h-219l-25 -113h125l-13 -64h-125l-28 -131h-83z" />
    <glyph glyph-name="afii08941" unicode="&#x20a4;" horiz-adv-x="492" 
d="M-15 0l14 71q48 14 74.5 50.5t41.5 104.5h-84l14 64h84l17 81h-87l15 63h86l24 118q17 80 63 125.5t131 45.5q44 0 82 -11.5t65 -29.5l-36 -67q-21 14 -51.5 25t-60.5 11q-50 0 -75.5 -30.5t-36.5 -81.5l-21 -105h152l-14 -63h-152l-18 -81h153l-13 -64h-153
q-14 -61 -34 -94.5t-58 -54.5h306l-16 -77h-412z" />
    <glyph glyph-name="peseta" unicode="&#x20a7;" horiz-adv-x="675" 
d="M15 0l152 714h96q97 0 145 -46t48 -126q0 -74 -29.5 -133.5t-90.5 -94.5t-155 -35h-23l-60 -279h-83zM174 353h14q70 0 109.5 26t56 67t16.5 85q0 108 -117 108h-19zM523 -10q-49 0 -70.5 26t-21.5 66q0 26 12 78l39 185h-63l8 38l71 34l48 104h54l-25 -111h90l-13 -65
h-90l-41 -189q-7 -36 -7 -57q0 -38 36 -38q14 0 27.5 3.5t25.5 7.5v-66q-35 -16 -80 -16z" />
    <glyph glyph-name="Euro" unicode="&#x20ac;" horiz-adv-x="492" 
d="M285 -10q-94 0 -143 62.5t-49 193.5h-74l12 62h67q2 20 6.5 44t8.5 41h-65l13 62h68q27 79 67 139.5t95 95t124 34.5q44 0 76 -11t59 -31l-41 -69q-19 15 -43 25t-55 10q-65 0 -115 -52.5t-80 -140.5h185l-13 -62h-190q-5 -18 -9 -40.5t-7 -44.5h165l-14 -62h-155
q0 -94 29 -137t90 -43q31 0 58 7t54 19l5 -74q-26 -12 -59.5 -20t-69.5 -8z" />
    <glyph glyph-name="afii61248" unicode="&#x2105;" horiz-adv-x="690" 
d="M216 382q-51 0 -81.5 31t-30.5 93q0 50 19.5 99.5t59 81.5t99.5 32q22 0 41 -4.5t37 -12.5l-22 -52q-14 8 -29 12t-32 4q-34 0 -57.5 -24t-36 -60t-12.5 -73q0 -72 57 -72q20 0 36.5 5t32.5 12l-4 -54q-15 -8 -35.5 -13t-41.5 -5zM76 0l482 714h72l-481 -714h-73zM461 -5
q-52 0 -80.5 31t-28.5 87q0 52 17.5 102.5t53 83.5t89.5 33q52 0 81 -33t29 -90q0 -55 -18.5 -104t-54 -79.5t-88.5 -30.5zM467 48q24 0 40.5 16.5t27.5 42t16 53t5 49.5q0 33 -12 51.5t-37 18.5q-24 0 -41 -16.5t-28 -41.5t-16 -53t-5 -52q0 -68 50 -68z" />
    <glyph glyph-name="afii61289" unicode="&#x2113;" horiz-adv-x="473" 
d="M270 -10q-64 0 -103.5 42t-39.5 139v105q-19 -8 -41 -14.5t-43 -12.5v61q45 12 84 27v225q0 73 31 117.5t104 44.5q58 0 90.5 -40t32.5 -110q0 -95 -49 -165t-129 -107v-135q0 -53 16.5 -81.5t54.5 -28.5q34 0 55.5 23.5t24.5 81.5h57q-4 -83 -39 -127.5t-106 -44.5z
M207 367q110 63 110 204q0 44 -14 69t-41 25q-32 0 -43.5 -24t-11.5 -68v-206z" />
    <glyph glyph-name="afii61352" unicode="&#x2116;" horiz-adv-x="864" 
d="M17 0l151 714h98l126 -576q7 39 14.5 83t15.5 81l88 412h78l-151 -714h-95l-129 585q-4 -35 -12 -79t-16 -83l-89 -423h-79zM672 135q-55 0 -83.5 32.5t-28.5 91.5q0 53 18 102t54 81t89 32t83 -33.5t30 -91.5q0 -32 -8.5 -69t-27.5 -70t-50 -54t-76 -21zM677 192
q31 0 51.5 25t30 61t9.5 70q0 69 -52 69q-30 0 -50.5 -25t-30.5 -61t-10 -70q0 -69 52 -69zM526 0l14 66h222l-15 -66h-221z" />
    <glyph glyph-name="trademark" unicode="&#x2122;" horiz-adv-x="719" 
d="M303 362v352h86l90 -273l93 273h83v-352h-59v203q0 10 1 33.5t2 36.5h-4l-96 -273h-49l-92 273h-3q1 -17 2 -37t1 -28v-208h-55zM111 362v299h-96v53h251v-53h-97v-299h-58z" />
    <glyph glyph-name="uni03A9" unicode="&#x3a9;" horiz-adv-x="648" 
d="M-20 0l15 76h152q-33 37 -57 95t-24 139q0 78 21.5 152t63.5 133.5t102.5 94.5t138.5 35t128 -32t74.5 -87.5t24.5 -126.5q0 -85 -25.5 -161t-70.5 -137t-104 -105h157l-16 -76h-260l14 69q63 43 111.5 106t75.5 139t27 162q0 76 -34 124t-109 48q-57 0 -100.5 -31.5
t-72 -83.5t-43 -113t-14.5 -120q0 -79 21.5 -133.5t59.5 -97.5l-14 -69h-242z" />
    <glyph glyph-name="estimated" unicode="&#x212e;" horiz-adv-x="596" 
d="M303 -17q-81 0 -137 39t-84.5 101.5t-28.5 135.5q0 89 35.5 151t92.5 93.5t122 31.5q71 1 127.5 -33.5t89 -97t32.5 -145.5h-389v-174q22 -24 60.5 -42t79.5 -18q69 0 110.5 29.5t75.5 84.5l33 -20q-24 -40 -53 -70.5t-69 -48t-97 -17.5zM163 301h280v135
q-19 22 -56.5 40t-84.5 18q-46 0 -80 -16t-59 -41v-136z" />
    <glyph glyph-name="oneeighth" unicode="&#x215b;" horiz-adv-x="749" 
d="M67 0l528 714h75l-528 -714h-75zM147 285l58 272q4 21 10.5 45t11.5 41q-9 -7 -18.5 -16t-19.5 -16l-55 -37l-27 45l138 94h61l-92 -428h-67zM533 -9q-55 0 -87.5 27.5t-32.5 76.5q0 46 27 77.5t79 52.5q-23 19 -36 40t-13 53q0 51 36.5 84t100.5 33q54 0 81.5 -27.5
t27.5 -68.5q0 -39 -25.5 -69t-70.5 -47q29 -18 45.5 -41.5t16.5 -61.5q0 -57 -41 -93t-108 -36zM578 250q28 10 50.5 29t22.5 54q0 23 -14 35.5t-37 12.5q-31 0 -48.5 -18t-17.5 -44q0 -25 12.5 -40.5t31.5 -28.5zM538 44q36 0 56.5 21t20.5 54q0 25 -15.5 44.5t-37.5 31.5
q-36 -13 -60 -35.5t-24 -57.5q0 -26 16 -41.5t44 -16.5z" />
    <glyph glyph-name="threeeighths" unicode="&#x215c;" horiz-adv-x="779" 
d="M149 278q-31 0 -58 7t-48 18v63q23 -14 51 -23t57 -9q47 0 70.5 22.5t23.5 60.5q0 63 -76 63h-41l12 54h40q44 0 70.5 21.5t26.5 56.5q0 56 -57 54q-25 0 -46 -8.5t-41 -22.5l-26 46q23 19 55 30.5t70 11.5q56 0 84 -28t28 -70q0 -44 -25.5 -73t-71.5 -43v-4
q30 -9 47.5 -32t17.5 -57q0 -60 -41.5 -99t-121.5 -39zM103 0l528 714h75l-528 -714h-75zM562 -10q-55 0 -87.5 27.5t-32.5 76.5q0 46 27 77.5t79 52.5q-23 19 -36 40t-13 53q0 51 36.5 84t100.5 33q54 0 81.5 -27.5t27.5 -68.5q0 -39 -25.5 -69t-70.5 -47
q29 -18 45.5 -41.5t16.5 -61.5q0 -57 -41 -93t-108 -36zM607 249q28 10 50.5 29t22.5 54q0 23 -14 35.5t-37 12.5q-31 0 -48.5 -18t-17.5 -44q0 -25 12.5 -40.5t31.5 -28.5zM567 43q36 0 56.5 21t20.5 54q0 25 -15.5 44.5t-37.5 31.5q-36 -13 -60 -35.5t-24 -57.5
q0 -26 16 -41.5t44 -16.5z" />
    <glyph glyph-name="fiveeighths" unicode="&#x215d;" horiz-adv-x="782" 
d="M105 0l528 714h75l-528 -714h-75zM152 278q-27 0 -51.5 5.5t-44.5 17.5l2 64q44 -30 97 -30q49 0 74 28.5t25 69.5q0 33 -20 49.5t-51 16.5q-27 0 -56 -10l-28 23l59 202h197l-12 -60h-143l-32 -106q10 2 20.5 3.5t21.5 1.5q52 0 81 -30t29 -83q0 -39 -17 -76.5
t-54 -61.5t-97 -24zM566 -11q-55 0 -87.5 27.5t-32.5 76.5q0 46 27 77.5t79 52.5q-23 19 -36 40t-13 53q0 51 36.5 84t100.5 33q54 0 81.5 -27.5t27.5 -68.5q0 -39 -25.5 -69t-70.5 -47q29 -18 45.5 -41.5t16.5 -61.5q0 -57 -41 -93t-108 -36zM611 248q28 10 50.5 29
t22.5 54q0 23 -14 35.5t-37 12.5q-31 0 -48.5 -18t-17.5 -44q0 -25 12.5 -40.5t31.5 -28.5zM571 42q36 0 56.5 21t20.5 54q0 25 -15.5 44.5t-37.5 31.5q-36 -13 -60 -35.5t-24 -57.5q0 -26 16 -41.5t44 -16.5z" />
    <glyph glyph-name="seveneighths" unicode="&#x215e;" horiz-adv-x="735" 
d="M51 0l528 714h75l-528 -714h-75zM519 -10q-55 0 -87.5 27.5t-32.5 76.5q0 46 27 77.5t79 52.5q-23 19 -36 40t-13 53q0 51 36.5 84t100.5 33q54 0 81.5 -27.5t27.5 -68.5q0 -39 -25.5 -69t-70.5 -47q29 -18 45.5 -41.5t16.5 -61.5q0 -57 -41 -93t-108 -36zM564 249
q28 10 50.5 29t22.5 54q0 23 -14 35.5t-37 12.5q-31 0 -48.5 -18t-17.5 -44q0 -25 12.5 -40.5t31.5 -28.5zM524 43q36 0 56.5 21t20.5 54q0 25 -15.5 44.5t-37.5 31.5q-36 -13 -60 -35.5t-24 -57.5q0 -26 16 -41.5t44 -16.5zM79 286l215 370h-179l13 58h251l-10 -48
l-215 -380h-75z" />
    <glyph glyph-name="uni0394" unicode="&#x394;" horiz-adv-x="503" 
d="M-32 0l7 55l323 659h95l49 -660l-11 -54h-463zM74 77h282l-23 392q-3 41 -4.5 78.5t-0.5 76.5q-13 -33 -28.5 -71.5t-37.5 -83.5z" />
    <glyph glyph-name="cyrillicbreve" horiz-adv-x="536" 
d="M328 606q-75 0 -108.5 32t-33.5 84q0 9 1 18.5t3 16.5h72q-3 -17 -3 -31q0 -28 16.5 -44.5t56.5 -16.5q42 0 68.5 20.5t36.5 71.5h77q-14 -73 -58.5 -112t-127.5 -39z" />
    <glyph glyph-name="caroncommaaccent" horiz-adv-x="457" 
d="M232 600v12q17 31 36.5 73.5t29.5 74.5h81v-10q-7 -18 -23.5 -45t-36.5 -56t-39 -49h-48z" />
    <glyph glyph-name="commaaccentrotate" horiz-adv-x="457" 
d="M225 606v10q7 18 24.5 45.5t38.5 56t41 48.5h48v-12q-11 -16 -24.5 -43t-26.5 -56t-20 -49h-81z" />
    <glyph glyph-name="uni2074" unicode="&#x2074;" horiz-adv-x="326" 
d="M211 416l20 96h-166l10 50l224 285h69l-60 -278h56l-11 -57h-57l-20 -96h-65zM142 569h101l23 105q5 24 10 45.5t11 41.5q-7 -13 -22 -33.5t-26 -34.5z" />
    <glyph glyph-name="uni2075" unicode="&#x2075;" horiz-adv-x="326" 
d="M176 409q-27 0 -51.5 5.5t-44.5 17.5l2 64q44 -30 97 -30q49 0 74 28.5t25 69.5q0 33 -20 49.5t-51 16.5q-27 0 -56 -10l-28 23l59 202h197l-12 -60h-143l-32 -106q10 2 20.5 3.5t21.5 1.5q52 0 81 -30t29 -83q0 -39 -17 -76.5t-54 -61.5t-97 -24z" />
    <glyph glyph-name="uni2077" unicode="&#x2077;" horiz-adv-x="326" 
d="M101 417l215 370h-179l13 58h251l-10 -48l-215 -380h-75z" />
    <glyph glyph-name="uni2078" unicode="&#x2078;" horiz-adv-x="326" 
d="M196 409q-55 0 -87.5 27.5t-32.5 76.5q0 46 27 77.5t79 52.5q-23 19 -36 40t-13 53q0 51 36.5 84t100.5 33q54 0 81.5 -27.5t27.5 -68.5q0 -39 -25.5 -69t-70.5 -47q29 -18 45.5 -41.5t16.5 -61.5q0 -57 -41 -93t-108 -36zM241 668q28 10 50.5 29t22.5 54q0 23 -14 35.5
t-37 12.5q-31 0 -48.5 -18t-17.5 -44q0 -25 12.5 -40.5t31.5 -28.5zM201 462q36 0 56.5 21t20.5 54q0 25 -15.5 44.5t-37.5 31.5q-36 -13 -60 -35.5t-24 -57.5q0 -26 16 -41.5t44 -16.5z" />
    <glyph glyph-name="uni2000" unicode="&#x2000;" horiz-adv-x="500" 
 />
    <glyph glyph-name="uni2001" unicode="&#x2001;" horiz-adv-x="1000" 
 />
    <glyph glyph-name="uni2002" unicode="&#x2002;" horiz-adv-x="500" 
 />
    <glyph glyph-name="uni2003" unicode="&#x2003;" horiz-adv-x="1000" 
 />
    <glyph glyph-name="uni2004" unicode="&#x2004;" horiz-adv-x="333" 
 />
    <glyph glyph-name="uni2005" unicode="&#x2005;" horiz-adv-x="250" 
 />
    <glyph glyph-name="uni2006" unicode="&#x2006;" horiz-adv-x="167" 
 />
    <glyph glyph-name="uni2007" unicode="&#x2007;" horiz-adv-x="492" 
 />
    <glyph glyph-name="uni2008" unicode="&#x2008;" horiz-adv-x="236" 
 />
    <glyph glyph-name="uni2009" unicode="&#x2009;" horiz-adv-x="194" 
 />
    <glyph glyph-name="uni200A" unicode="&#x200a;" horiz-adv-x="100" 
 />
    <glyph glyph-name="uni200B" unicode="&#x200b;" 
 />
    <glyph glyph-name="uniFEFF" unicode="&#xfeff;" horiz-adv-x="1" 
 />
    <glyph glyph-name="uniFFFC" unicode="&#xfffc;" horiz-adv-x="1000" 
d="M916 593v94h-95v54h148v-148h-53zM630 687v54h133v-54h-133zM439 687v54h133v-54h-133zM41 593v148h148v-54h-94v-94h-54zM248 687v54h132v-54h-132zM916 402v132h53v-132h-53zM41 402v132h54v-132h-54zM294 160q-66 0 -97 40.5t-31 106.5q0 67 31 107t97 40t97 -40
t31 -107q0 -66 -31 -106.5t-97 -40.5zM728 161q-24 0 -39 5v50q7 -2 15 -3t18 -1q18 0 30 8.5t12 33.5v196h61v-194q0 -50 -27 -72.5t-70 -22.5zM463 164v286h84q53 0 80.5 -16t27.5 -57q0 -24 -11.5 -40t-32.5 -20v-4q22 -5 37 -18.5t15 -47.5q0 -39 -26.5 -61t-72.5 -22
h-101zM294 211q34 0 50 25.5t16 70.5t-16 70.5t-50 25.5t-50 -25.5t-16 -70.5t16 -70.5t50 -25.5zM523 337h32q23 0 31.5 8t8.5 24q0 31 -43 31h-29v-63zM41 210v133h54v-133h-54zM916 210v133h53v-133h-53zM523 214h36q24 0 33 10.5t9 28.5q0 16 -9.5 26t-34.5 10h-34v-75z
M916 19v132h53v-132h-53zM41 19v132h54v-132h-54zM821 -187v53h95v95h53v-148h-148zM41 -187v148h54v-95h94v-53h-148zM630 -187v53h133v-53h-133zM439 -187v53h133v-53h-133zM248 -187v53h132v-53h-132z" />
    <glyph glyph-name="uniFFFD" unicode="&#xfffd;" horiz-adv-x="1000" 
d="M499 -156l-458 458l458 458l459 -458zM428 179h103v23q0 25 10 39.5t43 40.5q43 34 64.5 65t21.5 80q0 67 -46 104t-126 37q-42 0 -86 -14t-78 -34l40 -87q33 17 64 28t58 11q31 0 46 -14t15 -37q0 -29 -13 -46t-46 -43q-38 -30 -54 -57.5t-16 -66.5v-29zM484 -21
q27 0 47.5 15.5t20.5 50.5q0 37 -20.5 52t-47.5 15q-29 0 -49 -15t-20 -52q0 -35 20 -50.5t49 -15.5z" />
    <glyph glyph-name="uni01F0" unicode="&#x1f0;" horiz-adv-x="234" 
d="M-69 -240q-35 0 -58 9v72q11 -4 24.5 -6.5t27.5 -2.5q31 0 50 25t31 83l126 596h83l-128 -603q-11 -53 -29 -91.5t-48 -60t-79 -21.5zM143 606q-7 22 -20 49.5t-27 54t-25 44.5l1 12h50q16 -15 33.5 -39.5t36.5 -52.5q60 57 112 92h52v-12q-16 -16 -42.5 -43t-52 -55.5
t-38.5 -49.5h-80z" />
    <glyph glyph-name="uni02BC" unicode="&#x2bc;" horiz-adv-x="173" 
d="M57 469q27 60 53.5 125t43.5 120h90l4 -11q-24 -55 -57.5 -117t-68.5 -117h-65z" />
    <glyph glyph-name="uni03D1" unicode="&#x3d1;" horiz-adv-x="536" 
d="M184 -10q-70 0 -106.5 34.5t-36.5 91.5q0 34 9.5 66.5t20.5 63.5q7 22 14 42t7 36q0 28 -24 28q-10 0 -22 -4t-22 -9l3 67q16 6 33.5 11t39.5 5q37 0 56.5 -21.5t19.5 -56.5q0 -26 -7.5 -53t-17.5 -53q-10 -28 -17.5 -56.5t-7.5 -56.5q0 -29 15.5 -47.5t50.5 -18.5
q46 0 80 32t59 84t41.5 113.5t26.5 119.5q-113 2 -172.5 48t-59.5 131q0 51 20.5 92t58.5 64.5t89 23.5q84 0 123.5 -58.5t39.5 -160.5q0 -36 -5 -74h66l-15 -67h-61q-12 -76 -34.5 -150t-57.5 -134.5t-86 -96.5t-121 -36zM408 474q2 17 3.5 36.5t1.5 38.5q0 72 -19.5 110.5
t-60.5 38.5t-62 -33t-21 -76q0 -61 41.5 -88t116.5 -27z" />
    <glyph glyph-name="uni03D2" unicode="&#x3d2;" horiz-adv-x="456" 
d="M122 0l58 271l-91 443h87l63 -348q27 54 55.5 109t55 100.5t45.5 72.5q25 36 49 54t60 18q14 0 27 -2.5t23 -5.5l-17 -70q-6 2 -11.5 3.5t-13.5 1.5q-15 0 -29.5 -12.5t-35.5 -43.5q-19 -29 -47.5 -78.5t-63 -113t-72.5 -135.5l-56 -264h-86z" />
    <glyph glyph-name="uni03D6" unicode="&#x3d6;" horiz-adv-x="702" 
d="M181 -10q-59 0 -91 41t-32 118q0 74 27 157.5t72 157.5h-108l7 35l80 37h597l-15 -72h-98q9 -46 9 -96q0 -47 -8 -99t-24 -101.5t-41.5 -89.5t-61 -64t-81.5 -24t-71.5 24t-31.5 68q-23 -45 -54.5 -68.5t-74.5 -23.5zM196 63q40 0 62 41.5t35 100.5l20 92h81l-17 -84
q-5 -24 -8.5 -45.5t-3.5 -37.5q0 -67 49 -67q30 0 54 29.5t41.5 76.5t26.5 100.5t9 102.5q0 22 -2 46t-5 46h-295q-41 -72 -70.5 -153.5t-29.5 -160.5q0 -44 14.5 -65.5t38.5 -21.5z" />
    <glyph glyph-name="uni1E3E" unicode="&#x1e3e;" horiz-adv-x="770" 
d="M25 0l151 714h121l52 -583h3l297 583h131l-150 -714h-86l95 446q11 50 21 91.5t18 70.5h-2l-314 -608h-75l-56 607h-3q-4 -31 -11.5 -76.5t-16.5 -87.5l-94 -443h-81zM430 786l1 12q29 32 59.5 73t51.5 75h97v-9q-14 -19 -42 -48t-59 -57.5t-54 -45.5h-54z" />
    <glyph glyph-name="uni1E3F" unicode="&#x1e3f;" horiz-adv-x="779" 
d="M17 0l114 536h69l-11 -88h5q25 38 62.5 68t89.5 30q48 0 75 -26.5t34 -74.5h3q28 41 68 71t92 30q55 0 85.5 -31t30.5 -90q0 -21 -3 -40.5t-8 -40.5l-72 -344h-85l74 345q4 21 6 37t2 30q0 28 -14 44.5t-44 16.5q-46 0 -90 -49.5t-64 -143.5l-59 -280h-84l73 348
q9 39 9 62q0 30 -13.5 46.5t-43.5 16.5q-50 0 -95 -55t-68 -165l-53 -253h-85zM412 606l1 12q29 32 59.5 73t51.5 75h97v-9q-14 -19 -42 -48t-59 -57.5t-54 -45.5h-54z" />
    <glyph glyph-name="uni1E00" unicode="&#x1e00;" horiz-adv-x="504" 
d="M-60 0l355 715h97l57 -715h-86l-17 224h-204l-108 -224h-94zM179 301h163l-9 187q-2 33 -4.5 70t-1.5 66h-3q-12 -31 -27.5 -65.5t-33.5 -72.5zM177 -266q-48 0 -76.5 27.5t-28.5 75.5q0 47 29 74.5t76 27.5q45 0 76.5 -27.5t31.5 -73.5q0 -48 -30.5 -76t-77.5 -28z
M177 -218q25 0 40 15t15 40t-15 40t-40 15q-26 0 -40.5 -15t-14.5 -40t13.5 -40t41.5 -15z" />
    <glyph glyph-name="uni1E01" unicode="&#x1e01;" horiz-adv-x="515" 
d="M170 -10q-60 0 -95.5 43.5t-35.5 127.5q0 68 17 136t49 124.5t77.5 90.5t102.5 34q46 0 75 -25t43 -63h4l29 78h66l-114 -536h-67l11 91h-4q-32 -43 -71 -72t-87 -29zM197 61q35 0 66.5 27t56 71.5t38.5 96.5q9 36 13 66t4 55q0 43 -21.5 70t-59.5 27q-37 0 -68 -28
t-53.5 -74t-34.5 -101.5t-12 -109.5q0 -100 71 -100zM184 -266q-48 0 -76.5 27.5t-28.5 75.5q0 47 29 74.5t76 27.5q45 0 76.5 -27.5t31.5 -73.5q0 -48 -30.5 -76t-77.5 -28zM184 -218q25 0 40 15t15 40t-15 40t-40 15q-26 0 -40.5 -15t-14.5 -40t13.5 -40t41.5 -15z" />
    <glyph glyph-name="uni02F3" unicode="&#x2f3;" horiz-adv-x="330" 
d="M80 -266q-48 0 -76.5 27.5t-28.5 75.5q0 47 29 74.5t76 27.5q45 0 76.5 -27.5t31.5 -73.5q0 -48 -30.5 -76t-77.5 -28zM80 -218q25 0 40 15t15 40t-15 40t-40 15q-26 0 -40.5 -15t-14.5 -40t13.5 -40t41.5 -15z" />
    <glyph glyph-name="Ohorn" unicode="&#x1a0;" horiz-adv-x="639" 
d="M283 -10q-109 0 -167 66t-58 186q0 89 22.5 175t65.5 155.5t105.5 111t142.5 41.5q66 0 113 -27t73 -78q39 17 58.5 52.5t27.5 87.5h86l4 -11q-15 -67 -52.5 -112t-104.5 -71q7 -21 10.5 -44t3.5 -49q0 -90 -21 -176t-63 -155.5t-103.5 -110.5t-142.5 -41zM288 67
q56 0 99.5 37t74 97t46 131.5t15.5 141.5q0 85 -35.5 129.5t-99.5 44.5q-56 0 -100.5 -36t-75.5 -95t-47 -130.5t-16 -143.5q0 -86 36.5 -131t102.5 -45z" />
    <glyph glyph-name="ohorn" unicode="&#x1a1;" horiz-adv-x="515" 
d="M211 -9q-81 0 -127 50.5t-46 139.5q0 62 16 126t48 117.5t79.5 86.5t110.5 33q97 0 140 -71q41 19 59.5 55.5t26.5 88.5h86l4 -11q-15 -68 -51.5 -112.5t-102.5 -68.5q6 -17 8.5 -35t2.5 -37q0 -62 -16 -126t-48 -117.5t-79.5 -86t-110.5 -32.5zM217 62q35 0 64.5 24.5
t51.5 67t34 96t12 111.5q0 45 -20.5 78.5t-69.5 33.5q-39 0 -70 -27t-52 -70.5t-32.5 -95.5t-11.5 -103q0 -55 24 -85t70 -30z" />
    <glyph glyph-name="Uhorn" unicode="&#x1af;" horiz-adv-x="649" 
d="M256 -10q-96 0 -145 47.5t-49 134.5q0 18 3 42t8 47l97 453h86l-98 -458q-4 -22 -7 -42.5t-3 -35.5q0 -52 27 -81.5t86 -29.5q73 0 112 43.5t59 133.5l101 470h85l-21 -98q37 9 62 44t35 100h86l3 -11q-17 -81 -68.5 -130t-129.5 -63l-69 -320q-16 -76 -47 -131t-83 -85
t-130 -30z" />
    <glyph glyph-name="uhorn" unicode="&#x1b0;" horiz-adv-x="564" 
d="M162 -10q-55 0 -87 31.5t-32 92.5q0 20 3.5 41.5t8.5 44.5l71 336h85l-73 -340q-9 -44 -9 -70q0 -31 13.5 -47.5t45.5 -16.5t65.5 23t62 72t44.5 127l54 252h83l-14 -64q78 18 98 145h86l4 -11q-17 -80 -69 -130t-131 -64l-88 -412h-68l9 88h-4q-26 -38 -64.5 -68
t-93.5 -30z" />
    <glyph glyph-name="hook" 
d="M-272 591l12 85q40 5 61.5 18.5t21.5 38.5q0 19 -13.5 26.5t-35.5 7.5q-13 0 -25.5 -1.5t-19.5 -3.5v51q27 8 59 8q46 0 75 -20.5t29 -59.5q0 -41 -26 -65t-73 -34l-13 -51h-52z" />
    <glyph glyph-name="uni0400" unicode="&#x400;" horiz-adv-x="460" 
d="M26 0l151 714h324l-16 -76h-239l-47 -227h222l-15 -76h-223l-56 -259h239l-16 -76h-324zM350 787q-17 18 -37 45.5t-37.5 55.5t-26.5 49v10h93q10 -37 26 -75t35 -74l-1 -11h-52z" />
    <glyph glyph-name="uni040D" unicode="&#x40d;" horiz-adv-x="634" 
d="M26 0l151 714h82l-76 -359q-7 -35 -16 -75t-18 -77.5t-15 -63.5h2l409 575h100l-151 -714h-81l76 360q8 38 17 80t17.5 80t16.5 63h-2l-411 -583h-101zM425 787q-17 18 -37 45.5t-37.5 55.5t-26.5 49v10h93q10 -37 26 -75t35 -74l-1 -11h-52z" />
    <glyph glyph-name="uni0450" unicode="&#x450;" horiz-adv-x="456" 
d="M213 -10q-83 0 -128.5 50t-45.5 138q0 70 18 136t51.5 118.5t80.5 83t105 30.5q67 0 102 -31.5t35 -88.5q0 -82 -71 -136.5t-219 -54.5h-13q-2 -12 -3 -25.5t-1 -26.5q0 -59 26 -91t80 -32q34 0 64 9.5t66 27.5v-71q-34 -17 -68 -26.5t-79 -9.5zM140 302h6q89 0 146.5 29
t57.5 89q0 25 -15.5 40.5t-47.5 15.5q-44 0 -85 -47t-62 -127zM302 606q-17 18 -37 45.5t-37.5 55.5t-26.5 49v10h93q10 -37 26 -75t35 -74l-1 -11h-52z" />
    <glyph glyph-name="uni045D" unicode="&#x45d;" horiz-adv-x="518" 
d="M164 -10q-56 0 -88 31.5t-32 90.5q0 21 3 42.5t8 44.5l72 337h85l-73 -340q-9 -44 -9 -72q0 -29 14 -45.5t45 -16.5q33 0 66 23t61 72t45 127l54 252h83l-114 -536h-68l9 88h-4q-26 -38 -65 -68t-92 -30zM329 606q-17 18 -37 45.5t-37.5 55.5t-26.5 49v10h93
q10 -37 26 -75t35 -74l-1 -11h-52z" />
    <glyph glyph-name="uni0460" unicode="&#x460;" horiz-adv-x="827" 
d="M155 -3q-49 167 -61.5 350t24.5 367h87q-22 -112 -25 -222t6.5 -209t27.5 -177h4q12 32 30 69t39 77l136 257q4 52 9.5 104.5t14.5 100.5h85q-20 -106 -22 -216t8 -211t27 -184h4q86 128 150.5 282.5t101.5 328.5h89q-42 -195 -123.5 -376t-203.5 -341h-77
q-16 55 -29 118.5t-21 127.5t-10 120l-189 -366h-82z" />
    <glyph glyph-name="uni0461" unicode="&#x461;" horiz-adv-x="710" 
d="M117 0q-35 115 -50 253.5t11 283.5h84q-22 -130 -16 -247t27 -204h3q14 26 31 51t33 51l95 142q0 51 4.5 104.5t13.5 102.5h83q-22 -118 -18.5 -236.5t24.5 -215.5h4q70 91 121 204.5t84 247.5h83q-36 -151 -100 -283t-173 -254h-74q-16 52 -27.5 113.5t-16.5 118.5
l-152 -232h-74z" />
    <glyph glyph-name="uni0462" unicode="&#x462;" horiz-adv-x="531" 
d="M55 0l116 545h-106l15 72h106l25 114h86l-26 -114h161l-15 -72h-160l-29 -132h55q104 0 150 -46.5t46 -123.5q0 -109 -71 -176t-210 -67h-143zM157 75h53q85 0 133 42.5t48 121.5q0 52 -30.5 75t-91.5 23h-56z" />
    <glyph glyph-name="uni0463" unicode="&#x463;" horiz-adv-x="494" 
d="M232 -10q-157 0 -157 141q0 19 2.5 42t7.5 43l53 250h-95l14 69h96l23 109h84l-23 -109h119l-14 -69h-119l-36 -162q19 3 44.5 6t49.5 3q79 0 117 -36t38 -103q0 -51 -24 -92.5t-69.5 -66.5t-110.5 -25zM240 58q56 0 84 33t28 76q0 41 -22 59t-67 18t-90 -8
q-9 -37 -12.5 -59.5t-3.5 -38.5q0 -80 83 -80z" />
    <glyph glyph-name="uni0464" unicode="&#x464;" horiz-adv-x="764" 
d="M521 -10q-106 0 -162 67t-56 191q0 41 6 86h-127l-70 -334h-86l151 714h86l-65 -303h127q17 61 46 117.5t71 100.5t97 69.5t122 25.5q90 0 154 -38l-39 -71q-23 14 -52 23.5t-64 9.5q-64 0 -112 -33.5t-81.5 -87.5t-51.5 -116h261l-16 -76h-261q-4 -22 -5.5 -43t-1.5 -42
q0 -91 37.5 -137.5t107.5 -46.5q35 0 69 8t68 20l1 -75q-35 -14 -71.5 -21.5t-82.5 -7.5z" />
    <glyph glyph-name="uni0465" unicode="&#x465;" horiz-adv-x="622" 
d="M427 -10q-78 0 -125 45.5t-47 139.5q0 16 1 33t4 34h-107l-51 -242h-84l114 536h83l-47 -225h105q15 63 47.5 116.5t82 86t114.5 32.5t118 -25l-27 -69q-18 9 -41.5 16t-49.5 7q-57 0 -98 -46.5t-61 -117.5h190l-16 -70h-188q-2 -19 -3 -33.5t-1 -29.5q0 -56 26.5 -87
t73.5 -31q31 0 58.5 9t53.5 22v-70q-25 -14 -57.5 -22.5t-67.5 -8.5z" />
    <glyph glyph-name="uni0466" unicode="&#x466;" horiz-adv-x="554" 
d="M-60 0l386 714h86l89 -714h-87l-37 332h-45l-69 -332h-81l71 332h-48l-176 -332h-89zM246 407h122l-8 113q-3 26 -5.5 52t-2.5 48q-11 -26 -23 -49t-30 -57z" />
    <glyph glyph-name="uni0467" unicode="&#x467;" horiz-adv-x="483" 
d="M-50 0l296 536h103l71 -536h-83l-29 237h-35l-49 -237h-78l53 237h-36l-127 -237h-86zM200 306h101q-7 61 -10.5 99t-6.5 65q-20 -40 -39.5 -78.5t-44.5 -85.5z" />
    <glyph glyph-name="uni0468" unicode="&#x468;" horiz-adv-x="778" 
d="M26 0l151 714h86l-64 -303h187l163 303h87l87 -714h-86l-37 332h-46l-69 -332h-80l71 332h-48l-176 -332h-89l181 335h-162l-70 -335h-86zM469 407h122l-8 112q-5 33 -6 55t-2 48q-10 -24 -22 -50t-28 -54z" />
    <glyph glyph-name="uni0469" unicode="&#x469;" horiz-adv-x="665" 
d="M18 0l114 536h84l-47 -222h143l121 222h103l71 -536h-83l-28 237h-34l-50 -237h-78l52 237h-35l-128 -237h-85l133 243h-118l-51 -243h-84zM389 307h99l-16 161z" />
    <glyph glyph-name="uni046A" unicode="&#x46a;" horiz-adv-x="606" 
d="M-47 0l103 228q24 54 48.5 92.5t59 61t89.5 26.5l-104 244l13 62h471l-13 -62l-211 -244q50 -6 76 -28.5t35.5 -60.5t11.5 -89l8 -230h-87l-6 230q-2 58 -18 85t-61 27h-8l-72 -342h-85l73 342h-6q-48 0 -73 -27t-53 -89l-102 -226h-89zM332 421l180 218h-269z" />
    <glyph glyph-name="uni046B" unicode="&#x46b;" horiz-adv-x="548" 
d="M-53 0l92 182q18 36 38 63.5t50.5 44.5t77.5 22l-95 176l10 48h414l-9 -48l-168 -176q40 -7 61.5 -26t31.5 -48.5t14 -67.5l17 -170h-81l-16 169q-5 49 -21.5 67.5t-56.5 18.5l-54 -255h-77l54 255q-42 0 -65 -17.5t-44 -61.5l-88 -176h-85zM280 318l134 148h-212z" />
    <glyph glyph-name="uni046C" unicode="&#x46c;" horiz-adv-x="840" 
d="M26 0l151 714h86l-64 -302h283l-102 240l13 62h471l-13 -62l-211 -246q50 -5 75.5 -27t35.5 -59.5t12 -90.5l8 -229h-87l-6 226q-2 63 -18.5 89t-62.5 26h-6l-72 -341h-84l72 341h-6q-32 0 -53 -10.5t-39 -38.5t-41 -80l-95 -212h-89l103 228q17 38 32 63.5t34 43.5h-171
l-70 -335h-86zM562 420l180 219h-269z" />
    <glyph glyph-name="uni046D" unicode="&#x46d;" horiz-adv-x="742" 
d="M18 0l114 536h84l-47 -222h231l-92 174l10 48h414l-10 -48l-168 -178q58 -10 79.5 -45t27.5 -96l18 -169h-82l-16 169q-5 49 -21 66.5t-57 17.5l-54 -253h-76l52 253q-43 0 -64.5 -17.5t-45.5 -65.5l-85 -170h-86l89 176q11 21 22 38t25 30h-127l-51 -244h-84zM476 316
l136 150h-213z" />
    </font>
</defs>
</svg>
