<?xml version="1.0" standalone="no"?>
<!DOCTYPE svg PUBLIC "-//W3C//DTD SVG 1.1//EN" "http://www.w3.org/Graphics/SVG/1.1/DTD/svg11.dtd" >
<svg>
<metadata>
Created by FontForge 20120731 at Thu Nov  8 00:24:11 2018
 By Salim,,,
Copyright 2015 Google Inc. All Rights Reserved.
</metadata>
<defs>
<font id="NotoSans-ExtraCondensedSemiBoldItalic" horiz-adv-x="0" >
  <font-face 
    font-family="Noto Sans ExtCond SemBd"
    font-weight="600"
    font-style="italic"
    font-stretch="extra-condensed"
    units-per-em="1000"
    panose-1="2 11 7 6 4 5 4 9 2 4"
    ascent="800"
    descent="-200"
    x-height="542"
    cap-height="714"
    bbox="-599 -389 2555 1071"
    underline-thickness="50"
    underline-position="-75"
    slope="-12"
    unicode-range="U+000D-FFFD"
  />
<missing-glyph horiz-adv-x="561" 
d="M96 0v714h390v-714h-390zM143 48h296v618h-296v-618z" />
    <glyph glyph-name="f_f" unicode="ff" horiz-adv-x="500" 
d="M-60 -240q-16 0 -30.5 1.5t-28.5 6.5v92q9 -4 22 -6t23 -2q34 0 46.5 27t22.5 73l107 502h-57l11 56l63 31l12 50q11 47 26.5 87t45 63.5t79.5 23.5q23 0 45.5 -4.5t43.5 -15.5l-37 -80q-20 11 -41 11q-25 0 -37.5 -23t-20.5 -63l-11 -48h141l10 49q10 47 26 87
t45.5 63.5t80.5 23.5q23 0 45 -4.5t43 -15.5l-36 -80q-22 11 -42 11q-25 0 -37 -23t-21 -63l-10 -48h75l-18 -88h-75l-110 -511q-11 -53 -28.5 -94.5t-47.5 -65t-81 -23.5q-16 0 -30 1.5t-28 6.5v92q8 -4 21 -6t24 -2q35 0 47 27t21 73l107 502h-140l-110 -511
q-11 -53 -28 -94.5t-47 -65t-81 -23.5z" />
    <glyph glyph-name="f_f_i" unicode="ffi" horiz-adv-x="708" 
d="M-60 -240q-16 0 -30.5 1.5t-28.5 6.5v92q9 -4 22 -6t23 -2q34 0 46.5 27t22.5 73l107 502h-57l11 56l63 31l12 50q11 47 26.5 87t45 63.5t79.5 23.5q23 0 45.5 -4.5t43.5 -15.5l-37 -80q-20 11 -41 11q-25 0 -37.5 -23t-20.5 -63l-11 -48h141l10 49q10 47 26 87
t45.5 63.5t80.5 23.5q23 0 45 -4.5t43 -15.5l-36 -80q-22 11 -42 11q-25 0 -37 -23t-21 -63l-10 -48h75l-18 -88h-75l-110 -511q-11 -53 -28.5 -94.5t-47.5 -65t-81 -23.5q-16 0 -30 1.5t-28 6.5v92q8 -4 21 -6t24 -2q35 0 47 27t21 73l107 502h-140l-110 -511
q-11 -53 -28 -94.5t-47 -65t-81 -23.5zM679 620q-50 0 -50 46q0 30 17.5 56.5t53.5 26.5q50 0 50 -45q0 -34 -19.5 -59t-51.5 -25zM492 0l116 542h103l-115 -542h-104z" />
    <glyph glyph-name="f_f_l" unicode="ffl" horiz-adv-x="707" 
d="M-60 -240q-16 0 -30.5 1.5t-28.5 6.5v92q9 -4 22 -6t23 -2q34 0 46.5 27t22.5 73l107 502h-57l11 56l63 31l12 50q11 47 26.5 87t45 63.5t79.5 23.5q23 0 45.5 -4.5t43.5 -15.5l-37 -80q-20 11 -41 11q-25 0 -37.5 -23t-20.5 -63l-11 -48h141l10 49q10 47 26 87
t45.5 63.5t80.5 23.5q23 0 45 -4.5t43 -15.5l-36 -80q-22 11 -42 11q-25 0 -37 -23t-21 -63l-10 -48h75l-18 -88h-75l-110 -511q-11 -53 -28.5 -94.5t-47.5 -65t-81 -23.5q-16 0 -30 1.5t-28 6.5v92q8 -4 21 -6t24 -2q35 0 47 27t21 73l107 502h-140l-110 -511
q-11 -53 -28 -94.5t-47 -65t-81 -23.5zM493 0l162 760h104l-161 -760h-105z" />
    <glyph glyph-name="f_i" unicode="fi" horiz-adv-x="463" 
d="M-60 -240q-16 0 -30.5 1.5t-28.5 6.5v92q9 -4 22 -6t23 -2q34 0 46.5 27t22.5 73l107 502h-57l11 56l63 31l12 50q11 47 26.5 87t45 63.5t79.5 23.5q23 0 45.5 -4.5t43.5 -15.5l-37 -80q-20 11 -41 11q-25 0 -37.5 -23t-20.5 -63l-11 -48h76l-18 -88h-76l-110 -511
q-11 -53 -28 -94.5t-47 -65t-81 -23.5zM435 620q-50 0 -50 46q0 30 17.5 56.5t53.5 26.5q50 0 50 -45q0 -34 -20 -59t-51 -25zM248 0l115 542h103l-114 -542h-104z" />
    <glyph glyph-name="f_l" unicode="fl" horiz-adv-x="462" 
d="M-60 -240q-16 0 -30.5 1.5t-28.5 6.5v92q9 -4 22 -6t23 -2q34 0 46.5 27t22.5 73l107 502h-57l11 56l63 31l12 50q11 47 26.5 87t45 63.5t79.5 23.5q23 0 45.5 -4.5t43.5 -15.5l-37 -80q-20 11 -41 11q-25 0 -37.5 -23t-20.5 -63l-11 -48h76l-18 -88h-76l-110 -511
q-11 -53 -28 -94.5t-47 -65t-81 -23.5zM248 0l162 760h103l-162 -760h-103z" />
    <glyph glyph-name=".notdef" horiz-adv-x="561" 
d="M96 0v714h390v-714h-390zM143 48h296v618h-296v-618z" />
    <glyph glyph-name="NULL" 
 />
    <glyph glyph-name="NULL" 
 />
    <glyph glyph-name="CR" unicode="&#xd;" horiz-adv-x="171" 
 />
    <glyph glyph-name="space" unicode=" " horiz-adv-x="171" 
 />
    <glyph glyph-name="exclam" unicode="!" horiz-adv-x="242" 
d="M60 216l90 498h121l-124 -498h-87zM58 -9q-25 0 -39.5 12.5t-14.5 38.5q0 36 21 64t61 28q23 0 36.5 -13.5t13.5 -37.5q0 -41 -23 -66.5t-55 -25.5z" />
    <glyph glyph-name="quotedbl" unicode="&#x22;" horiz-adv-x="374" 
d="M266 456l40 258h114l-71 -258h-83zM97 456l39 258h113l-69 -258h-83z" />
    <glyph glyph-name="numbersign" unicode="#" horiz-adv-x="457" 
d="M10 0l65 209h-74l14 79h84l48 149h-79l14 80h89l62 197h79l-62 -197h80l62 197h79l-62 -197h75l-14 -80h-85l-47 -149h80l-14 -79h-90l-66 -209h-79l65 209h-81l-64 -209h-79zM179 288h80l47 149h-80z" />
    <glyph glyph-name="dollar" unicode="$" horiz-adv-x="418" 
d="M113 -59l22 103q-45 2 -77 12.5t-54 25.5l18 105q24 -19 58 -35t74 -19l41 196q-25 17 -50 38.5t-41 51t-16 70.5q0 63 25 104.5t66 63t91 25.5l16 77h43l-15 -77q43 -3 71.5 -14.5t50.5 -25.5l-46 -88q-22 16 -45.5 26t-50.5 13l-39 -185q27 -20 51.5 -42t40 -52
t15.5 -72q0 -62 -24.5 -104t-66 -66t-93.5 -28l-22 -102zM218 436l33 156q-36 -6 -53.5 -29t-17.5 -57q0 -35 38 -70zM198 137q37 6 54.5 29.5t17.5 56.5q0 23 -8.5 40.5t-29.5 37.5z" />
    <glyph glyph-name="percent" unicode="%" horiz-adv-x="668" 
d="M145 276q-46 0 -70.5 31t-24.5 95q0 33 6.5 75t20.5 85.5t35 80t50 59t66 22.5q44 0 69 -31t25 -95q0 -31 -6.5 -72.5t-20 -85t-34.5 -81t-50 -60.5t-66 -23zM111 0l381 714h83l-381 -714h-83zM154 351q16 0 29.5 19.5t24.5 49.5t18.5 64.5t11.5 65t4 49.5q0 50 -24 50
q-16 0 -29.5 -19t-24.5 -49t-18.5 -64t-11.5 -65t-4 -51q0 -50 24 -50zM462 -9q-95 0 -95 125q0 48 11.5 104t34 106t55.5 81.5t76 31.5q44 0 69.5 -30.5t25.5 -95.5q0 -32 -6.5 -74t-20 -85t-34.5 -80t-50 -60t-66 -23zM471 66q16 0 29.5 19t24 49t18 64t11.5 65t4 51
q0 49 -24 49q-17 0 -30.5 -20t-24.5 -51t-18 -65.5t-11 -64.5t-4 -46q0 -50 25 -50z" />
    <glyph glyph-name="ampersand" unicode="&#x26;" horiz-adv-x="483" 
d="M132 -10q-63 0 -99.5 38t-36.5 106q0 80 42 144.5t112 112.5q-11 30 -17.5 61.5t-6.5 67.5q0 56 20 102t57 73.5t89 27.5q46 0 81 -27t35 -85q0 -67 -36.5 -126t-96.5 -109l48 -141q26 50 47 124h105q-17 -56 -46 -116.5t-61 -107.5l56 -135h-125l-19 57
q-34 -29 -67.5 -48t-80.5 -19zM240 448q30 28 49.5 67.5t19.5 81.5q0 19 -7 33t-24 14q-19 0 -30.5 -17t-16.5 -41.5t-5 -48.5q0 -25 3.5 -47t10.5 -42zM157 84q27 0 47.5 17t39.5 39l-62 178q-77 -68 -77 -166q0 -68 52 -68z" />
    <glyph glyph-name="quotesingle" unicode="'" horiz-adv-x="204" 
d="M99 456l40 258h113l-69 -258h-84z" />
    <glyph glyph-name="parenleft" unicode="(" horiz-adv-x="265" 
d="M61 -158q-15 31 -25 73.5t-15 88.5t-5 88q0 82 16 168.5t46.5 170.5t73 159t96.5 134h89q-65 -85 -115.5 -189.5t-79 -217.5t-28.5 -224q0 -66 8 -131t27 -120h-88z" />
    <glyph glyph-name="parenright" unicode=")" horiz-adv-x="265" 
d="M-75 -158q65 85 115 189.5t78.5 217.5t28.5 223q0 64 -8.5 132.5t-27.5 119.5h89q24 -53 34 -118t10 -132q0 -114 -28.5 -230.5t-80.5 -220.5t-122 -181h-88z" />
    <glyph glyph-name="asterisk" unicode="*" horiz-adv-x="387" 
d="M296 388l-45 125l-77 -109l-70 67l100 95l-116 33l32 91l109 -59l3 135l99 -13l-31 -130l119 29l9 -96l-121 -3l73 -116z" />
    <glyph glyph-name="plus" unicode="+" horiz-adv-x="457" 
d="M285 399h149v-92h-149v-191h-93v191h-150v92h150v193h93v-193z" />
    <glyph glyph-name="comma" unicode="," horiz-adv-x="221" 
d="M-49 -134q15 36 32 81.5t33 91.5t26 84h105l3 -10q-24 -67 -54 -130t-62 -117h-83z" />
    <glyph glyph-name="hyphen" unicode="-" horiz-adv-x="275" 
d="M13 219l21 100h224l-21 -100h-224z" />
    <glyph glyph-name="period" unicode="." horiz-adv-x="220" 
d="M60 -9q-54 0 -54 51q0 36 21 64t60 28q23 0 36.5 -13.5t13.5 -37.5q0 -41 -23 -66.5t-54 -25.5z" />
    <glyph glyph-name="slash" unicode="/" horiz-adv-x="355" 
d="M-51 -5l389 724h97l-390 -724h-96z" />
    <glyph glyph-name="zero" unicode="0" horiz-adv-x="418" 
d="M153 -10q-65 0 -96.5 43.5t-31.5 137.5q0 39 6.5 95t19.5 118.5t34 122.5t50.5 109t67.5 78.5t86 29.5q65 0 96.5 -43.5t31.5 -137.5q0 -44 -6.5 -102t-20.5 -120t-35.5 -121t-50.5 -106.5t-66.5 -75.5t-84.5 -28zM165 87q22 0 41.5 25.5t36.5 68t30.5 94t23 103.5
t14.5 97t5 74q0 40 -8.5 59t-28.5 19q-21 0 -41 -26t-37 -69.5t-31 -95t-23.5 -103.5t-15 -95.5t-5.5 -70.5q0 -42 9.5 -61t29.5 -19z" />
    <glyph glyph-name="one" unicode="1" horiz-adv-x="418" 
d="M135 0l97 461q5 21 8.5 35.5t7.5 31t11 42.5q-8 -8 -16 -17.5t-18 -17.5l-77 -68l-49 68l198 179h96l-151 -714h-107z" />
    <glyph glyph-name="two" unicode="2" horiz-adv-x="418" 
d="M-31 0l15 78l174 205q38 45 72 91t55 92t21 94q0 69 -55 69q-29 0 -57 -20.5t-54 -42.5l-37 76q37 40 80 61t92 21q64 0 103 -38.5t39 -105.5q0 -86 -48.5 -166t-119.5 -160l-136 -156v-3h213l-20 -95h-337z" />
    <glyph glyph-name="three" unicode="3" horiz-adv-x="418" 
d="M118 -10q-42 0 -71 7t-60 24v104q29 -22 64.5 -31.5t65.5 -9.5q61 0 95 40t34 101q0 97 -99 97h-35l19 92h35q67 0 106.5 41t39.5 105q0 70 -63 70q-53 0 -113 -45l-26 82q38 29 77 43t86 14q65 0 107 -34.5t42 -103.5q0 -75 -42 -133t-113 -79v-3q42 -13 66.5 -47.5
t24.5 -91.5q0 -66 -29 -121t-82.5 -88t-128.5 -33z" />
    <glyph glyph-name="four" unicode="4" horiz-adv-x="418" 
d="M169 0l32 150h-216l18 85l315 483h108l-101 -477h66l-20 -91h-66l-31 -150h-105zM91 241h129l54 249q4 19 10 40.5t11 41.5h-3q-16 -31 -25 -47.5t-19 -30.5z" />
    <glyph glyph-name="five" unicode="5" horiz-adv-x="418" 
d="M123 -10q-41 0 -72.5 7.5t-51.5 18.5v111q23 -19 55 -31t69 -12q44 0 74 24.5t45.5 63t15.5 82.5q0 102 -83 102q-19 0 -37 -5t-38 -12l-33 34l92 341h271l-21 -97h-178l-49 -176q28 7 54 7q63 0 99 -45t36 -128q0 -51 -14 -101.5t-43.5 -92t-77 -66.5t-113.5 -25z" />
    <glyph glyph-name="six" unicode="6" horiz-adv-x="418" 
d="M172 -10q-76 0 -110.5 52.5t-34.5 139.5q0 73 15 152t44.5 151t70.5 125q34 45 83.5 79.5t113.5 34.5q57 0 91 -10l-21 -94q-34 12 -70 12q-68 0 -116.5 -62.5t-79.5 -181.5h3q21 33 51 52t67 19q57 0 82.5 -44.5t25.5 -111.5q0 -49 -12.5 -103.5t-38 -102t-66.5 -77.5
t-98 -30zM178 85q28 0 47 22.5t31 56t17.5 69t5.5 60.5q0 35 -11.5 54.5t-33.5 19.5q-26 0 -46 -18.5t-30 -44.5q-13 -22 -19.5 -59t-6.5 -72q0 -43 12.5 -65.5t33.5 -22.5z" />
    <glyph glyph-name="seven" unicode="7" horiz-adv-x="418" 
d="M30 0l307 617h-241l20 96h349l-15 -75l-310 -638h-110z" />
    <glyph glyph-name="eight" unicode="8" horiz-adv-x="418" 
d="M167 -10q-80 0 -124 41t-44 115q0 78 40.5 132.5t115.5 97.5q-31 33 -45.5 71.5t-14.5 79.5q0 55 22.5 100t65.5 71t103 26q66 0 105 -37t39 -102q0 -67 -37 -120t-104 -91q41 -40 59.5 -81.5t18.5 -90.5q0 -56 -25 -104t-69.5 -78t-105.5 -30zM235 429q92 53 92 140
q0 33 -14.5 50t-39.5 17q-36 0 -56.5 -28.5t-20.5 -76.5q0 -31 10.5 -56t28.5 -46zM168 78q48 0 71.5 36t24.5 82q0 36 -15 66.5t-40 57.5q-46 -27 -76.5 -67t-30.5 -99q0 -32 17.5 -54t48.5 -22z" />
    <glyph glyph-name="nine" unicode="9" horiz-adv-x="418" 
d="M95 -10q-29 0 -51 3.5t-41 8.5v94q36 -14 88 -14q68 0 116.5 62.5t78.5 181.5h-3q-23 -32 -53 -51.5t-65 -19.5q-57 0 -82.5 44.5t-25.5 108.5q0 48 12.5 102.5t38.5 103t68 79.5t100 31q68 0 104 -49t36 -141q0 -52 -8 -111.5t-24.5 -119t-40.5 -111.5
q-24 -54 -58.5 -100t-81.5 -74t-108 -28zM210 348q21 0 37.5 12.5t27.5 32.5q19 26 28 65.5t9 82.5q0 88 -46 88q-25 0 -44 -21.5t-31.5 -54t-19 -67.5t-6.5 -62q0 -76 45 -76z" />
    <glyph glyph-name="colon" unicode=":" horiz-adv-x="224" 
d="M143 404q-54 0 -54 50q0 36 21 64.5t60 28.5q23 0 36.5 -14.5t13.5 -37.5q0 -40 -23 -65.5t-54 -25.5zM55 -9q-54 0 -54 51q0 36 20.5 64t59.5 28q24 0 37.5 -13.5t13.5 -37.5q0 -41 -23 -66.5t-54 -25.5z" />
    <glyph glyph-name="semicolon" unicode=";" horiz-adv-x="224" 
d="M147 404q-54 0 -54 50q0 36 20.5 64.5t60.5 28.5q23 0 36.5 -14.5t13.5 -37.5q0 -40 -23 -65.5t-54 -25.5zM-52 -134q26 64 50 128.5t42 128.5h104l3 -10q-25 -66 -54.5 -129t-61.5 -118h-83z" />
    <glyph glyph-name="less" unicode="&#x3c;" horiz-adv-x="457" 
d="M435 125l-396 202v62l396 201v-104l-267 -129l267 -130v-102z" />
    <glyph glyph-name="equal" unicode="=" horiz-adv-x="457" 
d="M42 415v92h392v-92h-392zM42 197v93h392v-93h-392z" />
    <glyph glyph-name="greater" unicode="&#x3e;" horiz-adv-x="457" 
d="M41 227l267 130l-267 129v104l396 -201v-62l-396 -202v102z" />
    <glyph glyph-name="question" unicode="?" horiz-adv-x="317" 
d="M71 216q10 48 20.5 80.5t26.5 58t41 53.5q27 32 49 56t35 49t13 61q0 55 -52 55q-28 0 -54 -12.5t-49 -28.5l-18 82q36 28 73 41t74 13q64 0 97.5 -33t33.5 -91q0 -69 -34.5 -121t-81.5 -101q-29 -30 -45.5 -52t-25 -47t-16.5 -63h-87zM74 -9q-54 0 -54 51q0 36 20.5 64
t60.5 28q23 0 36.5 -13.5t13.5 -37.5q0 -41 -22.5 -66.5t-54.5 -25.5z" />
    <glyph glyph-name="at" unicode="@" horiz-adv-x="625" 
d="M246 -82q-110 0 -166.5 66t-56.5 176q0 83 17.5 164t51.5 152.5t81.5 126.5t108.5 86.5t132 31.5q63 0 108.5 -29.5t70.5 -82.5t25 -125q0 -46 -8.5 -96.5t-25 -99t-39.5 -88t-52 -63t-63 -23.5q-40 0 -55.5 19.5t-20.5 53.5h-2q-18 -34 -41.5 -53.5t-48.5 -19.5
q-87 0 -87 108q0 34 8 75t24 82t40 75.5t56.5 55.5t72.5 21q33 0 59.5 -6.5t47.5 -16.5l-59 -243q-9 -33 -9 -50q0 -35 21 -35q20 0 37 21.5t30.5 56.5t22.5 75t13.5 78t4.5 65q0 89 -35.5 133.5t-101.5 44.5q-58 0 -106 -28.5t-85.5 -77.5t-64 -111.5t-40 -132
t-13.5 -137.5q0 -80 34.5 -130.5t113.5 -50.5t154 36v-66q-36 -17 -76 -27.5t-78 -10.5zM281 181q40 0 77 140l36 140q-11 4 -28 4q-26 0 -46.5 -25t-35 -62.5t-22.5 -77t-8 -69.5q0 -50 27 -50z" />
    <glyph glyph-name="A" unicode="A" horiz-adv-x="445" 
d="M-63 0l302 717h137l6 -717h-114l3 199h-136l-80 -199h-118zM171 295h105l5 230q0 24 1 46t3 43h-3q-4 -20 -10.5 -41.5t-14.5 -46.5z" />
    <glyph glyph-name="B" unicode="B" horiz-adv-x="458" 
d="M-2 0l151 714h152q45 0 83 -15t60.5 -47t22.5 -82q0 -65 -32 -120.5t-101 -74.5v-4q36 -12 56 -47.5t20 -82.5q0 -65 -26.5 -119.5t-78 -88t-127.5 -33.5h-180zM195 416h47q35 0 60 19.5t38 51t13 66.5q0 69 -72 69h-43zM126 93h52q42 0 68.5 21t39 55.5t12.5 75.5
t-19 61.5t-53 20.5h-50z" />
    <glyph glyph-name="C" unicode="C" horiz-adv-x="413" 
d="M203 -10q-83 0 -125.5 59.5t-42.5 170.5q0 63 13 132.5t38.5 135.5t63.5 119.5t88 85t112 31.5q38 0 72 -9t62 -31l-54 -87q-37 31 -79 31t-74.5 -29.5t-56.5 -77t-40 -102t-23.5 -105.5t-7.5 -87q0 -74 20 -107.5t61 -33.5q26 0 52 8t54 21v-98q-32 -14 -66.5 -20.5
t-66.5 -6.5z" />
    <glyph glyph-name="D" unicode="D" horiz-adv-x="490" 
d="M-1 0l151 714h132q97 0 148 -55.5t51 -160.5q0 -66 -12 -135.5t-38 -134t-66 -116t-96.5 -82t-130.5 -30.5h-139zM127 97h27q45 0 80 25.5t60 68t41 94.5t23.5 105t7.5 99q0 67 -24 97.5t-71 30.5h-34z" />
    <glyph glyph-name="E" unicode="E" horiz-adv-x="383" 
d="M-1 0l151 714h280l-20 -95h-172l-42 -200h160l-21 -95h-160l-49 -228h173l-20 -96h-280z" />
    <glyph glyph-name="F" unicode="F" horiz-adv-x="365" 
d="M-1 0l151 714h280l-20 -95h-172l-48 -227h160l-21 -95h-160l-62 -297h-108z" />
    <glyph glyph-name="G" unicode="G" horiz-adv-x="509" 
d="M236 -10q-102 0 -151 58.5t-49 170.5q0 98 23.5 188.5t68 162t107.5 113t143 41.5q46 0 87 -12.5t70 -32.5l-50 -92q-56 41 -117 41q-50 0 -90.5 -36.5t-69.5 -96t-44.5 -130t-15.5 -138.5q0 -73 24.5 -107t73.5 -34q17 0 33.5 3t33.5 7l42 201h-82l20 93h189l-77 -365
q-45 -17 -89 -26t-80 -9z" />
    <glyph glyph-name="H" unicode="H" horiz-adv-x="509" 
d="M-1 0l151 714h108l-62 -293h171l62 293h108l-152 -714h-108l69 325h-171l-68 -325h-108z" />
    <glyph glyph-name="I" unicode="I" horiz-adv-x="296" 
d="M-46 0l12 58l83 24l116 550l-72 24l11 58h264l-12 -58l-83 -24l-116 -550l72 -24l-12 -58h-263z" />
    <glyph glyph-name="J" unicode="J" horiz-adv-x="226" 
d="M-75 -202q-25 0 -43 3t-33 9l23 95q24 -12 48 -12q37 0 54.5 36.5t28.5 85.5l148 699h108l-152 -716q-22 -106 -68 -153t-114 -47z" />
    <glyph glyph-name="K" unicode="K" horiz-adv-x="440" 
d="M-1 0l151 714h108l-71 -333l49 79l174 254h118l-225 -330l79 -384h-119l-54 305l-47 -44l-55 -261h-108z" />
    <glyph glyph-name="L" unicode="L" horiz-adv-x="358" 
d="M-1 0l151 714h108l-132 -618h173l-19 -96h-281z" />
    <glyph glyph-name="M" unicode="M" horiz-adv-x="678" 
d="M-1 0l151 714h145l18 -529h2l235 529h156l-152 -714h-106l92 432q4 21 10 42.5t11 44.5h-2l-234 -519h-99l-17 516h-2q-6 -31 -10.5 -57t-9.5 -51l-86 -408h-102z" />
    <glyph glyph-name="N" unicode="N" horiz-adv-x="543" 
d="M-1 0l151 714h123l88 -517h3q8 49 16.5 95t13.5 74l75 348h103l-152 -714h-122l-89 527h-3q-4 -35 -10.5 -71.5t-13 -68t-9.5 -49.5l-72 -338h-102z" />
    <glyph glyph-name="O" unicode="O" horiz-adv-x="521" 
d="M208 -10q-88 0 -130.5 53.5t-42.5 167.5q0 65 12.5 136.5t37 138.5t61 121t85.5 86t110 32q88 0 129 -54t41 -161q0 -57 -10.5 -126t-33.5 -138.5t-58.5 -127.5t-85.5 -93t-115 -35zM216 87q37 0 66 29.5t51.5 78t37 105.5t22 112.5t7.5 99.5q0 116 -68 116
q-39 0 -69 -31t-51.5 -80.5t-35.5 -106t-21 -110t-7 -90.5q0 -68 17 -95.5t51 -27.5z" />
    <glyph glyph-name="P" unicode="P" horiz-adv-x="429" 
d="M-1 0l151 714h129q88 0 130 -44t42 -117q0 -76 -27.5 -141.5t-81.5 -105.5t-136 -40h-43l-56 -266h-108zM183 361h23q64 0 99 49.5t35 128.5q0 80 -79 80h-23z" />
    <glyph glyph-name="Q" unicode="Q" horiz-adv-x="521" 
d="M241 -170l-44 162h-16q-74 7 -110 60.5t-36 158.5q0 65 12.5 136.5t37 138.5t61 121t85.5 86t110 32q88 0 129 -54t41 -161q0 -48 -7.5 -105t-23 -116t-40 -113t-58.5 -96t-78 -65l62 -185h-125zM216 87q37 0 66 29.5t51.5 78t37 105.5t22 112.5t7.5 99.5q0 116 -68 116
q-39 0 -69 -31t-51.5 -80.5t-35.5 -106t-21 -110t-7 -90.5q0 -68 17 -95.5t51 -27.5z" />
    <glyph glyph-name="R" unicode="R" horiz-adv-x="446" 
d="M-1 0l151 714h125q89 0 134 -41.5t45 -117.5q0 -91 -38.5 -157.5t-103.5 -87.5l67 -310h-119l-51 288h-42l-60 -288h-108zM187 378h34q41 0 67.5 24t39 61t12.5 77q0 81 -78 81h-24z" />
    <glyph glyph-name="S" unicode="S" horiz-adv-x="395" 
d="M126 -10q-95 0 -148 37l20 112q26 -19 60.5 -33t69.5 -14q44 0 74.5 27t30.5 83q0 23 -5.5 41.5t-20.5 38.5t-43 48q-42 40 -64.5 80t-22.5 101q0 63 25.5 111t74 75t117.5 27q37 0 76.5 -11.5t67.5 -31.5l-50 -98q-26 19 -51.5 29.5t-49.5 10.5q-40 0 -68 -26t-28 -75
q0 -35 17.5 -62t59.5 -67q41 -38 60 -79.5t19 -100.5q0 -62 -25 -112.5t-74 -80.5t-122 -30z" />
    <glyph glyph-name="T" unicode="T" horiz-adv-x="371" 
d="M68 0l132 617h-121l21 97h349l-21 -97h-120l-131 -617h-109z" />
    <glyph glyph-name="U" unicode="U" horiz-adv-x="495" 
d="M190 -10q-74 0 -115 41.5t-41 115.5q0 18 2.5 40.5t7.5 44.5l102 482h108l-103 -485q-8 -38 -8 -65q0 -77 62 -77q43 0 69 35t42 114l103 478h108l-106 -492q-23 -109 -75.5 -170.5t-155.5 -61.5z" />
    <glyph glyph-name="V" unicode="V" horiz-adv-x="441" 
d="M96 0l-8 714h111l-5 -423q-1 -33 -2.5 -67t-5.5 -77h2q8 28 18.5 60.5t26.5 70.5l178 436h115l-306 -714h-124z" />
    <glyph glyph-name="W" unicode="W" horiz-adv-x="682" 
d="M69 0l20 714h105l-14 -400q-4 -83 -9 -134h2q11 33 24 66.5t26 67.5l157 400h94l-14 -391q-2 -44 -4 -77t-4 -65h2q12 36 24 69t26 69l152 395h110l-280 -714h-125l13 388q0 22 2 48t4 53h-2q-8 -23 -15.5 -47t-16.5 -47l-153 -395h-124z" />
    <glyph glyph-name="X" unicode="X" horiz-adv-x="413" 
d="M-58 0l219 370l-55 344h112l28 -236l123 236h116l-201 -350l61 -364h-116l-28 255l-144 -255h-115z" />
    <glyph glyph-name="Y" unicode="Y" horiz-adv-x="399" 
d="M83 0l57 273l-53 441h113l23 -298l149 298h115l-237 -438l-59 -276h-108z" />
    <glyph glyph-name="Z" unicode="Z" horiz-adv-x="369" 
d="M-40 0l16 79l315 540h-195l20 95h318l-17 -80l-316 -538h207l-20 -96h-328z" />
    <glyph glyph-name="bracketleft" unicode="[" horiz-adv-x="284" 
d="M-35 -163l189 887h202l-18 -83h-107l-153 -721h107l-19 -83h-201z" />
    <glyph glyph-name="backslash" unicode="\" horiz-adv-x="359" 
d="M191 -5l-91 724h93l92 -724h-94z" />
    <glyph glyph-name="bracketright" unicode="]" horiz-adv-x="284" 
d="M-70 -163l17 83h106l154 721h-107l18 83h202l-189 -887h-201z" />
    <glyph glyph-name="asciicircum" unicode="^" horiz-adv-x="420" 
d="M0 302l254 412h63l103 -412h-95l-66 264l-159 -264h-100z" />
    <glyph glyph-name="underscore" unicode="_" horiz-adv-x="330" 
d="M-90 -157l16 80h331l-16 -80h-331z" />
    <glyph glyph-name="grave" unicode="`" horiz-adv-x="275" 
d="M234 606q-13 17 -31 45t-34 56.5t-24 49.5v9h118q8 -34 18.5 -71t26.5 -78l-1 -11h-73z" />
    <glyph glyph-name="a" unicode="a" horiz-adv-x="443" 
d="M129 -10q-52 0 -80 41t-28 114q0 44 8 98t25 108.5t43 100t61 73t80 27.5q33 0 57 -19t35 -59h3l23 68h90l-115 -542h-84l3 73h-3q-26 -37 -53.5 -60t-64.5 -23zM170 79q29 0 50 26t36 65t25 78q11 47 16 80t5 61q0 71 -47 71q-23 0 -43 -21t-35.5 -55.5t-26.5 -75
t-16.5 -80.5t-5.5 -71q0 -78 42 -78z" />
    <glyph glyph-name="b" unicode="b" horiz-adv-x="439" 
d="M201 -10q-35 0 -59 20t-34 54h-3l-26 -64h-84l161 760h104l-45 -215q-3 -13 -8 -30.5t-10 -36.5h2q47 74 117 74q50 0 78 -40t28 -114q0 -45 -8.5 -99.5t-26 -108.5t-44 -99.5t-62 -73t-80.5 -27.5zM188 79q22 0 41.5 21.5t35 56t26.5 75.5t17 81t6 71q0 77 -43 77
q-25 0 -46 -22t-37 -57.5t-26.5 -77t-16 -81.5t-5.5 -70q0 -74 48 -74z" />
    <glyph glyph-name="c" unicode="c" horiz-adv-x="343" 
d="M161 -10q-67 0 -102.5 43.5t-35.5 124.5q0 48 8.5 102t27 106t47.5 94t69 67t93 25q60 0 106 -30l-42 -84q-31 23 -64 23q-36 0 -62 -30t-43 -76t-25 -95.5t-8 -88.5q0 -91 57 -91q39 0 91 35v-90q-22 -14 -53 -24.5t-64 -10.5z" />
    <glyph glyph-name="d" unicode="d" horiz-adv-x="443" 
d="M128 -10q-51 0 -79 41t-28 114q0 43 8 96.5t25 108t42 100.5t59.5 74t77.5 28q35 0 61 -18t36 -52h3q5 26 8.5 50t7.5 44l40 184h104l-162 -760h-84l3 68h-3q-28 -38 -54.5 -58t-64.5 -20zM170 79q27 0 48.5 23.5t37 61t26 80t15.5 81.5t5 65q0 70 -47 70
q-25 0 -45 -22.5t-35.5 -58t-26 -77t-15.5 -80.5t-5 -67q0 -76 42 -76z" />
    <glyph glyph-name="e" unicode="e" horiz-adv-x="407" 
d="M175 -10q-71 0 -112 45t-41 126q0 76 17 146t49 125t78 87t104 32q56 0 90 -31.5t34 -89.5q0 -93 -68.5 -143.5t-186.5 -50.5h-8q-6 -32 -6 -64q0 -51 18.5 -73.5t56.5 -22.5q30 0 55 7.5t59 26.5v-83q-32 -20 -66.5 -28.5t-72.5 -8.5zM146 313h3q82 0 115.5 30.5
t33.5 78.5q0 45 -43 45q-33 0 -62.5 -41.5t-46.5 -112.5z" />
    <glyph glyph-name="f" unicode="f" horiz-adv-x="256" 
d="M-60 -240q-16 0 -30.5 1.5t-28.5 6.5v92q9 -4 22 -6t23 -2q34 0 46.5 27t22.5 73l107 502h-57l11 56l63 31l12 50q11 47 26.5 87t45 63.5t79.5 23.5q23 0 45.5 -4.5t43.5 -15.5l-37 -80q-20 11 -41 11q-25 0 -37.5 -23t-20.5 -63l-11 -48h76l-18 -88h-76l-110 -511
q-11 -53 -28 -94.5t-47 -65t-81 -23.5z" />
    <glyph glyph-name="g" unicode="g" horiz-adv-x="443" 
d="M105 -240q-38 0 -72.5 9t-56.5 23v96q21 -15 57.5 -27.5t70.5 -12.5q48 0 75 30t41 86l6 30q3 12 7.5 30.5t10.5 38.5h-2q-26 -38 -54 -55.5t-63 -17.5q-49 0 -77 38.5t-28 111.5q0 44 8.5 99t26 110t43.5 101t62 74t81 28q38 0 59.5 -19.5t31.5 -58.5h3l21 68h90
l-122 -575q-23 -110 -77 -158.5t-142 -48.5zM171 81q25 0 46 23t37 60.5t26.5 80.5t16 83t5.5 69q0 63 -48 63q-25 0 -45 -22t-35 -58t-25.5 -77t-15.5 -79.5t-5 -66.5q0 -76 43 -76z" />
    <glyph glyph-name="h" unicode="h" horiz-adv-x="437" 
d="M-4 0l161 760h104l-39 -180q-5 -25 -12.5 -51t-14.5 -51h2q21 36 49 55t66 19q46 0 73 -29.5t27 -82.5q0 -20 -4 -46.5t-9 -50.5l-72 -343h-104l67 321q6 24 10 48t4 45q0 20 -10 31.5t-29 11.5q-33 0 -58 -35.5t-43 -121.5l-64 -300h-104z" />
    <glyph glyph-name="i" unicode="i" horiz-adv-x="211" 
d="M183 620q-50 0 -50 46q0 30 17.5 56.5t53.5 26.5q50 0 50 -45q0 -34 -20 -59t-51 -25zM-4 0l115 542h103l-114 -542h-104z" />
    <glyph glyph-name="j" unicode="j" horiz-adv-x="212" 
d="M184 620q-50 0 -50 46q0 30 17.5 56.5t53.5 26.5q50 0 50 -45q0 -34 -19.5 -59t-51.5 -25zM-69 -240q-16 0 -30.5 1.5t-28.5 6.5v93q9 -5 21.5 -7t23.5 -2q31 0 45 23.5t27 84.5l123 582h103l-125 -590q-12 -58 -29.5 -101.5t-48 -67t-81.5 -23.5z" />
    <glyph glyph-name="k" unicode="k" horiz-adv-x="401" 
d="M-4 0l162 760h103l-74 -343q-9 -45 -27 -109h2l173 234h114l-169 -225l64 -317h-112l-43 233l-54 -56l-36 -177h-103z" />
    <glyph glyph-name="l" unicode="l" horiz-adv-x="209" 
d="M-4 0l162 760h103l-162 -760h-103z" />
    <glyph glyph-name="m" unicode="m" horiz-adv-x="649" 
d="M-5 0l116 542h84l-8 -68h3q22 37 52 57.5t67 20.5q78 0 96 -69h3q23 32 53.5 50.5t67.5 18.5q46 0 71.5 -28t25.5 -81q0 -16 -3 -35.5t-7 -39.5l-78 -368h-103l72 343q5 19 7.5 37t2.5 30q0 47 -37 47q-25 0 -42.5 -19.5t-29 -48.5t-17.5 -59l-70 -330h-104l74 348
q8 38 8 63q0 46 -36 46q-29 0 -48.5 -24.5t-32 -62.5t-20.5 -78l-62 -292h-105z" />
    <glyph glyph-name="n" unicode="n" horiz-adv-x="437" 
d="M-5 0l116 542h83l-7 -70h3q22 38 52.5 59t65.5 21q42 0 73 -25.5t31 -85.5q0 -19 -3.5 -43.5t-8.5 -51.5l-74 -346h-104l69 325q5 23 9 47t4 42q0 43 -38 43q-39 0 -64 -45.5t-42 -124.5l-60 -287h-105z" />
    <glyph glyph-name="o" unicode="o" horiz-adv-x="430" 
d="M165 -10q-67 0 -104.5 44.5t-37.5 126.5q0 42 8 93.5t25.5 104t46 96t69 70.5t94.5 27q67 0 104.5 -45.5t37.5 -127.5q0 -49 -9 -102.5t-28 -104.5t-47.5 -92t-68 -65.5t-90.5 -24.5zM177 79q24 0 43.5 20.5t34.5 54t25.5 73.5t16 80t5.5 73q0 40 -12 61.5t-38 21.5
q-25 0 -45 -21.5t-35 -56.5t-25 -76t-15 -80.5t-5 -68.5q0 -81 50 -81z" />
    <glyph glyph-name="p" unicode="p" horiz-adv-x="439" 
d="M-53 -235l164 777h85l-7 -76h3q54 86 122 86q50 0 78.5 -38.5t28.5 -117.5q0 -46 -8.5 -100.5t-26 -108.5t-43.5 -98.5t-60.5 -71.5t-78.5 -27q-34 0 -58 19.5t-34 53.5h-3q-4 -26 -8 -50.5t-8 -43.5l-43 -204h-103zM188 81q23 0 42.5 21t35 55t26.5 74.5t16.5 81
t5.5 73.5q0 77 -41 77q-26 0 -46.5 -22.5t-37 -59t-27.5 -78.5t-16.5 -81.5t-5.5 -68.5q0 -72 48 -72z" />
    <glyph glyph-name="q" unicode="q" horiz-adv-x="443" 
d="M177 -239l47 222q3 13 8.5 35t12.5 45h-3q-50 -73 -117 -73q-49 0 -77 38t-28 112q0 44 8.5 98t25.5 109.5t43.5 101.5t62 74.5t80.5 28.5q39 0 60.5 -19.5t31.5 -58.5h2l22 68h90l-166 -781h-103zM171 81q25 0 46 22t36.5 58t26.5 78t16.5 83t5.5 72q0 66 -48 66
q-23 0 -43 -21t-35 -55.5t-26 -75t-16.5 -80.5t-5.5 -71q0 -76 43 -76z" />
    <glyph glyph-name="r" unicode="r" horiz-adv-x="300" 
d="M-4 0l115 542h81l-9 -86h4q24 49 52.5 72.5t68.5 23.5q19 0 40 -7l-31 -112q-19 8 -40 8q-33 0 -56.5 -24.5t-39 -61.5t-23.5 -76l-59 -279h-103z" />
    <glyph glyph-name="s" unicode="s" horiz-adv-x="339" 
d="M114 -10q-41 0 -71 7.5t-51 19.5v102q22 -17 53 -27.5t57 -10.5q34 0 54.5 18.5t20.5 53.5q0 23 -10.5 44t-43.5 53q-37 34 -52.5 66.5t-15.5 72.5q0 45 19 82t55.5 59t88.5 22q40 0 75.5 -11t59.5 -29l-42 -80q-21 16 -45 24.5t-44 8.5q-28 0 -44.5 -16.5t-16.5 -44.5
q0 -22 9.5 -40.5t40.5 -47.5q26 -24 42.5 -45.5t24.5 -46t8 -60.5q0 -76 -45 -125t-127 -49z" />
    <glyph glyph-name="t" unicode="t" horiz-adv-x="272" 
d="M119 -10q-49 0 -69.5 28t-20.5 74q0 32 10 78l60 284h-48l11 56l63 29l48 121h74l-26 -118h82l-18 -88h-82l-63 -296q-2 -12 -4.5 -24t-2.5 -20q0 -32 30 -32q8 0 22 2.5t27 8.5v-84q-20 -10 -46.5 -14.5t-46.5 -4.5z" />
    <glyph glyph-name="u" unicode="u" horiz-adv-x="437" 
d="M127 -10q-51 0 -77.5 29.5t-26.5 82.5q0 18 3.5 41t7.5 45l76 354h103l-70 -332q-11 -47 -11 -81q0 -45 36 -45q39 0 64.5 46t41.5 125l62 287h103l-114 -542h-83l4 67h-3q-23 -36 -52.5 -56.5t-63.5 -20.5z" />
    <glyph glyph-name="v" unicode="v" horiz-adv-x="375" 
d="M73 0l-13 542h103l-2 -272q0 -24 -1 -60t-4 -58h4q7 22 15 43t16 40l128 307h108l-242 -542h-112z" />
    <glyph glyph-name="w" unicode="w" horiz-adv-x="587" 
d="M52 0l12 542h101l-9 -263q-2 -31 -4.5 -59.5t-4.5 -55.5h3q7 25 16.5 52.5t18.5 51.5l105 274h118l-11 -266q-1 -28 -3 -58.5t-4 -58.5h2q10 31 21 64t24 65l96 254h104l-217 -542h-121l14 305q1 24 3 47.5t4 48.5h-2q-7 -21 -13.5 -40t-13.5 -39l-123 -322h-116z" />
    <glyph glyph-name="x" unicode="x" horiz-adv-x="382" 
d="M-48 0l176 280l-55 262h110l27 -173l98 173h116l-169 -267l59 -275h-110l-31 186l-108 -186h-113z" />
    <glyph glyph-name="y" unicode="y" horiz-adv-x="379" 
d="M-22 -240q-37 0 -61 9l16 93q11 -4 21 -6t21 -2q26 0 42 19t31 53l36 79l-20 537h104l1 -272q0 -56 -3 -112h3q9 28 19 56.5t17 47.5l118 280h109l-284 -632q-20 -45 -42.5 -78.5t-53 -52.5t-74.5 -19z" />
    <glyph glyph-name="z" unicode="z" horiz-adv-x="318" 
d="M-38 0l14 66l237 387h-145l19 89h262l-15 -72l-232 -381h158l-19 -89h-279z" />
    <glyph glyph-name="braceleft" unicode="{" horiz-adv-x="333" 
d="M220 -158q-85 0 -122.5 32t-37.5 92q0 14 2 28t5 28l24 116q1 8 3 17t2 19q0 32 -17 47t-62 15l19 88q50 1 77 23t37 71l32 151q14 60 40.5 91.5t70 42.5t104.5 11h3l-20 -88q-46 -1 -67.5 -18.5t-30.5 -63.5l-31 -147q-11 -49 -41 -79.5t-88 -38.5v-3q40 -10 58.5 -33.5
t18.5 -57.5q0 -22 -6 -52l-23 -111q-2 -10 -3 -19t-1 -16q0 -29 13.5 -42.5t48.5 -14.5l-1 -88h-7z" />
    <glyph glyph-name="bar" unicode="|" horiz-adv-x="374" 
d="M139 -235v1001h93v-1001h-93z" />
    <glyph glyph-name="braceright" unicode="}" horiz-adv-x="333" 
d="M-59 -158v88q49 0 73.5 18.5t34.5 63.5l31 147q10 49 40 79.5t88 38.5v3q-78 21 -78 91q0 24 7 52l24 111q3 20 3 35q0 56 -67 57l19 88h6q81 0 114 -30t33 -89q0 -13 -1.5 -30t-4.5 -31l-24 -116q-2 -9 -3.5 -17.5t-1.5 -18.5q0 -32 17 -47t62 -15l-19 -88
q-50 -1 -77 -24t-37 -70l-32 -151q-13 -59 -37.5 -90.5t-65.5 -43t-102 -11.5h-2z" />
    <glyph glyph-name="asciitilde" unicode="~" horiz-adv-x="457" 
d="M226 308q-51 27 -92 27q-45 0 -96 -59v100q43 52 105 52q29 0 54.5 -9t53.5 -22q53 -27 91 -27q22 0 48 16.5t48 42.5v-100q-42 -50 -104 -50q-30 0 -55 7.5t-53 21.5z" />
    <glyph glyph-name="uni00A0" unicode="&#xa0;" horiz-adv-x="171" 
 />
    <glyph glyph-name="exclamdown" unicode="&#xa1;" horiz-adv-x="242" 
d="M154 406q-23 0 -36.5 13.5t-13.5 37.5q0 40 22.5 66t53.5 26q55 0 55 -51q0 -36 -21 -64t-60 -28zM-33 -183l125 507h87l-92 -507h-120z" />
    <glyph glyph-name="cent" unicode="&#xa2;" horiz-adv-x="418" 
d="M135 -10l22 99q-49 11 -72 52t-23 117q0 53 12.5 115.5t38 120.5t66 98.5t96.5 50.5l17 81h65l-16 -81q21 -2 39.5 -9.5t32.5 -16.5l-43 -86q-13 11 -29.5 17t-30.5 6q-34 0 -60 -28.5t-44 -73t-27.5 -94.5t-9.5 -94q0 -47 14 -68t42 -21q19 0 39 7t39 19l27 -75
q-23 -18 -53.5 -27t-54.5 -12l-21 -97h-66z" />
    <glyph glyph-name="sterling" unicode="&#xa3;" horiz-adv-x="418" 
d="M-20 0l20 89q34 18 55.5 50t33.5 86l20 95h-64l17 82h63l31 145q18 82 59.5 129.5t118.5 47.5q73 0 123 -41l-46 -86q-17 14 -36 22.5t-39 8.5q-34 0 -51 -24t-27 -72l-28 -130h113l-17 -82h-113l-20 -95q-10 -47 -31.5 -78.5t-50.5 -50.5h230l-20 -96h-341z" />
    <glyph glyph-name="currency" unicode="&#xa4;" horiz-adv-x="497" 
d="M433 135l-65 63q-24 -16 -51 -24.5t-55 -8.5q-60 0 -106 34l-63 -63l-48 49l63 63q-17 23 -25 49.5t-8 55.5q0 28 8 54t25 51l-64 64l49 49l64 -64q24 18 51 26t54 8q59 0 106 -34l64 64l49 -48l-64 -64q34 -48 34 -106q0 -59 -33 -107l63 -63zM262 236q34 0 60.5 16
t42.5 43t16 58q1 31 -15.5 58t-44 43.5t-59.5 16.5t-58.5 -16t-42.5 -42.5t-16 -59.5t16 -59.5t42.5 -42t58.5 -15.5z" />
    <glyph glyph-name="yen" unicode="&#xa5;" horiz-adv-x="415" 
d="M91 0l26 123h-102l15 72h102l16 77h-102l16 72h86l-36 370h109l12 -289l134 289h111l-193 -370h89l-16 -72h-104l-17 -77h105l-15 -72h-105l-25 -123h-106z" />
    <glyph glyph-name="brokenbar" unicode="&#xa6;" horiz-adv-x="374" 
d="M139 384v381h93v-381h-93zM139 -235v381h93v-381h-93z" />
    <glyph glyph-name="section" unicode="&#xa7;" horiz-adv-x="376" 
d="M130 14q-78 0 -123 32v87q28 -23 59.5 -33t56.5 -10q36 0 58.5 22t22.5 58q0 25 -17.5 42.5t-42.5 35.5q-37 26 -61.5 56t-24.5 74q0 49 25.5 82.5t71.5 56.5q-40 39 -40 98q0 37 19 70t54.5 54t85.5 22q40 0 73.5 -10t61.5 -28l-39 -71q-21 17 -45 25.5t-48 8.5
q-29 0 -48.5 -18.5t-19.5 -49.5q0 -23 14.5 -40t40.5 -35q48 -33 68.5 -62t20.5 -63q0 -49 -23.5 -83t-66.5 -64q15 -17 25 -39.5t10 -53.5q0 -46 -21 -83t-59 -59t-88 -22zM217 310q43 32 43 86q0 25 -12 43t-47 41q-26 -12 -39 -33.5t-13 -47.5t16.5 -46.5t51.5 -42.5z
" />
    <glyph glyph-name="dieresis" unicode="&#xa8;" horiz-adv-x="456" 
d="M366 625q-44 0 -44 44q0 29 17 52t48 23q42 0 42 -42q0 -34 -18.5 -55.5t-44.5 -21.5zM203 625q-43 0 -43 44q0 29 17 52t48 23q40 0 40 -42q0 -34 -18 -55.5t-44 -21.5z" />
    <glyph glyph-name="copyright" unicode="&#xa9;" horiz-adv-x="828" 
d="M411 -10q-84 0 -151.5 28t-115.5 78.5t-74 117t-26 142.5q0 82 28.5 149.5t79 116.5t118 75.5t144.5 26.5q81 0 148.5 -28t117 -78t76.5 -117t27 -145q0 -80 -28 -147t-78 -116t-118 -76t-148 -27zM416 51q88 0 155.5 39.5t105 108.5t37.5 157q0 91 -39 160t-107 108
t-155 39q-90 0 -157.5 -40.5t-105.5 -110.5t-38 -157q0 -91 40 -159.5t109 -106.5t155 -38zM429 132q-97 0 -151 58.5t-54 165.5q0 105 54.5 165t151.5 60q73 0 138 -32l-34 -68q-51 24 -97 24q-57 0 -88.5 -38t-31.5 -112q0 -76 30 -111.5t89 -35.5q56 0 113 27v-76
q-57 -27 -120 -27z" />
    <glyph glyph-name="ordfeminine" unicode="&#xaa;" horiz-adv-x="289" 
d="M153 375q-19 0 -39.5 11t-34 37.5t-13.5 71.5q0 39 10 79t29.5 73.5t48 53.5t66.5 20q28 0 44 -13.5t23 -35.5h3l17 43h53l-71 -334h-56l5 45h-3q-13 -22 -32.5 -36.5t-49.5 -14.5zM173 438q20 0 35 16t25 41t15 51t5 47q0 66 -36 66q-23 0 -40 -24t-26.5 -60.5
t-9.5 -74.5q0 -62 32 -62z" />
    <glyph glyph-name="guillemotleft" unicode="&#xab;" horiz-adv-x="457" 
d="M122 51l-99 211l2 13l169 208l73 -45l-135 -172l73 -179zM316 51l-99 211l2 13l169 208l73 -45l-135 -172l72 -179z" />
    <glyph glyph-name="logicalnot" unicode="&#xac;" horiz-adv-x="457" 
d="M428 399v-280h-94v188h-292v92h386z" />
    <glyph glyph-name="uni00AD" unicode="&#xad;" horiz-adv-x="275" 
d="M13 219l21 100h224l-21 -100h-224z" />
    <glyph glyph-name="registered" unicode="&#xae;" horiz-adv-x="828" 
d="M411 -10q-84 0 -151.5 28t-115.5 78.5t-74 117t-26 142.5q0 82 28.5 149.5t79 116.5t118 75.5t144.5 26.5q81 0 148.5 -28t117 -78t76.5 -117t27 -145q0 -80 -28 -147t-78 -116t-118 -76t-148 -27zM416 51q88 0 155.5 39.5t105 108.5t37.5 157q0 91 -39 160t-107 108
t-155 39q-90 0 -157.5 -40.5t-105.5 -110.5t-38 -157q0 -91 40 -159.5t109 -106.5t155 -38zM270 148v428h129q80 0 122 -32t42 -96q0 -42 -16.5 -71.5t-53.5 -46.5l96 -182h-99l-78 165h-51v-165h-91zM360 379h34q35 0 55.5 15.5t20.5 49.5q0 32 -18 46t-58 14h-34v-125z
" />
    <glyph glyph-name="overscore" unicode="&#xaf;" horiz-adv-x="416" 
d="M95 760l18 80h420l-16 -80h-422z" />
    <glyph glyph-name="degree" unicode="&#xb0;" horiz-adv-x="363" 
d="M181 440q-62 0 -103.5 39t-41.5 103t42 103t103 39q63 0 104.5 -39t41.5 -103t-42.5 -103t-103.5 -39zM181 508q33 0 52.5 20t19.5 54q0 33 -19 53t-53 20q-35 0 -53.5 -20.5t-18.5 -52.5q0 -34 20 -54t52 -20z" />
    <glyph glyph-name="plusminus" unicode="&#xb1;" horiz-adv-x="457" 
d="M285 433h149v-92h-149v-191h-93v191h-150v92h150v193h93v-193zM42 0v92h393v-92h-393z" />
    <glyph glyph-name="uni00B2" unicode="&#xb2;" horiz-adv-x="294" 
d="M46 416l12 68l115 124q38 41 61 73t23 65q0 41 -37 41q-19 0 -37.5 -12.5t-35.5 -27.5l-27 55q24 26 56 39.5t67 13.5q47 0 73 -26t26 -69q0 -36 -16 -67.5t-40.5 -60t-51.5 -55.5l-87 -89h146l-15 -72h-232z" />
    <glyph glyph-name="uni00B3" unicode="&#xb3;" horiz-adv-x="294" 
d="M150 408q-31 0 -54.5 7t-40.5 19v78q36 -33 97 -33q34 0 54 20t20 52q0 25 -14.5 39t-39.5 14h-37l13 63h33q37 0 57.5 22t20.5 54q0 43 -40 43q-35 0 -73 -32l-30 56q27 22 57.5 33t62.5 11q54 0 79.5 -27t25.5 -69q0 -40 -22.5 -71t-65.5 -46l-1 -4q23 -10 38 -30.5
t15 -55.5q0 -66 -42 -104.5t-113 -38.5z" />
    <glyph glyph-name="acute" unicode="&#xb4;" horiz-adv-x="276" 
d="M112 606l1 10q32 39 59.5 77.5t48.5 72.5h120l-1 -8q-11 -14 -31.5 -35t-44 -44t-45 -42.5t-34.5 -30.5h-73z" />
    <glyph glyph-name="uni03BC" unicode="&#x3bc;" horiz-adv-x="437" 
d="M-56 -240l166 782h103l-70 -332q-5 -22 -7.5 -40.5t-2.5 -32.5q0 -52 37 -52q34 0 59 36t44 127l63 294h103l-114 -542h-82l2 60h-2q-20 -38 -43.5 -54t-50.5 -16q-35 0 -51 33h-2q-1 -18 -2.5 -37t-6.5 -40l-40 -186h-103z" />
    <glyph glyph-name="paragraph" unicode="&#xb6;" horiz-adv-x="483" 
d="M243 -127l-1 425q-12 -6 -33 -6q-38 0 -63 20.5t-39.5 55t-20.5 76.5t-6 84q0 64 15.5 116.5t49 84t87.5 31.5h203v-887h-65v827h-62v-827h-65z" />
    <glyph glyph-name="periodcentered" unicode="&#xb7;" horiz-adv-x="223" 
d="M114 281q-54 0 -54 51q0 36 21 64t60 28q23 0 36.5 -13.5t13.5 -37.5q0 -41 -23 -66.5t-54 -25.5z" />
    <glyph glyph-name="cedilla" unicode="&#xb8;" horiz-adv-x="173" 
d="M-23 -240q-19 0 -36 2t-34 6v63q10 -3 24 -5t32 -2q28 0 44 13.5t16 36.5q0 39 -64 45l51 81h57l-30 -45q31 -7 50.5 -27t19.5 -51q0 -60 -38 -88.5t-92 -28.5z" />
    <glyph glyph-name="uni00B9" unicode="&#xb9;" horiz-adv-x="294" 
d="M151 416l61 280q4 15 7 27t6 23q-15 -15 -24 -21l-57 -42l-34 51l144 110h69l-91 -428h-81z" />
    <glyph glyph-name="ordmasculine" unicode="&#xba;" horiz-adv-x="292" 
d="M170 374q-51 0 -76.5 33t-25.5 89q0 40 10 80t30 73t49.5 53t69.5 20q43 0 72 -29t29 -92q0 -40 -10 -80t-30 -73.5t-49.5 -53.5t-68.5 -20zM180 440q25 0 41 24t24 60t8 71q0 61 -36 61q-24 0 -40.5 -24t-24.5 -60t-8 -71q0 -32 8.5 -46.5t27.5 -14.5z" />
    <glyph glyph-name="guillemotright" unicode="&#xbb;" horiz-adv-x="458" 
d="M259 51l-72 45l134 173l-72 178l82 36l100 -211l-2 -12zM65 51l-73 45l135 173l-72 178l82 36l99 -211l-1 -12z" />
    <glyph glyph-name="onequarter" unicode="&#xbc;" horiz-adv-x="699" 
d="M67 0l507 714h85l-508 -714h-84zM129 286l61 280q4 15 7 27t6 23q-15 -15 -24 -21l-57 -42l-34 51l144 110h69l-91 -428h-81zM496 0l18 86h-145l11 58l201 287h86l-60 -280h46l-14 -65h-45l-19 -86h-79zM452 151h76l25 115q4 17 7 32t7 29q-8 -14 -15.5 -28t-17.5 -28z
" />
    <glyph glyph-name="onehalf" unicode="&#xbd;" horiz-adv-x="728" 
d="M60 0l507 714h85l-508 -714h-84zM129 286l61 280q4 15 7 27t6 23q-15 -15 -24 -21l-57 -42l-34 51l144 110h69l-91 -428h-81zM395 0l12 68l115 124q38 41 61 73t23 65q0 41 -37 41q-19 0 -37.5 -12.5t-35.5 -27.5l-27 55q24 26 56 39.5t67 13.5q47 0 73 -26t26 -69
q0 -36 -16 -67.5t-40.5 -60t-51.5 -55.5l-87 -89h146l-15 -72h-232z" />
    <glyph glyph-name="threequarters" unicode="&#xbe;" horiz-adv-x="704" 
d="M128 278q-31 0 -54.5 7t-40.5 19v78q36 -33 97 -33q34 0 54 20t20 52q0 25 -14.5 39t-39.5 14h-37l13 63h33q37 0 57.5 22t20.5 54q0 43 -40 43q-35 0 -73 -32l-30 56q27 22 57.5 33t62.5 11q54 0 79.5 -27t25.5 -69q0 -40 -22.5 -71t-65.5 -46l-1 -4q23 -10 38 -30.5
t15 -55.5q0 -66 -42 -104.5t-113 -38.5zM79 0l507 714h85l-508 -714h-84zM501 0l18 86h-145l11 58l201 287h86l-60 -280h46l-14 -65h-45l-19 -86h-79zM457 151h76l25 115q4 17 7 32t7 29q-8 -14 -15.5 -28t-17.5 -28z" />
    <glyph glyph-name="questiondown" unicode="&#xbf;" horiz-adv-x="316" 
d="M243 321q-10 -48 -20.5 -80.5t-26.5 -58t-41 -53.5q-27 -32 -49 -56t-35 -49t-13 -61q0 -55 52 -55q28 0 54 12.5t49 28.5l18 -82q-36 -28 -73 -41t-74 -13q-64 0 -97.5 33t-33.5 91q0 69 34.5 121t81.5 101q29 30 45.5 52t25 47t16.5 63h87zM240 546q54 0 54 -51
q0 -36 -20.5 -64t-60.5 -28q-23 0 -36.5 13.5t-13.5 37.5q0 41 22.5 66.5t54.5 25.5z" />
    <glyph glyph-name="Agrave" unicode="&#xc0;" horiz-adv-x="445" 
d="M-63 0l302 717h137l6 -717h-114l3 199h-136l-80 -199h-118zM171 295h105l5 230q0 24 1 46t3 43h-3q-4 -20 -10.5 -41.5t-14.5 -46.5zM301 792q-13 17 -31 45t-34 56.5t-24 49.5v9h118q8 -34 18.5 -71t26.5 -78l-1 -11h-73z" />
    <glyph glyph-name="Aacute" unicode="&#xc1;" horiz-adv-x="445" 
d="M-63 0l302 717h137l6 -717h-114l3 199h-136l-80 -199h-118zM171 295h105l5 230q0 24 1 46t3 43h-3q-4 -20 -10.5 -41.5t-14.5 -46.5zM253 792l1 10q32 39 59.5 77.5t48.5 72.5h120l-1 -8q-11 -14 -31.5 -35t-44 -44t-45 -42.5t-34.5 -30.5h-73z" />
    <glyph glyph-name="Acircumflex" unicode="&#xc2;" horiz-adv-x="445" 
d="M-63 0l302 717h137l6 -717h-114l3 199h-136l-80 -199h-118zM171 295h105l5 230q0 24 1 46t3 43h-3q-4 -20 -10.5 -41.5t-14.5 -46.5zM183 792l2 11q34 35 64.5 73.5t54.5 75.5h93q5 -18 14.5 -46t20.5 -56t20 -47l-3 -11h-61q-13 17 -26.5 38.5t-26.5 46.5
q-49 -54 -88 -85h-64z" />
    <glyph glyph-name="Atilde" unicode="&#xc3;" horiz-adv-x="445" 
d="M-63 0l302 717h137l6 -717h-114l3 199h-136l-80 -199h-118zM171 295h105l5 230q0 24 1 46t3 43h-3q-4 -20 -10.5 -41.5t-14.5 -46.5zM173 793q13 61 36.5 99.5t69.5 38.5q29 0 48 -13.5t33.5 -27.5t30.5 -14q15 0 24 12t16 44h62q-13 -77 -41.5 -107.5t-61.5 -30.5
q-28 0 -47 14t-34 27.5t-32 13.5q-29 0 -42 -56h-62z" />
    <glyph glyph-name="Adieresis" unicode="&#xc4;" horiz-adv-x="445" 
d="M-63 0l302 717h137l6 -717h-114l3 199h-136l-80 -199h-118zM171 295h105l5 230q0 24 1 46t3 43h-3q-4 -20 -10.5 -41.5t-14.5 -46.5zM404 811q-44 0 -44 44q0 29 17 52t48 23q42 0 42 -42q0 -34 -18.5 -55.5t-44.5 -21.5zM241 811q-43 0 -43 44q0 29 17 52t48 23
q40 0 40 -42q0 -34 -18 -55.5t-44 -21.5z" />
    <glyph glyph-name="Aring" unicode="&#xc5;" horiz-adv-x="445" 
d="M-63 0l302 717h137l6 -717h-114l3 199h-136l-80 -199h-118zM171 295h105l5 230q0 24 1 46t3 43h-3q-4 -20 -10.5 -41.5t-14.5 -46.5zM330 773q-52 0 -80.5 29t-28.5 78q0 48 29 77t80 29q47 0 77 -28.5t31 -75.5q0 -48 -29.5 -78.5t-78.5 -30.5zM330 828q23 0 37 14
t14 38q0 23 -13.5 37t-37.5 14q-25 0 -38.5 -14t-13.5 -37q0 -24 13 -38t39 -14z" />
    <glyph glyph-name="AE" unicode="&#xc6;" horiz-adv-x="598" 
d="M-66 0l344 714h366l-20 -95h-172l-42 -200h161l-21 -95h-160l-49 -228h172l-20 -96h-279l43 199h-114l-93 -199h-116zM187 296h91l68 323h-12z" />
    <glyph glyph-name="Ccedilla" unicode="&#xc7;" horiz-adv-x="413" 
d="M203 -10q-83 0 -125.5 59.5t-42.5 170.5q0 63 13 132.5t38.5 135.5t63.5 119.5t88 85t112 31.5q38 0 72 -9t62 -31l-54 -87q-37 31 -79 31t-74.5 -29.5t-56.5 -77t-40 -102t-23.5 -105.5t-7.5 -87q0 -74 20 -107.5t61 -33.5q26 0 52 8t54 21v-98q-32 -14 -66.5 -20.5
t-66.5 -6.5zM136 -240q-19 0 -36 2t-34 6v63q10 -3 24 -5t32 -2q28 0 44 13.5t16 36.5q0 39 -64 45l51 81h57l-30 -45q31 -7 50.5 -27t19.5 -51q0 -60 -38 -88.5t-92 -28.5z" />
    <glyph glyph-name="Egrave" unicode="&#xc8;" horiz-adv-x="383" 
d="M-1 0l151 714h280l-20 -95h-172l-42 -200h160l-21 -95h-160l-49 -228h173l-20 -96h-280zM276 779q-13 17 -31 45t-34 56.5t-24 49.5v9h118q8 -34 18.5 -71t26.5 -78l-1 -11h-73z" />
    <glyph glyph-name="Eacute" unicode="&#xc9;" horiz-adv-x="383" 
d="M-1 0l151 714h280l-20 -95h-172l-42 -200h160l-21 -95h-160l-49 -228h173l-20 -96h-280zM231 778l1 10q32 39 59.5 77.5t48.5 72.5h120l-1 -8q-11 -14 -31.5 -35t-44 -44t-45 -42.5t-34.5 -30.5h-73z" />
    <glyph glyph-name="Ecircumflex" unicode="&#xca;" horiz-adv-x="383" 
d="M-1 0l151 714h280l-20 -95h-172l-42 -200h160l-21 -95h-160l-49 -228h173l-20 -96h-280zM164 771l2 11q34 35 64.5 73.5t54.5 75.5h93q5 -18 14.5 -46t20.5 -56t20 -47l-3 -11h-61q-13 17 -26.5 38.5t-26.5 46.5q-49 -54 -88 -85h-64z" />
    <glyph glyph-name="Edieresis" unicode="&#xcb;" horiz-adv-x="383" 
d="M-1 0l151 714h280l-20 -95h-172l-42 -200h160l-21 -95h-160l-49 -228h173l-20 -96h-280zM378 790q-44 0 -44 44q0 29 17 52t48 23q42 0 42 -42q0 -34 -18.5 -55.5t-44.5 -21.5zM215 790q-43 0 -43 44q0 29 17 52t48 23q40 0 40 -42q0 -34 -18 -55.5t-44 -21.5z" />
    <glyph glyph-name="Igrave" unicode="&#xcc;" horiz-adv-x="296" 
d="M-46 0l12 58l83 24l116 550l-72 24l11 58h264l-12 -58l-83 -24l-116 -550l72 -24l-12 -58h-263zM230 791q-13 17 -31 45t-34 56.5t-24 49.5v9h118q8 -34 18.5 -71t26.5 -78l-1 -11h-73z" />
    <glyph glyph-name="Iacute" unicode="&#xcd;" horiz-adv-x="296" 
d="M-46 0l12 58l83 24l116 550l-72 24l11 58h264l-12 -58l-83 -24l-116 -550l72 -24l-12 -58h-263zM183 791l1 10q32 39 59.5 77.5t48.5 72.5h120l-1 -8q-11 -14 -31.5 -35t-44 -44t-45 -42.5t-34.5 -30.5h-73z" />
    <glyph glyph-name="Icircumflex" unicode="&#xce;" horiz-adv-x="296" 
d="M-46 0l12 58l83 24l116 550l-72 24l11 58h264l-12 -58l-83 -24l-116 -550l72 -24l-12 -58h-263zM116 791l2 11q34 35 64.5 73.5t54.5 75.5h93q5 -18 14.5 -46t20.5 -56t20 -47l-3 -11h-61q-13 17 -26.5 38.5t-26.5 46.5q-49 -54 -88 -85h-64z" />
    <glyph glyph-name="Idieresis" unicode="&#xcf;" horiz-adv-x="296" 
d="M-46 0l12 58l83 24l116 550l-72 24l11 58h264l-12 -58l-83 -24l-116 -550l72 -24l-12 -58h-263zM336 810q-44 0 -44 44q0 29 17 52t48 23q42 0 42 -42q0 -34 -18.5 -55.5t-44.5 -21.5zM173 810q-43 0 -43 44q0 29 17 52t48 23q40 0 40 -42q0 -34 -18 -55.5t-44 -21.5z
" />
    <glyph glyph-name="Eth" unicode="&#xd0;" horiz-adv-x="491" 
d="M-1 0l69 329h-50l18 84h50l64 301h132q97 0 148 -55.5t51 -160.5q0 -67 -12.5 -137t-38.5 -134.5t-66.5 -115.5t-96.5 -81t-129 -30h-139zM127 97h27q48 0 83.5 27.5t60 72t39.5 97t22 104t7 91.5q0 67 -24 97.5t-71 30.5h-34l-43 -204h77l-18 -84h-78z" />
    <glyph glyph-name="Ntilde" unicode="&#xd1;" horiz-adv-x="543" 
d="M-1 0l151 714h123l88 -517h3q8 49 16.5 95t13.5 74l75 348h103l-152 -714h-122l-89 527h-3q-4 -35 -10.5 -71.5t-13 -68t-9.5 -49.5l-72 -338h-102zM217 772q13 61 36.5 99.5t69.5 38.5q29 0 48 -13.5t33.5 -27.5t30.5 -14q15 0 24 12t16 44h62q-13 -77 -41.5 -107.5
t-61.5 -30.5q-28 0 -47 14t-34 27.5t-32 13.5q-29 0 -42 -56h-62z" />
    <glyph glyph-name="Ograve" unicode="&#xd2;" horiz-adv-x="521" 
d="M208 -10q-88 0 -130.5 53.5t-42.5 167.5q0 65 12.5 136.5t37 138.5t61 121t85.5 86t110 32q88 0 129 -54t41 -161q0 -57 -10.5 -126t-33.5 -138.5t-58.5 -127.5t-85.5 -93t-115 -35zM216 87q37 0 66 29.5t51.5 78t37 105.5t22 112.5t7.5 99.5q0 116 -68 116
q-39 0 -69 -31t-51.5 -80.5t-35.5 -106t-21 -110t-7 -90.5q0 -68 17 -95.5t51 -27.5zM339 779q-13 17 -31 45t-34 56.5t-24 49.5v9h118q8 -34 18.5 -71t26.5 -78l-1 -11h-73z" />
    <glyph glyph-name="Oacute" unicode="&#xd3;" horiz-adv-x="521" 
d="M208 -10q-88 0 -130.5 53.5t-42.5 167.5q0 65 12.5 136.5t37 138.5t61 121t85.5 86t110 32q88 0 129 -54t41 -161q0 -57 -10.5 -126t-33.5 -138.5t-58.5 -127.5t-85.5 -93t-115 -35zM216 87q37 0 66 29.5t51.5 78t37 105.5t22 112.5t7.5 99.5q0 116 -68 116
q-39 0 -69 -31t-51.5 -80.5t-35.5 -106t-21 -110t-7 -90.5q0 -68 17 -95.5t51 -27.5zM295 778l1 10q32 39 59.5 77.5t48.5 72.5h120l-1 -8q-11 -14 -31.5 -35t-44 -44t-45 -42.5t-34.5 -30.5h-73z" />
    <glyph glyph-name="Ocircumflex" unicode="&#xd4;" horiz-adv-x="521" 
d="M208 -10q-88 0 -130.5 53.5t-42.5 167.5q0 65 12.5 136.5t37 138.5t61 121t85.5 86t110 32q88 0 129 -54t41 -161q0 -57 -10.5 -126t-33.5 -138.5t-58.5 -127.5t-85.5 -93t-115 -35zM216 87q37 0 66 29.5t51.5 78t37 105.5t22 112.5t7.5 99.5q0 116 -68 116
q-39 0 -69 -31t-51.5 -80.5t-35.5 -106t-21 -110t-7 -90.5q0 -68 17 -95.5t51 -27.5zM211 771l2 11q34 35 64.5 73.5t54.5 75.5h93q5 -18 14.5 -46t20.5 -56t20 -47l-3 -11h-61q-13 17 -26.5 38.5t-26.5 46.5q-49 -54 -88 -85h-64z" />
    <glyph glyph-name="Otilde" unicode="&#xd5;" horiz-adv-x="521" 
d="M208 -10q-88 0 -130.5 53.5t-42.5 167.5q0 65 12.5 136.5t37 138.5t61 121t85.5 86t110 32q88 0 129 -54t41 -161q0 -57 -10.5 -126t-33.5 -138.5t-58.5 -127.5t-85.5 -93t-115 -35zM216 87q37 0 66 29.5t51.5 78t37 105.5t22 112.5t7.5 99.5q0 116 -68 116
q-39 0 -69 -31t-51.5 -80.5t-35.5 -106t-21 -110t-7 -90.5q0 -68 17 -95.5t51 -27.5zM206 772q13 61 36.5 99.5t69.5 38.5q29 0 48 -13.5t33.5 -27.5t30.5 -14q15 0 24 12t16 44h62q-13 -77 -41.5 -107.5t-61.5 -30.5q-28 0 -47 14t-34 27.5t-32 13.5q-29 0 -42 -56h-62z
" />
    <glyph glyph-name="Odieresis" unicode="&#xd6;" horiz-adv-x="521" 
d="M208 -10q-88 0 -130.5 53.5t-42.5 167.5q0 65 12.5 136.5t37 138.5t61 121t85.5 86t110 32q88 0 129 -54t41 -161q0 -57 -10.5 -126t-33.5 -138.5t-58.5 -127.5t-85.5 -93t-115 -35zM216 87q37 0 66 29.5t51.5 78t37 105.5t22 112.5t7.5 99.5q0 116 -68 116
q-39 0 -69 -31t-51.5 -80.5t-35.5 -106t-21 -110t-7 -90.5q0 -68 17 -95.5t51 -27.5zM435 790q-44 0 -44 44q0 29 17 52t48 23q42 0 42 -42q0 -34 -18.5 -55.5t-44.5 -21.5zM272 790q-43 0 -43 44q0 29 17 52t48 23q40 0 40 -42q0 -34 -18 -55.5t-44 -21.5z" />
    <glyph glyph-name="multiply" unicode="&#xd7;" horiz-adv-x="457" 
d="M369 548l64 -63l-132 -132l130 -131l-63 -63l-131 130l-132 -130l-61 64l129 130l-129 130l62 64l131 -130z" />
    <glyph glyph-name="Oslash" unicode="&#xd8;" horiz-adv-x="522" 
d="M50 -51l-53 30l62 98q-24 49 -24 134q0 65 12.5 136.5t37 138.5t61 121t85 86t109.5 32q70 0 110 -40l46 73l53 -32l-60 -93q22 -47 22 -123q0 -57 -11 -126t-33.5 -138.5t-58.5 -127.5t-86 -93t-115 -35q-67 0 -107 37zM150 211l239 375q-16 42 -58 42q-35 0 -63 -26
t-48.5 -68.5t-34.5 -92.5t-22.5 -98.5t-11.5 -86.5q-1 -13 -1 -24v-21zM216 87q33 0 60 24.5t48 66t36 91t23.5 100.5t11.5 95q1 9 1 17.5t1 15.5l-237 -372q16 -38 56 -38z" />
    <glyph glyph-name="Ugrave" unicode="&#xd9;" horiz-adv-x="495" 
d="M190 -10q-74 0 -115 41.5t-41 115.5q0 18 2.5 40.5t7.5 44.5l102 482h108l-103 -485q-8 -38 -8 -65q0 -77 62 -77q43 0 69 35t42 114l103 478h108l-106 -492q-23 -109 -75.5 -170.5t-155.5 -61.5zM326 779q-13 17 -31 45t-34 56.5t-24 49.5v9h118q8 -34 18.5 -71
t26.5 -78l-1 -11h-73z" />
    <glyph glyph-name="Uacute" unicode="&#xda;" horiz-adv-x="495" 
d="M190 -10q-74 0 -115 41.5t-41 115.5q0 18 2.5 40.5t7.5 44.5l102 482h108l-103 -485q-8 -38 -8 -65q0 -77 62 -77q43 0 69 35t42 114l103 478h108l-106 -492q-23 -109 -75.5 -170.5t-155.5 -61.5zM285 778l1 10q32 39 59.5 77.5t48.5 72.5h120l-1 -8q-11 -14 -31.5 -35
t-44 -44t-45 -42.5t-34.5 -30.5h-73z" />
    <glyph glyph-name="Ucircumflex" unicode="&#xdb;" horiz-adv-x="495" 
d="M190 -10q-74 0 -115 41.5t-41 115.5q0 18 2.5 40.5t7.5 44.5l102 482h108l-103 -485q-8 -38 -8 -65q0 -77 62 -77q43 0 69 35t42 114l103 478h108l-106 -492q-23 -109 -75.5 -170.5t-155.5 -61.5zM209 771l2 11q34 35 64.5 73.5t54.5 75.5h93q5 -18 14.5 -46t20.5 -56
t20 -47l-3 -11h-61q-13 17 -26.5 38.5t-26.5 46.5q-49 -54 -88 -85h-64z" />
    <glyph glyph-name="Udieresis" unicode="&#xdc;" horiz-adv-x="495" 
d="M190 -10q-74 0 -115 41.5t-41 115.5q0 18 2.5 40.5t7.5 44.5l102 482h108l-103 -485q-8 -38 -8 -65q0 -77 62 -77q43 0 69 35t42 114l103 478h108l-106 -492q-23 -109 -75.5 -170.5t-155.5 -61.5zM427 790q-44 0 -44 44q0 29 17 52t48 23q42 0 42 -42q0 -34 -18.5 -55.5
t-44.5 -21.5zM264 790q-43 0 -43 44q0 29 17 52t48 23q40 0 40 -42q0 -34 -18 -55.5t-44 -21.5z" />
    <glyph glyph-name="Yacute" unicode="&#xdd;" horiz-adv-x="399" 
d="M83 0l57 273l-53 441h113l23 -298l149 298h115l-237 -438l-59 -276h-108zM238 778l1 10q32 39 59.5 77.5t48.5 72.5h120l-1 -8q-11 -14 -31.5 -35t-44 -44t-45 -42.5t-34.5 -30.5h-73z" />
    <glyph glyph-name="Thorn" unicode="&#xde;" horiz-adv-x="427" 
d="M-1 0l151 714h108l-25 -117h20q88 0 131 -43.5t43 -117.5q0 -75 -28 -140.5t-82.5 -106t-135.5 -40.5h-43l-31 -149h-108zM157 243h24q65 0 99 49.5t34 129.5q0 41 -19 60t-59 19h-24z" />
    <glyph glyph-name="germandbls" unicode="&#xdf;" horiz-adv-x="456" 
d="M-73 -240q-16 0 -30.5 2t-28.5 6v93q22 -9 45 -9q29 0 43 24t25 76l131 613q20 95 68.5 147.5t130.5 52.5q71 0 109.5 -35t38.5 -91q0 -47 -17.5 -81t-52.5 -70q-28 -28 -46 -51t-18 -55q0 -19 9.5 -39t24.5 -44q19 -26 33 -55.5t14 -73.5q0 -80 -48.5 -130t-129.5 -50
q-28 0 -54.5 6t-46.5 20l17 99q22 -19 44 -26.5t42 -7.5q32 0 50 21.5t18 56.5q0 23 -10 44.5t-32 54.5q-20 32 -29.5 56t-9.5 53q0 37 17.5 70t49.5 65q32 31 49.5 57.5t17.5 65.5q0 23 -12.5 36.5t-34.5 13.5q-34 0 -55 -30t-35 -89l-131 -612q-12 -54 -28.5 -95.5
t-46.5 -65t-81 -23.5z" />
    <glyph glyph-name="agrave" unicode="&#xe0;" horiz-adv-x="443" 
d="M129 -10q-52 0 -80 41t-28 114q0 44 8 98t25 108.5t43 100t61 73t80 27.5q33 0 57 -19t35 -59h3l23 68h90l-115 -542h-84l3 73h-3q-26 -37 -53.5 -60t-64.5 -23zM170 79q29 0 50 26t36 65t25 78q11 47 16 80t5 61q0 71 -47 71q-23 0 -43 -21t-35.5 -55.5t-26.5 -75
t-16.5 -80.5t-5.5 -71q0 -78 42 -78zM269 611q-13 17 -31 45t-34 56.5t-24 49.5v9h118q8 -34 18.5 -71t26.5 -78l-1 -11h-73z" />
    <glyph glyph-name="aacute" unicode="&#xe1;" horiz-adv-x="443" 
d="M129 -10q-52 0 -80 41t-28 114q0 44 8 98t25 108.5t43 100t61 73t80 27.5q33 0 57 -19t35 -59h3l23 68h90l-115 -542h-84l3 73h-3q-26 -37 -53.5 -60t-64.5 -23zM170 79q29 0 50 26t36 65t25 78q11 47 16 80t5 61q0 71 -47 71q-23 0 -43 -21t-35.5 -55.5t-26.5 -75
t-16.5 -80.5t-5.5 -71q0 -78 42 -78zM221 611l1 10q32 39 59.5 77.5t48.5 72.5h120l-1 -8q-11 -14 -31.5 -35t-44 -44t-45 -42.5t-34.5 -30.5h-73z" />
    <glyph glyph-name="acircumflex" unicode="&#xe2;" horiz-adv-x="443" 
d="M129 -10q-52 0 -80 41t-28 114q0 44 8 98t25 108.5t43 100t61 73t80 27.5q33 0 57 -19t35 -59h3l23 68h90l-115 -542h-84l3 73h-3q-26 -37 -53.5 -60t-64.5 -23zM170 79q29 0 50 26t36 65t25 78q11 47 16 80t5 61q0 71 -47 71q-23 0 -43 -21t-35.5 -55.5t-26.5 -75
t-16.5 -80.5t-5.5 -71q0 -78 42 -78zM156 609l2 11q34 35 64.5 73.5t54.5 75.5h93q5 -18 14.5 -46t20.5 -56t20 -47l-3 -11h-61q-13 17 -26.5 38.5t-26.5 46.5q-49 -54 -88 -85h-64z" />
    <glyph glyph-name="atilde" unicode="&#xe3;" horiz-adv-x="443" 
d="M129 -10q-52 0 -80 41t-28 114q0 44 8 98t25 108.5t43 100t61 73t80 27.5q33 0 57 -19t35 -59h3l23 68h90l-115 -542h-84l3 73h-3q-26 -37 -53.5 -60t-64.5 -23zM170 79q29 0 50 26t36 65t25 78q11 47 16 80t5 61q0 71 -47 71q-23 0 -43 -21t-35.5 -55.5t-26.5 -75
t-16.5 -80.5t-5.5 -71q0 -78 42 -78zM147 610q13 61 36.5 99.5t69.5 38.5q29 0 48 -13.5t33.5 -27.5t30.5 -14q15 0 24 12t16 44h62q-13 -77 -41.5 -107.5t-61.5 -30.5q-28 0 -47 14t-34 27.5t-32 13.5q-29 0 -42 -56h-62z" />
    <glyph glyph-name="adieresis" unicode="&#xe4;" horiz-adv-x="443" 
d="M129 -10q-52 0 -80 41t-28 114q0 44 8 98t25 108.5t43 100t61 73t80 27.5q33 0 57 -19t35 -59h3l23 68h90l-115 -542h-84l3 73h-3q-26 -37 -53.5 -60t-64.5 -23zM170 79q29 0 50 26t36 65t25 78q11 47 16 80t5 61q0 71 -47 71q-23 0 -43 -21t-35.5 -55.5t-26.5 -75
t-16.5 -80.5t-5.5 -71q0 -78 42 -78zM377 628q-44 0 -44 44q0 29 17 52t48 23q42 0 42 -42q0 -34 -18.5 -55.5t-44.5 -21.5zM214 628q-43 0 -43 44q0 29 17 52t48 23q40 0 40 -42q0 -34 -18 -55.5t-44 -21.5z" />
    <glyph glyph-name="aring" unicode="&#xe5;" horiz-adv-x="443" 
d="M129 -10q-52 0 -80 41t-28 114q0 44 8 98t25 108.5t43 100t61 73t80 27.5q33 0 57 -19t35 -59h3l23 68h90l-115 -542h-84l3 73h-3q-26 -37 -53.5 -60t-64.5 -23zM170 79q29 0 50 26t36 65t25 78q11 47 16 80t5 61q0 71 -47 71q-23 0 -43 -21t-35.5 -55.5t-26.5 -75
t-16.5 -80.5t-5.5 -71q0 -78 42 -78zM307 608q-52 0 -80.5 29t-28.5 78q0 48 29 77t80 29q47 0 77 -28.5t31 -75.5q0 -48 -29.5 -78.5t-78.5 -30.5zM307 663q23 0 37 14t14 38q0 23 -13.5 37t-37.5 14q-25 0 -38.5 -14t-13.5 -37q0 -24 13 -38t39 -14z" />
    <glyph glyph-name="ae" unicode="&#xe6;" horiz-adv-x="646" 
d="M123 -10q-47 0 -74.5 41t-27.5 114q0 69 15 140.5t43.5 132t68.5 97.5t90 37q29 0 53 -16.5t36 -51.5h2l15 58h75l-10 -51q20 24 46.5 42t64.5 18q54 0 85 -32.5t31 -88.5q0 -94 -69 -144t-186 -50h-8q-6 -32 -6 -64q0 -46 17.5 -71t58.5 -25q55 0 123 39l-16 -90
q-32 -19 -61.5 -27t-66.5 -8q-40 0 -64.5 17t-33.5 45l-11 -52h-74l10 69h-2q-25 -37 -55.5 -58t-68.5 -21zM388 313h3q81 0 115 30.5t34 78.5q0 45 -44 45q-25 0 -45.5 -21.5t-36 -56.5t-26.5 -76zM170 79q28 0 48.5 25t35 63.5t23.5 78.5q20 90 20 145q0 69 -42 69
q-26 0 -49 -29t-40.5 -75t-27.5 -99.5t-10 -101.5q0 -76 42 -76z" />
    <glyph glyph-name="ccedilla" unicode="&#xe7;" horiz-adv-x="343" 
d="M161 -10q-67 0 -102.5 43.5t-35.5 124.5q0 48 8.5 102t27 106t47.5 94t69 67t93 25q60 0 106 -30l-42 -84q-31 23 -64 23q-36 0 -62 -30t-43 -76t-25 -95.5t-8 -88.5q0 -91 57 -91q39 0 91 35v-90q-22 -14 -53 -24.5t-64 -10.5zM87 -240q-19 0 -36 2t-34 6v63
q10 -3 24 -5t32 -2q28 0 44 13.5t16 36.5q0 39 -64 45l51 81h57l-30 -45q31 -7 50.5 -27t19.5 -51q0 -60 -38 -88.5t-92 -28.5z" />
    <glyph glyph-name="egrave" unicode="&#xe8;" horiz-adv-x="407" 
d="M175 -10q-71 0 -112 45t-41 126q0 76 17 146t49 125t78 87t104 32q56 0 90 -31.5t34 -89.5q0 -93 -68.5 -143.5t-186.5 -50.5h-8q-6 -32 -6 -64q0 -51 18.5 -73.5t56.5 -22.5q30 0 55 7.5t59 26.5v-83q-32 -20 -66.5 -28.5t-72.5 -8.5zM146 313h3q82 0 115.5 30.5
t33.5 78.5q0 45 -43 45q-33 0 -62.5 -41.5t-46.5 -112.5zM256 606q-13 17 -31 45t-34 56.5t-24 49.5v9h118q8 -34 18.5 -71t26.5 -78l-1 -11h-73z" />
    <glyph glyph-name="eacute" unicode="&#xe9;" horiz-adv-x="407" 
d="M175 -10q-71 0 -112 45t-41 126q0 76 17 146t49 125t78 87t104 32q56 0 90 -31.5t34 -89.5q0 -93 -68.5 -143.5t-186.5 -50.5h-8q-6 -32 -6 -64q0 -51 18.5 -73.5t56.5 -22.5q30 0 55 7.5t59 26.5v-83q-32 -20 -66.5 -28.5t-72.5 -8.5zM146 313h3q82 0 115.5 30.5
t33.5 78.5q0 45 -43 45q-33 0 -62.5 -41.5t-46.5 -112.5zM203 606l1 10q32 39 59.5 77.5t48.5 72.5h120l-1 -8q-11 -14 -31.5 -35t-44 -44t-45 -42.5t-34.5 -30.5h-73z" />
    <glyph glyph-name="ecircumflex" unicode="&#xea;" horiz-adv-x="407" 
d="M175 -10q-71 0 -112 45t-41 126q0 76 17 146t49 125t78 87t104 32q56 0 90 -31.5t34 -89.5q0 -93 -68.5 -143.5t-186.5 -50.5h-8q-6 -32 -6 -64q0 -51 18.5 -73.5t56.5 -22.5q30 0 55 7.5t59 26.5v-83q-32 -20 -66.5 -28.5t-72.5 -8.5zM146 313h3q82 0 115.5 30.5
t33.5 78.5q0 45 -43 45q-33 0 -62.5 -41.5t-46.5 -112.5zM144 606l2 11q34 35 64.5 73.5t54.5 75.5h93q5 -18 14.5 -46t20.5 -56t20 -47l-3 -11h-61q-13 17 -26.5 38.5t-26.5 46.5q-49 -54 -88 -85h-64z" />
    <glyph glyph-name="edieresis" unicode="&#xeb;" horiz-adv-x="407" 
d="M175 -10q-71 0 -112 45t-41 126q0 76 17 146t49 125t78 87t104 32q56 0 90 -31.5t34 -89.5q0 -93 -68.5 -143.5t-186.5 -50.5h-8q-6 -32 -6 -64q0 -51 18.5 -73.5t56.5 -22.5q30 0 55 7.5t59 26.5v-83q-32 -20 -66.5 -28.5t-72.5 -8.5zM146 313h3q82 0 115.5 30.5
t33.5 78.5q0 45 -43 45q-33 0 -62.5 -41.5t-46.5 -112.5zM365 625q-44 0 -44 44q0 29 17 52t48 23q42 0 42 -42q0 -34 -18.5 -55.5t-44.5 -21.5zM202 625q-43 0 -43 44q0 29 17 52t48 23q40 0 40 -42q0 -34 -18 -55.5t-44 -21.5z" />
    <glyph glyph-name="igrave" unicode="&#xec;" horiz-adv-x="211" 
d="M-4 0l115 542h103l-115 -542h-103zM154 609q-13 17 -31 45t-34 56.5t-24 49.5v9h118q8 -34 18.5 -71t26.5 -78l-1 -11h-73z" />
    <glyph glyph-name="iacute" unicode="&#xed;" horiz-adv-x="211" 
d="M-4 0l115 542h103l-115 -542h-103zM107 608l1 10q32 39 59.5 77.5t48.5 72.5h120l-1 -8q-11 -14 -31.5 -35t-44 -44t-45 -42.5t-34.5 -30.5h-73z" />
    <glyph glyph-name="icircumflex" unicode="&#xee;" horiz-adv-x="211" 
d="M-4 0l115 542h103l-115 -542h-103zM36 606l2 11q34 35 64.5 73.5t54.5 75.5h93q5 -18 14.5 -46t20.5 -56t20 -47l-3 -11h-61q-13 17 -26.5 38.5t-26.5 46.5q-49 -54 -88 -85h-64z" />
    <glyph glyph-name="idieresis" unicode="&#xef;" horiz-adv-x="211" 
d="M-4 0l115 542h103l-115 -542h-103zM256 625q-44 0 -44 44q0 29 17 52t48 23q42 0 42 -42q0 -34 -18.5 -55.5t-44.5 -21.5zM93 625q-43 0 -43 44q0 29 17 52t48 23q40 0 40 -42q0 -34 -18 -55.5t-44 -21.5z" />
    <glyph glyph-name="eth" unicode="&#xf0;" horiz-adv-x="428" 
d="M158 -10q-70 0 -108.5 43.5t-38.5 123.5q0 48 13.5 104t40.5 106t68 82t97 32q31 0 47.5 -18t25.5 -43h1q0 56 -9 100t-34 81l-85 -55l-34 50l89 58q-11 12 -26 26.5t-34 28.5l53 58q21 -13 40.5 -28.5t39.5 -34.5l87 59l36 -49l-87 -58q32 -50 47.5 -108t15.5 -122
q0 -51 -7.5 -110t-24 -116.5t-44.5 -105t-70 -76t-99 -28.5zM168 79q27 0 48.5 22.5t36.5 58t23 75t8 73.5q0 83 -51 83q-27 0 -48.5 -22t-36.5 -57t-23 -75t-8 -75q0 -83 51 -83z" />
    <glyph glyph-name="ntilde" unicode="&#xf1;" horiz-adv-x="437" 
d="M-5 0l116 542h83l-7 -70h3q22 38 52.5 59t65.5 21q42 0 73 -25.5t31 -85.5q0 -19 -3.5 -43.5t-8.5 -51.5l-74 -346h-104l69 325q5 23 9 47t4 42q0 43 -38 43q-39 0 -64 -45.5t-42 -124.5l-60 -287h-105zM143 610q13 61 36.5 99.5t69.5 38.5q29 0 48 -13.5t33.5 -27.5
t30.5 -14q15 0 24 12t16 44h62q-13 -77 -41.5 -107.5t-61.5 -30.5q-28 0 -47 14t-34 27.5t-32 13.5q-29 0 -42 -56h-62z" />
    <glyph glyph-name="ograve" unicode="&#xf2;" horiz-adv-x="430" 
d="M165 -10q-67 0 -104.5 44.5t-37.5 126.5q0 42 8 93.5t25.5 104t46 96t69 70.5t94.5 27q67 0 104.5 -45.5t37.5 -127.5q0 -49 -9 -102.5t-28 -104.5t-47.5 -92t-68 -65.5t-90.5 -24.5zM177 79q24 0 43.5 20.5t34.5 54t25.5 73.5t16 80t5.5 73q0 40 -12 61.5t-38 21.5
q-25 0 -45 -21.5t-35 -56.5t-25 -76t-15 -80.5t-5 -68.5q0 -81 50 -81zM256 606q-13 17 -31 45t-34 56.5t-24 49.5v9h118q8 -34 18.5 -71t26.5 -78l-1 -11h-73z" />
    <glyph glyph-name="oacute" unicode="&#xf3;" horiz-adv-x="430" 
d="M165 -10q-67 0 -104.5 44.5t-37.5 126.5q0 42 8 93.5t25.5 104t46 96t69 70.5t94.5 27q67 0 104.5 -45.5t37.5 -127.5q0 -49 -9 -102.5t-28 -104.5t-47.5 -92t-68 -65.5t-90.5 -24.5zM177 79q24 0 43.5 20.5t34.5 54t25.5 73.5t16 80t5.5 73q0 40 -12 61.5t-38 21.5
q-25 0 -45 -21.5t-35 -56.5t-25 -76t-15 -80.5t-5 -68.5q0 -81 50 -81zM217 606l1 10q32 39 59.5 77.5t48.5 72.5h120l-1 -8q-11 -14 -31.5 -35t-44 -44t-45 -42.5t-34.5 -30.5h-73z" />
    <glyph glyph-name="ocircumflex" unicode="&#xf4;" horiz-adv-x="430" 
d="M165 -10q-67 0 -104.5 44.5t-37.5 126.5q0 42 8 93.5t25.5 104t46 96t69 70.5t94.5 27q67 0 104.5 -45.5t37.5 -127.5q0 -49 -9 -102.5t-28 -104.5t-47.5 -92t-68 -65.5t-90.5 -24.5zM177 79q24 0 43.5 20.5t34.5 54t25.5 73.5t16 80t5.5 73q0 40 -12 61.5t-38 21.5
q-25 0 -45 -21.5t-35 -56.5t-25 -76t-15 -80.5t-5 -68.5q0 -81 50 -81zM141 606l2 11q34 35 64.5 73.5t54.5 75.5h93q5 -18 14.5 -46t20.5 -56t20 -47l-3 -11h-61q-13 17 -26.5 38.5t-26.5 46.5q-49 -54 -88 -85h-64z" />
    <glyph glyph-name="otilde" unicode="&#xf5;" horiz-adv-x="430" 
d="M165 -10q-67 0 -104.5 44.5t-37.5 126.5q0 42 8 93.5t25.5 104t46 96t69 70.5t94.5 27q67 0 104.5 -45.5t37.5 -127.5q0 -49 -9 -102.5t-28 -104.5t-47.5 -92t-68 -65.5t-90.5 -24.5zM177 79q24 0 43.5 20.5t34.5 54t25.5 73.5t16 80t5.5 73q0 40 -12 61.5t-38 21.5
q-25 0 -45 -21.5t-35 -56.5t-25 -76t-15 -80.5t-5 -68.5q0 -81 50 -81zM129 607q13 61 36.5 99.5t69.5 38.5q29 0 48 -13.5t33.5 -27.5t30.5 -14q15 0 24 12t16 44h62q-13 -77 -41.5 -107.5t-61.5 -30.5q-28 0 -47 14t-34 27.5t-32 13.5q-29 0 -42 -56h-62z" />
    <glyph glyph-name="odieresis" unicode="&#xf6;" horiz-adv-x="430" 
d="M165 -10q-67 0 -104.5 44.5t-37.5 126.5q0 42 8 93.5t25.5 104t46 96t69 70.5t94.5 27q67 0 104.5 -45.5t37.5 -127.5q0 -49 -9 -102.5t-28 -104.5t-47.5 -92t-68 -65.5t-90.5 -24.5zM177 79q24 0 43.5 20.5t34.5 54t25.5 73.5t16 80t5.5 73q0 40 -12 61.5t-38 21.5
q-25 0 -45 -21.5t-35 -56.5t-25 -76t-15 -80.5t-5 -68.5q0 -81 50 -81zM358 625q-44 0 -44 44q0 29 17 52t48 23q42 0 42 -42q0 -34 -18.5 -55.5t-44.5 -21.5zM195 625q-43 0 -43 44q0 29 17 52t48 23q40 0 40 -42q0 -34 -18 -55.5t-44 -21.5z" />
    <glyph glyph-name="divide" unicode="&#xf7;" horiz-adv-x="457" 
d="M239 467q-29 0 -45.5 18.5t-16.5 52.5q0 71 62 71q60 0 60 -71q0 -35 -16 -53t-44 -18zM42 307v92h392v-92h-392zM239 96q-29 0 -45.5 18t-16.5 53q0 71 62 71q60 0 60 -71q0 -35 -16 -53t-44 -18z" />
    <glyph glyph-name="oslash" unicode="&#xf8;" horiz-adv-x="430" 
d="M39 -61l-49 31l56 87q-23 41 -23 104q0 40 8 91.5t25.5 104t45.5 97t69 71.5t96 27q48 0 79 -28l42 66l51 -31l-52 -81q10 -20 15.5 -45t5.5 -54q0 -43 -8.5 -95t-26 -103.5t-46 -95t-68.5 -69.5t-93 -26q-46 0 -78 23zM125 169l171 270q-14 27 -43 27q-27 0 -49 -26
t-38.5 -67t-26.5 -87.5t-13 -87.5q0 -8 -0.5 -15t-0.5 -14zM177 76q27 0 49 24.5t38.5 64t26.5 85t13 86.5q1 8 1 14.5v13.5l-168 -266q13 -22 40 -22z" />
    <glyph glyph-name="ugrave" unicode="&#xf9;" horiz-adv-x="437" 
d="M127 -10q-51 0 -77.5 29.5t-26.5 82.5q0 18 3.5 41t7.5 45l76 354h103l-70 -332q-11 -47 -11 -81q0 -45 36 -45q39 0 64.5 46t41.5 125l62 287h103l-114 -542h-83l4 67h-3q-23 -36 -52.5 -56.5t-63.5 -20.5zM258 606q-13 17 -31 45t-34 56.5t-24 49.5v9h118
q8 -34 18.5 -71t26.5 -78l-1 -11h-73z" />
    <glyph glyph-name="uacute" unicode="&#xfa;" horiz-adv-x="437" 
d="M127 -10q-51 0 -77.5 29.5t-26.5 82.5q0 18 3.5 41t7.5 45l76 354h103l-70 -332q-11 -47 -11 -81q0 -45 36 -45q39 0 64.5 46t41.5 125l62 287h103l-114 -542h-83l4 67h-3q-23 -36 -52.5 -56.5t-63.5 -20.5zM226 606l1 10q32 39 59.5 77.5t48.5 72.5h120l-1 -8
q-11 -14 -31.5 -35t-44 -44t-45 -42.5t-34.5 -30.5h-73z" />
    <glyph glyph-name="ucircumflex" unicode="&#xfb;" horiz-adv-x="437" 
d="M127 -10q-51 0 -77.5 29.5t-26.5 82.5q0 18 3.5 41t7.5 45l76 354h103l-70 -332q-11 -47 -11 -81q0 -45 36 -45q39 0 64.5 46t41.5 125l62 287h103l-114 -542h-83l4 67h-3q-23 -36 -52.5 -56.5t-63.5 -20.5zM148 606l2 11q34 35 64.5 73.5t54.5 75.5h93q5 -18 14.5 -46
t20.5 -56t20 -47l-3 -11h-61q-13 17 -26.5 38.5t-26.5 46.5q-49 -54 -88 -85h-64z" />
    <glyph glyph-name="udieresis" unicode="&#xfc;" horiz-adv-x="437" 
d="M127 -10q-51 0 -77.5 29.5t-26.5 82.5q0 18 3.5 41t7.5 45l76 354h103l-70 -332q-11 -47 -11 -81q0 -45 36 -45q39 0 64.5 46t41.5 125l62 287h103l-114 -542h-83l4 67h-3q-23 -36 -52.5 -56.5t-63.5 -20.5zM362 625q-44 0 -44 44q0 29 17 52t48 23q42 0 42 -42
q0 -34 -18.5 -55.5t-44.5 -21.5zM199 625q-43 0 -43 44q0 29 17 52t48 23q40 0 40 -42q0 -34 -18 -55.5t-44 -21.5z" />
    <glyph glyph-name="yacute" unicode="&#xfd;" horiz-adv-x="379" 
d="M-22 -240q-37 0 -61 9l16 93q11 -4 21 -6t21 -2q26 0 42 19t31 53l36 79l-20 537h104l1 -272q0 -56 -3 -112h3q9 28 19 56.5t17 47.5l118 280h109l-284 -632q-20 -45 -42.5 -78.5t-53 -52.5t-74.5 -19zM198 606l1 10q32 39 59.5 77.5t48.5 72.5h120l-1 -8
q-11 -14 -31.5 -35t-44 -44t-45 -42.5t-34.5 -30.5h-73z" />
    <glyph glyph-name="thorn" unicode="&#xfe;" horiz-adv-x="439" 
d="M-53 -235l211 996h102l-50 -237l-5.5 -22t-5.5 -20h4q20 32 48.5 51t62.5 19q50 0 78.5 -38.5t28.5 -117.5q0 -46 -8.5 -100.5t-26 -108.5t-43.5 -98.5t-60.5 -71.5t-78.5 -27q-34 0 -58 20t-34 54h-3q-2 -21 -5.5 -41.5t-6.5 -34.5l-47 -223h-103zM188 81q25 0 45 22
t35 57.5t25.5 77t15.5 80.5t5 68q0 77 -41 77q-27 0 -48.5 -25t-38 -63.5t-26.5 -80.5q-10 -40 -15 -77.5t-5 -63.5q0 -72 48 -72z" />
    <glyph glyph-name="ydieresis" unicode="&#xff;" horiz-adv-x="379" 
d="M-22 -240q-37 0 -61 9l16 93q11 -4 21 -6t21 -2q26 0 42 19t31 53l36 79l-20 537h104l1 -272q0 -56 -3 -112h3q9 28 19 56.5t17 47.5l118 280h109l-284 -632q-20 -45 -42.5 -78.5t-53 -52.5t-74.5 -19zM335 625q-44 0 -44 44q0 29 17 52t48 23q42 0 42 -42
q0 -34 -18.5 -55.5t-44.5 -21.5zM172 625q-43 0 -43 44q0 29 17 52t48 23q40 0 40 -42q0 -34 -18 -55.5t-44 -21.5z" />
    <glyph glyph-name="Amacron" unicode="&#x100;" horiz-adv-x="445" 
d="M-63 0l302 717h137l6 -717h-114l3 199h-136l-80 -199h-118zM171 295h105l5 230q0 24 1 46t3 43h-3q-4 -20 -10.5 -41.5t-14.5 -46.5zM190 795l16 77h253l-16 -77h-253z" />
    <glyph glyph-name="amacron" unicode="&#x101;" horiz-adv-x="443" 
d="M129 -10q-52 0 -80 41t-28 114q0 44 8 98t25 108.5t43 100t61 73t80 27.5q33 0 57 -19t35 -59h3l23 68h90l-115 -542h-84l3 73h-3q-26 -37 -53.5 -60t-64.5 -23zM170 79q29 0 50 26t36 65t25 78q11 47 16 80t5 61q0 71 -47 71q-23 0 -43 -21t-35.5 -55.5t-26.5 -75
t-16.5 -80.5t-5.5 -71q0 -78 42 -78zM164 612l16 77h253l-16 -77h-253z" />
    <glyph glyph-name="Abreve" unicode="&#x102;" horiz-adv-x="445" 
d="M-63 0l302 717h137l6 -717h-114l3 199h-136l-80 -199h-118zM171 295h105l5 230q0 24 1 46t3 43h-3q-4 -20 -10.5 -41.5t-14.5 -46.5zM321 792q-59 0 -85 29t-26 76q0 11 1 22t3 22h65q0 -36 10.5 -54t37.5 -18t44 16.5t27 55.5h67q-13 -72 -50 -110.5t-94 -38.5z" />
    <glyph glyph-name="abreve" unicode="&#x103;" horiz-adv-x="443" 
d="M129 -10q-52 0 -80 41t-28 114q0 44 8 98t25 108.5t43 100t61 73t80 27.5q33 0 57 -19t35 -59h3l23 68h90l-115 -542h-84l3 73h-3q-26 -37 -53.5 -60t-64.5 -23zM170 79q29 0 50 26t36 65t25 78q11 47 16 80t5 61q0 71 -47 71q-23 0 -43 -21t-35.5 -55.5t-26.5 -75
t-16.5 -80.5t-5.5 -71q0 -78 42 -78zM295 609q-59 0 -85 29t-26 76q0 11 1 22t3 22h65q0 -36 10.5 -54t37.5 -18t44 16.5t27 55.5h67q-13 -72 -50 -110.5t-94 -38.5z" />
    <glyph glyph-name="Aogonek" unicode="&#x104;" horiz-adv-x="445" 
d="M-63 0l302 717h137l6 -717h-114l3 199h-136l-80 -199h-118zM171 295h105l5 230q0 24 1 46t3 43h-3q-4 -20 -10.5 -41.5t-14.5 -46.5zM274 -229q-40 0 -60.5 21t-20.5 55q0 43 26 80t74 73h67q-41 -38 -59 -68t-19 -58q0 -29 28 -29q8 0 18 2t21 4l-15 -70
q-14 -7 -29 -8.5t-31 -1.5z" />
    <glyph glyph-name="aogonek" unicode="&#x105;" horiz-adv-x="443" 
d="M129 -10q-52 0 -80 41t-28 114q0 44 8 98t25 108.5t43 100t61 73t80 27.5q33 0 57 -19t35 -59h3l23 68h90l-115 -542h-84l3 73h-3q-26 -37 -53.5 -60t-64.5 -23zM170 79q29 0 50 26t36 65t25 78q11 47 16 80t5 61q0 71 -47 71q-23 0 -43 -21t-35.5 -55.5t-26.5 -75
t-16.5 -80.5t-5.5 -71q0 -78 42 -78zM234 -229q-40 0 -60.5 21t-20.5 55q0 43 26 80t74 73h67q-41 -38 -59 -68t-19 -58q0 -29 28 -29q8 0 18 2t21 4l-15 -70q-14 -7 -29 -8.5t-31 -1.5z" />
    <glyph glyph-name="Cacute" unicode="&#x106;" horiz-adv-x="413" 
d="M203 -10q-83 0 -125.5 59.5t-42.5 170.5q0 63 13 132.5t38.5 135.5t63.5 119.5t88 85t112 31.5q38 0 72 -9t62 -31l-54 -87q-37 31 -79 31t-74.5 -29.5t-56.5 -77t-40 -102t-23.5 -105.5t-7.5 -87q0 -74 20 -107.5t61 -33.5q26 0 52 8t54 21v-98q-32 -14 -66.5 -20.5
t-66.5 -6.5zM271 778l1 10q32 39 59.5 77.5t48.5 72.5h120l-1 -8q-11 -14 -31.5 -35t-44 -44t-45 -42.5t-34.5 -30.5h-73z" />
    <glyph glyph-name="cacute" unicode="&#x107;" horiz-adv-x="343" 
d="M161 -10q-67 0 -102.5 43.5t-35.5 124.5q0 48 8.5 102t27 106t47.5 94t69 67t93 25q60 0 106 -30l-42 -84q-31 23 -64 23q-36 0 -62 -30t-43 -76t-25 -95.5t-8 -88.5q0 -91 57 -91q39 0 91 35v-90q-22 -14 -53 -24.5t-64 -10.5zM200 608l1 10q32 39 59.5 77.5t48.5 72.5
h120l-1 -8q-11 -14 -31.5 -35t-44 -44t-45 -42.5t-34.5 -30.5h-73z" />
    <glyph glyph-name="Ccircumflex" unicode="&#x108;" horiz-adv-x="413" 
d="M203 -10q-83 0 -125.5 59.5t-42.5 170.5q0 63 13 132.5t38.5 135.5t63.5 119.5t88 85t112 31.5q38 0 72 -9t62 -31l-54 -87q-37 31 -79 31t-74.5 -29.5t-56.5 -77t-40 -102t-23.5 -105.5t-7.5 -87q0 -74 20 -107.5t61 -33.5q26 0 52 8t54 21v-98q-32 -14 -66.5 -20.5
t-66.5 -6.5zM215 771l2 11q34 35 64.5 73.5t54.5 75.5h93q5 -18 14.5 -46t20.5 -56t20 -47l-3 -11h-61q-13 17 -26.5 38.5t-26.5 46.5q-49 -54 -88 -85h-64z" />
    <glyph glyph-name="ccircumflex" unicode="&#x109;" horiz-adv-x="343" 
d="M161 -10q-67 0 -102.5 43.5t-35.5 124.5q0 48 8.5 102t27 106t47.5 94t69 67t93 25q60 0 106 -30l-42 -84q-31 23 -64 23q-36 0 -62 -30t-43 -76t-25 -95.5t-8 -88.5q0 -91 57 -91q39 0 91 35v-90q-22 -14 -53 -24.5t-64 -10.5zM131 606l2 11q34 35 64.5 73.5t54.5 75.5
h93q5 -18 14.5 -46t20.5 -56t20 -47l-3 -11h-61q-13 17 -26.5 38.5t-26.5 46.5q-49 -54 -88 -85h-64z" />
    <glyph glyph-name="Cdot" unicode="&#x10a;" horiz-adv-x="413" 
d="M203 -10q-83 0 -125.5 59.5t-42.5 170.5q0 63 13 132.5t38.5 135.5t63.5 119.5t88 85t112 31.5q38 0 72 -9t62 -31l-54 -87q-37 31 -79 31t-74.5 -29.5t-56.5 -77t-40 -102t-23.5 -105.5t-7.5 -87q0 -74 20 -107.5t61 -33.5q26 0 52 8t54 21v-98q-32 -14 -66.5 -20.5
t-66.5 -6.5zM368 788q-26 0 -38.5 13.5t-12.5 36.5q0 31 17.5 55t52.5 24q51 0 51 -50q0 -31 -18 -55t-52 -24z" />
    <glyph glyph-name="cdot" unicode="&#x10b;" horiz-adv-x="343" 
d="M161 -10q-67 0 -102.5 43.5t-35.5 124.5q0 48 8.5 102t27 106t47.5 94t69 67t93 25q60 0 106 -30l-42 -84q-31 23 -64 23q-36 0 -62 -30t-43 -76t-25 -95.5t-8 -88.5q0 -91 57 -91q39 0 91 35v-90q-22 -14 -53 -24.5t-64 -10.5zM285 620q-26 0 -38.5 13.5t-12.5 36.5
q0 31 17.5 55t52.5 24q51 0 51 -50q0 -31 -18 -55t-52 -24z" />
    <glyph glyph-name="Ccaron" unicode="&#x10c;" horiz-adv-x="413" 
d="M203 -10q-83 0 -125.5 59.5t-42.5 170.5q0 63 13 132.5t38.5 135.5t63.5 119.5t88 85t112 31.5q38 0 72 -9t62 -31l-54 -87q-37 31 -79 31t-74.5 -29.5t-56.5 -77t-40 -102t-23.5 -105.5t-7.5 -87q0 -74 20 -107.5t61 -33.5q26 0 52 8t54 21v-98q-32 -14 -66.5 -20.5
t-66.5 -6.5zM312 771q-5 18 -14.5 46t-20.5 56t-20 47l2 11h62q10 -14 23.5 -35t28.5 -50q25 27 47 48.5t41 36.5h65l-2 -11q-16 -17 -39.5 -44.5t-46 -56.5t-33.5 -48h-93z" />
    <glyph glyph-name="ccaron" unicode="&#x10d;" horiz-adv-x="343" 
d="M161 -10q-67 0 -102.5 43.5t-35.5 124.5q0 48 8.5 102t27 106t47.5 94t69 67t93 25q60 0 106 -30l-42 -84q-31 23 -64 23q-36 0 -62 -30t-43 -76t-25 -95.5t-8 -88.5q0 -91 57 -91q39 0 91 35v-90q-22 -14 -53 -24.5t-64 -10.5zM224 606q-5 18 -14.5 46t-20.5 56t-20 47
l2 11h62q10 -14 23.5 -35t28.5 -50q25 27 47 48.5t41 36.5h65l-2 -11q-16 -17 -39.5 -44.5t-46 -56.5t-33.5 -48h-93z" />
    <glyph glyph-name="Dcaron" unicode="&#x10e;" horiz-adv-x="490" 
d="M-1 0l151 714h132q97 0 148 -55.5t51 -160.5q0 -66 -12 -135.5t-38 -134t-66 -116t-96.5 -82t-130.5 -30.5h-139zM127 97h27q45 0 80 25.5t60 68t41 94.5t23.5 105t7.5 99q0 67 -24 97.5t-71 30.5h-34zM258 771q-5 18 -14.5 46t-20.5 56t-20 47l2 11h62q10 -14 23.5 -35
t28.5 -50q25 27 47 48.5t41 36.5h65l-2 -11q-16 -17 -39.5 -44.5t-46 -56.5t-33.5 -48h-93z" />
    <glyph glyph-name="dcaron" unicode="&#x10f;" horiz-adv-x="539" 
d="M128 -10q-51 0 -79 41t-28 114q0 43 8 96.5t25 108t42 100.5t59.5 74t77.5 28q35 0 61 -18t36 -52h3q5 26 8.5 50t7.5 44l40 184h104l-162 -760h-84l3 68h-3q-28 -38 -54.5 -58t-64.5 -20zM170 79q27 0 48.5 23.5t37 61t26 80t15.5 81.5t5 65q0 70 -47 70
q-25 0 -45 -22.5t-35.5 -58t-26 -77t-15.5 -80.5t-5 -67q0 -76 42 -76zM507 600v10q18 40 31 78t22 72h101v-10q-15 -34 -40 -76.5t-47 -73.5h-67z" />
    <glyph glyph-name="Dcroat" unicode="&#x110;" horiz-adv-x="491" 
d="M-1 0l69 329h-50l18 84h50l64 301h132q97 0 148 -55.5t51 -160.5q0 -67 -12.5 -137t-38.5 -134.5t-66.5 -115.5t-96.5 -81t-129 -30h-139zM127 97h27q48 0 83.5 27.5t60 72t39.5 97t22 104t7 91.5q0 67 -24 97.5t-71 30.5h-34l-43 -204h77l-18 -84h-78z" />
    <glyph glyph-name="dcroat" unicode="&#x111;" horiz-adv-x="443" 
d="M128 -10q-51 0 -79 41t-28 114q0 43 8 96.5t25 108t42 100.5t59.5 74t77.5 28q35 0 61 -18t36 -52h3q4 22 7.5 43.5t7.5 40.5l7 33h-87l16 78h87l18 83h104l-18 -83h57l-17 -78h-57l-127 -599h-84l3 68h-3q-28 -38 -54.5 -58t-64.5 -20zM170 79q27 0 48.5 23.5t37 61
t26 80t15.5 81.5t5 65q0 70 -47 70q-25 0 -45 -22.5t-35.5 -58t-26 -77t-15.5 -80.5t-5 -67q0 -76 42 -76z" />
    <glyph glyph-name="Emacron" unicode="&#x112;" horiz-adv-x="383" 
d="M-1 0l151 714h280l-20 -95h-172l-42 -200h160l-21 -95h-160l-49 -228h173l-20 -96h-280zM170 774l16 77h253l-16 -77h-253z" />
    <glyph glyph-name="emacron" unicode="&#x113;" horiz-adv-x="407" 
d="M175 -10q-71 0 -112 45t-41 126q0 76 17 146t49 125t78 87t104 32q56 0 90 -31.5t34 -89.5q0 -93 -68.5 -143.5t-186.5 -50.5h-8q-6 -32 -6 -64q0 -51 18.5 -73.5t56.5 -22.5q30 0 55 7.5t59 26.5v-83q-32 -20 -66.5 -28.5t-72.5 -8.5zM146 313h3q82 0 115.5 30.5
t33.5 78.5q0 45 -43 45q-33 0 -62.5 -41.5t-46.5 -112.5zM155 609l16 77h253l-16 -77h-253z" />
    <glyph glyph-name="Ebreve" unicode="&#x114;" horiz-adv-x="383" 
d="M-1 0l151 714h280l-20 -95h-172l-42 -200h160l-21 -95h-160l-49 -228h173l-20 -96h-280zM303 771q-59 0 -85 29t-26 76q0 11 1 22t3 22h65q0 -36 10.5 -54t37.5 -18t44 16.5t27 55.5h67q-13 -72 -50 -110.5t-94 -38.5z" />
    <glyph glyph-name="ebreve" unicode="&#x115;" horiz-adv-x="407" 
d="M175 -10q-71 0 -112 45t-41 126q0 76 17 146t49 125t78 87t104 32q56 0 90 -31.5t34 -89.5q0 -93 -68.5 -143.5t-186.5 -50.5h-8q-6 -32 -6 -64q0 -51 18.5 -73.5t56.5 -22.5q30 0 55 7.5t59 26.5v-83q-32 -20 -66.5 -28.5t-72.5 -8.5zM146 313h3q82 0 115.5 30.5
t33.5 78.5q0 45 -43 45q-33 0 -62.5 -41.5t-46.5 -112.5zM297 606q-59 0 -85 29t-26 76q0 11 1 22t3 22h65q0 -36 10.5 -54t37.5 -18t44 16.5t27 55.5h67q-13 -72 -50 -110.5t-94 -38.5z" />
    <glyph glyph-name="Edotaccent" unicode="&#x116;" horiz-adv-x="383" 
d="M-1 0l151 714h280l-20 -95h-172l-42 -200h160l-21 -95h-160l-49 -228h173l-20 -96h-280zM305 771q-26 0 -38.5 13.5t-12.5 36.5q0 31 17.5 55t52.5 24q51 0 51 -50q0 -31 -18 -55t-52 -24z" />
    <glyph glyph-name="edotaccent" unicode="&#x117;" horiz-adv-x="407" 
d="M175 -10q-71 0 -112 45t-41 126q0 76 17 146t49 125t78 87t104 32q56 0 90 -31.5t34 -89.5q0 -93 -68.5 -143.5t-186.5 -50.5h-8q-6 -32 -6 -64q0 -51 18.5 -73.5t56.5 -22.5q30 0 55 7.5t59 26.5v-83q-32 -20 -66.5 -28.5t-72.5 -8.5zM146 313h3q82 0 115.5 30.5
t33.5 78.5q0 45 -43 45q-33 0 -62.5 -41.5t-46.5 -112.5zM297 620q-26 0 -38.5 13.5t-12.5 36.5q0 31 17.5 55t52.5 24q51 0 51 -50q0 -31 -18 -55t-52 -24z" />
    <glyph glyph-name="Eogonek" unicode="&#x118;" horiz-adv-x="383" 
d="M-1 0l151 714h280l-20 -95h-172l-42 -200h160l-21 -95h-160l-49 -228h173l-20 -96h-280zM164 -229q-40 0 -60.5 21t-20.5 55q0 43 26 80t74 73h67q-41 -38 -59 -68t-19 -58q0 -29 28 -29q8 0 18 2t21 4l-15 -70q-14 -7 -29 -8.5t-31 -1.5z" />
    <glyph glyph-name="eogonek" unicode="&#x119;" horiz-adv-x="407" 
d="M175 -10q-71 0 -112 45t-41 126q0 76 17 146t49 125t78 87t104 32q56 0 90 -31.5t34 -89.5q0 -93 -68.5 -143.5t-186.5 -50.5h-8q-6 -32 -6 -64q0 -51 18.5 -73.5t56.5 -22.5q30 0 55 7.5t59 26.5v-83q-14 -9 -28 -15q-47 -34 -67 -67t-21 -60q0 -28 27 -28q14 0 39 5
l-16 -70q-14 -6 -29 -7.5t-31 -1.5q-40 0 -60 21.5t-20 54.5q0 37 19 69t54 62h-6zM146 313h3q82 0 115.5 30.5t33.5 78.5q0 45 -43 45q-33 0 -62.5 -41.5t-46.5 -112.5z" />
    <glyph glyph-name="Ecaron" unicode="&#x11a;" horiz-adv-x="383" 
d="M-1 0l151 714h280l-20 -95h-172l-42 -200h160l-21 -95h-160l-49 -228h173l-20 -96h-280zM247 771q-5 18 -14.5 46t-20.5 56t-20 47l2 11h62q10 -14 23.5 -35t28.5 -50q25 27 47 48.5t41 36.5h65l-2 -11q-16 -17 -39.5 -44.5t-46 -56.5t-33.5 -48h-93z" />
    <glyph glyph-name="ecaron" unicode="&#x11b;" horiz-adv-x="407" 
d="M175 -10q-71 0 -112 45t-41 126q0 76 17 146t49 125t78 87t104 32q56 0 90 -31.5t34 -89.5q0 -93 -68.5 -143.5t-186.5 -50.5h-8q-6 -32 -6 -64q0 -51 18.5 -73.5t56.5 -22.5q30 0 55 7.5t59 26.5v-83q-32 -20 -66.5 -28.5t-72.5 -8.5zM146 313h3q82 0 115.5 30.5
t33.5 78.5q0 45 -43 45q-33 0 -62.5 -41.5t-46.5 -112.5zM231 606q-5 18 -14.5 46t-20.5 56t-20 47l2 11h62q10 -14 23.5 -35t28.5 -50q25 27 47 48.5t41 36.5h65l-2 -11q-16 -17 -39.5 -44.5t-46 -56.5t-33.5 -48h-93z" />
    <glyph glyph-name="Gcircumflex" unicode="&#x11c;" horiz-adv-x="509" 
d="M236 -10q-102 0 -151 58.5t-49 170.5q0 98 23.5 188.5t68 162t107.5 113t143 41.5q46 0 87 -12.5t70 -32.5l-50 -92q-56 41 -117 41q-50 0 -90.5 -36.5t-69.5 -96t-44.5 -130t-15.5 -138.5q0 -73 24.5 -107t73.5 -34q17 0 33.5 3t33.5 7l42 201h-82l20 93h189l-77 -365
q-45 -17 -89 -26t-80 -9zM242 771l2 11q34 35 64.5 73.5t54.5 75.5h93q5 -18 14.5 -46t20.5 -56t20 -47l-3 -11h-61q-13 17 -26.5 38.5t-26.5 46.5q-49 -54 -88 -85h-64z" />
    <glyph glyph-name="gcircumflex" unicode="&#x11d;" horiz-adv-x="443" 
d="M105 -240q-38 0 -72.5 9t-56.5 23v96q21 -15 57.5 -27.5t70.5 -12.5q48 0 75 30t41 86l6 30q3 12 7.5 30.5t10.5 38.5h-2q-26 -38 -54 -55.5t-63 -17.5q-49 0 -77 38.5t-28 111.5q0 44 8.5 99t26 110t43.5 101t62 74t81 28q38 0 59.5 -19.5t31.5 -58.5h3l21 68h90
l-122 -575q-23 -110 -77 -158.5t-142 -48.5zM171 81q25 0 46 23t37 60.5t26.5 80.5t16 83t5.5 69q0 63 -48 63q-25 0 -45 -22t-35 -58t-25.5 -77t-15.5 -79.5t-5 -66.5q0 -76 43 -76zM142 609l2 11q34 35 64.5 73.5t54.5 75.5h93q5 -18 14.5 -46t20.5 -56t20 -47l-3 -11h-61
q-13 17 -26.5 38.5t-26.5 46.5q-49 -54 -88 -85h-64z" />
    <glyph glyph-name="Gbreve" unicode="&#x11e;" horiz-adv-x="509" 
d="M236 -10q-102 0 -151 58.5t-49 170.5q0 98 23.5 188.5t68 162t107.5 113t143 41.5q46 0 87 -12.5t70 -32.5l-50 -92q-56 41 -117 41q-50 0 -90.5 -36.5t-69.5 -96t-44.5 -130t-15.5 -138.5q0 -73 24.5 -107t73.5 -34q17 0 33.5 3t33.5 7l42 201h-82l20 93h189l-77 -365
q-45 -17 -89 -26t-80 -9zM390 771q-59 0 -85 29t-26 76q0 11 1 22t3 22h65q0 -36 10.5 -54t37.5 -18t44 16.5t27 55.5h67q-13 -72 -50 -110.5t-94 -38.5z" />
    <glyph glyph-name="gbreve" unicode="&#x11f;" horiz-adv-x="443" 
d="M105 -240q-38 0 -72.5 9t-56.5 23v96q21 -15 57.5 -27.5t70.5 -12.5q48 0 75 30t41 86l6 30q3 12 7.5 30.5t10.5 38.5h-2q-26 -38 -54 -55.5t-63 -17.5q-49 0 -77 38.5t-28 111.5q0 44 8.5 99t26 110t43.5 101t62 74t81 28q38 0 59.5 -19.5t31.5 -58.5h3l21 68h90
l-122 -575q-23 -110 -77 -158.5t-142 -48.5zM171 81q25 0 46 23t37 60.5t26.5 80.5t16 83t5.5 69q0 63 -48 63q-25 0 -45 -22t-35 -58t-25.5 -77t-15.5 -79.5t-5 -66.5q0 -76 43 -76zM278 609q-59 0 -85 29t-26 76q0 11 1 22t3 22h65q0 -36 10.5 -54t37.5 -18t44 16.5
t27 55.5h67q-13 -72 -50 -110.5t-94 -38.5z" />
    <glyph glyph-name="Gdot" unicode="&#x120;" horiz-adv-x="509" 
d="M236 -10q-102 0 -151 58.5t-49 170.5q0 98 23.5 188.5t68 162t107.5 113t143 41.5q46 0 87 -12.5t70 -32.5l-50 -92q-56 41 -117 41q-50 0 -90.5 -36.5t-69.5 -96t-44.5 -130t-15.5 -138.5q0 -73 24.5 -107t73.5 -34q17 0 33.5 3t33.5 7l42 201h-82l20 93h189l-77 -365
q-45 -17 -89 -26t-80 -9zM394 785q-26 0 -38.5 13.5t-12.5 36.5q0 31 17.5 55t52.5 24q51 0 51 -50q0 -31 -18 -55t-52 -24z" />
    <glyph glyph-name="gdot" unicode="&#x121;" horiz-adv-x="443" 
d="M105 -240q-38 0 -72.5 9t-56.5 23v96q21 -15 57.5 -27.5t70.5 -12.5q48 0 75 30t41 86l6 30q3 12 7.5 30.5t10.5 38.5h-2q-26 -38 -54 -55.5t-63 -17.5q-49 0 -77 38.5t-28 111.5q0 44 8.5 99t26 110t43.5 101t62 74t81 28q38 0 59.5 -19.5t31.5 -58.5h3l21 68h90
l-122 -575q-23 -110 -77 -158.5t-142 -48.5zM171 81q25 0 46 23t37 60.5t26.5 80.5t16 83t5.5 69q0 63 -48 63q-25 0 -45 -22t-35 -58t-25.5 -77t-15.5 -79.5t-5 -66.5q0 -76 43 -76zM286 620q-26 0 -38.5 13.5t-12.5 36.5q0 31 17.5 55t52.5 24q51 0 51 -50q0 -31 -18 -55
t-52 -24z" />
    <glyph glyph-name="uni0122" unicode="&#x122;" horiz-adv-x="509" 
d="M236 -10q-102 0 -151 58.5t-49 170.5q0 98 23.5 188.5t68 162t107.5 113t143 41.5q46 0 87 -12.5t70 -32.5l-50 -92q-56 41 -117 41q-50 0 -90.5 -36.5t-69.5 -96t-44.5 -130t-15.5 -138.5q0 -73 24.5 -107t73.5 -34q17 0 33.5 3t33.5 7l42 201h-82l20 93h189l-77 -365
q-45 -17 -89 -26t-80 -9zM110 -221v13q10 18 22.5 44.5t23.5 54t17 48.5h100v-10q-9 -22 -25 -50t-35 -55t-36 -45h-67z" />
    <glyph glyph-name="uni0123" unicode="&#x123;" horiz-adv-x="443" 
d="M105 -240q-38 0 -72.5 9t-56.5 23v96q21 -15 57.5 -27.5t70.5 -12.5q48 0 75 30t41 86l6 30q3 12 7.5 30.5t10.5 38.5h-2q-26 -38 -54 -55.5t-63 -17.5q-49 0 -77 38.5t-28 111.5q0 44 8.5 99t26 110t43.5 101t62 74t81 28q38 0 59.5 -19.5t31.5 -58.5h3l21 68h90
l-122 -575q-23 -110 -77 -158.5t-142 -48.5zM171 81q25 0 46 23t37 60.5t26.5 80.5t16 83t5.5 69q0 63 -48 63q-25 0 -45 -22t-35 -58t-25.5 -77t-15.5 -79.5t-5 -66.5q0 -76 43 -76zM224 606v10q9 23 25.5 50.5t35 54t35.5 45.5h65l1 -11q-9 -17 -22 -45t-24 -57t-17 -47
h-99z" />
    <glyph glyph-name="Hcircumflex" unicode="&#x124;" horiz-adv-x="509" 
d="M-1 0l151 714h108l-62 -293h171l62 293h108l-152 -714h-108l69 325h-171l-68 -325h-108zM215 771l2 11q34 35 64.5 73.5t54.5 75.5h93q5 -18 14.5 -46t20.5 -56t20 -47l-3 -11h-61q-13 17 -26.5 38.5t-26.5 46.5q-49 -54 -88 -85h-64z" />
    <glyph glyph-name="hcircumflex" unicode="&#x125;" horiz-adv-x="437" 
d="M-4 0l161 760h104l-39 -180q-5 -25 -12.5 -51t-14.5 -51h2q21 36 49 55t66 19q46 0 73 -29.5t27 -82.5q0 -20 -4 -46.5t-9 -50.5l-72 -343h-104l67 321q6 24 10 48t4 45q0 20 -10 31.5t-29 11.5q-33 0 -58 -35.5t-43 -121.5l-64 -300h-104zM79 830l2 11q34 35 64.5 73.5
t54.5 75.5h93q5 -18 14.5 -46t20.5 -56t20 -47l-3 -11h-61q-13 17 -26.5 38.5t-26.5 46.5q-49 -54 -88 -85h-64z" />
    <glyph glyph-name="Hbar" unicode="&#x126;" horiz-adv-x="507" 
d="M-1 0l111 528h-61l17 79h61l23 107h108l-23 -107h170l24 107h108l-22 -107h58l-16 -79h-59l-113 -528h-108l69 325h-171l-68 -325h-108zM195 415h170l24 113h-171z" />
    <glyph glyph-name="hbar" unicode="&#x127;" horiz-adv-x="438" 
d="M-4 0l127 599h-57l16 78h58l17 83h104l-18 -83h89l-16 -78h-89q-13 -59 -21 -86t-15 -46h3q22 35 50 54t66 19q46 0 73 -30t27 -82q0 -20 -4 -46.5t-9 -50.5l-70 -331h-104l65 309q5 24 9 48t4 45q0 43 -38 43q-37 0 -61 -38.5t-40 -118.5l-62 -288h-104z" />
    <glyph glyph-name="Itilde" unicode="&#x128;" horiz-adv-x="296" 
d="M-46 0l12 58l83 24l116 550l-72 24l11 58h264l-12 -58l-83 -24l-116 -550l72 -24l-12 -58h-263zM106 792q13 61 36.5 99.5t69.5 38.5q29 0 48 -13.5t33.5 -27.5t30.5 -14q15 0 24 12t16 44h62q-13 -77 -41.5 -107.5t-61.5 -30.5q-28 0 -47 14t-34 27.5t-32 13.5
q-29 0 -42 -56h-62z" />
    <glyph glyph-name="itilde" unicode="&#x129;" horiz-adv-x="211" 
d="M-4 0l115 542h103l-115 -542h-103zM26 607q13 61 36.5 99.5t69.5 38.5q29 0 48 -13.5t33.5 -27.5t30.5 -14q15 0 24 12t16 44h62q-13 -77 -41.5 -107.5t-61.5 -30.5q-28 0 -47 14t-34 27.5t-32 13.5q-29 0 -42 -56h-62z" />
    <glyph glyph-name="Imacron" unicode="&#x12a;" horiz-adv-x="296" 
d="M-46 0l12 58l83 24l116 550l-72 24l11 58h264l-12 -58l-83 -24l-116 -550l72 -24l-12 -58h-263zM123 794l16 77h253l-16 -77h-253z" />
    <glyph glyph-name="imacron" unicode="&#x12b;" horiz-adv-x="211" 
d="M-4 0l115 542h103l-115 -542h-103zM45 609l16 77h253l-16 -77h-253z" />
    <glyph glyph-name="Ibreve" unicode="&#x12c;" horiz-adv-x="296" 
d="M-46 0l12 58l83 24l116 550l-72 24l11 58h264l-12 -58l-83 -24l-116 -550l72 -24l-12 -58h-263zM254 791q-59 0 -85 29t-26 76q0 11 1 22t3 22h65q0 -36 10.5 -54t37.5 -18t44 16.5t27 55.5h67q-13 -72 -50 -110.5t-94 -38.5z" />
    <glyph glyph-name="ibreve" unicode="&#x12d;" horiz-adv-x="211" 
d="M-4 0l115 542h103l-115 -542h-103zM181 606q-59 0 -85 29t-26 76q0 11 1 22t3 22h65q0 -36 10.5 -54t37.5 -18t44 16.5t27 55.5h67q-13 -72 -50 -110.5t-94 -38.5z" />
    <glyph glyph-name="Iogonek" unicode="&#x12e;" horiz-adv-x="296" 
d="M-46 0l12 58l83 24l116 550l-72 24l11 58h264l-12 -58l-83 -24l-116 -550l72 -24l-12 -58h-263zM63 -229q-40 0 -60.5 21t-20.5 55q0 43 26 80t74 73h67q-41 -38 -59 -68t-19 -58q0 -29 28 -29q8 0 18 2t21 4l-15 -70q-14 -7 -29 -8.5t-31 -1.5z" />
    <glyph glyph-name="iogonek" unicode="&#x12f;" horiz-adv-x="211" 
d="M183 620q-50 0 -50 46q0 30 17.5 56.5t53.5 26.5q50 0 50 -45q0 -34 -20 -59t-51 -25zM-4 0l115 542h103l-114 -542h-104zM4 -229q-40 0 -60.5 21t-20.5 55q0 43 26 80t74 73h67q-41 -38 -59 -68t-19 -58q0 -29 28 -29q8 0 18 2t21 4l-15 -70q-14 -7 -29 -8.5t-31 -1.5z
" />
    <glyph glyph-name="Idotaccent" unicode="&#x130;" horiz-adv-x="296" 
d="M-46 0l12 58l83 24l116 550l-72 24l11 58h264l-12 -58l-83 -24l-116 -550l72 -24l-12 -58h-263zM260 805q-26 0 -38.5 13.5t-12.5 36.5q0 31 17.5 55t52.5 24q51 0 51 -50q0 -31 -18 -55t-52 -24z" />
    <glyph glyph-name="IJ" unicode="&#x132;" horiz-adv-x="527" 
d="M-46 0l12 58l83 24l116 550l-72 24l11 58h264l-12 -58l-83 -24l-116 -550l72 -24l-12 -58h-263zM226 -202q-25 0 -43 3t-33 9l23 95q24 -12 48 -12q37 0 54.5 36.5t28.5 85.5l148 699h108l-152 -716q-22 -106 -68 -153t-114 -47z" />
    <glyph glyph-name="ij" unicode="&#x133;" horiz-adv-x="424" 
d="M183 620q-50 0 -50 46q0 30 17.5 56.5t53.5 26.5q50 0 50 -45q0 -34 -20 -59t-51 -25zM-4 0l115 542h103l-114 -542h-104zM395 620q-50 0 -50 46q0 30 17.5 56.5t53.5 26.5q50 0 50 -45q0 -34 -19.5 -59t-51.5 -25zM142 -240q-16 0 -30.5 1.5t-28.5 6.5v93q9 -5 21.5 -7
t23.5 -2q31 0 45 23.5t27 84.5l123 582h103l-125 -590q-12 -58 -29.5 -101.5t-48 -67t-81.5 -23.5z" />
    <glyph glyph-name="Jcircumflex" unicode="&#x134;" horiz-adv-x="226" 
d="M-75 -202q-25 0 -43 3t-33 9l23 95q24 -12 48 -12q37 0 54.5 36.5t28.5 85.5l148 699h108l-152 -716q-22 -106 -68 -153t-114 -47zM74 771l2 11q34 35 64.5 73.5t54.5 75.5h93q5 -18 14.5 -46t20.5 -56t20 -47l-3 -11h-61q-13 17 -26.5 38.5t-26.5 46.5q-49 -54 -88 -85
h-64z" />
    <glyph glyph-name="jcircumflex" unicode="&#x135;" horiz-adv-x="211" 
d="M-69 -240q-16 0 -30.5 1.5t-28.5 6.5v93q9 -5 21.5 -7t23.5 -2q31 0 45 23.5t27 84.5l123 582h103l-125 -590q-12 -58 -29.5 -101.5t-48 -67t-81.5 -23.5zM34 606l2 11q34 35 64.5 73.5t54.5 75.5h93q5 -18 14.5 -46t20.5 -56t20 -47l-3 -11h-61q-13 17 -26.5 38.5
t-26.5 46.5q-49 -54 -88 -85h-64z" />
    <glyph glyph-name="uni0136" unicode="&#x136;" horiz-adv-x="440" 
d="M-1 0l151 714h108l-71 -333l49 79l174 254h118l-225 -330l79 -384h-119l-54 305l-47 -44l-55 -261h-108zM63 -221v13q10 18 22.5 44.5t23.5 54t17 48.5h100v-10q-9 -22 -25 -50t-35 -55t-36 -45h-67z" />
    <glyph glyph-name="uni0137" unicode="&#x137;" horiz-adv-x="401" 
d="M-4 0l162 760h103l-74 -343q-9 -45 -27 -109h2l173 234h114l-169 -225l64 -317h-112l-43 233l-54 -56l-36 -177h-103zM43 -221v13q10 18 22.5 44.5t23.5 54t17 48.5h100v-10q-9 -22 -25 -50t-35 -55t-36 -45h-67z" />
    <glyph glyph-name="kgreenlandic" unicode="&#x138;" horiz-adv-x="401" 
d="M-4 0l115 542h104l-28 -126q-5 -23 -11.5 -49.5t-15.5 -58.5h2l173 234h114l-169 -225l64 -317h-112l-43 233l-54 -56l-36 -177h-103z" />
    <glyph glyph-name="Lacute" unicode="&#x139;" horiz-adv-x="358" 
d="M-1 0l151 714h108l-132 -618h173l-19 -96h-281zM188 778l1 10q32 39 59.5 77.5t48.5 72.5h120l-1 -8q-11 -14 -31.5 -35t-44 -44t-45 -42.5t-34.5 -30.5h-73z" />
    <glyph glyph-name="lacute" unicode="&#x13a;" horiz-adv-x="209" 
d="M-4 0l162 760h103l-162 -760h-103zM155 813l1 10q32 39 59.5 77.5t48.5 72.5h120l-1 -8q-11 -14 -31.5 -35t-44 -44t-45 -42.5t-34.5 -30.5h-73z" />
    <glyph glyph-name="uni013B" unicode="&#x13b;" horiz-adv-x="358" 
d="M-1 0l151 714h108l-132 -618h173l-19 -96h-281zM15 -221v13q10 18 22.5 44.5t23.5 54t17 48.5h100v-10q-9 -22 -25 -50t-35 -55t-36 -45h-67z" />
    <glyph glyph-name="uni013C" unicode="&#x13c;" horiz-adv-x="209" 
d="M-4 0l162 760h103l-162 -760h-103zM-68 -221v13q10 18 22.5 44.5t23.5 54t17 48.5h100v-10q-9 -22 -25 -50t-35 -55t-36 -45h-67z" />
    <glyph glyph-name="Lcaron" unicode="&#x13d;" horiz-adv-x="358" 
d="M-1 0l151 714h108l-132 -618h173l-19 -96h-281zM280 554v10q18 40 31 78t22 72h101v-10q-15 -34 -40 -76.5t-47 -73.5h-67z" />
    <glyph glyph-name="lcaron" unicode="&#x13e;" horiz-adv-x="308" 
d="M-4 0l162 760h103l-162 -760h-103zM276 600v10q18 40 31 78t22 72h101v-10q-15 -34 -40 -76.5t-47 -73.5h-67z" />
    <glyph glyph-name="Ldot" unicode="&#x13f;" horiz-adv-x="358" 
d="M-1 0l151 714h108l-132 -618h173l-19 -96h-281zM292 305q-26 0 -38.5 13.5t-12.5 36.5q0 31 17.5 55t52.5 24q51 0 51 -50q0 -31 -18 -55t-52 -24z" />
    <glyph glyph-name="ldot" unicode="&#x140;" horiz-adv-x="325" 
d="M-4 0l162 760h103l-162 -760h-103zM276 272q-26 0 -38.5 13.5t-12.5 36.5q0 31 17.5 55t52.5 24q51 0 51 -50q0 -31 -18 -55t-52 -24z" />
    <glyph glyph-name="Lslash" unicode="&#x141;" horiz-adv-x="368" 
d="M10 0l54 257l-48 -29l-41 66l113 75l73 345h108l-55 -259l84 54l43 -64l-151 -102l-52 -247h173l-19 -96h-282z" />
    <glyph glyph-name="lslash" unicode="&#x142;" horiz-adv-x="244" 
d="M10 0l66 310l-52 -27l-31 70l102 51l76 356h104l-66 -307l60 32l32 -70l-111 -56l-77 -359h-103z" />
    <glyph glyph-name="Nacute" unicode="&#x143;" horiz-adv-x="543" 
d="M-1 0l151 714h123l88 -517h3q8 49 16.5 95t13.5 74l75 348h103l-152 -714h-122l-89 527h-3q-4 -35 -10.5 -71.5t-13 -68t-9.5 -49.5l-72 -338h-102zM314 778l1 10q32 39 59.5 77.5t48.5 72.5h120l-1 -8q-11 -14 -31.5 -35t-44 -44t-45 -42.5t-34.5 -30.5h-73z" />
    <glyph glyph-name="nacute" unicode="&#x144;" horiz-adv-x="437" 
d="M-5 0l116 542h83l-7 -70h3q22 38 52.5 59t65.5 21q42 0 73 -25.5t31 -85.5q0 -19 -3.5 -43.5t-8.5 -51.5l-74 -346h-104l69 325q5 23 9 47t4 42q0 43 -38 43q-39 0 -64 -45.5t-42 -124.5l-60 -287h-105zM226 606l1 10q32 39 59.5 77.5t48.5 72.5h120l-1 -8
q-11 -14 -31.5 -35t-44 -44t-45 -42.5t-34.5 -30.5h-73z" />
    <glyph glyph-name="uni0145" unicode="&#x145;" horiz-adv-x="543" 
d="M-1 0l151 714h123l88 -517h3q8 49 16.5 95t13.5 74l75 348h103l-152 -714h-122l-89 527h-3q-4 -35 -10.5 -71.5t-13 -68t-9.5 -49.5l-72 -338h-102zM102 -221v13q10 18 22.5 44.5t23.5 54t17 48.5h100v-10q-9 -22 -25 -50t-35 -55t-36 -45h-67z" />
    <glyph glyph-name="uni0146" unicode="&#x146;" horiz-adv-x="437" 
d="M-5 0l116 542h83l-7 -70h3q22 38 52.5 59t65.5 21q42 0 73 -25.5t31 -85.5q0 -19 -3.5 -43.5t-8.5 -51.5l-74 -346h-104l69 325q5 23 9 47t4 42q0 43 -38 43q-39 0 -64 -45.5t-42 -124.5l-60 -287h-105zM47 -221v13q10 18 22.5 44.5t23.5 54t17 48.5h100v-10
q-9 -22 -25 -50t-35 -55t-36 -45h-67z" />
    <glyph glyph-name="Ncaron" unicode="&#x147;" horiz-adv-x="543" 
d="M-1 0l151 714h123l88 -517h3q8 49 16.5 95t13.5 74l75 348h103l-152 -714h-122l-89 527h-3q-4 -35 -10.5 -71.5t-13 -68t-9.5 -49.5l-72 -338h-102zM315 771q-5 18 -14.5 46t-20.5 56t-20 47l2 11h62q10 -14 23.5 -35t28.5 -50q25 27 47 48.5t41 36.5h65l-2 -11
q-16 -17 -39.5 -44.5t-46 -56.5t-33.5 -48h-93z" />
    <glyph glyph-name="ncaron" unicode="&#x148;" horiz-adv-x="437" 
d="M-5 0l116 542h83l-7 -70h3q22 38 52.5 59t65.5 21q42 0 73 -25.5t31 -85.5q0 -19 -3.5 -43.5t-8.5 -51.5l-74 -346h-104l69 325q5 23 9 47t4 42q0 43 -38 43q-39 0 -64 -45.5t-42 -124.5l-60 -287h-105zM234 606q-5 18 -14.5 46t-20.5 56t-20 47l2 11h62q10 -14 23.5 -35
t28.5 -50q25 27 47 48.5t41 36.5h65l-2 -11q-16 -17 -39.5 -44.5t-46 -56.5t-33.5 -48h-93z" />
    <glyph glyph-name="napostrophe" unicode="&#x149;" horiz-adv-x="517" 
d="M75 0l116 542h83l-7 -70h3q22 38 52.5 59t65.5 21q42 0 73 -25.5t31 -85.5q0 -19 -3.5 -43.5t-8.5 -51.5l-74 -346h-104l69 325q5 23 9 47t4 42q0 43 -38 43q-39 0 -64 -45.5t-42 -124.5l-60 -287h-105zM10 457q28 63 51 128t42 129h104l3 -10q-49 -134 -116 -247h-84z
" />
    <glyph glyph-name="Eng" unicode="&#x14a;" horiz-adv-x="543" 
d="M234 -202q-36 0 -67 13l20 96q25 -12 52 -12q31 0 48.5 26t26.5 76l-101 546h-3q-4 -35 -10.5 -71t-13.5 -68l-85 -404h-102l151 714h127l89 -492h3q5 33 10.5 64.5t11.5 60.5l78 367h103l-148 -697q-14 -67 -35.5 -116t-58 -76t-96.5 -27z" />
    <glyph glyph-name="eng" unicode="&#x14b;" horiz-adv-x="436" 
d="M156 -240q-20 0 -34 2t-24 6v93q9 -5 21.5 -7t23.5 -2q31 0 44.5 23t26.5 85l77 365q5 23 9 47t4 42q0 43 -38 43q-39 0 -63.5 -43.5t-39.5 -114.5l-63 -299h-105l116 542h83l-7 -70h3q22 38 52.5 59t65.5 21q42 0 73 -25.5t31 -85.5q0 -19 -3.5 -44t-8.5 -51l-84 -394
q-16 -72 -35.5 -114t-49.5 -60t-75 -18z" />
    <glyph glyph-name="Omacron" unicode="&#x14c;" horiz-adv-x="521" 
d="M208 -10q-88 0 -130.5 53.5t-42.5 167.5q0 65 12.5 136.5t37 138.5t61 121t85.5 86t110 32q88 0 129 -54t41 -161q0 -57 -10.5 -126t-33.5 -138.5t-58.5 -127.5t-85.5 -93t-115 -35zM216 87q37 0 66 29.5t51.5 78t37 105.5t22 112.5t7.5 99.5q0 116 -68 116
q-39 0 -69 -31t-51.5 -80.5t-35.5 -106t-21 -110t-7 -90.5q0 -68 17 -95.5t51 -27.5zM227 774l16 77h253l-16 -77h-253z" />
    <glyph glyph-name="omacron" unicode="&#x14d;" horiz-adv-x="430" 
d="M165 -10q-67 0 -104.5 44.5t-37.5 126.5q0 42 8 93.5t25.5 104t46 96t69 70.5t94.5 27q67 0 104.5 -45.5t37.5 -127.5q0 -49 -9 -102.5t-28 -104.5t-47.5 -92t-68 -65.5t-90.5 -24.5zM177 79q24 0 43.5 20.5t34.5 54t25.5 73.5t16 80t5.5 73q0 40 -12 61.5t-38 21.5
q-25 0 -45 -21.5t-35 -56.5t-25 -76t-15 -80.5t-5 -68.5q0 -81 50 -81zM147 609l16 77h253l-16 -77h-253z" />
    <glyph glyph-name="Obreve" unicode="&#x14e;" horiz-adv-x="521" 
d="M208 -10q-88 0 -130.5 53.5t-42.5 167.5q0 65 12.5 136.5t37 138.5t61 121t85.5 86t110 32q88 0 129 -54t41 -161q0 -57 -10.5 -126t-33.5 -138.5t-58.5 -127.5t-85.5 -93t-115 -35zM216 87q37 0 66 29.5t51.5 78t37 105.5t22 112.5t7.5 99.5q0 116 -68 116
q-39 0 -69 -31t-51.5 -80.5t-35.5 -106t-21 -110t-7 -90.5q0 -68 17 -95.5t51 -27.5zM362 771q-59 0 -85 29t-26 76q0 11 1 22t3 22h65q0 -36 10.5 -54t37.5 -18t44 16.5t27 55.5h67q-13 -72 -50 -110.5t-94 -38.5z" />
    <glyph glyph-name="obreve" unicode="&#x14f;" horiz-adv-x="430" 
d="M165 -10q-67 0 -104.5 44.5t-37.5 126.5q0 42 8 93.5t25.5 104t46 96t69 70.5t94.5 27q67 0 104.5 -45.5t37.5 -127.5q0 -49 -9 -102.5t-28 -104.5t-47.5 -92t-68 -65.5t-90.5 -24.5zM177 79q24 0 43.5 20.5t34.5 54t25.5 73.5t16 80t5.5 73q0 40 -12 61.5t-38 21.5
q-25 0 -45 -21.5t-35 -56.5t-25 -76t-15 -80.5t-5 -68.5q0 -81 50 -81zM288 606q-59 0 -85 29t-26 76q0 11 1 22t3 22h65q0 -36 10.5 -54t37.5 -18t44 16.5t27 55.5h67q-13 -72 -50 -110.5t-94 -38.5z" />
    <glyph glyph-name="Ohungarumlaut" unicode="&#x150;" horiz-adv-x="521" 
d="M208 -10q-88 0 -130.5 53.5t-42.5 167.5q0 65 12.5 136.5t37 138.5t61 121t85.5 86t110 32q88 0 129 -54t41 -161q0 -57 -10.5 -126t-33.5 -138.5t-58.5 -127.5t-85.5 -93t-115 -35zM216 87q37 0 66 29.5t51.5 78t37 105.5t22 112.5t7.5 99.5q0 116 -68 116
q-39 0 -69 -31t-51.5 -80.5t-35.5 -106t-21 -110t-7 -90.5q0 -68 17 -95.5t51 -27.5zM384 771l2 11q37 47 63 85.5t40 63.5h104l-1 -8q-14 -20 -40.5 -48.5t-56.5 -56.5t-55 -47h-56zM226 771l2 11q37 48 63 86.5t40 62.5h103l-1 -8q-12 -20 -38.5 -48t-58 -56t-58.5 -48
h-52z" />
    <glyph glyph-name="ohungarumlaut" unicode="&#x151;" horiz-adv-x="430" 
d="M165 -10q-67 0 -104.5 44.5t-37.5 126.5q0 42 8 93.5t25.5 104t46 96t69 70.5t94.5 27q67 0 104.5 -45.5t37.5 -127.5q0 -49 -9 -102.5t-28 -104.5t-47.5 -92t-68 -65.5t-90.5 -24.5zM177 79q24 0 43.5 20.5t34.5 54t25.5 73.5t16 80t5.5 73q0 40 -12 61.5t-38 21.5
q-25 0 -45 -21.5t-35 -56.5t-25 -76t-15 -80.5t-5 -68.5q0 -81 50 -81zM314 606l2 11q37 47 63 85.5t40 63.5h104l-1 -8q-14 -20 -40.5 -48.5t-56.5 -56.5t-55 -47h-56zM156 606l2 11q37 48 63 86.5t40 62.5h103l-1 -8q-12 -20 -38.5 -48t-58 -56t-58.5 -48h-52z" />
    <glyph glyph-name="OE" unicode="&#x152;" horiz-adv-x="618" 
d="M200 -7q-85 0 -125 57t-40 150q0 61 10 131.5t31.5 139t56.5 125.5t84 91t115 34q50 0 82 -7h252l-20 -95h-171l-43 -200h160l-20 -95h-160l-49 -228h172l-20 -96h-251q-10 -2 -27 -4.5t-37 -2.5zM222 91q12 0 21 1.5t14 2.5l111 522q-8 3 -16 5.5t-20 2.5q-37 0 -66 -28
t-51.5 -74.5t-37 -101.5t-22 -110t-7.5 -99q0 -63 17 -92t57 -29z" />
    <glyph glyph-name="oe" unicode="&#x153;" horiz-adv-x="658" 
d="M157 -10q-61 0 -97.5 45t-36.5 128q0 37 7.5 87.5t24 103t44 97.5t67.5 73t95 28q49 0 74 -24.5t36 -71.5q29 45 69 70t83 25q55 0 89.5 -31.5t34.5 -89.5q0 -93 -68.5 -143.5t-186.5 -50.5h-9q-6 -32 -6 -64q0 -51 19 -73.5t57 -22.5q58 0 114 34v-81q-65 -39 -139 -39
q-98 0 -124 94q-26 -44 -62.5 -69t-84.5 -25zM399 313h4q81 0 114.5 30.5t33.5 78.5q0 45 -43 45q-26 0 -48.5 -24t-39 -59.5t-21.5 -70.5zM177 79q23 0 42.5 20.5t35 54.5t26 74t16 80.5t5.5 73.5q0 80 -50 80q-23 0 -42.5 -20.5t-35 -54.5t-26 -74.5t-16 -80.5t-5.5 -72
q0 -81 50 -81z" />
    <glyph glyph-name="Racute" unicode="&#x154;" horiz-adv-x="446" 
d="M-1 0l151 714h125q89 0 134 -41.5t45 -117.5q0 -91 -38.5 -157.5t-103.5 -87.5l67 -310h-119l-51 288h-42l-60 -288h-108zM187 378h34q41 0 67.5 24t39 61t12.5 77q0 81 -78 81h-24zM248 778l1 10q32 39 59.5 77.5t48.5 72.5h120l-1 -8q-11 -14 -31.5 -35t-44 -44
t-45 -42.5t-34.5 -30.5h-73z" />
    <glyph glyph-name="racute" unicode="&#x155;" horiz-adv-x="300" 
d="M-4 0l115 542h81l-9 -86h4q24 49 52.5 72.5t68.5 23.5q19 0 40 -7l-31 -112q-19 8 -40 8q-33 0 -56.5 -24.5t-39 -61.5t-23.5 -76l-59 -279h-103zM167 606l1 10q32 39 59.5 77.5t48.5 72.5h120l-1 -8q-11 -14 -31.5 -35t-44 -44t-45 -42.5t-34.5 -30.5h-73z" />
    <glyph glyph-name="uni0156" unicode="&#x156;" horiz-adv-x="446" 
d="M-1 0l151 714h125q89 0 134 -41.5t45 -117.5q0 -91 -38.5 -157.5t-103.5 -87.5l67 -310h-119l-51 288h-42l-60 -288h-108zM187 378h34q41 0 67.5 24t39 61t12.5 77q0 81 -78 81h-24zM66 -221v13q10 18 22.5 44.5t23.5 54t17 48.5h100v-10q-9 -22 -25 -50t-35 -55t-36 -45
h-67z" />
    <glyph glyph-name="uni0157" unicode="&#x157;" horiz-adv-x="300" 
d="M-4 0l115 542h81l-9 -86h4q24 49 52.5 72.5t68.5 23.5q19 0 40 -7l-31 -112q-19 8 -40 8q-33 0 -56.5 -24.5t-39 -61.5t-23.5 -76l-59 -279h-103zM-50 -221v13q10 18 22.5 44.5t23.5 54t17 48.5h100v-10q-9 -22 -25 -50t-35 -55t-36 -45h-67z" />
    <glyph glyph-name="Rcaron" unicode="&#x158;" horiz-adv-x="446" 
d="M-1 0l151 714h125q89 0 134 -41.5t45 -117.5q0 -91 -38.5 -157.5t-103.5 -87.5l67 -310h-119l-51 288h-42l-60 -288h-108zM187 378h34q41 0 67.5 24t39 61t12.5 77q0 81 -78 81h-24zM253 771q-5 18 -14.5 46t-20.5 56t-20 47l2 11h62q10 -14 23.5 -35t28.5 -50
q25 27 47 48.5t41 36.5h65l-2 -11q-16 -17 -39.5 -44.5t-46 -56.5t-33.5 -48h-93z" />
    <glyph glyph-name="rcaron" unicode="&#x159;" horiz-adv-x="300" 
d="M-4 0l115 542h81l-9 -86h4q24 49 52.5 72.5t68.5 23.5q19 0 40 -7l-31 -112q-19 8 -40 8q-33 0 -56.5 -24.5t-39 -61.5t-23.5 -76l-59 -279h-103zM187 606q-5 18 -14.5 46t-20.5 56t-20 47l2 11h62q10 -14 23.5 -35t28.5 -50q25 27 47 48.5t41 36.5h65l-2 -11
q-16 -17 -39.5 -44.5t-46 -56.5t-33.5 -48h-93z" />
    <glyph glyph-name="Sacute" unicode="&#x15a;" horiz-adv-x="395" 
d="M126 -10q-95 0 -148 37l20 112q26 -19 60.5 -33t69.5 -14q44 0 74.5 27t30.5 83q0 23 -5.5 41.5t-20.5 38.5t-43 48q-42 40 -64.5 80t-22.5 101q0 63 25.5 111t74 75t117.5 27q37 0 76.5 -11.5t67.5 -31.5l-50 -98q-26 19 -51.5 29.5t-49.5 10.5q-40 0 -68 -26t-28 -75
q0 -35 17.5 -62t59.5 -67q41 -38 60 -79.5t19 -100.5q0 -62 -25 -112.5t-74 -80.5t-122 -30zM233 778l1 10q32 39 59.5 77.5t48.5 72.5h120l-1 -8q-11 -14 -31.5 -35t-44 -44t-45 -42.5t-34.5 -30.5h-73z" />
    <glyph glyph-name="sacute" unicode="&#x15b;" horiz-adv-x="339" 
d="M114 -10q-41 0 -71 7.5t-51 19.5v102q22 -17 53 -27.5t57 -10.5q34 0 54.5 18.5t20.5 53.5q0 23 -10.5 44t-43.5 53q-37 34 -52.5 66.5t-15.5 72.5q0 45 19 82t55.5 59t88.5 22q40 0 75.5 -11t59.5 -29l-42 -80q-21 16 -45 24.5t-44 8.5q-28 0 -44.5 -16.5t-16.5 -44.5
q0 -22 9.5 -40.5t40.5 -47.5q26 -24 42.5 -45.5t24.5 -46t8 -60.5q0 -76 -45 -125t-127 -49zM179 606l1 10q32 39 59.5 77.5t48.5 72.5h120l-1 -8q-11 -14 -31.5 -35t-44 -44t-45 -42.5t-34.5 -30.5h-73z" />
    <glyph glyph-name="Scircumflex" unicode="&#x15c;" horiz-adv-x="395" 
d="M126 -10q-95 0 -148 37l20 112q26 -19 60.5 -33t69.5 -14q44 0 74.5 27t30.5 83q0 23 -5.5 41.5t-20.5 38.5t-43 48q-42 40 -64.5 80t-22.5 101q0 63 25.5 111t74 75t117.5 27q37 0 76.5 -11.5t67.5 -31.5l-50 -98q-26 19 -51.5 29.5t-49.5 10.5q-40 0 -68 -26t-28 -75
q0 -35 17.5 -62t59.5 -67q41 -38 60 -79.5t19 -100.5q0 -62 -25 -112.5t-74 -80.5t-122 -30zM160 771l2 11q34 35 64.5 73.5t54.5 75.5h93q5 -18 14.5 -46t20.5 -56t20 -47l-3 -11h-61q-13 17 -26.5 38.5t-26.5 46.5q-49 -54 -88 -85h-64z" />
    <glyph glyph-name="scircumflex" unicode="&#x15d;" horiz-adv-x="339" 
d="M114 -10q-41 0 -71 7.5t-51 19.5v102q22 -17 53 -27.5t57 -10.5q34 0 54.5 18.5t20.5 53.5q0 23 -10.5 44t-43.5 53q-37 34 -52.5 66.5t-15.5 72.5q0 45 19 82t55.5 59t88.5 22q40 0 75.5 -11t59.5 -29l-42 -80q-21 16 -45 24.5t-44 8.5q-28 0 -44.5 -16.5t-16.5 -44.5
q0 -22 9.5 -40.5t40.5 -47.5q26 -24 42.5 -45.5t24.5 -46t8 -60.5q0 -76 -45 -125t-127 -49zM95 606l2 11q34 35 64.5 73.5t54.5 75.5h93q5 -18 14.5 -46t20.5 -56t20 -47l-3 -11h-61q-13 17 -26.5 38.5t-26.5 46.5q-49 -54 -88 -85h-64z" />
    <glyph glyph-name="Scedilla" unicode="&#x15e;" horiz-adv-x="395" 
d="M126 -10q-95 0 -148 37l20 112q26 -19 60.5 -33t69.5 -14q44 0 74.5 27t30.5 83q0 23 -5.5 41.5t-20.5 38.5t-43 48q-42 40 -64.5 80t-22.5 101q0 63 25.5 111t74 75t117.5 27q37 0 76.5 -11.5t67.5 -31.5l-50 -98q-26 19 -51.5 29.5t-49.5 10.5q-40 0 -68 -26t-28 -75
q0 -35 17.5 -62t59.5 -67q41 -38 60 -79.5t19 -100.5q0 -62 -25 -112.5t-74 -80.5t-122 -30zM75 -240q-19 0 -36 2t-34 6v63q10 -3 24 -5t32 -2q28 0 44 13.5t16 36.5q0 39 -64 45l51 81h57l-30 -45q31 -7 50.5 -27t19.5 -51q0 -60 -38 -88.5t-92 -28.5z" />
    <glyph glyph-name="scedilla" unicode="&#x15f;" horiz-adv-x="339" 
d="M114 -10q-41 0 -71 7.5t-51 19.5v102q22 -17 53 -27.5t57 -10.5q34 0 54.5 18.5t20.5 53.5q0 23 -10.5 44t-43.5 53q-37 34 -52.5 66.5t-15.5 72.5q0 45 19 82t55.5 59t88.5 22q40 0 75.5 -11t59.5 -29l-42 -80q-21 16 -45 24.5t-44 8.5q-28 0 -44.5 -16.5t-16.5 -44.5
q0 -22 9.5 -40.5t40.5 -47.5q26 -24 42.5 -45.5t24.5 -46t8 -60.5q0 -76 -45 -125t-127 -49zM48 -240q-19 0 -36 2t-34 6v63q10 -3 24 -5t32 -2q28 0 44 13.5t16 36.5q0 39 -64 45l51 81h57l-30 -45q31 -7 50.5 -27t19.5 -51q0 -60 -38 -88.5t-92 -28.5z" />
    <glyph glyph-name="Scaron" unicode="&#x160;" horiz-adv-x="395" 
d="M126 -10q-95 0 -148 37l20 112q26 -19 60.5 -33t69.5 -14q44 0 74.5 27t30.5 83q0 23 -5.5 41.5t-20.5 38.5t-43 48q-42 40 -64.5 80t-22.5 101q0 63 25.5 111t74 75t117.5 27q37 0 76.5 -11.5t67.5 -31.5l-50 -98q-26 19 -51.5 29.5t-49.5 10.5q-40 0 -68 -26t-28 -75
q0 -35 17.5 -62t59.5 -67q41 -38 60 -79.5t19 -100.5q0 -62 -25 -112.5t-74 -80.5t-122 -30zM255 771q-5 18 -14.5 46t-20.5 56t-20 47l2 11h62q10 -14 23.5 -35t28.5 -50q25 27 47 48.5t41 36.5h65l-2 -11q-16 -17 -39.5 -44.5t-46 -56.5t-33.5 -48h-93z" />
    <glyph glyph-name="scaron" unicode="&#x161;" horiz-adv-x="339" 
d="M114 -10q-41 0 -71 7.5t-51 19.5v102q22 -17 53 -27.5t57 -10.5q34 0 54.5 18.5t20.5 53.5q0 23 -10.5 44t-43.5 53q-37 34 -52.5 66.5t-15.5 72.5q0 45 19 82t55.5 59t88.5 22q40 0 75.5 -11t59.5 -29l-42 -80q-21 16 -45 24.5t-44 8.5q-28 0 -44.5 -16.5t-16.5 -44.5
q0 -22 9.5 -40.5t40.5 -47.5q26 -24 42.5 -45.5t24.5 -46t8 -60.5q0 -76 -45 -125t-127 -49zM186 606q-5 18 -14.5 46t-20.5 56t-20 47l2 11h62q10 -14 23.5 -35t28.5 -50q25 27 47 48.5t41 36.5h65l-2 -11q-16 -17 -39.5 -44.5t-46 -56.5t-33.5 -48h-93z" />
    <glyph glyph-name="uni021A" unicode="&#x21a;" horiz-adv-x="371" 
d="M68 0l132 617h-121l21 97h349l-21 -97h-120l-131 -617h-109zM9 -221v13q10 18 22.5 44.5t23.5 54t17 48.5h100v-10q-9 -22 -25 -50t-35 -55t-36 -45h-67z" />
    <glyph glyph-name="uni021B" unicode="&#x21b;" horiz-adv-x="272" 
d="M119 -10q-49 0 -69.5 28t-20.5 74q0 32 10 78l60 284h-48l11 56l63 29l48 121h74l-26 -118h82l-18 -88h-82l-63 -296q-2 -12 -4.5 -24t-2.5 -20q0 -32 30 -32q8 0 22 2.5t27 8.5v-84q-20 -10 -46.5 -14.5t-46.5 -4.5zM-15 -221v13q10 18 22.5 44.5t23.5 54t17 48.5h100
v-10q-9 -22 -25 -50t-35 -55t-36 -45h-67z" />
    <glyph glyph-name="Tcaron" unicode="&#x164;" horiz-adv-x="371" 
d="M68 0l132 617h-121l21 97h349l-21 -97h-120l-131 -617h-109zM233 771q-5 18 -14.5 46t-20.5 56t-20 47l2 11h62q10 -14 23.5 -35t28.5 -50q25 27 47 48.5t41 36.5h65l-2 -11q-16 -17 -39.5 -44.5t-46 -56.5t-33.5 -48h-93z" />
    <glyph glyph-name="tcaron" unicode="&#x165;" horiz-adv-x="297" 
d="M119 -10q-49 0 -69.5 28t-20.5 74q0 32 10 78l60 284h-48l11 56l63 29l48 121h74l-26 -118h82l-18 -88h-82l-63 -296q-2 -12 -4.5 -24t-2.5 -20q0 -32 30 -32q8 0 22 2.5t27 8.5v-84q-20 -10 -46.5 -14.5t-46.5 -4.5zM276 599v10q18 40 31 78t22 72h101v-10
q-15 -34 -40 -76.5t-47 -73.5h-67z" />
    <glyph glyph-name="Tbar" unicode="&#x166;" horiz-adv-x="371" 
d="M68 0l68 318h-83l17 82h83l46 217h-120l20 97h349l-20 -97h-121l-46 -217h86l-16 -82h-87l-67 -318h-109z" />
    <glyph glyph-name="tbar" unicode="&#x167;" horiz-adv-x="270" 
d="M119 -10q-49 0 -69.5 28t-20.5 73q0 16 2.5 34t6.5 42l20 93h-51l17 77h50l25 117h-48l11 56l63 29l48 121h73l-25 -118h82l-18 -88h-82l-26 -117h82l-17 -77h-81l-21 -102q-3 -12 -5 -23t-2 -19q0 -34 32 -34q7 0 20 2.5t27 8.5v-84q-20 -10 -46.5 -14.5t-46.5 -4.5z
" />
    <glyph glyph-name="Utilde" unicode="&#x168;" horiz-adv-x="495" 
d="M190 -10q-74 0 -115 41.5t-41 115.5q0 18 2.5 40.5t7.5 44.5l102 482h108l-103 -485q-8 -38 -8 -65q0 -77 62 -77q43 0 69 35t42 114l103 478h108l-106 -492q-23 -109 -75.5 -170.5t-155.5 -61.5zM199 772q13 61 36.5 99.5t69.5 38.5q29 0 48 -13.5t33.5 -27.5t30.5 -14
q15 0 24 12t16 44h62q-13 -77 -41.5 -107.5t-61.5 -30.5q-28 0 -47 14t-34 27.5t-32 13.5q-29 0 -42 -56h-62z" />
    <glyph glyph-name="utilde" unicode="&#x169;" horiz-adv-x="437" 
d="M127 -10q-51 0 -77.5 29.5t-26.5 82.5q0 18 3.5 41t7.5 45l76 354h103l-70 -332q-11 -47 -11 -81q0 -45 36 -45q39 0 64.5 46t41.5 125l62 287h103l-114 -542h-83l4 67h-3q-23 -36 -52.5 -56.5t-63.5 -20.5zM143 607q13 61 36.5 99.5t69.5 38.5q29 0 48 -13.5t33.5 -27.5
t30.5 -14q15 0 24 12t16 44h62q-13 -77 -41.5 -107.5t-61.5 -30.5q-28 0 -47 14t-34 27.5t-32 13.5q-29 0 -42 -56h-62z" />
    <glyph glyph-name="Umacron" unicode="&#x16a;" horiz-adv-x="495" 
d="M190 -10q-74 0 -115 41.5t-41 115.5q0 18 2.5 40.5t7.5 44.5l102 482h108l-103 -485q-8 -38 -8 -65q0 -77 62 -77q43 0 69 35t42 114l103 478h108l-106 -492q-23 -109 -75.5 -170.5t-155.5 -61.5zM215 774l16 77h253l-16 -77h-253z" />
    <glyph glyph-name="umacron" unicode="&#x16b;" horiz-adv-x="438" 
d="M127 -10q-51 0 -77.5 29.5t-26.5 82.5q0 18 3.5 41t7.5 45l76 354h103l-70 -332q-11 -47 -11 -81q0 -45 36 -45q39 0 64.5 46t41.5 125l62 287h103l-114 -542h-83l4 67h-3q-23 -36 -52.5 -56.5t-63.5 -20.5zM156 609l16 77h253l-16 -77h-253z" />
    <glyph glyph-name="Ubreve" unicode="&#x16c;" horiz-adv-x="495" 
d="M190 -10q-74 0 -115 41.5t-41 115.5q0 18 2.5 40.5t7.5 44.5l102 482h108l-103 -485q-8 -38 -8 -65q0 -77 62 -77q43 0 69 35t42 114l103 478h108l-106 -492q-23 -109 -75.5 -170.5t-155.5 -61.5zM348 771q-59 0 -85 29t-26 76q0 11 1 22t3 22h65q0 -36 10.5 -54
t37.5 -18t44 16.5t27 55.5h67q-13 -72 -50 -110.5t-94 -38.5z" />
    <glyph glyph-name="ubreve" unicode="&#x16d;" horiz-adv-x="437" 
d="M127 -10q-51 0 -77.5 29.5t-26.5 82.5q0 18 3.5 41t7.5 45l76 354h103l-70 -332q-11 -47 -11 -81q0 -45 36 -45q39 0 64.5 46t41.5 125l62 287h103l-114 -542h-83l4 67h-3q-23 -36 -52.5 -56.5t-63.5 -20.5zM292 606q-59 0 -85 29t-26 76q0 11 1 22t3 22h65
q0 -36 10.5 -54t37.5 -18t44 16.5t27 55.5h67q-13 -72 -50 -110.5t-94 -38.5z" />
    <glyph glyph-name="Uring" unicode="&#x16e;" horiz-adv-x="495" 
d="M190 -10q-74 0 -115 41.5t-41 115.5q0 18 2.5 40.5t7.5 44.5l102 482h108l-103 -485q-8 -38 -8 -65q0 -77 62 -77q43 0 69 35t42 114l103 478h108l-106 -492q-23 -109 -75.5 -170.5t-155.5 -61.5zM354 773q-52 0 -80.5 29t-28.5 78q0 48 29 77t80 29q47 0 77 -28.5
t31 -75.5q0 -48 -29.5 -78.5t-78.5 -30.5zM354 828q23 0 37 14t14 38q0 23 -13.5 37t-37.5 14q-25 0 -38.5 -14t-13.5 -37q0 -24 13 -38t39 -14z" />
    <glyph glyph-name="uring" unicode="&#x16f;" horiz-adv-x="437" 
d="M127 -10q-51 0 -77.5 29.5t-26.5 82.5q0 18 3.5 41t7.5 45l76 354h103l-70 -332q-11 -47 -11 -81q0 -45 36 -45q39 0 64.5 46t41.5 125l62 287h103l-114 -542h-83l4 67h-3q-23 -36 -52.5 -56.5t-63.5 -20.5zM303 608q-52 0 -80.5 29t-28.5 78q0 48 29 77t80 29
q47 0 77 -28.5t31 -75.5q0 -48 -29.5 -78.5t-78.5 -30.5zM303 663q23 0 37 14t14 38q0 23 -13.5 37t-37.5 14q-25 0 -38.5 -14t-13.5 -37q0 -24 13 -38t39 -14z" />
    <glyph glyph-name="Uhungarumlaut" unicode="&#x170;" horiz-adv-x="495" 
d="M190 -10q-74 0 -115 41.5t-41 115.5q0 18 2.5 40.5t7.5 44.5l102 482h108l-103 -485q-8 -38 -8 -65q0 -77 62 -77q43 0 69 35t42 114l103 478h108l-106 -492q-23 -109 -75.5 -170.5t-155.5 -61.5zM378 771l2 11q37 47 63 85.5t40 63.5h104l-1 -8q-14 -20 -40.5 -48.5
t-56.5 -56.5t-55 -47h-56zM220 771l2 11q37 48 63 86.5t40 62.5h103l-1 -8q-12 -20 -38.5 -48t-58 -56t-58.5 -48h-52z" />
    <glyph glyph-name="uhungarumlaut" unicode="&#x171;" horiz-adv-x="437" 
d="M127 -10q-51 0 -77.5 29.5t-26.5 82.5q0 18 3.5 41t7.5 45l76 354h103l-70 -332q-11 -47 -11 -81q0 -45 36 -45q39 0 64.5 46t41.5 125l62 287h103l-114 -542h-83l4 67h-3q-23 -36 -52.5 -56.5t-63.5 -20.5zM313 606l2 11q37 47 63 85.5t40 63.5h104l-1 -8
q-14 -20 -40.5 -48.5t-56.5 -56.5t-55 -47h-56zM155 606l2 11q37 48 63 86.5t40 62.5h103l-1 -8q-12 -20 -38.5 -48t-58 -56t-58.5 -48h-52z" />
    <glyph glyph-name="Uogonek" unicode="&#x172;" horiz-adv-x="495" 
d="M190 -10q-74 0 -115 41.5t-41 115.5q0 18 2.5 40.5t7.5 44.5l102 482h108l-103 -485q-8 -38 -8 -65q0 -77 62 -77q43 0 69 35t42 114l103 478h108l-106 -492q-23 -109 -75.5 -170.5t-155.5 -61.5zM168 -229q-40 0 -60.5 21t-20.5 55q0 43 26 80t74 73h67q-41 -38 -59 -68
t-19 -58q0 -29 28 -29q8 0 18 2t21 4l-15 -70q-14 -7 -29 -8.5t-31 -1.5z" />
    <glyph glyph-name="uogonek" unicode="&#x173;" horiz-adv-x="437" 
d="M127 -10q-51 0 -77.5 29.5t-26.5 82.5q0 18 3.5 41t7.5 45l76 354h103l-70 -332q-11 -47 -11 -81q0 -45 36 -45q39 0 64.5 46t41.5 125l62 287h103l-114 -542h-83l4 67h-3q-23 -36 -52.5 -56.5t-63.5 -20.5zM239 -229q-40 0 -60.5 21t-20.5 55q0 43 26 80t74 73h67
q-41 -38 -59 -68t-19 -58q0 -29 28 -29q8 0 18 2t21 4l-15 -70q-14 -7 -29 -8.5t-31 -1.5z" />
    <glyph glyph-name="Wcircumflex" unicode="&#x174;" horiz-adv-x="682" 
d="M69 0l20 714h105l-14 -400q-4 -83 -9 -134h2q11 33 24 66.5t26 67.5l157 400h94l-14 -391q-2 -44 -4 -77t-4 -65h2q12 36 24 69t26 69l152 395h110l-280 -714h-125l13 388q0 22 2 48t4 53h-2q-8 -23 -15.5 -47t-16.5 -47l-153 -395h-124zM296 771l2 11q34 35 64.5 73.5
t54.5 75.5h93q5 -18 14.5 -46t20.5 -56t20 -47l-3 -11h-61q-13 17 -26.5 38.5t-26.5 46.5q-49 -54 -88 -85h-64z" />
    <glyph glyph-name="wcircumflex" unicode="&#x175;" horiz-adv-x="587" 
d="M52 0l12 542h101l-9 -263q-2 -31 -4.5 -59.5t-4.5 -55.5h3q7 25 16.5 52.5t18.5 51.5l105 274h118l-11 -266q-1 -28 -3 -58.5t-4 -58.5h2q10 31 21 64t24 65l96 254h104l-217 -542h-121l14 305q1 24 3 47.5t4 48.5h-2q-7 -21 -13.5 -40t-13.5 -39l-123 -322h-116z
M224 606l2 11q34 35 64.5 73.5t54.5 75.5h93q5 -18 14.5 -46t20.5 -56t20 -47l-3 -11h-61q-13 17 -26.5 38.5t-26.5 46.5q-49 -54 -88 -85h-64z" />
    <glyph glyph-name="Ycircumflex" unicode="&#x176;" horiz-adv-x="399" 
d="M83 0l57 273l-53 441h113l23 -298l149 298h115l-237 -438l-59 -276h-108zM155 771l2 11q34 35 64.5 73.5t54.5 75.5h93q5 -18 14.5 -46t20.5 -56t20 -47l-3 -11h-61q-13 17 -26.5 38.5t-26.5 46.5q-49 -54 -88 -85h-64z" />
    <glyph glyph-name="ycircumflex" unicode="&#x177;" horiz-adv-x="379" 
d="M-22 -240q-37 0 -61 9l16 93q11 -4 21 -6t21 -2q26 0 42 19t31 53l36 79l-20 537h104l1 -272q0 -56 -3 -112h3q9 28 19 56.5t17 47.5l118 280h109l-284 -632q-20 -45 -42.5 -78.5t-53 -52.5t-74.5 -19zM114 606l2 11q34 35 64.5 73.5t54.5 75.5h93q5 -18 14.5 -46
t20.5 -56t20 -47l-3 -11h-61q-13 17 -26.5 38.5t-26.5 46.5q-49 -54 -88 -85h-64z" />
    <glyph glyph-name="Ydieresis" unicode="&#x178;" horiz-adv-x="399" 
d="M83 0l57 273l-53 441h113l23 -298l149 298h115l-237 -438l-59 -276h-108zM373 790q-44 0 -44 44q0 29 17 52t48 23q42 0 42 -42q0 -34 -18.5 -55.5t-44.5 -21.5zM210 790q-43 0 -43 44q0 29 17 52t48 23q40 0 40 -42q0 -34 -18 -55.5t-44 -21.5z" />
    <glyph glyph-name="Zacute" unicode="&#x179;" horiz-adv-x="369" 
d="M-40 0l16 79l315 540h-195l20 95h318l-17 -80l-316 -538h207l-20 -96h-328zM217 778l1 10q32 39 59.5 77.5t48.5 72.5h120l-1 -8q-11 -14 -31.5 -35t-44 -44t-45 -42.5t-34.5 -30.5h-73z" />
    <glyph glyph-name="zacute" unicode="&#x17a;" horiz-adv-x="318" 
d="M-38 0l14 66l237 387h-145l19 89h262l-15 -72l-232 -381h158l-19 -89h-279zM165 606l1 10q32 39 59.5 77.5t48.5 72.5h120l-1 -8q-11 -14 -31.5 -35t-44 -44t-45 -42.5t-34.5 -30.5h-73z" />
    <glyph glyph-name="Zdotaccent" unicode="&#x17b;" horiz-adv-x="369" 
d="M-40 0l16 79l315 540h-195l20 95h318l-17 -80l-316 -538h207l-20 -96h-328zM286 785q-26 0 -38.5 13.5t-12.5 36.5q0 31 17.5 55t52.5 24q51 0 51 -50q0 -31 -18 -55t-52 -24z" />
    <glyph glyph-name="zdotaccent" unicode="&#x17c;" horiz-adv-x="318" 
d="M-38 0l14 66l237 387h-145l19 89h262l-15 -72l-232 -381h158l-19 -89h-279zM231 620q-26 0 -38.5 13.5t-12.5 36.5q0 31 17.5 55t52.5 24q51 0 51 -50q0 -31 -18 -55t-52 -24z" />
    <glyph glyph-name="Zcaron" unicode="&#x17d;" horiz-adv-x="369" 
d="M-40 0l16 79l315 540h-195l20 95h318l-17 -80l-316 -538h207l-20 -96h-328zM232 771q-5 18 -14.5 46t-20.5 56t-20 47l2 11h62q10 -14 23.5 -35t28.5 -50q25 27 47 48.5t41 36.5h65l-2 -11q-16 -17 -39.5 -44.5t-46 -56.5t-33.5 -48h-93z" />
    <glyph glyph-name="zcaron" unicode="&#x17e;" horiz-adv-x="318" 
d="M-38 0l14 66l237 387h-145l19 89h262l-15 -72l-232 -381h158l-19 -89h-279zM172 606q-5 18 -14.5 46t-20.5 56t-20 47l2 11h62q10 -14 23.5 -35t28.5 -50q25 27 47 48.5t41 36.5h65l-2 -11q-16 -17 -39.5 -44.5t-46 -56.5t-33.5 -48h-93z" />
    <glyph glyph-name="longs" unicode="&#x17f;" horiz-adv-x="233" 
d="M-64 -240q-16 0 -30.5 1.5t-28.5 6.5v93q8 -5 21.5 -7t23.5 -2q33 0 45.5 26t22.5 74l136 639q10 48 26.5 87.5t46.5 63t79 23.5q22 0 44.5 -4.5t44.5 -15.5l-37 -81q-20 11 -41 11q-29 0 -42 -30.5t-21 -73.5l-134 -628q-12 -55 -29.5 -96t-47 -64t-79.5 -23z" />
    <glyph glyph-name="florin" unicode="&#x192;" horiz-adv-x="418" 
d="M18 -240q-22 0 -37.5 3.5t-28.5 8.5v90q14 -6 30.5 -9t25.5 -3q26 0 37.5 21t22.5 72l96 451h-63l11 55l70 32l16 70q15 65 34.5 102.5t48.5 54t71 16.5q43 0 91 -22l-39 -82q-28 14 -47 14q-25 0 -36 -23t-21 -66l-14 -63h83l-19 -88h-82l-96 -447q-21 -97 -54.5 -142
t-99.5 -45z" />
    <glyph glyph-name="Aringacute" unicode="&#x1fa;" horiz-adv-x="445" 
d="M270 837v7q24 26 48 54t44 58h125v-6q-16 -16 -41 -37.5t-51 -42t-45 -33.5h-80zM-62 0l277 644q-25 20 -25 60q0 48 29.5 77t80.5 29q49 0 78.5 -30t29.5 -74q0 -55 -40 -77l16 -629h-114l-2 193h-132l-80 -193h-118zM300 653q22 0 36.5 13.5t14.5 36.5t-14 37t-37 14
q-24 0 -37.5 -14t-13.5 -37t12.5 -36.5t38.5 -13.5zM173 290h101l2 206v40.5t2 41.5h-2q-4 -20 -10.5 -40t-13.5 -40z" />
    <glyph glyph-name="aringacute" unicode="&#x1fb;" horiz-adv-x="444" 
d="M278 831l1 8q22 25 45.5 54t44.5 62h128v-6q-15 -16 -40 -38t-52 -43.5t-47 -36.5h-80zM298 585q-50 0 -79.5 28.5t-29.5 77.5t29.5 78t79.5 29q47 0 77.5 -28.5t31.5 -75.5q0 -49 -29.5 -79t-79.5 -30zM298 640q22 0 37 14t15 37t-14 38t-38 15t-37.5 -15t-13.5 -38
q0 -51 51 -51zM130 -10q-53 0 -81 39.5t-28 112.5q0 44 8 98t25 109t43 101t61.5 74t80.5 28q31 0 55 -18t37 -57h3l22 65h90l-115 -542h-84l2 71h-3q-26 -37 -54 -59t-62 -22zM169 80q29 0 50.5 26t36.5 64.5t25 77.5q12 47 17 79.5t5 61.5q0 71 -48 71q-23 0 -43 -21
t-35.5 -55.5t-26.5 -75.5t-16.5 -82t-5.5 -73q0 -37 9 -55t32 -18z" />
    <glyph glyph-name="AEacute" unicode="&#x1fc;" horiz-adv-x="598" 
d="M-66 0l344 714h366l-20 -95h-172l-42 -200h161l-21 -95h-160l-49 -228h172l-20 -96h-279l43 199h-114l-93 -199h-116zM187 296h91l68 323h-12zM355 778l1 10q32 39 59.5 77.5t48.5 72.5h120l-1 -8q-11 -14 -31.5 -35t-44 -44t-45 -42.5t-34.5 -30.5h-73z" />
    <glyph glyph-name="aeacute" unicode="&#x1fd;" horiz-adv-x="646" 
d="M123 -10q-47 0 -74.5 41t-27.5 114q0 69 15 140.5t43.5 132t68.5 97.5t90 37q29 0 53 -16.5t36 -51.5h2l15 58h75l-10 -51q20 24 46.5 42t64.5 18q54 0 85 -32.5t31 -88.5q0 -94 -69 -144t-186 -50h-8q-6 -32 -6 -64q0 -46 17.5 -71t58.5 -25q55 0 123 39l-16 -90
q-32 -19 -61.5 -27t-66.5 -8q-40 0 -64.5 17t-33.5 45l-11 -52h-74l10 69h-2q-25 -37 -55.5 -58t-68.5 -21zM388 313h3q81 0 115 30.5t34 78.5q0 45 -44 45q-25 0 -45.5 -21.5t-36 -56.5t-26.5 -76zM170 79q28 0 48.5 25t35 63.5t23.5 78.5q20 90 20 145q0 69 -42 69
q-26 0 -49 -29t-40.5 -75t-27.5 -99.5t-10 -101.5q0 -76 42 -76zM318 606l1 10q32 39 59.5 77.5t48.5 72.5h120l-1 -8q-11 -14 -31.5 -35t-44 -44t-45 -42.5t-34.5 -30.5h-73z" />
    <glyph glyph-name="Oslashacute" unicode="&#x1fe;" horiz-adv-x="522" 
d="M50 -51l-53 30l62 98q-24 49 -24 134q0 65 12.5 136.5t37 138.5t61 121t85 86t109.5 32q70 0 110 -40l46 73l53 -32l-60 -93q22 -47 22 -123q0 -57 -11 -126t-33.5 -138.5t-58.5 -127.5t-86 -93t-115 -35q-67 0 -107 37zM150 211l239 375q-16 42 -58 42q-35 0 -63 -26
t-48.5 -68.5t-34.5 -92.5t-22.5 -98.5t-11.5 -86.5q-1 -13 -1 -24v-21zM216 87q33 0 60 24.5t48 66t36 91t23.5 100.5t11.5 95q1 9 1 17.5t1 15.5l-237 -372q16 -38 56 -38zM296 778l1 10q32 39 59.5 77.5t48.5 72.5h120l-1 -8q-11 -14 -31.5 -35t-44 -44t-45 -42.5
t-34.5 -30.5h-73z" />
    <glyph glyph-name="oslashacute" unicode="&#x1ff;" horiz-adv-x="430" 
d="M39 -61l-49 31l56 87q-23 41 -23 104q0 40 8 91.5t25.5 104t45.5 97t69 71.5t96 27q48 0 79 -28l42 66l51 -31l-52 -81q10 -20 15.5 -45t5.5 -54q0 -43 -8.5 -95t-26 -103.5t-46 -95t-68.5 -69.5t-93 -26q-46 0 -78 23zM125 169l171 270q-14 27 -43 27q-27 0 -49 -26
t-38.5 -67t-26.5 -87.5t-13 -87.5q0 -8 -0.5 -15t-0.5 -14zM177 76q27 0 49 24.5t38.5 64t26.5 85t13 86.5q1 8 1 14.5v13.5l-168 -266q13 -22 40 -22zM217 606l1 10q32 39 59.5 77.5t48.5 72.5h120l-1 -8q-11 -14 -31.5 -35t-44 -44t-45 -42.5t-34.5 -30.5h-73z" />
    <glyph glyph-name="uni0218" unicode="&#x218;" horiz-adv-x="395" 
d="M126 -10q-95 0 -148 37l20 112q26 -19 60.5 -33t69.5 -14q44 0 74.5 27t30.5 83q0 23 -5.5 41.5t-20.5 38.5t-43 48q-42 40 -64.5 80t-22.5 101q0 63 25.5 111t74 75t117.5 27q37 0 76.5 -11.5t67.5 -31.5l-50 -98q-26 19 -51.5 29.5t-49.5 10.5q-40 0 -68 -26t-28 -75
q0 -35 17.5 -62t59.5 -67q41 -38 60 -79.5t19 -100.5q0 -62 -25 -112.5t-74 -80.5t-122 -30zM16 -221v13q10 18 22.5 44.5t23.5 54t17 48.5h100v-10q-9 -22 -25 -50t-35 -55t-36 -45h-67z" />
    <glyph glyph-name="uni0219" unicode="&#x219;" horiz-adv-x="339" 
d="M114 -10q-41 0 -71 7.5t-51 19.5v102q22 -17 53 -27.5t57 -10.5q34 0 54.5 18.5t20.5 53.5q0 23 -10.5 44t-43.5 53q-37 34 -52.5 66.5t-15.5 72.5q0 45 19 82t55.5 59t88.5 22q40 0 75.5 -11t59.5 -29l-42 -80q-21 16 -45 24.5t-44 8.5q-28 0 -44.5 -16.5t-16.5 -44.5
q0 -22 9.5 -40.5t40.5 -47.5q26 -24 42.5 -45.5t24.5 -46t8 -60.5q0 -76 -45 -125t-127 -49zM-4 -221v13q10 18 22.5 44.5t23.5 54t17 48.5h100v-10q-9 -22 -25 -50t-35 -55t-36 -45h-67z" />
    <glyph glyph-name="circumflex" unicode="&#x2c6;" horiz-adv-x="347" 
d="M111 606l2 11q34 35 64.5 73.5t54.5 75.5h93q5 -18 14.5 -46t20.5 -56t20 -47l-3 -11h-61q-13 17 -26.5 38.5t-26.5 46.5q-49 -54 -88 -85h-64z" />
    <glyph glyph-name="caron" unicode="&#x2c7;" horiz-adv-x="346" 
d="M198 606q-5 18 -14.5 46t-20.5 56t-20 47l2 11h62q10 -14 23.5 -35t28.5 -50q25 27 47 48.5t41 36.5h65l-2 -11q-16 -17 -39.5 -44.5t-46 -56.5t-33.5 -48h-93z" />
    <glyph glyph-name="macron" unicode="&#x2c9;" horiz-adv-x="334" 
d="M112 609l16 77h253l-16 -77h-253z" />
    <glyph glyph-name="breve" unicode="&#x2d8;" horiz-adv-x="330" 
d="M249 606q-59 0 -85 29t-26 76q0 11 1 22t3 22h65q0 -36 10.5 -54t37.5 -18t44 16.5t27 55.5h67q-13 -72 -50 -110.5t-94 -38.5z" />
    <glyph glyph-name="dotaccent" unicode="&#x2d9;" horiz-adv-x="199" 
d="M178 620q-26 0 -38.5 13.5t-12.5 36.5q0 31 17.5 55t52.5 24q51 0 51 -50q0 -31 -18 -55t-52 -24z" />
    <glyph glyph-name="ring" unicode="&#x2da;" horiz-adv-x="303" 
d="M247 608q-52 0 -80.5 29t-28.5 78q0 48 29 77t80 29q47 0 77 -28.5t31 -75.5q0 -48 -29.5 -78.5t-78.5 -30.5zM247 663q23 0 37 14t14 38q0 23 -13.5 37t-37.5 14q-25 0 -38.5 -14t-13.5 -37q0 -24 13 -38t39 -14z" />
    <glyph glyph-name="ogonek" unicode="&#x2db;" horiz-adv-x="238" 
d="M34 -229q-40 0 -60.5 21t-20.5 55q0 43 26 80t74 73h67q-41 -38 -59 -68t-19 -58q0 -29 28 -29q8 0 18 2t21 4l-15 -70q-14 -7 -29 -8.5t-31 -1.5z" />
    <glyph glyph-name="tilde" unicode="&#x2dc;" horiz-adv-x="370" 
d="M111 607q13 61 36.5 99.5t69.5 38.5q29 0 48 -13.5t33.5 -27.5t30.5 -14q15 0 24 12t16 44h62q-13 -77 -41.5 -107.5t-61.5 -30.5q-28 0 -47 14t-34 27.5t-32 13.5q-29 0 -42 -56h-62z" />
    <glyph glyph-name="hungarumlaut" unicode="&#x2dd;" horiz-adv-x="413" 
d="M269 606l2 11q37 47 63 85.5t40 63.5h104l-1 -8q-14 -20 -40.5 -48.5t-56.5 -56.5t-55 -47h-56zM111 606l2 11q37 48 63 86.5t40 62.5h103l-1 -8q-12 -20 -38.5 -48t-58 -56t-58.5 -48h-52z" />
    <glyph glyph-name="tonos" unicode="&#x384;" horiz-adv-x="452" 
d="M226 606l2 12q10 18 24 48t27 61t19 48h99l-2 -10q-8 -13 -21.5 -34.5t-29 -45.5t-30 -45t-24.5 -34h-64z" />
    <glyph glyph-name="dieresistonos" unicode="&#x385;" horiz-adv-x="461" 
d="M254 686v9q8 17 19.5 44.5t22 55t14.5 43.5h90l-2 -8q-8 -18 -25 -46t-36 -55.5t-31 -42.5h-52zM173 625q-41 0 -41 44q0 29 16 52t45 23q39 0 39 -42q0 -34 -17.5 -55.5t-41.5 -21.5zM391 625q-40 0 -40 44q0 29 16 52t45 23q38 0 38 -42q0 -34 -17 -55.5t-42 -21.5z
" />
    <glyph glyph-name="Alphatonos" unicode="&#x386;" horiz-adv-x="458" 
d="M-50 0l302 717h137l6 -717h-114l3 199h-136l-80 -199h-118zM184 295h105l5 230q0 24 1 46t3 43h-3q-4 -20 -10.5 -41.5t-14.5 -46.5zM31 545l2 12q10 18 24 48t27 61t19 48h99l-2 -10q-8 -13 -21.5 -34.5t-29 -45.5t-30 -45t-24.5 -34h-64z" />
    <glyph glyph-name="anoteleia" unicode="&#x387;" horiz-adv-x="223" 
d="M117 281q-54 0 -54 51q0 36 21 64t60 28q23 0 36.5 -13.5t13.5 -37.5q0 -41 -23 -66.5t-54 -25.5z" />
    <glyph glyph-name="Epsilontonos" unicode="&#x388;" horiz-adv-x="490" 
d="M106 0l151 714h280l-20 -95h-172l-42 -200h160l-21 -95h-160l-49 -228h173l-20 -96h-280zM46 545l2 12q10 18 24 48t27 61t19 48h99l-2 -10q-8 -13 -21.5 -34.5t-29 -45.5t-30 -45t-24.5 -34h-64z" />
    <glyph glyph-name="Etatonos" unicode="&#x389;" horiz-adv-x="616" 
d="M106 0l151 714h108l-62 -293h171l62 293h108l-152 -714h-108l69 325h-171l-68 -325h-108zM46 545l2 12q10 18 24 48t27 61t19 48h99l-2 -10q-8 -13 -21.5 -34.5t-29 -45.5t-30 -45t-24.5 -34h-64z" />
    <glyph glyph-name="Iotatonos" unicode="&#x38a;" horiz-adv-x="445" 
d="M104 0l12 58l83 24l116 550l-72 24l11 58h264l-12 -58l-83 -24l-116 -550l72 -24l-12 -58h-263zM46 545l2 12q10 18 24 48t27 61t19 48h99l-2 -10q-8 -13 -21.5 -34.5t-29 -45.5t-30 -45t-24.5 -34h-64z" />
    <glyph glyph-name="Omicrontonos" unicode="&#x38c;" horiz-adv-x="581" 
d="M268 -10q-88 0 -130.5 53.5t-42.5 167.5q0 65 12.5 136.5t37 138.5t61 121t85.5 86t110 32q88 0 129 -54t41 -161q0 -57 -10.5 -126t-33.5 -138.5t-58.5 -127.5t-85.5 -93t-115 -35zM276 87q37 0 66 29.5t51.5 78t37 105.5t22 112.5t7.5 99.5q0 116 -68 116
q-39 0 -69 -31t-51.5 -80.5t-35.5 -106t-21 -110t-7 -90.5q0 -68 17 -95.5t51 -27.5zM46 545l2 12q10 18 24 48t27 61t19 48h99l-2 -10q-8 -13 -21.5 -34.5t-29 -45.5t-30 -45t-24.5 -34h-64z" />
    <glyph glyph-name="Upsilontonos" unicode="&#x38e;" horiz-adv-x="539" 
d="M223 0l57 273l-53 441h113l23 -298l149 298h115l-237 -438l-59 -276h-108zM38 545l2 12q10 18 24 48t27 61t19 48h99l-2 -10q-8 -13 -21.5 -34.5t-29 -45.5t-30 -45t-24.5 -34h-64z" />
    <glyph glyph-name="Omegatonos" unicode="&#x38f;" horiz-adv-x="595" 
d="M46 545l2 12q10 18 24 48t27 61t19 48h99l-2 -10q-8 -13 -21.5 -34.5t-29 -45.5t-30 -45t-24.5 -34h-64zM31 0l20 96h124q-30 34 -44 85t-14 107q0 76 20 153t57.5 141.5t91.5 103.5t123 39q89 0 135 -56.5t46 -147.5q0 -83 -22 -163.5t-63 -148t-99 -113.5h125l-21 -96
h-213l20 99q38 32 67.5 80t50 104t31 114.5t10.5 110.5q0 120 -78 120q-36 0 -64.5 -26.5t-49.5 -69t-35 -93t-21 -99.5t-7 -87q0 -95 40 -154l-21 -99h-209z" />
    <glyph glyph-name="iotadieresistonos" unicode="&#x390;" horiz-adv-x="258" 
d="M112 -10q-44 0 -67.5 24.5t-23.5 68.5q0 14 2.5 33.5t7.5 38.5l82 387h103l-84 -397q-2 -10 -3.5 -18.5t-1.5 -17.5q0 -27 23 -27q21 0 45 13v-83q-19 -10 -41.5 -16t-41.5 -6zM151 686v9q8 17 19.5 44.5t22 55t14.5 43.5h90l-2 -8q-8 -18 -25 -46t-36 -55.5t-31 -42.5
h-52zM70 625q-41 0 -41 44q0 29 16 52t45 23q39 0 39 -42q0 -34 -17.5 -55.5t-41.5 -21.5zM288 625q-40 0 -40 44q0 29 16 52t45 23q38 0 38 -42q0 -34 -17 -55.5t-42 -21.5z" />
    <glyph glyph-name="Alpha" unicode="&#x391;" horiz-adv-x="445" 
d="M-63 0l302 717h137l6 -717h-114l3 199h-136l-80 -199h-118zM171 295h105l5 230q0 24 1 46t3 43h-3q-4 -20 -10.5 -41.5t-14.5 -46.5z" />
    <glyph glyph-name="Beta" unicode="&#x392;" horiz-adv-x="458" 
d="M-2 0l151 714h152q45 0 83 -15t60.5 -47t22.5 -82q0 -65 -32 -120.5t-101 -74.5v-4q36 -12 56 -47.5t20 -82.5q0 -65 -26.5 -119.5t-78 -88t-127.5 -33.5h-180zM195 416h47q35 0 60 19.5t38 51t13 66.5q0 69 -72 69h-43zM126 93h52q42 0 68.5 21t39 55.5t12.5 75.5
t-19 61.5t-53 20.5h-50z" />
    <glyph glyph-name="Gamma" unicode="&#x393;" horiz-adv-x="353" 
d="M-1 0l151 714h278l-20 -96h-171l-130 -618h-108z" />
    <glyph glyph-name="Epsilon" unicode="&#x395;" horiz-adv-x="383" 
d="M-1 0l151 714h280l-20 -95h-172l-42 -200h160l-21 -95h-160l-49 -228h173l-20 -96h-280z" />
    <glyph glyph-name="Zeta" unicode="&#x396;" horiz-adv-x="369" 
d="M-40 0l16 79l315 540h-195l20 95h318l-17 -80l-316 -538h207l-20 -96h-328z" />
    <glyph glyph-name="Eta" unicode="&#x397;" horiz-adv-x="509" 
d="M-1 0l151 714h108l-62 -293h171l62 293h108l-152 -714h-108l69 325h-171l-68 -325h-108z" />
    <glyph glyph-name="Theta" unicode="&#x398;" horiz-adv-x="538" 
d="M213 -10q-91 0 -134.5 53.5t-43.5 167.5q0 59 12 128.5t36.5 137.5t62 124t88 90t115.5 34q176 0 176 -215q0 -70 -13 -143.5t-39 -140.5t-64 -120.5t-87 -84.5t-109 -31zM220 87q40 0 72 32t55 83t38.5 109t23 111.5t7.5 89.5q0 116 -75 116q-41 0 -72.5 -31t-55 -80.5
t-38 -106.5t-22 -110t-7.5 -90q0 -68 19.5 -95.5t54.5 -27.5zM210 320l20 91h122l-19 -91h-123z" />
    <glyph glyph-name="Iota" unicode="&#x399;" horiz-adv-x="296" 
d="M-46 0l12 58l83 24l116 550l-72 24l11 58h264l-12 -58l-83 -24l-116 -550l72 -24l-12 -58h-263z" />
    <glyph glyph-name="Kappa" unicode="&#x39a;" horiz-adv-x="440" 
d="M-1 0l151 714h108l-71 -333l49 79l174 254h118l-225 -330l79 -384h-119l-54 305l-47 -44l-55 -261h-108z" />
    <glyph glyph-name="Lambda" unicode="&#x39b;" horiz-adv-x="439" 
d="M-63 0l308 717h126l6 -717h-113l5 435q0 28 1.5 59t2.5 61q-13 -38 -26.5 -73.5t-28.5 -72.5l-167 -409h-114z" />
    <glyph glyph-name="Mu" unicode="&#x39c;" horiz-adv-x="678" 
d="M-1 0l151 714h145l18 -529h2l235 529h156l-152 -714h-106l92 432q4 21 10 42.5t11 44.5h-2l-234 -519h-99l-17 516h-2q-6 -31 -10.5 -57t-9.5 -51l-86 -408h-102z" />
    <glyph glyph-name="Nu" unicode="&#x39d;" horiz-adv-x="543" 
d="M-1 0l151 714h123l88 -517h3q8 49 16.5 95t13.5 74l75 348h103l-152 -714h-122l-89 527h-3q-4 -35 -10.5 -71.5t-13 -68t-9.5 -49.5l-72 -338h-102z" />
    <glyph glyph-name="Xi" unicode="&#x39e;" horiz-adv-x="383" 
d="M114 619l20 95h296l-20 -95h-296zM73 327l20 95h254l-21 -95h-253zM-27 0l19 96h316l-20 -96h-315z" />
    <glyph glyph-name="Omicron" unicode="&#x39f;" horiz-adv-x="521" 
d="M208 -10q-88 0 -130.5 53.5t-42.5 167.5q0 65 12.5 136.5t37 138.5t61 121t85.5 86t110 32q88 0 129 -54t41 -161q0 -57 -10.5 -126t-33.5 -138.5t-58.5 -127.5t-85.5 -93t-115 -35zM216 87q37 0 66 29.5t51.5 78t37 105.5t22 112.5t7.5 99.5q0 116 -68 116
q-39 0 -69 -31t-51.5 -80.5t-35.5 -106t-21 -110t-7 -90.5q0 -68 17 -95.5t51 -27.5z" />
    <glyph glyph-name="Pi" unicode="&#x3a0;" horiz-adv-x="501" 
d="M-1 0l151 714h379l-151 -714h-108l131 617h-164l-130 -617h-108z" />
    <glyph glyph-name="Rho" unicode="&#x3a1;" horiz-adv-x="429" 
d="M-1 0l151 714h129q88 0 130 -44t42 -117q0 -76 -27.5 -141.5t-81.5 -105.5t-136 -40h-43l-56 -266h-108zM183 361h23q64 0 99 49.5t35 128.5q0 80 -79 80h-23z" />
    <glyph glyph-name="Sigma" unicode="&#x3a3;" horiz-adv-x="390" 
d="M-34 0l18 89l207 285l-86 252l19 88h315l-19 -95h-194l81 -245l-200 -278h217l-21 -96h-337z" />
    <glyph glyph-name="Tau" unicode="&#x3a4;" horiz-adv-x="371" 
d="M68 0l132 617h-121l21 97h349l-21 -97h-120l-131 -617h-109z" />
    <glyph glyph-name="Upsilon" unicode="&#x3a5;" horiz-adv-x="399" 
d="M83 0l57 273l-53 441h113l23 -298l149 298h115l-237 -438l-59 -276h-108z" />
    <glyph glyph-name="Phi" unicode="&#x3a6;" horiz-adv-x="609" 
d="M185 -10l24 110q-78 4 -123 51.5t-45 141.5q0 91 32 167.5t94.5 124.5t154.5 51l19 88h105l-18 -88q76 -4 121 -54.5t45 -137.5q0 -69 -19 -131t-55 -109.5t-88 -75t-118 -28.5l-24 -110h-105zM228 192l75 352q-39 -1 -68 -23.5t-48 -59t-28 -79.5t-9 -84q0 -52 20 -78
t58 -28zM332 192q36 1 64.5 22t48 56.5t30 78.5t10.5 88q0 53 -20.5 79.5t-57.5 27.5z" />
    <glyph glyph-name="Chi" unicode="&#x3a7;" horiz-adv-x="413" 
d="M-58 0l219 370l-55 344h112l28 -236l123 236h116l-201 -350l61 -364h-116l-28 255l-144 -255h-115z" />
    <glyph glyph-name="Psi" unicode="&#x3a8;" horiz-adv-x="613" 
d="M189 0l44 207h-1q-159 6 -159 161q0 23 3.5 52.5t11.5 60.5l49 233h108l-52 -246q-12 -54 -12 -88q0 -44 19.5 -60t51.5 -17h2l86 411h106l-87 -411h2q42 0 66 21.5t37.5 57.5t22.5 81l54 251h108l-55 -258q-16 -78 -43 -134t-76 -85.5t-134 -29.5h-2l-44 -207h-106z" />
    <glyph glyph-name="Iotadieresis" unicode="&#x3aa;" horiz-adv-x="296" 
d="M-46 0l12 58l83 24l116 550l-72 24l11 58h264l-12 -58l-83 -24l-116 -550l72 -24l-12 -58h-263zM336 810q-44 0 -44 44q0 29 17 52t48 23q42 0 42 -42q0 -34 -18.5 -55.5t-44.5 -21.5zM173 810q-43 0 -43 44q0 29 17 52t48 23q40 0 40 -42q0 -34 -18 -55.5t-44 -21.5z
" />
    <glyph glyph-name="Upsilondieresis" unicode="&#x3ab;" horiz-adv-x="399" 
d="M83 0l57 273l-53 441h113l23 -298l149 298h115l-237 -438l-59 -276h-108zM373 790q-44 0 -44 44q0 29 17 52t48 23q42 0 42 -42q0 -34 -18.5 -55.5t-44.5 -21.5zM210 790q-43 0 -43 44q0 29 17 52t48 23q40 0 40 -42q0 -34 -18 -55.5t-44 -21.5z" />
    <glyph glyph-name="alphatonos" unicode="&#x3ac;" horiz-adv-x="464" 
d="M131 -10q-51 0 -80.5 40.5t-29.5 113.5q0 54 9.5 111t28 110t45 95t61 67t75.5 25q36 0 63 -21t38 -61h3q8 21 18 40t20 32h90q-20 -40 -36 -90.5t-28 -109.5l-39 -183q-8 -32 -8 -54q0 -14 5.5 -19t14.5 -5q13 0 28 8v-85q-14 -5 -33.5 -9.5t-32.5 -4.5q-39 0 -57 14
t-23 33t-4 36h-3q-27 -40 -57.5 -61.5t-67.5 -21.5zM170 79q30 0 52 26.5t37 65.5t24 76q11 47 16 80.5t5 59.5q0 73 -50 73q-24 0 -44 -22.5t-35 -58t-25.5 -76.5t-16 -79.5t-5.5 -65.5q0 -79 42 -79zM249 606l2 12q10 18 24 48t27 61t19 48h99l-2 -10q-8 -13 -21.5 -34.5
t-29 -45.5t-30 -45t-24.5 -34h-64z" />
    <glyph glyph-name="epsilontonos" unicode="&#x3ad;" horiz-adv-x="352" 
d="M146 -10q-72 0 -109 34t-37 98q0 56 31.5 103.5t94.5 60.5l1 4q-23 11 -37.5 37t-14.5 65q0 45 21 81.5t58.5 57.5t89.5 21q38 0 71 -9.5t61 -29.5l-48 -79q-17 15 -38 22t-41 7q-35 0 -54 -22.5t-19 -59.5q0 -59 60 -59h32l-16 -79h-40q-48 0 -76 -28.5t-28 -71.5
q0 -31 15 -47.5t49 -16.5q49 0 106 32v-88q-30 -17 -64.5 -25t-67.5 -8zM209 606l2 12q10 18 24 48t27 61t19 48h99l-2 -10q-8 -13 -21.5 -34.5t-29 -45.5t-30 -45t-24.5 -34h-64z" />
    <glyph glyph-name="etatonos" unicode="&#x3ae;" horiz-adv-x="437" 
d="M171 -240l120 565q5 23 9 47t4 42q0 43 -38 43q-39 0 -64 -45.5t-42 -124.5l-60 -287h-105l116 542h83l-7 -70h3q22 38 52.5 59t65.5 21q42 0 73 -25.5t31 -85.5q0 -19 -3.5 -43.5t-8.5 -51.5l-125 -586h-104zM245 606l2 12q10 18 24 48t27 61t19 48h99l-2 -10
q-8 -13 -21.5 -34.5t-29 -45.5t-30 -45t-24.5 -34h-64z" />
    <glyph glyph-name="iotatonos" unicode="&#x3af;" horiz-adv-x="255" 
d="M112 -10q-44 0 -67.5 24.5t-23.5 68.5q0 14 2.5 33.5t7.5 38.5l82 387h103l-84 -397q-2 -10 -3.5 -18.5t-1.5 -17.5q0 -27 23 -27q21 0 45 13v-83q-19 -10 -41.5 -16t-41.5 -6zM136 606l2 12q10 18 24 48t27 61t19 48h99l-2 -10q-8 -13 -21.5 -34.5t-29 -45.5t-30 -45
t-24.5 -34h-64z" />
    <glyph glyph-name="upsilondieresistonos" unicode="&#x3b0;" horiz-adv-x="438" 
d="M162 -9q-70 0 -102 35t-32 98q0 23 4 53.5t11 64.5l65 300h103l-67 -316q-4 -23 -8 -45.5t-4 -40.5q0 -56 41 -56q32 0 55.5 32t40 84t27 113.5t16 121.5t6.5 107h102q-1 -73 -8.5 -150.5t-24.5 -149t-46 -128.5t-73 -90t-106 -33zM253 686v9q8 17 19.5 44.5t22 55
t14.5 43.5h90l-2 -8q-8 -18 -25 -46t-36 -55.5t-31 -42.5h-52zM172 625q-41 0 -41 44q0 29 16 52t45 23q39 0 39 -42q0 -34 -17.5 -55.5t-41.5 -21.5zM390 625q-40 0 -40 44q0 29 16 52t45 23q38 0 38 -42q0 -34 -17 -55.5t-42 -21.5z" />
    <glyph glyph-name="alpha" unicode="&#x3b1;" horiz-adv-x="464" 
d="M131 -10q-51 0 -80.5 40.5t-29.5 113.5q0 54 9.5 111t28 110t45 95t61 67t75.5 25q36 0 63 -21t38 -61h3q8 21 18 40t20 32h90q-20 -40 -36 -90.5t-28 -109.5l-39 -183q-8 -32 -8 -54q0 -14 5.5 -19t14.5 -5q13 0 28 8v-85q-14 -5 -33.5 -9.5t-32.5 -4.5q-39 0 -57 14
t-23 33t-4 36h-3q-27 -40 -57.5 -61.5t-67.5 -21.5zM170 79q30 0 52 26.5t37 65.5t24 76q11 47 16 80.5t5 59.5q0 73 -50 73q-24 0 -44 -22.5t-35 -58t-25.5 -76.5t-16 -79.5t-5.5 -65.5q0 -79 42 -79z" />
    <glyph glyph-name="beta" unicode="&#x3b2;" horiz-adv-x="447" 
d="M-55 -240l170 803q21 96 66 149t134 53q68 0 105.5 -40.5t37.5 -104.5q0 -81 -34.5 -141.5t-107.5 -76.5q45 -9 69 -49.5t24 -93.5q0 -47 -13 -94.5t-38.5 -87t-64 -63.5t-89.5 -24q-30 0 -57 8t-44 21l-56 -259h-102zM189 82q32 0 53.5 17.5t34.5 45t19 58t6 55.5
q0 44 -17 68t-48 24h-21l20 90h15q34 0 55.5 27.5t32 67t10.5 75.5q0 65 -50 65q-31 0 -49.5 -27t-30.5 -80l-96 -455q11 -14 30 -22.5t36 -8.5z" />
    <glyph glyph-name="gamma" unicode="&#x3b3;" horiz-adv-x="377" 
d="M-3 -240q13 60 33.5 120.5t44.5 119.5l-14 542h105v-237q0 -33 -1.5 -75.5t-4.5 -72.5h4q22 70 54 146l100 239h110l-232 -518q-19 -44 -36.5 -91.5t-31.5 -92.5t-22 -80h-109z" />
    <glyph glyph-name="delta" unicode="&#x3b4;" horiz-adv-x="435" 
d="M173 -10q-78 0 -117 45t-39 123q0 66 23.5 123.5t67.5 101.5t104 68q-26 35 -42 69.5t-16 77.5q0 75 49.5 120.5t128.5 45.5q50 0 88 -13t61 -32l-50 -83q-51 39 -102 39q-32 0 -51 -19.5t-19 -50.5q0 -35 23.5 -66t46.5 -63q35 -48 50 -96.5t15 -105.5q0 -76 -24 -140.5
t-73 -104t-124 -39.5zM182 79q29 0 49 19.5t32.5 49.5t18 62.5t5.5 57.5q0 78 -36 130q-37 -18 -66 -57t-45 -87t-16 -93q0 -36 15 -59t43 -23z" />
    <glyph glyph-name="epsilon" unicode="&#x3b5;" horiz-adv-x="352" 
d="M146 -10q-72 0 -109 34t-37 98q0 56 31.5 103.5t94.5 60.5l1 4q-23 11 -37.5 37t-14.5 65q0 45 21 81.5t58.5 57.5t89.5 21q38 0 71 -9.5t61 -29.5l-48 -79q-17 15 -38 22t-41 7q-35 0 -54 -22.5t-19 -59.5q0 -59 60 -59h32l-16 -79h-40q-48 0 -76 -28.5t-28 -71.5
q0 -31 15 -47.5t49 -16.5q49 0 106 32v-88q-30 -17 -64.5 -25t-67.5 -8z" />
    <glyph glyph-name="zeta" unicode="&#x3b6;" horiz-adv-x="337" 
d="M71 -192q17 18 34.5 41.5t29.5 49t12 48.5t-16.5 39t-39.5 32q-35 26 -56.5 55t-21.5 84q0 69 24 138.5t63.5 136t89 128.5t100.5 116q-14 -3 -31 -4t-37 -1h-84l19 89h269l-15 -72q-51 -54 -101.5 -117.5t-92 -129.5t-67 -129.5t-25.5 -119.5q0 -40 21 -63t48 -45
q25 -17 47 -41t22 -60q0 -51 -24.5 -93.5t-60.5 -81.5h-107z" />
    <glyph glyph-name="eta" unicode="&#x3b7;" horiz-adv-x="437" 
d="M171 -240l120 565q5 23 9 47t4 42q0 43 -38 43q-39 0 -64 -45.5t-42 -124.5l-60 -287h-105l116 542h83l-7 -70h3q22 38 52.5 59t65.5 21q42 0 73 -25.5t31 -85.5q0 -19 -3.5 -43.5t-8.5 -51.5l-125 -586h-104z" />
    <glyph glyph-name="theta" unicode="&#x3b8;" horiz-adv-x="443" 
d="M169 -10q-69 0 -103.5 47.5t-34.5 147.5q0 48 7 107t22 122q15 66 36.5 129.5t52.5 115t71.5 82t92.5 30.5q62 0 99.5 -44.5t37.5 -151.5q0 -51 -9 -116.5t-25 -132t-39 -121.5q-37 -95 -87.5 -155t-120.5 -60zM169 428h161q8 52 13 93t5 71q0 92 -46 92
q-28 0 -51.5 -32.5t-44 -90t-37.5 -133.5zM175 76q30 0 55 37t45.5 97.5t37.5 132.5h-163q-10 -57 -16 -101t-6 -72q0 -49 12.5 -71.5t34.5 -22.5z" />
    <glyph glyph-name="iota" unicode="&#x3b9;" horiz-adv-x="255" 
d="M112 -10q-44 0 -67.5 24.5t-23.5 68.5q0 14 2.5 33.5t7.5 38.5l82 387h103l-84 -397q-2 -10 -3.5 -18.5t-1.5 -17.5q0 -27 23 -27q21 0 45 13v-83q-19 -10 -41.5 -16t-41.5 -6z" />
    <glyph glyph-name="kappa" unicode="&#x3ba;" horiz-adv-x="401" 
d="M-4 0l115 542h104l-28 -126q-5 -23 -11.5 -49.5t-15.5 -58.5h2l173 234h114l-169 -225l64 -317h-112l-43 233l-54 -56l-36 -177h-103z" />
    <glyph glyph-name="lambda" unicode="&#x3bb;" horiz-adv-x="404" 
d="M308 -10q-62 0 -82 37t-21 99l2 153v42t1 43q-4 -16 -10 -33.5t-12 -32.5l-131 -298h-108l249 528v90q0 34 -9.5 47t-27.5 13q-8 0 -15 -1.5t-17 -4.5v86q12 3 31 6t35 3q43 0 66 -18.5t32 -52.5t10 -81l4 -476q1 -31 8 -43t22 -12q7 0 14 1t16 4v-91q-11 -3 -28 -5.5
t-29 -2.5z" />
    <glyph glyph-name="nu" unicode="&#x3bd;" horiz-adv-x="395" 
d="M64 0v542h106l-5 -293q-1 -30 -1.5 -60.5t-1.5 -57.5q51 78 91 181t66 230h108q-33 -154 -95 -286.5t-163 -255.5h-105z" />
    <glyph glyph-name="xi" unicode="&#x3be;" horiz-adv-x="350" 
d="M70 -192q17 19 36.5 44.5t33 52.5t13.5 49q-1 20 -12.5 33.5t-34.5 25.5q-44 25 -67 60t-23 95q0 52 17 99.5t51 83t87 49.5l1 3q-33 13 -48 39t-15 61q0 57 33 105.5t91 66.5q-17 -2 -32 -3t-29 -1h-40l20 89h265l-19 -87h-36q-44 0 -77 -22.5t-51.5 -59t-18.5 -78.5
q0 -71 74 -71h41l-19 -90h-44q-67 0 -104 -46t-37 -118q0 -41 18 -59.5t49 -38.5q31 -17 49.5 -39.5t18.5 -63.5q0 -46 -22 -90.5t-62 -88.5h-107z" />
    <glyph glyph-name="omicron" unicode="&#x3bf;" horiz-adv-x="430" 
d="M165 -10q-67 0 -104.5 44.5t-37.5 126.5q0 42 8 93.5t25.5 104t46 96t69 70.5t94.5 27q67 0 104.5 -45.5t37.5 -127.5q0 -49 -9 -102.5t-28 -104.5t-47.5 -92t-68 -65.5t-90.5 -24.5zM177 79q24 0 43.5 20.5t34.5 54t25.5 73.5t16 80t5.5 73q0 40 -12 61.5t-38 21.5
q-25 0 -45 -21.5t-35 -56.5t-25 -76t-15 -80.5t-5 -68.5q0 -81 50 -81z" />
    <glyph glyph-name="pi" unicode="&#x3c0;" horiz-adv-x="476" 
d="M332 -8q-43 0 -66.5 24t-23.5 70q0 16 2.5 35t6.5 38l63 294h-102l-97 -453h-103l97 453h-73l11 46l61 43h398l-18 -89h-70l-66 -304q-2 -10 -3 -18.5t-1 -18.5q0 -27 25 -27q10 0 19.5 3t17.5 7v-83q-17 -10 -38 -15t-40 -5z" />
    <glyph glyph-name="rho" unicode="&#x3c1;" horiz-adv-x="438" 
d="M-54 -240l112 536q27 128 74.5 192t138.5 64q73 0 111 -45.5t38 -124.5q0 -44 -8.5 -97t-26 -105t-43.5 -95t-60.5 -69t-78.5 -26q-35 0 -60 11t-40 31q-1 -18 -5.5 -38t-8.5 -39l-40 -195h-103zM186 81q25 0 45.5 21.5t36 56.5t25.5 75.5t15 79t5 67.5q0 81 -51 81
q-36 0 -59 -40t-44 -141l-33 -160q8 -17 23 -28.5t37 -11.5z" />
    <glyph glyph-name="sigma1" unicode="&#x3c2;" horiz-adv-x="346" 
d="M81 -192q37 44 55.5 75.5t18.5 58.5q0 22 -13.5 38.5t-39.5 35.5q-45 33 -62 68.5t-18 96.5q0 46 9 97t28.5 100t48.5 88t69.5 62.5t92.5 23.5q64 0 109 -30l-41 -83q-31 21 -63 21q-35 0 -61.5 -28t-45 -70t-27.5 -86.5t-9 -78.5q0 -43 16 -66t44 -44q33 -24 55 -49.5
t22 -69.5q0 -36 -20 -76t-61 -84h-107z" />
    <glyph glyph-name="sigma" unicode="&#x3c3;" horiz-adv-x="450" 
d="M167 -10q-67 0 -105.5 45.5t-38.5 126.5q0 49 9.5 102t29.5 102.5t51.5 89t77 63t105.5 23.5h189l-18 -89h-86q9 -21 14.5 -46.5t5.5 -58.5q0 -57 -15 -119.5t-44.5 -116.5t-73.5 -88t-101 -34zM178 79q30 0 53 29.5t38 76.5t22.5 99.5t7.5 97.5q0 22 -1.5 40t-3.5 31
h-15q-40 0 -68.5 -28.5t-47 -73t-27 -95t-8.5 -94.5q0 -83 50 -83z" />
    <glyph glyph-name="tau" unicode="&#x3c4;" horiz-adv-x="315" 
d="M155 -11q-48 0 -74 25.5t-26 74.5q0 17 3 38t8 45l61 281h-93l10 46l62 43h250l-19 -89h-107l-62 -294q-2 -12 -4 -22.5t-2 -21.5q0 -34 32 -34q10 0 22.5 4t23.5 9v-83q-20 -11 -43 -16.5t-42 -5.5z" />
    <glyph glyph-name="upsilon" unicode="&#x3c5;" horiz-adv-x="438" 
d="M162 -9q-70 0 -102 35t-32 98q0 23 4 53.5t11 64.5l65 300h103l-67 -316q-4 -23 -8 -45.5t-4 -40.5q0 -56 41 -56q32 0 55.5 32t40 84t27 113.5t16 121.5t6.5 107h102q-1 -73 -8.5 -150.5t-24.5 -149t-46 -128.5t-73 -90t-106 -33z" />
    <glyph glyph-name="phi" unicode="&#x3c6;" horiz-adv-x="583" 
d="M128 -240l49 233q-65 9 -109 55.5t-44 140.5t39.5 188.5t111.5 172.5l73 -50q-51 -62 -85 -143t-34 -166q0 -47 18 -74.5t50 -33.5l61 294q18 80 57.5 127t111.5 47q62 0 98 -41.5t36 -124.5q0 -69 -18.5 -137.5t-54.5 -124.5t-88.5 -91.5t-120.5 -38.5l-49 -233h-102z
M298 82q45 7 75.5 40.5t48.5 81t26 96.5t8 87q0 75 -39 75q-19 0 -33 -19.5t-25 -74.5z" />
    <glyph glyph-name="chi" unicode="&#x3c7;" horiz-adv-x="388" 
d="M-121 -240l238 421l-6 217q-1 30 -7.5 45t-23.5 15q-9 0 -18.5 -2t-17.5 -5l12 91q11 4 28.5 5.5t33.5 1.5q50 0 70.5 -30.5t23.5 -86.5v-107l108 217h112l-212 -379l7 -254q1 -57 29 -57q8 0 19 3t19 8v-87q-18 -8 -38 -12t-38 -4q-46 0 -68 30t-24 101l-1 136
l-135 -267h-111z" />
    <glyph glyph-name="psi" unicode="&#x3c8;" horiz-adv-x="567" 
d="M123 -240l50 232q-145 16 -145 164q0 47 14 114l58 272h104l-61 -288q-6 -26 -9.5 -48.5t-3.5 -42.5q0 -39 14.5 -57t47.5 -22l144 676h101l-143 -675q38 0 65 30.5t44.5 81t28 111.5t15 122t4.5 112h102q-1 -75 -7.5 -152.5t-24 -148.5t-48.5 -127t-80 -89t-119 -34
l-49 -231h-102z" />
    <glyph glyph-name="omega" unicode="&#x3c9;" horiz-adv-x="567" 
d="M122 -10q-55 0 -80.5 40t-25.5 111q0 61 16 131t42.5 140t59.5 130h104q-34 -67 -60.5 -137t-42 -137.5t-15.5 -124.5q0 -29 9 -43t22 -14q27 0 41.5 36t30.5 112l27 127h102l-28 -127q-7 -35 -10.5 -59.5t-3.5 -42.5q0 -46 26 -46q22 0 39 26t30 68t21.5 90.5t12.5 94.5
t4 79q0 32 -1 55t-4 43h105q1 -19 2.5 -42t1.5 -57q0 -51 -7 -112t-22 -121t-40 -110t-61 -80t-85 -30q-51 0 -71 27t-21 60q-20 -42 -49.5 -64.5t-68.5 -22.5z" />
    <glyph glyph-name="iotadieresis" unicode="&#x3ca;" horiz-adv-x="255" 
d="M112 -10q-44 0 -67.5 24.5t-23.5 68.5q0 14 2.5 33.5t7.5 38.5l82 387h103l-84 -397q-2 -10 -3.5 -18.5t-1.5 -17.5q0 -27 23 -27q21 0 45 13v-83q-19 -10 -41.5 -16t-41.5 -6zM257 625q-44 0 -44 44q0 29 17 52t48 23q42 0 42 -42q0 -34 -18.5 -55.5t-44.5 -21.5z
M94 625q-43 0 -43 44q0 29 17 52t48 23q40 0 40 -42q0 -34 -18 -55.5t-44 -21.5z" />
    <glyph glyph-name="upsilondieresis" unicode="&#x3cb;" horiz-adv-x="438" 
d="M162 -9q-70 0 -102 35t-32 98q0 23 4 53.5t11 64.5l65 300h103l-67 -316q-4 -23 -8 -45.5t-4 -40.5q0 -56 41 -56q32 0 55.5 32t40 84t27 113.5t16 121.5t6.5 107h102q-1 -73 -8.5 -150.5t-24.5 -149t-46 -128.5t-73 -90t-106 -33zM356 625q-44 0 -44 44q0 29 17 52
t48 23q42 0 42 -42q0 -34 -18.5 -55.5t-44.5 -21.5zM193 625q-43 0 -43 44q0 29 17 52t48 23q40 0 40 -42q0 -34 -18 -55.5t-44 -21.5z" />
    <glyph glyph-name="omicrontonos" unicode="&#x3cc;" horiz-adv-x="430" 
d="M165 -10q-67 0 -104.5 44.5t-37.5 126.5q0 42 8 93.5t25.5 104t46 96t69 70.5t94.5 27q67 0 104.5 -45.5t37.5 -127.5q0 -49 -9 -102.5t-28 -104.5t-47.5 -92t-68 -65.5t-90.5 -24.5zM177 79q24 0 43.5 20.5t34.5 54t25.5 73.5t16 80t5.5 73q0 40 -12 61.5t-38 21.5
q-25 0 -45 -21.5t-35 -56.5t-25 -76t-15 -80.5t-5 -68.5q0 -81 50 -81zM227 606l2 12q10 18 24 48t27 61t19 48h99l-2 -10q-8 -13 -21.5 -34.5t-29 -45.5t-30 -45t-24.5 -34h-64z" />
    <glyph glyph-name="upsilontonos" unicode="&#x3cd;" horiz-adv-x="438" 
d="M162 -9q-70 0 -102 35t-32 98q0 23 4 53.5t11 64.5l65 300h103l-67 -316q-4 -23 -8 -45.5t-4 -40.5q0 -56 41 -56q32 0 55.5 32t40 84t27 113.5t16 121.5t6.5 107h102q-1 -73 -8.5 -150.5t-24.5 -149t-46 -128.5t-73 -90t-106 -33zM229 606l2 12q10 18 24 48t27 61t19 48
h99l-2 -10q-8 -13 -21.5 -34.5t-29 -45.5t-30 -45t-24.5 -34h-64z" />
    <glyph glyph-name="omegatonos" unicode="&#x3ce;" horiz-adv-x="567" 
d="M122 -10q-55 0 -80.5 40t-25.5 111q0 61 16 131t42.5 140t59.5 130h104q-34 -67 -60.5 -137t-42 -137.5t-15.5 -124.5q0 -29 9 -43t22 -14q27 0 41.5 36t30.5 112l27 127h102l-28 -127q-7 -35 -10.5 -59.5t-3.5 -42.5q0 -46 26 -46q22 0 39 26t30 68t21.5 90.5t12.5 94.5
t4 79q0 32 -1 55t-4 43h105q1 -19 2.5 -42t1.5 -57q0 -51 -7 -112t-22 -121t-40 -110t-61 -80t-85 -30q-51 0 -71 27t-21 60q-20 -42 -49.5 -64.5t-68.5 -22.5zM298 606l2 12q10 18 24 48t27 61t19 48h99l-2 -10q-8 -13 -21.5 -34.5t-29 -45.5t-30 -45t-24.5 -34h-64z" />
    <glyph glyph-name="afii10023" unicode="&#x401;" horiz-adv-x="383" 
d="M-1 0l151 714h280l-20 -95h-172l-42 -200h160l-21 -95h-160l-49 -228h173l-20 -96h-280zM380 790q-44 0 -44 44q0 29 17 52t48 23q42 0 42 -42q0 -34 -18.5 -55.5t-44.5 -21.5zM217 790q-43 0 -43 44q0 29 17 52t48 23q40 0 40 -42q0 -34 -18 -55.5t-44 -21.5z" />
    <glyph glyph-name="afii10051" unicode="&#x402;" horiz-adv-x="495" 
d="M271 -10q-16 0 -34 3t-32 9l18 92q9 -5 19 -7t18 -2q28 0 40 23.5t19 57.5l22 100q1 10 2.5 20t1.5 18q0 47 -56 47h-50l-75 -351h-108l131 617h-108l21 97h332l-20 -97h-117l-36 -170h55q69 0 104 -31.5t35 -89.5q0 -31 -8 -69l-25 -123q-16 -70 -50 -107t-99 -37z" />
    <glyph glyph-name="afii10052" unicode="&#x403;" horiz-adv-x="353" 
d="M-1 0l151 714h278l-20 -96h-171l-130 -618h-108zM221 778l1 10q32 39 59.5 77.5t48.5 72.5h120l-1 -8q-11 -14 -31.5 -35t-44 -44t-45 -42.5t-34.5 -30.5h-73z" />
    <glyph glyph-name="afii10053" unicode="&#x404;" horiz-adv-x="434" 
d="M211 -10q-89 0 -132 60t-43 175q0 67 14 137t41 134.5t66 116t89 81.5t110 30q88 0 138 -40l-53 -87q-40 31 -83 31q-35 0 -63.5 -19.5t-51 -51t-38.5 -68.5t-26 -72h186l-21 -95h-187q-3 -25 -5.5 -49t-2.5 -46q0 -67 18.5 -104t68.5 -37q23 0 52.5 9t57.5 23v-97
q-29 -14 -68 -22.5t-67 -8.5z" />
    <glyph glyph-name="afii10054" unicode="&#x405;" horiz-adv-x="395" 
d="M126 -10q-95 0 -148 37l20 112q26 -19 60.5 -33t69.5 -14q44 0 74.5 27t30.5 83q0 23 -5.5 41.5t-20.5 38.5t-43 48q-42 40 -64.5 80t-22.5 101q0 63 25.5 111t74 75t117.5 27q37 0 76.5 -11.5t67.5 -31.5l-50 -98q-26 19 -51.5 29.5t-49.5 10.5q-40 0 -68 -26t-28 -75
q0 -35 17.5 -62t59.5 -67q41 -38 60 -79.5t19 -100.5q0 -62 -25 -112.5t-74 -80.5t-122 -30z" />
    <glyph glyph-name="afii10055" unicode="&#x406;" horiz-adv-x="296" 
d="M-46 0l12 58l83 24l116 550l-72 24l11 58h264l-12 -58l-83 -24l-116 -550l72 -24l-12 -58h-263z" />
    <glyph glyph-name="afii10056" unicode="&#x407;" horiz-adv-x="296" 
d="M-46 0l12 58l83 24l116 550l-72 24l11 58h264l-12 -58l-83 -24l-116 -550l72 -24l-12 -58h-263zM336 810q-44 0 -44 44q0 29 17 52t48 23q42 0 42 -42q0 -34 -18.5 -55.5t-44.5 -21.5zM173 810q-43 0 -43 44q0 29 17 52t48 23q40 0 40 -42q0 -34 -18 -55.5t-44 -21.5z
" />
    <glyph glyph-name="afii10057" unicode="&#x408;" horiz-adv-x="226" 
d="M-75 -202q-25 0 -43 3t-33 9l23 95q24 -12 48 -12q37 0 54.5 36.5t28.5 85.5l148 699h108l-152 -716q-22 -106 -68 -153t-114 -47z" />
    <glyph glyph-name="afii10058" unicode="&#x409;" horiz-adv-x="679" 
d="M-5 -7q-12 0 -25.5 1.5t-24.5 6.5v95q21 -9 38 -9q15 0 27 7t24 27.5t27 62.5q26 65 67.5 202t95.5 328h288l-61 -285h21q82 0 125.5 -41.5t43.5 -121.5q0 -50 -14 -97.5t-44 -85.5t-77 -60.5t-114 -22.5h-138l129 612h-85q-19 -66 -39.5 -136.5t-41 -135.5t-37.5 -116.5
t-28 -78.5q-22 -57 -43.5 -90.5t-48.5 -47.5t-65 -14zM380 95h31q41 0 67 22t39 59t13 82q0 40 -20.5 58t-61.5 18h-17z" />
    <glyph glyph-name="afii10059" unicode="&#x40a;" horiz-adv-x="669" 
d="M-1 0l151 714h108l-62 -289h137l61 289h108l-60 -285h18q83 0 126.5 -42t43.5 -122q0 -73 -27.5 -133t-83 -96t-139.5 -36h-137l70 330h-137l-69 -330h-108zM371 95h30q55 0 86.5 44.5t31.5 118.5q0 40 -21.5 58t-62.5 18h-12z" />
    <glyph glyph-name="afii10060" unicode="&#x40b;" horiz-adv-x="503" 
d="M60 0l131 617h-108l20 97h333l-20 -97h-117l-36 -170h55q69 0 102.5 -33t33.5 -86q0 -20 -3 -41t-6 -38l-54 -249h-108l58 266q2 10 3 21t1 19q0 45 -54 45h-48l-75 -351h-108z" />
    <glyph glyph-name="afii10061" unicode="&#x40c;" horiz-adv-x="439" 
d="M-1 0l151 714h108l-73 -343l226 343h118l-240 -348l94 -366h-115l-85 364l-76 -364h-108zM271 778l1 10q32 39 59.5 77.5t48.5 72.5h120l-1 -8q-11 -14 -31.5 -35t-44 -44t-45 -42.5t-34.5 -30.5h-73z" />
    <glyph glyph-name="afii10062" unicode="&#x40e;" horiz-adv-x="401" 
d="M38 -9q-23 0 -39.5 3.5t-29.5 8.5v96q12 -7 29 -10.5t29 -3.5q22 0 37 11t30 37.5t36 72.5l-41 508h110l14 -258q1 -23 2.5 -57t2.5 -52q10 25 22 54.5t25 60.5l112 252h115l-262 -545q-24 -50 -51 -90.5t-61 -64t-80 -23.5zM301 775q-66 0 -96 31.5t-30 84.5q0 8 1 20
t3 22h84q-2 -10 -3 -20t-1 -19q0 -54 47 -54q57 0 77 93h85q-18 -82 -60.5 -120t-106.5 -38z" />
    <glyph glyph-name="afii10145" unicode="&#x40f;" horiz-adv-x="501" 
d="M94 -201l41 201h-136l152 714h108l-132 -618h164l131 618h108l-151 -714h-137l-43 -201h-105z" />
    <glyph glyph-name="afii10017" unicode="&#x410;" horiz-adv-x="445" 
d="M-63 0l302 717h137l6 -717h-114l3 199h-136l-80 -199h-118zM171 295h105l5 230q0 24 1 46t3 43h-3q-4 -20 -10.5 -41.5t-14.5 -46.5z" />
    <glyph glyph-name="afii10018" unicode="&#x411;" horiz-adv-x="431" 
d="M-1 0l151 714h304l-20 -97h-196l-41 -188h28q83 0 126.5 -41.5t43.5 -122.5q0 -72 -27 -132.5t-82.5 -96.5t-141.5 -36h-145zM126 95h40q55 0 86 44.5t31 118.5q0 40 -22 58t-63 18h-21z" />
    <glyph glyph-name="afii10019" unicode="&#x412;" horiz-adv-x="458" 
d="M-2 0l151 714h152q45 0 83 -15t60.5 -47t22.5 -82q0 -65 -32 -120.5t-101 -74.5v-4q36 -12 56 -47.5t20 -82.5q0 -65 -26.5 -119.5t-78 -88t-127.5 -33.5h-180zM195 416h47q35 0 60 19.5t38 51t13 66.5q0 69 -72 69h-43zM126 93h52q42 0 68.5 21t39 55.5t12.5 75.5
t-19 61.5t-53 20.5h-50z" />
    <glyph glyph-name="afii10020" unicode="&#x413;" horiz-adv-x="353" 
d="M-1 0l151 714h278l-20 -96h-171l-130 -618h-108z" />
    <glyph glyph-name="afii10021" unicode="&#x414;" horiz-adv-x="508" 
d="M-96 -201l63 297h40q71 124 131 284t101 334h287l-132 -618h62l-63 -297h-106l43 201h-278l-42 -201h-106zM122 96h165l111 524h-80q-24 -96 -56 -191t-68 -181t-72 -152z" />
    <glyph glyph-name="afii10022" unicode="&#x415;" horiz-adv-x="383" 
d="M-1 0l151 714h280l-20 -95h-172l-42 -200h160l-21 -95h-160l-49 -228h173l-20 -96h-280z" />
    <glyph glyph-name="afii10024" unicode="&#x416;" horiz-adv-x="630" 
d="M-67 0l241 375l-89 339h110l83 -343l73 343h105l-73 -342l221 342h117l-235 -348l86 -366h-114l-77 364l-77 -364h-104l77 364l-225 -364h-119z" />
    <glyph glyph-name="afii10025" unicode="&#x417;" horiz-adv-x="419" 
d="M122 -10q-47 0 -80.5 7t-58.5 21v110q25 -20 59 -31t72 -11q69 0 104 40t35 104q0 49 -25.5 71.5t-74.5 22.5h-58l21 95h57q67 0 103.5 39.5t36.5 100.5q0 31 -19 50t-54 19q-34 0 -60 -12.5t-51 -32.5l-39 78q40 31 83 47t95 16q71 0 112.5 -39t42.5 -110
q0 -77 -42 -130.5t-115 -69.5l-1 -3q41 -11 69.5 -46.5t28.5 -99.5q0 -68 -30 -121.5t-84.5 -84t-126.5 -30.5z" />
    <glyph glyph-name="afii10026" unicode="&#x418;" horiz-adv-x="549" 
d="M-1 0l151 714h105l-62 -289q-10 -51 -22.5 -108t-27.5 -110h3l305 507h127l-151 -714h-106l61 287q8 35 17 76t19 80.5t19 69.5h-4l-307 -513h-127z" />
    <glyph glyph-name="afii10027" unicode="&#x419;" horiz-adv-x="549" 
d="M-1 0l151 714h105l-62 -289q-10 -51 -22.5 -108t-27.5 -110h3l305 507h127l-151 -714h-106l61 287q8 35 17 76t19 80.5t19 69.5h-4l-307 -513h-127zM374 775q-66 0 -96 31.5t-30 84.5q0 8 1 20t3 22h84q-2 -10 -3 -20t-1 -19q0 -54 47 -54q57 0 77 93h85
q-18 -82 -60.5 -120t-106.5 -38z" />
    <glyph glyph-name="afii10028" unicode="&#x41a;" horiz-adv-x="439" 
d="M-1 0l151 714h108l-73 -343l226 343h118l-240 -348l94 -366h-115l-85 364l-76 -364h-108z" />
    <glyph glyph-name="afii10029" unicode="&#x41b;" horiz-adv-x="492" 
d="M0 -7q-14 0 -27.5 1.5t-24.5 6.5v95q20 -9 40 -9t36.5 16.5t32.5 59.5q12 33 31 92t42 134t48 158.5t49 166.5h301l-152 -714h-108l130 612h-98q-16 -58 -37 -129.5t-42.5 -143.5t-41.5 -132t-35 -95q-28 -63 -59.5 -91t-84.5 -28z" />
    <glyph glyph-name="afii10030" unicode="&#x41c;" horiz-adv-x="678" 
d="M-1 0l151 714h145l18 -529h2l235 529h156l-152 -714h-106l92 432q4 21 10 42.5t11 44.5h-2l-234 -519h-99l-17 516h-2q-6 -31 -10.5 -57t-9.5 -51l-86 -408h-102z" />
    <glyph glyph-name="afii10031" unicode="&#x41d;" horiz-adv-x="509" 
d="M-1 0l151 714h108l-62 -293h171l62 293h108l-152 -714h-108l69 325h-171l-68 -325h-108z" />
    <glyph glyph-name="afii10032" unicode="&#x41e;" horiz-adv-x="521" 
d="M208 -10q-88 0 -130.5 53.5t-42.5 167.5q0 65 12.5 136.5t37 138.5t61 121t85.5 86t110 32q88 0 129 -54t41 -161q0 -57 -10.5 -126t-33.5 -138.5t-58.5 -127.5t-85.5 -93t-115 -35zM216 87q37 0 66 29.5t51.5 78t37 105.5t22 112.5t7.5 99.5q0 116 -68 116
q-39 0 -69 -31t-51.5 -80.5t-35.5 -106t-21 -110t-7 -90.5q0 -68 17 -95.5t51 -27.5z" />
    <glyph glyph-name="afii10033" unicode="&#x41f;" horiz-adv-x="501" 
d="M-1 0l151 714h379l-151 -714h-108l131 617h-164l-130 -617h-108z" />
    <glyph glyph-name="afii10034" unicode="&#x420;" horiz-adv-x="429" 
d="M-1 0l151 714h129q88 0 130 -44t42 -117q0 -76 -27.5 -141.5t-81.5 -105.5t-136 -40h-43l-56 -266h-108zM183 361h23q64 0 99 49.5t35 128.5q0 80 -79 80h-23z" />
    <glyph glyph-name="afii10035" unicode="&#x421;" horiz-adv-x="413" 
d="M203 -10q-83 0 -125.5 59.5t-42.5 170.5q0 63 13 132.5t38.5 135.5t63.5 119.5t88 85t112 31.5q38 0 72 -9t62 -31l-54 -87q-37 31 -79 31t-74.5 -29.5t-56.5 -77t-40 -102t-23.5 -105.5t-7.5 -87q0 -74 20 -107.5t61 -33.5q26 0 52 8t54 21v-98q-32 -14 -66.5 -20.5
t-66.5 -6.5z" />
    <glyph glyph-name="afii10036" unicode="&#x422;" horiz-adv-x="371" 
d="M68 0l132 617h-121l21 97h349l-21 -97h-120l-131 -617h-109z" />
    <glyph glyph-name="afii10037" unicode="&#x423;" horiz-adv-x="401" 
d="M38 -9q-23 0 -39.5 3.5t-29.5 8.5v96q12 -7 29 -10.5t29 -3.5q22 0 37 11t30 37.5t36 72.5l-41 508h110l14 -258q1 -23 2.5 -57t2.5 -52q10 25 22 54.5t25 60.5l112 252h115l-262 -545q-24 -50 -51 -90.5t-61 -64t-80 -23.5z" />
    <glyph glyph-name="afii10038" unicode="&#x424;" horiz-adv-x="609" 
d="M185 -10l24 110q-78 4 -123 51.5t-45 141.5q0 91 32 167.5t94.5 124.5t154.5 51l19 88h105l-18 -88q76 -4 121 -54.5t45 -137.5q0 -69 -19 -131t-55 -109.5t-88 -75t-118 -28.5l-24 -110h-105zM228 192l75 352q-39 -1 -68 -23.5t-48 -59t-28 -79.5t-9 -84q0 -52 20 -78
t58 -28zM332 192q36 1 64.5 22t48 56.5t30 78.5t10.5 88q0 53 -20.5 79.5t-57.5 27.5z" />
    <glyph glyph-name="afii10039" unicode="&#x425;" horiz-adv-x="413" 
d="M-58 0l219 370l-55 344h112l28 -236l123 236h116l-201 -350l61 -364h-116l-28 255l-144 -255h-115z" />
    <glyph glyph-name="afii10040" unicode="&#x426;" horiz-adv-x="534" 
d="M305 -201l43 201h-347l152 714h108l-132 -618h169l132 618h108l-132 -618h68l-64 -297h-105z" />
    <glyph glyph-name="afii10041" unicode="&#x427;" horiz-adv-x="484" 
d="M249 0l59 280q-30 -16 -63.5 -27.5t-63.5 -11.5q-57 0 -85.5 32.5t-28.5 88.5q0 16 2.5 37t6.5 41l59 274h108l-55 -261q-4 -17 -6 -31t-2 -26q0 -59 50 -59q25 0 50 10.5t47 24.5l73 342h108l-151 -714h-108z" />
    <glyph glyph-name="afii10042" unicode="&#x428;" horiz-adv-x="718" 
d="M-1 0l151 714h108l-132 -618h138l132 618h108l-132 -618h138l131 618h108l-151 -714h-599z" />
    <glyph glyph-name="afii10043" unicode="&#x429;" horiz-adv-x="741" 
d="M517 -201l43 201h-561l151 714h108l-132 -618h138l132 618h108l-132 -618h138l132 618h108l-132 -618h68l-64 -297h-105z" />
    <glyph glyph-name="afii10044" unicode="&#x42a;" horiz-adv-x="499" 
d="M65 0l130 616h-121l20 98h230l-60 -285h27q83 0 126.5 -41t43.5 -123q0 -71 -26.5 -131.5t-81.5 -97t-139 -36.5h-149zM193 95h39q56 0 87 44.5t31 118.5q0 40 -21.5 58t-59.5 18h-24z" />
    <glyph glyph-name="afii10045" unicode="&#x42b;" horiz-adv-x="654" 
d="M-1 0l151 714h108l-61 -285h29q169 0 169 -163q0 -68 -26 -129t-81 -99t-142 -38h-147zM422 0l152 714h108l-152 -714h-108zM126 95h38q40 0 66.5 22t39.5 59t13 82q0 40 -21 58t-62 18h-23z" />
    <glyph glyph-name="afii10046" unicode="&#x42c;" horiz-adv-x="432" 
d="M-1 0l150 714h108l-60 -285h29q82 0 125.5 -41.5t43.5 -121.5q0 -68 -26 -129t-81 -99t-142 -38h-147zM126 95h38q40 0 66.5 22t39.5 59t13 82q0 40 -21 58t-60 18h-25z" />
    <glyph glyph-name="afii10047" unicode="&#x42d;" horiz-adv-x="437" 
d="M110 -10q-39 0 -67.5 7t-52.5 20v100q28 -15 59 -22.5t59 -7.5q63 0 109 59.5t71 174.5h-189l20 96h185q2 16 4 34.5t2 34.5q0 142 -86 142q-26 0 -50 -7.5t-53 -23.5l-28 85q71 42 149 42q84 0 131.5 -60t47.5 -182q0 -64 -11.5 -132.5t-35 -132.5t-60.5 -115
t-87.5 -81.5t-116.5 -30.5z" />
    <glyph glyph-name="afii10048" unicode="&#x42e;" horiz-adv-x="694" 
d="M398 -10q-80 0 -119 51t-39 160q0 53 12 123h-77l-68 -324h-108l151 714h108l-62 -294h74q15 57 37 111.5t53.5 98t73 69.5t94.5 26q76 0 117 -50.5t41 -157.5q0 -45 -7.5 -101.5t-22.5 -116t-38 -114.5t-55 -99t-73 -70t-92 -26zM403 87q29 0 52.5 24.5t42.5 64.5
t33 88.5t23.5 97.5t14 91t4.5 68q0 107 -57 107q-28 0 -52 -23t-43 -62t-33 -86t-23.5 -95t-14.5 -90.5t-5 -71.5q0 -63 14.5 -88t43.5 -25z" />
    <glyph glyph-name="afii10049" unicode="&#x42f;" horiz-adv-x="447" 
d="M-59 0l205 315q-31 19 -48 53.5t-17 85.5q0 74 28.5 133t84.5 93t139 34h141l-151 -714h-108l60 287h-34l-179 -287h-121zM267 378h28l51 243h-32q-42 0 -68.5 -22.5t-39.5 -59t-13 -77.5q0 -84 74 -84z" />
    <glyph glyph-name="afii10065" unicode="&#x430;" horiz-adv-x="443" 
d="M129 -10q-52 0 -80 41t-28 114q0 44 8 98t25 108.5t43 100t61 73t80 27.5q33 0 57 -19t35 -59h3l23 68h90l-115 -542h-84l3 73h-3q-26 -37 -53.5 -60t-64.5 -23zM170 79q29 0 50 26t36 65t25 78q11 47 16 80t5 61q0 71 -47 71q-23 0 -43 -21t-35.5 -55.5t-26.5 -75
t-16.5 -80.5t-5.5 -71q0 -78 42 -78z" />
    <glyph glyph-name="afii10066" unicode="&#x431;" horiz-adv-x="426" 
d="M167 -10q-63 0 -103.5 41.5t-40.5 141.5q0 53 8 119t26 135t50 131t79.5 109t113.5 67q28 9 72 18t103 15v-96q-43 -4 -79.5 -9.5t-76.5 -16.5q-60 -19 -95.5 -75.5t-54.5 -130.5h4q21 30 50 47.5t60 17.5q53 0 84 -38.5t31 -118.5q0 -60 -15.5 -123t-45 -116
t-72.5 -85.5t-98 -32.5zM172 79q28 0 49.5 27t36.5 68.5t23 85.5t8 79q0 30 -9 54t-36 24q-25 0 -52.5 -24.5t-43.5 -59.5q-10 -48 -15.5 -89.5t-5.5 -75.5q0 -89 45 -89z" />
    <glyph glyph-name="afii10067" unicode="&#x432;" horiz-adv-x="446" 
d="M181 -10q-69 0 -114 43t-45 131q0 48 8 101.5t26.5 104t49 92t74.5 66t103 24.5q67 0 106.5 -33t39.5 -94q0 -55 -30.5 -92.5t-92.5 -52.5l-1 -3q32 -7 54.5 -35t22.5 -77q0 -47 -23 -86.5t-68 -64t-110 -24.5zM151 317h69q46 0 73.5 26t27.5 72q0 26 -12.5 41t-37.5 15
q-44 0 -73 -43t-47 -111zM195 71q36 0 59.5 28t23.5 67q0 34 -18 53.5t-56 19.5h-70q-3 -19 -5 -36.5t-2 -38.5q0 -52 18.5 -72.5t49.5 -20.5z" />
    <glyph glyph-name="afii10068" unicode="&#x433;" horiz-adv-x="347" 
d="M148 -10q-62 0 -103.5 29t-43.5 100q0 72 36 116.5t94 75.5q43 25 72 49.5t29 62.5q0 21 -13.5 30.5t-33.5 9.5q-25 0 -46 -8.5t-40 -18.5l-25 77q31 19 62.5 29t66.5 10q66 0 100.5 -34t34.5 -92q0 -68 -35.5 -109t-88.5 -70q-59 -34 -81 -58.5t-22 -60.5
q0 -25 16.5 -37t41.5 -12t52.5 9t52.5 23v-90q-28 -16 -61 -23.5t-65 -7.5z" />
    <glyph glyph-name="afii10069" unicode="&#x434;" horiz-adv-x="442" 
d="M174 -10q-74 0 -112.5 44.5t-38.5 121.5q0 39 7 86.5t22.5 94.5t40.5 86.5t60.5 63.5t82.5 24q31 0 54.5 -12t36.5 -28h2q2 18 2.5 37t0.5 35q0 73 -19 106t-60 33t-90 -29l-23 83q30 17 64.5 25.5t65.5 8.5q86 0 126.5 -63.5t40.5 -172.5q0 -60 -7.5 -132.5t-25.5 -145
t-48 -133t-75 -97t-107 -36.5zM179 76q24 0 44 20.5t35.5 54.5t27 74.5t18.5 81t10 73.5q-8 20 -26 33t-40 13q-31 0 -53.5 -28.5t-37.5 -71.5t-22 -89t-7 -81q0 -80 51 -80z" />
    <glyph glyph-name="afii10070" unicode="&#x435;" horiz-adv-x="407" 
d="M175 -10q-71 0 -112 45t-41 126q0 76 17 146t49 125t78 87t104 32q56 0 90 -31.5t34 -89.5q0 -93 -68.5 -143.5t-186.5 -50.5h-8q-6 -32 -6 -64q0 -51 18.5 -73.5t56.5 -22.5q30 0 55 7.5t59 26.5v-83q-32 -20 -66.5 -28.5t-72.5 -8.5zM146 313h3q82 0 115.5 30.5
t33.5 78.5q0 45 -43 45q-33 0 -62.5 -41.5t-46.5 -112.5z" />
    <glyph glyph-name="afii10072" unicode="&#x436;" horiz-adv-x="687" 
d="M2 -9q-12 0 -22.5 1t-22.5 5l25 88q9 -3 23 -3q29 0 51 21t38 55.5t26 74t15 77t5 65.5q0 44 -14 64.5t-41 20.5q-6 0 -13 -1t-13 -3v87q10 4 22.5 5.5t26.5 1.5q65 0 99.5 -41.5t34.5 -120.5q0 -16 -1.5 -33.5t-3.5 -36.5h63l48 224h101l-48 -224h60q15 62 43 114.5
t71 85t105 32.5q10 0 21 -1t21 -3l-25 -89q-7 3 -20 3q-33 0 -58.5 -29.5t-43 -75.5t-26 -96t-8.5 -92q0 -86 55 -86q7 0 14 1t14 4v-87q-11 -3 -24.5 -5.5t-26.5 -2.5q-65 0 -100 42t-35 120q0 19 2 39t4 41h-62l-49 -233h-100l49 233h-60q-60 -242 -220 -242z" />
    <glyph glyph-name="afii10073" unicode="&#x437;" horiz-adv-x="344" 
d="M108 -10q-37 0 -69.5 7.5t-57.5 22.5v97q29 -19 58.5 -28.5t57.5 -9.5q45 0 68.5 26.5t23.5 69.5q0 68 -68 68h-44l17 79h39q39 0 65 25t26 63q0 54 -48 54q-20 0 -39 -6t-41 -18l-27 76q35 22 66.5 29t65.5 7q62 0 95 -32t33 -91q0 -53 -28 -89.5t-75 -51.5l-1 -4
q33 -10 51 -39.5t18 -72.5q0 -51 -22.5 -92.5t-64 -65.5t-99.5 -24z" />
    <glyph glyph-name="afii10074" unicode="&#x438;" horiz-adv-x="437" 
d="M127 -10q-51 0 -77.5 29.5t-26.5 82.5q0 18 3.5 41t7.5 45l76 354h103l-70 -332q-11 -47 -11 -81q0 -45 36 -45q39 0 64.5 46t41.5 125l62 287h103l-114 -542h-83l4 67h-3q-23 -36 -52.5 -56.5t-63.5 -20.5z" />
    <glyph glyph-name="afii10075" unicode="&#x439;" horiz-adv-x="437" 
d="M127 -10q-51 0 -77.5 29.5t-26.5 82.5q0 18 3.5 41t7.5 45l76 354h103l-70 -332q-11 -47 -11 -81q0 -45 36 -45q39 0 64.5 46t41.5 125l62 287h103l-114 -542h-83l4 67h-3q-23 -36 -52.5 -56.5t-63.5 -20.5zM286 602q-66 0 -96 31.5t-30 84.5q0 8 1 20t3 22h84
q-2 -10 -3 -20t-1 -19q0 -54 47 -54q57 0 77 93h85q-18 -82 -60.5 -120t-106.5 -38z" />
    <glyph glyph-name="afii10076" unicode="&#x43a;" horiz-adv-x="400" 
d="M-4 0l116 542h103l-54 -255l172 255h114l-186 -263l82 -279h-111l-74 273l-58 -273h-104z" />
    <glyph glyph-name="afii10077" unicode="&#x43b;" horiz-adv-x="426" 
d="M0 -7q-16 0 -26 2.5t-21 7.5v90q13 -8 32 -8q20 1 36.5 17.5t31.5 60t31 122.5q18 88 45 146t72.5 87t116.5 29q34 0 61 -2.5t59 -6.5l-114 -538h-103l96 455q-5 1 -10.5 1h-11.5q-47 0 -71 -49t-48 -159q-16 -78 -37.5 -135t-54 -88.5t-84.5 -31.5z" />
    <glyph glyph-name="afii10078" unicode="&#x43c;" horiz-adv-x="554" 
d="M-4 0l115 542h140v-377h2l159 377h144l-114 -542h-99l57 270q7 28 13 55.5t13 55.5h-1l-166 -381h-81l-5 381h-1q-4 -25 -9 -49.5t-9 -50.5l-60 -281h-98z" />
    <glyph glyph-name="afii10079" unicode="&#x43d;" horiz-adv-x="441" 
d="M-4 0l116 542h103l-46 -218h124l46 218h104l-116 -542h-103l51 235h-125l-50 -235h-104z" />
    <glyph glyph-name="afii10080" unicode="&#x43e;" horiz-adv-x="430" 
d="M165 -10q-67 0 -104.5 44.5t-37.5 126.5q0 42 8 93.5t25.5 104t46 96t69 70.5t94.5 27q67 0 104.5 -45.5t37.5 -127.5q0 -49 -9 -102.5t-28 -104.5t-47.5 -92t-68 -65.5t-90.5 -24.5zM177 79q24 0 43.5 20.5t34.5 54t25.5 73.5t16 80t5.5 73q0 40 -12 61.5t-38 21.5
q-25 0 -45 -21.5t-35 -56.5t-25 -76t-15 -80.5t-5 -68.5q0 -81 50 -81z" />
    <glyph glyph-name="afii10081" unicode="&#x43f;" horiz-adv-x="437" 
d="M-5 0l116 542h83l-7 -70h3q22 38 52.5 59t65.5 21q42 0 73 -25.5t31 -85.5q0 -19 -3.5 -43.5t-8.5 -51.5l-74 -346h-104l69 325q5 23 9 47t4 42q0 43 -38 43q-39 0 -64 -45.5t-42 -124.5l-60 -287h-105z" />
    <glyph glyph-name="afii10082" unicode="&#x440;" horiz-adv-x="439" 
d="M-53 -235l164 777h85l-7 -76h3q54 86 122 86q50 0 78.5 -38.5t28.5 -117.5q0 -46 -8.5 -100.5t-26 -108.5t-43.5 -98.5t-60.5 -71.5t-78.5 -27q-34 0 -58 19.5t-34 53.5h-3q-4 -26 -8 -50.5t-8 -43.5l-43 -204h-103zM188 81q23 0 42.5 21t35 55t26.5 74.5t16.5 81
t5.5 73.5q0 77 -41 77q-26 0 -46.5 -22.5t-37 -59t-27.5 -78.5t-16.5 -81.5t-5.5 -68.5q0 -72 48 -72z" />
    <glyph glyph-name="afii10083" unicode="&#x441;" horiz-adv-x="343" 
d="M161 -10q-67 0 -102.5 43.5t-35.5 124.5q0 48 8.5 102t27 106t47.5 94t69 67t93 25q60 0 106 -30l-42 -84q-31 23 -64 23q-36 0 -62 -30t-43 -76t-25 -95.5t-8 -88.5q0 -91 57 -91q39 0 91 35v-90q-22 -14 -53 -24.5t-64 -10.5z" />
    <glyph glyph-name="afii10084" unicode="&#x442;" horiz-adv-x="649" 
d="M-5 0l116 542h84l-8 -68h3q22 37 52 57.5t67 20.5q78 0 96 -69h3q23 32 53.5 50.5t67.5 18.5q46 0 71.5 -28t25.5 -81q0 -16 -3 -35.5t-7 -39.5l-78 -368h-103l72 343q5 19 7.5 37t2.5 30q0 47 -37 47q-25 0 -42.5 -19.5t-29 -48.5t-17.5 -59l-70 -330h-104l74 348
q8 38 8 63q0 46 -36 46q-29 0 -48.5 -24.5t-32 -62.5t-20.5 -78l-62 -292h-105z" />
    <glyph glyph-name="afii10085" unicode="&#x443;" horiz-adv-x="379" 
d="M-22 -240q-37 0 -61 9l16 93q11 -4 21 -6t21 -2q26 0 42 19t31 53l36 79l-20 537h104l1 -272q0 -56 -3 -112h3q9 28 19 56.5t17 47.5l118 280h109l-284 -632q-20 -45 -42.5 -78.5t-53 -52.5t-74.5 -19z" />
    <glyph glyph-name="afii10086" unicode="&#x444;" horiz-adv-x="569" 
d="M127 -240l49 235q-75 7 -115 57t-40 141q0 57 16 117.5t49 113.5t84 86.5t122 35.5l45 214h102l-45 -215q74 -9 113.5 -56t39.5 -139q0 -57 -16.5 -118.5t-50 -115t-84.5 -87t-120 -35.5l-49 -234h-100zM194 84l79 373q-36 -3 -63.5 -28.5t-46 -65.5t-28 -86.5
t-9.5 -89.5q0 -38 16.5 -67.5t51.5 -35.5zM297 84q39 2 66.5 31t45 72t26 88.5t8.5 79.5q0 41 -16.5 69t-51.5 33z" />
    <glyph glyph-name="afii10087" unicode="&#x445;" horiz-adv-x="382" 
d="M-48 0l176 280l-55 262h110l27 -173l98 173h116l-169 -267l59 -275h-110l-31 186l-108 -186h-113z" />
    <glyph glyph-name="afii10088" unicode="&#x446;" horiz-adv-x="460" 
d="M242 -192l41 197q-17 7 -25 21.5t-9 41.5h-3q-50 -78 -121 -78q-48 0 -75 28.5t-27 83.5q0 18 3.5 42t8.5 46l75 352h103l-70 -332q-11 -47 -11 -79q0 -47 35 -47q38 0 64.5 46t42.5 125l62 287h103l-77 -364q-4 -20 -7 -37t-3 -29q0 -14 7 -19.5t18 -5.5q13 0 26 4
l-60 -283h-101z" />
    <glyph glyph-name="afii10089" unicode="&#x447;" horiz-adv-x="431" 
d="M214 0l38 176q3 13 7.5 29t9.5 30h-2q-20 -29 -51 -45.5t-63 -16.5q-47 0 -72.5 32t-25.5 77q0 51 15 111l32 149h103l-31 -148q-5 -24 -8.5 -44t-3.5 -40q0 -19 9.5 -31.5t27.5 -12.5q37 0 62 35t41 113l28 128h104l-116 -542h-104z" />
    <glyph glyph-name="afii10090" unicode="&#x448;" horiz-adv-x="648" 
d="M121 -10q-47 0 -72.5 29t-25.5 82q0 17 3.5 39t7.5 44l77 358h103l-71 -334q-6 -25 -8.5 -43.5t-2.5 -31.5q0 -49 37 -49q27 0 45 22.5t29.5 56t18.5 67.5l67 312h104l-73 -341q-4 -20 -6.5 -38.5t-2.5 -31.5q0 -47 35 -47q28 0 47 25.5t31.5 64t20.5 76.5l62 292h104
l-115 -542h-83l5 63h-3q-23 -35 -51 -54t-63 -19q-40 0 -63.5 17t-33.5 52h-2q-23 -32 -54 -50.5t-67 -18.5z" />
    <glyph glyph-name="afii10091" unicode="&#x449;" horiz-adv-x="669" 
d="M452 -192l42 197q-16 7 -25 20t-10 38h-3q-47 -73 -115 -73q-40 0 -63.5 17t-33.5 52h-2q-23 -32 -54 -50.5t-67 -18.5q-47 0 -72.5 29t-25.5 82q0 17 3.5 39t7.5 44l77 358h103l-71 -334q-6 -25 -8.5 -43.5t-2.5 -31.5q0 -49 37 -49q27 0 45 22.5t29.5 56t18.5 67.5
l67 312h104l-73 -341q-4 -20 -6.5 -38.5t-2.5 -31.5q0 -47 35 -47q28 0 47 25.5t31.5 64t20.5 76.5l62 292h104l-82 -385q-7 -28 -7 -45q0 -14 7.5 -19.5t18.5 -5.5q4 0 10.5 1t15.5 3l-61 -283h-101z" />
    <glyph glyph-name="afii10092" unicode="&#x44a;" horiz-adv-x="459" 
d="M216 -10q-69 0 -101 33t-32 91q0 20 3.5 41t8.5 43l54 251h-104l20 93h207l-47 -222q17 3 46 3q140 0 140 -137q0 -87 -51.5 -141.5t-143.5 -54.5zM230 70q34 0 54.5 33.5t20.5 74.5q0 65 -54 65q-10 0 -21 -1.5t-22 -3.5q-12 -51 -16.5 -77.5t-4.5 -39.5
q0 -20 8.5 -35.5t34.5 -15.5z" />
    <glyph glyph-name="afii10093" unicode="&#x44b;" horiz-adv-x="590" 
d="M156 -10q-59 0 -95.5 28.5t-36.5 95.5q0 27 9 72l76 356h104l-47 -222q15 3 46 3q72 0 106.5 -35.5t34.5 -101.5q0 -90 -54 -143t-143 -53zM374 0l115 542h104l-116 -542h-103zM169 71q36 0 56.5 32.5t20.5 74.5q0 65 -55 65q-10 0 -21 -1.5t-22 -3.5q-12 -52 -17 -79
t-5 -38q0 -19 9 -34.5t34 -15.5z" />
    <glyph glyph-name="afii10094" unicode="&#x44c;" horiz-adv-x="401" 
d="M156 -10q-59 0 -95.5 28.5t-36.5 95.5q0 28 9 74l76 354h104l-47 -223q8 2 20 3t26 1q73 0 107.5 -35.5t34.5 -101.5q0 -94 -55 -145t-143 -51zM169 71q36 0 57 32t21 75q0 65 -55 65q-21 0 -44 -5q-12 -52 -17 -79t-5 -38q0 -19 9 -34.5t34 -15.5z" />
    <glyph glyph-name="afii10095" unicode="&#x44d;" horiz-adv-x="352" 
d="M79 -10q-61 0 -97 20v99q20 -16 43.5 -24t45.5 -8q38 0 63.5 22.5t41.5 58.5t26 78h-128l18 81h126q2 13 3 29t1 30q0 88 -62 88q-18 0 -36.5 -5t-36.5 -16l-22 78q23 13 57 22t66 9q68 0 104.5 -43t36.5 -120q0 -48 -8 -102.5t-26 -107t-47 -95.5t-71 -68.5t-98 -25.5z
" />
    <glyph glyph-name="afii10096" unicode="&#x44e;" horiz-adv-x="611" 
d="M353 -10q-67 0 -102 43t-35 125q0 18 1 37.5t5 39.5h-72l-50 -235h-104l116 542h102l-45 -218h71q18 62 46.5 113.5t70 83t95.5 31.5q65 0 101 -44t36 -126q0 -44 -8.5 -96.5t-26.5 -104.5t-46 -95.5t-66.5 -69.5t-88.5 -26zM362 79q23 0 42 21.5t34 56t25 75t15.5 80
t5.5 70.5q0 80 -44 80q-23 0 -42.5 -21.5t-34.5 -56.5t-25 -76t-15.5 -81t-5.5 -70q0 -78 45 -78z" />
    <glyph glyph-name="afii10097" unicode="&#x44f;" horiz-adv-x="419" 
d="M3 -6q-16 0 -27 2t-18 4v83q9 -3 24 -3q18 0 32 12t25 43q18 53 34.5 79.5t46.5 36.5q-27 13 -42.5 37t-15.5 70q0 88 56.5 136t145.5 48h156l-114 -542h-104l46 221h-23q-20 0 -34 -8t-26.5 -32.5t-30.5 -72.5q-23 -64 -53.5 -89t-77.5 -25zM231 294h34l35 170h-38
q-32 0 -53 -16t-31 -40.5t-10 -51.5q0 -29 14.5 -45.5t48.5 -16.5z" />
    <glyph glyph-name="afii10071" unicode="&#x451;" horiz-adv-x="407" 
d="M175 -10q-71 0 -112 45t-41 126q0 76 17 146t49 125t78 87t104 32q56 0 90 -31.5t34 -89.5q0 -93 -68.5 -143.5t-186.5 -50.5h-8q-6 -32 -6 -64q0 -51 18.5 -73.5t56.5 -22.5q30 0 55 7.5t59 26.5v-83q-32 -20 -66.5 -28.5t-72.5 -8.5zM146 313h3q82 0 115.5 30.5
t33.5 78.5q0 45 -43 45q-33 0 -62.5 -41.5t-46.5 -112.5zM364 625q-44 0 -44 44q0 29 17 52t48 23q42 0 42 -42q0 -34 -18.5 -55.5t-44.5 -21.5zM201 625q-43 0 -43 44q0 29 17 52t48 23q40 0 40 -42q0 -34 -18 -55.5t-44 -21.5z" />
    <glyph glyph-name="afii10099" unicode="&#x452;" horiz-adv-x="437" 
d="M157 -237q-16 0 -30 1.5t-28 6.5v92q9 -4 22 -6t23 -2q33 0 46.5 29t23.5 78l78 367q4 18 6.5 35.5t2.5 34.5q0 21 -9 33.5t-27 12.5q-37 0 -61.5 -37t-41.5 -120l-62 -288h-104l127 598h-54l16 77h55l17 85h104l-19 -85h94l-16 -77h-94l-11 -50q-4 -21 -10.5 -42
t-13.5 -39h3q22 35 50 54t66 19q47 0 73.5 -30t26.5 -82q0 -16 -3 -37.5t-7 -42.5l-83 -394q-13 -60 -31 -103t-48.5 -65.5t-80.5 -22.5z" />
    <glyph glyph-name="afii10100" unicode="&#x453;" horiz-adv-x="347" 
d="M148 -10q-62 0 -103.5 29t-43.5 100q0 72 36 116.5t94 75.5q43 25 72 49.5t29 62.5q0 21 -13.5 30.5t-33.5 9.5q-25 0 -46 -8.5t-40 -18.5l-25 77q31 19 62.5 29t66.5 10q66 0 100.5 -34t34.5 -92q0 -68 -35.5 -109t-88.5 -70q-59 -34 -81 -58.5t-22 -60.5
q0 -25 16.5 -37t41.5 -12t52.5 9t52.5 23v-90q-28 -16 -61 -23.5t-65 -7.5zM169 606l1 10q32 39 59.5 77.5t48.5 72.5h120l-1 -8q-11 -14 -31.5 -35t-44 -44t-45 -42.5t-34.5 -30.5h-73z" />
    <glyph glyph-name="afii10101" unicode="&#x454;" horiz-adv-x="354" 
d="M161 -10q-66 0 -102.5 43t-36.5 123q0 49 9 103t27 106t47.5 94.5t70 67.5t93.5 25q63 0 108 -30l-42 -81q-13 11 -31.5 17t-34.5 6q-30 0 -53.5 -23t-39.5 -57t-25 -67h127l-18 -81h-126q-2 -16 -3.5 -34.5t-1.5 -35.5q0 -46 15 -67.5t42 -21.5q44 0 96 34v-86
q-22 -15 -57 -25t-64 -10z" />
    <glyph glyph-name="afii10102" unicode="&#x455;" horiz-adv-x="339" 
d="M114 -10q-41 0 -71 7.5t-51 19.5v102q22 -17 53 -27.5t57 -10.5q34 0 54.5 18.5t20.5 53.5q0 23 -10.5 44t-43.5 53q-37 34 -52.5 66.5t-15.5 72.5q0 45 19 82t55.5 59t88.5 22q40 0 75.5 -11t59.5 -29l-42 -80q-21 16 -45 24.5t-44 8.5q-28 0 -44.5 -16.5t-16.5 -44.5
q0 -22 9.5 -40.5t40.5 -47.5q26 -24 42.5 -45.5t24.5 -46t8 -60.5q0 -76 -45 -125t-127 -49z" />
    <glyph glyph-name="afii10103" unicode="&#x456;" horiz-adv-x="211" 
d="M183 620q-50 0 -50 46q0 30 17.5 56.5t53.5 26.5q50 0 50 -45q0 -34 -20 -59t-51 -25zM-4 0l115 542h103l-114 -542h-104z" />
    <glyph glyph-name="afii10104" unicode="&#x457;" horiz-adv-x="211" 
d="M-4 0l115 542h103l-115 -542h-103zM255 625q-44 0 -44 44q0 29 17 52t48 23q42 0 42 -42q0 -34 -18.5 -55.5t-44.5 -21.5zM92 625q-43 0 -43 44q0 29 17 52t48 23q40 0 40 -42q0 -34 -18 -55.5t-44 -21.5z" />
    <glyph glyph-name="afii10105" unicode="&#x458;" horiz-adv-x="212" 
d="M184 620q-50 0 -50 46q0 30 17.5 56.5t53.5 26.5q50 0 50 -45q0 -34 -19.5 -59t-51.5 -25zM-69 -240q-16 0 -30.5 1.5t-28.5 6.5v93q9 -5 21.5 -7t23.5 -2q31 0 45 23.5t27 84.5l123 582h103l-125 -590q-12 -58 -29.5 -101.5t-48 -67t-81.5 -23.5z" />
    <glyph glyph-name="afii10106" unicode="&#x459;" horiz-adv-x="620" 
d="M376 -10q-68 0 -98.5 31.5t-30.5 92.5q0 34 9 72l57 269q-4 1 -8.5 1h-9.5q-49 0 -73 -53.5t-45 -151.5q-17 -79 -38 -137t-53 -89.5t-86 -31.5q-16 0 -26 2.5t-21 7.5v90q7 -5 17 -6.5t15 -1.5q21 1 37 17.5t29.5 56.5t28.5 109q20 96 48 157.5t73 91.5t117 30
q31 0 59.5 -2.5t56.5 -6.5l-47 -218q7 2 19.5 2.5t25.5 0.5q141 0 141 -137q0 -58 -24 -102t-68.5 -69t-104.5 -25zM389 71q25 0 42.5 16.5t26 41t8.5 49.5q0 65 -55 65q-9 0 -19.5 -1.5t-21.5 -3.5q-12 -56 -17 -81t-5 -36q0 -50 41 -50z" />
    <glyph glyph-name="afii10107" unicode="&#x45a;" horiz-adv-x="623" 
d="M379 -10q-68 0 -99.5 33t-31.5 91q0 18 4 47t15 76h-116l-51 -237h-104l116 542h103l-45 -216h116l47 216h103l-46 -222q17 5 44 5q141 -2 141 -139q0 -86 -52.5 -141t-143.5 -55zM393 71q25 0 41.5 16.5t25 41.5t8.5 49q0 66 -54 66q-18 0 -41 -5q-13 -53 -18 -78.5
t-5 -39.5q0 -50 43 -50z" />
    <glyph glyph-name="afii10108" unicode="&#x45b;" horiz-adv-x="438" 
d="M-4 0l127 599h-57l16 78h58l17 83h104l-18 -83h89l-16 -78h-89q-13 -59 -21 -86t-15 -46h3q22 35 50 54t66 19q46 0 73 -30t27 -82q0 -20 -4 -46.5t-9 -50.5l-70 -331h-104l65 309q5 24 9 48t4 45q0 43 -38 43q-37 0 -61 -38.5t-40 -118.5l-62 -288h-104z" />
    <glyph glyph-name="afii10109" unicode="&#x45c;" horiz-adv-x="400" 
d="M-4 0l116 542h103l-54 -255l172 255h114l-186 -263l82 -279h-111l-74 273l-58 -273h-104zM218 606l1 10q32 39 59.5 77.5t48.5 72.5h120l-1 -8q-11 -14 -31.5 -35t-44 -44t-45 -42.5t-34.5 -30.5h-73z" />
    <glyph glyph-name="afii10110" unicode="&#x45e;" horiz-adv-x="379" 
d="M-22 -240q-37 0 -61 9l16 93q11 -4 21 -6t21 -2q26 0 42 19t31 53l36 79l-20 537h104l1 -272q0 -56 -3 -112h3q9 28 19 56.5t17 47.5l118 280h109l-284 -632q-20 -45 -42.5 -78.5t-53 -52.5t-74.5 -19zM258 602q-66 0 -96 31.5t-30 84.5q0 8 1 20t3 22h84q-2 -10 -3 -20
t-1 -19q0 -54 47 -54q57 0 77 93h85q-18 -82 -60.5 -120t-106.5 -38z" />
    <glyph glyph-name="afii10193" unicode="&#x45f;" horiz-adv-x="437" 
d="M127 -10q-51 0 -77.5 29.5t-26.5 82.5q0 18 3.5 41t7.5 45l76 354h103l-70 -332q-11 -47 -11 -81q0 -45 36 -45q39 0 64.5 46t41.5 125l62 287h103l-114 -542h-83l4 67h-3q-23 -36 -52.5 -56.5t-63.5 -20.5zM56 -232l48 172l88 28h16l-52 -200h-100z" />
    <glyph glyph-name="afii10050" unicode="&#x490;" horiz-adv-x="368" 
d="M-2 0l152 714h186l32 150h105l-52 -246l-183 1l-132 -619h-108z" />
    <glyph glyph-name="afii10098" unicode="&#x491;" horiz-adv-x="314" 
d="M-8 0l115 542h145l32 151h100l-51 -241h-141l-96 -452h-104z" />
    <glyph glyph-name="Wgrave" unicode="&#x1e80;" horiz-adv-x="682" 
d="M69 0l20 714h105l-14 -400q-4 -83 -9 -134h2q11 33 24 66.5t26 67.5l157 400h94l-14 -391q-2 -44 -4 -77t-4 -65h2q12 36 24 69t26 69l152 395h110l-280 -714h-125l13 388q0 22 2 48t4 53h-2q-8 -23 -15.5 -47t-16.5 -47l-153 -395h-124zM420 779q-13 17 -31 45t-34 56.5
t-24 49.5v9h118q8 -34 18.5 -71t26.5 -78l-1 -11h-73z" />
    <glyph glyph-name="wgrave" unicode="&#x1e81;" horiz-adv-x="587" 
d="M52 0l12 542h101l-9 -263q-2 -31 -4.5 -59.5t-4.5 -55.5h3q7 25 16.5 52.5t18.5 51.5l105 274h118l-11 -266q-1 -28 -3 -58.5t-4 -58.5h2q10 31 21 64t24 65l96 254h104l-217 -542h-121l14 305q1 24 3 47.5t4 48.5h-2q-7 -21 -13.5 -40t-13.5 -39l-123 -322h-116z
M342 606q-13 17 -31 45t-34 56.5t-24 49.5v9h118q8 -34 18.5 -71t26.5 -78l-1 -11h-73z" />
    <glyph glyph-name="Wacute" unicode="&#x1e82;" horiz-adv-x="682" 
d="M69 0l20 714h105l-14 -400q-4 -83 -9 -134h2q11 33 24 66.5t26 67.5l157 400h94l-14 -391q-2 -44 -4 -77t-4 -65h2q12 36 24 69t26 69l152 395h110l-280 -714h-125l13 388q0 22 2 48t4 53h-2q-8 -23 -15.5 -47t-16.5 -47l-153 -395h-124zM379 778l1 10q32 39 59.5 77.5
t48.5 72.5h120l-1 -8q-11 -14 -31.5 -35t-44 -44t-45 -42.5t-34.5 -30.5h-73z" />
    <glyph glyph-name="wacute" unicode="&#x1e83;" horiz-adv-x="587" 
d="M52 0l12 542h101l-9 -263q-2 -31 -4.5 -59.5t-4.5 -55.5h3q7 25 16.5 52.5t18.5 51.5l105 274h118l-11 -266q-1 -28 -3 -58.5t-4 -58.5h2q10 31 21 64t24 65l96 254h104l-217 -542h-121l14 305q1 24 3 47.5t4 48.5h-2q-7 -21 -13.5 -40t-13.5 -39l-123 -322h-116z
M301 606l1 10q32 39 59.5 77.5t48.5 72.5h120l-1 -8q-11 -14 -31.5 -35t-44 -44t-45 -42.5t-34.5 -30.5h-73z" />
    <glyph glyph-name="Wdieresis" unicode="&#x1e84;" horiz-adv-x="682" 
d="M69 0l20 714h105l-14 -400q-4 -83 -9 -134h2q11 33 24 66.5t26 67.5l157 400h94l-14 -391q-2 -44 -4 -77t-4 -65h2q12 36 24 69t26 69l152 395h110l-280 -714h-125l13 388q0 22 2 48t4 53h-2q-8 -23 -15.5 -47t-16.5 -47l-153 -395h-124zM513 790q-44 0 -44 44
q0 29 17 52t48 23q42 0 42 -42q0 -34 -18.5 -55.5t-44.5 -21.5zM350 790q-43 0 -43 44q0 29 17 52t48 23q40 0 40 -42q0 -34 -18 -55.5t-44 -21.5z" />
    <glyph glyph-name="wdieresis" unicode="&#x1e85;" horiz-adv-x="587" 
d="M52 0l12 542h101l-9 -263q-2 -31 -4.5 -59.5t-4.5 -55.5h3q7 25 16.5 52.5t18.5 51.5l105 274h118l-11 -266q-1 -28 -3 -58.5t-4 -58.5h2q10 31 21 64t24 65l96 254h104l-217 -542h-121l14 305q1 24 3 47.5t4 48.5h-2q-7 -21 -13.5 -40t-13.5 -39l-123 -322h-116z
M444 625q-44 0 -44 44q0 29 17 52t48 23q42 0 42 -42q0 -34 -18.5 -55.5t-44.5 -21.5zM281 625q-43 0 -43 44q0 29 17 52t48 23q40 0 40 -42q0 -34 -18 -55.5t-44 -21.5z" />
    <glyph glyph-name="Ygrave" unicode="&#x1ef2;" horiz-adv-x="399" 
d="M83 0l57 273l-53 441h113l23 -298l149 298h115l-237 -438l-59 -276h-108zM272 779q-13 17 -31 45t-34 56.5t-24 49.5v9h118q8 -34 18.5 -71t26.5 -78l-1 -11h-73z" />
    <glyph glyph-name="ygrave" unicode="&#x1ef3;" horiz-adv-x="379" 
d="M-22 -240q-37 0 -61 9l16 93q11 -4 21 -6t21 -2q26 0 42 19t31 53l36 79l-20 537h104l1 -272q0 -56 -3 -112h3q9 28 19 56.5t17 47.5l118 280h109l-284 -632q-20 -45 -42.5 -78.5t-53 -52.5t-74.5 -19zM227 606q-13 17 -31 45t-34 56.5t-24 49.5v9h118q8 -34 18.5 -71
t26.5 -78l-1 -11h-73z" />
    <glyph glyph-name="endash" unicode="&#x2013;" horiz-adv-x="458" 
d="M21 226l19 88h395l-19 -88h-395z" />
    <glyph glyph-name="emdash" unicode="&#x2014;" horiz-adv-x="908" 
d="M21 226l19 88h845l-18 -88h-846z" />
    <glyph glyph-name="afii00208" unicode="&#x2015;" horiz-adv-x="918" 
d="M21 226l19 88h845l-18 -88h-846z" />
    <glyph glyph-name="underscoredbl" unicode="&#x2017;" horiz-adv-x="417" 
d="M-73 -122l13 59h420l-12 -59h-421zM-97 -239l12 59h421l-13 -59h-420z" />
    <glyph glyph-name="quoteleft" unicode="&#x2018;" horiz-adv-x="200" 
d="M64 457l-4 10q26 68 55.5 131t61.5 116h84q-11 -24 -24 -57.5t-26.5 -70t-24.5 -70.5t-18 -59h-104z" />
    <glyph glyph-name="quoteright" unicode="&#x2019;" horiz-adv-x="200" 
d="M57 457q28 63 51 128t42 129h104l3 -10q-49 -134 -116 -247h-84z" />
    <glyph glyph-name="quotesinglbase" unicode="&#x201a;" horiz-adv-x="223" 
d="M-50 -134q15 36 32.5 82t33.5 92t26 83h105l2 -10q-24 -67 -53.5 -129.5t-61.5 -117.5h-84z" />
    <glyph glyph-name="quotereversed" unicode="&#x201b;" horiz-adv-x="200" 
d="M122 457q-10 55 -15 119t-6 125l9 13h104q-6 -36 -7.5 -83.5t-0.5 -94t3 -79.5h-87z" />
    <glyph glyph-name="quotedblleft" unicode="&#x201c;" horiz-adv-x="382" 
d="M248 457l-3 10q25 68 55 131.5t61 115.5h84q-25 -59 -50.5 -128t-42.5 -129h-104zM66 457l-3 10q26 69 55.5 132t60.5 115h84q-15 -32 -33 -80t-34.5 -96t-25.5 -81h-104z" />
    <glyph glyph-name="quotedblright" unicode="&#x201d;" horiz-adv-x="382" 
d="M238 457q27 61 51 125.5t43 131.5h103l4 -10q-50 -134 -116 -247h-85zM56 457q26 61 50 125.5t43 131.5h104l2 -10q-24 -66 -53.5 -129t-61.5 -118h-84z" />
    <glyph glyph-name="quotedblbase" unicode="&#x201e;" horiz-adv-x="382" 
d="M119 -134q15 36 32.5 81.5t34 92t26.5 83.5h103l3 -11q-24 -66 -53.5 -128.5t-61.5 -117.5h-84zM-64 -134q26 59 51 129.5t42 127.5h104l2 -11q-24 -66 -53.5 -128.5t-61.5 -117.5h-84z" />
    <glyph glyph-name="dagger" unicode="&#x2020;" horiz-adv-x="415" 
d="M89 0l120 484l-129 -12l20 93l124 -13l26 208h106l-62 -208l132 13l-19 -93l-127 12l-86 -484h-105z" />
    <glyph glyph-name="daggerdbl" unicode="&#x2021;" horiz-adv-x="415" 
d="M89 0l58 190l-130 -14l20 93l124 -11l13 125l40 119l-130 -11l20 93l124 -13l23 189h105l-59 -189l133 13l-20 -93l-127 11l-12 -118l-41 -126l133 11l-20 -93l-127 14l-22 -190h-105z" />
    <glyph glyph-name="bullet" unicode="&#x2022;" horiz-adv-x="365" 
d="M199 218q-64 0 -99 38t-35 109q0 72 34.5 109.5t99.5 37.5q64 0 98.5 -38t34.5 -109t-35 -109t-98 -38z" />
    <glyph glyph-name="ellipsis" unicode="&#x2026;" horiz-adv-x="667" 
d="M60 -9q-54 0 -54 51q0 36 21 64t60 28q23 0 36.5 -13.5t13.5 -37.5q0 -41 -23 -66.5t-54 -25.5zM283 -9q-54 0 -54 51q0 36 21 64t60 28q23 0 36.5 -13.5t13.5 -37.5q0 -41 -23 -66.5t-54 -25.5zM507 -9q-54 0 -54 51q0 36 21 64t60 28q23 0 36.5 -13.5t13.5 -37.5
q0 -41 -23 -66.5t-54 -25.5z" />
    <glyph glyph-name="perthousand" unicode="&#x2030;" horiz-adv-x="958" 
d="M145 276q-46 0 -70.5 31t-24.5 95q0 33 6.5 75t20.5 85.5t35 80t50 59t66 22.5q44 0 69 -31t25 -95q0 -31 -6.5 -72.5t-20 -85t-34.5 -81t-50 -60.5t-66 -23zM111 0l381 714h83l-381 -714h-83zM154 351q16 0 29.5 19.5t24.5 49.5t18.5 64.5t11.5 65t4 49.5q0 50 -24 50
q-16 0 -29.5 -19t-24.5 -49t-18.5 -64t-11.5 -65t-4 -51q0 -50 24 -50zM462 -9q-95 0 -95 125q0 48 11.5 104t34 106t55.5 81.5t76 31.5q44 0 69.5 -30.5t25.5 -95.5q0 -32 -6.5 -74t-20 -85t-34.5 -80t-50 -60t-66 -23zM752 -9q-94 0 -94 125q0 48 11.5 104t34 106
t55.5 81.5t76 31.5t68.5 -30.5t25.5 -95.5q0 -32 -6.5 -74t-20 -85t-34.5 -80t-50 -60t-66 -23zM471 66q16 0 29.5 19t24 49t18 64t11.5 65t4 51q0 49 -24 49q-17 0 -30.5 -20t-24.5 -51t-18 -65.5t-11 -64.5t-4 -46q0 -50 25 -50zM762 66q16 0 29.5 19t24 49t18 64t11.5 65
t4 51q0 49 -24 49q-17 0 -30.5 -20t-24.5 -51t-18 -65.5t-11 -64.5t-4 -46q0 -50 25 -50z" />
    <glyph glyph-name="minute" unicode="&#x2032;" horiz-adv-x="206" 
d="M58 490l104 224h113l-134 -224h-83z" />
    <glyph glyph-name="second" unicode="&#x2033;" horiz-adv-x="386" 
d="M238 490l104 224h113l-134 -224h-83zM58 490l104 224h113l-134 -224h-83z" />
    <glyph glyph-name="guilsinglleft" unicode="&#x2039;" horiz-adv-x="265" 
d="M122 51l-99 211l2 13l169 208l73 -45l-135 -172l73 -179z" />
    <glyph glyph-name="guilsinglright" unicode="&#x203a;" horiz-adv-x="265" 
d="M66 51l-73 45l134 173l-72 178l82 36l100 -211l-2 -12z" />
    <glyph glyph-name="exclamdbl" unicode="&#x203c;" horiz-adv-x="455" 
d="M272 216l90 498h121l-124 -498h-87zM270 -9q-25 0 -39.5 12.5t-14.5 38.5q0 36 21 64t61 28q23 0 36.5 -13.5t13.5 -37.5q0 -41 -23 -66.5t-55 -25.5zM60 216l90 498h121l-124 -498h-87zM58 -9q-25 0 -39.5 12.5t-14.5 38.5q0 36 21 64t61 28q23 0 36.5 -13.5t13.5 -37.5
q0 -41 -23 -66.5t-55 -25.5z" />
    <glyph glyph-name="fraction" unicode="&#x2044;" horiz-adv-x="102" 
d="M-232 0l507 714h85l-508 -714h-84z" />
    <glyph glyph-name="nsuperior" unicode="&#x207f;" horiz-adv-x="284" 
d="M49.75 287l75.4023 325.187h53.9521l-4.5498 -41.998h1.9502q14.2998 22.7988 34.126 35.3984t42.5762 12.5996q27.3018 0 47.4521 -15.2998q20.1514 -15.2988 20.1514 -51.2979q0 -11.3994 -2.27539 -26.0986t-5.52539 -30.8984l-48.1016 -207.592h-67.6025
l44.8516 194.992q3.25 13.7988 5.85059 28.1992q2.59961 14.3984 2.59961 25.1982q0 25.7988 -24.7012 25.7988q-25.3506 0 -41.6016 -27.2988q-16.25 -27.2988 -27.3008 -74.6963l-39.002 -172.193h-68.252z" />
    <glyph glyph-name="franc" unicode="&#x20a3;" horiz-adv-x="418" 
d="M38 0l26 126h-65l18 81h65l107 507h276l-19 -95h-170l-44 -210h156l-20 -95h-156l-23 -107h106l-18 -81h-106l-26 -126h-107z" />
    <glyph glyph-name="afii08941" unicode="&#x20a4;" horiz-adv-x="418" 
d="M-20 0l20 89q40 18 58 49.5t32 92.5h-67l16 72h65l18 79h-67l16 72h66l19 93q17 82 59 129.5t119 47.5q73 0 123 -41l-46 -86q-17 14 -36 22.5t-39 8.5q-38 0 -54 -28t-24 -68l-16 -78h107l-15 -72h-108l-16 -79h108l-16 -72h-107q-13 -60 -30 -89t-54 -46h230l-20 -96
h-341z" />
    <glyph glyph-name="peseta" unicode="&#x20a7;" horiz-adv-x="625" 
d="M-7 0l152 714h103q83 0 128 -41.5t45 -119.5q0 -53 -14.5 -104t-44.5 -92t-76.5 -66t-110.5 -25h-22l-56 -266h-104zM173 361h11q46 0 75 25t42 65.5t13 87.5q0 38 -18 59t-56 21h-12zM478 -10q-47 0 -68.5 27.5t-21.5 73.5q0 16 3 34.5t8 41.5l32 158h-47l9 43l61 37
l52 129h69l-27 -126h81l-17 -83h-82l-35 -167q-6 -24 -6 -43q0 -33 30 -33q8 0 21.5 2.5t26.5 8.5v-84q-22 -10 -45.5 -14.5t-43.5 -4.5z" />
    <glyph glyph-name="Euro" unicode="&#x20ac;" horiz-adv-x="418" 
d="M225 -10q-62 0 -96.5 26.5t-48.5 82t-14 142.5h-60l14 67h54q2 20 6 44t7 40h-51l14 66h55q23 78 56.5 138t82 94t117.5 34q36 0 67.5 -10t56.5 -30l-51 -86q-16 15 -35 23t-44 8q-39 0 -66.5 -24t-47 -63.5t-32.5 -83.5h141l-15 -66h-143q-4 -16 -8 -39.5t-6 -44.5h124
l-15 -67h-117q0 -81 14 -118.5t58 -37.5q26 0 47 6.5t46 19.5l20 -88q-27 -14 -61 -23.5t-69 -9.5z" />
    <glyph glyph-name="afii61248" unicode="&#x2105;" horiz-adv-x="581" 
d="M168 372q-51 0 -75 31t-24 86q0 41 11 82.5t32 75.5t52.5 54.5t71.5 20.5q44 0 76 -21l-31 -66q-29 19 -50 19q-20 0 -35.5 -16.5t-25.5 -41.5t-15 -52.5t-5 -49.5q0 -54 36 -54q31 0 69 21l-14 -69q-33 -20 -73 -20zM43 0l412 714h79l-412 -714h-79zM379 -8
q-49 0 -74 30t-25 84q0 40 10 82t30 76.5t49 56t67 21.5q50 0 74 -31t24 -84q0 -40 -10.5 -81.5t-30 -76t-48.5 -56t-66 -21.5zM385 59q18 0 32 19t23 47t14 56.5t5 48.5q0 47 -29 47q-19 0 -33 -19t-23 -47t-13.5 -57t-4.5 -49q0 -46 29 -46z" />
    <glyph glyph-name="afii61289" unicode="&#x2113;" horiz-adv-x="418" 
d="M229 -8q-71 0 -103 45t-32 147v77q-16 -7 -33.5 -13t-32.5 -11v82q16 5 33 10t33 13v190q0 96 33 143.5t103 47.5q66 0 98.5 -46t32.5 -120q0 -181 -166 -261v-123q0 -52 10.5 -76t36.5 -24q49 0 50 104h86q-2 -91 -35 -138t-114 -47zM195 382q75 52 75 174
q0 31 -10 59.5t-29 28.5t-27.5 -20t-8.5 -63v-179z" />
    <glyph glyph-name="afii61352" unicode="&#x2116;" horiz-adv-x="754" 
d="M-3 0l151 714h123l46 -501q8 48 12 71t8 42l81 388h100l-151 -714h-121l-49 506q-3 -25 -7 -50t-9 -48l-84 -408h-100zM578 142q-52 0 -77 30t-25 85q0 41 10 82t30 75t49.5 54.5t68.5 20.5q52 0 77 -32t25 -85q0 -39 -10.5 -79.5t-30.5 -74.5t-49.5 -55t-67.5 -21z
M584 208q20 0 34.5 17.5t23.5 44t13.5 54.5t4.5 50q0 49 -33 49q-18 0 -32 -17t-23.5 -43t-14.5 -54.5t-5 -52.5q0 -48 32 -48zM435 0l15 72h218l-15 -72h-218z" />
    <glyph glyph-name="trademark" unicode="&#x2122;" horiz-adv-x="663" 
d="M272 362v352h98l72 -243l75 243h94v-352h-68v182q0 16 0.5 35.5t1.5 34.5h-3l-79 -252h-47l-76 253h-3q1 -18 2 -36.5t1 -31.5v-185h-68zM89 362v285h-81v67h235v-67h-82v-285h-72z" />
    <glyph glyph-name="uni03A9" unicode="&#x3a9;" horiz-adv-x="526" 
d="M-39 0l20 96h124q-30 34 -44 85t-14 107q0 76 20 153t57.5 141.5t91.5 103.5t123 39q89 0 135 -56.5t46 -147.5q0 -83 -22 -163.5t-63 -148t-99 -113.5h125l-21 -96h-213l20 99q38 32 67.5 80t50 104t31 114.5t10.5 110.5q0 120 -78 120q-36 0 -64.5 -26.5t-49.5 -69
t-35 -93t-21 -99.5t-7 -87q0 -95 40 -154l-21 -99h-209z" />
    <glyph glyph-name="estimated" unicode="&#x212e;" horiz-adv-x="557" 
d="M277 -17q-74 0 -126 38t-79.5 101t-27.5 137q0 79 28.5 141t81 98.5t123.5 36.5q67 1 120 -34.5t83 -98t30 -143.5h-363v-174q22 -26 58.5 -43t71.5 -17q63 0 102.5 28t72.5 86l30 -20q-38 -68 -84.5 -102t-120.5 -34zM147 301h262v135q-23 26 -58 42t-75 16
q-76 0 -129 -57v-136z" />
    <glyph glyph-name="oneeighth" unicode="&#x215b;" horiz-adv-x="697" 
d="M59 0l507 714h85l-508 -714h-84zM129 286l61 280q4 15 7 27t6 23q-15 -15 -24 -21l-57 -42l-34 51l144 110h69l-91 -428h-81zM493 -13q-57 0 -87.5 26t-30.5 76q0 46 25 76.5t73 53.5q-39 36 -39 90q0 55 36.5 89t96.5 34q50 0 77.5 -24.5t27.5 -68.5q0 -75 -88 -117
q26 -16 40 -39t14 -60q0 -62 -41.5 -99t-103.5 -37zM539 251q25 12 41 31.5t16 48.5q0 39 -37 39q-25 0 -38 -18t-13 -43q0 -35 31 -58zM498 50q28 0 45 20.5t17 52.5q0 22 -11 37.5t-28 25.5q-28 -12 -47 -34t-19 -53q0 -20 10.5 -34.5t32.5 -14.5z" />
    <glyph glyph-name="threeeighths" unicode="&#x215c;" horiz-adv-x="716" 
d="M128 278q-31 0 -54.5 7t-40.5 19v78q36 -33 97 -33q34 0 54 20t20 52q0 25 -14.5 39t-39.5 14h-37l13 63h33q37 0 57.5 22t20.5 54q0 43 -40 43q-35 0 -73 -32l-30 56q27 22 57.5 33t62.5 11q54 0 79.5 -27t25.5 -69q0 -40 -22.5 -71t-65.5 -46l-1 -4q23 -10 38 -30.5
t15 -55.5q0 -66 -42 -104.5t-113 -38.5zM75 0l507 714h85l-508 -714h-84zM512 -12q-57 0 -87.5 26t-30.5 76q0 46 25 76.5t73 53.5q-39 36 -39 90q0 55 36.5 89t96.5 34q50 0 77.5 -24.5t27.5 -68.5q0 -75 -88 -117q26 -16 40 -39t14 -60q0 -62 -41.5 -99t-103.5 -37z
M558 252q25 12 41 31.5t16 48.5q0 39 -37 39q-25 0 -38 -18t-13 -43q0 -35 31 -58zM517 51q28 0 45 20.5t17 52.5q0 22 -11 37.5t-28 25.5q-28 -12 -47 -34t-19 -53q0 -20 10.5 -34.5t32.5 -14.5z" />
    <glyph glyph-name="fiveeighths" unicode="&#x215d;" horiz-adv-x="715" 
d="M73 0l507 714h85l-508 -714h-84zM126 279q-52 0 -91 21l12 73q17 -14 37.5 -20.5t42.5 -6.5q41 0 61 31t20 66q0 25 -12 39.5t-37 14.5q-7 0 -17 -2.5t-21 -6.5l-40 23l60 205h185l-15 -70h-123l-28 -91q10 1 19.5 2.5t17.5 1.5q47 0 71.5 -29.5t24.5 -77.5
q0 -44 -18 -83.5t-55 -64.5t-94 -25zM511 -12q-57 0 -87.5 26t-30.5 76q0 46 25 76.5t73 53.5q-39 36 -39 90q0 55 36.5 89t96.5 34q50 0 77.5 -24.5t27.5 -68.5q0 -75 -88 -117q26 -16 40 -39t14 -60q0 -62 -41.5 -99t-103.5 -37zM557 252q25 12 41 31.5t16 48.5
q0 39 -37 39q-25 0 -38 -18t-13 -43q0 -35 31 -58zM516 51q28 0 45 20.5t17 52.5q0 22 -11 37.5t-28 25.5q-28 -12 -47 -34t-19 -53q0 -20 10.5 -34.5t32.5 -14.5z" />
    <glyph glyph-name="seveneighths" unicode="&#x215e;" horiz-adv-x="689" 
d="M39 0l507 714h85l-508 -714h-84zM486 -12q-57 0 -87.5 26t-30.5 76q0 46 25 76.5t73 53.5q-39 36 -39 90q0 55 36.5 89t96.5 34q50 0 77.5 -24.5t27.5 -68.5q0 -75 -88 -117q26 -16 40 -39t14 -60q0 -62 -41.5 -99t-103.5 -37zM532 252q25 12 41 31.5t16 48.5
q0 39 -37 39q-25 0 -38 -18t-13 -43q0 -35 31 -58zM491 51q28 0 45 20.5t17 52.5q0 22 -11 37.5t-28 25.5q-28 -12 -47 -34t-19 -53q0 -20 10.5 -34.5t32.5 -14.5zM59 286l195 358h-158l15 70h242l-12 -58l-193 -370h-89z" />
    <glyph glyph-name="uni0394" unicode="&#x394;" horiz-adv-x="444" 
d="M-37 0v70l281 647h136l11 -648l-14 -69h-414zM88 97h192l4 397q0 26 0.5 52t1.5 64q-5 -20 -15.5 -53t-23.5 -64z" />
    <glyph glyph-name="cyrillicbreve" horiz-adv-x="464" 
d="M292 604q-66 0 -96 31.5t-30 84.5q0 8 1 20t3 22h84q-2 -10 -3 -20t-1 -19q0 -54 47 -54q57 0 77 93h85q-18 -82 -60.5 -120t-106.5 -38z" />
    <glyph glyph-name="caroncommaaccent" horiz-adv-x="394" 
d="M187 600v10q18 40 31 78t22 72h101v-10q-15 -34 -40 -76.5t-47 -73.5h-67z" />
    <glyph glyph-name="commaaccentrotate" horiz-adv-x="394" 
d="M181 606v10q9 23 25.5 50.5t35 54t35.5 45.5h65l1 -11q-9 -17 -22 -45t-24 -57t-17 -47h-99z" />
    <glyph glyph-name="uni2074" unicode="&#x2074;" horiz-adv-x="294" 
d="M176 416l18 86h-145l11 58l201 287h86l-60 -280h46l-14 -65h-45l-19 -86h-79zM132 567h76l25 115q4 17 7 32t7 29q-8 -14 -15.5 -28t-17.5 -28z" />
    <glyph glyph-name="uni2075" unicode="&#x2075;" horiz-adv-x="294" 
d="M148 409q-52 0 -91 21l12 73q17 -14 37.5 -20.5t42.5 -6.5q41 0 61 31t20 66q0 25 -12 39.5t-37 14.5q-7 0 -17 -2.5t-21 -6.5l-40 23l60 205h185l-15 -70h-123l-28 -91q10 1 19.5 2.5t17.5 1.5q47 0 71.5 -29.5t24.5 -77.5q0 -44 -18 -83.5t-55 -64.5t-94 -25z" />
    <glyph glyph-name="uni2077" unicode="&#x2077;" horiz-adv-x="294" 
d="M81 416l195 358h-158l15 70h242l-12 -58l-193 -370h-89z" />
    <glyph glyph-name="uni2078" unicode="&#x2078;" horiz-adv-x="294" 
d="M176 407q-57 0 -87.5 26t-30.5 76q0 46 25 76.5t73 53.5q-39 36 -39 90q0 55 36.5 89t96.5 34q50 0 77.5 -24.5t27.5 -68.5q0 -75 -88 -117q26 -16 40 -39t14 -60q0 -62 -41.5 -99t-103.5 -37zM222 671q25 12 41 31.5t16 48.5q0 39 -37 39q-25 0 -38 -18t-13 -43
q0 -35 31 -58zM181 470q28 0 45 20.5t17 52.5q0 22 -11 37.5t-28 25.5q-28 -12 -47 -34t-19 -53q0 -20 10.5 -34.5t32.5 -14.5z" />
    <glyph glyph-name="uni2000" unicode="&#x2000;" horiz-adv-x="500" 
 />
    <glyph glyph-name="uni2001" unicode="&#x2001;" horiz-adv-x="1000" 
 />
    <glyph glyph-name="uni2002" unicode="&#x2002;" horiz-adv-x="500" 
 />
    <glyph glyph-name="uni2003" unicode="&#x2003;" horiz-adv-x="1000" 
 />
    <glyph glyph-name="uni2004" unicode="&#x2004;" horiz-adv-x="333" 
 />
    <glyph glyph-name="uni2005" unicode="&#x2005;" horiz-adv-x="250" 
 />
    <glyph glyph-name="uni2006" unicode="&#x2006;" horiz-adv-x="167" 
 />
    <glyph glyph-name="uni2007" unicode="&#x2007;" horiz-adv-x="418" 
 />
    <glyph glyph-name="uni2008" unicode="&#x2008;" horiz-adv-x="220" 
 />
    <glyph glyph-name="uni2009" unicode="&#x2009;" horiz-adv-x="187" 
 />
    <glyph glyph-name="uni200A" unicode="&#x200a;" horiz-adv-x="100" 
 />
    <glyph glyph-name="uni200B" unicode="&#x200b;" 
 />
    <glyph glyph-name="uniFEFF" unicode="&#xfeff;" horiz-adv-x="7" 
 />
    <glyph glyph-name="uniFFFC" unicode="&#xfffc;" horiz-adv-x="1000" 
d="M916 593v94h-95v54h148v-148h-53zM630 687v54h133v-54h-133zM439 687v54h133v-54h-133zM41 593v148h148v-54h-94v-94h-54zM248 687v54h132v-54h-132zM916 402v132h53v-132h-53zM41 402v132h54v-132h-54zM294 160q-66 0 -97 40.5t-31 106.5q0 67 31 107t97 40t97 -40
t31 -107q0 -66 -31 -106.5t-97 -40.5zM728 161q-24 0 -39 5v50q7 -2 15 -3t18 -1q18 0 30 8.5t12 33.5v196h61v-194q0 -50 -27 -72.5t-70 -22.5zM463 164v286h84q53 0 80.5 -16t27.5 -57q0 -24 -11.5 -40t-32.5 -20v-4q22 -5 37 -18.5t15 -47.5q0 -39 -26.5 -61t-72.5 -22
h-101zM294 211q34 0 50 25.5t16 70.5t-16 70.5t-50 25.5t-50 -25.5t-16 -70.5t16 -70.5t50 -25.5zM523 337h32q23 0 31.5 8t8.5 24q0 31 -43 31h-29v-63zM41 210v133h54v-133h-54zM916 210v133h53v-133h-53zM523 214h36q24 0 33 10.5t9 28.5q0 16 -9.5 26t-34.5 10h-34v-75z
M916 19v132h53v-132h-53zM41 19v132h54v-132h-54zM821 -187v53h95v95h53v-148h-148zM41 -187v148h54v-95h94v-53h-148zM630 -187v53h133v-53h-133zM439 -187v53h133v-53h-133zM248 -187v53h132v-53h-132z" />
    <glyph glyph-name="uniFFFD" unicode="&#xfffd;" horiz-adv-x="1000" 
d="M499 -156l-458 458l458 458l459 -458zM428 179h103v23q0 25 10 39.5t43 40.5q43 34 64.5 65t21.5 80q0 67 -46 104t-126 37q-42 0 -86 -14t-78 -34l40 -87q33 17 64 28t58 11q31 0 46 -14t15 -37q0 -29 -13 -46t-46 -43q-38 -30 -54 -57.5t-16 -66.5v-29zM484 -21
q27 0 47.5 15.5t20.5 50.5q0 37 -20.5 52t-47.5 15q-29 0 -49 -15t-20 -52q0 -35 20 -50.5t49 -15.5z" />
    <glyph glyph-name="uni01F0" unicode="&#x1f0;" horiz-adv-x="211" 
d="M-69 -240q-16 0 -30.5 1.5t-28.5 6.5v93q9 -5 21.5 -7t23.5 -2q31 0 45 23.5t27 84.5l123 582h103l-125 -590q-12 -58 -29.5 -101.5t-48 -67t-81.5 -23.5zM124 606q-5 18 -14.5 46t-20.5 56t-20 47l2 11h62q10 -14 23.5 -35t28.5 -50q25 27 47 48.5t41 36.5h65l-2 -11
q-16 -17 -39.5 -44.5t-46 -56.5t-33.5 -48h-93z" />
    <glyph glyph-name="uni02BC" unicode="&#x2bc;" horiz-adv-x="200" 
d="M57 457q28 63 51 128t42 129h104l3 -10q-49 -134 -116 -247h-84z" />
    <glyph glyph-name="uni03D1" unicode="&#x3d1;" horiz-adv-x="486" 
d="M168 -10q-38 0 -69.5 10.5t-50.5 35t-19 67.5q0 27 7.5 54t15.5 53q7 22 12.5 41.5t5.5 34.5q0 24 -19 24q-13 0 -32 -9v88q13 5 34 9t40 4q37 0 60.5 -21t23.5 -62q0 -19 -6.5 -42t-13.5 -47q-8 -28 -15 -55t-7 -51q0 -47 41 -47q48 0 88.5 74t73.5 233q-94 1 -145.5 51
t-51.5 138q0 50 19.5 95.5t58 74t95.5 28.5q83 0 118 -50.5t35 -139.5q0 -26 -2 -52t-6 -56h53l-19 -89h-51q-43 -206 -107.5 -300t-166.5 -94zM354 473q9 61 9 105q0 46 -10.5 76.5t-40.5 30.5q-22 0 -36.5 -17t-22 -42.5t-7.5 -50.5q0 -52 28.5 -76.5t79.5 -25.5z" />
    <glyph glyph-name="uni03D2" unicode="&#x3d2;" horiz-adv-x="397" 
d="M83 0l57 273l-53 441h111l23 -298q36 80 69.5 145t61.5 105q19 27 38.5 40.5t48.5 13.5q34 0 54 -11l-17 -92q-11 7 -24 7q-16 0 -29 -14t-35 -51q-31 -56 -66.5 -130.5t-73.5 -158.5l-57 -270h-108z" />
    <glyph glyph-name="uni03D6" unicode="&#x3d6;" horiz-adv-x="606" 
d="M140 -10q-55 0 -81 40t-26 111q0 48 11 103t29.5 109.5t38.5 99.5h-73l10 46l62 43h537l-19 -89h-71q1 -12 2 -25t1 -28q0 -51 -8 -107.5t-24.5 -110t-42 -97t-59.5 -69.5t-77 -26q-91 0 -91 93q-22 -47 -50 -70t-69 -23zM169 86q21 0 33.5 20.5t21 54t17.5 73.5l20 91
h101l-19 -91q-7 -35 -11.5 -59.5t-4.5 -42.5q0 -46 28 -46q19 0 35 22.5t28.5 59t21.5 78.5t13.5 83t4.5 71q0 13 -0.5 26.5t-1.5 26.5h-238q-33 -75 -56 -157t-23 -153q0 -57 30 -57z" />
    <glyph glyph-name="uni1E3E" unicode="&#x1e3e;" horiz-adv-x="678" 
d="M-1 0l151 714h145l18 -529h2l235 529h156l-152 -714h-106l92 432q4 21 10 42.5t11 44.5h-2l-234 -519h-99l-17 516h-2q-6 -31 -10.5 -57t-9.5 -51l-86 -408h-102zM371 779l1 10q32 39 59.5 77.5t48.5 72.5h120l-1 -8q-11 -14 -31.5 -35t-44 -44t-45 -42.5t-34.5 -30.5
h-73z" />
    <glyph glyph-name="uni1E3F" unicode="&#x1e3f;" horiz-adv-x="649" 
d="M-5 0l116 542h84l-8 -68h3q22 37 52 57.5t67 20.5q78 0 96 -69h3q23 32 53.5 50.5t67.5 18.5q46 0 71.5 -28t25.5 -81q0 -16 -3 -35.5t-7 -39.5l-78 -368h-103l72 343q5 19 7.5 37t2.5 30q0 47 -37 47q-25 0 -42.5 -19.5t-29 -48.5t-17.5 -59l-70 -330h-104l74 348
q8 38 8 63q0 46 -36 46q-29 0 -48.5 -24.5t-32 -62.5t-20.5 -78l-62 -292h-105zM323 606l1 10q32 39 59.5 77.5t48.5 72.5h120l-1 -8q-11 -14 -31.5 -35t-44 -44t-45 -42.5t-34.5 -30.5h-73z" />
    <glyph glyph-name="uni1E00" unicode="&#x1e00;" horiz-adv-x="445" 
d="M-63 0l302 717h137l6 -717h-114l3 199h-136l-80 -199h-118zM171 295h105l5 230q0 24 1 46t3 43h-3q-4 -20 -10.5 -41.5t-14.5 -46.5zM139 -269q-50 0 -79 29.5t-29 77.5t29.5 77t78.5 29q46 0 77.5 -28.5t31.5 -75.5q0 -48 -29.5 -78.5t-79.5 -30.5zM138 -213
q25 0 38.5 14t13.5 37q0 22 -13.5 37t-38.5 15q-24 0 -37 -15t-13 -37q0 -51 50 -51z" />
    <glyph glyph-name="uni1E01" unicode="&#x1e01;" horiz-adv-x="443" 
d="M129 -10q-52 0 -80 41t-28 114q0 44 8 98t25 108.5t43 100t61 73t80 27.5q33 0 57 -19t35 -59h3l23 68h90l-115 -542h-84l3 73h-3q-26 -37 -53.5 -60t-64.5 -23zM170 79q29 0 50 26t36 65t25 78q11 47 16 80t5 61q0 71 -47 71q-23 0 -43 -21t-35.5 -55.5t-26.5 -75
t-16.5 -80.5t-5.5 -71q0 -78 42 -78zM127 -269q-50 0 -79 29.5t-29 77.5t29.5 77t78.5 29q46 0 77.5 -28.5t31.5 -75.5q0 -48 -29.5 -78.5t-79.5 -30.5zM126 -213q25 0 38.5 14t13.5 37q0 22 -13.5 37t-38.5 15q-24 0 -37 -15t-13 -37q0 -51 50 -51z" />
    <glyph glyph-name="uni02F3" unicode="&#x2f3;" horiz-adv-x="346" 
d="M95 -269q-50 0 -79 29.5t-29 77.5t29.5 77t78.5 29q46 0 77.5 -28.5t31.5 -75.5q0 -48 -29.5 -78.5t-79.5 -30.5zM94 -213q25 0 38.5 14t13.5 37q0 22 -13.5 37t-38.5 15q-24 0 -37 -15t-13 -37q0 -51 50 -51z" />
    <glyph glyph-name="Ohorn" unicode="&#x1a0;" horiz-adv-x="533" 
d="M208 -10q-88 0 -130.5 53.5t-42.5 167.5q0 67 12.5 139t37.5 139t62 120t85.5 84.5t108.5 31.5q110 0 148 -95q28 19 44.5 52.5t23.5 77.5h95l4 -10q-14 -72 -48 -123t-98 -77q1 -10 1 -20v-20q0 -70 -12.5 -143t-37.5 -140t-61.5 -120.5t-84.5 -85t-107 -31.5zM216 87
q36 0 65.5 30t51.5 79t37 106t22.5 112.5t7.5 97.5q0 116 -68 116q-35 0 -64 -28.5t-51.5 -75.5t-37.5 -102.5t-23 -111t-8 -100.5q0 -68 17 -95.5t51 -27.5z" />
    <glyph glyph-name="ohorn" unicode="&#x1a1;" horiz-adv-x="462" 
d="M162 -10q-67 0 -105 44.5t-38 126.5q0 66 15.5 134.5t46.5 126.5t76.5 94t105.5 36q85 0 120 -74q31 19 48.5 56t24.5 87h95l3 -10q-15 -79 -51 -130t-100 -71q1 -8 1 -16v-15q0 -66 -16 -134.5t-46.5 -126.5t-76 -93t-103.5 -35zM174 79q23 0 42.5 21t35 55t26 74.5
t16 80.5t5.5 72q0 80 -50 80q-24 0 -43.5 -21.5t-34.5 -57t-25.5 -76.5t-16 -80.5t-5.5 -68.5q0 -79 50 -79z" />
    <glyph glyph-name="Uhorn" unicode="&#x1af;" horiz-adv-x="559" 
d="M190 -10q-74 0 -115 41.5t-41 115.5q0 18 2.5 40.5t7.5 44.5l102 482h108l-103 -485q-8 -38 -8 -65q0 -77 62 -77q43 0 69 35t42 114l103 478h108l-23 -102q35 8 56 49t30 99h95l3 -10q-17 -93 -66 -148.5t-133 -63.5l-68 -316q-23 -110 -76.5 -171t-154.5 -61z" />
    <glyph glyph-name="uhorn" unicode="&#x1b0;" horiz-adv-x="505" 
d="M123 -10q-49 0 -75 29.5t-26 82.5q0 19 3 42t8 46l75 352h103l-71 -332q-4 -22 -7 -42.5t-3 -36.5q0 -46 36 -46q38 0 64 45.5t43 124.5l61 287h104l-15 -68q37 10 56.5 50.5t28.5 96.5h95l3 -10q-11 -57 -35 -103t-63.5 -74.5t-99.5 -33.5l-85 -400h-83l5 67h-3
q-23 -36 -53 -56.5t-66 -20.5z" />
    <glyph glyph-name="hook" 
d="M-240 594l13 74q64 8 64 56q0 18 -10.5 26t-25.5 8q-19 0 -40 -7v63q34 13 72 13q43 0 67 -23.5t24 -63.5q0 -39 -24.5 -67.5t-71.5 -37.5l-13 -41h-55z" />
    <glyph glyph-name="uni0400" unicode="&#x400;" horiz-adv-x="383" 
d="M-1 0l151 714h280l-20 -95h-172l-42 -200h160l-21 -95h-160l-49 -228h173l-20 -96h-280zM272 779q-13 17 -31 45t-34 56.5t-24 49.5v9h118q8 -34 18.5 -71t26.5 -78l-1 -11h-73z" />
    <glyph glyph-name="uni040D" unicode="&#x40d;" horiz-adv-x="549" 
d="M-1 0l151 714h105l-62 -289q-10 -51 -22.5 -108t-27.5 -110h3l305 507h127l-151 -714h-106l61 287q8 35 17 76t19 80.5t19 69.5h-4l-307 -513h-127zM350 779q-13 17 -31 45t-34 56.5t-24 49.5v9h118q8 -34 18.5 -71t26.5 -78l-1 -11h-73z" />
    <glyph glyph-name="uni0450" unicode="&#x450;" horiz-adv-x="407" 
d="M175 -10q-71 0 -112 45t-41 126q0 76 17 146t49 125t78 87t104 32q56 0 90 -31.5t34 -89.5q0 -93 -68.5 -143.5t-186.5 -50.5h-8q-6 -32 -6 -64q0 -51 18.5 -73.5t56.5 -22.5q30 0 55 7.5t59 26.5v-83q-32 -20 -66.5 -28.5t-72.5 -8.5zM146 313h3q82 0 115.5 30.5
t33.5 78.5q0 45 -43 45q-33 0 -62.5 -41.5t-46.5 -112.5zM261 606q-13 17 -31 45t-34 56.5t-24 49.5v9h118q8 -34 18.5 -71t26.5 -78l-1 -11h-73z" />
    <glyph glyph-name="uni045D" unicode="&#x45d;" horiz-adv-x="437" 
d="M127 -10q-51 0 -77.5 29.5t-26.5 82.5q0 18 3.5 41t7.5 45l76 354h103l-70 -332q-11 -47 -11 -81q0 -45 36 -45q39 0 64.5 46t41.5 125l62 287h103l-114 -542h-83l4 67h-3q-23 -36 -52.5 -56.5t-63.5 -20.5zM262 606q-13 17 -31 45t-34 56.5t-24 49.5v9h118
q8 -34 18.5 -71t26.5 -78l-1 -11h-73z" />
    <glyph glyph-name="uni0460" unicode="&#x460;" horiz-adv-x="710" 
d="M118 0q-32 140 -42.5 260t0 230t39.5 224h106q-39 -134 -47 -278t18 -278h3q11 34 24 67.5t29 70.5l100 230q5 48 12 95t17 93h94q-29 -134 -36.5 -277.5t9.5 -278.5h2q81 134 133.5 277t72.5 279h112q-22 -119 -59 -235t-95 -234.5t-144 -244.5h-95q-13 81 -19 157
t-8 144l-126 -301h-100z" />
    <glyph glyph-name="uni0461" unicode="&#x461;" horiz-adv-x="607" 
d="M90 0q-32 135 -38 273.5t13 268.5h107q-21 -98 -23.5 -204t14.5 -203h3q9 23 19.5 42.5t21.5 39.5l65 116q3 107 21 209h101q-22 -102 -27.5 -203.5t6.5 -203.5h2q40 64 68.5 127.5t49 131.5t37.5 148h104q-34 -161 -93.5 -296.5t-162.5 -245.5h-78q-9 47 -14.5 94.5
t-7.5 93.5l-106 -188h-82z" />
    <glyph glyph-name="uni0462" unicode="&#x462;" horiz-adv-x="448" 
d="M14 0l117 558h-73l17 82h73l27 121h108l-27 -121h116l-17 -82h-116l-27 -129h29q91 0 130 -46.5t39 -116.5q0 -51 -14.5 -98.5t-44.5 -85.5t-77 -60t-112 -22h-148zM142 95h38q40 0 66.5 22t39.5 59t13 82q0 40 -21.5 58t-62.5 18h-22z" />
    <glyph glyph-name="uni0463" unicode="&#x463;" horiz-adv-x="421" 
d="M178 -10q-69 0 -101 33t-32 91q0 16 2.5 35t6.5 37l59 279h-74l17 77h74l23 102h103l-22 -102h89l-17 -77h-89l-30 -145q15 3 46 3q141 0 141 -137q0 -56 -24 -100.5t-68 -70t-104 -25.5zM191 71q27 0 43.5 17.5t25 42.5t8.5 47q0 65 -54 65q-20 0 -45 -5
q-11 -41 -16 -70.5t-5 -45.5q0 -51 43 -51z" />
    <glyph glyph-name="uni0464" unicode="&#x464;" horiz-adv-x="632" 
d="M410 -10q-86 0 -128.5 60t-42.5 175q0 23 2 47t6 50h-72l-68 -322h-108l151 714h108l-63 -297h73q23 81 64 151t98.5 113t129.5 43q43 0 74.5 -10t57.5 -30l-53 -87q-40 31 -83 31q-44 0 -78.5 -31t-59.5 -79.5t-41 -100.5h185l-20 -95h-187q-4 -25 -6 -49t-2 -46
q0 -75 20 -108t65 -33q22 0 52 9t57 23l2 -97q-30 -15 -66.5 -23t-66.5 -8z" />
    <glyph glyph-name="uni0465" unicode="&#x465;" horiz-adv-x="542" 
d="M353 -10q-65 0 -101.5 43t-36.5 123q0 19 1 38.5t5 41.5h-70l-51 -236h-104l116 542h103l-48 -225h69q14 63 44.5 116.5t76.5 86t104 32.5q63 0 106 -30l-42 -81q-13 11 -31.5 17t-34.5 6q-29 0 -52.5 -20.5t-40.5 -54t-26 -72.5h127l-17 -81h-126q-3 -16 -4 -34.5
t-1 -35.5q0 -46 15 -67.5t42 -21.5q21 0 46.5 8.5t49.5 25.5v-86q-23 -17 -57.5 -26t-61.5 -9z" />
    <glyph glyph-name="uni0466" unicode="&#x466;" horiz-adv-x="522" 
d="M-64 0l343 714h140l43 -714h-114l-12 310h-21l-65 -310h-103l66 311h-22l-142 -311h-113zM234 401h97l-4 161q-1 26 0 51q-7 -18 -10.5 -28.5t-15.5 -35.5z" />
    <glyph glyph-name="uni0467" unicode="&#x467;" horiz-adv-x="442" 
d="M-57 0l273 542h124l42 -542h-103l-10 213h-15l-45 -213h-92l45 213h-15l-101 -213h-103zM192 303h71q-3 77 -4 110t0 46q-7 -19 -15.5 -39.5t-20.5 -48t-31 -68.5z" />
    <glyph glyph-name="uni0468" unicode="&#x468;" horiz-adv-x="733" 
d="M-1 0l151 714h108l-62 -293h155l140 293h138l43 -714h-114l-12 311h-20l-66 -311h-102l65 311h-21l-143 -311h-112l155 325h-127l-68 -325h-108zM444 401h97l-5 161v51q-5 -15 -9.5 -27.5t-12.5 -28.5z" />
    <glyph glyph-name="uni0469" unicode="&#x469;" horiz-adv-x="617" 
d="M-4 0l116 542h103l-45 -215h126l106 215h125l42 -542h-103l-11 213h-15l-45 -213h-92l46 212h-16l-101 -212h-100l118 239h-99l-51 -239h-104zM378 303h71l-5 151z" />
    <glyph glyph-name="uni046A" unicode="&#x46a;" horiz-adv-x="551" 
d="M-57 0l102 233q23 55 44 92t48.5 58t70.5 29l-71 240l13 62h432l-14 -62l-174 -240q50 -10 69 -54.5t20 -120.5l3 -237h-112l1 234q1 47 -7.5 68t-32.5 21h-2l-69 -323h-101l70 323h-5q-26 0 -41 -23.5t-35 -69.5l-95 -230h-114zM304 430l129 194h-177z" />
    <glyph glyph-name="uni046B" unicode="&#x46b;" horiz-adv-x="488" 
d="M-52 0l82 186q26 58 55.5 88t82.5 38l-69 176l11 54h377l-10 -53l-141 -177q47 -10 63 -46.5t18 -90.5l7 -175h-101l-3 176q-2 41 -9.5 52.5t-28.5 11.5l-51 -240h-92l51 239q-22 0 -35 -11.5t-25 -39.5l-81 -188h-101zM255 329l101 135h-148z" />
    <glyph glyph-name="uni046C" unicode="&#x46c;" horiz-adv-x="765" 
d="M-1 0l151 714h108l-62 -291h221l-66 229l13 62h429l-13 -62l-175 -243q53 -13 70 -53t19 -122l4 -234h-113l1 215q0 45 -3.5 68t-12 30.5t-24.5 7.5h-3l-67 -321h-101l69 321h-4q-18 0 -30.5 -8.5t-26.5 -37.5t-38 -88l-78 -187h-110l103 233q15 37 26.5 57t24.5 36h-135
l-69 -326h-108zM514 428l130 196h-177z" />
    <glyph glyph-name="uni046D" unicode="&#x46d;" horiz-adv-x="681" 
d="M-4 0l116 542h103l-44 -213h184l-60 159l12 54h374l-11 -53l-141 -180q43 -10 61.5 -41.5t20.5 -94.5l6 -173h-101l-2 184q-2 34 -9.5 43.5t-29.5 9.5l-50 -237h-92l50 236q-25 0 -36 -10.5t-27 -46.5l-77 -179h-100l76 174q12 25 20.5 40.5t17.5 25.5h-106l-51 -240
h-104zM447 326l102 138h-148z" />
    <glyph glyph-name="uni046E" unicode="&#x46e;" horiz-adv-x="419" 
d="M230 -213q-9 7 -25.5 11t-33.5 4q-22 0 -47 -3t-45 -3q-66 0 -103 31.5t-37 88.5q0 78 46 116t136 56q71 14 101.5 44.5t30.5 97.5q0 49 -25.5 71.5t-74.5 22.5h-57l20 95h54q66 0 104.5 39.5t38.5 98.5q0 33 -17.5 52t-54.5 19q-35 0 -61 -13t-51 -33l-38 79
q29 22 60 37t65 21q-8 33 -20.5 61t-26.5 57l2 10h66q11 -15 22 -36.5t22 -49.5q25 41 52.5 66t61.5 25q9 0 16.5 -1t15.5 -3v-67q-12 5 -24 5q-20 0 -39.5 -21.5t-36.5 -49.5q47 -13 71.5 -50.5t24.5 -89.5q0 -80 -41.5 -132t-114.5 -68l-1 -3q40 -11 69 -46.5t29 -99.5
q-1 -98 -53 -153t-151 -76q-50 -11 -80.5 -24t-30.5 -45q0 -22 11.5 -31.5t36.5 -9.5q20 0 39.5 3t41.5 3q17 0 30.5 -3.5t21.5 -8.5v-94z" />
    <glyph glyph-name="uni046F" unicode="&#x46f;" horiz-adv-x="342" 
d="M205 -195q-10 5 -21.5 7.5t-25.5 2.5q-21 0 -43.5 -3.5t-46.5 -3.5q-56 0 -90.5 28.5t-34.5 90.5q0 65 36.5 100t101.5 52q43 11 65 23t30.5 30t8.5 46q0 32 -18.5 48.5t-49.5 16.5h-45l18 79h39q38 0 65 25t27 63q0 28 -13 40.5t-37 12.5q-20 0 -38.5 -6t-41.5 -17
l-25 76q18 10 35.5 17.5t35.5 11.5q-9 27 -18 53t-20 51l2 11h63q11 -16 22 -42t19 -51q57 97 117 97q17 0 32 -6v-64q-14 7 -23 7q-16 0 -32.5 -14.5t-36.5 -46.5q63 -28 63 -111q0 -53 -28 -89t-76 -51l-1 -5q34 -10 51.5 -39t17.5 -73q0 -80 -46.5 -120t-123.5 -56
q-32 -8 -53.5 -21t-21.5 -41q0 -36 41 -36q19 0 36 3t37 3q13 0 26 -2t21 -7v-90z" />
    <glyph glyph-name="uni0470" unicode="&#x470;" horiz-adv-x="613" 
d="M189 0l44 207h-1q-159 6 -159 161q0 23 3.5 52.5t11.5 60.5l49 233h108l-52 -246q-12 -54 -12 -88q0 -44 19.5 -60t51.5 -17h2l86 411h106l-87 -411h2q42 0 66 21.5t37.5 57.5t22.5 81l54 251h108l-55 -258q-16 -78 -43 -134t-76 -85.5t-134 -29.5h-2l-44 -207h-106z" />
    <glyph glyph-name="uni0471" unicode="&#x471;" horiz-adv-x="567" 
d="M123 -240l50 232q-145 16 -145 164q0 47 14 114l58 272h104l-61 -288q-6 -26 -9.5 -48.5t-3.5 -42.5q0 -39 14.5 -57t47.5 -22l144 676h101l-143 -675q38 0 65 30.5t44.5 81t28 111.5t15 122t4.5 112h102q-1 -75 -7.5 -152.5t-24 -148.5t-48.5 -127t-80 -89t-119 -34
l-49 -231h-102z" />
    </font>
</defs>
</svg>
