<?xml version="1.0" standalone="no"?>
<!DOCTYPE svg PUBLIC "-//W3C//DTD SVG 1.1//EN" "http://www.w3.org/Graphics/SVG/1.1/DTD/svg11.dtd" >
<svg>
<metadata>
Created by FontForge 20120731 at Thu Nov  8 00:24:06 2018
 By Salim,,,
Copyright 2015 Google Inc. All Rights Reserved.
</metadata>
<defs>
<font id="NotoSans-ExtraCondensedMediumItalic" horiz-adv-x="0" >
  <font-face 
    font-family="Noto Sans ExtCond Med"
    font-weight="500"
    font-style="italic"
    font-stretch="extra-condensed"
    units-per-em="1000"
    panose-1="2 11 6 6 4 5 4 9 2 4"
    ascent="800"
    descent="-200"
    x-height="539"
    cap-height="714"
    bbox="-599 -389 2543 1068"
    underline-thickness="50"
    underline-position="-75"
    slope="-12"
    unicode-range="U+000D-FFFD"
  />
<missing-glyph horiz-adv-x="556" 
d="M93 0v714h385v-714h-385zM140 47h291v620h-291v-620z" />
    <glyph glyph-name="f_f" unicode="ff" horiz-adv-x="475" 
d="M-66 -240q-15 0 -28.5 2t-26.5 6v79q21 -7 44 -7q35 0 48 28.5t23 79.5l110 514h-57l10 50l63 27l12 53q11 52 26.5 90.5t43.5 60.5t75 22q21 0 42 -4t39 -14l-33 -71q-20 11 -40 11q-27 0 -40 -25t-24 -71l-11 -52h144l10 53q11 52 27 90.5t44 60.5t76 22q21 0 41 -4
t39 -14l-33 -71q-20 11 -40 11q-27 0 -40.5 -25t-23.5 -71l-11 -52h75l-16 -77h-74l-113 -521q-11 -51 -27 -92t-44 -65t-77 -24q-15 0 -28.5 2t-26.5 6v79q19 -7 44 -7q35 0 48 28.5t24 79.5l109 514h-143l-112 -521q-11 -51 -27 -92t-44.5 -65t-76.5 -24z" />
    <glyph glyph-name="f_f_i" unicode="ffi" horiz-adv-x="674" 
d="M-66 -240q-15 0 -28.5 2t-26.5 6v79q21 -7 44 -7q35 0 48 28.5t23 79.5l110 514h-57l10 50l63 27l12 53q11 52 26.5 90.5t43.5 60.5t75 22q21 0 42 -4t39 -14l-33 -71q-20 11 -40 11q-27 0 -40 -25t-24 -71l-11 -52h144l10 53q11 52 27 90.5t44 60.5t76 22q21 0 41 -4
t39 -14l-33 -71q-20 11 -40 11q-27 0 -40.5 -25t-23.5 -71l-11 -52h75l-16 -77h-74l-113 -521q-11 -51 -27 -92t-44 -65t-77 -24q-15 0 -28.5 2t-26.5 6v79q19 -7 44 -7q35 0 48 28.5t24 79.5l109 514h-143l-112 -521q-11 -51 -27 -92t-44.5 -65t-76.5 -24zM650 623
q-44 0 -44 43q0 28 16 52.5t48 24.5q43 0 43 -41q0 -33 -17.5 -56t-45.5 -23zM470 0l115 539h89l-114 -539h-90z" />
    <glyph glyph-name="f_f_l" unicode="ffl" horiz-adv-x="673" 
d="M-66 -240q-15 0 -28.5 2t-26.5 6v79q21 -7 44 -7q35 0 48 28.5t23 79.5l110 514h-57l10 50l63 27l12 53q11 52 26.5 90.5t43.5 60.5t75 22q21 0 42 -4t39 -14l-33 -71q-20 11 -40 11q-27 0 -40 -25t-24 -71l-11 -52h144l10 53q11 52 27 90.5t44 60.5t76 22q21 0 41 -4
t39 -14l-33 -71q-20 11 -40 11q-27 0 -40.5 -25t-23.5 -71l-11 -52h75l-16 -77h-74l-113 -521q-11 -51 -27 -92t-44 -65t-77 -24q-15 0 -28.5 2t-26.5 6v79q19 -7 44 -7q35 0 48 28.5t24 79.5l109 514h-143l-112 -521q-11 -51 -27 -92t-44.5 -65t-76.5 -24zM471 0l162 760
h90l-162 -760h-90z" />
    <glyph glyph-name="f_i" unicode="fi" horiz-adv-x="440" 
d="M-66 -240q-15 0 -28.5 2t-26.5 6v79q21 -7 44 -7q35 0 48 28.5t23 79.5l110 514h-57l10 50l63 27l12 53q11 52 26.5 90.5t43.5 60.5t75 22q21 0 42 -4t39 -14l-33 -71q-20 11 -40 11q-27 0 -40 -25t-24 -71l-11 -52h75l-16 -77h-75l-112 -521q-11 -51 -27 -92t-44.5 -65
t-76.5 -24zM417 623q-43 0 -43 43q0 28 15.5 52.5t47.5 24.5q43 0 43 -41q0 -33 -17.5 -56t-45.5 -23zM237 0l114 539h90l-115 -539h-89z" />
    <glyph glyph-name="f_l" unicode="fl" horiz-adv-x="439" 
d="M-66 -240q-15 0 -28.5 2t-26.5 6v79q21 -7 44 -7q35 0 48 28.5t23 79.5l110 514h-57l10 50l63 27l12 53q11 52 26.5 90.5t43.5 60.5t75 22q21 0 42 -4t39 -14l-33 -71q-20 11 -40 11q-27 0 -40 -25t-24 -71l-11 -52h75l-16 -77h-75l-112 -521q-11 -51 -27 -92t-44.5 -65
t-76.5 -24zM237 0l162 760h90l-162 -760h-90z" />
    <glyph glyph-name=".notdef" horiz-adv-x="556" 
d="M93 0v714h385v-714h-385zM140 47h291v620h-291v-620z" />
    <glyph glyph-name="NULL" 
 />
    <glyph glyph-name="NULL" 
 />
    <glyph glyph-name="CR" unicode="&#xd;" horiz-adv-x="170" 
 />
    <glyph glyph-name="space" unicode=" " horiz-adv-x="170" 
 />
    <glyph glyph-name="exclam" unicode="!" horiz-adv-x="239" 
d="M60 207l95 507h105l-125 -507h-75zM55 -9q-22 0 -35 12.5t-13 34.5q0 34 19 60t55 26q20 0 32 -12.5t12 -34.5q0 -37 -20.5 -61.5t-49.5 -24.5z" />
    <glyph glyph-name="quotedbl" unicode="&#x22;" horiz-adv-x="355" 
d="M258 456l41 258h99l-70 -258h-70zM98 456l40 258h99l-69 -258h-70z" />
    <glyph glyph-name="numbersign" unicode="#" horiz-adv-x="439" 
d="M7 0l66 214h-72l12 70h82l51 161h-78l12 70h88l62 199h70l-63 -199h85l62 199h69l-62 -199h74l-13 -70h-83l-51 -161h79l-12 -70h-88l-67 -214h-70l68 214h-86l-66 -214h-69zM165 284h85l50 161h-85z" />
    <glyph glyph-name="dollar" unicode="$" horiz-adv-x="404" 
d="M105 -58l22 104q-42 2 -73 12t-52 23l14 92q22 -18 55 -32t74 -17l44 212q-25 18 -48.5 39.5t-39 50t-15.5 67.5q0 89 50.5 135t124.5 51l18 81h41l-16 -81q40 -2 68 -12.5t50 -24.5l-41 -77q-21 15 -44 24.5t-50 12.5l-43 -200q28 -21 51.5 -43.5t38 -51.5t14.5 -71
q0 -87 -51 -134.5t-128 -55.5l-22 -104h-42zM209 430l36 171q-40 -6 -59 -31.5t-19 -62.5q0 -22 9.5 -39t32.5 -38zM186 128q42 6 61.5 31.5t19.5 61.5q0 26 -9.5 45.5t-33.5 41.5z" />
    <glyph glyph-name="percent" unicode="%" horiz-adv-x="636" 
d="M136 276q-87 0 -87 120q0 33 6.5 75.5t19.5 87t33.5 82t48.5 60.5t64 23q41 0 64 -29.5t23 -90.5q0 -31 -6 -73t-19 -86.5t-33.5 -83t-48.5 -62t-65 -23.5zM101 0l376 714h73l-375 -714h-74zM145 343q17 0 31.5 20.5t26 52.5t19.5 68.5t12 68.5t4 52q0 53 -26 53
q-17 0 -31 -20t-25.5 -52t-19.5 -68.5t-12.5 -69t-4.5 -52.5q0 -28 6.5 -40.5t19.5 -12.5zM433 -10q-87 0 -87 120q0 37 7 81t21 87.5t34.5 79.5t48 58t61.5 22q40 0 63.5 -29.5t23.5 -89.5q0 -32 -6.5 -74.5t-19.5 -87t-33.5 -82.5t-48.5 -61.5t-64 -23.5zM442 57
q17 0 31 20.5t25.5 52.5t19.5 68t12.5 69t4.5 53q0 52 -27 52q-17 0 -31.5 -21t-26 -54t-19.5 -69t-12 -68t-4 -50q0 -53 27 -53z" />
    <glyph glyph-name="ampersand" unicode="&#x26;" horiz-adv-x="454" 
d="M124 -10q-60 0 -94.5 37t-34.5 102q0 82 41.5 147t111.5 115q-11 30 -17.5 62.5t-6.5 67.5q0 56 18.5 102t53 73.5t84.5 27.5q42 0 73.5 -26.5t31.5 -80.5q0 -70 -36 -130.5t-95 -109.5l51 -158q27 52 49 129h90q-15 -55 -42.5 -112.5t-58.5 -103.5l51 -132h-106l-19 62
q-31 -30 -64.5 -51t-80.5 -21zM225 440q32 32 53 75t21 90q0 20 -7.5 34t-24.5 14q-21 0 -33 -18t-17.5 -45.5t-5.5 -54.5t3.5 -50t10.5 -45zM143 71q31 0 53 20t42 45l-63 190q-87 -75 -87 -181q0 -74 55 -74z" />
    <glyph glyph-name="quotesingle" unicode="'" horiz-adv-x="195" 
d="M101 456l41 258h98l-68 -258h-71z" />
    <glyph glyph-name="parenleft" unicode="(" horiz-adv-x="261" 
d="M66 -158q-16 32 -27 75.5t-16.5 91t-5.5 89.5q0 110 28.5 223t80.5 216.5t125 183.5h77q-68 -87 -118.5 -189.5t-78.5 -213t-28 -220.5q0 -67 9 -134t29 -122h-75z" />
    <glyph glyph-name="parenright" unicode=")" horiz-adv-x="261" 
d="M-74 -158q68 87 118.5 189.5t78 213t27.5 220.5q0 65 -9 135t-29 121h76q26 -53 37 -121t11 -135q0 -113 -28 -226.5t-80.5 -215.5t-124.5 -181h-77z" />
    <glyph glyph-name="asterisk" unicode="*" horiz-adv-x="373" 
d="M291 410l-44 123l-77 -107l-61 58l97 93l-113 33l28 79l107 -56l5 132l86 -11l-30 -128l118 26l7 -84l-119 -1l71 -116z" />
    <glyph glyph-name="plus" unicode="+" horiz-adv-x="443" 
d="M271 393h149v-80h-149v-195h-80v195h-150v80h150v197h80v-197z" />
    <glyph glyph-name="comma" unicode="," horiz-adv-x="211" 
d="M-47 -133q15 35 32.5 79.5t33 89t25.5 81.5h92l3 -10q-23 -63 -53 -124.5t-62 -115.5h-71z" />
    <glyph glyph-name="hyphen" unicode="-" horiz-adv-x="267" 
d="M14 226l18 87h216l-18 -87h-216z" />
    <glyph glyph-name="period" unicode="." horiz-adv-x="211" 
d="M56 -9q-22 0 -34.5 12.5t-12.5 34.5q0 34 18.5 60t53.5 26q21 0 33 -12.5t12 -34.5q0 -37 -21 -61.5t-49 -24.5z" />
    <glyph glyph-name="slash" unicode="/" horiz-adv-x="344" 
d="M-50 -4l387 722h84l-388 -722h-83z" />
    <glyph glyph-name="zero" unicode="0" horiz-adv-x="404" 
d="M145 -10q-61 0 -91.5 42t-30.5 133q0 39 6.5 95.5t19.5 119.5t33.5 124t49.5 110.5t66.5 79.5t83.5 30q61 0 91 -42t30 -131q0 -43 -6.5 -100.5t-20 -121t-34 -123.5t-49 -109t-65.5 -78t-83 -29zM154 74q24 0 45 26.5t39 70.5t32.5 97.5t24.5 108t15 101t5 77.5
q0 85 -41 85q-24 0 -45 -27t-39.5 -71.5t-33 -98t-24.5 -107.5t-15.5 -100t-5.5 -74q0 -46 10.5 -67t32.5 -21z" />
    <glyph glyph-name="one" unicode="1" horiz-adv-x="404" 
d="M129 0l102 482q5 20 8 33.5t7 30t11 45.5q-7 -8 -15 -17t-18 -17l-79 -70l-43 59l186 168h85l-152 -714h-92z" />
    <glyph glyph-name="two" unicode="2" horiz-adv-x="404" 
d="M-32 0l13 68l173 206q40 48 75 96t57 97t22 99q0 75 -62 75q-29 0 -55.5 -17.5t-52.5 -39.5l-33 67q35 35 74.5 54t86.5 19q62 0 100 -38t38 -104q0 -86 -49 -168t-122 -164l-141 -164v-3h218l-18 -83h-324z" />
    <glyph glyph-name="three" unicode="3" horiz-adv-x="404" 
d="M112 -10q-41 0 -70 7t-57 22v92q27 -21 60.5 -30.5t63.5 -9.5q66 0 102 44.5t36 108.5q0 104 -102 104h-34l17 80h33q71 0 111.5 45.5t40.5 112.5q0 36 -16.5 56.5t-50.5 20.5q-28 0 -56 -12t-57 -34l-25 72q35 27 72.5 41t83.5 14q64 0 104 -35.5t40 -101.5
q0 -77 -42 -135.5t-112 -78.5l-1 -3q41 -12 65.5 -46.5t24.5 -92.5q0 -64 -27.5 -119t-79 -88.5t-124.5 -33.5z" />
    <glyph glyph-name="four" unicode="4" horiz-adv-x="404" 
d="M168 0l33 153h-218l16 74l316 492h96l-103 -486h66l-17 -80h-66l-32 -153h-91zM77 233h141l59 274q5 20 11 43.5t11 44.5h-3q-17 -32 -27.5 -51.5t-20.5 -35.5z" />
    <glyph glyph-name="five" unicode="5" horiz-adv-x="404" 
d="M113 -10q-39 0 -69.5 8t-49.5 18v96q22 -19 52.5 -30t67.5 -11q47 0 79.5 25.5t49 67t16.5 88.5q0 54 -22.5 83t-66.5 29q-20 0 -38 -5t-38 -12l-29 32l90 335h260l-19 -84h-177l-55 -194q27 7 55 7q65 0 101 -45.5t36 -127.5q0 -52 -14.5 -102t-44 -90t-75.5 -64
t-109 -24z" />
    <glyph glyph-name="six" unicode="6" horiz-adv-x="404" 
d="M163 -10q-72 0 -104.5 51t-32.5 135q0 74 14.5 152.5t42 150.5t66.5 125q21 30 50.5 57.5t65.5 45t79 17.5q28 0 48.5 -3t37.5 -7l-20 -82q-31 11 -66 11q-69 0 -119.5 -66.5t-83.5 -194.5h3q22 34 53 53.5t68 19.5q55 0 81 -43.5t26 -108.5q0 -49 -12 -103.5t-37.5 -102
t-65 -77.5t-94.5 -30zM169 72q30 0 50.5 23.5t34 59.5t19.5 73.5t6 65.5q0 38 -13.5 59t-37.5 21q-32 0 -54 -21t-34 -53q-12 -22 -18 -58t-6 -72q0 -48 14 -73t39 -25z" />
    <glyph glyph-name="seven" unicode="7" horiz-adv-x="404" 
d="M30 0l309 629h-244l18 85h335l-12 -67l-310 -647h-96z" />
    <glyph glyph-name="eight" unicode="8" horiz-adv-x="404" 
d="M158 -10q-77 0 -119.5 41t-42.5 113q0 80 41.5 135t116.5 97q-61 68 -61 156q0 54 22 97.5t63 69t99 25.5q64 0 101.5 -36.5t37.5 -100.5q0 -68 -38 -122.5t-106 -91.5q42 -41 61 -83.5t19 -92.5q0 -54 -23.5 -101.5t-67 -76.5t-103.5 -29zM225 421q51 29 76 67.5
t25 84.5q0 36 -16 55t-44 19q-39 0 -62 -30t-23 -82q0 -35 11.5 -62.5t32.5 -51.5zM160 67q51 0 76 37.5t26 87.5q0 40 -16 73t-44 63q-50 -29 -83 -70.5t-33 -106.5q0 -35 19.5 -59.5t54.5 -24.5z" />
    <glyph glyph-name="nine" unicode="9" horiz-adv-x="404" 
d="M89 -10q-29 0 -49.5 3t-38.5 8v83q34 -13 84 -13q71 0 120.5 66.5t80.5 194.5h-3q-22 -33 -53 -53t-67 -20q-56 0 -81.5 43.5t-25.5 108.5q0 48 12 102t37.5 102t65.5 78.5t97 30.5q65 0 99 -47t34 -135q0 -59 -9 -124t-27 -127.5t-44 -115.5q-23 -50 -56 -92.5
t-76.5 -67.5t-99.5 -25zM200 340q22 0 40 13.5t31 34.5q20 27 30 67.5t10 90.5q0 96 -52 96q-27 0 -48 -22t-35 -56t-21 -71.5t-7 -68.5q0 -84 52 -84z" />
    <glyph glyph-name="colon" unicode=":" horiz-adv-x="213" 
d="M139 411q-22 0 -35 11.5t-13 34.5q0 34 19 60t54 26q21 0 32.5 -13.5t11.5 -33.5q0 -37 -20 -61t-49 -24zM49 -9q-22 0 -35 12.5t-13 34.5q0 34 19 60t54 26q21 0 33 -12.5t12 -34.5q0 -37 -20.5 -61.5t-49.5 -24.5z" />
    <glyph glyph-name="semicolon" unicode=";" horiz-adv-x="213" 
d="M143 411q-22 0 -34.5 11.5t-12.5 34.5q0 34 18.5 60t53.5 26q22 0 33.5 -13.5t11.5 -33.5q0 -37 -20.5 -61t-49.5 -24zM-51 -133q27 62 51 125.5t41 124.5h91l4 -10q-24 -62 -54 -123.5t-62 -116.5h-71z" />
    <glyph glyph-name="less" unicode="&#x3c;" horiz-adv-x="443" 
d="M422 128l-383 202v54l383 200v-90l-273 -138l273 -138v-90z" />
    <glyph glyph-name="equal" unicode="=" horiz-adv-x="443" 
d="M41 420v79h379v-79h-379zM41 205v79h379v-79h-379z" />
    <glyph glyph-name="greater" unicode="&#x3e;" horiz-adv-x="443" 
d="M41 218l273 138l-273 138v90l382 -200v-54l-382 -202v90z" />
    <glyph glyph-name="question" unicode="?" horiz-adv-x="302" 
d="M66 207q10 49 21 82t27 60t42 56q28 33 50 59.5t35 54t13 64.5q0 59 -55 59q-27 0 -51 -11.5t-46 -27.5l-18 71q65 50 136 50q61 0 93 -32t32 -89q0 -67 -33.5 -119t-79.5 -102q-29 -32 -46 -56t-27.5 -51t-17.5 -68h-75zM65 -9q-48 0 -48 47q0 34 18.5 60t54.5 26
q20 0 32 -12.5t12 -34.5q0 -37 -20 -61.5t-49 -24.5z" />
    <glyph glyph-name="at" unicode="@" horiz-adv-x="604" 
d="M232 -83q-103 0 -155.5 65.5t-52.5 171.5q0 82 17 163.5t49.5 154t78.5 129t105 88.5t129 32q90 0 141 -64t51 -170q0 -45 -8 -96t-24 -100t-38 -88.5t-50.5 -63.5t-61.5 -24q-38 0 -52.5 20.5t-18.5 54.5h-1q-17 -34 -41 -55.5t-49 -21.5q-79 0 -79 105q0 33 7.5 74.5
t23 82.5t39 76t54.5 56t70 21q30 0 54 -5.5t44 -15.5l-58 -238q-5 -19 -7.5 -34t-2.5 -24q0 -37 23 -37q20 0 37 22t31 58t23.5 77.5t14.5 81t5 68.5q0 90 -34.5 134.5t-99.5 44.5q-58 0 -105.5 -29.5t-85 -80t-63 -115t-39 -135t-13.5 -139.5q0 -81 33 -132.5t111 -51.5
q73 0 141 34v-59q-33 -16 -70.5 -25.5t-72.5 -9.5zM268 174q42 0 80 148l37 142q-11 4 -29 4q-27 0 -48.5 -26t-36 -65t-22.5 -80t-8 -71q0 -52 27 -52z" />
    <glyph glyph-name="A" unicode="A" horiz-adv-x="423" 
d="M-64 0l300 717h119l4 -717h-97l1 214h-139l-86 -214h-102zM156 298h111l5 241q0 24 1 45.5t3 41.5h-3q-4 -19 -10.5 -40.5t-15.5 -46.5z" />
    <glyph glyph-name="B" unicode="B" horiz-adv-x="443" 
d="M-1 0l151 714h142q44 0 80 -15t57.5 -46.5t21.5 -79.5q0 -44 -14 -84.5t-43.5 -70.5t-76.5 -43v-3q37 -12 57 -48t20 -83q0 -65 -26 -120t-76.5 -88t-124.5 -33h-168zM180 411h52q38 0 65 20.5t41 54.5t14 72q0 76 -79 76h-46zM110 82h57q45 0 74 22t43 59t14 81
t-21 66.5t-58 22.5h-56z" />
    <glyph glyph-name="C" unicode="C" horiz-adv-x="399" 
d="M199 -10q-81 0 -122 59t-41 171q0 61 12.5 130.5t37.5 135.5t62 120.5t87 86.5t112 32q74 0 124 -38l-47 -76q-36 30 -77 30q-44 0 -78.5 -30t-60 -78.5t-42 -104.5t-25 -109t-8.5 -92q0 -80 21.5 -116.5t67.5 -36.5q24 0 49 7t51 19v-85q-29 -13 -61 -19t-62 -6z" />
    <glyph glyph-name="D" unicode="D" horiz-adv-x="477" 
d="M-1 0l151 714h124q93 0 141.5 -54.5t48.5 -158.5q0 -65 -11.5 -135t-36.5 -135.5t-64.5 -117.5t-95.5 -82.5t-129 -30.5h-128zM110 85h31q48 0 84.5 26t63.5 69.5t44 97.5t25 110t8 106q0 70 -25.5 103t-75.5 33h-39z" />
    <glyph glyph-name="E" unicode="E" horiz-adv-x="374" 
d="M-1 0l151 714h269l-17 -83h-176l-45 -217h163l-18 -83h-163l-53 -248h176l-18 -83h-269z" />
    <glyph glyph-name="F" unicode="F" horiz-adv-x="354" 
d="M-1 0l151 714h270l-18 -83h-176l-51 -245h163l-17 -83h-164l-64 -303h-94z" />
    <glyph glyph-name="G" unicode="G" horiz-adv-x="500" 
d="M231 -10q-99 0 -147 58t-48 170q0 102 24 193.5t68 162t105.5 111t136.5 40.5q46 0 86 -12.5t68 -32.5l-45 -80q-56 41 -117 41q-52 0 -94.5 -37.5t-72.5 -99t-46 -135t-16 -145.5q0 -79 26.5 -114.5t80.5 -35.5q19 0 37 2.5t36 8.5l46 217h-85l17 81h178l-77 -360
q-42 -16 -83.5 -24.5t-77.5 -8.5z" />
    <glyph glyph-name="H" unicode="H" horiz-adv-x="495" 
d="M-1 0l151 714h94l-63 -299h182l64 299h93l-152 -714h-93l70 331h-182l-70 -331h-94z" />
    <glyph glyph-name="I" unicode="I" horiz-adv-x="277" 
d="M-49 0l12 51l80 20l121 572l-72 20l10 51h247l-11 -51l-81 -20l-121 -572l72 -20l-10 -51h-247z" />
    <glyph glyph-name="J" unicode="J" horiz-adv-x="213" 
d="M-78 -197q-44 0 -71 12l20 83q12 -5 24 -8.5t24 -3.5q36 0 54 34t29 87l149 707h94l-153 -722q-21 -100 -63.5 -144.5t-106.5 -44.5z" />
    <glyph glyph-name="K" unicode="K" horiz-adv-x="422" 
d="M-1 0l151 714h94l-73 -345l52 83l181 262h102l-225 -328l80 -386h-101l-60 316l-51 -50l-56 -266h-94z" />
    <glyph glyph-name="L" unicode="L" horiz-adv-x="347" 
d="M-1 0l151 714h94l-134 -631h174l-16 -83h-269z" />
    <glyph glyph-name="M" unicode="M" horiz-adv-x="661" 
d="M-1 0l151 714h128l20 -558h2l250 558h136l-152 -714h-91l97 460q5 22 10.5 44t11.5 45h-2l-249 -549h-88l-20 547h-2q-6 -31 -10.5 -57t-9.5 -51l-93 -439h-89z" />
    <glyph glyph-name="N" unicode="N" horiz-adv-x="527" 
d="M-1 0l151 714h109l90 -544h3q9 52 18.5 100t14.5 77l78 367h90l-152 -714h-106l-92 554h-3q-5 -37 -12 -76.5t-14 -72.5t-11 -52l-75 -353h-89z" />
    <glyph glyph-name="O" unicode="O" horiz-adv-x="508" 
d="M199 -10q-83 0 -123.5 52.5t-40.5 162.5q0 65 12 136.5t36 139.5t59.5 123t83.5 87.5t107 32.5q83 0 122.5 -51.5t39.5 -156.5q0 -56 -10.5 -126t-32.5 -140t-57 -129t-83.5 -95t-112.5 -36zM206 75q39 0 70 30.5t54 81t38.5 110t23 117.5t7.5 104q0 123 -73 123
q-42 0 -73.5 -32.5t-54.5 -84.5t-37.5 -112t-21.5 -115t-7 -93q0 -70 18.5 -99.5t55.5 -29.5z" />
    <glyph glyph-name="P" unicode="P" horiz-adv-x="416" 
d="M-1 0l151 714h118q84 0 126 -43t42 -115q0 -78 -28 -142t-82 -102.5t-132 -38.5h-44l-57 -273h-94zM168 356h26q71 0 108 52t37 136q0 87 -86 87h-27z" />
    <glyph glyph-name="Q" unicode="Q" horiz-adv-x="508" 
d="M239 -170l-45 162q-9 -1 -16 0q-143 9 -143 213q0 65 12 136.5t36 139.5t59.5 123t83.5 87.5t107 32.5q83 0 122.5 -51.5t39.5 -156.5q0 -48 -7.5 -106.5t-23 -119t-40 -116t-59 -98t-78.5 -64.5l59 -182h-107zM206 75q39 0 70 30.5t54 81t38.5 110t23 117.5t7.5 104
q0 123 -73 123q-42 0 -73.5 -32.5t-54.5 -84.5t-37.5 -112t-21.5 -115t-7 -93q0 -70 18.5 -99.5t55.5 -29.5z" />
    <glyph glyph-name="R" unicode="R" horiz-adv-x="431" 
d="M-1 0l151 714h116q85 0 128.5 -41t43.5 -116q0 -60 -17.5 -111t-50 -85.5t-77.5 -47.5l66 -313h-102l-53 294h-49l-62 -294h-94zM172 372h39q45 0 73.5 25t42 65t13.5 83q0 87 -86 87h-28z" />
    <glyph glyph-name="S" unicode="S" horiz-adv-x="385" 
d="M120 -10q-92 0 -142 35l15 97q25 -19 59.5 -31.5t69.5 -12.5q49 0 81 31t32 90q0 25 -5.5 45t-21.5 41t-45 51q-41 40 -63.5 80t-22.5 100q0 93 55.5 150.5t153.5 57.5q36 0 74.5 -11t63.5 -29l-44 -84q-24 16 -49 26.5t-51 10.5q-44 0 -75 -29.5t-31 -81.5
q0 -40 20 -68.5t62 -70.5q40 -38 58.5 -79.5t18.5 -99.5q0 -62 -24.5 -111.5t-71.5 -78t-117 -28.5z" />
    <glyph glyph-name="T" unicode="T" horiz-adv-x="357" 
d="M67 0l134 630h-122l18 84h337l-18 -84h-122l-134 -630h-93z" />
    <glyph glyph-name="U" unicode="U" horiz-adv-x="483" 
d="M183 -10q-71 0 -110.5 40t-39.5 114q0 18 2.5 40t7.5 44l104 486h93l-104 -490q-8 -38 -8 -68q0 -81 67 -81q47 0 74.5 37.5t45.5 120.5l103 481h94l-106 -491q-22 -108 -73 -170.5t-150 -62.5z" />
    <glyph glyph-name="V" unicode="V" horiz-adv-x="422" 
d="M93 0l-6 714h96l-5 -437q0 -34 -1.5 -69.5t-5.5 -81.5h2q7 28 18.5 61.5t27.5 73.5l186 453h100l-305 -714h-107z" />
    <glyph glyph-name="W" unicode="W" horiz-adv-x="667" 
d="M69 0l19 714h91l-14 -425q-1 -43 -3.5 -77t-4.5 -60h2q11 34 24 68t27 69l167 425h82l-14 -414q-1 -46 -4 -80.5t-5 -67.5h2q14 39 26.5 73.5t25.5 69.5l163 419h95l-281 -714h-110l15 422q1 22 3 48.5t4 53.5h-2q-8 -23 -16 -47.5t-17 -47.5l-166 -429h-109z" />
    <glyph glyph-name="X" unicode="X" horiz-adv-x="391" 
d="M-59 0l217 373l-52 341h97l29 -250l131 250h99l-197 -349l55 -365h-100l-28 272l-152 -272h-99z" />
    <glyph glyph-name="Y" unicode="Y" horiz-adv-x="376" 
d="M78 0l57 274l-49 440h97l24 -315l157 315h100l-234 -437l-59 -277h-93z" />
    <glyph glyph-name="Z" unicode="Z" horiz-adv-x="351" 
d="M-41 0l15 70l318 561h-194l17 83h299l-14 -71l-320 -560h206l-17 -83h-310z" />
    <glyph glyph-name="bracketleft" unicode="[" horiz-adv-x="283" 
d="M-31 -162l189 884h195l-16 -73h-112l-158 -738h113l-16 -73h-195z" />
    <glyph glyph-name="backslash" unicode="\" horiz-adv-x="349" 
d="M191 -4l-91 722h82l91 -722h-82z" />
    <glyph glyph-name="bracketright" unicode="]" horiz-adv-x="283" 
d="M-68 -162l15 73h112l157 738h-112l16 73h195l-189 -884h-194z" />
    <glyph glyph-name="asciicircum" unicode="^" horiz-adv-x="409" 
d="M6 317l242 397h57l103 -397h-83l-71 271l-160 -271h-88z" />
    <glyph glyph-name="underscore" unicode="_" horiz-adv-x="316" 
d="M-88 -150l13 70h317l-14 -70h-316z" />
    <glyph glyph-name="grave" unicode="`" horiz-adv-x="261" 
d="M233 606q-13 18 -31 45.5t-33 56t-23 49.5v8h103q8 -35 18.5 -71.5t26.5 -76.5l-1 -11h-60z" />
    <glyph glyph-name="a" unicode="a" horiz-adv-x="432" 
d="M129 -10q-51 0 -78.5 39.5t-27.5 112.5q0 44 8 98.5t25 108.5t42.5 99.5t60.5 73t80 27.5q69 0 91 -78h3l22 68h77l-114 -539h-73l5 75h-2q-26 -40 -54.5 -62.5t-64.5 -22.5zM161 68q32 0 54.5 26.5t38.5 67t27 82.5q23 92 23 150q0 36 -14 55.5t-38 19.5
q-26 0 -47 -21.5t-37.5 -57.5t-28 -78t-17.5 -84.5t-6 -76.5q0 -83 45 -83z" />
    <glyph glyph-name="b" unicode="b" horiz-adv-x="428" 
d="M190 -10q-36 0 -59.5 20t-33.5 55h-3l-24 -65h-73l161 760h90l-48 -227q-3 -13 -7.5 -29.5t-9.5 -33.5h2q49 79 119 79q49 0 76.5 -38.5t27.5 -112.5q0 -45 -8.5 -99t-25.5 -108.5t-43 -100t-61 -73t-80 -27.5zM180 67q25 0 45.5 22t37 58.5t28.5 79.5t18 85t6 76
q0 82 -47 82q-28 0 -50 -23t-39 -60t-28.5 -80.5t-17.5 -85.5t-6 -74q0 -80 53 -80z" />
    <glyph glyph-name="c" unicode="c" horiz-adv-x="329" 
d="M157 -10q-65 0 -99 42.5t-34 122.5q0 48 8.5 101.5t26.5 105.5t46 94.5t67.5 67.5t90.5 25q55 0 97 -27l-37 -73q-27 21 -61 21q-37 0 -64.5 -30.5t-45.5 -78.5t-27 -100.5t-9 -95.5q0 -96 63 -96q35 0 85 31v-79q-20 -13 -48.5 -22t-58.5 -9z" />
    <glyph glyph-name="d" unicode="d" horiz-adv-x="432" 
d="M127 -10q-49 0 -76.5 39.5t-27.5 112.5q0 43 8 97t25 108.5t42 100t59.5 73.5t77.5 28q35 0 60 -18.5t35 -53.5h3q4 26 8.5 50.5t8.5 45.5l39 187h90l-161 -760h-73l5 71h-2q-28 -39 -56 -60t-65 -21zM161 67q30 0 53.5 25t40.5 64.5t27.5 84.5t16 86t5.5 68q0 74 -52 74
q-27 0 -48.5 -23t-38 -59.5t-27.5 -80t-16.5 -85t-5.5 -72.5q0 -82 45 -82z" />
    <glyph glyph-name="e" unicode="e" horiz-adv-x="394" 
d="M169 -10q-68 0 -107 44t-39 123q0 78 17.5 148.5t49 125t75.5 86t98 31.5q53 0 84.5 -29.5t31.5 -85.5q0 -91 -67 -142.5t-185 -51.5h-7q-8 -37 -8 -72q0 -53 19.5 -77.5t59.5 -24.5q29 0 53 7.5t55 24.5v-73q-29 -19 -61.5 -26.5t-68.5 -7.5zM132 307h3q85 0 122.5 33
t37.5 87q0 22 -11 35t-34 13q-36 0 -67.5 -47t-50.5 -121z" />
    <glyph glyph-name="f" unicode="f" horiz-adv-x="242" 
d="M-66 -240q-15 0 -28.5 2t-26.5 6v79q21 -7 44 -7q35 0 48 28.5t23 79.5l110 514h-57l10 50l63 27l12 53q11 52 26.5 90.5t43.5 60.5t75 22q21 0 42 -4t39 -14l-33 -71q-20 11 -40 11q-27 0 -40 -25t-24 -71l-11 -52h75l-16 -77h-75l-112 -521q-11 -51 -27 -92t-44.5 -65
t-76.5 -24z" />
    <glyph glyph-name="g" unicode="g" horiz-adv-x="432" 
d="M97 -240q-35 0 -67 9.5t-53 22.5v84q19 -14 53.5 -26.5t67.5 -12.5q50 0 79.5 32.5t43.5 93.5l7 34q3 11 7.5 30t10.5 39h-2q-51 -76 -118 -76q-50 0 -77 38t-27 110q0 45 8.5 99.5t25.5 109.5t43.5 100.5t61.5 73.5t80 28q37 0 59 -20t32 -58h2l21 68h77l-120 -573
q-23 -109 -75.5 -157.5t-139.5 -48.5zM162 69q28 0 50.5 24t39.5 63t28.5 84t17.5 87.5t6 72.5q0 33 -14 51t-39 18q-26 0 -47.5 -23t-38 -59.5t-27.5 -79.5t-16.5 -84.5t-5.5 -72.5q0 -81 46 -81z" />
    <glyph glyph-name="h" unicode="h" horiz-adv-x="423" 
d="M-2 0l161 760h90l-41 -191q-5 -23 -11.5 -48t-14.5 -48h2q22 37 51 56.5t66 19.5q44 0 70 -27.5t26 -79.5q0 -20 -4.5 -48t-9.5 -54l-73 -340h-89l68 324q6 26 10 50.5t4 46.5q0 45 -41 45q-38 0 -65 -39.5t-46 -128.5l-63 -298h-90z" />
    <glyph glyph-name="i" unicode="i" horiz-adv-x="201" 
d="M178 623q-43 0 -43 43q0 28 15.5 52.5t47.5 24.5q43 0 43 -41q0 -33 -17.5 -56t-45.5 -23zM-2 0l114 539h90l-115 -539h-89z" />
    <glyph glyph-name="j" unicode="j" horiz-adv-x="202" 
d="M179 623q-43 0 -43 43q0 28 15.5 52.5t47.5 24.5q43 0 43 -41q0 -33 -17 -56t-46 -23zM-74 -240q-15 0 -28.5 2t-25.5 6v80q8 -4 20 -5.5t23 -1.5q32 0 46.5 24.5t28.5 92.5l123 581h89l-125 -588q-12 -57 -28.5 -100t-45 -67t-77.5 -24z" />
    <glyph glyph-name="k" unicode="k" horiz-adv-x="380" 
d="M-2 0l162 760h90l-77 -356q-9 -44 -27 -108h2l180 243h98l-165 -221l60 -318h-96l-42 244l-58 -61l-37 -183h-90z" />
    <glyph glyph-name="l" unicode="l" horiz-adv-x="199" 
d="M-2 0l162 760h90l-162 -760h-90z" />
    <glyph glyph-name="m" unicode="m" horiz-adv-x="630" 
d="M-3 0l115 539h73l-9 -69h3q22 38 52 58.5t66 20.5q77 0 93 -69h2q22 32 52.5 50.5t66.5 18.5q44 0 69 -27t25 -78q0 -16 -2.5 -35t-6.5 -38l-79 -371h-90l75 352q4 19 6.5 36.5t2.5 28.5q0 50 -40 50q-26 0 -45 -19.5t-31 -48.5t-18 -60l-73 -339h-89l76 359q8 35 8 59
q0 49 -39 49q-32 0 -53.5 -25t-35 -65.5t-21.5 -84.5l-62 -292h-91z" />
    <glyph glyph-name="n" unicode="n" horiz-adv-x="423" 
d="M-3 0l115 539h73l-9 -71h3q45 81 118 81q42 0 71 -25t29 -81q0 -20 -4.5 -46t-9.5 -52l-73 -345h-90l70 329q5 24 9 48.5t4 43.5q0 45 -40 45q-42 0 -69 -46.5t-45 -131.5l-61 -288h-91z" />
    <glyph glyph-name="o" unicode="o" horiz-adv-x="418" 
d="M159 -10q-65 0 -100 43t-35 123q0 41 8 93t25 104.5t44.5 97t67 71.5t91.5 27q63 0 98.5 -44.5t35.5 -123.5q0 -49 -9 -103t-27 -105t-46 -92.5t-66 -66t-87 -24.5zM169 68q25 0 46.5 21t37.5 55.5t27 76.5t17 84t6 77q0 43 -13.5 66t-40.5 23q-28 0 -49.5 -22.5
t-37.5 -59t-26.5 -79t-15.5 -83.5t-5 -72q0 -87 54 -87z" />
    <glyph glyph-name="p" unicode="p" horiz-adv-x="428" 
d="M-50 -234l163 773h74l-9 -76h3q53 86 122 86q50 0 77.5 -37.5t27.5 -114.5q0 -46 -8.5 -101t-26 -109t-43.5 -98.5t-60.5 -71.5t-78.5 -27q-34 0 -57.5 20t-32.5 54h-3q-4 -26 -8 -51t-8 -45l-44 -202h-88zM179 69q25 0 46.5 21.5t38 57.5t28.5 78.5t18 85t6 77.5
q0 83 -47 83q-27 0 -49.5 -23.5t-39.5 -61.5t-28.5 -82t-17.5 -86t-6 -73q0 -77 51 -77z" />
    <glyph glyph-name="q" unicode="q" horiz-adv-x="432" 
d="M178 -239l48 228q3 13 8.5 34t12.5 43h-3q-51 -76 -118 -76q-50 0 -77 37.5t-27 110.5q0 43 8.5 97.5t25 109.5t42.5 101.5t61.5 74.5t80.5 28q38 0 60 -20t32 -58h2l21 68h77l-164 -778h-90zM162 69q27 0 49.5 23t39.5 61t29 82t18 87t6 76q0 34 -14 52.5t-39 18.5
q-26 0 -47 -22t-37.5 -57.5t-27.5 -78.5t-17 -85t-6 -76q0 -81 46 -81z" />
    <glyph glyph-name="r" unicode="r" horiz-adv-x="288" 
d="M-2 0l114 539h70l-10 -87h3q23 50 52 73.5t69 23.5q20 0 38 -7l-26 -96q-17 7 -39 7q-33 0 -57.5 -26t-40 -66t-24.5 -81l-59 -280h-90z" />
    <glyph glyph-name="s" unicode="s" horiz-adv-x="327" 
d="M107 -10q-38 0 -68 7.5t-49 18.5v90q20 -16 50 -26t57 -10q37 0 58.5 20.5t21.5 59.5q0 26 -10.5 47t-44.5 56q-34 34 -50.5 65.5t-16.5 73.5q0 44 18.5 79.5t53.5 56.5t85 21q40 0 73 -10.5t56 -26.5l-39 -71q-20 16 -43 24t-44 8q-31 0 -49.5 -18.5t-18.5 -49.5
q0 -25 9.5 -45t40.5 -49q26 -27 42.5 -48t24.5 -45t8 -59q0 -75 -43 -122t-122 -47z" />
    <glyph glyph-name="t" unicode="t" horiz-adv-x="254" 
d="M110 -10q-44 0 -64 26t-20 70q0 31 10 74l64 302h-48l10 50l60 25l45 122h65l-26 -120h79l-17 -77h-78l-66 -310q-3 -14 -5.5 -27t-2.5 -22q0 -33 30 -33q8 0 21.5 2.5t25.5 7.5v-73q-19 -9 -41.5 -13t-41.5 -4z" />
    <glyph glyph-name="u" unicode="u" horiz-adv-x="425" 
d="M124 -10q-49 0 -74.5 28t-25.5 80q0 18 3 41.5t8 44.5l76 355h89l-71 -338q-11 -47 -11 -82q0 -48 39 -48q41 0 69.5 47.5t45.5 132.5l61 288h90l-114 -539h-72l6 67h-3q-23 -37 -52.5 -57t-63.5 -20z" />
    <glyph glyph-name="v" unicode="v" horiz-adv-x="355" 
d="M70 0l-11 539h90l-2 -285q0 -16 -0.5 -40t-1.5 -46.5t-3 -36.5h4q8 24 16.5 46t16.5 44l134 318h93l-238 -539h-98z" />
    <glyph glyph-name="w" unicode="w" horiz-adv-x="564" 
d="M53 0l10 539h88l-9 -286q-2 -30 -4 -58.5t-4 -53.5h2q8 24 17.5 51.5t17.5 49.5l116 297h101l-10 -286q-2 -28 -4 -58.5t-4 -58.5h2l22 64t24 65l104 274h91l-216 -539h-105l14 319q1 47 6 97h-2q-6 -20 -13 -39t-14 -39l-129 -338h-101z" />
    <glyph glyph-name="x" unicode="x" horiz-adv-x="362" 
d="M-47 0l174 280l-53 259h95l29 -182l104 182h100l-167 -266l58 -273h-95l-34 196l-113 -196h-98z" />
    <glyph glyph-name="y" unicode="y" horiz-adv-x="358" 
d="M-32 -241q-18 0 -32 2.5t-25 7.5l13 81q21 -9 42 -9q28 0 44.5 21t32.5 58l37 83l-16 536h90l1 -286q0 -29 -1 -58.5t-3 -58.5h3q21 64 39 107l124 296h94l-282 -636q-30 -65 -64.5 -104.5t-96.5 -39.5z" />
    <glyph glyph-name="z" unicode="z" horiz-adv-x="300" 
d="M-37 0l13 58l237 404h-142l16 77h243l-13 -63l-234 -399h156l-17 -77h-259z" />
    <glyph glyph-name="braceleft" unicode="{" horiz-adv-x="330" 
d="M214 -158q-80 1 -115 31.5t-35 88.5q0 13 2 26.5t4 27.5l26 126q5 18 5 37q0 32 -17.5 47.5t-63.5 15.5l16 75q52 0 80 23.5t38 72.5l34 159q12 58 37.5 88.5t66.5 42t100 11.5h3l-18 -76q-49 -1 -71 -19.5t-33 -66.5l-32 -154q-11 -50 -40 -80.5t-85 -38.5v-3
q75 -19 75 -88q0 -22 -6 -50l-26 -122q-2 -12 -3 -21t-1 -16q0 -31 14.5 -45.5t51.5 -15.5l-2 -76h-5z" />
    <glyph glyph-name="bar" unicode="|" horiz-adv-x="370" 
d="M143 -236v1001h80v-1001h-80z" />
    <glyph glyph-name="braceright" unicode="}" horiz-adv-x="330" 
d="M-60 -158l1 76q52 0 77.5 20t35.5 66l32 154q10 50 40 80.5t85 38.5v3q-75 19 -75 88q0 23 6 50l26 122q2 11 3 20.5t1 16.5q0 31 -16.5 45.5t-53.5 15.5l16 76h6q76 0 107.5 -29t31.5 -87q0 -12 -1.5 -28t-4.5 -30l-26 -126q-2 -9 -3.5 -18t-1.5 -19q0 -32 17.5 -47.5
t63.5 -15.5l-16 -75q-52 0 -79.5 -23.5t-38.5 -72.5l-34 -159q-12 -56 -36 -87t-63 -43t-97 -12h-3z" />
    <glyph glyph-name="asciitilde" unicode="~" horiz-adv-x="443" 
d="M220 314q-46 27 -87 27q-46 0 -94 -59v88q41 52 100 52q29 0 52.5 -9t50.5 -22q26 -13 47 -20t41 -7q23 0 48.5 16.5t45.5 42.5v-88q-41 -50 -100 -50q-30 0 -53 7.5t-51 21.5z" />
    <glyph glyph-name="uni00A0" unicode="&#xa0;" horiz-adv-x="170" 
 />
    <glyph glyph-name="exclamdown" unicode="&#xa1;" horiz-adv-x="239" 
d="M154 413q-20 0 -32 12.5t-12 34.5q0 37 20 61t49 24q48 0 48 -47q0 -34 -19 -59.5t-54 -25.5zM-27 -184l126 514h74l-95 -514h-105z" />
    <glyph glyph-name="cent" unicode="&#xa2;" horiz-adv-x="404" 
d="M132 -10l22 101q-47 11 -69 50.5t-22 112.5q0 43 7.5 92t23.5 98t40.5 91t58.5 70.5t78 36.5l17 82h59l-17 -81q20 -3 37 -9.5t31 -14.5l-36 -75q-13 9 -29.5 15t-29.5 6q-36 0 -63.5 -29.5t-46.5 -76.5t-28.5 -100t-9.5 -100q0 -50 15 -72t45 -22q37 0 76 25l22 -68
q-21 -16 -49.5 -24t-51.5 -10l-21 -98h-59z" />
    <glyph glyph-name="sterling" unicode="&#xa3;" horiz-adv-x="404" 
d="M-22 0l17 77q34 17 56 50t35 89l22 107h-65l16 73h64l33 156q18 80 57.5 126t113.5 46q68 0 118 -40l-42 -75q-36 31 -76 31q-35 0 -53.5 -25.5t-29.5 -77.5l-30 -141h112l-15 -73h-112l-23 -106q-10 -50 -31.5 -82.5t-50.5 -51.5h230l-17 -83h-329z" />
    <glyph glyph-name="currency" unicode="&#xa4;" horiz-adv-x="502" 
d="M435 138l-65 63q-24 -16 -51 -25t-56 -9q-30 0 -57.5 9.5t-51.5 25.5l-63 -63l-42 44l63 63q-18 24 -26.5 51t-8.5 56q0 28 8.5 55t26.5 52l-64 64l43 44l64 -64q25 18 52 26.5t56 8.5q58 0 107 -35l64 64l44 -43l-64 -64q35 -49 35 -108t-35 -109l63 -63zM262 230
q35 0 63.5 17t45 45t16.5 61q1 33 -16.5 61t-46 45.5t-61.5 17.5t-61.5 -17t-45.5 -45t-17 -62t17 -62t44.5 -44.5t61.5 -16.5z" />
    <glyph glyph-name="yen" unicode="&#xa5;" horiz-adv-x="401" 
d="M89 0l28 128h-101l13 64h101l17 82h-100l14 64h86l-32 376h93l13 -307l141 307h95l-190 -376h88l-14 -64h-102l-18 -82h103l-13 -64h-103l-28 -128h-91z" />
    <glyph glyph-name="brokenbar" unicode="&#xa6;" horiz-adv-x="370" 
d="M143 383v381h80v-381h-80zM143 -236v381h80v-381h-80z" />
    <glyph glyph-name="section" unicode="&#xa7;" horiz-adv-x="360" 
d="M119 23q-75 0 -118 29v78q25 -21 56 -30.5t57 -9.5q38 0 62.5 23.5t24.5 61.5q0 25 -16.5 43.5t-43.5 38.5q-35 24 -60.5 54t-25.5 74q0 47 25 80t71 55q-40 40 -40 98q0 37 18.5 69t53.5 51.5t82 21.5q75 0 128 -36l-36 -62q-20 16 -43 24t-46 8q-32 0 -54 -19.5
t-22 -53.5q0 -25 16 -43t42 -37q46 -32 66 -60t20 -62q0 -48 -23 -82t-66 -63q16 -16 26 -39t10 -53q0 -46 -21 -81.5t-57.5 -56.5t-85.5 -21zM207 309q48 36 48 91q0 26 -13 44.5t-48 43.5q-59 -27 -59 -86q0 -27 17.5 -47.5t54.5 -45.5z" />
    <glyph glyph-name="dieresis" unicode="&#xa8;" horiz-adv-x="464" 
d="M361 628q-39 0 -39 40q0 28 15.5 49t43.5 21q37 0 37 -38q0 -32 -16.5 -52t-40.5 -20zM205 628q-38 0 -38 40q0 28 15.5 49t43.5 21q36 0 36 -38q0 -32 -16 -52t-41 -20z" />
    <glyph glyph-name="copyright" unicode="&#xa9;" horiz-adv-x="829" 
d="M413 -10q-84 0 -151.5 28.5t-116 79t-74 117t-25.5 142.5q0 82 28.5 149t79 116t117.5 75.5t144 26.5q81 0 148.5 -28t116.5 -78t76 -117t27 -145q0 -80 -27.5 -147t-78 -116t-118 -76t-146.5 -27zM415 47q91 0 159.5 40.5t107 110.5t38.5 158q0 91 -40 161t-109 110
t-157 40q-92 0 -160.5 -41.5t-107 -111.5t-38.5 -158q0 -93 40.5 -162.5t110 -108t156.5 -38.5zM429 133q-96 0 -148.5 57.5t-52.5 164.5q0 104 54.5 164.5t149.5 60.5q68 0 131 -30l-29 -62q-26 13 -50.5 18.5t-47.5 5.5q-58 0 -92 -40t-34 -115q0 -80 31.5 -118t93.5 -38
q52 0 109 26v-69q-53 -25 -115 -25z" />
    <glyph glyph-name="ordfeminine" unicode="&#xaa;" horiz-adv-x="279" 
d="M150 380q-20 0 -39.5 11t-32.5 36t-13 69q0 40 9.5 79.5t28.5 72.5t47.5 53t65.5 20q28 0 43 -14t23 -34h3l17 42h46l-69 -329h-50l6 46h-3q-14 -23 -33.5 -37.5t-48.5 -14.5zM167 436q22 0 38 17t26.5 42.5t15.5 53t5 48.5q0 68 -40 68q-24 0 -42 -25t-28 -62.5
t-10 -76.5q0 -65 35 -65z" />
    <glyph glyph-name="guillemotleft" unicode="&#xab;" horiz-adv-x="437" 
d="M121 56l-96 204l2 13l168 200l61 -39l-135 -170l70 -177zM305 56l-97 204l2 13l168 200l62 -39l-135 -170l70 -177z" />
    <glyph glyph-name="logicalnot" unicode="&#xac;" horiz-adv-x="443" 
d="M414 393v-274h-81v194h-292v80h373z" />
    <glyph glyph-name="uni00AD" unicode="&#xad;" horiz-adv-x="267" 
d="M14 226l18 87h216l-18 -87h-216z" />
    <glyph glyph-name="registered" unicode="&#xae;" horiz-adv-x="829" 
d="M413 -10q-84 0 -151.5 28.5t-116 79t-74 117t-25.5 142.5q0 82 28.5 149t79 116t117.5 75.5t144 26.5q81 0 148.5 -28t116.5 -78t76 -117t27 -145q0 -80 -27.5 -147t-78 -116t-118 -76t-146.5 -27zM415 47q91 0 159.5 40.5t107 110.5t38.5 158q0 91 -40 161t-109 110
t-157 40q-92 0 -160.5 -41.5t-107 -111.5t-38.5 -158q0 -93 40.5 -162.5t110 -108t156.5 -38.5zM277 146v429h122q78 0 119.5 -31.5t41.5 -95.5q0 -84 -71 -117l96 -185h-88l-80 168h-60v-168h-80zM357 374h38q37 0 59 17t22 54q0 65 -81 65h-38v-136z" />
    <glyph glyph-name="overscore" unicode="&#xaf;" horiz-adv-x="405" 
d="M93 760l16 70h410l-15 -70h-411z" />
    <glyph glyph-name="degree" unicode="&#xb0;" horiz-adv-x="364" 
d="M181 448q-61 0 -100.5 37.5t-39.5 100.5t40.5 100t99.5 37q61 0 101.5 -37.5t40.5 -99.5q0 -64 -41 -101t-101 -37zM182 508q34 0 55 21t21 57q0 34 -20.5 56t-55.5 22q-37 0 -56.5 -22.5t-19.5 -55.5q0 -37 21 -57.5t55 -20.5z" />
    <glyph glyph-name="plusminus" unicode="&#xb1;" horiz-adv-x="443" 
d="M271 419h149v-80h-149v-195h-80v195h-150v80h150v197h80v-197zM41 0v79h380v-79h-380z" />
    <glyph glyph-name="uni00B2" unicode="&#xb2;" horiz-adv-x="285" 
d="M41 416l11 60l118 129q39 42 62.5 76t23.5 69q0 44 -41 44q-19 0 -38 -11.5t-36 -26.5l-25 50q49 49 118 49q46 0 71 -25.5t25 -68.5q0 -36 -16 -68t-40.5 -61.5t-51.5 -56.5l-92 -96h150l-14 -63h-225z" />
    <glyph glyph-name="uni00B3" unicode="&#xb3;" horiz-adv-x="285" 
d="M142 408q-31 0 -53.5 6.5t-39.5 17.5v69q18 -15 41 -23t53 -8q37 0 58.5 22.5t21.5 57.5q0 28 -16 43t-42 15h-34l11 57h31q41 0 62.5 23.5t21.5 58.5q0 46 -43 46q-20 0 -37.5 -8t-36.5 -22l-27 49q51 43 115 43q51 0 76 -27.5t25 -68.5q0 -87 -87 -118l-1 -4
q23 -11 37.5 -31.5t14.5 -55.5q0 -64 -40.5 -103t-110.5 -39z" />
    <glyph glyph-name="acute" unicode="&#xb4;" horiz-adv-x="264" 
d="M112 606l2 9q68 82 108 151h106l-1 -8q-11 -14 -30.5 -35t-42.5 -44t-44.5 -42.5t-35.5 -30.5h-62z" />
    <glyph glyph-name="uni03BC" unicode="&#x3bc;" horiz-adv-x="423" 
d="M-54 -240l165 779h89l-71 -338q-5 -23 -7.5 -41t-2.5 -32q0 -56 40 -56q38 0 65.5 40t46.5 134l63 293h89l-114 -539h-71l4 61h-2q-22 -37 -46 -54t-52 -17q-38 0 -55 36h-2q-1 -18 -3 -35t-6 -37l-41 -194h-89z" />
    <glyph glyph-name="paragraph" unicode="&#xb6;" horiz-adv-x="469" 
d="M237 -127l-1 430q-12 -6 -33 -6q-36 0 -60 20t-37.5 53.5t-19.5 74.5t-6 84q0 65 16 117.5t49 83t85 30.5h189v-887h-59v831h-64v-831h-59z" />
    <glyph glyph-name="periodcentered" unicode="&#xb7;" horiz-adv-x="214" 
d="M109 286q-22 0 -34.5 12.5t-12.5 34.5q0 34 18.5 60t53.5 26q21 0 33 -12.5t12 -34.5q0 -37 -21 -61.5t-49 -24.5z" />
    <glyph glyph-name="cedilla" unicode="&#xb8;" horiz-adv-x="181" 
d="M-17 -240q-17 0 -33.5 2t-32.5 6v56q9 -3 23 -5t32 -2q31 0 48 14.5t17 39.5q0 42 -66 49l50 80h53l-33 -48q32 -7 50.5 -26.5t18.5 -50.5q0 -57 -36.5 -86t-90.5 -29z" />
    <glyph glyph-name="uni00B9" unicode="&#xb9;" horiz-adv-x="285" 
d="M148 416l64 294q3 15 6 26t7 23q-8 -7 -15.5 -13t-11.5 -10l-59 -42l-29 46l138 104h63l-92 -428h-71z" />
    <glyph glyph-name="ordmasculine" unicode="&#xba;" horiz-adv-x="284" 
d="M165 379q-49 0 -73 31.5t-24 87.5q0 39 9.5 78.5t29 72.5t48 53t67.5 20q41 0 69 -28t28 -89q0 -39 -9.5 -79t-29 -73t-48.5 -53.5t-67 -20.5zM174 437q28 0 45 26t25 63.5t8 72.5q0 31 -9 48t-30 17q-26 0 -43.5 -25.5t-26 -63t-8.5 -73.5q0 -65 39 -65z" />
    <glyph glyph-name="guillemotright" unicode="&#xbb;" horiz-adv-x="438" 
d="M239 56l-62 40l135 170l-71 176l71 31l96 -204l-2 -12zM54 56l-61 40l134 170l-69 176l70 31l95 -204l-1 -12z" />
    <glyph glyph-name="onequarter" unicode="&#xbc;" horiz-adv-x="672" 
d="M53 0l518 714h75l-517 -714h-76zM127 286l64 294q3 15 6 26t7 23q-8 -7 -15.5 -13t-11.5 -10l-59 -42l-29 46l138 104h63l-92 -428h-71zM478 0l19 90h-145l9 52l204 289h74l-61 -282h47l-13 -59h-45l-20 -90h-69zM426 149h83l26 122q4 19 8 35t8 30q-9 -15 -17.5 -29.5
t-19.5 -30.5z" />
    <glyph glyph-name="onehalf" unicode="&#xbd;" horiz-adv-x="709" 
d="M46 0l518 714h75l-517 -714h-76zM127 286l64 294q3 15 6 26t7 23q-8 -7 -15.5 -13t-11.5 -10l-59 -42l-29 46l138 104h63l-92 -428h-71zM381 0l11 60l118 129q39 42 62.5 76t23.5 69q0 44 -41 44q-19 0 -38 -11.5t-36 -26.5l-25 50q49 49 118 49q46 0 71 -25.5t25 -68.5
q0 -36 -16 -68t-40.5 -61.5t-51.5 -56.5l-92 -96h150l-14 -63h-225z" />
    <glyph glyph-name="threequarters" unicode="&#xbe;" horiz-adv-x="677" 
d="M120 278q-31 0 -53.5 6.5t-39.5 17.5v69q18 -15 41 -23t53 -8q37 0 58.5 22.5t21.5 57.5q0 28 -16 43t-42 15h-34l11 57h31q41 0 62.5 23.5t21.5 58.5q0 46 -43 46q-20 0 -37.5 -8t-36.5 -22l-27 49q51 43 115 43q51 0 76 -27.5t25 -68.5q0 -87 -87 -118l-1 -4
q23 -11 37.5 -31.5t14.5 -55.5q0 -64 -40.5 -103t-110.5 -39zM65 0l518 714h75l-517 -714h-76zM484 0l19 90h-145l9 52l204 289h74l-61 -282h47l-13 -59h-45l-20 -90h-69zM432 149h83l26 122q4 19 8 35t8 30q-9 -15 -17.5 -29.5t-19.5 -30.5z" />
    <glyph glyph-name="questiondown" unicode="&#xbf;" horiz-adv-x="301" 
d="M232 327q-10 -49 -21 -82t-27 -60t-42 -56q-28 -33 -50 -59.5t-35 -54t-13 -64.5q0 -59 55 -59q27 0 51 11.5t46 27.5l18 -71q-65 -50 -136 -50q-61 0 -93 32t-32 89q0 67 33.5 119t79.5 102q29 32 46 56t27.5 51t17.5 68h75zM233 543q48 0 48 -47q0 -34 -18.5 -60
t-54.5 -26q-20 0 -32 12.5t-12 34.5q0 37 20 61.5t49 24.5z" />
    <glyph glyph-name="Agrave" unicode="&#xc0;" horiz-adv-x="423" 
d="M-64 0l300 717h119l4 -717h-97l1 214h-139l-86 -214h-102zM156 298h111l5 241q0 24 1 45.5t3 41.5h-3q-4 -19 -10.5 -40.5t-15.5 -46.5zM301 792q-13 18 -31 45.5t-33 56t-23 49.5v8h103q8 -35 18.5 -71.5t26.5 -76.5l-1 -11h-60z" />
    <glyph glyph-name="Aacute" unicode="&#xc1;" horiz-adv-x="423" 
d="M-64 0l300 717h119l4 -717h-97l1 214h-139l-86 -214h-102zM156 298h111l5 241q0 24 1 45.5t3 41.5h-3q-4 -19 -10.5 -40.5t-15.5 -46.5zM251 791l2 9q68 82 108 151h106l-1 -8q-11 -14 -30.5 -35t-42.5 -44t-44.5 -42.5t-35.5 -30.5h-62z" />
    <glyph glyph-name="Acircumflex" unicode="&#xc2;" horiz-adv-x="423" 
d="M-64 0l300 717h119l4 -717h-97l1 214h-139l-86 -214h-102zM156 298h111l5 241q0 24 1 45.5t3 41.5h-3q-4 -19 -10.5 -40.5t-15.5 -46.5zM176 791l2 10q34 37 64.5 75.5t53.5 74.5h81q3 -18 12.5 -46.5t21 -56.5t20.5 -46l-2 -11h-52q-13 18 -27 40.5t-28 48.5
q-26 -28 -49 -50.5t-43 -38.5h-54z" />
    <glyph glyph-name="Atilde" unicode="&#xc3;" horiz-adv-x="423" 
d="M-64 0l300 717h119l4 -717h-97l1 214h-139l-86 -214h-102zM156 298h111l5 241q0 24 1 45.5t3 41.5h-3q-4 -19 -10.5 -40.5t-15.5 -46.5zM165 792q13 61 36 96.5t65 35.5q28 0 46.5 -14.5t33.5 -28.5t31 -14q15 0 24 12t17 46h55q-14 -74 -39.5 -103t-57.5 -29
q-27 0 -45.5 14.5t-34 29t-32.5 14.5q-31 0 -44 -59h-55z" />
    <glyph glyph-name="Adieresis" unicode="&#xc4;" horiz-adv-x="423" 
d="M-64 0l300 717h119l4 -717h-97l1 214h-139l-86 -214h-102zM156 298h111l5 241q0 24 1 45.5t3 41.5h-3q-4 -19 -10.5 -40.5t-15.5 -46.5zM386 813q-39 0 -39 40q0 28 15.5 49t43.5 21q37 0 37 -38q0 -32 -16.5 -52t-40.5 -20zM230 813q-38 0 -38 40q0 28 15.5 49t43.5 21
q36 0 36 -38q0 -32 -16 -52t-41 -20z" />
    <glyph glyph-name="Aring" unicode="&#xc5;" horiz-adv-x="423" 
d="M-64 0l300 717h119l4 -717h-97l1 214h-139l-86 -214h-102zM156 298h111l5 241q0 24 1 45.5t3 41.5h-3q-4 -19 -10.5 -40.5t-15.5 -46.5zM316 778q-50 0 -77.5 28.5t-27.5 75.5q0 46 28 74t77 28q46 0 75 -28t29 -72q0 -46 -27.5 -76t-76.5 -30zM317 828q24 0 38 15t14 39
q0 23 -13.5 38t-38.5 15t-39.5 -15t-14.5 -38q0 -24 13.5 -39t40.5 -15z" />
    <glyph glyph-name="AE" unicode="&#xc6;" horiz-adv-x="575" 
d="M-66 0l341 714h346l-18 -83h-176l-45 -217h164l-18 -83h-164l-53 -248h176l-17 -83h-269l46 214h-114l-100 -214h-99zM171 299h94l70 331h-12z" />
    <glyph glyph-name="Ccedilla" unicode="&#xc7;" horiz-adv-x="399" 
d="M199 -10q-81 0 -122 59t-41 171q0 61 12.5 130.5t37.5 135.5t62 120.5t87 86.5t112 32q74 0 124 -38l-47 -76q-36 30 -77 30q-44 0 -78.5 -30t-60 -78.5t-42 -104.5t-25 -109t-8.5 -92q0 -80 21.5 -116.5t67.5 -36.5q24 0 49 7t51 19v-85q-29 -13 -61 -19t-62 -6z
M125 -240q-17 0 -33.5 2t-32.5 6v56q9 -3 23 -5t32 -2q31 0 48 14.5t17 39.5q0 42 -66 49l50 80h53l-33 -48q32 -7 50.5 -26.5t18.5 -50.5q0 -57 -36.5 -86t-90.5 -29z" />
    <glyph glyph-name="Egrave" unicode="&#xc8;" horiz-adv-x="374" 
d="M-1 0l151 714h269l-17 -83h-176l-45 -217h163l-18 -83h-163l-53 -248h176l-18 -83h-269zM280 785q-13 18 -31 45.5t-33 56t-23 49.5v8h103q8 -35 18.5 -71.5t26.5 -76.5l-1 -11h-60z" />
    <glyph glyph-name="Eacute" unicode="&#xc9;" horiz-adv-x="374" 
d="M-1 0l151 714h269l-17 -83h-176l-45 -217h163l-18 -83h-163l-53 -248h176l-18 -83h-269zM231 784l2 9q68 82 108 151h106l-1 -8q-11 -14 -30.5 -35t-42.5 -44t-44.5 -42.5t-35.5 -30.5h-62z" />
    <glyph glyph-name="Ecircumflex" unicode="&#xca;" horiz-adv-x="374" 
d="M-1 0l151 714h269l-17 -83h-176l-45 -217h163l-18 -83h-163l-53 -248h176l-18 -83h-269zM166 771l2 10q34 37 64.5 75.5t53.5 74.5h81q3 -18 12.5 -46.5t21 -56.5t20.5 -46l-2 -11h-52q-13 18 -27 40.5t-28 48.5q-26 -28 -49 -50.5t-43 -38.5h-54z" />
    <glyph glyph-name="Edieresis" unicode="&#xcb;" horiz-adv-x="374" 
d="M-1 0l151 714h269l-17 -83h-176l-45 -217h163l-18 -83h-163l-53 -248h176l-18 -83h-269zM370 793q-39 0 -39 40q0 28 15.5 49t43.5 21q37 0 37 -38q0 -32 -16.5 -52t-40.5 -20zM214 793q-38 0 -38 40q0 28 15.5 49t43.5 21q36 0 36 -38q0 -32 -16 -52t-41 -20z" />
    <glyph glyph-name="Igrave" unicode="&#xcc;" horiz-adv-x="277" 
d="M-49 0l12 51l80 20l121 572l-72 20l10 51h247l-11 -51l-81 -20l-121 -572l72 -20l-10 -51h-247zM230 791q-13 18 -31 45.5t-33 56t-23 49.5v8h103q8 -35 18.5 -71.5t26.5 -76.5l-1 -11h-60z" />
    <glyph glyph-name="Iacute" unicode="&#xcd;" horiz-adv-x="277" 
d="M-49 0l12 51l80 20l121 572l-72 20l10 51h247l-11 -51l-81 -20l-121 -572l72 -20l-10 -51h-247zM180 790l2 9q68 82 108 151h106l-1 -8q-11 -14 -30.5 -35t-42.5 -44t-44.5 -42.5t-35.5 -30.5h-62z" />
    <glyph glyph-name="Icircumflex" unicode="&#xce;" horiz-adv-x="277" 
d="M-49 0l12 51l80 20l121 572l-72 20l10 51h247l-11 -51l-81 -20l-121 -572l72 -20l-10 -51h-247zM112 792l2 10q34 37 64.5 75.5t53.5 74.5h81q3 -18 12.5 -46.5t21 -56.5t20.5 -46l-2 -11h-52q-13 18 -27 40.5t-28 48.5q-26 -28 -49 -50.5t-43 -38.5h-54z" />
    <glyph glyph-name="Idieresis" unicode="&#xcf;" horiz-adv-x="277" 
d="M-49 0l12 51l80 20l121 572l-72 20l10 51h247l-11 -51l-81 -20l-121 -572l72 -20l-10 -51h-247zM321 814q-39 0 -39 40q0 28 15.5 49t43.5 21q37 0 37 -38q0 -32 -16.5 -52t-40.5 -20zM165 814q-38 0 -38 40q0 28 15.5 49t43.5 21q36 0 36 -38q0 -32 -16 -52t-41 -20z
" />
    <glyph glyph-name="Eth" unicode="&#xd0;" horiz-adv-x="477" 
d="M-1 0l71 334h-49l15 74h49l65 306h124q93 0 141.5 -54.5t48.5 -158.5q0 -67 -12 -137t-37 -135t-64.5 -116.5t-95 -82t-128.5 -30.5h-128zM110 85h31q51 0 88.5 28t63.5 74t42 101t23.5 109t7.5 97q0 70 -25.5 103t-75.5 33h-39l-47 -222h81l-16 -74h-82z" />
    <glyph glyph-name="Ntilde" unicode="&#xd1;" horiz-adv-x="527" 
d="M-1 0l151 714h109l90 -544h3q9 52 18.5 100t14.5 77l78 367h90l-152 -714h-106l-92 554h-3q-5 -37 -12 -76.5t-14 -72.5t-11 -52l-75 -353h-89zM213 772q13 61 36 96.5t65 35.5q28 0 46.5 -14.5t33.5 -28.5t31 -14q15 0 24 12t17 46h55q-14 -74 -39.5 -103t-57.5 -29
q-27 0 -45.5 14.5t-34 29t-32.5 14.5q-31 0 -44 -59h-55z" />
    <glyph glyph-name="Ograve" unicode="&#xd2;" horiz-adv-x="508" 
d="M199 -10q-83 0 -123.5 52.5t-40.5 162.5q0 65 12 136.5t36 139.5t59.5 123t83.5 87.5t107 32.5q83 0 122.5 -51.5t39.5 -156.5q0 -56 -10.5 -126t-32.5 -140t-57 -129t-83.5 -95t-112.5 -36zM206 75q39 0 70 30.5t54 81t38.5 110t23 117.5t7.5 104q0 123 -73 123
q-42 0 -73.5 -32.5t-54.5 -84.5t-37.5 -112t-21.5 -115t-7 -93q0 -70 18.5 -99.5t55.5 -29.5zM344 785q-13 18 -31 45.5t-33 56t-23 49.5v8h103q8 -35 18.5 -71.5t26.5 -76.5l-1 -11h-60z" />
    <glyph glyph-name="Oacute" unicode="&#xd3;" horiz-adv-x="508" 
d="M199 -10q-83 0 -123.5 52.5t-40.5 162.5q0 65 12 136.5t36 139.5t59.5 123t83.5 87.5t107 32.5q83 0 122.5 -51.5t39.5 -156.5q0 -56 -10.5 -126t-32.5 -140t-57 -129t-83.5 -95t-112.5 -36zM206 75q39 0 70 30.5t54 81t38.5 110t23 117.5t7.5 104q0 123 -73 123
q-42 0 -73.5 -32.5t-54.5 -84.5t-37.5 -112t-21.5 -115t-7 -93q0 -70 18.5 -99.5t55.5 -29.5zM296 784l2 9q68 82 108 151h106l-1 -8q-11 -14 -30.5 -35t-42.5 -44t-44.5 -42.5t-35.5 -30.5h-62z" />
    <glyph glyph-name="Ocircumflex" unicode="&#xd4;" horiz-adv-x="508" 
d="M199 -10q-83 0 -123.5 52.5t-40.5 162.5q0 65 12 136.5t36 139.5t59.5 123t83.5 87.5t107 32.5q83 0 122.5 -51.5t39.5 -156.5q0 -56 -10.5 -126t-32.5 -140t-57 -129t-83.5 -95t-112.5 -36zM206 75q39 0 70 30.5t54 81t38.5 110t23 117.5t7.5 104q0 123 -73 123
q-42 0 -73.5 -32.5t-54.5 -84.5t-37.5 -112t-21.5 -115t-7 -93q0 -70 18.5 -99.5t55.5 -29.5zM211 771l2 10q34 37 64.5 75.5t53.5 74.5h81q3 -18 12.5 -46.5t21 -56.5t20.5 -46l-2 -11h-52q-13 18 -27 40.5t-28 48.5q-26 -28 -49 -50.5t-43 -38.5h-54z" />
    <glyph glyph-name="Otilde" unicode="&#xd5;" horiz-adv-x="508" 
d="M199 -10q-83 0 -123.5 52.5t-40.5 162.5q0 65 12 136.5t36 139.5t59.5 123t83.5 87.5t107 32.5q83 0 122.5 -51.5t39.5 -156.5q0 -56 -10.5 -126t-32.5 -140t-57 -129t-83.5 -95t-112.5 -36zM206 75q39 0 70 30.5t54 81t38.5 110t23 117.5t7.5 104q0 123 -73 123
q-42 0 -73.5 -32.5t-54.5 -84.5t-37.5 -112t-21.5 -115t-7 -93q0 -70 18.5 -99.5t55.5 -29.5zM203 772q13 61 36 96.5t65 35.5q28 0 46.5 -14.5t33.5 -28.5t31 -14q15 0 24 12t17 46h55q-14 -74 -39.5 -103t-57.5 -29q-27 0 -45.5 14.5t-34 29t-32.5 14.5q-31 0 -44 -59h-55
z" />
    <glyph glyph-name="Odieresis" unicode="&#xd6;" horiz-adv-x="508" 
d="M199 -10q-83 0 -123.5 52.5t-40.5 162.5q0 65 12 136.5t36 139.5t59.5 123t83.5 87.5t107 32.5q83 0 122.5 -51.5t39.5 -156.5q0 -56 -10.5 -126t-32.5 -140t-57 -129t-83.5 -95t-112.5 -36zM206 75q39 0 70 30.5t54 81t38.5 110t23 117.5t7.5 104q0 123 -73 123
q-42 0 -73.5 -32.5t-54.5 -84.5t-37.5 -112t-21.5 -115t-7 -93q0 -70 18.5 -99.5t55.5 -29.5zM424 793q-39 0 -39 40q0 28 15.5 49t43.5 21q37 0 37 -38q0 -32 -16.5 -52t-40.5 -20zM268 793q-38 0 -38 40q0 28 15.5 49t43.5 21q36 0 36 -38q0 -32 -16 -52t-41 -20z" />
    <glyph glyph-name="multiply" unicode="&#xd7;" horiz-adv-x="443" 
d="M365 542l56 -54l-135 -135l132 -134l-54 -54l-134 133l-134 -133l-53 55l132 133l-132 133l54 55l133 -133z" />
    <glyph glyph-name="Oslash" unicode="&#xd8;" horiz-adv-x="508" 
d="M41 -49l-47 27l63 101q-11 24 -16.5 55.5t-5.5 70.5q0 65 12 136.5t35.5 139.5t59.5 123t84 87.5t108 32.5q69 0 108 -43l48 76l48 -29l-61 -96q18 -45 18 -116q0 -56 -10.5 -126t-32.5 -140t-57 -129t-83.5 -95t-112.5 -36q-68 0 -106 41zM134 194l255 401
q-19 46 -64 46q-39 0 -69 -29t-52 -75.5t-36.5 -100.5t-22.5 -106t-10 -90q-1 -13 -1.5 -24.5t0.5 -21.5zM206 75q36 0 65 27t51.5 71.5t38 98t24 108t10.5 100.5q3 17 1 34l-251 -398q9 -22 24.5 -31.5t36.5 -9.5z" />
    <glyph glyph-name="Ugrave" unicode="&#xd9;" horiz-adv-x="483" 
d="M183 -10q-71 0 -110.5 40t-39.5 114q0 18 2.5 40t7.5 44l104 486h93l-104 -490q-8 -38 -8 -68q0 -81 67 -81q47 0 74.5 37.5t45.5 120.5l103 481h94l-106 -491q-22 -108 -73 -170.5t-150 -62.5zM331 785q-13 18 -31 45.5t-33 56t-23 49.5v8h103q8 -35 18.5 -71.5
t26.5 -76.5l-1 -11h-60z" />
    <glyph glyph-name="Uacute" unicode="&#xda;" horiz-adv-x="483" 
d="M183 -10q-71 0 -110.5 40t-39.5 114q0 18 2.5 40t7.5 44l104 486h93l-104 -490q-8 -38 -8 -68q0 -81 67 -81q47 0 74.5 37.5t45.5 120.5l103 481h94l-106 -491q-22 -108 -73 -170.5t-150 -62.5zM285 784l2 9q68 82 108 151h106l-1 -8q-11 -14 -30.5 -35t-42.5 -44
t-44.5 -42.5t-35.5 -30.5h-62z" />
    <glyph glyph-name="Ucircumflex" unicode="&#xdb;" horiz-adv-x="483" 
d="M183 -10q-71 0 -110.5 40t-39.5 114q0 18 2.5 40t7.5 44l104 486h93l-104 -490q-8 -38 -8 -68q0 -81 67 -81q47 0 74.5 37.5t45.5 120.5l103 481h94l-106 -491q-22 -108 -73 -170.5t-150 -62.5zM209 771l2 10q34 37 64.5 75.5t53.5 74.5h81q3 -18 12.5 -46.5t21 -56.5
t20.5 -46l-2 -11h-52q-13 18 -27 40.5t-28 48.5q-26 -28 -49 -50.5t-43 -38.5h-54z" />
    <glyph glyph-name="Udieresis" unicode="&#xdc;" horiz-adv-x="483" 
d="M183 -10q-71 0 -110.5 40t-39.5 114q0 18 2.5 40t7.5 44l104 486h93l-104 -490q-8 -38 -8 -68q0 -81 67 -81q47 0 74.5 37.5t45.5 120.5l103 481h94l-106 -491q-22 -108 -73 -170.5t-150 -62.5zM416 793q-39 0 -39 40q0 28 15.5 49t43.5 21q37 0 37 -38q0 -32 -16.5 -52
t-40.5 -20zM260 793q-38 0 -38 40q0 28 15.5 49t43.5 21q36 0 36 -38q0 -32 -16 -52t-41 -20z" />
    <glyph glyph-name="Yacute" unicode="&#xdd;" horiz-adv-x="376" 
d="M78 0l57 274l-49 440h97l24 -315l157 315h100l-234 -437l-59 -277h-93zM232 784l2 9q68 82 108 151h106l-1 -8q-11 -14 -30.5 -35t-42.5 -44t-44.5 -42.5t-35.5 -30.5h-62z" />
    <glyph glyph-name="Thorn" unicode="&#xde;" horiz-adv-x="413" 
d="M-1 0l151 714h94l-26 -121h24q83 0 125.5 -42.5t42.5 -114.5q0 -77 -28 -141.5t-82 -103.5t-132 -39h-44l-31 -152h-94zM142 235h27q71 0 108 52t37 136q0 87 -87 87h-26z" />
    <glyph glyph-name="germandbls" unicode="&#xdf;" horiz-adv-x="433" 
d="M-78 -240q-16 0 -29 2t-27 6v80q21 -7 44 -7q31 0 46 26t26 82l132 623q20 92 65 142.5t122 50.5q65 0 100 -33.5t35 -86.5q0 -47 -18 -81t-52 -71q-28 -29 -45.5 -53t-17.5 -56q0 -20 10 -41.5t24 -46.5q18 -27 31 -57.5t13 -72.5q0 -78 -46 -127t-124 -49q-57 0 -95 25
l13 86q20 -17 42 -24t42 -7q35 0 55 24t20 63q0 25 -10 48.5t-29 55.5q-19 31 -29.5 57t-10.5 54q0 36 17.5 69t48.5 64q31 33 50 61t19 68q0 25 -13 38.5t-36 13.5q-35 0 -57 -30t-35 -91l-134 -623q-11 -52 -26.5 -93.5t-43.5 -65t-77 -23.5z" />
    <glyph glyph-name="agrave" unicode="&#xe0;" horiz-adv-x="432" 
d="M129 -10q-51 0 -78.5 39.5t-27.5 112.5q0 44 8 98.5t25 108.5t42.5 99.5t60.5 73t80 27.5q69 0 91 -78h3l22 68h77l-114 -539h-73l5 75h-2q-26 -40 -54.5 -62.5t-64.5 -22.5zM161 68q32 0 54.5 26.5t38.5 67t27 82.5q23 92 23 150q0 36 -14 55.5t-38 19.5
q-26 0 -47 -21.5t-37.5 -57.5t-28 -78t-17.5 -84.5t-6 -76.5q0 -83 45 -83zM271 612q-13 18 -31 45.5t-33 56t-23 49.5v8h103q8 -35 18.5 -71.5t26.5 -76.5l-1 -11h-60z" />
    <glyph glyph-name="aacute" unicode="&#xe1;" horiz-adv-x="432" 
d="M129 -10q-51 0 -78.5 39.5t-27.5 112.5q0 44 8 98.5t25 108.5t42.5 99.5t60.5 73t80 27.5q69 0 91 -78h3l22 68h77l-114 -539h-73l5 75h-2q-26 -40 -54.5 -62.5t-64.5 -22.5zM161 68q32 0 54.5 26.5t38.5 67t27 82.5q23 92 23 150q0 36 -14 55.5t-38 19.5
q-26 0 -47 -21.5t-37.5 -57.5t-28 -78t-17.5 -84.5t-6 -76.5q0 -83 45 -83zM221 611l2 9q68 82 108 151h106l-1 -8q-11 -14 -30.5 -35t-42.5 -44t-44.5 -42.5t-35.5 -30.5h-62z" />
    <glyph glyph-name="acircumflex" unicode="&#xe2;" horiz-adv-x="432" 
d="M129 -10q-51 0 -78.5 39.5t-27.5 112.5q0 44 8 98.5t25 108.5t42.5 99.5t60.5 73t80 27.5q69 0 91 -78h3l22 68h77l-114 -539h-73l5 75h-2q-26 -40 -54.5 -62.5t-64.5 -22.5zM161 68q32 0 54.5 26.5t38.5 67t27 82.5q23 92 23 150q0 36 -14 55.5t-38 19.5
q-26 0 -47 -21.5t-37.5 -57.5t-28 -78t-17.5 -84.5t-6 -76.5q0 -83 45 -83zM157 609l2 10q34 37 64.5 75.5t53.5 74.5h81q3 -18 12.5 -46.5t21 -56.5t20.5 -46l-2 -11h-52q-13 18 -27 40.5t-28 48.5q-26 -28 -49 -50.5t-43 -38.5h-54z" />
    <glyph glyph-name="atilde" unicode="&#xe3;" horiz-adv-x="432" 
d="M129 -10q-51 0 -78.5 39.5t-27.5 112.5q0 44 8 98.5t25 108.5t42.5 99.5t60.5 73t80 27.5q69 0 91 -78h3l22 68h77l-114 -539h-73l5 75h-2q-26 -40 -54.5 -62.5t-64.5 -22.5zM161 68q32 0 54.5 26.5t38.5 67t27 82.5q23 92 23 150q0 36 -14 55.5t-38 19.5
q-26 0 -47 -21.5t-37.5 -57.5t-28 -78t-17.5 -84.5t-6 -76.5q0 -83 45 -83zM146 610q13 61 36 96.5t65 35.5q28 0 46.5 -14.5t33.5 -28.5t31 -14q15 0 24 12t17 46h55q-14 -74 -39.5 -103t-57.5 -29q-27 0 -45.5 14.5t-34 29t-32.5 14.5q-31 0 -44 -59h-55z" />
    <glyph glyph-name="adieresis" unicode="&#xe4;" horiz-adv-x="432" 
d="M129 -10q-51 0 -78.5 39.5t-27.5 112.5q0 44 8 98.5t25 108.5t42.5 99.5t60.5 73t80 27.5q69 0 91 -78h3l22 68h77l-114 -539h-73l5 75h-2q-26 -40 -54.5 -62.5t-64.5 -22.5zM161 68q32 0 54.5 26.5t38.5 67t27 82.5q23 92 23 150q0 36 -14 55.5t-38 19.5
q-26 0 -47 -21.5t-37.5 -57.5t-28 -78t-17.5 -84.5t-6 -76.5q0 -83 45 -83zM367 631q-39 0 -39 40q0 28 15.5 49t43.5 21q37 0 37 -38q0 -32 -16.5 -52t-40.5 -20zM211 631q-38 0 -38 40q0 28 15.5 49t43.5 21q36 0 36 -38q0 -32 -16 -52t-41 -20z" />
    <glyph glyph-name="aring" unicode="&#xe5;" horiz-adv-x="432" 
d="M129 -10q-51 0 -78.5 39.5t-27.5 112.5q0 44 8 98.5t25 108.5t42.5 99.5t60.5 73t80 27.5q69 0 91 -78h3l22 68h77l-114 -539h-73l5 75h-2q-26 -40 -54.5 -62.5t-64.5 -22.5zM161 68q32 0 54.5 26.5t38.5 67t27 82.5q23 92 23 150q0 36 -14 55.5t-38 19.5
q-26 0 -47 -21.5t-37.5 -57.5t-28 -78t-17.5 -84.5t-6 -76.5q0 -83 45 -83zM300 608q-50 0 -77.5 28.5t-27.5 75.5q0 46 28 74t77 28q46 0 75 -28t29 -72q0 -46 -27.5 -76t-76.5 -30zM301 658q24 0 38 15t14 39q0 23 -13.5 38t-38.5 15t-39.5 -15t-14.5 -38q0 -24 13.5 -39
t40.5 -15z" />
    <glyph glyph-name="ae" unicode="&#xe6;" horiz-adv-x="630" 
d="M123 -10q-47 0 -73.5 39.5t-26.5 112.5q0 70 15 142t43.5 132t68.5 96.5t89 36.5q30 0 52.5 -17t33.5 -53h2l17 60h65l-12 -56q20 25 47.5 45t65.5 20q51 0 80 -30.5t29 -84.5q0 -93 -67.5 -143.5t-184.5 -50.5h-7q-4 -17 -5.5 -35.5t-1.5 -36.5q0 -48 17.5 -75t61.5 -27
q54 0 116 36l-13 -78q-30 -18 -57.5 -25.5t-62.5 -7.5q-41 0 -66.5 18.5t-34.5 50.5l-12 -59h-65l11 71h-2q-24 -38 -54 -59.5t-69 -21.5zM373 307h3q85 0 122 33.5t37 86.5q0 22 -11 35t-34 13q-26 0 -48 -22.5t-39.5 -60.5t-29.5 -85zM161 67q29 0 51 24.5t38 64.5t26 85
q11 48 16 85.5t5 69.5q0 73 -45 73q-28 0 -53 -30t-43.5 -78t-29 -104t-10.5 -108q0 -82 45 -82z" />
    <glyph glyph-name="ccedilla" unicode="&#xe7;" horiz-adv-x="329" 
d="M157 -10q-65 0 -99 42.5t-34 122.5q0 48 8.5 101.5t26.5 105.5t46 94.5t67.5 67.5t90.5 25q55 0 97 -27l-37 -73q-27 21 -61 21q-37 0 -64.5 -30.5t-45.5 -78.5t-27 -100.5t-9 -95.5q0 -96 63 -96q35 0 85 31v-79q-20 -13 -48.5 -22t-58.5 -9zM78 -240q-17 0 -33.5 2
t-32.5 6v56q9 -3 23 -5t32 -2q31 0 48 14.5t17 39.5q0 42 -66 49l50 80h53l-33 -48q32 -7 50.5 -26.5t18.5 -50.5q0 -57 -36.5 -86t-90.5 -29z" />
    <glyph glyph-name="egrave" unicode="&#xe8;" horiz-adv-x="394" 
d="M169 -10q-68 0 -107 44t-39 123q0 78 17.5 148.5t49 125t75.5 86t98 31.5q53 0 84.5 -29.5t31.5 -85.5q0 -91 -67 -142.5t-185 -51.5h-7q-8 -37 -8 -72q0 -53 19.5 -77.5t59.5 -24.5q29 0 53 7.5t55 24.5v-73q-29 -19 -61.5 -26.5t-68.5 -7.5zM132 307h3q85 0 122.5 33
t37.5 87q0 22 -11 35t-34 13q-36 0 -67.5 -47t-50.5 -121zM254 606q-13 18 -31 45.5t-33 56t-23 49.5v8h103q8 -35 18.5 -71.5t26.5 -76.5l-1 -11h-60z" />
    <glyph glyph-name="eacute" unicode="&#xe9;" horiz-adv-x="394" 
d="M169 -10q-68 0 -107 44t-39 123q0 78 17.5 148.5t49 125t75.5 86t98 31.5q53 0 84.5 -29.5t31.5 -85.5q0 -91 -67 -142.5t-185 -51.5h-7q-8 -37 -8 -72q0 -53 19.5 -77.5t59.5 -24.5q29 0 53 7.5t55 24.5v-73q-29 -19 -61.5 -26.5t-68.5 -7.5zM132 307h3q85 0 122.5 33
t37.5 87q0 22 -11 35t-34 13q-36 0 -67.5 -47t-50.5 -121zM201 605l2 9q68 82 108 151h106l-1 -8q-11 -14 -30.5 -35t-42.5 -44t-44.5 -42.5t-35.5 -30.5h-62z" />
    <glyph glyph-name="ecircumflex" unicode="&#xea;" horiz-adv-x="394" 
d="M169 -10q-68 0 -107 44t-39 123q0 78 17.5 148.5t49 125t75.5 86t98 31.5q53 0 84.5 -29.5t31.5 -85.5q0 -91 -67 -142.5t-185 -51.5h-7q-8 -37 -8 -72q0 -53 19.5 -77.5t59.5 -24.5q29 0 53 7.5t55 24.5v-73q-29 -19 -61.5 -26.5t-68.5 -7.5zM132 307h3q85 0 122.5 33
t37.5 87q0 22 -11 35t-34 13q-36 0 -67.5 -47t-50.5 -121zM144 606l2 10q34 37 64.5 75.5t53.5 74.5h81q3 -18 12.5 -46.5t21 -56.5t20.5 -46l-2 -11h-52q-13 18 -27 40.5t-28 48.5q-26 -28 -49 -50.5t-43 -38.5h-54z" />
    <glyph glyph-name="edieresis" unicode="&#xeb;" horiz-adv-x="394" 
d="M169 -10q-68 0 -107 44t-39 123q0 78 17.5 148.5t49 125t75.5 86t98 31.5q53 0 84.5 -29.5t31.5 -85.5q0 -91 -67 -142.5t-185 -51.5h-7q-8 -37 -8 -72q0 -53 19.5 -77.5t59.5 -24.5q29 0 53 7.5t55 24.5v-73q-29 -19 -61.5 -26.5t-68.5 -7.5zM132 307h3q85 0 122.5 33
t37.5 87q0 22 -11 35t-34 13q-36 0 -67.5 -47t-50.5 -121zM355 628q-39 0 -39 40q0 28 15.5 49t43.5 21q37 0 37 -38q0 -32 -16.5 -52t-40.5 -20zM199 628q-38 0 -38 40q0 28 15.5 49t43.5 21q36 0 36 -38q0 -32 -16 -52t-41 -20z" />
    <glyph glyph-name="igrave" unicode="&#xec;" horiz-adv-x="201" 
d="M-2 0l114 539h90l-115 -539h-89zM156 611q-13 18 -31 45.5t-33 56t-23 49.5v8h103q8 -35 18.5 -71.5t26.5 -76.5l-1 -11h-60z" />
    <glyph glyph-name="iacute" unicode="&#xed;" horiz-adv-x="201" 
d="M-2 0l114 539h90l-115 -539h-89zM107 610l2 9q68 82 108 151h106l-1 -8q-11 -14 -30.5 -35t-42.5 -44t-44.5 -42.5t-35.5 -30.5h-62z" />
    <glyph glyph-name="icircumflex" unicode="&#xee;" horiz-adv-x="201" 
d="M-2 0l114 539h90l-115 -539h-89zM37 606l2 10q34 37 64.5 75.5t53.5 74.5h81q3 -18 12.5 -46.5t21 -56.5t20.5 -46l-2 -11h-52q-13 18 -27 40.5t-28 48.5q-26 -28 -49 -50.5t-43 -38.5h-54z" />
    <glyph glyph-name="idieresis" unicode="&#xef;" horiz-adv-x="201" 
d="M-2 0l114 539h90l-115 -539h-89zM248 628q-39 0 -39 40q0 28 15.5 49t43.5 21q37 0 37 -38q0 -32 -16.5 -52t-40.5 -20zM92 628q-38 0 -38 40q0 28 15.5 49t43.5 21q36 0 36 -38q0 -32 -16 -52t-41 -20z" />
    <glyph glyph-name="eth" unicode="&#xf0;" horiz-adv-x="416" 
d="M149 -10q-66 0 -102 42t-36 121q0 48 13 104t39.5 106t66.5 82t95 32q35 0 51.5 -21.5t25.5 -49.5h1q0 64 -10.5 115t-39.5 92l-92 -58l-30 44l94 60q-22 25 -65 57l46 52q22 -14 43 -30.5t41 -36.5l92 60l31 -44l-91 -58q34 -51 49.5 -109.5t15.5 -125.5
q0 -50 -7 -108.5t-23 -116t-43.5 -105t-68 -76t-96.5 -28.5zM158 67q30 0 53 23.5t39 60.5t24.5 79t8.5 79q0 90 -56 90q-30 0 -53 -23t-39 -59.5t-24.5 -79t-8.5 -80.5q0 -90 56 -90z" />
    <glyph glyph-name="ntilde" unicode="&#xf1;" horiz-adv-x="423" 
d="M-3 0l115 539h73l-9 -71h3q45 81 118 81q42 0 71 -25t29 -81q0 -20 -4.5 -46t-9.5 -52l-73 -345h-90l70 329q5 24 9 48.5t4 43.5q0 45 -40 45q-42 0 -69 -46.5t-45 -131.5l-61 -288h-91zM139 610q13 61 36 96.5t65 35.5q28 0 46.5 -14.5t33.5 -28.5t31 -14q15 0 24 12
t17 46h55q-14 -74 -39.5 -103t-57.5 -29q-27 0 -45.5 14.5t-34 29t-32.5 14.5q-31 0 -44 -59h-55z" />
    <glyph glyph-name="ograve" unicode="&#xf2;" horiz-adv-x="418" 
d="M159 -10q-65 0 -100 43t-35 123q0 41 8 93t25 104.5t44.5 97t67 71.5t91.5 27q63 0 98.5 -44.5t35.5 -123.5q0 -49 -9 -103t-27 -105t-46 -92.5t-66 -66t-87 -24.5zM169 68q25 0 46.5 21t37.5 55.5t27 76.5t17 84t6 77q0 43 -13.5 66t-40.5 23q-28 0 -49.5 -22.5
t-37.5 -59t-26.5 -79t-15.5 -83.5t-5 -72q0 -87 54 -87zM261 606q-13 18 -31 45.5t-33 56t-23 49.5v8h103q8 -35 18.5 -71.5t26.5 -76.5l-1 -11h-60z" />
    <glyph glyph-name="oacute" unicode="&#xf3;" horiz-adv-x="418" 
d="M159 -10q-65 0 -100 43t-35 123q0 41 8 93t25 104.5t44.5 97t67 71.5t91.5 27q63 0 98.5 -44.5t35.5 -123.5q0 -49 -9 -103t-27 -105t-46 -92.5t-66 -66t-87 -24.5zM169 68q25 0 46.5 21t37.5 55.5t27 76.5t17 84t6 77q0 43 -13.5 66t-40.5 23q-28 0 -49.5 -22.5
t-37.5 -59t-26.5 -79t-15.5 -83.5t-5 -72q0 -87 54 -87zM215 605l2 9q68 82 108 151h106l-1 -8q-11 -14 -30.5 -35t-42.5 -44t-44.5 -42.5t-35.5 -30.5h-62z" />
    <glyph glyph-name="ocircumflex" unicode="&#xf4;" horiz-adv-x="418" 
d="M159 -10q-65 0 -100 43t-35 123q0 41 8 93t25 104.5t44.5 97t67 71.5t91.5 27q63 0 98.5 -44.5t35.5 -123.5q0 -49 -9 -103t-27 -105t-46 -92.5t-66 -66t-87 -24.5zM169 68q25 0 46.5 21t37.5 55.5t27 76.5t17 84t6 77q0 43 -13.5 66t-40.5 23q-28 0 -49.5 -22.5
t-37.5 -59t-26.5 -79t-15.5 -83.5t-5 -72q0 -87 54 -87zM142 606l2 10q34 37 64.5 75.5t53.5 74.5h81q3 -18 12.5 -46.5t21 -56.5t20.5 -46l-2 -11h-52q-13 18 -27 40.5t-28 48.5q-26 -28 -49 -50.5t-43 -38.5h-54z" />
    <glyph glyph-name="otilde" unicode="&#xf5;" horiz-adv-x="418" 
d="M159 -10q-65 0 -100 43t-35 123q0 41 8 93t25 104.5t44.5 97t67 71.5t91.5 27q63 0 98.5 -44.5t35.5 -123.5q0 -49 -9 -103t-27 -105t-46 -92.5t-66 -66t-87 -24.5zM169 68q25 0 46.5 21t37.5 55.5t27 76.5t17 84t6 77q0 43 -13.5 66t-40.5 23q-28 0 -49.5 -22.5
t-37.5 -59t-26.5 -79t-15.5 -83.5t-5 -72q0 -87 54 -87zM127 607q13 61 36 96.5t65 35.5q28 0 46.5 -14.5t33.5 -28.5t31 -14q15 0 24 12t17 46h55q-14 -74 -39.5 -103t-57.5 -29q-27 0 -45.5 14.5t-34 29t-32.5 14.5q-31 0 -44 -59h-55z" />
    <glyph glyph-name="odieresis" unicode="&#xf6;" horiz-adv-x="418" 
d="M159 -10q-65 0 -100 43t-35 123q0 41 8 93t25 104.5t44.5 97t67 71.5t91.5 27q63 0 98.5 -44.5t35.5 -123.5q0 -49 -9 -103t-27 -105t-46 -92.5t-66 -66t-87 -24.5zM169 68q25 0 46.5 21t37.5 55.5t27 76.5t17 84t6 77q0 43 -13.5 66t-40.5 23q-28 0 -49.5 -22.5
t-37.5 -59t-26.5 -79t-15.5 -83.5t-5 -72q0 -87 54 -87zM350 628q-39 0 -39 40q0 28 15.5 49t43.5 21q37 0 37 -38q0 -32 -16.5 -52t-40.5 -20zM194 628q-38 0 -38 40q0 28 15.5 49t43.5 21q36 0 36 -38q0 -32 -16 -52t-41 -20z" />
    <glyph glyph-name="divide" unicode="&#xf7;" horiz-adv-x="443" 
d="M232 468q-56 0 -56 66q0 67 56 67q54 0 54 -67q0 -33 -14.5 -49.5t-39.5 -16.5zM41 313v80h379v-80h-379zM232 104q-56 0 -56 67q0 66 56 66q54 0 54 -66q0 -34 -14.5 -50.5t-39.5 -16.5z" />
    <glyph glyph-name="oslash" unicode="&#xf8;" horiz-adv-x="418" 
d="M33 -61l-45 29l57 89q-10 19 -15.5 44t-5.5 55q0 39 7.5 90t24.5 104t44.5 98t67.5 73t93 28q48 0 79 -31l43 69l47 -29l-55 -84q19 -37 19 -93q0 -42 -8 -94t-25 -104t-44.5 -96t-66.5 -70.5t-91 -26.5q-48 0 -77 25zM114 155l182 289q-14 30 -46 30q-30 0 -54.5 -28.5
t-42 -73.5t-27.5 -95t-12 -93q-2 -17 0 -29zM168 65q30 0 54 27t41 69.5t27.5 91t13.5 92.5q2 15 0 29l-179 -284q15 -25 43 -25z" />
    <glyph glyph-name="ugrave" unicode="&#xf9;" horiz-adv-x="425" 
d="M124 -10q-49 0 -74.5 28t-25.5 80q0 18 3 41.5t8 44.5l76 355h89l-71 -338q-11 -47 -11 -82q0 -48 39 -48q41 0 69.5 47.5t45.5 132.5l61 288h90l-114 -539h-72l6 67h-3q-23 -37 -52.5 -57t-63.5 -20zM263 606q-13 18 -31 45.5t-33 56t-23 49.5v8h103q8 -35 18.5 -71.5
t26.5 -76.5l-1 -11h-60z" />
    <glyph glyph-name="uacute" unicode="&#xfa;" horiz-adv-x="425" 
d="M124 -10q-49 0 -74.5 28t-25.5 80q0 18 3 41.5t8 44.5l76 355h89l-71 -338q-11 -47 -11 -82q0 -48 39 -48q41 0 69.5 47.5t45.5 132.5l61 288h90l-114 -539h-72l6 67h-3q-23 -37 -52.5 -57t-63.5 -20zM220 605l2 9q68 82 108 151h106l-1 -8q-11 -14 -30.5 -35t-42.5 -44
t-44.5 -42.5t-35.5 -30.5h-62z" />
    <glyph glyph-name="ucircumflex" unicode="&#xfb;" horiz-adv-x="425" 
d="M124 -10q-49 0 -74.5 28t-25.5 80q0 18 3 41.5t8 44.5l76 355h89l-71 -338q-11 -47 -11 -82q0 -48 39 -48q41 0 69.5 47.5t45.5 132.5l61 288h90l-114 -539h-72l6 67h-3q-23 -37 -52.5 -57t-63.5 -20zM149 606l2 10q34 37 64.5 75.5t53.5 74.5h81q3 -18 12.5 -46.5
t21 -56.5t20.5 -46l-2 -11h-52q-13 18 -27 40.5t-28 48.5q-26 -28 -49 -50.5t-43 -38.5h-54z" />
    <glyph glyph-name="udieresis" unicode="&#xfc;" horiz-adv-x="425" 
d="M124 -10q-49 0 -74.5 28t-25.5 80q0 18 3 41.5t8 44.5l76 355h89l-71 -338q-11 -47 -11 -82q0 -48 39 -48q41 0 69.5 47.5t45.5 132.5l61 288h90l-114 -539h-72l6 67h-3q-23 -37 -52.5 -57t-63.5 -20zM352 628q-39 0 -39 40q0 28 15.5 49t43.5 21q37 0 37 -38
q0 -32 -16.5 -52t-40.5 -20zM196 628q-38 0 -38 40q0 28 15.5 49t43.5 21q36 0 36 -38q0 -32 -16 -52t-41 -20z" />
    <glyph glyph-name="yacute" unicode="&#xfd;" horiz-adv-x="358" 
d="M-32 -241q-18 0 -32 2.5t-25 7.5l13 81q21 -9 42 -9q28 0 44.5 21t32.5 58l37 83l-16 536h90l1 -286q0 -29 -1 -58.5t-3 -58.5h3q21 64 39 107l124 296h94l-282 -636q-30 -65 -64.5 -104.5t-96.5 -39.5zM189 605l2 9q68 82 108 151h106l-1 -8q-11 -14 -30.5 -35
t-42.5 -44t-44.5 -42.5t-35.5 -30.5h-62z" />
    <glyph glyph-name="thorn" unicode="&#xfe;" horiz-adv-x="428" 
d="M-50 -234l210 994h89l-53 -246q-3 -11 -5.5 -20.5t-4.5 -18.5h3q23 35 51 54.5t63 19.5q50 0 77.5 -37.5t27.5 -114.5q0 -46 -8.5 -101t-26 -109t-43.5 -98.5t-60.5 -71.5t-78.5 -27q-34 0 -57.5 20t-32.5 55h-3q-2 -19 -5.5 -38t-6.5 -33l-48 -228h-88zM179 69
q27 0 49 23.5t38.5 60.5t27.5 80.5t16.5 84.5t5.5 71q0 83 -47 83q-29 0 -52 -26t-40 -66t-28 -83q-11 -42 -16 -82t-5 -69q0 -77 51 -77z" />
    <glyph glyph-name="ydieresis" unicode="&#xff;" horiz-adv-x="358" 
d="M-32 -241q-18 0 -32 2.5t-25 7.5l13 81q21 -9 42 -9q28 0 44.5 21t32.5 58l37 83l-16 536h90l1 -286q0 -29 -1 -58.5t-3 -58.5h3q21 64 39 107l124 296h94l-282 -636q-30 -65 -64.5 -104.5t-96.5 -39.5zM319 628q-39 0 -39 40q0 28 15.5 49t43.5 21q37 0 37 -38
q0 -32 -16.5 -52t-40.5 -20zM163 628q-38 0 -38 40q0 28 15.5 49t43.5 21q36 0 36 -38q0 -32 -16 -52t-41 -20z" />
    <glyph glyph-name="Amacron" unicode="&#x100;" horiz-adv-x="423" 
d="M-64 0l300 717h119l4 -717h-97l1 214h-139l-86 -214h-102zM156 298h111l5 241q0 24 1 45.5t3 41.5h-3q-4 -19 -10.5 -40.5t-15.5 -46.5zM181 794l13 69h247l-15 -69h-245z" />
    <glyph glyph-name="amacron" unicode="&#x101;" horiz-adv-x="432" 
d="M129 -10q-51 0 -78.5 39.5t-27.5 112.5q0 44 8 98.5t25 108.5t42.5 99.5t60.5 73t80 27.5q69 0 91 -78h3l22 68h77l-114 -539h-73l5 75h-2q-26 -40 -54.5 -62.5t-64.5 -22.5zM161 68q32 0 54.5 26.5t38.5 67t27 82.5q23 92 23 150q0 36 -14 55.5t-38 19.5
q-26 0 -47 -21.5t-37.5 -57.5t-28 -78t-17.5 -84.5t-6 -76.5q0 -83 45 -83zM162 612l13 69h247l-15 -69h-245z" />
    <glyph glyph-name="Abreve" unicode="&#x102;" horiz-adv-x="423" 
d="M-64 0l300 717h119l4 -717h-97l1 214h-139l-86 -214h-102zM156 298h111l5 241q0 24 1 45.5t3 41.5h-3q-4 -19 -10.5 -40.5t-15.5 -46.5zM309 791q-56 0 -80.5 28t-24.5 73q0 21 3 39h57q0 -37 11.5 -54t37.5 -17q29 0 46 16t27 55h59q-12 -68 -46.5 -104t-89.5 -36z" />
    <glyph glyph-name="abreve" unicode="&#x103;" horiz-adv-x="432" 
d="M129 -10q-51 0 -78.5 39.5t-27.5 112.5q0 44 8 98.5t25 108.5t42.5 99.5t60.5 73t80 27.5q69 0 91 -78h3l22 68h77l-114 -539h-73l5 75h-2q-26 -40 -54.5 -62.5t-64.5 -22.5zM161 68q32 0 54.5 26.5t38.5 67t27 82.5q23 92 23 150q0 36 -14 55.5t-38 19.5
q-26 0 -47 -21.5t-37.5 -57.5t-28 -78t-17.5 -84.5t-6 -76.5q0 -83 45 -83zM289 609q-56 0 -80.5 28t-24.5 73q0 21 3 39h57q0 -37 11.5 -54t37.5 -17q29 0 46 16t27 55h59q-12 -68 -46.5 -104t-89.5 -36z" />
    <glyph glyph-name="Aogonek" unicode="&#x104;" horiz-adv-x="423" 
d="M-64 0l300 717h119l4 -717h-97l1 214h-139l-86 -214h-102zM156 298h111l5 241q0 24 1 45.5t3 41.5h-3q-4 -19 -10.5 -40.5t-15.5 -46.5zM259 -226q-39 0 -58.5 20.5t-19.5 52.5q0 43 25.5 79t75.5 74h58q-42 -39 -60.5 -69.5t-18.5 -60.5q0 -31 29 -31q8 0 18 2t21 4
l-14 -62q-13 -6 -27 -7.5t-29 -1.5z" />
    <glyph glyph-name="aogonek" unicode="&#x105;" horiz-adv-x="432" 
d="M129 -10q-51 0 -78.5 39.5t-27.5 112.5q0 44 8 98.5t25 108.5t42.5 99.5t60.5 73t80 27.5q69 0 91 -78h3l22 68h77l-114 -539h-73l5 75h-2q-26 -40 -54.5 -62.5t-64.5 -22.5zM161 68q32 0 54.5 26.5t38.5 67t27 82.5q23 92 23 150q0 36 -14 55.5t-38 19.5
q-26 0 -47 -21.5t-37.5 -57.5t-28 -78t-17.5 -84.5t-6 -76.5q0 -83 45 -83zM227 -226q-39 0 -58.5 20.5t-19.5 52.5q0 43 25.5 79t75.5 74h58q-42 -39 -60.5 -69.5t-18.5 -60.5q0 -31 29 -31q8 0 18 2t21 4l-14 -62q-13 -6 -27 -7.5t-29 -1.5z" />
    <glyph glyph-name="Cacute" unicode="&#x106;" horiz-adv-x="399" 
d="M199 -10q-81 0 -122 59t-41 171q0 61 12.5 130.5t37.5 135.5t62 120.5t87 86.5t112 32q74 0 124 -38l-47 -76q-36 30 -77 30q-44 0 -78.5 -30t-60 -78.5t-42 -104.5t-25 -109t-8.5 -92q0 -80 21.5 -116.5t67.5 -36.5q24 0 49 7t51 19v-85q-29 -13 -61 -19t-62 -6z
M262 784l2 9q68 82 108 151h106l-1 -8q-11 -14 -30.5 -35t-42.5 -44t-44.5 -42.5t-35.5 -30.5h-62z" />
    <glyph glyph-name="cacute" unicode="&#x107;" horiz-adv-x="329" 
d="M157 -10q-65 0 -99 42.5t-34 122.5q0 48 8.5 101.5t26.5 105.5t46 94.5t67.5 67.5t90.5 25q55 0 97 -27l-37 -73q-27 21 -61 21q-37 0 -64.5 -30.5t-45.5 -78.5t-27 -100.5t-9 -95.5q0 -96 63 -96q35 0 85 31v-79q-20 -13 -48.5 -22t-58.5 -9zM184 610l2 9q68 82 108 151
h106l-1 -8q-11 -14 -30.5 -35t-42.5 -44t-44.5 -42.5t-35.5 -30.5h-62z" />
    <glyph glyph-name="Ccircumflex" unicode="&#x108;" horiz-adv-x="399" 
d="M199 -10q-81 0 -122 59t-41 171q0 61 12.5 130.5t37.5 135.5t62 120.5t87 86.5t112 32q74 0 124 -38l-47 -76q-36 30 -77 30q-44 0 -78.5 -30t-60 -78.5t-42 -104.5t-25 -109t-8.5 -92q0 -80 21.5 -116.5t67.5 -36.5q24 0 49 7t51 19v-85q-29 -13 -61 -19t-62 -6z
M216 771l2 10q34 37 64.5 75.5t53.5 74.5h81q3 -18 12.5 -46.5t21 -56.5t20.5 -46l-2 -11h-52q-13 18 -27 40.5t-28 48.5q-26 -28 -49 -50.5t-43 -38.5h-54z" />
    <glyph glyph-name="ccircumflex" unicode="&#x109;" horiz-adv-x="329" 
d="M157 -10q-65 0 -99 42.5t-34 122.5q0 48 8.5 101.5t26.5 105.5t46 94.5t67.5 67.5t90.5 25q55 0 97 -27l-37 -73q-27 21 -61 21q-37 0 -64.5 -30.5t-45.5 -78.5t-27 -100.5t-9 -95.5q0 -96 63 -96q35 0 85 31v-79q-20 -13 -48.5 -22t-58.5 -9zM130 606l2 10
q34 37 64.5 75.5t53.5 74.5h81q3 -18 12.5 -46.5t21 -56.5t20.5 -46l-2 -11h-52q-13 18 -27 40.5t-28 48.5q-26 -28 -49 -50.5t-43 -38.5h-54z" />
    <glyph glyph-name="Cdot" unicode="&#x10a;" horiz-adv-x="399" 
d="M199 -10q-81 0 -122 59t-41 171q0 61 12.5 130.5t37.5 135.5t62 120.5t87 86.5t112 32q74 0 124 -38l-47 -76q-36 30 -77 30q-44 0 -78.5 -30t-60 -78.5t-42 -104.5t-25 -109t-8.5 -92q0 -80 21.5 -116.5t67.5 -36.5q24 0 49 7t51 19v-85q-29 -13 -61 -19t-62 -6z
M365 791q-45 0 -45 45q0 29 16 52t47 23q44 0 44 -45q0 -30 -16 -52.5t-46 -22.5z" />
    <glyph glyph-name="cdot" unicode="&#x10b;" horiz-adv-x="329" 
d="M157 -10q-65 0 -99 42.5t-34 122.5q0 48 8.5 101.5t26.5 105.5t46 94.5t67.5 67.5t90.5 25q55 0 97 -27l-37 -73q-27 21 -61 21q-37 0 -64.5 -30.5t-45.5 -78.5t-27 -100.5t-9 -95.5q0 -96 63 -96q35 0 85 31v-79q-20 -13 -48.5 -22t-58.5 -9zM280 623q-45 0 -45 45
q0 29 16 52t47 23q44 0 44 -45q0 -30 -16 -52.5t-46 -22.5z" />
    <glyph glyph-name="Ccaron" unicode="&#x10c;" horiz-adv-x="399" 
d="M199 -10q-81 0 -122 59t-41 171q0 61 12.5 130.5t37.5 135.5t62 120.5t87 86.5t112 32q74 0 124 -38l-47 -76q-36 30 -77 30q-44 0 -78.5 -30t-60 -78.5t-42 -104.5t-25 -109t-8.5 -92q0 -80 21.5 -116.5t67.5 -36.5q24 0 49 7t51 19v-85q-29 -13 -61 -19t-62 -6z
M314 771q-4 18 -14 46t-21 57t-20 46l3 11h52q10 -14 24 -36.5t30 -52.5q26 28 49.5 50.5t43.5 38.5h54l-2 -10q-15 -16 -39 -44.5t-46 -58t-33 -47.5h-81z" />
    <glyph glyph-name="ccaron" unicode="&#x10d;" horiz-adv-x="329" 
d="M157 -10q-65 0 -99 42.5t-34 122.5q0 48 8.5 101.5t26.5 105.5t46 94.5t67.5 67.5t90.5 25q55 0 97 -27l-37 -73q-27 21 -61 21q-37 0 -64.5 -30.5t-45.5 -78.5t-27 -100.5t-9 -95.5q0 -96 63 -96q35 0 85 31v-79q-20 -13 -48.5 -22t-58.5 -9zM225 606q-4 18 -14 46
t-21 57t-20 46l3 11h52q10 -14 24 -36.5t30 -52.5q26 28 49.5 50.5t43.5 38.5h54l-2 -10q-15 -16 -39 -44.5t-46 -58t-33 -47.5h-81z" />
    <glyph glyph-name="Dcaron" unicode="&#x10e;" horiz-adv-x="477" 
d="M-1 0l151 714h124q93 0 141.5 -54.5t48.5 -158.5q0 -65 -11.5 -135t-36.5 -135.5t-64.5 -117.5t-95.5 -82.5t-129 -30.5h-128zM110 85h31q48 0 84.5 26t63.5 69.5t44 97.5t25 110t8 106q0 70 -25.5 103t-75.5 33h-39zM259 771q-4 18 -14 46t-21 57t-20 46l3 11h52
q10 -14 24 -36.5t30 -52.5q26 28 49.5 50.5t43.5 38.5h54l-2 -10q-15 -16 -39 -44.5t-46 -58t-33 -47.5h-81z" />
    <glyph glyph-name="dcaron" unicode="&#x10f;" horiz-adv-x="514" 
d="M127 -10q-49 0 -76.5 39.5t-27.5 112.5q0 43 8 97t25 108.5t42 100t59.5 73.5t77.5 28q35 0 60 -18.5t35 -53.5h3q4 26 8.5 50.5t8.5 45.5l39 187h90l-161 -760h-73l5 71h-2q-28 -39 -56 -60t-65 -21zM161 67q30 0 53.5 25t40.5 64.5t27.5 84.5t16 86t5.5 68q0 74 -52 74
q-27 0 -48.5 -23t-38 -59.5t-27.5 -80t-16.5 -85t-5.5 -72.5q0 -82 45 -82zM490 600v9q18 41 32 79.5t22 71.5h88v-10q-9 -22 -23.5 -49.5t-31 -54t-31.5 -46.5h-56z" />
    <glyph glyph-name="Dcroat" unicode="&#x110;" horiz-adv-x="477" 
d="M-1 0l71 334h-49l15 74h49l65 306h124q93 0 141.5 -54.5t48.5 -158.5q0 -67 -12 -137t-37 -135t-64.5 -116.5t-95 -82t-128.5 -30.5h-128zM110 85h31q51 0 88.5 28t63.5 74t42 101t23.5 109t7.5 97q0 70 -25.5 103t-75.5 33h-39l-47 -222h81l-16 -74h-82z" />
    <glyph glyph-name="dcroat" unicode="&#x111;" horiz-adv-x="432" 
d="M127 -10q-49 0 -76.5 39.5t-27.5 112.5q0 43 8 97t25 108.5t42 100t59.5 73.5t77.5 28q35 0 60 -18.5t35 -53.5h3q4 24 7.5 46t7.5 42l9 40h-91l15 69h91l17 86h90l-18 -86h58l-15 -69h-57l-129 -605h-73l5 71h-2q-28 -39 -56 -60t-65 -21zM161 67q30 0 53.5 25
t40.5 64.5t27.5 84.5t16 86t5.5 68q0 74 -52 74q-27 0 -48.5 -23t-38 -59.5t-27.5 -80t-16.5 -85t-5.5 -72.5q0 -82 45 -82z" />
    <glyph glyph-name="Emacron" unicode="&#x112;" horiz-adv-x="374" 
d="M-1 0l151 714h269l-17 -83h-176l-45 -217h163l-18 -83h-163l-53 -248h176l-18 -83h-269zM170 774l13 69h247l-15 -69h-245z" />
    <glyph glyph-name="emacron" unicode="&#x113;" horiz-adv-x="394" 
d="M169 -10q-68 0 -107 44t-39 123q0 78 17.5 148.5t49 125t75.5 86t98 31.5q53 0 84.5 -29.5t31.5 -85.5q0 -91 -67 -142.5t-185 -51.5h-7q-8 -37 -8 -72q0 -53 19.5 -77.5t59.5 -24.5q29 0 53 7.5t55 24.5v-73q-29 -19 -61.5 -26.5t-68.5 -7.5zM132 307h3q85 0 122.5 33
t37.5 87q0 22 -11 35t-34 13q-36 0 -67.5 -47t-50.5 -121zM153 609l13 69h247l-15 -69h-245z" />
    <glyph glyph-name="Ebreve" unicode="&#x114;" horiz-adv-x="374" 
d="M-1 0l151 714h269l-17 -83h-176l-45 -217h163l-18 -83h-163l-53 -248h176l-18 -83h-269zM298 771q-56 0 -80.5 28t-24.5 73q0 21 3 39h57q0 -37 11.5 -54t37.5 -17q29 0 46 16t27 55h59q-12 -68 -46.5 -104t-89.5 -36z" />
    <glyph glyph-name="ebreve" unicode="&#x115;" horiz-adv-x="394" 
d="M169 -10q-68 0 -107 44t-39 123q0 78 17.5 148.5t49 125t75.5 86t98 31.5q53 0 84.5 -29.5t31.5 -85.5q0 -91 -67 -142.5t-185 -51.5h-7q-8 -37 -8 -72q0 -53 19.5 -77.5t59.5 -24.5q29 0 53 7.5t55 24.5v-73q-29 -19 -61.5 -26.5t-68.5 -7.5zM132 307h3q85 0 122.5 33
t37.5 87q0 22 -11 35t-34 13q-36 0 -67.5 -47t-50.5 -121zM291 606q-56 0 -80.5 28t-24.5 73q0 21 3 39h57q0 -37 11.5 -54t37.5 -17q29 0 46 16t27 55h59q-12 -68 -46.5 -104t-89.5 -36z" />
    <glyph glyph-name="Edotaccent" unicode="&#x116;" horiz-adv-x="374" 
d="M-1 0l151 714h269l-17 -83h-176l-45 -217h163l-18 -83h-163l-53 -248h176l-18 -83h-269zM302 774q-45 0 -45 45q0 29 16 52t47 23q44 0 44 -45q0 -30 -16 -52.5t-46 -22.5z" />
    <glyph glyph-name="edotaccent" unicode="&#x117;" horiz-adv-x="394" 
d="M169 -10q-68 0 -107 44t-39 123q0 78 17.5 148.5t49 125t75.5 86t98 31.5q53 0 84.5 -29.5t31.5 -85.5q0 -91 -67 -142.5t-185 -51.5h-7q-8 -37 -8 -72q0 -53 19.5 -77.5t59.5 -24.5q29 0 53 7.5t55 24.5v-73q-29 -19 -61.5 -26.5t-68.5 -7.5zM132 307h3q85 0 122.5 33
t37.5 87q0 22 -11 35t-34 13q-36 0 -67.5 -47t-50.5 -121zM294 623q-45 0 -45 45q0 29 16 52t47 23q44 0 44 -45q0 -30 -16 -52.5t-46 -22.5z" />
    <glyph glyph-name="Eogonek" unicode="&#x118;" horiz-adv-x="374" 
d="M-1 0l151 714h269l-17 -83h-176l-45 -217h163l-18 -83h-163l-53 -248h176l-18 -83h-269zM156 -226q-39 0 -58.5 20.5t-19.5 52.5q0 43 25.5 79t75.5 74h58q-42 -39 -60.5 -69.5t-18.5 -60.5q0 -31 29 -31q8 0 18 2t21 4l-14 -62q-13 -6 -27 -7.5t-29 -1.5z" />
    <glyph glyph-name="eogonek" unicode="&#x119;" horiz-adv-x="394" 
d="M169 -10q-68 0 -107 44t-39 123q0 78 17.5 148.5t49 125t75.5 86t98 31.5q53 0 84.5 -29.5t31.5 -85.5q0 -91 -67 -142.5t-185 -51.5h-7q-8 -37 -8 -72q0 -53 19.5 -77.5t59.5 -24.5q29 0 53 7.5t55 24.5v-73q-12 -7 -24 -13q-44 -34 -63.5 -67t-20.5 -61q0 -15 8 -23
t21 -8q15 0 38 5l-14 -61q-14 -6 -27.5 -8t-29.5 -2q-37 0 -56 21.5t-19 53.5q0 68 71 129h-14zM132 307h3q85 0 122.5 33t37.5 87q0 22 -11 35t-34 13q-36 0 -67.5 -47t-50.5 -121z" />
    <glyph glyph-name="Ecaron" unicode="&#x11a;" horiz-adv-x="374" 
d="M-1 0l151 714h269l-17 -83h-176l-45 -217h163l-18 -83h-163l-53 -248h176l-18 -83h-269zM248 771q-4 18 -14 46t-21 57t-20 46l3 11h52q10 -14 24 -36.5t30 -52.5q26 28 49.5 50.5t43.5 38.5h54l-2 -10q-15 -16 -39 -44.5t-46 -58t-33 -47.5h-81z" />
    <glyph glyph-name="ecaron" unicode="&#x11b;" horiz-adv-x="394" 
d="M169 -10q-68 0 -107 44t-39 123q0 78 17.5 148.5t49 125t75.5 86t98 31.5q53 0 84.5 -29.5t31.5 -85.5q0 -91 -67 -142.5t-185 -51.5h-7q-8 -37 -8 -72q0 -53 19.5 -77.5t59.5 -24.5q29 0 53 7.5t55 24.5v-73q-29 -19 -61.5 -26.5t-68.5 -7.5zM132 307h3q85 0 122.5 33
t37.5 87q0 22 -11 35t-34 13q-36 0 -67.5 -47t-50.5 -121zM231 606q-4 18 -14 46t-21 57t-20 46l3 11h52q10 -14 24 -36.5t30 -52.5q26 28 49.5 50.5t43.5 38.5h54l-2 -10q-15 -16 -39 -44.5t-46 -58t-33 -47.5h-81z" />
    <glyph glyph-name="Gcircumflex" unicode="&#x11c;" horiz-adv-x="500" 
d="M231 -10q-99 0 -147 58t-48 170q0 102 24 193.5t68 162t105.5 111t136.5 40.5q46 0 86 -12.5t68 -32.5l-45 -80q-56 41 -117 41q-52 0 -94.5 -37.5t-72.5 -99t-46 -135t-16 -145.5q0 -79 26.5 -114.5t80.5 -35.5q19 0 37 2.5t36 8.5l46 217h-85l17 81h178l-77 -360
q-42 -16 -83.5 -24.5t-77.5 -8.5zM242 771l2 10q34 37 64.5 75.5t53.5 74.5h81q3 -18 12.5 -46.5t21 -56.5t20.5 -46l-2 -11h-52q-13 18 -27 40.5t-28 48.5q-26 -28 -49 -50.5t-43 -38.5h-54z" />
    <glyph glyph-name="gcircumflex" unicode="&#x11d;" horiz-adv-x="432" 
d="M97 -240q-35 0 -67 9.5t-53 22.5v84q19 -14 53.5 -26.5t67.5 -12.5q50 0 79.5 32.5t43.5 93.5l7 34q3 11 7.5 30t10.5 39h-2q-51 -76 -118 -76q-50 0 -77 38t-27 110q0 45 8.5 99.5t25.5 109.5t43.5 100.5t61.5 73.5t80 28q37 0 59 -20t32 -58h2l21 68h77l-120 -573
q-23 -109 -75.5 -157.5t-139.5 -48.5zM162 69q28 0 50.5 24t39.5 63t28.5 84t17.5 87.5t6 72.5q0 33 -14 51t-39 18q-26 0 -47.5 -23t-38 -59.5t-27.5 -79.5t-16.5 -84.5t-5.5 -72.5q0 -81 46 -81zM139 609l2 10q34 37 64.5 75.5t53.5 74.5h81q3 -18 12.5 -46.5t21 -56.5
t20.5 -46l-2 -11h-52q-13 18 -27 40.5t-28 48.5q-26 -28 -49 -50.5t-43 -38.5h-54z" />
    <glyph glyph-name="Gbreve" unicode="&#x11e;" horiz-adv-x="500" 
d="M231 -10q-99 0 -147 58t-48 170q0 102 24 193.5t68 162t105.5 111t136.5 40.5q46 0 86 -12.5t68 -32.5l-45 -80q-56 41 -117 41q-52 0 -94.5 -37.5t-72.5 -99t-46 -135t-16 -145.5q0 -79 26.5 -114.5t80.5 -35.5q19 0 37 2.5t36 8.5l46 217h-85l17 81h178l-77 -360
q-42 -16 -83.5 -24.5t-77.5 -8.5zM383 771q-56 0 -80.5 28t-24.5 73q0 21 3 39h57q0 -37 11.5 -54t37.5 -17q29 0 46 16t27 55h59q-12 -68 -46.5 -104t-89.5 -36z" />
    <glyph glyph-name="gbreve" unicode="&#x11f;" horiz-adv-x="432" 
d="M97 -240q-35 0 -67 9.5t-53 22.5v84q19 -14 53.5 -26.5t67.5 -12.5q50 0 79.5 32.5t43.5 93.5l7 34q3 11 7.5 30t10.5 39h-2q-51 -76 -118 -76q-50 0 -77 38t-27 110q0 45 8.5 99.5t25.5 109.5t43.5 100.5t61.5 73.5t80 28q37 0 59 -20t32 -58h2l21 68h77l-120 -573
q-23 -109 -75.5 -157.5t-139.5 -48.5zM162 69q28 0 50.5 24t39.5 63t28.5 84t17.5 87.5t6 72.5q0 33 -14 51t-39 18q-26 0 -47.5 -23t-38 -59.5t-27.5 -79.5t-16.5 -84.5t-5.5 -72.5q0 -81 46 -81zM270 609q-56 0 -80.5 28t-24.5 73q0 21 3 39h57q0 -37 11.5 -54t37.5 -17
q29 0 46 16t27 55h59q-12 -68 -46.5 -104t-89.5 -36z" />
    <glyph glyph-name="Gdot" unicode="&#x120;" horiz-adv-x="500" 
d="M231 -10q-99 0 -147 58t-48 170q0 102 24 193.5t68 162t105.5 111t136.5 40.5q46 0 86 -12.5t68 -32.5l-45 -80q-56 41 -117 41q-52 0 -94.5 -37.5t-72.5 -99t-46 -135t-16 -145.5q0 -79 26.5 -114.5t80.5 -35.5q19 0 37 2.5t36 8.5l46 217h-85l17 81h178l-77 -360
q-42 -16 -83.5 -24.5t-77.5 -8.5zM390 788q-45 0 -45 45q0 29 16 52t47 23q44 0 44 -45q0 -30 -16 -52.5t-46 -22.5z" />
    <glyph glyph-name="gdot" unicode="&#x121;" horiz-adv-x="432" 
d="M97 -240q-35 0 -67 9.5t-53 22.5v84q19 -14 53.5 -26.5t67.5 -12.5q50 0 79.5 32.5t43.5 93.5l7 34q3 11 7.5 30t10.5 39h-2q-51 -76 -118 -76q-50 0 -77 38t-27 110q0 45 8.5 99.5t25.5 109.5t43.5 100.5t61.5 73.5t80 28q37 0 59 -20t32 -58h2l21 68h77l-120 -573
q-23 -109 -75.5 -157.5t-139.5 -48.5zM162 69q28 0 50.5 24t39.5 63t28.5 84t17.5 87.5t6 72.5q0 33 -14 51t-39 18q-26 0 -47.5 -23t-38 -59.5t-27.5 -79.5t-16.5 -84.5t-5.5 -72.5q0 -81 46 -81zM279 623q-45 0 -45 45q0 29 16 52t47 23q44 0 44 -45q0 -30 -16 -52.5
t-46 -22.5z" />
    <glyph glyph-name="uni0122" unicode="&#x122;" horiz-adv-x="500" 
d="M231 -10q-99 0 -147 58t-48 170q0 102 24 193.5t68 162t105.5 111t136.5 40.5q46 0 86 -12.5t68 -32.5l-45 -80q-56 41 -117 41q-52 0 -94.5 -37.5t-72.5 -99t-46 -135t-16 -145.5q0 -79 26.5 -114.5t80.5 -35.5q19 0 37 2.5t36 8.5l46 217h-85l17 81h178l-77 -360
q-42 -16 -83.5 -24.5t-77.5 -8.5zM100 -221v14q10 17 23.5 43t25 54t18.5 49h87v-10q-8 -21 -25 -49.5t-37 -56t-36 -44.5h-56z" />
    <glyph glyph-name="uni0123" unicode="&#x123;" horiz-adv-x="432" 
d="M97 -240q-35 0 -67 9.5t-53 22.5v84q19 -14 53.5 -26.5t67.5 -12.5q50 0 79.5 32.5t43.5 93.5l7 34q3 11 7.5 30t10.5 39h-2q-51 -76 -118 -76q-50 0 -77 38t-27 110q0 45 8.5 99.5t25.5 109.5t43.5 100.5t61.5 73.5t80 28q37 0 59 -20t32 -58h2l21 68h77l-120 -573
q-23 -109 -75.5 -157.5t-139.5 -48.5zM162 69q28 0 50.5 24t39.5 63t28.5 84t17.5 87.5t6 72.5q0 33 -14 51t-39 18q-26 0 -47.5 -23t-38 -59.5t-27.5 -79.5t-16.5 -84.5t-5.5 -72.5q0 -81 46 -81zM222 606v10q9 22 25.5 50t36 55t37.5 45h54l1 -11q-10 -15 -23.5 -43.5
t-25.5 -58t-18 -47.5h-87z" />
    <glyph glyph-name="Hcircumflex" unicode="&#x124;" horiz-adv-x="495" 
d="M-1 0l151 714h94l-63 -299h182l64 299h93l-152 -714h-93l70 331h-182l-70 -331h-94zM214 771l2 10q34 37 64.5 75.5t53.5 74.5h81q3 -18 12.5 -46.5t21 -56.5t20.5 -46l-2 -11h-52q-13 18 -27 40.5t-28 48.5q-26 -28 -49 -50.5t-43 -38.5h-54z" />
    <glyph glyph-name="hcircumflex" unicode="&#x125;" horiz-adv-x="423" 
d="M-2 0l161 760h90l-41 -191q-5 -23 -11.5 -48t-14.5 -48h2q22 37 51 56.5t66 19.5q44 0 70 -27.5t26 -79.5q0 -20 -4.5 -48t-9.5 -54l-73 -340h-89l68 324q6 26 10 50.5t4 46.5q0 45 -41 45q-38 0 -65 -39.5t-46 -128.5l-63 -298h-90zM82 830l2 10q34 37 64.5 75.5
t53.5 74.5h81q3 -18 12.5 -46.5t21 -56.5t20.5 -46l-2 -11h-52q-13 18 -27 40.5t-28 48.5q-26 -28 -49 -50.5t-43 -38.5h-54z" />
    <glyph glyph-name="Hbar" unicode="&#x126;" horiz-adv-x="493" 
d="M-1 0l112 529h-63l15 70h63l24 115h94l-25 -115h183l24 115h94l-24 -115h60l-14 -70h-61l-113 -529h-93l70 331h-182l-70 -331h-94zM180 411h182l25 118h-183z" />
    <glyph glyph-name="hbar" unicode="&#x127;" horiz-adv-x="424" 
d="M-2 0l129 605h-59l14 69h59l18 86h90l-18 -86h90l-13 -69h-92q-10 -43 -16.5 -69t-11 -42t-8.5 -30h2q44 75 116 75q45 0 71 -27.5t26 -78.5q0 -21 -5 -49t-10 -53l-70 -331h-89l66 315q6 25 10.5 50t4.5 47q0 45 -42 45q-40 0 -66.5 -41t-43.5 -127l-62 -289h-90z" />
    <glyph glyph-name="Itilde" unicode="&#x128;" horiz-adv-x="277" 
d="M-49 0l12 51l80 20l121 572l-72 20l10 51h247l-11 -51l-81 -20l-121 -572l72 -20l-10 -51h-247zM101 793q13 61 36 96.5t65 35.5q28 0 46.5 -14.5t33.5 -28.5t31 -14q15 0 24 12t17 46h55q-14 -74 -39.5 -103t-57.5 -29q-27 0 -45.5 14.5t-34 29t-32.5 14.5
q-31 0 -44 -59h-55z" />
    <glyph glyph-name="itilde" unicode="&#x129;" horiz-adv-x="201" 
d="M-2 0l114 539h90l-115 -539h-89zM26 607q13 61 36 96.5t65 35.5q28 0 46.5 -14.5t33.5 -28.5t31 -14q15 0 24 12t17 46h55q-14 -74 -39.5 -103t-57.5 -29q-27 0 -45.5 14.5t-34 29t-32.5 14.5q-31 0 -44 -59h-55z" />
    <glyph glyph-name="Imacron" unicode="&#x12a;" horiz-adv-x="277" 
d="M-49 0l12 51l80 20l121 572l-72 20l10 51h247l-11 -51l-81 -20l-121 -572l72 -20l-10 -51h-247zM116 795l13 69h247l-15 -69h-245z" />
    <glyph glyph-name="imacron" unicode="&#x12b;" horiz-adv-x="201" 
d="M-2 0l114 539h90l-115 -539h-89zM44 609l13 69h247l-15 -69h-245z" />
    <glyph glyph-name="Ibreve" unicode="&#x12c;" horiz-adv-x="277" 
d="M-49 0l12 51l80 20l121 572l-72 20l10 51h247l-11 -51l-81 -20l-121 -572l72 -20l-10 -51h-247zM244 792q-56 0 -80.5 28t-24.5 73q0 21 3 39h57q0 -37 11.5 -54t37.5 -17q29 0 46 16t27 55h59q-12 -68 -46.5 -104t-89.5 -36z" />
    <glyph glyph-name="ibreve" unicode="&#x12d;" horiz-adv-x="201" 
d="M-2 0l114 539h90l-115 -539h-89zM175 606q-56 0 -80.5 28t-24.5 73q0 21 3 39h57q0 -37 11.5 -54t37.5 -17q29 0 46 16t27 55h59q-12 -68 -46.5 -104t-89.5 -36z" />
    <glyph glyph-name="Iogonek" unicode="&#x12e;" horiz-adv-x="277" 
d="M-49 0l12 51l80 20l121 572l-72 20l10 51h247l-11 -51l-81 -20l-121 -572l72 -20l-10 -51h-247zM52 -226q-39 0 -58.5 20.5t-19.5 52.5q0 43 25.5 79t75.5 74h58q-42 -39 -60.5 -69.5t-18.5 -60.5q0 -31 29 -31q8 0 18 2t21 4l-14 -62q-13 -6 -27 -7.5t-29 -1.5z" />
    <glyph glyph-name="iogonek" unicode="&#x12f;" horiz-adv-x="201" 
d="M178 623q-43 0 -43 43q0 28 15.5 52.5t47.5 24.5q43 0 43 -41q0 -33 -17.5 -56t-45.5 -23zM-2 0l114 539h90l-115 -539h-89zM-3 -226q-39 0 -58.5 20.5t-19.5 52.5q0 43 25.5 79t75.5 74h58q-42 -39 -60.5 -69.5t-18.5 -60.5q0 -31 29 -31q8 0 18 2t21 4l-14 -62
q-13 -6 -27 -7.5t-29 -1.5z" />
    <glyph glyph-name="Idotaccent" unicode="&#x130;" horiz-adv-x="277" 
d="M-49 0l12 51l80 20l121 572l-72 20l10 51h247l-11 -51l-81 -20l-121 -572l72 -20l-10 -51h-247zM250 809q-45 0 -45 45q0 29 16 52t47 23q44 0 44 -45q0 -30 -16 -52.5t-46 -22.5z" />
    <glyph glyph-name="IJ" unicode="&#x132;" horiz-adv-x="496" 
d="M-49 0l12 51l80 20l121 572l-72 20l10 51h247l-11 -51l-81 -20l-121 -572l72 -20l-10 -51h-247zM205 -197q-44 0 -71 12l20 83q12 -5 24 -8.5t24 -3.5q36 0 54 34t29 87l149 707h94l-153 -722q-21 -100 -63.5 -144.5t-106.5 -44.5z" />
    <glyph glyph-name="ij" unicode="&#x133;" horiz-adv-x="403" 
d="M178 623q-43 0 -43 43q0 28 15.5 52.5t47.5 24.5q43 0 43 -41q0 -33 -17.5 -56t-45.5 -23zM-2 0l114 539h90l-115 -539h-89zM380 623q-43 0 -43 43q0 28 15.5 52.5t47.5 24.5q43 0 43 -41q0 -33 -17 -56t-46 -23zM127 -240q-15 0 -28.5 2t-25.5 6v80q8 -4 20 -5.5
t23 -1.5q32 0 46.5 24.5t28.5 92.5l123 581h89l-125 -588q-12 -57 -28.5 -100t-45 -67t-77.5 -24z" />
    <glyph glyph-name="Jcircumflex" unicode="&#x134;" horiz-adv-x="213" 
d="M-78 -197q-44 0 -71 12l20 83q12 -5 24 -8.5t24 -3.5q36 0 54 34t29 87l149 707h94l-153 -722q-21 -100 -63.5 -144.5t-106.5 -44.5zM75 771l2 10q34 37 64.5 75.5t53.5 74.5h81q3 -18 12.5 -46.5t21 -56.5t20.5 -46l-2 -11h-52q-13 18 -27 40.5t-28 48.5
q-26 -28 -49 -50.5t-43 -38.5h-54z" />
    <glyph glyph-name="jcircumflex" unicode="&#x135;" horiz-adv-x="201" 
d="M-74 -240q-15 0 -28.5 2t-25.5 6v80q8 -4 20 -5.5t23 -1.5q32 0 46.5 24.5t28.5 92.5l123 581h89l-125 -588q-12 -57 -28.5 -100t-45 -67t-77.5 -24zM36 606l2 10q34 37 64.5 75.5t53.5 74.5h81q3 -18 12.5 -46.5t21 -56.5t20.5 -46l-2 -11h-52q-13 18 -27 40.5t-28 48.5
q-26 -28 -49 -50.5t-43 -38.5h-54z" />
    <glyph glyph-name="uni0136" unicode="&#x136;" horiz-adv-x="422" 
d="M-1 0l151 714h94l-73 -345l52 83l181 262h102l-225 -328l80 -386h-101l-60 316l-51 -50l-56 -266h-94zM55 -221v14q10 17 23.5 43t25 54t18.5 49h87v-10q-8 -21 -25 -49.5t-37 -56t-36 -44.5h-56z" />
    <glyph glyph-name="uni0137" unicode="&#x137;" horiz-adv-x="380" 
d="M-2 0l162 760h90l-77 -356q-9 -44 -27 -108h2l180 243h98l-165 -221l60 -318h-96l-42 244l-58 -61l-37 -183h-90zM34 -221v14q10 17 23.5 43t25 54t18.5 49h87v-10q-8 -21 -25 -49.5t-37 -56t-36 -44.5h-56z" />
    <glyph glyph-name="kgreenlandic" unicode="&#x138;" horiz-adv-x="381" 
d="M-2 0l115 539h90l-30 -135q-5 -22 -11.5 -49t-15.5 -59h2l180 243h98l-165 -221l60 -318h-96l-42 244l-58 -61l-37 -183h-90z" />
    <glyph glyph-name="Lacute" unicode="&#x139;" horiz-adv-x="347" 
d="M-1 0l151 714h94l-134 -631h174l-16 -83h-269zM203 784l2 9q68 82 108 151h106l-1 -8q-11 -14 -30.5 -35t-42.5 -44t-44.5 -42.5t-35.5 -30.5h-62z" />
    <glyph glyph-name="lacute" unicode="&#x13a;" horiz-adv-x="199" 
d="M-2 0l162 760h90l-162 -760h-90zM154 825l2 9q68 82 108 151h106l-1 -8q-11 -14 -30.5 -35t-42.5 -44t-44.5 -42.5t-35.5 -30.5h-62z" />
    <glyph glyph-name="uni013B" unicode="&#x13b;" horiz-adv-x="347" 
d="M-1 0l151 714h94l-134 -631h174l-16 -83h-269zM14 -221v14q10 17 23.5 43t25 54t18.5 49h87v-10q-8 -21 -25 -49.5t-37 -56t-36 -44.5h-56z" />
    <glyph glyph-name="uni013C" unicode="&#x13c;" horiz-adv-x="199" 
d="M-2 0l162 760h90l-162 -760h-90zM-64 -221v14q10 17 23.5 43t25 54t18.5 49h87v-10q-8 -21 -25 -49.5t-37 -56t-36 -44.5h-56z" />
    <glyph glyph-name="Lcaron" unicode="&#x13d;" horiz-adv-x="347" 
d="M-1 0l151 714h94l-134 -631h174l-16 -83h-269zM271 554v9q18 41 32 79.5t22 71.5h88v-10q-9 -22 -23.5 -49.5t-31 -54t-31.5 -46.5h-56z" />
    <glyph glyph-name="lcaron" unicode="&#x13e;" horiz-adv-x="288" 
d="M-2 0l162 760h90l-162 -760h-90zM264 600v9q18 41 32 79.5t22 71.5h88v-10q-9 -22 -23.5 -49.5t-31 -54t-31.5 -46.5h-56z" />
    <glyph glyph-name="Ldot" unicode="&#x13f;" horiz-adv-x="347" 
d="M-1 0l151 714h94l-134 -631h174l-16 -83h-269zM279 308q-45 0 -45 45q0 29 16 52t47 23q44 0 44 -45q0 -30 -16 -52.5t-46 -22.5z" />
    <glyph glyph-name="ldot" unicode="&#x140;" horiz-adv-x="305" 
d="M-2 0l162 760h90l-162 -760h-90zM261 275q-45 0 -45 45q0 29 16 52t47 23q44 0 44 -45q0 -30 -16 -52.5t-46 -22.5z" />
    <glyph glyph-name="Lslash" unicode="&#x141;" horiz-adv-x="354" 
d="M8 0l56 263l-53 -31l-35 59l109 69l74 354h94l-59 -280l89 55l37 -56l-148 -97l-53 -253h174l-16 -83h-269z" />
    <glyph glyph-name="lslash" unicode="&#x142;" horiz-adv-x="230" 
d="M9 0l67 315l-55 -30l-27 62l99 52l77 361h90l-68 -316l66 36l28 -61l-111 -59l-77 -360h-89z" />
    <glyph glyph-name="Nacute" unicode="&#x143;" horiz-adv-x="527" 
d="M-1 0l151 714h109l90 -544h3q9 52 18.5 100t14.5 77l78 367h90l-152 -714h-106l-92 554h-3q-5 -37 -12 -76.5t-14 -72.5t-11 -52l-75 -353h-89zM310 784l2 9q68 82 108 151h106l-1 -8q-11 -14 -30.5 -35t-42.5 -44t-44.5 -42.5t-35.5 -30.5h-62z" />
    <glyph glyph-name="nacute" unicode="&#x144;" horiz-adv-x="423" 
d="M-3 0l115 539h73l-9 -71h3q45 81 118 81q42 0 71 -25t29 -81q0 -20 -4.5 -46t-9.5 -52l-73 -345h-90l70 329q5 24 9 48.5t4 43.5q0 45 -40 45q-42 0 -69 -46.5t-45 -131.5l-61 -288h-91zM221 607l2 9q68 82 108 151h106l-1 -8q-11 -14 -30.5 -35t-42.5 -44t-44.5 -42.5
t-35.5 -30.5h-62z" />
    <glyph glyph-name="uni0145" unicode="&#x145;" horiz-adv-x="527" 
d="M-1 0l151 714h109l90 -544h3q9 52 18.5 100t14.5 77l78 367h90l-152 -714h-106l-92 554h-3q-5 -37 -12 -76.5t-14 -72.5t-11 -52l-75 -353h-89zM102 -221v14q10 17 23.5 43t25 54t18.5 49h87v-10q-8 -21 -25 -49.5t-37 -56t-36 -44.5h-56z" />
    <glyph glyph-name="uni0146" unicode="&#x146;" horiz-adv-x="423" 
d="M-3 0l115 539h73l-9 -71h3q45 81 118 81q42 0 71 -25t29 -81q0 -20 -4.5 -46t-9.5 -52l-73 -345h-90l70 329q5 24 9 48.5t4 43.5q0 45 -40 45q-42 0 -69 -46.5t-45 -131.5l-61 -288h-91zM49 -221v14q10 17 23.5 43t25 54t18.5 49h87v-10q-8 -21 -25 -49.5t-37 -56
t-36 -44.5h-56z" />
    <glyph glyph-name="Ncaron" unicode="&#x147;" horiz-adv-x="527" 
d="M-1 0l151 714h109l90 -544h3q9 52 18.5 100t14.5 77l78 367h90l-152 -714h-106l-92 554h-3q-5 -37 -12 -76.5t-14 -72.5t-11 -52l-75 -353h-89zM311 771q-4 18 -14 46t-21 57t-20 46l3 11h52q10 -14 24 -36.5t30 -52.5q26 28 49.5 50.5t43.5 38.5h54l-2 -10
q-15 -16 -39 -44.5t-46 -58t-33 -47.5h-81z" />
    <glyph glyph-name="ncaron" unicode="&#x148;" horiz-adv-x="423" 
d="M-3 0l115 539h73l-9 -71h3q45 81 118 81q42 0 71 -25t29 -81q0 -20 -4.5 -46t-9.5 -52l-73 -345h-90l70 329q5 24 9 48.5t4 43.5q0 45 -40 45q-42 0 -69 -46.5t-45 -131.5l-61 -288h-91zM231 606q-4 18 -14 46t-21 57t-20 46l3 11h52q10 -14 24 -36.5t30 -52.5
q26 28 49.5 50.5t43.5 38.5h54l-2 -10q-15 -16 -39 -44.5t-46 -58t-33 -47.5h-81z" />
    <glyph glyph-name="napostrophe" unicode="&#x149;" horiz-adv-x="484" 
d="M58 0l115 539h73l-9 -71h3q45 81 118 81q42 0 71 -25t29 -81q0 -20 -4.5 -46t-9.5 -52l-73 -345h-90l70 329q5 24 9 48.5t4 43.5q0 45 -40 45q-42 0 -69 -46.5t-45 -131.5l-61 -288h-91zM9 464q28 62 51.5 125t41.5 125h91l3 -11q-47 -125 -115 -239h-72z" />
    <glyph glyph-name="Eng" unicode="&#x14a;" horiz-adv-x="527" 
d="M227 -196q-36 0 -64 13l18 84q23 -12 50 -12q32 0 50 26.5t27 79.5l-102 571h-4q-4 -32 -10 -67.5t-14 -68.5l-90 -430h-89l151 714h112l92 -525h3q5 30 9.5 60.5t11.5 60.5l85 404h90l-149 -702q-14 -63 -33.5 -110t-53 -72.5t-90.5 -25.5z" />
    <glyph glyph-name="eng" unicode="&#x14b;" horiz-adv-x="422" 
d="M147 -240q-17 0 -30 2t-24 6v80q9 -4 21 -5.5t23 -1.5q31 0 46 24t29 93l78 371q5 24 9 48.5t4 43.5q0 45 -40 45q-42 0 -68.5 -45.5t-43.5 -123.5l-63 -297h-91l115 539h73l-9 -71h3q45 81 118 81q42 0 71 -25t29 -81q0 -20 -4.5 -46.5t-9.5 -51.5l-84 -394
q-15 -71 -33.5 -113t-46.5 -60t-72 -18z" />
    <glyph glyph-name="Omacron" unicode="&#x14c;" horiz-adv-x="508" 
d="M199 -10q-83 0 -123.5 52.5t-40.5 162.5q0 65 12 136.5t36 139.5t59.5 123t83.5 87.5t107 32.5q83 0 122.5 -51.5t39.5 -156.5q0 -56 -10.5 -126t-32.5 -140t-57 -129t-83.5 -95t-112.5 -36zM206 75q39 0 70 30.5t54 81t38.5 110t23 117.5t7.5 104q0 123 -73 123
q-42 0 -73.5 -32.5t-54.5 -84.5t-37.5 -112t-21.5 -115t-7 -93q0 -70 18.5 -99.5t55.5 -29.5zM223 774l13 69h247l-15 -69h-245z" />
    <glyph glyph-name="omacron" unicode="&#x14d;" horiz-adv-x="418" 
d="M159 -10q-65 0 -100 43t-35 123q0 41 8 93t25 104.5t44.5 97t67 71.5t91.5 27q63 0 98.5 -44.5t35.5 -123.5q0 -49 -9 -103t-27 -105t-46 -92.5t-66 -66t-87 -24.5zM169 68q25 0 46.5 21t37.5 55.5t27 76.5t17 84t6 77q0 43 -13.5 66t-40.5 23q-28 0 -49.5 -22.5
t-37.5 -59t-26.5 -79t-15.5 -83.5t-5 -72q0 -87 54 -87zM146 609l13 69h247l-15 -69h-245z" />
    <glyph glyph-name="Obreve" unicode="&#x14e;" horiz-adv-x="508" 
d="M199 -10q-83 0 -123.5 52.5t-40.5 162.5q0 65 12 136.5t36 139.5t59.5 123t83.5 87.5t107 32.5q83 0 122.5 -51.5t39.5 -156.5q0 -56 -10.5 -126t-32.5 -140t-57 -129t-83.5 -95t-112.5 -36zM206 75q39 0 70 30.5t54 81t38.5 110t23 117.5t7.5 104q0 123 -73 123
q-42 0 -73.5 -32.5t-54.5 -84.5t-37.5 -112t-21.5 -115t-7 -93q0 -70 18.5 -99.5t55.5 -29.5zM354 771q-56 0 -80.5 28t-24.5 73q0 21 3 39h57q0 -37 11.5 -54t37.5 -17q29 0 46 16t27 55h59q-12 -68 -46.5 -104t-89.5 -36z" />
    <glyph glyph-name="obreve" unicode="&#x14f;" horiz-adv-x="418" 
d="M159 -10q-65 0 -100 43t-35 123q0 41 8 93t25 104.5t44.5 97t67 71.5t91.5 27q63 0 98.5 -44.5t35.5 -123.5q0 -49 -9 -103t-27 -105t-46 -92.5t-66 -66t-87 -24.5zM169 68q25 0 46.5 21t37.5 55.5t27 76.5t17 84t6 77q0 43 -13.5 66t-40.5 23q-28 0 -49.5 -22.5
t-37.5 -59t-26.5 -79t-15.5 -83.5t-5 -72q0 -87 54 -87zM283 606q-56 0 -80.5 28t-24.5 73q0 21 3 39h57q0 -37 11.5 -54t37.5 -17q29 0 46 16t27 55h59q-12 -68 -46.5 -104t-89.5 -36z" />
    <glyph glyph-name="Ohungarumlaut" unicode="&#x150;" horiz-adv-x="508" 
d="M199 -10q-83 0 -123.5 52.5t-40.5 162.5q0 65 12 136.5t36 139.5t59.5 123t83.5 87.5t107 32.5q83 0 122.5 -51.5t39.5 -156.5q0 -56 -10.5 -126t-32.5 -140t-57 -129t-83.5 -95t-112.5 -36zM206 75q39 0 70 30.5t54 81t38.5 110t23 117.5t7.5 104q0 123 -73 123
q-42 0 -73.5 -32.5t-54.5 -84.5t-37.5 -112t-21.5 -115t-7 -93q0 -70 18.5 -99.5t55.5 -29.5zM377 771l2 10q75 95 105 150h93l-1 -8q-14 -20 -40.5 -48.5t-56.5 -57t-53 -46.5h-49zM225 771l2 10q36 46 62.5 85t41.5 65h93l-1 -8q-13 -21 -39.5 -49t-57 -55.5t-56.5 -47.5
h-45z" />
    <glyph glyph-name="ohungarumlaut" unicode="&#x151;" horiz-adv-x="418" 
d="M159 -10q-65 0 -100 43t-35 123q0 41 8 93t25 104.5t44.5 97t67 71.5t91.5 27q63 0 98.5 -44.5t35.5 -123.5q0 -49 -9 -103t-27 -105t-46 -92.5t-66 -66t-87 -24.5zM169 68q25 0 46.5 21t37.5 55.5t27 76.5t17 84t6 77q0 43 -13.5 66t-40.5 23q-28 0 -49.5 -22.5
t-37.5 -59t-26.5 -79t-15.5 -83.5t-5 -72q0 -87 54 -87zM311 606l2 10q75 95 105 150h93l-1 -8q-14 -20 -40.5 -48.5t-56.5 -57t-53 -46.5h-49zM159 606l2 10q36 46 62.5 85t41.5 65h93l-1 -8q-13 -21 -39.5 -49t-57 -55.5t-56.5 -47.5h-45z" />
    <glyph glyph-name="OE" unicode="&#x152;" horiz-adv-x="599" 
d="M195 -6q-82 0 -121 55.5t-39 148.5q0 60 10 130.5t31 139.5t55 126t82.5 91.5t113.5 34.5q23 0 45 -1.5t36 -4.5h238l-18 -83h-175l-46 -217h163l-17 -83h-164l-53 -248h176l-17 -83h-236q-10 -2 -27 -4t-37 -2zM214 79q22 0 31 3l115 548q-6 2 -14 4.5t-20 2.5
q-39 0 -70 -29t-54.5 -77t-39 -105.5t-23 -114.5t-7.5 -104q0 -65 19 -96.5t63 -31.5z" />
    <glyph glyph-name="oe" unicode="&#x153;" horiz-adv-x="644" 
d="M152 -10q-59 0 -93.5 43t-34.5 125q0 37 7 87.5t23.5 103t43.5 98.5t66 74t92 28q48 0 73.5 -26.5t33.5 -77.5q29 49 69 76t83 27q53 0 84.5 -29.5t31.5 -85.5q0 -91 -67 -142.5t-185 -51.5h-8q-6 -36 -6 -72q0 -53 19.5 -77.5t59.5 -24.5q28 0 55 8.5t53 23.5v-71
q-30 -17 -62.5 -26.5t-67.5 -9.5q-99 0 -122 103q-26 -48 -63 -75.5t-85 -27.5zM385 307h4q85 0 121.5 33.5t36.5 86.5q0 22 -10.5 35t-33.5 13q-27 0 -51.5 -26t-42 -64.5t-24.5 -77.5zM169 67q25 0 46 21.5t37.5 56.5t27.5 77t17 85t6 78q0 85 -54 85q-26 0 -47.5 -21.5
t-37.5 -57t-27 -77.5t-16.5 -84t-5.5 -76q0 -87 54 -87z" />
    <glyph glyph-name="Racute" unicode="&#x154;" horiz-adv-x="431" 
d="M-1 0l151 714h116q85 0 128.5 -41t43.5 -116q0 -60 -17.5 -111t-50 -85.5t-77.5 -47.5l66 -313h-102l-53 294h-49l-62 -294h-94zM172 372h39q45 0 73.5 25t42 65t13.5 83q0 87 -86 87h-28zM253 784l2 9q68 82 108 151h106l-1 -8q-11 -14 -30.5 -35t-42.5 -44t-44.5 -42.5
t-35.5 -30.5h-62z" />
    <glyph glyph-name="racute" unicode="&#x155;" horiz-adv-x="288" 
d="M-2 0l114 539h70l-10 -87h3q23 50 52 73.5t69 23.5q20 0 38 -7l-26 -96q-17 7 -39 7q-33 0 -57.5 -26t-40 -66t-24.5 -81l-59 -280h-90zM156 605l2 9q68 82 108 151h106l-1 -8q-11 -14 -30.5 -35t-42.5 -44t-44.5 -42.5t-35.5 -30.5h-62z" />
    <glyph glyph-name="uni0156" unicode="&#x156;" horiz-adv-x="431" 
d="M-1 0l151 714h116q85 0 128.5 -41t43.5 -116q0 -60 -17.5 -111t-50 -85.5t-77.5 -47.5l66 -313h-102l-53 294h-49l-62 -294h-94zM172 372h39q45 0 73.5 25t42 65t13.5 83q0 87 -86 87h-28zM60 -221v14q10 17 23.5 43t25 54t18.5 49h87v-10q-8 -21 -25 -49.5t-37 -56
t-36 -44.5h-56z" />
    <glyph glyph-name="uni0157" unicode="&#x157;" horiz-adv-x="288" 
d="M-2 0l114 539h70l-10 -87h3q23 50 52 73.5t69 23.5q20 0 38 -7l-26 -96q-17 7 -39 7q-33 0 -57.5 -26t-40 -66t-24.5 -81l-59 -280h-90zM-33 -221v14q10 17 23.5 43t25 54t18.5 49h87v-10q-8 -21 -25 -49.5t-37 -56t-36 -44.5h-56z" />
    <glyph glyph-name="Rcaron" unicode="&#x158;" horiz-adv-x="431" 
d="M-1 0l151 714h116q85 0 128.5 -41t43.5 -116q0 -60 -17.5 -111t-50 -85.5t-77.5 -47.5l66 -313h-102l-53 294h-49l-62 -294h-94zM172 372h39q45 0 73.5 25t42 65t13.5 83q0 87 -86 87h-28zM253 771q-4 18 -14 46t-21 57t-20 46l3 11h52q10 -14 24 -36.5t30 -52.5
q26 28 49.5 50.5t43.5 38.5h54l-2 -10q-15 -16 -39 -44.5t-46 -58t-33 -47.5h-81z" />
    <glyph glyph-name="rcaron" unicode="&#x159;" horiz-adv-x="288" 
d="M-2 0l114 539h70l-10 -87h3q23 50 52 73.5t69 23.5q20 0 38 -7l-26 -96q-17 7 -39 7q-33 0 -57.5 -26t-40 -66t-24.5 -81l-59 -280h-90zM187 606q-4 18 -14 46t-21 57t-20 46l3 11h52q10 -14 24 -36.5t30 -52.5q26 28 49.5 50.5t43.5 38.5h54l-2 -10q-15 -16 -39 -44.5
t-46 -58t-33 -47.5h-81z" />
    <glyph glyph-name="Sacute" unicode="&#x15a;" horiz-adv-x="385" 
d="M120 -10q-92 0 -142 35l15 97q25 -19 59.5 -31.5t69.5 -12.5q49 0 81 31t32 90q0 25 -5.5 45t-21.5 41t-45 51q-41 40 -63.5 80t-22.5 100q0 93 55.5 150.5t153.5 57.5q36 0 74.5 -11t63.5 -29l-44 -84q-24 16 -49 26.5t-51 10.5q-44 0 -75 -29.5t-31 -81.5
q0 -40 20 -68.5t62 -70.5q40 -38 58.5 -79.5t18.5 -99.5q0 -62 -24.5 -111.5t-71.5 -78t-117 -28.5zM235 784l2 9q68 82 108 151h106l-1 -8q-11 -14 -30.5 -35t-42.5 -44t-44.5 -42.5t-35.5 -30.5h-62z" />
    <glyph glyph-name="sacute" unicode="&#x15b;" horiz-adv-x="327" 
d="M107 -10q-38 0 -68 7.5t-49 18.5v90q20 -16 50 -26t57 -10q37 0 58.5 20.5t21.5 59.5q0 26 -10.5 47t-44.5 56q-34 34 -50.5 65.5t-16.5 73.5q0 44 18.5 79.5t53.5 56.5t85 21q40 0 73 -10.5t56 -26.5l-39 -71q-20 16 -43 24t-44 8q-31 0 -49.5 -18.5t-18.5 -49.5
q0 -25 9.5 -45t40.5 -49q26 -27 42.5 -48t24.5 -45t8 -59q0 -75 -43 -122t-122 -47zM173 605l2 9q68 82 108 151h106l-1 -8q-11 -14 -30.5 -35t-42.5 -44t-44.5 -42.5t-35.5 -30.5h-62z" />
    <glyph glyph-name="Scircumflex" unicode="&#x15c;" horiz-adv-x="385" 
d="M120 -10q-92 0 -142 35l15 97q25 -19 59.5 -31.5t69.5 -12.5q49 0 81 31t32 90q0 25 -5.5 45t-21.5 41t-45 51q-41 40 -63.5 80t-22.5 100q0 93 55.5 150.5t153.5 57.5q36 0 74.5 -11t63.5 -29l-44 -84q-24 16 -49 26.5t-51 10.5q-44 0 -75 -29.5t-31 -81.5
q0 -40 20 -68.5t62 -70.5q40 -38 58.5 -79.5t18.5 -99.5q0 -62 -24.5 -111.5t-71.5 -78t-117 -28.5zM160 771l2 10q34 37 64.5 75.5t53.5 74.5h81q3 -18 12.5 -46.5t21 -56.5t20.5 -46l-2 -11h-52q-13 18 -27 40.5t-28 48.5q-26 -28 -49 -50.5t-43 -38.5h-54z" />
    <glyph glyph-name="scircumflex" unicode="&#x15d;" horiz-adv-x="327" 
d="M107 -10q-38 0 -68 7.5t-49 18.5v90q20 -16 50 -26t57 -10q37 0 58.5 20.5t21.5 59.5q0 26 -10.5 47t-44.5 56q-34 34 -50.5 65.5t-16.5 73.5q0 44 18.5 79.5t53.5 56.5t85 21q40 0 73 -10.5t56 -26.5l-39 -71q-20 16 -43 24t-44 8q-31 0 -49.5 -18.5t-18.5 -49.5
q0 -25 9.5 -45t40.5 -49q26 -27 42.5 -48t24.5 -45t8 -59q0 -75 -43 -122t-122 -47zM96 606l2 10q34 37 64.5 75.5t53.5 74.5h81q3 -18 12.5 -46.5t21 -56.5t20.5 -46l-2 -11h-52q-13 18 -27 40.5t-28 48.5q-26 -28 -49 -50.5t-43 -38.5h-54z" />
    <glyph glyph-name="Scedilla" unicode="&#x15e;" horiz-adv-x="385" 
d="M120 -10q-92 0 -142 35l15 97q25 -19 59.5 -31.5t69.5 -12.5q49 0 81 31t32 90q0 25 -5.5 45t-21.5 41t-45 51q-41 40 -63.5 80t-22.5 100q0 93 55.5 150.5t153.5 57.5q36 0 74.5 -11t63.5 -29l-44 -84q-24 16 -49 26.5t-51 10.5q-44 0 -75 -29.5t-31 -81.5
q0 -40 20 -68.5t62 -70.5q40 -38 58.5 -79.5t18.5 -99.5q0 -62 -24.5 -111.5t-71.5 -78t-117 -28.5zM66 -240q-17 0 -33.5 2t-32.5 6v56q9 -3 23 -5t32 -2q31 0 48 14.5t17 39.5q0 42 -66 49l50 80h53l-33 -48q32 -7 50.5 -26.5t18.5 -50.5q0 -57 -36.5 -86t-90.5 -29z" />
    <glyph glyph-name="scedilla" unicode="&#x15f;" horiz-adv-x="327" 
d="M107 -10q-38 0 -68 7.5t-49 18.5v90q20 -16 50 -26t57 -10q37 0 58.5 20.5t21.5 59.5q0 26 -10.5 47t-44.5 56q-34 34 -50.5 65.5t-16.5 73.5q0 44 18.5 79.5t53.5 56.5t85 21q40 0 73 -10.5t56 -26.5l-39 -71q-20 16 -43 24t-44 8q-31 0 -49.5 -18.5t-18.5 -49.5
q0 -25 9.5 -45t40.5 -49q26 -27 42.5 -48t24.5 -45t8 -59q0 -75 -43 -122t-122 -47zM39 -240q-17 0 -33.5 2t-32.5 6v56q9 -3 23 -5t32 -2q31 0 48 14.5t17 39.5q0 42 -66 49l50 80h53l-33 -48q32 -7 50.5 -26.5t18.5 -50.5q0 -57 -36.5 -86t-90.5 -29z" />
    <glyph glyph-name="Scaron" unicode="&#x160;" horiz-adv-x="385" 
d="M120 -10q-92 0 -142 35l15 97q25 -19 59.5 -31.5t69.5 -12.5q49 0 81 31t32 90q0 25 -5.5 45t-21.5 41t-45 51q-41 40 -63.5 80t-22.5 100q0 93 55.5 150.5t153.5 57.5q36 0 74.5 -11t63.5 -29l-44 -84q-24 16 -49 26.5t-51 10.5q-44 0 -75 -29.5t-31 -81.5
q0 -40 20 -68.5t62 -70.5q40 -38 58.5 -79.5t18.5 -99.5q0 -62 -24.5 -111.5t-71.5 -78t-117 -28.5zM254 771q-4 18 -14 46t-21 57t-20 46l3 11h52q10 -14 24 -36.5t30 -52.5q26 28 49.5 50.5t43.5 38.5h54l-2 -10q-15 -16 -39 -44.5t-46 -58t-33 -47.5h-81z" />
    <glyph glyph-name="scaron" unicode="&#x161;" horiz-adv-x="327" 
d="M107 -10q-38 0 -68 7.5t-49 18.5v90q20 -16 50 -26t57 -10q37 0 58.5 20.5t21.5 59.5q0 26 -10.5 47t-44.5 56q-34 34 -50.5 65.5t-16.5 73.5q0 44 18.5 79.5t53.5 56.5t85 21q40 0 73 -10.5t56 -26.5l-39 -71q-20 16 -43 24t-44 8q-31 0 -49.5 -18.5t-18.5 -49.5
q0 -25 9.5 -45t40.5 -49q26 -27 42.5 -48t24.5 -45t8 -59q0 -75 -43 -122t-122 -47zM187 606q-4 18 -14 46t-21 57t-20 46l3 11h52q10 -14 24 -36.5t30 -52.5q26 28 49.5 50.5t43.5 38.5h54l-2 -10q-15 -16 -39 -44.5t-46 -58t-33 -47.5h-81z" />
    <glyph glyph-name="uni021A" unicode="&#x21a;" horiz-adv-x="357" 
d="M67 0l134 630h-122l18 84h337l-18 -84h-122l-134 -630h-93zM13 -221v14q10 17 23.5 43t25 54t18.5 49h87v-10q-8 -21 -25 -49.5t-37 -56t-36 -44.5h-56z" />
    <glyph glyph-name="uni021B" unicode="&#x21b;" horiz-adv-x="254" 
d="M110 -10q-44 0 -64 26t-20 70q0 31 10 74l64 302h-48l10 50l60 25l45 122h65l-26 -120h79l-17 -77h-78l-66 -310q-3 -14 -5.5 -27t-2.5 -22q0 -33 30 -33q8 0 21.5 2.5t25.5 7.5v-73q-19 -9 -41.5 -13t-41.5 -4zM-26 -221v14q10 17 23.5 43t25 54t18.5 49h87v-10
q-8 -21 -25 -49.5t-37 -56t-36 -44.5h-56z" />
    <glyph glyph-name="Tcaron" unicode="&#x164;" horiz-adv-x="357" 
d="M67 0l134 630h-122l18 84h337l-18 -84h-122l-134 -630h-93zM230 771q-4 18 -14 46t-21 57t-20 46l3 11h52q10 -14 24 -36.5t30 -52.5q26 28 49.5 50.5t43.5 38.5h54l-2 -10q-15 -16 -39 -44.5t-46 -58t-33 -47.5h-81z" />
    <glyph glyph-name="tcaron" unicode="&#x165;" horiz-adv-x="272" 
d="M110 -10q-44 0 -64 26t-20 70q0 31 10 74l64 302h-48l10 50l60 25l45 122h65l-26 -120h79l-17 -77h-78l-66 -310q-3 -14 -5.5 -27t-2.5 -22q0 -33 30 -33q8 0 21.5 2.5t25.5 7.5v-73q-19 -9 -41.5 -13t-41.5 -4zM257 593v9q18 41 32 79.5t22 71.5h88v-10
q-9 -22 -23.5 -49.5t-31 -54t-31.5 -46.5h-56z" />
    <glyph glyph-name="Tbar" unicode="&#x166;" horiz-adv-x="356" 
d="M67 0l69 326h-85l15 72h85l50 232h-121l17 84h337l-18 -84h-122l-49 -232h90l-15 -72h-90l-69 -326h-94z" />
    <glyph glyph-name="tbar" unicode="&#x167;" horiz-adv-x="252" 
d="M110 -10q-44 0 -64 26t-20 69q0 27 9 71l24 114h-51l14 69h52l26 123h-48l10 50l60 25l45 122h64l-26 -120h80l-17 -77h-79l-27 -123h81l-15 -69h-79l-26 -118q-3 -14 -5 -25.5t-2 -21.5q0 -35 32 -35q8 0 20 2.5t25 7.5v-73q-19 -9 -41.5 -13t-41.5 -4z" />
    <glyph glyph-name="Utilde" unicode="&#x168;" horiz-adv-x="483" 
d="M183 -10q-71 0 -110.5 40t-39.5 114q0 18 2.5 40t7.5 44l104 486h93l-104 -490q-8 -38 -8 -68q0 -81 67 -81q47 0 74.5 37.5t45.5 120.5l103 481h94l-106 -491q-22 -108 -73 -170.5t-150 -62.5zM197 772q13 61 36 96.5t65 35.5q28 0 46.5 -14.5t33.5 -28.5t31 -14
q15 0 24 12t17 46h55q-14 -74 -39.5 -103t-57.5 -29q-27 0 -45.5 14.5t-34 29t-32.5 14.5q-31 0 -44 -59h-55z" />
    <glyph glyph-name="utilde" unicode="&#x169;" horiz-adv-x="425" 
d="M124 -10q-49 0 -74.5 28t-25.5 80q0 18 3 41.5t8 44.5l76 355h89l-71 -338q-11 -47 -11 -82q0 -48 39 -48q41 0 69.5 47.5t45.5 132.5l61 288h90l-114 -539h-72l6 67h-3q-23 -37 -52.5 -57t-63.5 -20zM141 607q13 61 36 96.5t65 35.5q28 0 46.5 -14.5t33.5 -28.5t31 -14
q15 0 24 12t17 46h55q-14 -74 -39.5 -103t-57.5 -29q-27 0 -45.5 14.5t-34 29t-32.5 14.5q-31 0 -44 -59h-55z" />
    <glyph glyph-name="Umacron" unicode="&#x16a;" horiz-adv-x="483" 
d="M183 -10q-71 0 -110.5 40t-39.5 114q0 18 2.5 40t7.5 44l104 486h93l-104 -490q-8 -38 -8 -68q0 -81 67 -81q47 0 74.5 37.5t45.5 120.5l103 481h94l-106 -491q-22 -108 -73 -170.5t-150 -62.5zM212 774l13 69h247l-15 -69h-245z" />
    <glyph glyph-name="umacron" unicode="&#x16b;" horiz-adv-x="425" 
d="M124 -10q-49 0 -74.5 28t-25.5 80q0 18 3 41.5t8 44.5l76 355h89l-71 -338q-11 -47 -11 -82q0 -48 39 -48q41 0 69.5 47.5t45.5 132.5l61 288h90l-114 -539h-72l6 67h-3q-23 -37 -52.5 -57t-63.5 -20zM153 609l13 69h247l-15 -69h-245z" />
    <glyph glyph-name="Ubreve" unicode="&#x16c;" horiz-adv-x="483" 
d="M183 -10q-71 0 -110.5 40t-39.5 114q0 18 2.5 40t7.5 44l104 486h93l-104 -490q-8 -38 -8 -68q0 -81 67 -81q47 0 74.5 37.5t45.5 120.5l103 481h94l-106 -491q-22 -108 -73 -170.5t-150 -62.5zM340 771q-56 0 -80.5 28t-24.5 73q0 21 3 39h57q0 -37 11.5 -54t37.5 -17
q29 0 46 16t27 55h59q-12 -68 -46.5 -104t-89.5 -36z" />
    <glyph glyph-name="ubreve" unicode="&#x16d;" horiz-adv-x="425" 
d="M124 -10q-49 0 -74.5 28t-25.5 80q0 18 3 41.5t8 44.5l76 355h89l-71 -338q-11 -47 -11 -82q0 -48 39 -48q41 0 69.5 47.5t45.5 132.5l61 288h90l-114 -539h-72l6 67h-3q-23 -37 -52.5 -57t-63.5 -20zM284 606q-56 0 -80.5 28t-24.5 73q0 21 3 39h57q0 -37 11.5 -54
t37.5 -17q29 0 46 16t27 55h59q-12 -68 -46.5 -104t-89.5 -36z" />
    <glyph glyph-name="Uring" unicode="&#x16e;" horiz-adv-x="483" 
d="M183 -10q-71 0 -110.5 40t-39.5 114q0 18 2.5 40t7.5 44l104 486h93l-104 -490q-8 -38 -8 -68q0 -81 67 -81q47 0 74.5 37.5t45.5 120.5l103 481h94l-106 -491q-22 -108 -73 -170.5t-150 -62.5zM347 773q-50 0 -77.5 28.5t-27.5 75.5q0 46 28 74t77 28q46 0 75 -28
t29 -72q0 -46 -27.5 -76t-76.5 -30zM348 823q24 0 38 15t14 39q0 23 -13.5 38t-38.5 15t-39.5 -15t-14.5 -38q0 -24 13.5 -39t40.5 -15z" />
    <glyph glyph-name="uring" unicode="&#x16f;" horiz-adv-x="425" 
d="M124 -10q-49 0 -74.5 28t-25.5 80q0 18 3 41.5t8 44.5l76 355h89l-71 -338q-11 -47 -11 -82q0 -48 39 -48q41 0 69.5 47.5t45.5 132.5l61 288h90l-114 -539h-72l6 67h-3q-23 -37 -52.5 -57t-63.5 -20zM293 608q-50 0 -77.5 28.5t-27.5 75.5q0 46 28 74t77 28q46 0 75 -28
t29 -72q0 -46 -27.5 -76t-76.5 -30zM294 658q24 0 38 15t14 39q0 23 -13.5 38t-38.5 15t-39.5 -15t-14.5 -38q0 -24 13.5 -39t40.5 -15z" />
    <glyph glyph-name="Uhungarumlaut" unicode="&#x170;" horiz-adv-x="483" 
d="M183 -10q-71 0 -110.5 40t-39.5 114q0 18 2.5 40t7.5 44l104 486h93l-104 -490q-8 -38 -8 -68q0 -81 67 -81q47 0 74.5 37.5t45.5 120.5l103 481h94l-106 -491q-22 -108 -73 -170.5t-150 -62.5zM373 771l2 10q75 95 105 150h93l-1 -8q-14 -20 -40.5 -48.5t-56.5 -57
t-53 -46.5h-49zM221 771l2 10q36 46 62.5 85t41.5 65h93l-1 -8q-13 -21 -39.5 -49t-57 -55.5t-56.5 -47.5h-45z" />
    <glyph glyph-name="uhungarumlaut" unicode="&#x171;" horiz-adv-x="425" 
d="M124 -10q-49 0 -74.5 28t-25.5 80q0 18 3 41.5t8 44.5l76 355h89l-71 -338q-11 -47 -11 -82q0 -48 39 -48q41 0 69.5 47.5t45.5 132.5l61 288h90l-114 -539h-72l6 67h-3q-23 -37 -52.5 -57t-63.5 -20zM309 606l2 10q75 95 105 150h93l-1 -8q-14 -20 -40.5 -48.5
t-56.5 -57t-53 -46.5h-49zM157 606l2 10q36 46 62.5 85t41.5 65h93l-1 -8q-13 -21 -39.5 -49t-57 -55.5t-56.5 -47.5h-45z" />
    <glyph glyph-name="Uogonek" unicode="&#x172;" horiz-adv-x="483" 
d="M183 -10q-71 0 -110.5 40t-39.5 114q0 18 2.5 40t7.5 44l104 486h93l-104 -490q-8 -38 -8 -68q0 -81 67 -81q47 0 74.5 37.5t45.5 120.5l103 481h94l-106 -491q-22 -108 -73 -170.5t-150 -62.5zM162 -226q-39 0 -58.5 20.5t-19.5 52.5q0 43 25.5 79t75.5 74h58
q-42 -39 -60.5 -69.5t-18.5 -60.5q0 -31 29 -31q8 0 18 2t21 4l-14 -62q-13 -6 -27 -7.5t-29 -1.5z" />
    <glyph glyph-name="uogonek" unicode="&#x173;" horiz-adv-x="425" 
d="M124 -10q-49 0 -74.5 28t-25.5 80q0 18 3 41.5t8 44.5l76 355h89l-71 -338q-11 -47 -11 -82q0 -48 39 -48q41 0 69.5 47.5t45.5 132.5l61 288h90l-114 -539h-72l6 67h-3q-23 -37 -52.5 -57t-63.5 -20zM227 -226q-39 0 -58.5 20.5t-19.5 52.5q0 43 25.5 79t75.5 74h58
q-42 -39 -60.5 -69.5t-18.5 -60.5q0 -31 29 -31q8 0 18 2t21 4l-14 -62q-13 -6 -27 -7.5t-29 -1.5z" />
    <glyph glyph-name="Wcircumflex" unicode="&#x174;" horiz-adv-x="667" 
d="M69 0l19 714h91l-14 -425q-1 -43 -3.5 -77t-4.5 -60h2q11 34 24 68t27 69l167 425h82l-14 -414q-1 -46 -4 -80.5t-5 -67.5h2q14 39 26.5 73.5t25.5 69.5l163 419h95l-281 -714h-110l15 422q1 22 3 48.5t4 53.5h-2q-8 -23 -16 -47.5t-17 -47.5l-166 -429h-109zM293 771
l2 10q34 37 64.5 75.5t53.5 74.5h81q3 -18 12.5 -46.5t21 -56.5t20.5 -46l-2 -11h-52q-13 18 -27 40.5t-28 48.5q-26 -28 -49 -50.5t-43 -38.5h-54z" />
    <glyph glyph-name="wcircumflex" unicode="&#x175;" horiz-adv-x="564" 
d="M53 0l10 539h88l-9 -286q-2 -30 -4 -58.5t-4 -53.5h2q8 24 17.5 51.5t17.5 49.5l116 297h101l-10 -286q-2 -28 -4 -58.5t-4 -58.5h2l22 64t24 65l104 274h91l-216 -539h-105l14 319q1 47 6 97h-2q-6 -20 -13 -39t-14 -39l-129 -338h-101zM219 606l2 10q34 37 64.5 75.5
t53.5 74.5h81q3 -18 12.5 -46.5t21 -56.5t20.5 -46l-2 -11h-52q-13 18 -27 40.5t-28 48.5q-26 -28 -49 -50.5t-43 -38.5h-54z" />
    <glyph glyph-name="Ycircumflex" unicode="&#x176;" horiz-adv-x="376" 
d="M78 0l57 274l-49 440h97l24 -315l157 315h100l-234 -437l-59 -277h-93zM150 771l2 10q34 37 64.5 75.5t53.5 74.5h81q3 -18 12.5 -46.5t21 -56.5t20.5 -46l-2 -11h-52q-13 18 -27 40.5t-28 48.5q-26 -28 -49 -50.5t-43 -38.5h-54z" />
    <glyph glyph-name="ycircumflex" unicode="&#x177;" horiz-adv-x="358" 
d="M-32 -241q-18 0 -32 2.5t-25 7.5l13 81q21 -9 42 -9q28 0 44.5 21t32.5 58l37 83l-16 536h90l1 -286q0 -29 -1 -58.5t-3 -58.5h3q21 64 39 107l124 296h94l-282 -636q-30 -65 -64.5 -104.5t-96.5 -39.5zM109 606l2 10q34 37 64.5 75.5t53.5 74.5h81q3 -18 12.5 -46.5
t21 -56.5t20.5 -46l-2 -11h-52q-13 18 -27 40.5t-28 48.5q-26 -28 -49 -50.5t-43 -38.5h-54z" />
    <glyph glyph-name="Ydieresis" unicode="&#x178;" horiz-adv-x="376" 
d="M78 0l57 274l-49 440h97l24 -315l157 315h100l-234 -437l-59 -277h-93zM356 793q-39 0 -39 40q0 28 15.5 49t43.5 21q37 0 37 -38q0 -32 -16.5 -52t-40.5 -20zM200 793q-38 0 -38 40q0 28 15.5 49t43.5 21q36 0 36 -38q0 -32 -16 -52t-41 -20z" />
    <glyph glyph-name="Zacute" unicode="&#x179;" horiz-adv-x="351" 
d="M-41 0l15 70l318 561h-194l17 83h299l-14 -71l-320 -560h206l-17 -83h-310zM216 784l2 9q68 82 108 151h106l-1 -8q-11 -14 -30.5 -35t-42.5 -44t-44.5 -42.5t-35.5 -30.5h-62z" />
    <glyph glyph-name="zacute" unicode="&#x17a;" horiz-adv-x="300" 
d="M-37 0l13 58l237 404h-142l16 77h243l-13 -63l-234 -399h156l-17 -77h-259zM157 605l2 9q68 82 108 151h106l-1 -8q-11 -14 -30.5 -35t-42.5 -44t-44.5 -42.5t-35.5 -30.5h-62z" />
    <glyph glyph-name="Zdotaccent" unicode="&#x17b;" horiz-adv-x="351" 
d="M-41 0l15 70l318 561h-194l17 83h299l-14 -71l-320 -560h206l-17 -83h-310zM276 788q-45 0 -45 45q0 29 16 52t47 23q44 0 44 -45q0 -30 -16 -52.5t-46 -22.5z" />
    <glyph glyph-name="zdotaccent" unicode="&#x17c;" horiz-adv-x="300" 
d="M-37 0l13 58l237 404h-142l16 77h243l-13 -63l-234 -399h156l-17 -77h-259zM223 623q-45 0 -45 45q0 29 16 52t47 23q44 0 44 -45q0 -30 -16 -52.5t-46 -22.5z" />
    <glyph glyph-name="Zcaron" unicode="&#x17d;" horiz-adv-x="351" 
d="M-41 0l15 70l318 561h-194l17 83h299l-14 -71l-320 -560h206l-17 -83h-310zM228 771q-4 18 -14 46t-21 57t-20 46l3 11h52q10 -14 24 -36.5t30 -52.5q26 28 49.5 50.5t43.5 38.5h54l-2 -10q-15 -16 -39 -44.5t-46 -58t-33 -47.5h-81z" />
    <glyph glyph-name="zcaron" unicode="&#x17e;" horiz-adv-x="300" 
d="M-37 0l13 58l237 404h-142l16 77h243l-13 -63l-234 -399h156l-17 -77h-259zM169 606q-4 18 -14 46t-21 57t-20 46l3 11h52q10 -14 24 -36.5t30 -52.5q26 28 49.5 50.5t43.5 38.5h54l-2 -10q-15 -16 -39 -44.5t-46 -58t-33 -47.5h-81z" />
    <glyph glyph-name="longs" unicode="&#x17f;" horiz-adv-x="217" 
d="M-73 -240q-15 0 -28 2t-26 6v80q8 -4 20.5 -5.5t23.5 -1.5q35 0 47.5 27.5t23.5 79.5l137 644q10 48 26 87t44.5 62.5t75.5 23.5q21 0 41.5 -4t39.5 -14l-33 -72q-10 6 -20.5 8.5t-20.5 2.5q-32 0 -45 -33t-22 -79l-135 -633q-12 -53 -28 -93.5t-44 -64t-77 -23.5z" />
    <glyph glyph-name="florin" unicode="&#x192;" horiz-adv-x="404" 
d="M12 -240q-20 0 -34.5 3.5t-27.5 8.5v78q31 -12 55 -12q28 0 40.5 23.5t25.5 79.5l97 458h-65l10 48l71 28l18 77q14 64 33 101.5t46 54t69 16.5q22 0 42 -5t42 -16l-35 -72q-27 14 -47 14q-26 0 -39 -24.5t-24 -74.5l-14 -71h82l-16 -76h-82l-99 -455q-20 -97 -52 -140.5
t-96 -43.5z" />
    <glyph glyph-name="Aringacute" unicode="&#x1fa;" horiz-adv-x="423" 
d="M259 828v7q25 27 50 57t44 62h111v-7q-16 -17 -41 -39.5t-51 -44t-46 -35.5h-67zM-62 0l272 633q-30 21 -30 65q0 46 28 74.5t78 28.5q46 0 75 -29t29 -72q0 -58 -45 -79l16 -621h-97l-4 207h-135l-86 -207h-101zM286 645q23 0 37.5 14.5t14.5 37.5t-13.5 38.5
t-38.5 15.5t-38.5 -15.5t-13.5 -38.5t12.5 -37.5t39.5 -14.5zM158 292h107v212q0 18 0.5 37.5t1.5 38.5h-3q-4 -18 -10 -37t-13 -38z" />
    <glyph glyph-name="aringacute" unicode="&#x1fb;" horiz-adv-x="433" 
d="M275 824l1 7q22 27 46.5 57t46.5 65h113v-7q-15 -16 -39.5 -38.5t-51.5 -45t-50 -38.5h-66zM290 584q-48 0 -76 27.5t-28 74.5q0 46 28 75t76 29q46 0 75 -28t31 -73q0 -47 -28 -76t-78 -29zM291 634q23 0 38 14t15 38t-14 39.5t-39 15.5t-39 -15.5t-14 -39.5
q0 -52 53 -52zM130 -10q-52 0 -79.5 38.5t-27.5 110.5q0 44 8 98.5t25 109t42.5 100.5t61 74t80.5 28q32 0 55 -18t35 -57h3l22 65h77l-114 -539h-73l5 72h-3q-27 -38 -55.5 -60t-61.5 -22zM160 68q32 0 55 26.5t39 67t28 82.5q11 48 16.5 83t5.5 67q0 36 -14 55.5t-38 19.5
q-26 0 -47 -22t-37.5 -58t-28 -79t-17.5 -86.5t-6 -78.5q0 -38 10 -57.5t34 -19.5z" />
    <glyph glyph-name="AEacute" unicode="&#x1fc;" horiz-adv-x="575" 
d="M-66 0l341 714h346l-18 -83h-176l-45 -217h164l-18 -83h-164l-53 -248h176l-17 -83h-269l46 214h-114l-100 -214h-99zM171 299h94l70 331h-12zM340 784l2 9q68 82 108 151h106l-1 -8q-11 -14 -30.5 -35t-42.5 -44t-44.5 -42.5t-35.5 -30.5h-62z" />
    <glyph glyph-name="aeacute" unicode="&#x1fd;" horiz-adv-x="630" 
d="M123 -10q-47 0 -73.5 39.5t-26.5 112.5q0 70 15 142t43.5 132t68.5 96.5t89 36.5q30 0 52.5 -17t33.5 -53h2l17 60h65l-12 -56q20 25 47.5 45t65.5 20q51 0 80 -30.5t29 -84.5q0 -93 -67.5 -143.5t-184.5 -50.5h-7q-4 -17 -5.5 -35.5t-1.5 -36.5q0 -48 17.5 -75t61.5 -27
q54 0 116 36l-13 -78q-30 -18 -57.5 -25.5t-62.5 -7.5q-41 0 -66.5 18.5t-34.5 50.5l-12 -59h-65l11 71h-2q-24 -38 -54 -59.5t-69 -21.5zM373 307h3q85 0 122 33.5t37 86.5q0 22 -11 35t-34 13q-26 0 -48 -22.5t-39.5 -60.5t-29.5 -85zM161 67q29 0 51 24.5t38 64.5t26 85
q11 48 16 85.5t5 69.5q0 73 -45 73q-28 0 -53 -30t-43.5 -78t-29 -104t-10.5 -108q0 -82 45 -82zM318 605l2 9q68 82 108 151h106l-1 -8q-11 -14 -30.5 -35t-42.5 -44t-44.5 -42.5t-35.5 -30.5h-62z" />
    <glyph glyph-name="Oslashacute" unicode="&#x1fe;" horiz-adv-x="508" 
d="M41 -49l-47 27l63 101q-11 24 -16.5 55.5t-5.5 70.5q0 65 12 136.5t35.5 139.5t59.5 123t84 87.5t108 32.5q69 0 108 -43l48 76l48 -29l-61 -96q18 -45 18 -116q0 -56 -10.5 -126t-32.5 -140t-57 -129t-83.5 -95t-112.5 -36q-68 0 -106 41zM134 194l255 401
q-19 46 -64 46q-39 0 -69 -29t-52 -75.5t-36.5 -100.5t-22.5 -106t-10 -90q-1 -13 -1.5 -24.5t0.5 -21.5zM206 75q36 0 65 27t51.5 71.5t38 98t24 108t10.5 100.5q3 17 1 34l-251 -398q9 -22 24.5 -31.5t36.5 -9.5zM296 784l2 9q68 82 108 151h106l-1 -8q-11 -14 -30.5 -35
t-42.5 -44t-44.5 -42.5t-35.5 -30.5h-62z" />
    <glyph glyph-name="oslashacute" unicode="&#x1ff;" horiz-adv-x="418" 
d="M33 -61l-45 29l57 89q-10 19 -15.5 44t-5.5 55q0 39 7.5 90t24.5 104t44.5 98t67.5 73t93 28q48 0 79 -31l43 69l47 -29l-55 -84q19 -37 19 -93q0 -42 -8 -94t-25 -104t-44.5 -96t-66.5 -70.5t-91 -26.5q-48 0 -77 25zM114 155l182 289q-14 30 -46 30q-30 0 -54.5 -28.5
t-42 -73.5t-27.5 -95t-12 -93q-2 -17 0 -29zM168 65q30 0 54 27t41 69.5t27.5 91t13.5 92.5q2 15 0 29l-179 -284q15 -25 43 -25zM215 605l2 9q68 82 108 151h106l-1 -8q-11 -14 -30.5 -35t-42.5 -44t-44.5 -42.5t-35.5 -30.5h-62z" />
    <glyph glyph-name="uni0218" unicode="&#x218;" horiz-adv-x="385" 
d="M120 -10q-92 0 -142 35l15 97q25 -19 59.5 -31.5t69.5 -12.5q49 0 81 31t32 90q0 25 -5.5 45t-21.5 41t-45 51q-41 40 -63.5 80t-22.5 100q0 93 55.5 150.5t153.5 57.5q36 0 74.5 -11t63.5 -29l-44 -84q-24 16 -49 26.5t-51 10.5q-44 0 -75 -29.5t-31 -81.5
q0 -40 20 -68.5t62 -70.5q40 -38 58.5 -79.5t18.5 -99.5q0 -62 -24.5 -111.5t-71.5 -78t-117 -28.5zM25 -221v14q10 17 23.5 43t25 54t18.5 49h87v-10q-8 -21 -25 -49.5t-37 -56t-36 -44.5h-56z" />
    <glyph glyph-name="uni0219" unicode="&#x219;" horiz-adv-x="327" 
d="M107 -10q-38 0 -68 7.5t-49 18.5v90q20 -16 50 -26t57 -10q37 0 58.5 20.5t21.5 59.5q0 26 -10.5 47t-44.5 56q-34 34 -50.5 65.5t-16.5 73.5q0 44 18.5 79.5t53.5 56.5t85 21q40 0 73 -10.5t56 -26.5l-39 -71q-20 16 -43 24t-44 8q-31 0 -49.5 -18.5t-18.5 -49.5
q0 -25 9.5 -45t40.5 -49q26 -27 42.5 -48t24.5 -45t8 -59q0 -75 -43 -122t-122 -47zM-1 -221v14q10 17 23.5 43t25 54t18.5 49h87v-10q-8 -21 -25 -49.5t-37 -56t-36 -44.5h-56z" />
    <glyph glyph-name="circumflex" unicode="&#x2c6;" horiz-adv-x="333" 
d="M112 606l2 10q34 37 64.5 75.5t53.5 74.5h81q3 -18 12.5 -46.5t21 -56.5t20.5 -46l-2 -11h-52q-13 18 -27 40.5t-28 48.5q-26 -28 -49 -50.5t-43 -38.5h-54z" />
    <glyph glyph-name="caron" unicode="&#x2c7;" horiz-adv-x="334" 
d="M198 606q-4 18 -14 46t-21 57t-20 46l3 11h52q10 -14 24 -36.5t30 -52.5q26 28 49.5 50.5t43.5 38.5h54l-2 -10q-15 -16 -39 -44.5t-46 -58t-33 -47.5h-81z" />
    <glyph glyph-name="macron" unicode="&#x2c9;" horiz-adv-x="326" 
d="M113 609l13 69h247l-15 -69h-245z" />
    <glyph glyph-name="breve" unicode="&#x2d8;" horiz-adv-x="318" 
d="M243 606q-56 0 -80.5 28t-24.5 73q0 21 3 39h57q0 -37 11.5 -54t37.5 -17q29 0 46 16t27 55h59q-12 -68 -46.5 -104t-89.5 -36z" />
    <glyph glyph-name="dotaccent" unicode="&#x2d9;" horiz-adv-x="185" 
d="M172 623q-45 0 -45 45q0 29 16 52t47 23q44 0 44 -45q0 -30 -16 -52.5t-46 -22.5z" />
    <glyph glyph-name="ring" unicode="&#x2da;" horiz-adv-x="295" 
d="M242 608q-50 0 -77.5 28.5t-27.5 75.5q0 46 28 74t77 28q46 0 75 -28t29 -72q0 -46 -27.5 -76t-76.5 -30zM243 658q24 0 38 15t14 39q0 23 -13.5 38t-38.5 15t-39.5 -15t-14.5 -38q0 -24 13.5 -39t40.5 -15z" />
    <glyph glyph-name="ogonek" unicode="&#x2db;" horiz-adv-x="231" 
d="M31 -226q-39 0 -58.5 20.5t-19.5 52.5q0 43 25.5 79t75.5 74h58q-42 -39 -60.5 -69.5t-18.5 -60.5q0 -31 29 -31q8 0 18 2t21 4l-14 -62q-13 -6 -27 -7.5t-29 -1.5z" />
    <glyph glyph-name="tilde" unicode="&#x2dc;" horiz-adv-x="360" 
d="M112 607q13 61 36 96.5t65 35.5q28 0 46.5 -14.5t33.5 -28.5t31 -14q15 0 24 12t17 46h55q-14 -74 -39.5 -103t-57.5 -29q-27 0 -45.5 14.5t-34 29t-32.5 14.5q-31 0 -44 -59h-55z" />
    <glyph glyph-name="hungarumlaut" unicode="&#x2dd;" horiz-adv-x="399" 
d="M264 606l2 10q75 95 105 150h93l-1 -8q-14 -20 -40.5 -48.5t-56.5 -57t-53 -46.5h-49zM112 606l2 10q36 46 62.5 85t41.5 65h93l-1 -8q-13 -21 -39.5 -49t-57 -55.5t-56.5 -47.5h-45z" />
    <glyph glyph-name="tonos" unicode="&#x384;" horiz-adv-x="469" 
d="M232 606l2 12q10 18 25 49t28.5 62t20.5 49h88l-2 -10q-8 -13 -21.5 -35t-29.5 -46.5t-31 -46t-25 -34.5h-55z" />
    <glyph glyph-name="dieresistonos" unicode="&#x385;" horiz-adv-x="475" 
d="M258 684v9q8 17 20 45t23 56t16 44h80l-2 -9q-8 -17 -25 -45.5t-35.5 -56.5t-31.5 -43h-45zM180 628q-37 0 -37 40q0 28 15 49t41 21q35 0 35 -38q0 -32 -16 -52t-38 -20zM385 628q-36 0 -36 40q0 28 14.5 49t41.5 21q34 0 34 -38q0 -32 -15.5 -52t-38.5 -20z" />
    <glyph glyph-name="Alphatonos" unicode="&#x386;" horiz-adv-x="433" 
d="M-54 0l300 717h119l4 -717h-97l1 214h-139l-86 -214h-102zM166 298h111l5 241q0 24 1 45.5t3 41.5h-3q-4 -19 -10.5 -40.5t-15.5 -46.5zM32 542l2 12q10 18 25 49t28.5 62t20.5 49h88l-2 -10q-8 -13 -21.5 -35t-29.5 -46.5t-31 -46t-25 -34.5h-55z" />
    <glyph glyph-name="anoteleia" unicode="&#x387;" horiz-adv-x="214" 
d="M112 285q-22 0 -34.5 12.5t-12.5 34.5q0 34 18.5 60t53.5 26q21 0 33 -12.5t12 -34.5q0 -37 -21 -61.5t-49 -24.5z" />
    <glyph glyph-name="Epsilontonos" unicode="&#x388;" horiz-adv-x="474" 
d="M98 0l151 714h269l-17 -83h-176l-45 -217h163l-18 -83h-163l-53 -248h176l-18 -83h-269zM43 542l2 12q10 18 25 49t28.5 62t20.5 49h88l-2 -10q-8 -13 -21.5 -35t-29.5 -46.5t-31 -46t-25 -34.5h-55z" />
    <glyph glyph-name="Etatonos" unicode="&#x389;" horiz-adv-x="595" 
d="M98 0l151 714h94l-63 -299h182l64 299h93l-152 -714h-93l70 331h-182l-70 -331h-94zM43 542l2 12q10 18 25 49t28.5 62t20.5 49h88l-2 -10q-8 -13 -21.5 -35t-29.5 -46.5t-31 -46t-25 -34.5h-55z" />
    <glyph glyph-name="Iotatonos" unicode="&#x38a;" horiz-adv-x="421" 
d="M95 0l12 51l80 20l121 572l-72 20l10 51h247l-11 -51l-81 -20l-121 -572l72 -20l-10 -51h-247zM43 542l2 12q10 18 25 49t28.5 62t20.5 49h88l-2 -10q-8 -13 -21.5 -35t-29.5 -46.5t-31 -46t-25 -34.5h-55z" />
    <glyph glyph-name="Omicrontonos" unicode="&#x38c;" horiz-adv-x="562" 
d="M253 -10q-83 0 -123.5 52.5t-40.5 162.5q0 65 12 136.5t36 139.5t59.5 123t83.5 87.5t107 32.5q83 0 122.5 -51.5t39.5 -156.5q0 -56 -10.5 -126t-32.5 -140t-57 -129t-83.5 -95t-112.5 -36zM260 75q39 0 70 30.5t54 81t38.5 110t23 117.5t7.5 104q0 123 -73 123
q-42 0 -73.5 -32.5t-54.5 -84.5t-37.5 -112t-21.5 -115t-7 -93q0 -70 18.5 -99.5t55.5 -29.5zM43 542l2 12q10 18 25 49t28.5 62t20.5 49h88l-2 -10q-8 -13 -21.5 -35t-29.5 -46.5t-31 -46t-25 -34.5h-55z" />
    <glyph glyph-name="Upsilontonos" unicode="&#x38e;" horiz-adv-x="509" 
d="M211 0l57 274l-49 440h97l24 -315l157 315h100l-234 -437l-59 -277h-93zM36 542l2 12q10 18 25 49t28.5 62t20.5 49h88l-2 -10q-8 -13 -21.5 -35t-29.5 -46.5t-31 -46t-25 -34.5h-55z" />
    <glyph glyph-name="Omegatonos" unicode="&#x38f;" horiz-adv-x="577" 
d="M43 542l2 12q10 18 25 49t28.5 62t20.5 49h88l-2 -10q-8 -13 -21.5 -35t-29.5 -46.5t-31 -46t-25 -34.5h-55zM26 0l17 83h121q-28 35 -41.5 86t-13.5 107q0 61 12.5 124.5t36.5 121.5t59 103.5t80 72t100 26.5q85 0 127.5 -55t42.5 -144q0 -86 -22 -169t-62.5 -153.5
t-97.5 -119.5h123l-19 -83h-204l17 82q40 34 71 84.5t52.5 109t32.5 120t11 118.5q0 127 -82 127q-38 0 -68 -27.5t-52.5 -72t-37 -97t-22 -103.5t-7.5 -91q0 -52 10 -93.5t33 -74.5l-18 -82h-199z" />
    <glyph glyph-name="iotadieresistonos" unicode="&#x390;" horiz-adv-x="244" 
d="M104 -10q-40 0 -61.5 23t-21.5 64q0 12 2.5 30.5t6.5 36.5l84 395h90l-86 -403q-6 -21 -6 -38q0 -28 24 -28q9 0 21 3t23 8v-72q-36 -19 -76 -19zM149 684v9q8 17 20 45t23 56t16 44h80l-2 -9q-8 -17 -25 -45.5t-35.5 -56.5t-31.5 -43h-45zM71 628q-37 0 -37 40
q0 28 15 49t41 21q35 0 35 -38q0 -32 -16 -52t-38 -20zM276 628q-36 0 -36 40q0 28 14.5 49t41.5 21q34 0 34 -38q0 -32 -15.5 -52t-38.5 -20z" />
    <glyph glyph-name="Alpha" unicode="&#x391;" horiz-adv-x="423" 
d="M-64 0l300 717h119l4 -717h-97l1 214h-139l-86 -214h-102zM156 298h111l5 241q0 24 1 45.5t3 41.5h-3q-4 -19 -10.5 -40.5t-15.5 -46.5z" />
    <glyph glyph-name="Beta" unicode="&#x392;" horiz-adv-x="443" 
d="M-1 0l151 714h142q44 0 80 -15t57.5 -46.5t21.5 -79.5q0 -44 -14 -84.5t-43.5 -70.5t-76.5 -43v-3q37 -12 57 -48t20 -83q0 -65 -26 -120t-76.5 -88t-124.5 -33h-168zM180 411h52q38 0 65 20.5t41 54.5t14 72q0 76 -79 76h-46zM110 82h57q45 0 74 22t43 59t14 81
t-21 66.5t-58 22.5h-56z" />
    <glyph glyph-name="Gamma" unicode="&#x393;" horiz-adv-x="338" 
d="M-1 0l151 714h261l-17 -84h-168l-133 -630h-94z" />
    <glyph glyph-name="Epsilon" unicode="&#x395;" horiz-adv-x="374" 
d="M-1 0l151 714h269l-17 -83h-176l-45 -217h163l-18 -83h-163l-53 -248h176l-18 -83h-269z" />
    <glyph glyph-name="Zeta" unicode="&#x396;" horiz-adv-x="351" 
d="M-41 0l15 70l318 561h-194l17 83h299l-14 -71l-320 -560h206l-17 -83h-310z" />
    <glyph glyph-name="Eta" unicode="&#x397;" horiz-adv-x="495" 
d="M-1 0l151 714h94l-63 -299h182l64 299h93l-152 -714h-93l70 331h-182l-70 -331h-94z" />
    <glyph glyph-name="Theta" unicode="&#x398;" horiz-adv-x="524" 
d="M204 -10q-86 0 -127.5 52.5t-41.5 162.5q0 57 11.5 126.5t35 138.5t59.5 126.5t86.5 92.5t114.5 35q82 0 124.5 -51t42.5 -157q0 -69 -13 -142.5t-38 -142t-61.5 -123t-85 -86.5t-107.5 -32zM210 75q41 0 74 32.5t57.5 85t40.5 112.5t24 116.5t8 96.5q0 123 -79 123
q-43 0 -76.5 -32.5t-58 -85t-39.5 -112t-22.5 -114.5t-7.5 -93q0 -70 20.5 -99.5t58.5 -29.5zM204 326l18 80h120l-18 -80h-120z" />
    <glyph glyph-name="Iota" unicode="&#x399;" horiz-adv-x="277" 
d="M-49 0l12 51l80 20l121 572l-72 20l10 51h247l-11 -51l-81 -20l-121 -572l72 -20l-10 -51h-247z" />
    <glyph glyph-name="Kappa" unicode="&#x39a;" horiz-adv-x="422" 
d="M-1 0l151 714h94l-73 -345l52 83l181 262h102l-225 -328l80 -386h-101l-60 316l-51 -50l-56 -266h-94z" />
    <glyph glyph-name="Lambda" unicode="&#x39b;" horiz-adv-x="419" 
d="M-65 0l306 716h110l5 -716h-97l4 454q0 30 1.5 62t2.5 64q-13 -38 -28 -77t-32 -83l-173 -420h-99z" />
    <glyph glyph-name="Mu" unicode="&#x39c;" horiz-adv-x="661" 
d="M-1 0l151 714h128l20 -558h2l250 558h136l-152 -714h-91l97 460q5 22 10.5 44t11.5 45h-2l-249 -549h-88l-20 547h-2q-6 -31 -10.5 -57t-9.5 -51l-93 -439h-89z" />
    <glyph glyph-name="Nu" unicode="&#x39d;" horiz-adv-x="527" 
d="M-1 0l151 714h109l90 -544h3q9 52 18.5 100t14.5 77l78 367h90l-152 -714h-106l-92 554h-3q-5 -37 -12 -76.5t-14 -72.5t-11 -52l-75 -353h-89z" />
    <glyph glyph-name="Xi" unicode="&#x39e;" horiz-adv-x="372" 
d="M117 631l18 83h281l-17 -83h-282zM74 333l17 83h242l-18 -83h-241zM-26 0l17 83h300l-17 -83h-300z" />
    <glyph glyph-name="Omicron" unicode="&#x39f;" horiz-adv-x="508" 
d="M199 -10q-83 0 -123.5 52.5t-40.5 162.5q0 65 12 136.5t36 139.5t59.5 123t83.5 87.5t107 32.5q83 0 122.5 -51.5t39.5 -156.5q0 -56 -10.5 -126t-32.5 -140t-57 -129t-83.5 -95t-112.5 -36zM206 75q39 0 70 30.5t54 81t38.5 110t23 117.5t7.5 104q0 123 -73 123
q-42 0 -73.5 -32.5t-54.5 -84.5t-37.5 -112t-21.5 -115t-7 -93q0 -70 18.5 -99.5t55.5 -29.5z" />
    <glyph glyph-name="Pi" unicode="&#x3a0;" horiz-adv-x="489" 
d="M-1 0l151 714h364l-151 -714h-93l133 630h-178l-132 -630h-94z" />
    <glyph glyph-name="Rho" unicode="&#x3a1;" horiz-adv-x="416" 
d="M-1 0l151 714h118q84 0 126 -43t42 -115q0 -78 -28 -142t-82 -102.5t-132 -38.5h-44l-57 -273h-94zM168 356h26q71 0 108 52t37 136q0 87 -86 87h-27z" />
    <glyph glyph-name="Sigma" unicode="&#x3a3;" horiz-adv-x="376" 
d="M-35 0l16 77l209 297l-84 263l16 77h303l-17 -83h-199l81 -258l-203 -290h219l-17 -83h-324z" />
    <glyph glyph-name="Tau" unicode="&#x3a4;" horiz-adv-x="357" 
d="M67 0l134 630h-122l18 84h337l-18 -84h-122l-134 -630h-93z" />
    <glyph glyph-name="Upsilon" unicode="&#x3a5;" horiz-adv-x="376" 
d="M78 0l57 274l-49 440h97l24 -315l157 315h100l-234 -437l-59 -277h-93z" />
    <glyph glyph-name="Phi" unicode="&#x3a6;" horiz-adv-x="590" 
d="M180 -10l24 110q-76 4 -119 52t-43 141t32.5 170t94 124t149.5 49l18 88h91l-18 -88q75 -4 118.5 -53.5t43.5 -137.5q0 -95 -34 -172.5t-95.5 -124t-146.5 -48.5l-24 -110h-91zM220 181l81 374q-43 0 -74 -23.5t-51 -62t-30 -84t-10 -90.5q0 -111 84 -114zM311 181
q39 0 70 22.5t52 60t32 83t11 93.5q0 57 -22 85.5t-63 29.5z" />
    <glyph glyph-name="Chi" unicode="&#x3a7;" horiz-adv-x="391" 
d="M-59 0l217 373l-52 341h97l29 -250l131 250h99l-197 -349l55 -365h-100l-28 272l-152 -272h-99z" />
    <glyph glyph-name="Psi" unicode="&#x3a8;" horiz-adv-x="588" 
d="M182 0l45 210h-1q-75 3 -113.5 41.5t-38.5 115.5q0 49 14 116l49 231h93l-51 -240q-12 -60 -12 -96q0 -48 20.5 -65.5t55.5 -18.5h2l88 420h92l-89 -420h2q45 0 71 22.5t40.5 61.5t25.5 89l52 247h93l-53 -256q-17 -75 -43 -131t-74 -86.5t-129 -30.5h-3l-44 -210h-92z
" />
    <glyph glyph-name="Iotadieresis" unicode="&#x3aa;" horiz-adv-x="277" 
d="M-49 0l12 51l80 20l121 572l-72 20l10 51h247l-11 -51l-81 -20l-121 -572l72 -20l-10 -51h-247zM321 814q-39 0 -39 40q0 28 15.5 49t43.5 21q37 0 37 -38q0 -32 -16.5 -52t-40.5 -20zM165 814q-38 0 -38 40q0 28 15.5 49t43.5 21q36 0 36 -38q0 -32 -16 -52t-41 -20z
" />
    <glyph glyph-name="Upsilondieresis" unicode="&#x3ab;" horiz-adv-x="376" 
d="M78 0l57 274l-49 440h97l24 -315l157 315h100l-234 -437l-59 -277h-93zM356 793q-39 0 -39 40q0 28 15.5 49t43.5 21q37 0 37 -38q0 -32 -16.5 -52t-40.5 -20zM200 793q-38 0 -38 40q0 28 15.5 49t43.5 21q36 0 36 -38q0 -32 -16 -52t-41 -20z" />
    <glyph glyph-name="alphatonos" unicode="&#x3ac;" horiz-adv-x="450" 
d="M131 -10q-51 0 -79.5 39.5t-28.5 111.5q0 54 9.5 111t28 110t45 95t60.5 67t74 25q38 0 64 -21.5t36 -61.5h3q7 21 17.5 40.5t20.5 32.5h76q-19 -37 -34 -86t-28 -107l-41 -196q-8 -32 -8 -56q0 -26 21 -26q13 0 27 7v-72q-12 -5 -29 -9t-29 -4q-36 0 -53 14t-21.5 33.5
t-3.5 37.5h-3q-27 -41 -57 -63t-67 -22zM162 67q32 0 55 27.5t39 68.5t26 80q12 47 17.5 83t5.5 65q0 78 -55 78q-26 0 -47.5 -23.5t-37.5 -60.5t-27 -80.5t-16.5 -84t-5.5 -68.5q0 -85 46 -85zM246 606l2 12q10 18 25 49t28.5 62t20.5 49h88l-2 -10q-8 -13 -21.5 -35
t-29.5 -46.5t-31 -46t-25 -34.5h-55z" />
    <glyph glyph-name="epsilontonos" unicode="&#x3ad;" horiz-adv-x="335" 
d="M138 -10q-68 0 -103 34.5t-35 96.5q0 59 32 105t93 59l1 4q-23 13 -36.5 38t-13.5 63q0 44 19.5 80.5t56 57.5t86.5 21q34 0 64.5 -8.5t56.5 -28.5l-42 -68q-34 28 -76 28q-37 0 -58 -25t-21 -65q0 -65 62 -65h29l-15 -70h-36q-51 0 -79.5 -31.5t-28.5 -77.5
q0 -70 67 -70q47 0 100 31v-78q-27 -16 -59 -23.5t-64 -7.5zM206 606l2 12q10 18 25 49t28.5 62t20.5 49h88l-2 -10q-8 -13 -21.5 -35t-29.5 -46.5t-31 -46t-25 -34.5h-55z" />
    <glyph glyph-name="etatonos" unicode="&#x3ae;" horiz-adv-x="423" 
d="M169 -240l121 569q5 24 9 48.5t4 43.5q0 45 -40 45q-42 0 -69 -46.5t-45 -131.5l-61 -288h-91l115 539h73l-9 -71h3q45 81 118 81q42 0 71 -25t29 -81q0 -20 -4.5 -46t-9.5 -52l-125 -585h-89zM244 606l2 12q10 18 25 49t28.5 62t20.5 49h88l-2 -10q-8 -13 -21.5 -35
t-29.5 -46.5t-31 -46t-25 -34.5h-55z" />
    <glyph glyph-name="iotatonos" unicode="&#x3af;" horiz-adv-x="241" 
d="M104 -10q-40 0 -61.5 23t-21.5 64q0 12 2.5 30.5t6.5 36.5l84 395h90l-86 -403q-6 -21 -6 -38q0 -28 24 -28q9 0 21 3t23 8v-72q-36 -19 -76 -19zM135 606l2 12q10 18 25 49t28.5 62t20.5 49h88l-2 -10q-8 -13 -21.5 -35t-29.5 -46.5t-31 -46t-25 -34.5h-55z" />
    <glyph glyph-name="upsilondieresistonos" unicode="&#x3b0;" horiz-adv-x="424" 
d="M154 -9q-65 0 -95.5 33t-30.5 94q0 22 4.5 53t11.5 66l65 302h90l-67 -315q-6 -26 -10 -50t-4 -44q0 -59 45 -59q34 0 59 32.5t42.5 86t28 116.5t16 124t6.5 109h88q-1 -73 -8.5 -150t-24 -148t-44.5 -127.5t-70.5 -89.5t-101.5 -33zM248 684v9q8 17 20 45t23 56t16 44
h80l-2 -9q-8 -17 -25 -45.5t-35.5 -56.5t-31.5 -43h-45zM170 628q-37 0 -37 40q0 28 15 49t41 21q35 0 35 -38q0 -32 -16 -52t-38 -20zM375 628q-36 0 -36 40q0 28 14.5 49t41.5 21q34 0 34 -38q0 -32 -15.5 -52t-38.5 -20z" />
    <glyph glyph-name="alpha" unicode="&#x3b1;" horiz-adv-x="450" 
d="M131 -10q-51 0 -79.5 39.5t-28.5 111.5q0 54 9.5 111t28 110t45 95t60.5 67t74 25q38 0 64 -21.5t36 -61.5h3q7 21 17.5 40.5t20.5 32.5h76q-19 -37 -34 -86t-28 -107l-41 -196q-8 -32 -8 -56q0 -26 21 -26q13 0 27 7v-72q-12 -5 -29 -9t-29 -4q-36 0 -53 14t-21.5 33.5
t-3.5 37.5h-3q-27 -41 -57 -63t-67 -22zM162 67q32 0 55 27.5t39 68.5t26 80q12 47 17.5 83t5.5 65q0 78 -55 78q-26 0 -47.5 -23.5t-37.5 -60.5t-27 -80.5t-16.5 -84t-5.5 -68.5q0 -85 46 -85z" />
    <glyph glyph-name="beta" unicode="&#x3b2;" horiz-adv-x="433" 
d="M-53 -240l172 809q20 94 61.5 145t127.5 51q64 0 99.5 -38.5t35.5 -101.5q0 -55 -15.5 -102t-46.5 -79t-80 -43q44 -8 67.5 -49.5t23.5 -94.5q0 -47 -12 -94t-36.5 -86t-62 -63t-88.5 -24q-65 0 -101 31l-58 -261h-87zM180 71q34 0 57 18t37 47t20 61t6 59q0 48 -18 75
t-53 27h-19l17 78h15q38 0 61.5 28.5t35 70.5t11.5 82q0 70 -56 70q-33 0 -53 -28.5t-33 -85.5l-99 -470q12 -15 31.5 -23.5t39.5 -8.5z" />
    <glyph glyph-name="gamma" unicode="&#x3b3;" horiz-adv-x="356" 
d="M-5 -240q13 60 33 119.5t44 118.5l-11 541h90v-255q0 -32 -1.5 -74.5t-4.5 -75.5h4q12 38 25 73t30 75l106 257h96l-226 -512q-20 -45 -38 -93.5t-32 -94t-21 -79.5h-94z" />
    <glyph glyph-name="delta" unicode="&#x3b4;" horiz-adv-x="426" 
d="M170 -10q-74 0 -112 44.5t-38 120.5q0 101 53 181t144 118q-26 37 -42 72t-16 77q0 72 47 116t123 44q47 0 83 -12.5t56 -29.5l-45 -72q-45 36 -97 36q-36 0 -56 -21t-20 -56t22 -67t46 -66q34 -49 49.5 -98t15.5 -108q0 -74 -23.5 -137.5t-70.5 -102.5t-119 -39zM177 67
q31 0 52.5 20t35 51.5t19.5 65t6 60.5q0 86 -40 142q-42 -20 -73 -60t-48 -90t-17 -98q0 -40 17 -65.5t48 -25.5z" />
    <glyph glyph-name="epsilon" unicode="&#x3b5;" horiz-adv-x="335" 
d="M138 -10q-68 0 -103 34.5t-35 96.5q0 59 32 105t93 59l1 4q-23 13 -36.5 38t-13.5 63q0 44 19.5 80.5t56 57.5t86.5 21q34 0 64.5 -8.5t56.5 -28.5l-42 -68q-34 28 -76 28q-37 0 -58 -25t-21 -65q0 -65 62 -65h29l-15 -70h-36q-51 0 -79.5 -31.5t-28.5 -77.5
q0 -70 67 -70q47 0 100 31v-78q-27 -16 -59 -23.5t-64 -7.5z" />
    <glyph glyph-name="zeta" unicode="&#x3b6;" horiz-adv-x="321" 
d="M68 -195q16 18 34 41.5t30.5 49.5t12.5 50q0 22 -16 38t-37 32q-36 26 -57 55.5t-21 85.5q0 69 23.5 138.5t63.5 137.5t90 132t102 122q-14 -2 -32 -3t-39 -1h-81l17 77h253l-13 -63q-52 -57 -103 -122.5t-93 -133.5t-67 -133.5t-25 -123.5q0 -41 20.5 -64t49.5 -47
q25 -18 44.5 -41.5t19.5 -57.5q0 -47 -23.5 -88.5t-59.5 -80.5h-93z" />
    <glyph glyph-name="eta" unicode="&#x3b7;" horiz-adv-x="423" 
d="M169 -240l121 569q5 24 9 48.5t4 43.5q0 45 -40 45q-42 0 -69 -46.5t-45 -131.5l-61 -288h-91l115 539h73l-9 -71h3q45 81 118 81q42 0 71 -25t29 -81q0 -20 -4.5 -46t-9.5 -52l-125 -585h-89z" />
    <glyph glyph-name="theta" unicode="&#x3b8;" horiz-adv-x="429" 
d="M160 -10q-64 0 -97 46.5t-33 143.5q0 50 8 110.5t23 127.5q15 64 36.5 127t51.5 114t69 81.5t89 30.5q61 0 95.5 -44t34.5 -145q0 -52 -9 -118t-25.5 -133.5t-38.5 -122.5q-37 -98 -86.5 -158t-117.5 -60zM155 425h175q8 53 13 96t5 74q0 52 -12 76t-38 24
q-30 0 -55.5 -34t-47 -95t-40.5 -141zM166 65q32 0 59 38t49 102.5t41 144.5h-176q-23 -121 -23 -182q0 -53 13 -78t37 -25z" />
    <glyph glyph-name="iota" unicode="&#x3b9;" horiz-adv-x="241" 
d="M104 -10q-40 0 -61.5 23t-21.5 64q0 12 2.5 30.5t6.5 36.5l84 395h90l-86 -403q-6 -21 -6 -38q0 -28 24 -28q9 0 21 3t23 8v-72q-36 -19 -76 -19z" />
    <glyph glyph-name="kappa" unicode="&#x3ba;" horiz-adv-x="381" 
d="M-2 0l115 539h90l-30 -135q-5 -22 -11.5 -49t-15.5 -59h2l180 243h98l-165 -221l60 -318h-96l-42 244l-58 -61l-37 -183h-90z" />
    <glyph glyph-name="lambda" unicode="&#x3bb;" horiz-adv-x="382" 
d="M293 -10q-55 0 -74 33.5t-20 93.5l2 176q1 23 1 45.5t1 45.5q-5 -16 -11 -33.5t-12 -32.5l-139 -318h-93l245 530l1 101q0 32 -9 45.5t-28 13.5q-14 0 -31 -7v75q10 4 27.5 6.5t31.5 2.5q58 0 77.5 -37t21.5 -101l2 -501q0 -32 6.5 -44.5t22.5 -12.5q13 0 29 6v-79
q-10 -4 -25 -6t-26 -2z" />
    <glyph glyph-name="nu" unicode="&#x3bd;" horiz-adv-x="376" 
d="M62 0l3 539h91l-5 -305q-1 -31 -1.5 -62t-1.5 -59q54 81 97.5 190t70.5 236h92q-32 -151 -93.5 -284t-159.5 -255h-93z" />
    <glyph glyph-name="xi" unicode="&#x3be;" horiz-adv-x="333" 
d="M67 -195q17 19 36.5 44.5t33 52t13.5 49.5q-1 22 -12.5 35.5t-34.5 27.5q-43 26 -65.5 60.5t-22.5 95.5q0 52 17 99.5t52 83t88 48.5l1 3q-35 15 -49.5 40.5t-14.5 62.5q0 59 33.5 110t93.5 70q-17 -2 -31.5 -3t-28.5 -1h-42l17 77h251l-16 -76h-31q-47 0 -81.5 -24.5
t-53.5 -63.5t-19 -82q0 -40 19 -58t58 -18h38l-16 -79h-42q-70 0 -109 -49t-39 -125q0 -43 17.5 -63t49.5 -42q30 -18 48 -40.5t18 -61.5q0 -44 -22 -87t-61 -86h-93z" />
    <glyph glyph-name="omicron" unicode="&#x3bf;" horiz-adv-x="418" 
d="M159 -10q-65 0 -100 43t-35 123q0 41 8 93t25 104.5t44.5 97t67 71.5t91.5 27q63 0 98.5 -44.5t35.5 -123.5q0 -49 -9 -103t-27 -105t-46 -92.5t-66 -66t-87 -24.5zM169 68q25 0 46.5 21t37.5 55.5t27 76.5t17 84t6 77q0 43 -13.5 66t-40.5 23q-28 0 -49.5 -22.5
t-37.5 -59t-26.5 -79t-15.5 -83.5t-5 -72q0 -87 54 -87z" />
    <glyph glyph-name="pi" unicode="&#x3c0;" horiz-adv-x="453" 
d="M317 -7q-39 0 -61 21.5t-22 66.5q0 13 2 31.5t7 37.5l66 312h-109l-99 -462h-90l100 462h-72l9 39l57 38h378l-16 -77h-68l-69 -321q-2 -10 -3.5 -19.5t-1.5 -20.5q0 -28 27 -28q8 0 17 3t16 6v-73q-32 -16 -68 -16z" />
    <glyph glyph-name="rho" unicode="&#x3c1;" horiz-adv-x="426" 
d="M-52 -240l113 541q26 125 72.5 186.5t132.5 61.5q69 0 104.5 -43.5t35.5 -120.5q0 -45 -8.5 -98t-25 -105.5t-42 -95.5t-60.5 -69.5t-79 -26.5q-35 0 -59.5 11.5t-40.5 30.5q-1 -16 -5 -35t-8 -39l-41 -198h-89zM177 69q28 0 50 22t38 57.5t27 78t16 84t5 73.5
q0 86 -55 86q-40 0 -65 -42.5t-45 -144.5l-36 -172q9 -18 25.5 -30t39.5 -12z" />
    <glyph glyph-name="sigma1" unicode="&#x3c2;" horiz-adv-x="330" 
d="M78 -195q38 43 57 76t19 60q0 23 -12.5 39.5t-37.5 34.5q-30 23 -47.5 45t-25 50.5t-8.5 70.5q0 46 9 96.5t28 98.5t47.5 87t67.5 62.5t89 23.5q60 0 100 -27l-35 -72q-14 8 -30 13.5t-31 5.5q-37 0 -65 -29t-47 -73.5t-28.5 -91t-9.5 -81.5q0 -45 16 -69t44 -47
q32 -23 53 -48t21 -68q0 -72 -79 -157h-95z" />
    <glyph glyph-name="sigma" unicode="&#x3c3;" horiz-adv-x="434" 
d="M159 -10q-63 0 -99 44t-36 123q0 49 9 102t28.5 103t50.5 90t75 63.5t102 23.5h180l-16 -78h-84q7 -20 12.5 -45.5t5.5 -57.5q0 -46 -9 -97t-27 -99t-45.5 -87t-64 -62t-82.5 -23zM170 67q33 0 57.5 31t40.5 80.5t23.5 105t7.5 103.5q0 23 -1.5 42t-3.5 32h-18
q-42 0 -72.5 -29.5t-50 -76t-28.5 -99t-9 -99.5q0 -43 13 -66.5t41 -23.5z" />
    <glyph glyph-name="tau" unicode="&#x3c4;" horiz-adv-x="297" 
d="M146 -11q-45 0 -69.5 24.5t-24.5 70.5q0 16 2.5 36.5t8.5 45.5l63 295h-90l8 40l57 38h237l-16 -78h-106l-65 -307q-3 -14 -5 -25.5t-2 -22.5q0 -37 35 -37q10 0 21.5 3.5t22.5 7.5v-72q-17 -10 -37.5 -14.5t-39.5 -4.5z" />
    <glyph glyph-name="upsilon" unicode="&#x3c5;" horiz-adv-x="424" 
d="M154 -9q-65 0 -95.5 33t-30.5 94q0 22 4.5 53t11.5 66l65 302h90l-67 -315q-6 -26 -10 -50t-4 -44q0 -59 45 -59q34 0 59 32.5t42.5 86t28 116.5t16 124t6.5 109h88q-1 -73 -8.5 -150t-24 -148t-44.5 -127.5t-70.5 -89.5t-101.5 -33z" />
    <glyph glyph-name="phi" unicode="&#x3c6;" horiz-adv-x="558" 
d="M123 -240l49 233q-64 8 -105.5 54.5t-41.5 137.5q0 95 39.5 190t112.5 171l63 -44q-55 -64 -89 -145t-34 -170q0 -53 18.5 -81.5t53.5 -35.5l65 312q16 76 53 121.5t104 45.5q58 0 91 -40.5t33 -119.5q0 -67 -17.5 -136t-52 -127t-86.5 -94.5t-120 -39.5l-48 -232h-88z
M277 70q48 6 80 40.5t51 84.5t27.5 102t8.5 93q0 81 -41 81q-21 0 -36 -20.5t-26 -77.5z" />
    <glyph glyph-name="chi" unicode="&#x3c7;" horiz-adv-x="367" 
d="M-120 -240l233 419l-4 225q-1 31 -7 47t-23 16t-33 -7l9 79q10 4 25.5 5.5t30.5 1.5q46 0 64.5 -29t20.5 -82l-1 -130l118 234h96l-207 -376l6 -263q0 -60 29 -60q16 0 34 9v-75q-33 -14 -67 -14q-43 0 -62.5 28t-21.5 95v159l-144 -282h-96z" />
    <glyph glyph-name="psi" unicode="&#x3c8;" horiz-adv-x="536" 
d="M113 -240l50 231q-136 17 -136 158q0 24 4 53.5t11 62.5l59 274h89l-60 -286q-7 -28 -10.5 -52t-3.5 -46q0 -41 15.5 -60.5t47.5 -22.5l147 689h87l-145 -688q39 0 66.5 31.5t46 83t29.5 113.5t16 124t5 114h88q-1 -73 -7.5 -150t-23.5 -147.5t-47.5 -127t-77 -89.5
t-113.5 -34l-49 -231h-88z" />
    <glyph glyph-name="omega" unicode="&#x3c9;" horiz-adv-x="530" 
d="M112 -10q-49 0 -73 37t-24 105q0 62 16 133t43.5 142t59.5 132h91q-34 -66 -61 -137.5t-42.5 -140.5t-15.5 -129q0 -58 31 -58q27 0 42.5 37t31.5 117l27 125h88l-27 -125q-7 -38 -11 -63.5t-4 -44.5q0 -46 26 -46q22 0 39.5 26.5t30.5 69.5t22 93t13.5 97.5t4.5 82.5
q0 29 -1 53t-3 43h90q2 -18 3 -41.5t1 -55.5q0 -51 -7 -112t-21.5 -121t-38 -109.5t-57.5 -79.5t-79 -30q-47 0 -65.5 25.5t-18.5 59.5q-19 -41 -46 -63t-65 -22z" />
    <glyph glyph-name="iotadieresis" unicode="&#x3ca;" horiz-adv-x="241" 
d="M104 -10q-40 0 -61.5 23t-21.5 64q0 12 2.5 30.5t6.5 36.5l84 395h90l-86 -403q-6 -21 -6 -38q0 -28 24 -28q9 0 21 3t23 8v-72q-36 -19 -76 -19zM249 628q-39 0 -39 40q0 28 15.5 49t43.5 21q37 0 37 -38q0 -32 -16.5 -52t-40.5 -20zM93 628q-38 0 -38 40q0 28 15.5 49
t43.5 21q36 0 36 -38q0 -32 -16 -52t-41 -20z" />
    <glyph glyph-name="upsilondieresis" unicode="&#x3cb;" horiz-adv-x="424" 
d="M154 -9q-65 0 -95.5 33t-30.5 94q0 22 4.5 53t11.5 66l65 302h90l-67 -315q-6 -26 -10 -50t-4 -44q0 -59 45 -59q34 0 59 32.5t42.5 86t28 116.5t16 124t6.5 109h88q-1 -73 -8.5 -150t-24 -148t-44.5 -127.5t-70.5 -89.5t-101.5 -33zM343 628q-39 0 -39 40q0 28 15.5 49
t43.5 21q37 0 37 -38q0 -32 -16.5 -52t-40.5 -20zM187 628q-38 0 -38 40q0 28 15.5 49t43.5 21q36 0 36 -38q0 -32 -16 -52t-41 -20z" />
    <glyph glyph-name="omicrontonos" unicode="&#x3cc;" horiz-adv-x="418" 
d="M159 -10q-65 0 -100 43t-35 123q0 41 8 93t25 104.5t44.5 97t67 71.5t91.5 27q63 0 98.5 -44.5t35.5 -123.5q0 -49 -9 -103t-27 -105t-46 -92.5t-66 -66t-87 -24.5zM169 68q25 0 46.5 21t37.5 55.5t27 76.5t17 84t6 77q0 43 -13.5 66t-40.5 23q-28 0 -49.5 -22.5
t-37.5 -59t-26.5 -79t-15.5 -83.5t-5 -72q0 -87 54 -87zM221 606l2 12q10 18 25 49t28.5 62t20.5 49h88l-2 -10q-8 -13 -21.5 -35t-29.5 -46.5t-31 -46t-25 -34.5h-55z" />
    <glyph glyph-name="upsilontonos" unicode="&#x3cd;" horiz-adv-x="424" 
d="M154 -9q-65 0 -95.5 33t-30.5 94q0 22 4.5 53t11.5 66l65 302h90l-67 -315q-6 -26 -10 -50t-4 -44q0 -59 45 -59q34 0 59 32.5t42.5 86t28 116.5t16 124t6.5 109h88q-1 -73 -8.5 -150t-24 -148t-44.5 -127.5t-70.5 -89.5t-101.5 -33zM227 606l2 12q10 18 25 49t28.5 62
t20.5 49h88l-2 -10q-8 -13 -21.5 -35t-29.5 -46.5t-31 -46t-25 -34.5h-55z" />
    <glyph glyph-name="omegatonos" unicode="&#x3ce;" horiz-adv-x="530" 
d="M112 -10q-49 0 -73 37t-24 105q0 62 16 133t43.5 142t59.5 132h91q-34 -66 -61 -137.5t-42.5 -140.5t-15.5 -129q0 -58 31 -58q27 0 42.5 37t31.5 117l27 125h88l-27 -125q-7 -38 -11 -63.5t-4 -44.5q0 -46 26 -46q22 0 39.5 26.5t30.5 69.5t22 93t13.5 97.5t4.5 82.5
q0 29 -1 53t-3 43h90q2 -18 3 -41.5t1 -55.5q0 -51 -7 -112t-21.5 -121t-38 -109.5t-57.5 -79.5t-79 -30q-47 0 -65.5 25.5t-18.5 59.5q-19 -41 -46 -63t-65 -22zM283 606l2 12q10 18 25 49t28.5 62t20.5 49h88l-2 -10q-8 -13 -21.5 -35t-29.5 -46.5t-31 -46t-25 -34.5h-55z
" />
    <glyph glyph-name="afii10023" unicode="&#x401;" horiz-adv-x="374" 
d="M-1 0l151 714h269l-17 -83h-176l-45 -217h163l-18 -83h-163l-53 -248h176l-18 -83h-269zM372 793q-39 0 -39 40q0 28 15.5 49t43.5 21q37 0 37 -38q0 -32 -16.5 -52t-40.5 -20zM216 793q-38 0 -38 40q0 28 15.5 49t43.5 21q36 0 36 -38q0 -32 -16 -52t-41 -20z" />
    <glyph glyph-name="afii10051" unicode="&#x402;" horiz-adv-x="474" 
d="M252 -10q-34 0 -65 11l17 82q8 -5 18.5 -7.5t20.5 -2.5q31 0 45 25.5t21 62.5l23 105q5 23 5 41q0 25 -14.5 38t-48.5 13h-52l-77 -358h-93l133 630h-106l18 84h317l-18 -84h-117l-40 -188h53q138 0 138 -117q0 -28 -8 -66l-26 -125q-15 -70 -48 -107t-96 -37z" />
    <glyph glyph-name="afii10052" unicode="&#x403;" horiz-adv-x="338" 
d="M-1 0l151 714h261l-17 -84h-168l-133 -630h-94zM215 784l2 9q68 82 108 151h106l-1 -8q-11 -14 -30.5 -35t-42.5 -44t-44.5 -42.5t-35.5 -30.5h-62z" />
    <glyph glyph-name="afii10053" unicode="&#x404;" horiz-adv-x="420" 
d="M206 -10q-170 0 -170 234q0 67 14 137.5t40.5 135t64.5 116.5t87.5 82t108.5 30q82 0 129 -38l-47 -76q-37 30 -80 30q-37 0 -67.5 -21t-54.5 -54.5t-41 -74t-28 -79.5h190l-19 -83h-190q-4 -26 -6.5 -52.5t-2.5 -49.5q0 -73 19.5 -113t73.5 -40q23 0 50.5 8t53.5 20v-84
q-27 -13 -62.5 -20.5t-62.5 -7.5z" />
    <glyph glyph-name="afii10054" unicode="&#x405;" horiz-adv-x="385" 
d="M120 -10q-92 0 -142 35l15 97q25 -19 59.5 -31.5t69.5 -12.5q49 0 81 31t32 90q0 25 -5.5 45t-21.5 41t-45 51q-41 40 -63.5 80t-22.5 100q0 93 55.5 150.5t153.5 57.5q36 0 74.5 -11t63.5 -29l-44 -84q-24 16 -49 26.5t-51 10.5q-44 0 -75 -29.5t-31 -81.5
q0 -40 20 -68.5t62 -70.5q40 -38 58.5 -79.5t18.5 -99.5q0 -62 -24.5 -111.5t-71.5 -78t-117 -28.5z" />
    <glyph glyph-name="afii10055" unicode="&#x406;" horiz-adv-x="277" 
d="M-49 0l12 51l80 20l121 572l-72 20l10 51h247l-11 -51l-81 -20l-121 -572l72 -20l-10 -51h-247z" />
    <glyph glyph-name="afii10056" unicode="&#x407;" horiz-adv-x="277" 
d="M-49 0l12 51l80 20l121 572l-72 20l10 51h247l-11 -51l-81 -20l-121 -572l72 -20l-10 -51h-247zM321 814q-39 0 -39 40q0 28 15.5 49t43.5 21q37 0 37 -38q0 -32 -16.5 -52t-40.5 -20zM165 814q-38 0 -38 40q0 28 15.5 49t43.5 21q36 0 36 -38q0 -32 -16 -52t-41 -20z
" />
    <glyph glyph-name="afii10057" unicode="&#x408;" horiz-adv-x="213" 
d="M-78 -197q-44 0 -71 12l20 83q12 -5 24 -8.5t24 -3.5q36 0 54 34t29 87l149 707h94l-153 -722q-21 -100 -63.5 -144.5t-106.5 -44.5z" />
    <glyph glyph-name="afii10058" unicode="&#x409;" horiz-adv-x="656" 
d="M-12 -7q-24 0 -46 8v83q19 -8 36 -8q16 0 29 7.5t25.5 30t28.5 69.5q17 43 41 120.5t55 182t66 228.5h264l-62 -293h22q82 0 124.5 -40.5t42.5 -119.5q0 -67 -24.5 -126.5t-78 -97t-138.5 -37.5h-129l131 626h-88q-19 -68 -40 -140t-41.5 -138t-37.5 -118t-28 -81
q-22 -60 -43 -94t-47 -48t-62 -14zM353 82h36q44 0 72.5 23t42.5 62.5t14 87.5q0 44 -22.5 64t-67.5 20h-20z" />
    <glyph glyph-name="afii10059" unicode="&#x40a;" horiz-adv-x="650" 
d="M-1 0l151 714h94l-63 -296h146l63 296h93l-61 -293h18q82 0 125 -41t43 -120q0 -74 -27 -132.5t-81 -93t-134 -34.5h-126l70 336h-146l-71 -336h-94zM350 82h34q61 0 94.5 47.5t33.5 124.5q0 44 -23.5 64.5t-70.5 20.5h-13z" />
    <glyph glyph-name="afii10060" unicode="&#x40b;" horiz-adv-x="482" 
d="M56 0l134 630h-107l17 84h318l-17 -84h-118l-40 -188h54q68 0 100.5 -31t32.5 -84q0 -19 -2.5 -38t-5.5 -36l-54 -253h-94l58 266q2 11 3 22.5t1 20.5q0 26 -14.5 37.5t-45.5 11.5h-50l-76 -358h-94z" />
    <glyph glyph-name="afii10061" unicode="&#x40c;" horiz-adv-x="419" 
d="M-1 0l151 714h94l-73 -343l232 343h102l-243 -349l98 -365h-99l-92 364l-76 -364h-94zM259 784l2 9q68 82 108 151h106l-1 -8q-11 -14 -30.5 -35t-42.5 -44t-44.5 -42.5t-35.5 -30.5h-62z" />
    <glyph glyph-name="afii10062" unicode="&#x40e;" horiz-adv-x="376" 
d="M27 -9q-21 0 -35.5 3t-26.5 9v83q11 -8 26 -10.5t27 -2.5q22 0 37 11.5t31 40.5t40 82l-39 507h95l14 -276q2 -24 3 -57.5t2 -50.5q10 25 21.5 53.5t24.5 57.5l122 273h98l-263 -557q-34 -73 -74.5 -119.5t-102.5 -46.5zM292 780q-61 0 -90.5 30.5t-29.5 82.5q0 8 1.5 19
t2.5 21h73q-1 -8 -2 -18t-1 -20q0 -56 51 -56q32 0 51 23.5t29 70.5h74q-17 -79 -57 -116t-102 -37z" />
    <glyph glyph-name="afii10145" unicode="&#x40f;" horiz-adv-x="489" 
d="M95 -196l41 196h-136l152 714h93l-135 -631h178l134 631h93l-151 -714h-136l-42 -196h-91z" />
    <glyph glyph-name="afii10017" unicode="&#x410;" horiz-adv-x="423" 
d="M-64 0l300 717h119l4 -717h-97l1 214h-139l-86 -214h-102zM156 298h111l5 241q0 24 1 45.5t3 41.5h-3q-4 -19 -10.5 -40.5t-15.5 -46.5z" />
    <glyph glyph-name="afii10018" unicode="&#x411;" horiz-adv-x="418" 
d="M-1 0l151 714h291l-17 -84h-198l-44 -209h30q168 0 168 -161q0 -72 -27 -131t-81 -94t-136 -35h-137zM110 82h46q60 0 93.5 47.5t33.5 124.5q0 44 -24 64.5t-70 20.5h-24z" />
    <glyph glyph-name="afii10019" unicode="&#x412;" horiz-adv-x="443" 
d="M-1 0l151 714h142q44 0 80 -15t57.5 -46.5t21.5 -79.5q0 -44 -14 -84.5t-43.5 -70.5t-76.5 -43v-3q37 -12 57 -48t20 -83q0 -65 -26 -120t-76.5 -88t-124.5 -33h-168zM180 411h52q38 0 65 20.5t41 54.5t14 72q0 76 -79 76h-46zM110 82h57q45 0 74 22t43 59t14 81
t-21 66.5t-58 22.5h-56z" />
    <glyph glyph-name="afii10020" unicode="&#x413;" horiz-adv-x="338" 
d="M-1 0l151 714h261l-17 -84h-168l-133 -630h-94z" />
    <glyph glyph-name="afii10021" unicode="&#x414;" horiz-adv-x="484" 
d="M-95 -196l59 279h40q47 84 90.5 186t80.5 214.5t63 230.5h265l-134 -631h60l-59 -279h-92l42 196h-282l-41 -196h-92zM103 83h173l117 549h-86q-25 -102 -59 -203t-71.5 -190t-73.5 -156z" />
    <glyph glyph-name="afii10022" unicode="&#x415;" horiz-adv-x="374" 
d="M-1 0l151 714h269l-17 -83h-176l-45 -217h163l-18 -83h-163l-53 -248h176l-18 -83h-269z" />
    <glyph glyph-name="afii10024" unicode="&#x416;" horiz-adv-x="596" 
d="M-67 0l244 374l-92 340h96l86 -343l73 343h91l-73 -343l225 343h101l-237 -348l88 -366h-98l-81 365l-77 -365h-90l77 365l-230 -365h-103z" />
    <glyph glyph-name="afii10025" unicode="&#x417;" horiz-adv-x="404" 
d="M113 -10q-45 0 -77 7t-57 20v96q50 -39 127 -39q73 0 108.5 43.5t35.5 110.5q0 52 -27 77t-76 25h-55l17 83h55q70 0 109 43.5t39 108.5q0 35 -20 55.5t-57 20.5q-34 0 -59.5 -12.5t-50.5 -32.5l-34 69q37 29 77 44t89 15q70 0 109.5 -39t39.5 -107q0 -77 -41 -132.5
t-113 -71.5l-1 -3q41 -11 67.5 -47t26.5 -98q0 -67 -28.5 -120.5t-80.5 -84.5t-123 -31z" />
    <glyph glyph-name="afii10026" unicode="&#x418;" horiz-adv-x="532" 
d="M-1 0l151 714h91l-62 -295q-12 -57 -25.5 -119.5t-29.5 -119.5h3l321 534h109l-151 -714h-91l62 292q9 40 19 85.5t20 88t20 73.5h-3l-323 -539h-111z" />
    <glyph glyph-name="afii10027" unicode="&#x419;" horiz-adv-x="532" 
d="M-1 0l151 714h91l-62 -295q-12 -57 -25.5 -119.5t-29.5 -119.5h3l321 534h109l-151 -714h-91l62 292q9 40 19 85.5t20 88t20 73.5h-3l-323 -539h-111zM369 780q-61 0 -90.5 30.5t-29.5 82.5q0 8 1.5 19t2.5 21h73q-1 -8 -2 -18t-1 -20q0 -56 51 -56q32 0 51 23.5t29 70.5
h74q-17 -79 -57 -116t-102 -37z" />
    <glyph glyph-name="afii10028" unicode="&#x41a;" horiz-adv-x="419" 
d="M-1 0l151 714h94l-73 -343l232 343h102l-243 -349l98 -365h-99l-92 364l-76 -364h-94z" />
    <glyph glyph-name="afii10029" unicode="&#x41b;" horiz-adv-x="471" 
d="M-6 -7q-27 0 -49 8v83q21 -8 39 -8q20 0 37 16t33 59q13 36 32.5 96.5t43 137t48.5 161t49 168.5h279l-152 -714h-94l134 626h-104q-17 -62 -38.5 -136.5t-44 -148t-43 -135.5t-35.5 -99q-26 -60 -56 -87t-79 -27z" />
    <glyph glyph-name="afii10030" unicode="&#x41c;" horiz-adv-x="661" 
d="M-1 0l151 714h128l20 -558h2l250 558h136l-152 -714h-91l97 460q5 22 10.5 44t11.5 45h-2l-249 -549h-88l-20 547h-2q-6 -31 -10.5 -57t-9.5 -51l-93 -439h-89z" />
    <glyph glyph-name="afii10031" unicode="&#x41d;" horiz-adv-x="495" 
d="M-1 0l151 714h94l-63 -299h182l64 299h93l-152 -714h-93l70 331h-182l-70 -331h-94z" />
    <glyph glyph-name="afii10032" unicode="&#x41e;" horiz-adv-x="508" 
d="M199 -10q-83 0 -123.5 52.5t-40.5 162.5q0 65 12 136.5t36 139.5t59.5 123t83.5 87.5t107 32.5q83 0 122.5 -51.5t39.5 -156.5q0 -56 -10.5 -126t-32.5 -140t-57 -129t-83.5 -95t-112.5 -36zM206 75q39 0 70 30.5t54 81t38.5 110t23 117.5t7.5 104q0 123 -73 123
q-42 0 -73.5 -32.5t-54.5 -84.5t-37.5 -112t-21.5 -115t-7 -93q0 -70 18.5 -99.5t55.5 -29.5z" />
    <glyph glyph-name="afii10033" unicode="&#x41f;" horiz-adv-x="489" 
d="M-1 0l151 714h364l-151 -714h-93l133 630h-178l-132 -630h-94z" />
    <glyph glyph-name="afii10034" unicode="&#x420;" horiz-adv-x="416" 
d="M-1 0l151 714h118q84 0 126 -43t42 -115q0 -78 -28 -142t-82 -102.5t-132 -38.5h-44l-57 -273h-94zM168 356h26q71 0 108 52t37 136q0 87 -86 87h-27z" />
    <glyph glyph-name="afii10035" unicode="&#x421;" horiz-adv-x="399" 
d="M199 -10q-81 0 -122 59t-41 171q0 61 12.5 130.5t37.5 135.5t62 120.5t87 86.5t112 32q74 0 124 -38l-47 -76q-36 30 -77 30q-44 0 -78.5 -30t-60 -78.5t-42 -104.5t-25 -109t-8.5 -92q0 -80 21.5 -116.5t67.5 -36.5q24 0 49 7t51 19v-85q-29 -13 -61 -19t-62 -6z" />
    <glyph glyph-name="afii10036" unicode="&#x422;" horiz-adv-x="357" 
d="M67 0l134 630h-122l18 84h337l-18 -84h-122l-134 -630h-93z" />
    <glyph glyph-name="afii10037" unicode="&#x423;" horiz-adv-x="376" 
d="M27 -9q-21 0 -35.5 3t-26.5 9v83q11 -8 26 -10.5t27 -2.5q22 0 37 11.5t31 40.5t40 82l-39 507h95l14 -276q2 -24 3 -57.5t2 -50.5q10 25 21.5 53.5t24.5 57.5l122 273h98l-263 -557q-34 -73 -74.5 -119.5t-102.5 -46.5z" />
    <glyph glyph-name="afii10038" unicode="&#x424;" horiz-adv-x="590" 
d="M180 -10l24 110q-76 4 -119 52t-43 141t32.5 170t94 124t149.5 49l18 88h91l-18 -88q75 -4 118.5 -53.5t43.5 -137.5q0 -95 -34 -172.5t-95.5 -124t-146.5 -48.5l-24 -110h-91zM220 181l81 374q-43 0 -74 -23.5t-51 -62t-30 -84t-10 -90.5q0 -111 84 -114zM311 181
q39 0 70 22.5t52 60t32 83t11 93.5q0 57 -22 85.5t-63 29.5z" />
    <glyph glyph-name="afii10039" unicode="&#x425;" horiz-adv-x="391" 
d="M-59 0l217 373l-52 341h97l29 -250l131 250h99l-197 -349l55 -365h-100l-28 272l-152 -272h-99z" />
    <glyph glyph-name="afii10040" unicode="&#x426;" horiz-adv-x="516" 
d="M300 -196l42 196h-339l152 714h93l-135 -631h181l134 631h93l-134 -631h64l-60 -279h-91z" />
    <glyph glyph-name="afii10041" unicode="&#x427;" horiz-adv-x="473" 
d="M249 0l61 286q-31 -16 -64.5 -28t-63.5 -12q-56 0 -85 31.5t-29 88.5q0 16 2 36t7 37l59 275h93l-56 -264q-4 -17 -6 -31t-2 -26q0 -63 56 -63q28 0 54.5 11t50.5 25l74 348h93l-151 -714h-93z" />
    <glyph glyph-name="afii10042" unicode="&#x428;" horiz-adv-x="693" 
d="M-1 0l151 714h94l-135 -631h147l134 631h93l-134 -631h146l133 631h93l-151 -714h-571z" />
    <glyph glyph-name="afii10043" unicode="&#x429;" horiz-adv-x="712" 
d="M501 -196l42 196h-544l151 714h94l-135 -631h147l134 631h93l-134 -631h146l134 631h93l-134 -631h64l-60 -279h-91z" />
    <glyph glyph-name="afii10044" unicode="&#x42a;" horiz-adv-x="485" 
d="M63 0l132 629h-122l18 85h216l-61 -293h30q82 0 124.5 -40.5t42.5 -120.5q0 -72 -26.5 -131t-79.5 -94t-132 -35h-142zM174 82h45q61 0 94.5 47.5t33.5 124.5q0 44 -23.5 64.5t-65.5 20.5h-30z" />
    <glyph glyph-name="afii10045" unicode="&#x42b;" horiz-adv-x="632" 
d="M-1 0l151 714h94l-62 -293h32q166 0 166 -160q0 -68 -25.5 -127.5t-78.5 -96.5t-136 -37h-141zM411 0l152 714h93l-152 -714h-93zM110 82h44q44 0 73 23t43 62.5t14 87.5q0 84 -93 84h-26z" />
    <glyph glyph-name="afii10046" unicode="&#x42c;" horiz-adv-x="421" 
d="M-1 0l151 714h93l-61 -293h31q82 0 124.5 -40.5t42.5 -119.5q0 -68 -25.5 -127.5t-78.5 -96.5t-136 -37h-141zM110 82h44q44 0 73 23t43 62.5t14 87.5q0 44 -23.5 64t-66.5 20h-29z" />
    <glyph glyph-name="afii10047" unicode="&#x42d;" horiz-adv-x="424" 
d="M99 -10q-36 0 -63.5 6.5t-50.5 18.5v87q27 -14 56.5 -21t56.5 -7q68 0 116.5 64.5t73.5 190.5h-192l18 83h188q3 20 5 40t2 40q0 149 -91 149q-25 0 -48.5 -7.5t-50.5 -22.5l-25 74q66 40 139 40q81 0 126 -59t45 -177q0 -64 -11 -133.5t-33.5 -134.5t-58.5 -117t-86 -83
t-116 -31z" />
    <glyph glyph-name="afii10048" unicode="&#x42e;" horiz-adv-x="671" 
d="M380 -10q-76 0 -112.5 49t-36.5 154q0 28 3.5 63t11.5 75h-83l-70 -331h-94l151 714h94l-63 -300h81q14 59 36 114.5t52.5 99.5t71 70t91.5 26q72 0 110 -48.5t38 -150.5q0 -45 -7 -102t-22 -117t-37.5 -116.5t-53.5 -101.5t-71 -71.5t-90 -26.5zM384 75q30 0 55.5 25.5
t45.5 67t35 92t24.5 102t14.5 95.5t5 72q0 112 -62 112q-30 0 -55 -24.5t-45 -65t-35 -90t-25 -100.5t-15 -95.5t-5 -74.5q0 -64 15.5 -90t46.5 -26z" />
    <glyph glyph-name="afii10049" unicode="&#x42f;" horiz-adv-x="432" 
d="M-57 0l206 317q-33 18 -51 54t-18 89q0 72 27.5 129.5t82 91t134.5 33.5h132l-151 -714h-94l62 293h-41l-184 -293h-105zM258 372h32l55 261h-36q-45 0 -74.5 -23.5t-44 -61.5t-14.5 -81q0 -95 82 -95z" />
    <glyph glyph-name="afii10065" unicode="&#x430;" horiz-adv-x="432" 
d="M129 -10q-51 0 -78.5 39.5t-27.5 112.5q0 44 8 98.5t25 108.5t42.5 99.5t60.5 73t80 27.5q69 0 91 -78h3l22 68h77l-114 -539h-73l5 75h-2q-26 -40 -54.5 -62.5t-64.5 -22.5zM161 68q32 0 54.5 26.5t38.5 67t27 82.5q23 92 23 150q0 36 -14 55.5t-38 19.5
q-26 0 -47 -21.5t-37.5 -57.5t-28 -78t-17.5 -84.5t-6 -76.5q0 -83 45 -83z" />
    <glyph glyph-name="afii10066" unicode="&#x431;" horiz-adv-x="414" 
d="M158 -10q-59 0 -96.5 40t-37.5 136q0 52 8 118.5t26 136.5t49 134t77 111.5t109 67.5q60 20 169 32v-83q-41 -4 -77.5 -9.5t-74.5 -17.5q-60 -20 -96.5 -80.5t-57.5 -139.5h4q21 30 50 47.5t60 17.5q53 0 83 -38t30 -116q0 -60 -15 -122.5t-43.5 -116t-70.5 -86
t-96 -32.5zM163 68q30 0 53.5 28t39.5 71t24.5 90t8.5 84q0 32 -10 58t-41 26q-27 0 -55 -25.5t-47 -63.5q-10 -51 -16 -95t-6 -79q0 -94 49 -94z" />
    <glyph glyph-name="afii10067" unicode="&#x432;" horiz-adv-x="432" 
d="M175 -10q-67 0 -109.5 41.5t-42.5 127.5q0 48 8 101.5t26 104.5t47.5 92.5t72 66.5t100.5 25q62 0 99.5 -32t37.5 -91q0 -58 -31.5 -96t-92.5 -52l-1 -3q34 -7 55.5 -35t21.5 -77q0 -47 -22 -86t-65 -63t-104 -24zM136 311h74q50 0 80.5 28.5t30.5 78.5q0 59 -55 59
q-47 0 -78.5 -44.5t-51.5 -121.5zM186 62q40 0 65.5 30t25.5 71q0 37 -20 58t-61 21h-74q-3 -20 -5 -39.5t-2 -41.5q0 -55 19 -77t52 -22z" />
    <glyph glyph-name="afii10068" unicode="&#x433;" horiz-adv-x="332" 
d="M139 -10q-60 0 -98.5 29.5t-40.5 96.5q0 73 36 116.5t94 75.5q44 26 73.5 51.5t29.5 67.5q0 23 -14 34t-37 11q-25 0 -45.5 -9t-39.5 -19l-23 68q30 18 60.5 27.5t62.5 9.5q62 0 94.5 -32t32.5 -88q0 -67 -35.5 -107t-88.5 -70q-61 -35 -83.5 -62t-22.5 -67
q0 -28 17 -41.5t45 -13.5q26 0 52.5 9t49.5 22v-79q-27 -15 -57.5 -22.5t-61.5 -7.5z" />
    <glyph glyph-name="afii10069" unicode="&#x434;" horiz-adv-x="428" 
d="M167 -10q-71 0 -107 43.5t-36 119.5q0 39 7 87t22 96t39.5 87.5t59.5 64t82 24.5q31 0 54.5 -13t36.5 -30h2q1 17 1.5 36t0.5 35q0 80 -21 116.5t-65 36.5q-40 0 -85 -27l-21 73q28 15 59.5 22.5t61.5 7.5q86 0 124 -64.5t38 -173.5q0 -60 -7.5 -132t-24 -144t-45.5 -132
t-72.5 -96.5t-103.5 -36.5zM171 65q33 0 58 32t43 82t28.5 105.5t13.5 101.5q-9 22 -28 36.5t-43 14.5q-33 0 -57 -29.5t-39.5 -75t-23 -94t-7.5 -85.5q0 -46 13 -67t42 -21z" />
    <glyph glyph-name="afii10070" unicode="&#x435;" horiz-adv-x="394" 
d="M169 -10q-68 0 -107 44t-39 123q0 78 17.5 148.5t49 125t75.5 86t98 31.5q53 0 84.5 -29.5t31.5 -85.5q0 -91 -67 -142.5t-185 -51.5h-7q-8 -37 -8 -72q0 -53 19.5 -77.5t59.5 -24.5q29 0 53 7.5t55 24.5v-73q-29 -19 -61.5 -26.5t-68.5 -7.5zM132 307h3q85 0 122.5 33
t37.5 87q0 22 -11 35t-34 13q-36 0 -67.5 -47t-50.5 -121z" />
    <glyph glyph-name="afii10072" unicode="&#x436;" horiz-adv-x="649" 
d="M-4 -8q-10 0 -20 1t-20 3l21 77q5 -1 9.5 -2t12.5 -1q30 0 53.5 22t40 58t27.5 78t16 81.5t5 68.5q0 48 -15.5 69.5t-43.5 21.5q-5 0 -11.5 -1t-12.5 -3v76q18 6 44 6q62 0 95 -40.5t33 -117.5q0 -18 -1.5 -37.5t-5.5 -40.5h65l49 228h86l-49 -228h62q14 62 41.5 116
t69.5 87t102 33q9 0 18.5 -1t19.5 -3l-21 -77q-5 2 -20 2q-35 0 -62 -31t-45 -79t-27 -101t-9 -97q0 -90 59 -90q14 0 25 3v-75q-18 -6 -44 -6q-62 0 -95 40.5t-33 117.5q0 40 6 87h-63l-50 -237h-87l50 237h-60q-29 -119 -83 -182t-132 -63z" />
    <glyph glyph-name="afii10073" unicode="&#x437;" horiz-adv-x="329" 
d="M99 -10q-73 0 -120 29v86q27 -19 55 -28.5t56 -9.5q48 0 72 29.5t24 77.5q0 73 -68 73h-44l16 70h37q41 0 68 28.5t27 68.5q0 59 -52 59q-20 0 -38 -6.5t-38 -17.5l-24 68q32 19 61 25.5t60 6.5q59 0 90 -31.5t31 -87.5q0 -53 -27 -90.5t-74 -52.5l-1 -4
q32 -10 49.5 -39.5t17.5 -72.5q0 -50 -21.5 -91.5t-61.5 -65.5t-95 -24z" />
    <glyph glyph-name="afii10074" unicode="&#x438;" horiz-adv-x="425" 
d="M124 -10q-49 0 -74.5 28t-25.5 80q0 18 3 41.5t8 44.5l76 355h89l-71 -338q-11 -47 -11 -82q0 -48 39 -48q41 0 69.5 47.5t45.5 132.5l61 288h90l-114 -539h-72l6 67h-3q-23 -37 -52.5 -57t-63.5 -20z" />
    <glyph glyph-name="afii10075" unicode="&#x439;" horiz-adv-x="425" 
d="M124 -10q-49 0 -74.5 28t-25.5 80q0 18 3 41.5t8 44.5l76 355h89l-71 -338q-11 -47 -11 -82q0 -48 39 -48q41 0 69.5 47.5t45.5 132.5l61 288h90l-114 -539h-72l6 67h-3q-23 -37 -52.5 -57t-63.5 -20zM279 601q-61 0 -90.5 30.5t-29.5 82.5q0 8 1.5 19t2.5 21h73
q-1 -8 -2 -18t-1 -20q0 -56 51 -56q32 0 51 23.5t29 70.5h74q-17 -79 -57 -116t-102 -37z" />
    <glyph glyph-name="afii10076" unicode="&#x43a;" horiz-adv-x="377" 
d="M-2 0l115 539h90l-55 -254l176 254h100l-188 -261l84 -278h-97l-77 274l-58 -274h-90z" />
    <glyph glyph-name="afii10077" unicode="&#x43b;" horiz-adv-x="405" 
d="M-6 -7q-14 0 -23 2.5t-19 6.5v79q12 -8 30 -8q20 1 37 18t32.5 61t31.5 124q18 90 44 149.5t69 89t111 29.5q30 0 55 -2.5t54 -6.5l-113 -535h-90l99 462q-5 1 -11 1.5t-13 0.5q-50 0 -75 -51t-49 -166q-27 -125 -63 -189t-107 -65z" />
    <glyph glyph-name="afii10078" unicode="&#x43c;" horiz-adv-x="531" 
d="M-2 0l115 539h121v-401h2l170 401h125l-114 -539h-86l61 282q7 29 13 57.5t13 57.5h-2l-172 -397h-74l-4 397h-1q-5 -26 -9.5 -51t-10.5 -53l-62 -293h-85z" />
    <glyph glyph-name="afii10079" unicode="&#x43d;" horiz-adv-x="428" 
d="M-2 0l115 539h90l-47 -221h134l47 221h89l-114 -539h-90l52 240h-135l-51 -240h-90z" />
    <glyph glyph-name="afii10080" unicode="&#x43e;" horiz-adv-x="418" 
d="M159 -10q-65 0 -100 43t-35 123q0 41 8 93t25 104.5t44.5 97t67 71.5t91.5 27q63 0 98.5 -44.5t35.5 -123.5q0 -49 -9 -103t-27 -105t-46 -92.5t-66 -66t-87 -24.5zM169 68q25 0 46.5 21t37.5 55.5t27 76.5t17 84t6 77q0 43 -13.5 66t-40.5 23q-28 0 -49.5 -22.5
t-37.5 -59t-26.5 -79t-15.5 -83.5t-5 -72q0 -87 54 -87z" />
    <glyph glyph-name="afii10081" unicode="&#x43f;" horiz-adv-x="423" 
d="M-3 0l115 539h73l-9 -71h3q45 81 118 81q42 0 71 -25t29 -81q0 -20 -4.5 -46t-9.5 -52l-73 -345h-90l70 329q5 24 9 48.5t4 43.5q0 45 -40 45q-42 0 -69 -46.5t-45 -131.5l-61 -288h-91z" />
    <glyph glyph-name="afii10082" unicode="&#x440;" horiz-adv-x="428" 
d="M-50 -234l163 773h74l-9 -76h3q53 86 122 86q50 0 77.5 -37.5t27.5 -114.5q0 -46 -8.5 -101t-26 -109t-43.5 -98.5t-60.5 -71.5t-78.5 -27q-34 0 -57.5 20t-32.5 54h-3q-4 -26 -8 -51t-8 -45l-44 -202h-88zM179 69q25 0 46.5 21.5t38 57.5t28.5 78.5t18 85t6 77.5
q0 83 -47 83q-27 0 -49.5 -23.5t-39.5 -61.5t-28.5 -82t-17.5 -86t-6 -73q0 -77 51 -77z" />
    <glyph glyph-name="afii10083" unicode="&#x441;" horiz-adv-x="329" 
d="M157 -10q-65 0 -99 42.5t-34 122.5q0 48 8.5 101.5t26.5 105.5t46 94.5t67.5 67.5t90.5 25q55 0 97 -27l-37 -73q-27 21 -61 21q-37 0 -64.5 -30.5t-45.5 -78.5t-27 -100.5t-9 -95.5q0 -96 63 -96q35 0 85 31v-79q-20 -13 -48.5 -22t-58.5 -9z" />
    <glyph glyph-name="afii10084" unicode="&#x442;" horiz-adv-x="630" 
d="M-3 0l115 539h73l-9 -69h3q22 38 52 58.5t66 20.5q77 0 93 -69h2q22 32 52.5 50.5t66.5 18.5q44 0 69 -27t25 -78q0 -16 -2.5 -35t-6.5 -38l-79 -371h-90l75 352q4 19 6.5 36.5t2.5 28.5q0 50 -40 50q-26 0 -45 -19.5t-31 -48.5t-18 -60l-73 -339h-89l76 359q8 35 8 59
q0 49 -39 49q-32 0 -53.5 -25t-35 -65.5t-21.5 -84.5l-62 -292h-91z" />
    <glyph glyph-name="afii10085" unicode="&#x443;" horiz-adv-x="358" 
d="M-32 -241q-18 0 -32 2.5t-25 7.5l13 81q21 -9 42 -9q28 0 44.5 21t32.5 58l37 83l-16 536h90l1 -286q0 -29 -1 -58.5t-3 -58.5h3q21 64 39 107l124 296h94l-282 -636q-30 -65 -64.5 -104.5t-96.5 -39.5z" />
    <glyph glyph-name="afii10086" unicode="&#x444;" horiz-adv-x="537" 
d="M118 -240l49 234q-70 7 -107.5 55.5t-37.5 136.5q0 57 15 118.5t47 115t81 87.5t118 37l45 216h88l-45 -216q70 -8 106.5 -54t36.5 -136q0 -56 -16 -118t-48 -117t-81 -90t-116 -37l-49 -232h-86zM182 72l84 395q-38 -3 -66.5 -30.5t-48 -69.5t-29 -91t-9.5 -94
q0 -44 17.5 -74t51.5 -36zM271 72q32 2 57 22.5t43 53t29.5 70.5t17 75t5.5 65q0 46 -16.5 75t-51.5 34z" />
    <glyph glyph-name="afii10087" unicode="&#x445;" horiz-adv-x="362" 
d="M-47 0l174 280l-53 259h95l29 -182l104 182h100l-167 -266l58 -273h-95l-34 196l-113 -196h-98z" />
    <glyph glyph-name="afii10088" unicode="&#x446;" horiz-adv-x="443" 
d="M240 -189l41 193q-17 6 -25.5 21t-9.5 44h-4q-49 -79 -121 -79q-46 0 -71.5 27.5t-25.5 80.5q0 18 3.5 42t8.5 47l75 352h89l-71 -338q-11 -47 -11 -79q0 -51 38 -51q41 0 70 47.5t46 132.5l61 288h90l-77 -364q-5 -23 -8.5 -41.5t-3.5 -31.5q0 -26 27 -26q12 0 24 4
l-57 -269h-88z" />
    <glyph glyph-name="afii10089" unicode="&#x447;" horiz-adv-x="419" 
d="M213 0l39 179q7 30 16 61h-2q-20 -29 -51 -47t-65 -18q-44 0 -69 30t-25 75q0 26 3.5 52t10.5 56l33 151h90l-33 -151q-5 -25 -8.5 -45.5t-3.5 -41.5q0 -19 10.5 -32t29.5 -13q42 0 69 38t44 120l27 125h89l-114 -539h-90z" />
    <glyph glyph-name="afii10090" unicode="&#x448;" horiz-adv-x="629" 
d="M118 -10q-44 0 -69 28.5t-25 79.5q0 16 3 38t8 45l77 358h90l-73 -341q-6 -25 -8.5 -43t-2.5 -32q0 -52 40 -52q28 0 47.5 23t32 58t19.5 70l68 317h90l-74 -350q-5 -19 -7.5 -36.5t-2.5 -30.5q0 -51 38 -51q31 0 51.5 26.5t34 67t22.5 82.5l62 292h89l-114 -539h-72
l5 62h-2q-23 -35 -50 -53.5t-62 -18.5q-76 0 -92 70h-2q-24 -33 -54 -51.5t-67 -18.5z" />
    <glyph glyph-name="afii10091" unicode="&#x449;" horiz-adv-x="646" 
d="M444 -189l41 193q-17 7 -26 19.5t-10 38.5h-3q-48 -72 -113 -72q-76 0 -92 70h-2q-24 -33 -54 -51.5t-67 -18.5q-44 0 -69 28.5t-25 79.5q0 16 3 38t8 45l77 358h90l-73 -341q-6 -25 -8.5 -43t-2.5 -32q0 -52 40 -52q28 0 47.5 23t32 58t19.5 70l68 317h90l-74 -350
q-5 -19 -7.5 -36.5t-2.5 -30.5q0 -51 38 -51q31 0 51.5 26.5t34 67t22.5 82.5l62 292h89l-82 -390q-4 -13 -6 -26t-2 -21q0 -26 27 -26q9 0 24 4l-57 -269h-88z" />
    <glyph glyph-name="afii10092" unicode="&#x44a;" horiz-adv-x="441" 
d="M208 -10q-65 0 -96 31.5t-31 88.5q0 22 3.5 44t8.5 44l56 260h-104l18 81h193l-48 -227q8 2 21.5 3t27.5 1q135 0 135 -135q0 -85 -49.5 -138t-134.5 -53zM219 60q25 0 43.5 16.5t28 42.5t9.5 55q0 71 -60 71q-10 0 -22 -1.5t-25 -3.5q-12 -52 -17.5 -81t-5.5 -43
q0 -23 10.5 -39.5t38.5 -16.5z" />
    <glyph glyph-name="afii10093" unicode="&#x44b;" horiz-adv-x="565" 
d="M153 -10q-59 0 -93 28.5t-34 91.5q0 30 9 72l76 357h90l-48 -227q9 2 21.5 3t27.5 1q69 0 102 -35.5t33 -99.5q0 -85 -50 -138t-134 -53zM360 0l115 539h89l-114 -539h-90zM163 61q38 0 60 34.5t22 78.5q0 71 -60 71q-11 0 -23 -1.5t-25 -3.5q-12 -56 -17 -83.5t-5 -40.5
q0 -22 10 -38.5t38 -16.5z" />
    <glyph glyph-name="afii10094" unicode="&#x44c;" horiz-adv-x="387" 
d="M153 -10q-59 0 -93 28.5t-34 91.5q0 32 9 75l76 354h90l-48 -228q20 5 50 5q69 0 102.5 -35.5t33.5 -99.5q0 -90 -52 -140.5t-134 -50.5zM163 61q39 0 61 33.5t22 79.5q0 71 -60 71q-22 0 -49 -5q-12 -55 -17 -82.5t-5 -41.5q0 -22 10 -38.5t38 -16.5z" />
    <glyph glyph-name="afii10095" unicode="&#x44d;" horiz-adv-x="340" 
d="M71 -10q-56 0 -92 18v86q40 -28 84 -28q41 0 68.5 24.5t45 64t27.5 86.5h-128l15 71h126q3 16 4.5 34t1.5 33q0 94 -66 94q-18 0 -36.5 -5t-35.5 -16l-19 69q22 12 53 20t60 8q66 0 101 -41.5t35 -117.5q0 -48 -8 -102.5t-25.5 -107t-45.5 -95.5t-69 -69t-96 -26z" />
    <glyph glyph-name="afii10096" unicode="&#x44e;" horiz-adv-x="588" 
d="M337 -10q-63 0 -96.5 41t-33.5 121q0 42 9 88h-77l-52 -240h-89l115 539h89l-47 -221h76q17 64 45.5 116.5t68 83.5t91.5 31q62 0 95 -42.5t33 -121.5q0 -43 -8.5 -96t-25.5 -105.5t-44 -96.5t-64 -70.5t-85 -26.5zM344 67q25 0 45 22t36 58t27 78.5t16.5 84.5t5.5 75
q0 45 -11.5 65t-36.5 20t-45.5 -22.5t-36 -59t-27 -79.5t-17 -84.5t-5.5 -73.5q0 -84 49 -84z" />
    <glyph glyph-name="afii10097" unicode="&#x44f;" horiz-adv-x="402" 
d="M-2 -6q-14 0 -24 2t-16 4v72q8 -3 23 -3q18 0 32.5 13.5t25.5 45.5q19 56 36 84.5t46 37.5q-28 13 -43.5 38t-15.5 69q0 85 53.5 133.5t141.5 48.5h144l-115 -539h-89l47 224h-28q-21 0 -35 -8.5t-27.5 -33t-30.5 -71.5q-24 -65 -51.5 -91t-73.5 -26zM222 289h37l38 181
h-43q-51 0 -76 -35t-25 -79q0 -32 16 -49.5t53 -17.5z" />
    <glyph glyph-name="afii10071" unicode="&#x451;" horiz-adv-x="394" 
d="M169 -10q-68 0 -107 44t-39 123q0 78 17.5 148.5t49 125t75.5 86t98 31.5q53 0 84.5 -29.5t31.5 -85.5q0 -91 -67 -142.5t-185 -51.5h-7q-8 -37 -8 -72q0 -53 19.5 -77.5t59.5 -24.5q29 0 53 7.5t55 24.5v-73q-29 -19 -61.5 -26.5t-68.5 -7.5zM132 307h3q85 0 122.5 33
t37.5 87q0 22 -11 35t-34 13q-36 0 -67.5 -47t-50.5 -121zM354 628q-39 0 -39 40q0 28 15.5 49t43.5 21q37 0 37 -38q0 -32 -16.5 -52t-40.5 -20zM198 628q-38 0 -38 40q0 28 15.5 49t43.5 21q36 0 36 -38q0 -32 -16 -52t-41 -20z" />
    <glyph glyph-name="afii10099" unicode="&#x452;" horiz-adv-x="423" 
d="M149 -237q-15 0 -28.5 1.5t-26.5 6.5v81q19 -8 44 -8q34 0 48.5 31t25.5 86l80 379q4 18 7 35.5t3 33.5q0 23 -10 36t-30 13q-40 0 -67 -40t-45 -129l-62 -289h-90l128 604h-54l14 68h55l18 88h90l-19 -88h97l-14 -68h-98l-12 -58q-4 -22 -10.5 -42.5t-12.5 -39.5h2
q44 75 116 75q46 0 71.5 -28t25.5 -78q0 -17 -2.5 -38t-7.5 -41l-85 -400q-12 -60 -29 -102.5t-45.5 -65.5t-76.5 -23z" />
    <glyph glyph-name="afii10100" unicode="&#x453;" horiz-adv-x="332" 
d="M139 -10q-60 0 -98.5 29.5t-40.5 96.5q0 73 36 116.5t94 75.5q44 26 73.5 51.5t29.5 67.5q0 23 -14 34t-37 11q-25 0 -45.5 -9t-39.5 -19l-23 68q30 18 60.5 27.5t62.5 9.5q62 0 94.5 -32t32.5 -88q0 -67 -35.5 -107t-88.5 -70q-61 -35 -83.5 -62t-22.5 -67
q0 -28 17 -41.5t45 -13.5q26 0 52.5 9t49.5 22v-79q-27 -15 -57.5 -22.5t-61.5 -7.5zM168 605l2 9q68 82 108 151h106l-1 -8q-11 -14 -30.5 -35t-42.5 -44t-44.5 -42.5t-35.5 -30.5h-62z" />
    <glyph glyph-name="afii10101" unicode="&#x454;" horiz-adv-x="342" 
d="M156 -10q-62 0 -97 41t-35 121q0 48 8.5 102.5t26.5 106.5t46 94.5t67.5 68t91.5 25.5q58 0 99 -27l-36 -70q-30 20 -64 20q-32 0 -56.5 -24.5t-42 -61t-27.5 -74.5h127l-15 -71h-127q-6 -37 -6 -81q0 -50 16.5 -72t45.5 -22q42 0 90 30v-75q-21 -13 -53.5 -22t-58.5 -9z
" />
    <glyph glyph-name="afii10102" unicode="&#x455;" horiz-adv-x="327" 
d="M107 -10q-38 0 -68 7.5t-49 18.5v90q20 -16 50 -26t57 -10q37 0 58.5 20.5t21.5 59.5q0 26 -10.5 47t-44.5 56q-34 34 -50.5 65.5t-16.5 73.5q0 44 18.5 79.5t53.5 56.5t85 21q40 0 73 -10.5t56 -26.5l-39 -71q-20 16 -43 24t-44 8q-31 0 -49.5 -18.5t-18.5 -49.5
q0 -25 9.5 -45t40.5 -49q26 -27 42.5 -48t24.5 -45t8 -59q0 -75 -43 -122t-122 -47z" />
    <glyph glyph-name="afii10103" unicode="&#x456;" horiz-adv-x="201" 
d="M178 623q-43 0 -43 43q0 28 15.5 52.5t47.5 24.5q43 0 43 -41q0 -33 -17.5 -56t-45.5 -23zM-2 0l114 539h90l-115 -539h-89z" />
    <glyph glyph-name="afii10104" unicode="&#x457;" horiz-adv-x="201" 
d="M-2 0l114 539h90l-115 -539h-89zM247 628q-39 0 -39 40q0 28 15.5 49t43.5 21q37 0 37 -38q0 -32 -16.5 -52t-40.5 -20zM91 628q-38 0 -38 40q0 28 15.5 49t43.5 21q36 0 36 -38q0 -32 -16 -52t-41 -20z" />
    <glyph glyph-name="afii10105" unicode="&#x458;" horiz-adv-x="202" 
d="M179 623q-43 0 -43 43q0 28 15.5 52.5t47.5 24.5q43 0 43 -41q0 -33 -17 -56t-46 -23zM-74 -240q-15 0 -28.5 2t-25.5 6v80q8 -4 20 -5.5t23 -1.5q32 0 46.5 24.5t28.5 92.5l123 581h89l-125 -588q-12 -57 -28.5 -100t-45 -67t-77.5 -24z" />
    <glyph glyph-name="afii10106" unicode="&#x459;" horiz-adv-x="595" 
d="M361 -10q-65 0 -94 30.5t-29 89.5q0 17 2.5 35.5t6.5 36.5l60 281q-4 0 -8.5 0.5t-10.5 0.5q-36 0 -57.5 -25.5t-36.5 -73.5t-29 -115q-19 -82 -39.5 -139.5t-51 -87t-80.5 -30.5q-14 0 -23 2.5t-19 6.5v79q7 -5 15.5 -6.5t14.5 -1.5q22 1 38 18.5t30 59t30 113.5
q19 94 45.5 156t69.5 93t112 31q28 0 53.5 -2.5t50.5 -6.5l-47 -223q8 2 21 3t27 1q135 0 135 -135q0 -55 -23 -98.5t-64.5 -68t-98.5 -24.5zM371 61q28 0 46.5 17t27.5 43t9 53q0 71 -60 71q-10 0 -21 -1.5t-24 -3.5q-13 -58 -18 -85t-5 -39q0 -55 45 -55z" />
    <glyph glyph-name="afii10107" unicode="&#x45a;" horiz-adv-x="602" 
d="M369 -10q-65 0 -95 31.5t-30 88.5q0 19 5 49.5t16 82.5h-125l-52 -242h-90l115 539h90l-47 -220h126l47 220h90l-48 -226q9 2 21 3t26 1q67 0 101 -35t34 -101q0 -55 -22 -98.5t-63.5 -68t-98.5 -24.5zM380 61q27 0 45 17t27 43t9 53q0 72 -60 72q-9 0 -20.5 -1.5
t-24.5 -3.5q-13 -55 -18 -82t-5 -43q0 -55 47 -55z" />
    <glyph glyph-name="afii10108" unicode="&#x45b;" horiz-adv-x="424" 
d="M-2 0l129 605h-59l14 69h59l18 86h90l-18 -86h90l-13 -69h-92q-10 -43 -16.5 -69t-11 -42t-8.5 -30h2q44 75 116 75q45 0 71 -27.5t26 -78.5q0 -21 -5 -49t-10 -53l-70 -331h-89l66 315q6 25 10.5 50t4.5 47q0 45 -42 45q-40 0 -66.5 -41t-43.5 -127l-62 -289h-90z" />
    <glyph glyph-name="afii10109" unicode="&#x45c;" horiz-adv-x="377" 
d="M-2 0l115 539h90l-55 -254l176 254h100l-188 -261l84 -278h-97l-77 274l-58 -274h-90zM201 605l2 9q68 82 108 151h106l-1 -8q-11 -14 -30.5 -35t-42.5 -44t-44.5 -42.5t-35.5 -30.5h-62z" />
    <glyph glyph-name="afii10110" unicode="&#x45e;" horiz-adv-x="358" 
d="M-32 -241q-18 0 -32 2.5t-25 7.5l13 81q21 -9 42 -9q28 0 44.5 21t32.5 58l37 83l-16 536h90l1 -286q0 -29 -1 -58.5t-3 -58.5h3q21 64 39 107l124 296h94l-282 -636q-30 -65 -64.5 -104.5t-96.5 -39.5zM247 601q-61 0 -90.5 30.5t-29.5 82.5q0 8 1.5 19t2.5 21h73
q-1 -8 -2 -18t-1 -20q0 -56 51 -56q32 0 51 23.5t29 70.5h74q-17 -79 -57 -116t-102 -37z" />
    <glyph glyph-name="afii10193" unicode="&#x45f;" horiz-adv-x="423" 
d="M124 -10q-49 0 -74.5 28t-25.5 80q0 18 3 41.5t8 44.5l76 355h89l-71 -338q-11 -47 -11 -82q0 -48 39 -48q41 0 69.5 47.5t45.5 132.5l61 288h90l-114 -539h-72l6 67h-3q-23 -37 -52.5 -57t-63.5 -20zM57 -231l49 173l76 26h14l-52 -199h-87z" />
    <glyph glyph-name="afii10050" unicode="&#x490;" horiz-adv-x="351" 
d="M-1 0l151 714h182l32 150h91l-49 -233h-180l-134 -631h-93z" />
    <glyph glyph-name="afii10098" unicode="&#x491;" horiz-adv-x="300" 
d="M-7 0l115 539h141l32 153h87l-49 -232h-139l-97 -460h-90z" />
    <glyph glyph-name="Wgrave" unicode="&#x1e80;" horiz-adv-x="667" 
d="M69 0l19 714h91l-14 -425q-1 -43 -3.5 -77t-4.5 -60h2q11 34 24 68t27 69l167 425h82l-14 -414q-1 -46 -4 -80.5t-5 -67.5h2q14 39 26.5 73.5t25.5 69.5l163 419h95l-281 -714h-110l15 422q1 22 3 48.5t4 53.5h-2q-8 -23 -16 -47.5t-17 -47.5l-166 -429h-109zM424 785
q-13 18 -31 45.5t-33 56t-23 49.5v8h103q8 -35 18.5 -71.5t26.5 -76.5l-1 -11h-60z" />
    <glyph glyph-name="wgrave" unicode="&#x1e81;" horiz-adv-x="564" 
d="M53 0l10 539h88l-9 -286q-2 -30 -4 -58.5t-4 -53.5h2q8 24 17.5 51.5t17.5 49.5l116 297h101l-10 -286q-2 -28 -4 -58.5t-4 -58.5h2l22 64t24 65l104 274h91l-216 -539h-105l14 319q1 47 6 97h-2q-6 -20 -13 -39t-14 -39l-129 -338h-101zM337 606q-13 18 -31 45.5t-33 56
t-23 49.5v8h103q8 -35 18.5 -71.5t26.5 -76.5l-1 -11h-60z" />
    <glyph glyph-name="Wacute" unicode="&#x1e82;" horiz-adv-x="667" 
d="M69 0l19 714h91l-14 -425q-1 -43 -3.5 -77t-4.5 -60h2q11 34 24 68t27 69l167 425h82l-14 -414q-1 -46 -4 -80.5t-5 -67.5h2q14 39 26.5 73.5t25.5 69.5l163 419h95l-281 -714h-110l15 422q1 22 3 48.5t4 53.5h-2q-8 -23 -16 -47.5t-17 -47.5l-166 -429h-109zM377 784
l2 9q68 82 108 151h106l-1 -8q-11 -14 -30.5 -35t-42.5 -44t-44.5 -42.5t-35.5 -30.5h-62z" />
    <glyph glyph-name="wacute" unicode="&#x1e83;" horiz-adv-x="564" 
d="M53 0l10 539h88l-9 -286q-2 -30 -4 -58.5t-4 -53.5h2q8 24 17.5 51.5t17.5 49.5l116 297h101l-10 -286q-2 -28 -4 -58.5t-4 -58.5h2l22 64t24 65l104 274h91l-216 -539h-105l14 319q1 47 6 97h-2q-6 -20 -13 -39t-14 -39l-129 -338h-101zM290 605l2 9q68 82 108 151h106
l-1 -8q-11 -14 -30.5 -35t-42.5 -44t-44.5 -42.5t-35.5 -30.5h-62z" />
    <glyph glyph-name="Wdieresis" unicode="&#x1e84;" horiz-adv-x="667" 
d="M69 0l19 714h91l-14 -425q-1 -43 -3.5 -77t-4.5 -60h2q11 34 24 68t27 69l167 425h82l-14 -414q-1 -46 -4 -80.5t-5 -67.5h2q14 39 26.5 73.5t25.5 69.5l163 419h95l-281 -714h-110l15 422q1 22 3 48.5t4 53.5h-2q-8 -23 -16 -47.5t-17 -47.5l-166 -429h-109zM499 793
q-39 0 -39 40q0 28 15.5 49t43.5 21q37 0 37 -38q0 -32 -16.5 -52t-40.5 -20zM343 793q-38 0 -38 40q0 28 15.5 49t43.5 21q36 0 36 -38q0 -32 -16 -52t-41 -20z" />
    <glyph glyph-name="wdieresis" unicode="&#x1e85;" horiz-adv-x="564" 
d="M53 0l10 539h88l-9 -286q-2 -30 -4 -58.5t-4 -53.5h2q8 24 17.5 51.5t17.5 49.5l116 297h101l-10 -286q-2 -28 -4 -58.5t-4 -58.5h2l22 64t24 65l104 274h91l-216 -539h-105l14 319q1 47 6 97h-2q-6 -20 -13 -39t-14 -39l-129 -338h-101zM426 628q-39 0 -39 40
q0 28 15.5 49t43.5 21q37 0 37 -38q0 -32 -16.5 -52t-40.5 -20zM270 628q-38 0 -38 40q0 28 15.5 49t43.5 21q36 0 36 -38q0 -32 -16 -52t-41 -20z" />
    <glyph glyph-name="Ygrave" unicode="&#x1ef2;" horiz-adv-x="376" 
d="M78 0l57 274l-49 440h97l24 -315l157 315h100l-234 -437l-59 -277h-93zM276 785q-13 18 -31 45.5t-33 56t-23 49.5v8h103q8 -35 18.5 -71.5t26.5 -76.5l-1 -11h-60z" />
    <glyph glyph-name="ygrave" unicode="&#x1ef3;" horiz-adv-x="358" 
d="M-32 -241q-18 0 -32 2.5t-25 7.5l13 81q21 -9 42 -9q28 0 44.5 21t32.5 58l37 83l-16 536h90l1 -286q0 -29 -1 -58.5t-3 -58.5h3q21 64 39 107l124 296h94l-282 -636q-30 -65 -64.5 -104.5t-96.5 -39.5zM230 606q-13 18 -31 45.5t-33 56t-23 49.5v8h103q8 -35 18.5 -71.5
t26.5 -76.5l-1 -11h-60z" />
    <glyph glyph-name="endash" unicode="&#x2013;" horiz-adv-x="456" 
d="M23 232l16 76h391l-16 -76h-391z" />
    <glyph glyph-name="emdash" unicode="&#x2014;" horiz-adv-x="906" 
d="M23 232l16 76h841l-15 -76h-842z" />
    <glyph glyph-name="afii00208" unicode="&#x2015;" horiz-adv-x="925" 
d="M23 232l16 76h841l-15 -76h-842z" />
    <glyph glyph-name="underscoredbl" unicode="&#x2017;" horiz-adv-x="406" 
d="M-69 -124l11 53h409l-12 -53h-408zM-94 -239l12 54h409l-12 -54h-409z" />
    <glyph glyph-name="quoteleft" unicode="&#x2018;" horiz-adv-x="185" 
d="M62 464l-4 11q26 65 55 126t61 113h72q-14 -32 -32.5 -77.5t-35 -92t-25.5 -80.5h-91z" />
    <glyph glyph-name="quoteright" unicode="&#x2019;" horiz-adv-x="185" 
d="M55 464q28 62 51.5 125t41.5 125h91l3 -11q-47 -125 -115 -239h-72z" />
    <glyph glyph-name="quotesinglbase" unicode="&#x201a;" horiz-adv-x="214" 
d="M-48 -133q15 35 32.5 79.5t33.5 89t26 81.5h92l3 -10q-23 -63 -52.5 -124t-62.5 -116h-72z" />
    <glyph glyph-name="quotereversed" unicode="&#x201b;" horiz-adv-x="185" 
d="M117 464q-11 55 -16 117t-6 121l9 12h91q-5 -37 -6.5 -82.5t-0.5 -90t3 -77.5h-74z" />
    <glyph glyph-name="quotedblleft" unicode="&#x201c;" horiz-adv-x="353" 
d="M232 464l-3 11q25 65 54.5 126t61.5 113h71q-16 -37 -33.5 -80.5t-33 -87.5t-26.5 -82h-91zM64 464l-3 11q26 65 55.5 126.5t60.5 112.5h71q-15 -32 -33.5 -78t-34.5 -92.5t-25 -79.5h-91z" />
    <glyph glyph-name="quotedblright" unicode="&#x201d;" horiz-adv-x="353" 
d="M221 464q27 60 51 123t43 127h90l4 -11q-24 -61 -53.5 -122t-62.5 -117h-72zM53 464q27 60 50.5 123t42.5 127h91l3 -11q-47 -125 -115 -239h-72z" />
    <glyph glyph-name="quotedblbase" unicode="&#x201e;" horiz-adv-x="353" 
d="M103 -133q15 33 32.5 78t34 90t26.5 82h91l3 -11q-24 -62 -53 -123t-63 -116h-71zM-65 -133q25 58 50.5 125.5t42.5 124.5h91l2 -11q-23 -62 -52 -123t-63 -116h-71z" />
    <glyph glyph-name="dagger" unicode="&#x2020;" horiz-adv-x="409" 
d="M90 0l120 493l-127 -10l18 80l122 -11l28 208h93l-60 -208l131 11l-16 -80l-127 10l-90 -493h-92z" />
    <glyph glyph-name="daggerdbl" unicode="&#x2021;" horiz-adv-x="409" 
d="M89 0l57 190l-129 -12l18 81l123 -9l17 133l39 127l-127 -9l17 81l122 -12l25 190h93l-58 -190l133 12l-17 -81l-128 9l-15 -127l-41 -133l132 9l-18 -81l-126 12l-25 -190h-92z" />
    <glyph glyph-name="bullet" unicode="&#x2022;" horiz-adv-x="359" 
d="M194 225q-60 0 -93.5 36.5t-33.5 103.5q0 69 32.5 104.5t94.5 35.5q61 0 93.5 -36t32.5 -104q0 -67 -33 -103.5t-93 -36.5z" />
    <glyph glyph-name="ellipsis" unicode="&#x2026;" horiz-adv-x="639" 
d="M56 -9q-22 0 -34.5 12.5t-12.5 34.5q0 34 18.5 60t53.5 26q21 0 33 -12.5t12 -34.5q0 -37 -21 -61.5t-49 -24.5zM270 -9q-22 0 -34.5 12.5t-12.5 34.5q0 34 18.5 60t53.5 26q21 0 33 -12.5t12 -34.5q0 -37 -21 -61.5t-49 -24.5zM485 -9q-22 0 -34.5 12.5t-12.5 34.5
q0 34 18.5 60t53.5 26q21 0 33 -12.5t12 -34.5q0 -37 -21 -61.5t-49 -24.5z" />
    <glyph glyph-name="perthousand" unicode="&#x2030;" horiz-adv-x="914" 
d="M136 276q-87 0 -87 120q0 33 6.5 75.5t19.5 87t33.5 82t48.5 60.5t64 23q41 0 64 -29.5t23 -90.5q0 -31 -6 -73t-19 -86.5t-33.5 -83t-48.5 -62t-65 -23.5zM101 0l376 714h73l-375 -714h-74zM145 343q17 0 31.5 20.5t26 52.5t19.5 68.5t12 68.5t4 52q0 53 -26 53
q-17 0 -31 -20t-25.5 -52t-19.5 -68.5t-12.5 -69t-4.5 -52.5q0 -28 6.5 -40.5t19.5 -12.5zM433 -10q-87 0 -87 120q0 37 7 81t21 87.5t34.5 79.5t48 58t61.5 22q40 0 63.5 -29.5t23.5 -89.5q0 -32 -6.5 -74.5t-19.5 -87t-33.5 -82.5t-48.5 -61.5t-64 -23.5zM710 -10
q-87 0 -87 120q0 37 7 81t21 87.5t34.5 79.5t48 58t61.5 22q41 0 64 -29.5t23 -89.5q0 -32 -6.5 -74.5t-19.5 -87t-33.5 -82.5t-48.5 -61.5t-64 -23.5zM442 57q17 0 31 20.5t25.5 52.5t19.5 68t12.5 69t4.5 53q0 52 -27 52q-17 0 -31.5 -21t-26 -54t-19.5 -69t-12 -68
t-4 -50q0 -53 27 -53zM719 57q17 0 31.5 20.5t26 52.5t19.5 68t12 69t4 53q0 52 -26 52q-18 0 -32.5 -21t-26 -54t-19 -69t-11.5 -68t-4 -50q0 -53 26 -53z" />
    <glyph glyph-name="minute" unicode="&#x2032;" horiz-adv-x="198" 
d="M64 498l97 216h98l-124 -216h-71z" />
    <glyph glyph-name="second" unicode="&#x2033;" horiz-adv-x="366" 
d="M232 498l97 216h98l-124 -216h-71zM64 498l97 216h98l-124 -216h-71z" />
    <glyph glyph-name="guilsinglleft" unicode="&#x2039;" horiz-adv-x="255" 
d="M121 56l-96 204l2 13l168 200l61 -39l-135 -170l70 -177z" />
    <glyph glyph-name="guilsinglright" unicode="&#x203a;" horiz-adv-x="255" 
d="M55 56l-62 40l134 170l-69 176l70 31l96 -204l-2 -12z" />
    <glyph glyph-name="exclamdbl" unicode="&#x203c;" horiz-adv-x="441" 
d="M262 207l95 507h105l-125 -507h-75zM257 -9q-22 0 -35 12.5t-13 34.5q0 34 19 60t55 26q20 0 32 -12.5t12 -34.5q0 -37 -20.5 -61.5t-49.5 -24.5zM60 207l95 507h105l-125 -507h-75zM55 -9q-22 0 -35 12.5t-13 34.5q0 34 19 60t55 26q20 0 32 -12.5t12 -34.5
q0 -37 -20.5 -61.5t-49.5 -24.5z" />
    <glyph glyph-name="fraction" unicode="&#x2044;" horiz-adv-x="106" 
d="M-233 0l518 714h75l-517 -714h-76z" />
    <glyph glyph-name="nsuperior" unicode="&#x207f;" horiz-adv-x="275" 
d="M51.0498 287l74.7529 323.387h47.4521l-5.85059 -42.5977h1.9502q29.251 48.5977 76.7031 48.5977q27.3008 0 46.1514 -15q18.8506 -14.999 18.8506 -48.5977q0 -11.999 -2.9248 -27.5986q-2.92578 -15.5996 -6.17578 -31.1992l-47.4512 -206.991h-58.502l45.501 197.392
q3.25 14.3994 5.85059 29.0996q2.59961 14.6992 2.59961 26.0986q0 26.999 -26.001 26.999q-27.3008 0 -44.8516 -27.8994q-17.5508 -27.8984 -29.251 -78.8965l-39.6514 -172.793h-59.1523z" />
    <glyph glyph-name="franc" unicode="&#x20a3;" horiz-adv-x="404" 
d="M37 0l27 131h-64l15 71h65l108 512h265l-17 -83h-172l-50 -233h160l-17 -82h-160l-25 -114h106l-16 -71h-105l-27 -131h-93z" />
    <glyph glyph-name="afii08941" unicode="&#x20a4;" horiz-adv-x="404" 
d="M-22 0l17 77q41 17 60 52t34 103h-68l14 64h67l18 84h-67l14 64h67l22 108q17 80 57 126t114 46q68 0 118 -40l-42 -75q-36 31 -76 31q-39 0 -56 -29.5t-27 -73.5l-19 -93h107l-13 -64h-108l-18 -84h109l-14 -64h-108q-10 -45 -20.5 -73.5t-26 -46t-39.5 -29.5h230
l-17 -83h-329z" />
    <glyph glyph-name="peseta" unicode="&#x20a7;" horiz-adv-x="595" 
d="M-6 0l152 714h91q80 0 123.5 -41t43.5 -117q0 -53 -14.5 -103.5t-44 -91t-75 -64.5t-107.5 -24h-21l-57 -273h-91zM159 356h11q51 0 82.5 26t45.5 69t14 93q0 41 -20.5 64t-62.5 23h-11zM455 -10q-43 0 -62.5 25.5t-19.5 68.5q0 28 9 72l38 178h-47l9 39l57 32l49 128h59
l-27 -126h79l-15 -73h-79l-39 -182q-2 -14 -3.5 -26t-1.5 -22q0 -34 30 -34q9 0 20.5 2.5t23.5 7.5v-73q-19 -9 -40 -13t-40 -4z" />
    <glyph glyph-name="Euro" unicode="&#x20ac;" horiz-adv-x="404" 
d="M216 -10q-60 0 -93 27.5t-46.5 84t-13.5 143.5h-60l12 60h54q2 21 6.5 47t8.5 43h-52l13 60h54q22 77 55.5 138t82 96.5t115.5 35.5q70 0 116 -38l-45 -75q-15 14 -33 21.5t-42 7.5q-41 0 -71.5 -26.5t-51.5 -68.5t-36 -91h147l-13 -60h-149q-4 -17 -8 -42t-6 -48h129
l-13 -60h-123q0 -90 15 -131.5t63 -41.5q25 0 45 6.5t44 18.5l17 -77q-25 -14 -57 -22t-64 -8z" />
    <glyph glyph-name="afii61248" unicode="&#x2105;" horiz-adv-x="559" 
d="M164 375q-47 0 -71 29.5t-24 84.5q0 40 10.5 81t31.5 75.5t51.5 55.5t69.5 21q41 0 72 -20l-28 -59q-24 17 -48 17q-21 0 -37.5 -17t-27 -43t-16 -54.5t-5.5 -52.5q0 -57 39 -57q28 0 65 20l-13 -62q-31 -19 -69 -19zM43 0l401 714h69l-400 -714h-70zM361 -8
q-47 0 -70 29t-23 82q0 39 9.5 80.5t28.5 77t47 57t65 21.5q46 0 69.5 -30t23.5 -81q0 -40 -10 -81.5t-29 -76.5t-47 -56.5t-64 -21.5zM365 53q19 0 33.5 19.5t24.5 48.5t15 59t5 51q0 49 -30 49q-20 0 -34.5 -19.5t-24.5 -48.5t-14.5 -59t-4.5 -51q0 -49 30 -49z" />
    <glyph glyph-name="afii61289" unicode="&#x2113;" horiz-adv-x="404" 
d="M221 -9q-69 0 -98.5 46.5t-29.5 146.5v84q-16 -8 -33.5 -13.5t-33.5 -10.5v72q17 5 33.5 10.5t33.5 13.5v195q0 95 29.5 141.5t96.5 46.5q61 0 92.5 -44t31.5 -116q0 -183 -163 -264v-130q0 -55 11.5 -80.5t39.5 -25.5q29 0 41.5 25.5t13.5 81.5h75q-2 -89 -33.5 -134
t-106.5 -45zM180 375q82 57 82 187q0 35 -10.5 63t-31.5 28t-30.5 -20.5t-9.5 -66.5v-191z" />
    <glyph glyph-name="afii61352" unicode="&#x2116;" horiz-adv-x="731" 
d="M-2 0l151 714h108l49 -531q7 42 11.5 67.5t8.5 45.5l88 418h87l-151 -714h-106l-52 537q-2 -23 -6 -46.5t-8 -43.5l-93 -447h-87zM556 140q-97 0 -97 111q0 41 9.5 81.5t29 75t48 55t66.5 20.5q49 0 73.5 -30.5t24.5 -83.5q0 -39 -10 -79t-30 -74t-48.5 -55t-65.5 -21z
M561 200q21 0 36.5 17.5t25.5 45t14.5 56.5t4.5 52q0 52 -36 52q-20 0 -34.5 -17.5t-24.5 -44.5t-15 -56.5t-5 -53.5q0 -51 34 -51zM419 0l13 65h208l-13 -65h-208z" />
    <glyph glyph-name="trademark" unicode="&#x2122;" horiz-adv-x="643" 
d="M268 362v352h85l77 -261l81 261h81v-352h-58v193q0 13 0.5 34.5t1.5 36.5h-3l-84 -264h-44l-80 265h-3q1 -17 2 -37t1 -32v-196h-57zM94 362v294h-84v58h230v-58h-86v-294h-60z" />
    <glyph glyph-name="uni03A9" unicode="&#x3a9;" horiz-adv-x="513" 
d="M-38 0l17 83h121q-28 35 -41.5 86t-13.5 107q0 61 12.5 124.5t36.5 121.5t59 103.5t80 72t100 26.5q85 0 127.5 -55t42.5 -144q0 -86 -22 -169t-62.5 -153.5t-97.5 -119.5h123l-19 -83h-204l17 82q40 34 71 84.5t52.5 109t32.5 120t11 118.5q0 127 -82 127
q-38 0 -68 -27.5t-52.5 -72t-37 -97t-22 -103.5t-7.5 -91q0 -52 10 -93.5t33 -74.5l-18 -82h-199z" />
    <glyph glyph-name="estimated" unicode="&#x212e;" horiz-adv-x="557" 
d="M275 -17q-74 0 -126 38t-79.5 101t-27.5 137q0 79 28.5 141t81 98.5t123.5 36.5q67 1 119.5 -34.5t83 -98t30.5 -143.5h-363v-174q22 -26 58.5 -43t71.5 -17q63 0 102 27.5t72 86.5l31 -20q-38 -68 -85 -102t-120 -34zM145 301h261v135q-22 26 -57.5 42t-74.5 16
q-76 0 -129 -57v-136z" />
    <glyph glyph-name="oneeighth" unicode="&#x215b;" horiz-adv-x="677" 
d="M46 0l518 714h75l-517 -714h-76zM127 286l64 294q3 15 6 26t7 23q-8 -7 -15.5 -13t-11.5 -10l-59 -42l-29 46l138 104h63l-92 -428h-71zM477 -11q-114 0 -114 100q0 46 25 77t74 54q-22 20 -31 41.5t-9 50.5q0 53 35.5 87t93.5 34q49 0 75 -24t26 -68q0 -38 -23 -68
t-66 -50q26 -16 39.5 -39t13.5 -61q0 -61 -39.5 -97.5t-99.5 -36.5zM522 249q27 13 45 34t18 51q0 43 -41 43q-28 0 -42 -19t-14 -45q0 -38 34 -64zM480 45q31 0 49 22t18 56q0 24 -11 40.5t-31 27.5q-31 -13 -51.5 -36.5t-20.5 -56.5q0 -23 12 -38t35 -15z" />
    <glyph glyph-name="threeeighths" unicode="&#x215c;" horiz-adv-x="692" 
d="M120 278q-31 0 -53.5 6.5t-39.5 17.5v69q18 -15 41 -23t53 -8q37 0 58.5 22.5t21.5 57.5q0 28 -16 43t-42 15h-34l11 57h31q41 0 62.5 23.5t21.5 58.5q0 46 -43 46q-20 0 -37.5 -8t-36.5 -22l-27 49q51 43 115 43q51 0 76 -27.5t25 -68.5q0 -87 -87 -118l-1 -4
q23 -11 37.5 -31.5t14.5 -55.5q0 -64 -40.5 -103t-110.5 -39zM60 0l518 714h75l-517 -714h-76zM493 -11q-114 0 -114 100q0 46 25 77t74 54q-22 20 -31 41.5t-9 50.5q0 53 35.5 87t93.5 34q49 0 75 -24t26 -68q0 -38 -23 -68t-66 -50q26 -16 39.5 -39t13.5 -61
q0 -61 -39.5 -97.5t-99.5 -36.5zM538 249q27 13 45 34t18 51q0 43 -41 43q-28 0 -42 -19t-14 -45q0 -38 34 -64zM496 45q31 0 49 22t18 56q0 24 -11 40.5t-31 27.5q-31 -13 -51.5 -36.5t-20.5 -56.5q0 -23 12 -38t35 -15z" />
    <glyph glyph-name="fiveeighths" unicode="&#x215d;" horiz-adv-x="692" 
d="M60 0l518 714h75l-517 -714h-76zM121 278q-25 0 -46.5 5.5t-40.5 15.5l9 66q16 -13 36.5 -19.5t42.5 -6.5q29 0 48.5 15.5t28.5 39t9 48.5q0 58 -53 58q-16 0 -40 -8l-35 23l60 201h176l-13 -63h-122l-31 -101q11 2 20 3t17 1q46 0 70.5 -29t24.5 -77q0 -43 -17.5 -82.5
t-53.5 -64.5t-90 -25zM493 -11q-114 0 -114 100q0 46 25 77t74 54q-22 20 -31 41.5t-9 50.5q0 53 35.5 87t93.5 34q49 0 75 -24t26 -68q0 -38 -23 -68t-66 -50q26 -16 39.5 -39t13.5 -61q0 -61 -39.5 -97.5t-99.5 -36.5zM538 249q27 13 45 34t18 51q0 43 -41 43
q-28 0 -42 -19t-14 -45q0 -38 34 -64zM496 45q31 0 49 22t18 56q0 24 -11 40.5t-31 27.5q-31 -13 -51.5 -36.5t-20.5 -56.5q0 -23 12 -38t35 -15z" />
    <glyph glyph-name="seveneighths" unicode="&#x215e;" horiz-adv-x="666" 
d="M26 0l518 714h75l-517 -714h-76zM467 -10q-114 0 -114 100q0 46 25 77t74 54q-22 20 -31 41.5t-9 50.5q0 53 35.5 87t93.5 34q49 0 75 -24t26 -68q0 -38 -23 -68t-66 -50q26 -16 39.5 -39t13.5 -61q0 -61 -39.5 -97.5t-99.5 -36.5zM512 250q27 13 45 34t18 51
q0 43 -41 43q-28 0 -42 -19t-14 -45q0 -38 34 -64zM470 46q31 0 49 22t18 56q0 24 -11 40.5t-31 27.5q-31 -13 -51.5 -36.5t-20.5 -56.5q0 -23 12 -38t35 -15zM59 286l195 365h-157l13 63h232l-11 -52l-193 -376h-79z" />
    <glyph glyph-name="uni0394" unicode="&#x394;" horiz-adv-x="421" 
d="M-40 0l1 64l281 652h117l9 -653l-12 -63h-396zM67 85h205l3 414q1 28 1 55.5t2 67.5q-6 -20 -17 -54.5t-27 -70.5z" />
    <glyph glyph-name="cyrillicbreve" horiz-adv-x="478" 
d="M293 604q-61 0 -90.5 30.5t-29.5 82.5q0 8 1.5 19t2.5 21h73q-1 -8 -2 -18t-1 -20q0 -56 51 -56q32 0 51 23.5t29 70.5h74q-17 -79 -57 -116t-102 -37z" />
    <glyph glyph-name="caroncommaaccent" horiz-adv-x="408" 
d="M193 600v9q18 41 32 79.5t22 71.5h88v-10q-9 -22 -23.5 -49.5t-31 -54t-31.5 -46.5h-56z" />
    <glyph glyph-name="commaaccentrotate" horiz-adv-x="408" 
d="M187 606v10q9 22 25.5 50t36 55t37.5 45h54l1 -11q-10 -15 -23.5 -43.5t-25.5 -58t-18 -47.5h-87z" />
    <glyph glyph-name="uni2074" unicode="&#x2074;" horiz-adv-x="285" 
d="M175 416l19 90h-145l9 52l204 289h74l-61 -282h47l-13 -59h-45l-20 -90h-69zM123 565h83l26 122q4 19 8 35t8 30q-9 -15 -17.5 -29.5t-19.5 -30.5z" />
    <glyph glyph-name="uni2075" unicode="&#x2075;" horiz-adv-x="285" 
d="M142 408q-25 0 -46.5 5.5t-40.5 15.5l9 66q16 -13 36.5 -19.5t42.5 -6.5q29 0 48.5 15.5t28.5 39t9 48.5q0 58 -53 58q-16 0 -40 -8l-35 23l60 201h176l-13 -63h-122l-31 -101q11 2 20 3t17 1q46 0 70.5 -29t24.5 -77q0 -43 -17.5 -82.5t-53.5 -64.5t-90 -25z" />
    <glyph glyph-name="uni2077" unicode="&#x2077;" horiz-adv-x="285" 
d="M80 416l195 365h-157l13 63h232l-11 -52l-193 -376h-79z" />
    <glyph glyph-name="uni2078" unicode="&#x2078;" horiz-adv-x="285" 
d="M170 408q-114 0 -114 100q0 46 25 77t74 54q-22 20 -31 41.5t-9 50.5q0 53 35.5 87t93.5 34q49 0 75 -24t26 -68q0 -38 -23 -68t-66 -50q26 -16 39.5 -39t13.5 -61q0 -61 -39.5 -97.5t-99.5 -36.5zM215 668q27 13 45 34t18 51q0 43 -41 43q-28 0 -42 -19t-14 -45
q0 -38 34 -64zM173 464q31 0 49 22t18 56q0 24 -11 40.5t-31 27.5q-31 -13 -51.5 -36.5t-20.5 -56.5q0 -23 12 -38t35 -15z" />
    <glyph glyph-name="uni2000" unicode="&#x2000;" horiz-adv-x="500" 
 />
    <glyph glyph-name="uni2001" unicode="&#x2001;" horiz-adv-x="1000" 
 />
    <glyph glyph-name="uni2002" unicode="&#x2002;" horiz-adv-x="500" 
 />
    <glyph glyph-name="uni2003" unicode="&#x2003;" horiz-adv-x="1000" 
 />
    <glyph glyph-name="uni2004" unicode="&#x2004;" horiz-adv-x="333" 
 />
    <glyph glyph-name="uni2005" unicode="&#x2005;" horiz-adv-x="250" 
 />
    <glyph glyph-name="uni2006" unicode="&#x2006;" horiz-adv-x="167" 
 />
    <glyph glyph-name="uni2007" unicode="&#x2007;" horiz-adv-x="404" 
 />
    <glyph glyph-name="uni2008" unicode="&#x2008;" horiz-adv-x="211" 
 />
    <glyph glyph-name="uni2009" unicode="&#x2009;" horiz-adv-x="185" 
 />
    <glyph glyph-name="uni200A" unicode="&#x200a;" horiz-adv-x="100" 
 />
    <glyph glyph-name="uni200B" unicode="&#x200b;" 
 />
    <glyph glyph-name="uniFEFF" unicode="&#xfeff;" horiz-adv-x="5" 
 />
    <glyph glyph-name="uniFFFC" unicode="&#xfffc;" horiz-adv-x="1000" 
d="M916 593v94h-95v54h148v-148h-53zM630 687v54h133v-54h-133zM439 687v54h133v-54h-133zM41 593v148h148v-54h-94v-94h-54zM248 687v54h132v-54h-132zM916 402v132h53v-132h-53zM41 402v132h54v-132h-54zM294 160q-66 0 -97 40.5t-31 106.5q0 67 31 107t97 40t97 -40
t31 -107q0 -66 -31 -106.5t-97 -40.5zM728 161q-24 0 -39 5v50q7 -2 15 -3t18 -1q18 0 30 8.5t12 33.5v196h61v-194q0 -50 -27 -72.5t-70 -22.5zM463 164v286h84q53 0 80.5 -16t27.5 -57q0 -24 -11.5 -40t-32.5 -20v-4q22 -5 37 -18.5t15 -47.5q0 -39 -26.5 -61t-72.5 -22
h-101zM294 211q34 0 50 25.5t16 70.5t-16 70.5t-50 25.5t-50 -25.5t-16 -70.5t16 -70.5t50 -25.5zM523 337h32q23 0 31.5 8t8.5 24q0 31 -43 31h-29v-63zM41 210v133h54v-133h-54zM916 210v133h53v-133h-53zM523 214h36q24 0 33 10.5t9 28.5q0 16 -9.5 26t-34.5 10h-34v-75z
M916 19v132h53v-132h-53zM41 19v132h54v-132h-54zM821 -187v53h95v95h53v-148h-148zM41 -187v148h54v-95h94v-53h-148zM630 -187v53h133v-53h-133zM439 -187v53h133v-53h-133zM248 -187v53h132v-53h-132z" />
    <glyph glyph-name="uniFFFD" unicode="&#xfffd;" horiz-adv-x="1000" 
d="M499 -156l-458 458l458 458l459 -458zM428 179h103v23q0 25 10 39.5t43 40.5q43 34 64.5 65t21.5 80q0 67 -46 104t-126 37q-42 0 -86 -14t-78 -34l40 -87q33 17 64 28t58 11q31 0 46 -14t15 -37q0 -29 -13 -46t-46 -43q-38 -30 -54 -57.5t-16 -66.5v-29zM484 -21
q27 0 47.5 15.5t20.5 50.5q0 37 -20.5 52t-47.5 15q-29 0 -49 -15t-20 -52q0 -35 20 -50.5t49 -15.5z" />
    <glyph glyph-name="uni01F0" unicode="&#x1f0;" horiz-adv-x="201" 
d="M-74 -240q-15 0 -28.5 2t-25.5 6v80q8 -4 20 -5.5t23 -1.5q32 0 46.5 24.5t28.5 92.5l123 581h89l-125 -588q-12 -57 -28.5 -100t-45 -67t-77.5 -24zM124 606q-4 18 -14 46t-21 57t-20 46l3 11h52q10 -14 24 -36.5t30 -52.5q26 28 49.5 50.5t43.5 38.5h54l-2 -10
q-15 -16 -39 -44.5t-46 -58t-33 -47.5h-81z" />
    <glyph glyph-name="uni02BC" unicode="&#x2bc;" horiz-adv-x="185" 
d="M55 464q28 62 51.5 125t41.5 125h91l3 -11q-47 -125 -115 -239h-72z" />
    <glyph glyph-name="uni03D1" unicode="&#x3d1;" horiz-adv-x="472" 
d="M157 -10q-53 0 -90.5 24.5t-37.5 85.5q0 31 8 61.5t17 58.5q8 25 14 46.5t6 37.5q0 25 -20 25q-15 0 -34 -10v78q13 5 32 9t38 4q34 0 55 -20t21 -60q0 -20 -6.5 -44.5t-15.5 -51.5q-9 -30 -16 -60.5t-7 -57.5q0 -23 10.5 -36.5t33.5 -13.5q52 0 94.5 79.5t75.5 247.5
q-90 1 -141.5 50t-51.5 135q0 49 18.5 93t55 72t89.5 28q77 0 110 -49t33 -138q0 -27 -2 -54.5t-6 -58.5h55l-16 -78h-54q-41 -207 -104 -305t-164 -98zM349 471q9 65 9 110q0 50 -11.5 82.5t-43.5 32.5q-23 0 -39 -18t-24 -44.5t-8 -53.5q0 -56 31.5 -82t85.5 -27z" />
    <glyph glyph-name="uni03D2" unicode="&#x3d2;" horiz-adv-x="374" 
d="M78 0l57 274l-49 440h96l24 -315q38 86 72 155.5t60 107.5q18 29 37 43.5t48 14.5q27 0 47 -10l-14 -79q-6 2 -11.5 4t-11.5 2q-15 0 -28 -14.5t-33 -49.5q-32 -59 -67.5 -136.5t-75.5 -166.5l-58 -270h-93z" />
    <glyph glyph-name="uni03D6" unicode="&#x3d6;" horiz-adv-x="562" 
d="M126 -10q-49 0 -72.5 37t-23.5 105q0 51 11.5 109t31 115t41.5 105h-73l8 40l59 38h497l-17 -78h-69q1 -12 1.5 -24.5t0.5 -28.5q0 -50 -8 -107t-23.5 -112t-39.5 -100t-56 -72t-73 -27q-83 0 -83 92q-21 -46 -47 -69t-65 -23zM151 74q21 0 34 21t22.5 56t18.5 77l21 97
h87l-20 -97q-8 -38 -12.5 -63.5t-4.5 -44.5q0 -46 28 -46q20 0 37 24t30 63t22 84t13.5 88.5t4.5 75.5q0 13 -0.5 26t-1.5 26h-224q-37 -78 -61 -165.5t-24 -163.5q0 -58 30 -58z" />
    <glyph glyph-name="uni1E3E" unicode="&#x1e3e;" horiz-adv-x="661" 
d="M-1 0l151 714h128l20 -558h2l250 558h136l-152 -714h-91l97 460q5 22 10.5 44t11.5 45h-2l-249 -549h-88l-20 547h-2q-6 -31 -10.5 -57t-9.5 -51l-93 -439h-89zM372 785l2 9q68 82 108 151h106l-1 -8q-11 -14 -30.5 -35t-42.5 -44t-44.5 -42.5t-35.5 -30.5h-62z" />
    <glyph glyph-name="uni1E3F" unicode="&#x1e3f;" horiz-adv-x="630" 
d="M-3 0l115 539h73l-9 -69h3q22 38 52 58.5t66 20.5q77 0 93 -69h2q22 32 52.5 50.5t66.5 18.5q44 0 69 -27t25 -78q0 -16 -2.5 -35t-6.5 -38l-79 -371h-90l75 352q4 19 6.5 36.5t2.5 28.5q0 50 -40 50q-26 0 -45 -19.5t-31 -48.5t-18 -60l-73 -339h-89l76 359q8 35 8 59
q0 49 -39 49q-32 0 -53.5 -25t-35 -65.5t-21.5 -84.5l-62 -292h-91zM319 605l2 9q68 82 108 151h106l-1 -8q-11 -14 -30.5 -35t-42.5 -44t-44.5 -42.5t-35.5 -30.5h-62z" />
    <glyph glyph-name="uni1E00" unicode="&#x1e00;" horiz-adv-x="423" 
d="M-64 0l300 717h119l4 -717h-97l1 214h-139l-86 -214h-102zM156 298h111l5 241q0 24 1 45.5t3 41.5h-3q-4 -19 -10.5 -40.5t-15.5 -46.5zM127 -263q-49 0 -76.5 28t-27.5 75q0 46 28.5 74t75.5 28q44 0 74.5 -27.5t30.5 -72.5q0 -46 -28 -75.5t-77 -29.5zM126 -214
q25 0 39.5 15t14.5 39q0 23 -14.5 38t-39.5 15t-38.5 -15t-13.5 -38q0 -25 13 -39.5t39 -14.5z" />
    <glyph glyph-name="uni1E01" unicode="&#x1e01;" horiz-adv-x="432" 
d="M129 -10q-51 0 -78.5 39.5t-27.5 112.5q0 44 8 98.5t25 108.5t42.5 99.5t60.5 73t80 27.5q69 0 91 -78h3l22 68h77l-114 -539h-73l5 75h-2q-26 -40 -54.5 -62.5t-64.5 -22.5zM161 68q32 0 54.5 26.5t38.5 67t27 82.5q23 92 23 150q0 36 -14 55.5t-38 19.5
q-26 0 -47 -21.5t-37.5 -57.5t-28 -78t-17.5 -84.5t-6 -76.5q0 -83 45 -83zM123 -263q-49 0 -76.5 28t-27.5 75q0 46 28.5 74t75.5 28q44 0 74.5 -27.5t30.5 -72.5q0 -46 -28 -75.5t-77 -29.5zM122 -214q25 0 39.5 15t14.5 39q0 23 -14.5 38t-39.5 15t-38.5 -15t-13.5 -38
q0 -25 13 -39.5t39 -14.5z" />
    <glyph glyph-name="uni02F3" unicode="&#x2f3;" horiz-adv-x="334" 
d="M94 -263q-49 0 -76.5 28t-27.5 75q0 46 28.5 74t75.5 28q44 0 74.5 -27.5t30.5 -72.5q0 -46 -28 -75.5t-77 -29.5zM93 -214q25 0 39.5 15t14.5 39q0 23 -14.5 38t-39.5 15t-38.5 -15t-13.5 -38q0 -25 13 -39.5t39 -14.5z" />
    <glyph glyph-name="Ohorn" unicode="&#x1a0;" horiz-adv-x="516" 
d="M199 -10q-83 0 -123.5 52.5t-40.5 162.5q0 67 12 139t36.5 139.5t60 122t83 86.5t106.5 32q110 0 143 -97q31 17 49.5 51t25.5 82h81l4 -11q-13 -71 -47 -119.5t-96 -73.5q1 -10 1.5 -20t0.5 -20q0 -69 -12 -142t-36.5 -141.5t-60 -123.5t-82.5 -87t-105 -32zM206 75
q38 0 69 31t54 81.5t38.5 110t23.5 117.5t8 103q0 123 -73 123q-38 0 -68.5 -30t-54 -79t-39.5 -107t-24 -116t-8 -105q0 -70 18.5 -99.5t55.5 -29.5z" />
    <glyph glyph-name="ohorn" unicode="&#x1a1;" horiz-adv-x="442" 
d="M155 -10q-64 0 -99.5 43t-35.5 123q0 65 15 134t45 127.5t74 95t102 36.5q82 0 114 -73q32 18 50 54t25 88h81l3 -11q-14 -75 -48 -123t-93 -68q1 -10 1.5 -19t0.5 -16q0 -65 -15.5 -133.5t-45 -127t-73.5 -94.5t-101 -36zM165 67q25 0 46.5 22t37.5 57.5t27 78t17 84.5
t6 76q0 85 -55 85q-26 0 -47 -22.5t-37 -59t-27 -79.5t-17 -84.5t-6 -72.5q0 -85 55 -85z" />
    <glyph glyph-name="Uhorn" unicode="&#x1af;" horiz-adv-x="536" 
d="M183 -10q-71 0 -110.5 40t-39.5 114q0 18 2.5 40t7.5 44l104 486h93l-104 -490q-8 -38 -8 -68q0 -81 67 -81q47 0 74.5 37.5t45.5 120.5l103 481h94l-23 -102q36 9 57 48.5t31 99.5h82l3 -11q-16 -88 -62 -140.5t-125 -61.5l-69 -324q-22 -109 -74 -171t-149 -62z" />
    <glyph glyph-name="uhorn" unicode="&#x1b0;" horiz-adv-x="480" 
d="M120 -10q-47 0 -72.5 28t-25.5 80q0 20 3.5 43t8.5 46l75 352h90l-73 -338q-4 -23 -7.5 -43t-3.5 -36q0 -50 40 -50q41 0 69 47t46 132l61 288h90l-15 -68q38 9 58 49t30 98h81l3 -11q-15 -83 -58.5 -138.5t-126.5 -63.5l-86 -405h-72l5 67h-2q-23 -37 -53 -57t-65 -20z
" />
    <glyph glyph-name="hook" 
d="M-248 593l13 77q69 6 69 57q0 19 -11 28t-28 9q-11 0 -21 -2t-19 -5v56q15 5 32 8.5t34 3.5q41 0 65 -23t24 -61q0 -40 -24.5 -67t-69.5 -35l-15 -46h-49z" />
    <glyph glyph-name="uni0400" unicode="&#x400;" horiz-adv-x="374" 
d="M-1 0l151 714h269l-17 -83h-176l-45 -217h163l-18 -83h-163l-53 -248h176l-18 -83h-269zM279 785q-13 18 -31 45.5t-33 56t-23 49.5v8h103q8 -35 18.5 -71.5t26.5 -76.5l-1 -11h-60z" />
    <glyph glyph-name="uni040D" unicode="&#x40d;" horiz-adv-x="532" 
d="M-1 0l151 714h91l-62 -295q-12 -57 -25.5 -119.5t-29.5 -119.5h3l321 534h109l-151 -714h-91l62 292q9 40 19 85.5t20 88t20 73.5h-3l-323 -539h-111zM355 785q-13 18 -31 45.5t-33 56t-23 49.5v8h103q8 -35 18.5 -71.5t26.5 -76.5l-1 -11h-60z" />
    <glyph glyph-name="uni0450" unicode="&#x450;" horiz-adv-x="394" 
d="M169 -10q-68 0 -107 44t-39 123q0 78 17.5 148.5t49 125t75.5 86t98 31.5q53 0 84.5 -29.5t31.5 -85.5q0 -91 -67 -142.5t-185 -51.5h-7q-8 -37 -8 -72q0 -53 19.5 -77.5t59.5 -24.5q29 0 53 7.5t55 24.5v-73q-29 -19 -61.5 -26.5t-68.5 -7.5zM132 307h3q85 0 122.5 33
t37.5 87q0 22 -11 35t-34 13q-36 0 -67.5 -47t-50.5 -121zM256 606q-13 18 -31 45.5t-33 56t-23 49.5v8h103q8 -35 18.5 -71.5t26.5 -76.5l-1 -11h-60z" />
    <glyph glyph-name="uni045D" unicode="&#x45d;" horiz-adv-x="425" 
d="M124 -10q-49 0 -74.5 28t-25.5 80q0 18 3 41.5t8 44.5l76 355h89l-71 -338q-11 -47 -11 -82q0 -48 39 -48q41 0 69.5 47.5t45.5 132.5l61 288h90l-114 -539h-72l6 67h-3q-23 -37 -52.5 -57t-63.5 -20zM264 606q-13 18 -31 45.5t-33 56t-23 49.5v8h103q8 -35 18.5 -71.5
t26.5 -76.5l-1 -11h-60z" />
    <glyph glyph-name="uni0460" unicode="&#x460;" horiz-adv-x="688" 
d="M115 0q-31 140 -40.5 260.5t1 231t38.5 222.5h92q-39 -140 -45.5 -288t19.5 -287h2q11 35 24.5 69.5t30.5 72.5l104 239q11 101 30 194h81q-28 -140 -35.5 -287t9.5 -288h2q84 139 139 286t78 289h96q-33 -178 -102.5 -352.5t-194.5 -361.5h-82q-13 86 -18.5 167.5
t-6.5 154.5l-134 -322h-88z" />
    <glyph glyph-name="uni0461" unicode="&#x461;" horiz-adv-x="589" 
d="M86 0q-30 137 -34.5 274.5t15.5 264.5h92q-22 -101 -24.5 -210t15.5 -212h3q10 23 21.5 45t24.5 44l70 123q1 53 6.5 106t14.5 104h87q-22 -107 -27 -211.5t8 -210.5h3q64 98 101.5 198.5t64.5 223.5h89q-34 -160 -93 -294t-159 -245h-70q-18 100 -21 202l-114 -202h-73z
" />
    <glyph glyph-name="uni0462" unicode="&#x462;" horiz-adv-x="440" 
d="M19 0l117 559h-79l15 72h79l29 130h93l-28 -130h115l-16 -72h-114l-29 -138h31q89 0 128 -44.5t39 -115.5q0 -67 -25 -127t-78 -97t-136 -37h-141zM129 82h45q44 0 72.5 23t42.5 62.5t14 87.5q0 44 -23.5 64t-69.5 20h-26z" />
    <glyph glyph-name="uni0463" unicode="&#x463;" horiz-adv-x="402" 
d="M168 -10q-65 0 -95.5 31.5t-30.5 88.5q0 35 8 72l62 289h-72l15 68h71l24 105h89l-23 -105h86l-15 -68h-85l-34 -159q9 2 22 3t28 1q136 0 136 -135q0 -53 -22.5 -96.5t-64 -69t-99.5 -25.5zM179 61q29 0 47 18t27 44.5t9 50.5q0 71 -61 71q-11 0 -23 -1.5t-25 -3.5
q-13 -46 -18 -76t-5 -47q0 -56 49 -56z" />
    <glyph glyph-name="uni0464" unicode="&#x464;" horiz-adv-x="611" 
d="M396 -10q-165 0 -165 234q0 25 2.5 51t7.5 54h-79l-69 -329h-94l151 714h94l-64 -302h79q16 61 43 117.5t63.5 100.5t82 69.5t99.5 25.5q40 0 70 -9.5t54 -28.5l-47 -76q-39 30 -81 30q-47 0 -83.5 -34t-63 -86.5t-43.5 -108.5h189l-18 -83h-190q-9 -53 -9 -102
q0 -81 21.5 -117t68.5 -36q23 0 50.5 8t52.5 20l3 -84q-28 -14 -61.5 -21t-63.5 -7z" />
    <glyph glyph-name="uni0465" unicode="&#x465;" horiz-adv-x="520" 
d="M339 -10q-63 0 -98 41t-35 121q0 21 2 43t5 46h-73l-52 -241h-90l115 539h90l-48 -227h72q14 64 44.5 117.5t74.5 86.5t100 33q58 0 98 -27l-37 -70q-28 20 -63 20q-31 0 -56 -22.5t-43 -59t-28 -78.5h127l-14 -71h-127q-6 -37 -6 -81q0 -50 16 -72t45 -22q20 0 44 8
t47 22v-75q-22 -15 -53.5 -23t-56.5 -8z" />
    <glyph glyph-name="uni0466" unicode="&#x466;" horiz-adv-x="491" 
d="M-64 0l337 715h117l38 -715h-97l-12 321h-26l-67 -321h-89l68 321h-27l-145 -321h-97zM215 400h100l-4 171v27t1 26q-5 -14 -8 -22t-7 -18t-13 -29z" />
    <glyph glyph-name="uni0467" unicode="&#x467;" horiz-adv-x="417" 
d="M-56 0l268 539h106l38 -539h-89l-11 224h-19l-46 -224h-81l48 224h-20l-105 -224h-89zM178 302h73q-1 55 -2 87.5t-1 49.5v25q-12 -31 -27 -65.5t-43 -96.5z" />
    <glyph glyph-name="uni0468" unicode="&#x468;" horiz-adv-x="692" 
d="M-1 0l151 714h94l-63 -299h153l140 300h117l38 -715h-98l-11 321h-25l-68 -321h-89l68 321h-27l-146 -321h-96l156 332h-130l-70 -332h-94zM416 400h100l-4 171v27t1 26q-5 -15 -10.5 -28.5t-13.5 -30.5z" />
    <glyph glyph-name="uni0469" unicode="&#x469;" horiz-adv-x="582" 
d="M-2 0l115 539h90l-47 -218h127l107 218h106l39 -539h-90l-10 224h-19l-48 -224h-80l48 223h-20l-106 -223h-87l120 244h-103l-52 -244h-90zM355 302h74l-4 156z" />
    <glyph glyph-name="uni046A" unicode="&#x46a;" horiz-adv-x="525" 
d="M-58 0l102 236q23 54 43.5 90.5t47.5 57t71 26.5l-71 247l12 57h410l-12 -56l-177 -248q51 -10 69.5 -52t19.5 -118l2 -240h-97l2 237q1 52 -8.5 74t-38.5 22h-3l-70 -333h-88l71 333h-5q-32 0 -48.5 -25.5t-37.5 -74.5l-96 -233h-98zM289 426l140 209h-192z" />
    <glyph glyph-name="uni046B" unicode="&#x46b;" horiz-adv-x="472" 
d="M-52 0l85 189q25 57 54 86.5t83 35.5l-70 179l10 49h360l-10 -48l-142 -180q47 -9 63 -44.5t19 -90.5l7 -176h-87l-5 175q-1 47 -10.5 59.5t-35.5 12.5l-52 -247h-80l52 246q-26 0 -41 -12t-28 -43l-84 -191h-88zM247 326l108 144h-160z" />
    <glyph glyph-name="uni046C" unicode="&#x46c;" horiz-adv-x="731" 
d="M-1 0l151 714h94l-63 -296h227l-68 239l13 57h408l-13 -56l-177 -251q53 -11 70.5 -50t18.5 -120l3 -237h-98l3 223q0 45 -4 68t-14.5 31t-29.5 8h-3l-70 -330h-87l70 330h-4q-22 0 -35.5 -9t-28.5 -38t-40 -91l-78 -192h-96l102 236q17 41 29 61.5t26 35.5h-142
l-70 -333h-94zM491 423l140 212h-192z" />
    <glyph glyph-name="uni046D" unicode="&#x46d;" horiz-adv-x="658" 
d="M-2 0l115 539h90l-46 -216h193l-62 167l11 49h357l-9 -48l-144 -184q43 -8 61.5 -39t21.5 -95l7 -173h-88l-3 180q-2 40 -12 51.5t-35 11.5l-52 -243h-80l51 242q-29 0 -42.5 -11.5t-31.5 -50.5l-78 -180h-87l77 173q14 29 23 45t19 27h-114l-52 -245h-90zM430 321
l110 149h-160z" />
    <glyph glyph-name="uni046E" unicode="&#x46e;" horiz-adv-x="404" 
d="M216 -205q-21 12 -56 12q-21 0 -45.5 -3t-44.5 -3q-62 0 -96 30t-34 84q0 72 44 108t130 54q74 16 105 48.5t31 102.5q0 52 -26 77t-76 25h-55l17 83h53q46 0 79.5 20t52 54.5t18.5 75.5q0 37 -18.5 57.5t-56.5 20.5q-36 0 -61.5 -13.5t-50.5 -32.5l-35 69q27 21 57 35.5
t65 19.5q-9 33 -21 62t-26 56l2 10h58q10 -16 22 -39t23 -53q25 43 52 69t58 26q9 0 16 -1t14 -3v-61q-10 5 -22 5q-20 0 -39.5 -22.5t-36.5 -51.5q46 -13 70 -49.5t24 -88.5q0 -80 -40.5 -134t-114.5 -70l-1 -3q41 -11 68 -47t27 -98q-1 -99 -51 -152.5t-148 -76.5
q-50 -10 -81 -24.5t-31 -48.5q0 -23 12.5 -33t38.5 -10q20 0 39.5 3t41.5 3q16 0 28.5 -3t20.5 -7v-82z" />
    <glyph glyph-name="uni046F" unicode="&#x46f;" horiz-adv-x="327" 
d="M191 -186q-17 9 -46 9q-19 0 -40.5 -3t-44.5 -3q-52 0 -84 27t-32 83q0 61 34.5 93.5t95.5 48.5q44 11 67 24.5t32 33t9 49.5q0 34 -18 52.5t-50 18.5h-43l15 70h38q40 0 67.5 28.5t27.5 68.5q0 58 -53 58q-20 0 -38 -6t-38 -17l-22 67q16 10 33.5 17t34.5 10
q-8 25 -16.5 52.5t-19.5 53.5v11h56q11 -17 21.5 -44t18.5 -55q58 102 117 102q15 0 29 -6v-58q-10 6 -22 6q-16 -1 -33.5 -16.5t-38.5 -50.5q60 -24 60 -108q0 -53 -27 -90t-74 -52l-1 -4q67 -20 67 -113q0 -80 -45.5 -118.5t-121.5 -56.5q-33 -8 -53.5 -21t-20.5 -42
q0 -38 43 -38q19 0 36 3t35 3q13 0 25 -1.5t20 -6.5v-79z" />
    <glyph glyph-name="uni0470" unicode="&#x470;" horiz-adv-x="588" 
d="M182 0l45 210h-1q-75 3 -113.5 41.5t-38.5 115.5q0 49 14 116l49 231h93l-51 -240q-12 -60 -12 -96q0 -48 20.5 -65.5t55.5 -18.5h2l88 420h92l-89 -420h2q45 0 71 22.5t40.5 61.5t25.5 89l52 247h93l-53 -256q-17 -75 -43 -131t-74 -86.5t-129 -30.5h-3l-44 -210h-92z
" />
    <glyph glyph-name="uni0471" unicode="&#x471;" horiz-adv-x="536" 
d="M113 -240l50 231q-136 17 -136 158q0 24 4 53.5t11 62.5l59 274h89l-60 -286q-7 -28 -10.5 -52t-3.5 -46q0 -41 15.5 -60.5t47.5 -22.5l147 689h87l-145 -688q39 0 66.5 31.5t46 83t29.5 113.5t16 124t5 114h88q-1 -73 -7.5 -150t-23.5 -147.5t-47.5 -127t-77 -89.5
t-113.5 -34l-49 -231h-88z" />
    <glyph glyph-name="uni0472" unicode="&#x472;" horiz-adv-x="508" 
d="M194 -10q-84 0 -125 52.5t-41 162.5q0 67 12.5 139t37 139.5t61 122t84.5 86.5t108 32q164 0 164 -208q0 -66 -12 -139t-36 -141.5t-60 -124t-84.5 -88.5t-108.5 -33zM152 403h238q5 32 8 61.5t3 54.5q0 123 -77 123q-34 0 -61 -20.5t-48 -55.5t-36.5 -77.5t-26.5 -85.5z
M201 74q35 0 62.5 22t48.5 58.5t36.5 80.5t25.5 89h-239q-6 -34 -8.5 -64t-2.5 -56q0 -70 20 -100t57 -30z" />
    </font>
</defs>
</svg>
