<?xml version="1.0" standalone="no"?>
<!DOCTYPE svg PUBLIC "-//W3C//DTD SVG 1.1//EN" "http://www.w3.org/Graphics/SVG/1.1/DTD/svg11.dtd" >
<svg>
<metadata>
Created by FontForge 20120731 at Thu Nov  8 00:24:02 2018
 By Salim,,,
Copyright 2015 Google Inc. All Rights Reserved.
</metadata>
<defs>
<font id="NotoSans-ExtraCondensedLightItalic" horiz-adv-x="0" >
  <font-face 
    font-family="Noto Sans ExtCond Light"
    font-weight="300"
    font-style="italic"
    font-stretch="extra-condensed"
    units-per-em="1000"
    panose-1="2 11 4 6 4 5 4 9 2 4"
    ascent="800"
    descent="-200"
    x-height="531"
    cap-height="714"
    bbox="-600 -389 2510 1064"
    underline-thickness="50"
    underline-position="-75"
    slope="-12"
    unicode-range="U+000D-FFFD"
  />
<missing-glyph horiz-adv-x="542" 
d="M84 0v714h370v-714h-370zM128 44h283v626h-283v-626z" />
    <glyph glyph-name="f_f" unicode="ff" horiz-adv-x="408" 
d="M-82 -240q-27 0 -45 6v48q8 -3 18 -5t23 -2q37 0 51.5 30.5t26.5 82.5l120 566h-58l6 31l62 15l18 82q16 74 42 112.5t82 38.5q36 0 60 -13l-20 -43q-16 9 -40 9q-32 0 -47 -28t-27 -81l-16 -78h150l17 83q16 74 42 112.5t83 38.5q15 0 31.5 -3.5t27.5 -9.5l-19 -43
q-18 9 -40 9q-32 0 -47.5 -28t-26.5 -81l-18 -78h72l-10 -45h-70l-123 -570q-9 -43 -22.5 -78.5t-37.5 -56.5t-65 -21q-28 0 -44 6v48q8 -3 18 -5t22 -2q38 0 53 30.5t25 82.5l122 566h-150l-122 -570q-10 -43 -23 -78.5t-37 -56.5t-64 -21z" />
    <glyph glyph-name="f_f_i" unicode="ffi" horiz-adv-x="578" 
d="M-82 -240q-27 0 -45 6v48q8 -3 18 -5t23 -2q37 0 51.5 30.5t26.5 82.5l120 566h-58l6 31l62 15l18 82q16 74 42 112.5t82 38.5q36 0 60 -13l-20 -43q-16 9 -40 9q-32 0 -47 -28t-27 -81l-16 -78h150l17 83q16 74 42 112.5t83 38.5q15 0 31.5 -3.5t27.5 -9.5l-19 -43
q-18 9 -40 9q-32 0 -47.5 -28t-26.5 -81l-18 -78h72l-10 -45h-70l-123 -570q-9 -43 -22.5 -78.5t-37.5 -56.5t-65 -21q-28 0 -44 6v48q8 -3 18 -5t22 -2q38 0 53 30.5t25 82.5l122 566h-150l-122 -570q-10 -43 -23 -78.5t-37 -56.5t-64 -21zM570 634q-28 0 -28 32
q0 20 11 39t33 19q27 0 27 -30q0 -22 -11 -41t-32 -19zM408 0l112 531h52l-113 -531h-51z" />
    <glyph glyph-name="f_f_l" unicode="ffl" horiz-adv-x="574" 
d="M-82 -240q-27 0 -45 6v48q8 -3 18 -5t23 -2q37 0 51.5 30.5t26.5 82.5l120 566h-58l6 31l62 15l18 82q16 74 42 112.5t82 38.5q36 0 60 -13l-20 -43q-16 9 -40 9q-32 0 -47 -28t-27 -81l-16 -78h150l17 83q16 74 42 112.5t83 38.5q15 0 31.5 -3.5t27.5 -9.5l-19 -43
q-18 9 -40 9q-32 0 -47.5 -28t-26.5 -81l-18 -78h72l-10 -45h-70l-123 -570q-9 -43 -22.5 -78.5t-37.5 -56.5t-65 -21q-28 0 -44 6v48q8 -3 18 -5t22 -2q38 0 53 30.5t25 82.5l122 566h-150l-122 -570q-10 -43 -23 -78.5t-37 -56.5t-64 -21zM408 0l162 760h52l-162 -760h-52
z" />
    <glyph glyph-name="f_i" unicode="fi" horiz-adv-x="376" 
d="M-82 -240q-27 0 -45 6v48q8 -3 18 -5t23 -2q37 0 51.5 30.5t26.5 82.5l120 566h-58l6 31l62 15l18 82q16 74 42 112.5t82 38.5q36 0 60 -13l-20 -43q-16 9 -40 9q-32 0 -47 -28t-27 -81l-16 -78h71l-9 -45h-72l-122 -570q-10 -43 -23 -78.5t-37 -56.5t-64 -21zM370 634
q-28 0 -28 32q0 20 10.5 39t32.5 19q27 0 27 -30q0 -22 -11 -41t-31 -19zM207 0l113 531h51l-113 -531h-51z" />
    <glyph glyph-name="f_l" unicode="fl" horiz-adv-x="376" 
d="M-82 -240q-27 0 -45 6v48q8 -3 18 -5t23 -2q37 0 51.5 30.5t26.5 82.5l120 566h-58l6 31l62 15l18 82q16 74 42 112.5t82 38.5q36 0 60 -13l-20 -43q-16 9 -40 9q-32 0 -47 -28t-27 -81l-16 -78h71l-9 -45h-72l-122 -570q-10 -43 -23 -78.5t-37 -56.5t-64 -21zM207 0
l161 760h52l-162 -760h-51z" />
    <glyph glyph-name=".notdef" horiz-adv-x="542" 
d="M84 0v714h370v-714h-370zM128 44h283v626h-283v-626z" />
    <glyph glyph-name="NULL" 
 />
    <glyph glyph-name="NULL" 
 />
    <glyph glyph-name="CR" unicode="&#xd;" horiz-adv-x="169" 
 />
    <glyph glyph-name="space" unicode=" " horiz-adv-x="169" 
 />
    <glyph glyph-name="exclam" unicode="!" horiz-adv-x="218" 
d="M60 182l108 532h60l-125 -532h-43zM42 -4q-30 0 -30 33q0 23 12 42.5t36 19.5q28 0 28 -34q0 -23 -12.5 -42t-33.5 -19z" />
    <glyph glyph-name="quotedbl" unicode="&#x22;" horiz-adv-x="298" 
d="M230 456l46 258h58l-66 -258h-38zM97 456l45 258h58l-64 -258h-39z" />
    <glyph glyph-name="numbersign" unicode="#" horiz-adv-x="394" 
d="M3 0l70 226h-71l5 44h79l62 196h-77l5 44h86l62 204h44l-64 -204h98l64 204h42l-62 -204h69l-6 -44h-77l-62 -196h75l-5 -44h-83l-70 -226h-43l70 226h-98l-70 -226h-43zM130 270h98l60 196h-97z" />
    <glyph glyph-name="dollar" unicode="$" horiz-adv-x="366" 
d="M89 -58l21 101q-39 1 -68 10t-47 19l5 52q20 -14 50 -24t71 -11l55 259q-36 33 -64 68.5t-28 90.5q0 81 44 123t117 47l18 83h32l-17 -83q38 -2 64 -12.5t44 -20.5l-24 -44q-17 11 -40 20.5t-54 11.5l-54 -253q40 -36 67 -72.5t27 -88.5q0 -80 -44.5 -124.5t-120.5 -50.5
l-21 -101h-33zM188 404l48 227q-51 -5 -77.5 -35.5t-26.5 -81.5q0 -33 14 -57.5t42 -52.5zM153 91q55 5 81 37t26 85q0 32 -14.5 56.5t-43.5 54.5z" />
    <glyph glyph-name="percent" unicode="%" horiz-adv-x="564" 
d="M119 276q-34 0 -52.5 26t-18.5 84q0 35 6 79.5t18.5 89.5t31.5 83.5t45 62t59 23.5t51.5 -25t18.5 -80q0 -32 -6 -76t-18 -90.5t-31 -86.5t-45 -65t-59 -25zM83 0l363 714h44l-360 -714h-47zM124 318q21 0 38.5 23t31 60t22.5 78t14 78.5t5 60.5q0 36 -8.5 50t-24.5 14
q-20 0 -37 -21.5t-30.5 -56t-23.5 -74.5t-15 -77.5t-5 -64.5q0 -40 9 -55t24 -15zM368 -11q-33 0 -52.5 25.5t-19.5 83.5q0 37 6.5 82t19.5 90t32 83t44.5 61t57.5 23q34 0 53 -25.5t19 -79.5q0 -32 -6 -76.5t-18.5 -91t-31.5 -86t-45 -64.5t-59 -25zM373 31q21 0 38 23
t30.5 60t23 78.5t14.5 78.5t5 61q0 34 -9 49t-25 15q-20 0 -37 -22t-30.5 -57t-23 -75t-14.5 -78t-5 -64q0 -39 8.5 -54t24.5 -15z" />
    <glyph glyph-name="ampersand" unicode="&#x26;" horiz-adv-x="376" 
d="M100 -10q-51 0 -80 33t-29 95q0 83 40.5 148.5t108.5 121.5q-10 33 -15.5 69.5t-5.5 72.5q0 55 14.5 99t42.5 69.5t69 25.5q35 0 58 -24t23 -70q0 -75 -35 -138t-91 -114l56 -204q15 29 28.5 66.5t23.5 77.5h51q-11 -48 -33 -101t-50 -99l36 -118h-56l-20 76
q-25 -33 -56 -59.5t-80 -26.5zM185 420q39 38 64 91t25 113q0 26 -9 41t-27 15q-23 0 -38 -21t-22.5 -54t-7.5 -69q0 -34 3.5 -62t11.5 -54zM109 37q40 0 65 27t45 59l-63 225q-53 -49 -82.5 -102.5t-29.5 -119.5q0 -44 17 -66.5t48 -22.5z" />
    <glyph glyph-name="quotesingle" unicode="'" horiz-adv-x="165" 
d="M99 456l45 258h58l-64 -258h-39z" />
    <glyph glyph-name="parenleft" unicode="(" horiz-adv-x="249" 
d="M79 -158q-26 54 -41.5 129.5t-15.5 146.5q0 170 63 320t178 276h45q-112 -136 -173.5 -283.5t-61.5 -312.5q0 -73 12.5 -146t37.5 -130h-44z" />
    <glyph glyph-name="parenright" unicode=")" horiz-adv-x="250" 
d="M-71 -158q113 136 174 283.5t61 313.5q0 71 -12.5 146t-37.5 129h44q27 -56 42 -129t15 -147q0 -171 -62.5 -321t-178.5 -275h-45z" />
    <glyph glyph-name="asterisk" unicode="*" horiz-adv-x="339" 
d="M292 460l-52 118l-88 -96l-34 31l100 89l-109 46l17 43l104 -59l12 128l49 -6l-27 -126l114 26l5 -46l-116 -12l67 -114z" />
    <glyph glyph-name="plus" unicode="+" horiz-adv-x="414" 
d="M236 375h152v-46h-152v-208h-47v208h-155v46h155v211h47v-211z" />
    <glyph glyph-name="comma" unicode="," horiz-adv-x="179" 
d="M-42 -130q16 32 33.5 73t33 83t24.5 76h52l4 -11q-19 -52 -48 -112.5t-60 -108.5h-39z" />
    <glyph glyph-name="hyphen" unicode="-" horiz-adv-x="260" 
d="M20 246l7 50h210l-7 -50h-210z" />
    <glyph glyph-name="period" unicode="." horiz-adv-x="178" 
d="M44 -4q-30 0 -30 33q0 23 12 42.5t34 19.5q29 0 29 -34q0 -23 -12.5 -42t-32.5 -19z" />
    <glyph glyph-name="slash" unicode="/" horiz-adv-x="313" 
d="M-47 0l381 714h50l-382 -714h-49z" />
    <glyph glyph-name="zero" unicode="0" horiz-adv-x="367" 
d="M124 -10q-50 0 -77 40.5t-27 128.5q0 39 6.5 95t19.5 120t33 125.5t47 112.5t61.5 81.5t76.5 30.5q51 0 76 -38.5t25 -119.5q0 -44 -6.5 -103t-19.5 -124t-32.5 -127t-46.5 -112t-61 -80t-75 -30zM128 39q29 0 54 28.5t45.5 76t37 105.5t27.5 117.5t16.5 112t5.5 88.5
q0 57 -13 82.5t-41 25.5q-29 0 -54 -28.5t-46 -75.5t-37 -104t-27.5 -115.5t-17.5 -109t-6 -84.5q0 -66 14.5 -92.5t41.5 -26.5z" />
    <glyph glyph-name="one" unicode="1" horiz-adv-x="367" 
d="M114 0l118 554q4 23 8.5 40.5l13.5 52.5q-8 -7 -15.5 -15t-16.5 -16l-86 -72l-27 35l159 135h50l-151 -714h-53z" />
    <glyph glyph-name="two" unicode="2" horiz-adv-x="367" 
d="M-34 0l7 42l171 210q46 58 84.5 111.5t62 107t23.5 110.5q0 47 -22.5 71t-60.5 24q-31 0 -54 -13t-45 -30l-23 40q24 22 56.5 36.5t74.5 14.5q57 0 92.5 -36.5t35.5 -99.5q0 -60 -23.5 -117.5t-64 -115t-90.5 -117.5l-153 -187v-3h228l-9 -48h-290z" />
    <glyph glyph-name="three" unicode="3" horiz-adv-x="367" 
d="M92 -10q-70 0 -112 25v55q46 -33 110 -33q54 0 89 27.5t52 69.5t17 88q0 67 -29 95.5t-81 28.5h-28l10 47h29q55 0 92 27t56.5 70t19.5 90q0 45 -20.5 70.5t-63.5 25.5q-33 0 -59.5 -13t-48.5 -31l-21 42q26 21 59.5 35.5t77.5 14.5q62 0 96 -37t34 -99q0 -51 -19 -96.5
t-53.5 -77.5t-79.5 -42l-1 -3q38 -12 61 -46.5t23 -95.5q0 -59 -23 -113.5t-69.5 -89t-117.5 -34.5z" />
    <glyph glyph-name="four" unicode="4" horiz-adv-x="367" 
d="M168 0l34 162h-221l8 41l320 519h64l-109 -513h68l-10 -47h-68l-34 -162h-52zM40 209h172l74 343q6 27 13 54.5t12 51.5h-3q-15 -30 -25.5 -49t-24.5 -41z" />
    <glyph glyph-name="five" unicode="5" horiz-adv-x="367" 
d="M88 -10q-36 0 -63.5 8t-43.5 16v57q18 -13 45.5 -23.5t61.5 -10.5q59 0 97.5 31.5t57 81.5t18.5 104q0 130 -106 130q-21 0 -39 -4t-36 -12l-20 28l88 318h227l-11 -49h-180l-68 -243q12 3 27 5.5t33 2.5q66 0 103 -44t37 -124q0 -51 -13.5 -99.5t-41.5 -87.5t-71 -62
t-102 -23z" />
    <glyph glyph-name="six" unicode="6" horiz-adv-x="367" 
d="M141 -10q-57 0 -87 44.5t-30 125.5q0 76 13 154.5t36 149t54 123.5q19 35 46.5 66t63.5 51t81 20q24 0 41 -3t31 -7l-14 -48q-12 4 -27 7t-31 3q-75 0 -129.5 -77t-91.5 -235h3q22 36 54 57.5t72 21.5q51 0 78.5 -39.5t27.5 -105.5q0 -48 -11 -101.5t-34 -100.5
t-59.5 -76.5t-86.5 -29.5zM144 38q36 0 61.5 26.5t41.5 67t23.5 83.5t7.5 77q0 50 -18 77t-50 27q-44 0 -73.5 -30.5t-43.5 -75.5q-18 -46 -18 -130q0 -62 18.5 -92t50.5 -30z" />
    <glyph glyph-name="seven" unicode="7" horiz-adv-x="367" 
d="M34 0l312 665h-252l10 49h303l-5 -42l-313 -672h-55z" />
    <glyph glyph-name="eight" unicode="8" horiz-adv-x="367" 
d="M138 -10q-68 0 -108 41t-40 109q0 86 44.5 141.5t121.5 96.5q-32 36 -49.5 76.5t-17.5 89.5q0 51 19.5 91.5t56.5 64.5t88 24q56 0 90.5 -36.5t34.5 -95.5q0 -72 -39.5 -127t-110.5 -93q40 -42 62 -87t22 -101q0 -51 -20.5 -95.5t-59.5 -71.5t-94 -27zM199 402
q127 66 127 182q0 45 -22 69.5t-56 24.5q-48 0 -78 -35t-30 -97q0 -45 16 -79.5t43 -64.5zM138 36q60 0 91 43t31 103q0 51 -21.5 90.5t-53.5 74.5q-62 -33 -102.5 -79t-40.5 -124q0 -46 26 -77t70 -31z" />
    <glyph glyph-name="nine" unicode="9" horiz-adv-x="367" 
d="M70 -10q-24 0 -42 3t-31 8v50q12 -6 31 -10t41 -4q76 0 129.5 77.5t90.5 235.5h-3q-22 -36 -54 -57.5t-72 -21.5q-51 0 -78.5 40.5t-27.5 104.5q0 48 11 101.5t34.5 100.5t59.5 76.5t87 29.5q54 0 85 -42t31 -126q0 -71 -11 -145t-31 -141.5t-46 -120.5
q-21 -43 -49.5 -79t-66.5 -58t-88 -22zM176 319q38 0 64.5 25t41.5 63q28 50 28 148q0 121 -68 121q-35 0 -60.5 -25.5t-42 -65t-24.5 -82.5t-8 -79q0 -51 18.5 -78t50.5 -27z" />
    <glyph glyph-name="colon" unicode=":" horiz-adv-x="178" 
d="M126 438q-30 0 -30 34q0 22 12.5 42t35.5 20q28 0 28 -34q0 -23 -12.5 -42.5t-33.5 -19.5zM32 -4q-30 0 -30 33q0 23 12 42.5t35 19.5q29 0 29 -34q0 -23 -13 -42t-33 -19z" />
    <glyph glyph-name="semicolon" unicode=";" horiz-adv-x="180" 
d="M132 438q-30 0 -30 34q0 22 12 42t35 20q29 0 29 -34q0 -23 -12.5 -42.5t-33.5 -19.5zM-48 -130q27 52 52.5 115t39.5 117h52l4 -11q-18 -52 -47.5 -112.5t-60.5 -108.5h-40z" />
    <glyph glyph-name="less" unicode="&#x3c;" horiz-adv-x="414" 
d="M390 140l-356 204v34l356 190v-53l-296 -155l296 -167v-53z" />
    <glyph glyph-name="equal" unicode="=" horiz-adv-x="414" 
d="M34 436v47h354v-47h-354zM34 222v46h354v-46h-354z" />
    <glyph glyph-name="greater" unicode="&#x3e;" horiz-adv-x="414" 
d="M34 193l296 167l-296 155v53l356 -190v-34l-356 -204v53z" />
    <glyph glyph-name="question" unicode="?" horiz-adv-x="265" 
d="M52 182q10 50 21.5 85.5t29.5 66.5t47 67q32 39 55.5 69t36 61.5t12.5 72.5q0 35 -18 53.5t-50 18.5q-26 0 -47 -9t-39 -22l-14 41q24 18 52 28t58 10q52 0 81 -30t29 -82q0 -65 -31 -116.5t-79 -107.5q-32 -38 -51 -67t-30 -61t-19 -78h-44zM44 -4q-30 0 -30 33
q0 23 11.5 42.5t35.5 19.5q28 0 28 -34q0 -23 -12.5 -42t-32.5 -19z" />
    <glyph glyph-name="at" unicode="@" horiz-adv-x="548" 
d="M197 -87q-88 0 -130.5 61.5t-42.5 165.5q0 79 15 161t43.5 157t70.5 134t96 93t119 34q81 0 123.5 -57.5t42.5 -163.5q0 -44 -7.5 -95.5t-22 -102t-35 -92.5t-46.5 -67.5t-57 -25.5q-33 0 -44.5 22.5t-13.5 61.5q-14 -38 -36 -62t-50 -24q-30 0 -47 24t-17 74
q0 33 7.5 73.5t22 82t36 76t50.5 55.5t64 21q20 0 39.5 -3.5t34.5 -11.5l-54 -218q-15 -63 -15 -86q0 -24 6 -35t22 -11q20 0 38 23.5t33 61.5t26 83.5t17 90.5t6 81q0 97 -32 141.5t-95 44.5q-57 0 -103.5 -32.5t-82.5 -87.5t-60.5 -124.5t-37 -144.5t-12.5 -147
q0 -86 30 -139t101 -53q30 0 58.5 7.5t48.5 18.5v-39q-22 -11 -50 -18.5t-59 -7.5zM234 153q43 0 88 171l40 152q-11 4 -31 4q-30 0 -54 -28t-41 -71t-25.5 -87.5t-8.5 -77.5q0 -63 32 -63z" />
    <glyph glyph-name="A" unicode="A" horiz-adv-x="365" 
d="M-66 0l296 717h68v-717h-54v256h-148l-105 -256h-57zM114 304h132l3 274q0 48 3 79h-3q-5 -16 -11.5 -35t-15.5 -44z" />
    <glyph glyph-name="B" unicode="B" horiz-adv-x="402" 
d="M2 0l150 714h113q67 0 105 -35t38 -99q0 -46 -15 -88.5t-45.5 -74t-78.5 -43.5v-2q38 -10 59.5 -44.5t21.5 -85.5q0 -67 -24 -122t-72 -87.5t-120 -32.5h-132zM139 398h63q52 0 85 25.5t49 65.5t16 83q0 94 -98 94h-58zM65 48h69q58 0 94 27.5t52 72t16 93.5q0 58 -29 84
t-75 26h-62z" />
    <glyph glyph-name="C" unicode="C" horiz-adv-x="362" 
d="M190 -10q-76 0 -115 56.5t-39 175.5q0 56 11.5 123t35 134t60 122.5t85.5 89.5t111 34q32 0 56 -8t43 -23l-29 -43q-26 25 -71 25q-50 0 -90 -31.5t-69.5 -82.5t-49 -111.5t-29 -119.5t-9.5 -105q0 -99 26.5 -143.5t82.5 -44.5q19 0 39.5 5.5t44.5 14.5v-50
q-48 -18 -94 -18z" />
    <glyph glyph-name="D" unicode="D" horiz-adv-x="438" 
d="M2 0l150 714h96q84 0 128.5 -51t44.5 -157q0 -61 -10.5 -130.5t-33.5 -136t-60.5 -120.5t-90.5 -86.5t-124 -32.5h-100zM64 49h43q56 0 98.5 29t72.5 78t49 109t28 122t9 117q0 88 -30.5 124.5t-91.5 36.5h-46z" />
    <glyph glyph-name="E" unicode="E" horiz-adv-x="352" 
d="M1 0l151 714h242l-10 -48h-188l-57 -268h177l-12 -48h-176l-64 -302h189l-10 -48h-242z" />
    <glyph glyph-name="F" unicode="F" horiz-adv-x="328" 
d="M1 0l151 714h244l-11 -48h-189l-64 -299h178l-10 -49h-179l-67 -318h-53z" />
    <glyph glyph-name="G" unicode="G" horiz-adv-x="472" 
d="M220 -10q-184 0 -184 226q0 100 22.5 191.5t64 163t100.5 113t133 41.5q44 0 78 -12.5t60 -30.5l-28 -46q-26 20 -53 30t-60 10q-61 0 -110 -40t-82.5 -106.5t-51.5 -147t-18 -162.5q0 -96 33.5 -139t101.5 -43q46 0 87 15l55 263h-93l11 48h146l-74 -348
q-33 -12 -67 -19t-71 -7z" />
    <glyph glyph-name="H" unicode="H" horiz-adv-x="462" 
d="M1 0l151 714h54l-67 -315h221l66 315h54l-152 -714h-54l74 350h-220l-74 -350h-53z" />
    <glyph glyph-name="I" unicode="I" horiz-adv-x="212" 
d="M-54 0l6 32l70 9l134 631l-66 10l7 32h187l-8 -32l-68 -10l-134 -631l64 -9l-6 -32h-186z" />
    <glyph glyph-name="J" unicode="J" horiz-adv-x="178" 
d="M-86 -182q-37 0 -58 12l12 48q10 -5 22 -8.5t24 -3.5q34 0 53 29t32 90l154 729h53l-157 -740q-17 -81 -49 -118.5t-86 -37.5z" />
    <glyph glyph-name="K" unicode="K" horiz-adv-x="376" 
d="M1 0l151 714h54l-80 -376l62 91l204 285h60l-228 -320l86 -394h-58l-74 352l-66 -76l-58 -276h-53z" />
    <glyph glyph-name="L" unicode="L" horiz-adv-x="320" 
d="M1 0l151 714h54l-142 -666h182l-10 -48h-235z" />
    <glyph glyph-name="M" unicode="M" horiz-adv-x="617" 
d="M1 0l151 714h76l28 -633h3l295 633h81l-152 -714h-53l113 529l10 44t11 48h-2l-290 -621h-60l-28 621h-2q-6 -31 -10 -53t-9 -46l-111 -522h-51z" />
    <glyph glyph-name="N" unicode="N" horiz-adv-x="487" 
d="M1 0l151 714h64l108 -612h2q8 44 16.5 86t13.5 68l97 458h53l-152 -714h-62l-108 620h-2q-6 -38 -15 -83t-17 -80l-97 -457h-52z" />
    <glyph glyph-name="O" unicode="O" horiz-adv-x="470" 
d="M176 -10q-70 0 -106 49.5t-36 153.5q0 60 10.5 131.5t32.5 141.5t55.5 128.5t78.5 94t103 35.5q69 0 103.5 -46.5t34.5 -145.5q0 -46 -6.5 -103.5t-20.5 -118.5t-36 -118t-53 -102.5t-70.5 -72.5t-89.5 -27zM180 39q45 0 80 34.5t61 91t43 122.5t25.5 130.5t8.5 114.5
q0 75 -21.5 109.5t-67.5 34.5q-39 0 -70.5 -25.5t-55.5 -67.5t-42 -94t-29.5 -106.5t-17 -103.5t-5.5 -85q0 -82 23.5 -118.5t67.5 -36.5z" />
    <glyph glyph-name="P" unicode="P" horiz-adv-x="378" 
d="M2 0l150 714h87q77 0 116 -40t39 -111q0 -78 -27 -139.5t-79 -96.5t-125 -35h-47l-62 -292h-52zM126 341h36q60 0 99 28.5t58 77.5t19 111q0 51 -25.5 79.5t-81.5 28.5h-35z" />
    <glyph glyph-name="Q" unicode="Q" horiz-adv-x="470" 
d="M234 -170l-46 162q-5 -1 -10.5 -1.5t-9.5 -0.5q-66 2 -100 52t-34 151q0 60 10.5 131.5t32.5 141.5t55.5 128.5t78.5 94t103 35.5q69 0 103.5 -46.5t34.5 -145.5q0 -49 -7.5 -111.5t-23.5 -127.5t-41 -124t-60 -103t-81 -63l53 -173h-58zM180 39q45 0 80 34.5t61 91
t43 122.5t25.5 130.5t8.5 114.5q0 75 -21.5 109.5t-67.5 34.5q-39 0 -70.5 -25.5t-55.5 -67.5t-42 -94t-29.5 -106.5t-17 -103.5t-5.5 -85q0 -82 23.5 -118.5t67.5 -36.5z" />
    <glyph glyph-name="R" unicode="R" horiz-adv-x="388" 
d="M2 0l150 714h92q70 0 110 -38t40 -112q0 -59 -18 -110.5t-52 -87t-82 -46.5l60 -320h-56l-56 310h-70l-66 -310h-52zM130 356h58q54 0 87 30.5t48 77.5t15 94q0 108 -104 108h-38z" />
    <glyph glyph-name="S" unicode="S" horiz-adv-x="358" 
d="M102 -10q-41 0 -74 8t-54 22l5 56q25 -16 56 -26t69 -10q63 0 100.5 39t37.5 111q0 28 -7.5 51.5t-25 48t-46.5 56.5q-40 44 -63.5 83.5t-23.5 100.5q0 93 53 143.5t137 50.5q36 0 70 -10t54 -24l-26 -48q-20 13 -45.5 22.5t-56.5 9.5q-57 0 -93.5 -36t-36.5 -102
q0 -49 21 -83.5t65 -80.5q38 -40 59 -82t21 -96q0 -93 -51.5 -148.5t-144.5 -55.5z" />
    <glyph glyph-name="T" unicode="T" horiz-adv-x="319" 
d="M66 0l141 665h-125l10 49h304l-10 -49h-126l-142 -665h-52z" />
    <glyph glyph-name="U" unicode="U" horiz-adv-x="448" 
d="M165 -10q-61 0 -97 36t-36 103q0 18 3 40.5t7 46.5l106 498h54l-107 -500q-5 -22 -7 -43t-2 -37q0 -48 22.5 -71.5t61.5 -23.5q62 0 91.5 47.5t50.5 141.5l106 486h52l-106 -490q-15 -72 -38.5 -124.5t-61.5 -81t-99 -28.5z" />
    <glyph glyph-name="V" unicode="V" horiz-adv-x="374" 
d="M87 0l-2 714h54l-3 -520q0 -32 -1 -60.5t-3 -62.5h2q15 51 45 121l219 522h56l-304 -714h-63z" />
    <glyph glyph-name="W" unicode="W" horiz-adv-x="626" 
d="M72 0l14 714h52l-12 -511q-1 -41 -2.5 -71t-2.5 -52h2q11 33 24 66.5t24 62.5l199 505h49l-17 -489q-2 -43 -3.5 -78t-3.5 -70h2q13 37 26 71.5t30 77.5l193 488h55l-285 -714h-67l18 507q1 23 2 47t3 50h-2q-8 -22 -15.5 -45t-16.5 -44l-200 -515h-66z" />
    <glyph glyph-name="X" unicode="X" horiz-adv-x="337" 
d="M-58 0l214 378l-44 336h55l31 -287l154 287h56l-190 -346l42 -368h-56l-30 316l-176 -316h-56z" />
    <glyph glyph-name="Y" unicode="Y" horiz-adv-x="322" 
d="M68 0l58 276l-42 438h54l30 -363l182 363h58l-228 -436l-59 -278h-53z" />
    <glyph glyph-name="Z" unicode="Z" horiz-adv-x="320" 
d="M-42 0l10 43l342 622h-202l10 49h262l-8 -44l-344 -622h218l-11 -48h-277z" />
    <glyph glyph-name="bracketleft" unicode="[" horiz-adv-x="278" 
d="M-22 -160l187 877h177l-9 -44h-129l-169 -789h130l-9 -44h-178z" />
    <glyph glyph-name="backslash" unicode="\" horiz-adv-x="330" 
d="M198 -1l-96 717h48l98 -717h-50z" />
    <glyph glyph-name="bracketright" unicode="]" horiz-adv-x="278" 
d="M-64 -160l10 44h128l168 789h-128l9 44h177l-186 -877h-178z" />
    <glyph glyph-name="asciicircum" unicode="^" horiz-adv-x="394" 
d="M18 352l203 362h38l131 -362h-52l-108 292l-158 -292h-54z" />
    <glyph glyph-name="underscore" unicode="_" horiz-adv-x="282" 
d="M-81 -130l6 43h280l-6 -43h-280z" />
    <glyph glyph-name="grave" unicode="`" horiz-adv-x="227" 
d="M229 606q-13 18 -29.5 44.5t-31 54.5t-22.5 51v8h57q13 -38 26 -75t31 -74v-9h-31z" />
    <glyph glyph-name="a" unicode="a" horiz-adv-x="401" 
d="M128 -10q-50 0 -76 38t-26 110q0 46 8.5 100t25.5 107.5t42.5 98t60 71t77.5 26.5q38 0 59 -23t29 -62h2l21 75h43l-112 -531h-42l12 83h-2q-26 -43 -54.5 -68t-67.5 -25zM142 36q36 0 62 28.5t44.5 73.5t31.5 94q12 48 19 92.5t7 82.5q0 40 -16.5 63.5t-45.5 23.5
q-31 0 -57 -23.5t-46 -62.5t-33.5 -85.5t-20.5 -93.5t-7 -87q0 -56 16.5 -81t45.5 -25z" />
    <glyph glyph-name="b" unicode="b" horiz-adv-x="394" 
d="M160 -10q-40 0 -63.5 24.5t-28.5 61.5h-2l-22 -76h-41l160 760h51l-54 -256q-4 -16 -7 -29t-7 -25h2q22 40 52.5 65.5t70.5 25.5q47 0 73.5 -37t26.5 -111q0 -42 -8 -95.5t-24.5 -107t-41.5 -99t-59 -73.5t-78 -28zM157 36q31 0 56.5 25t45 65t33 87.5t20 93.5t6.5 82
q0 57 -17 81t-45 24q-34 0 -61 -28t-46.5 -72.5t-32.5 -94t-19 -94t-6 -71.5q0 -98 66 -98z" />
    <glyph glyph-name="c" unicode="c" horiz-adv-x="293" 
d="M146 -10q-58 0 -88 38.5t-30 121.5q0 47 8 100t25 104.5t43.5 94t62 67.5t81.5 25t74 -17l-20 -44q-12 8 -26 11t-28 3q-41 0 -72.5 -33t-52.5 -85t-32 -111t-11 -111q0 -63 19 -90.5t57 -27.5q34 0 72 22v-47q-15 -9 -36.5 -15t-45.5 -6z" />
    <glyph glyph-name="d" unicode="d" horiz-adv-x="400" 
d="M126 -10q-48 0 -74 38t-26 110q0 46 8.5 100t25.5 107.5t42 97.5t59 71t77 27q37 0 59.5 -22t29.5 -57h3q4 25 9 51.5t11 50.5l41 196h51l-160 -760h-42l12 84h-2q-26 -44 -55 -69t-69 -25zM142 36q36 0 63 30t46 77t31.5 99t18 96.5t5.5 69.5q0 40 -16 63t-46 23
q-32 0 -58 -24t-45.5 -63.5t-33 -86.5t-20.5 -93.5t-7 -84.5q0 -56 16.5 -81t45.5 -25z" />
    <glyph glyph-name="e" unicode="e" horiz-adv-x="354" 
d="M152 -10q-60 0 -93 40t-33 118q0 80 17 151t47 125.5t69.5 85.5t84.5 31q42 0 67.5 -24t25.5 -76q0 -53 -27 -97.5t-81.5 -71t-136.5 -26.5h-6q-9 -42 -9 -91q0 -62 21.5 -91t65.5 -29q26 0 47.5 7.5t45.5 20.5v-47q-21 -12 -47 -19t-58 -7zM93 288h4q69 0 110.5 21
t60.5 55.5t19 73.5q0 27 -11.5 42.5t-37.5 15.5q-31 0 -59.5 -27.5t-50.5 -74.5t-35 -106z" />
    <glyph glyph-name="f" unicode="f" horiz-adv-x="207" 
d="M-82 -240q-27 0 -45 6v48q8 -3 18 -5t23 -2q37 0 51.5 30.5t26.5 82.5l120 566h-58l6 31l62 15l18 82q16 74 42 112.5t82 38.5q36 0 60 -13l-20 -43q-16 9 -40 9q-32 0 -47 -28t-27 -81l-16 -78h71l-9 -45h-72l-122 -570q-10 -43 -23 -78.5t-37 -56.5t-64 -21z" />
    <glyph glyph-name="g" unicode="g" horiz-adv-x="400" 
d="M83 -240q-31 0 -59 9t-44 19v52q16 -12 45 -23t59 -11q60 0 91 39t48 116l11 51q2 10 7 29t9 39h-2q-25 -44 -54 -67t-68 -23q-48 0 -74 38t-26 109q0 46 8.5 100.5t25.5 108t42.5 97.5t60 71t77.5 27q39 0 60 -23.5t28 -61.5h4l19 75h43l-120 -573q-22 -99 -66 -148.5
t-125 -49.5zM142 36q34 0 61 30t46 76.5t32 98.5t19 97.5t6 71.5q0 39 -16.5 61.5t-45.5 22.5q-32 0 -58 -24t-45.5 -63.5t-33 -86.5t-20.5 -93.5t-7 -84.5q0 -56 16 -81t46 -25z" />
    <glyph glyph-name="h" unicode="h" horiz-adv-x="384" 
d="M4 0l160 760h52l-48 -218q-4 -21 -9 -42t-11 -42h2q20 40 50 61.5t68 21.5q40 0 64 -23t24 -68q0 -22 -6 -55t-12 -61l-71 -334h-51l70 333q6 28 11 55.5t5 51.5q0 53 -51 53q-49 0 -80.5 -49.5t-53.5 -151.5l-62 -292h-51z" />
    <glyph glyph-name="i" unicode="i" horiz-adv-x="174" 
d="M166 634q-28 0 -28 32q0 20 10.5 39t32.5 19q27 0 27 -30q0 -22 -11 -41t-31 -19zM3 0l113 531h51l-113 -531h-51z" />
    <glyph glyph-name="j" unicode="j" horiz-adv-x="177" 
d="M170 634q-28 0 -28 32q0 20 10.5 39t31.5 19q28 0 28 -30q0 -22 -11 -41t-31 -19zM-88 -240q-26 0 -43 6v48q17 -6 38 -6q25 0 40.5 12.5t26.5 44t22 87.5l123 579h51l-124 -583q-13 -62 -28 -103.5t-39.5 -63t-66.5 -21.5z" />
    <glyph glyph-name="k" unicode="k" horiz-adv-x="328" 
d="M3 0l161 760h52l-82 -383q-6 -28 -12.5 -56t-14.5 -61h1l204 271h56l-156 -210l54 -321h-54l-45 276l-74 -87l-39 -189h-51z" />
    <glyph glyph-name="l" unicode="l" horiz-adv-x="169" 
d="M3 0l161 760h52l-162 -760h-51z" />
    <glyph glyph-name="m" unicode="m" horiz-adv-x="579" 
d="M3 0l112 531h43l-12 -71h2q20 39 49 60t65 21q75 0 84 -70h2q20 33 48 51.5t66 18.5q39 0 63.5 -23.5t24.5 -69.5q0 -14 -2.5 -33t-5.5 -35l-81 -380h-51l78 373q4 19 7 36t3 27q0 28 -15 43t-39 15q-31 0 -52 -19t-34 -49t-20 -63l-79 -363h-51l82 386q4 15 5 28.5
t1 23.5q0 56 -50 56q-38 0 -62.5 -28t-40 -74t-27.5 -100l-62 -292h-51z" />
    <glyph glyph-name="n" unicode="n" horiz-adv-x="384" 
d="M3 0l112 531h42l-12 -75h3q20 40 50 62.5t68 22.5q39 0 64 -22.5t25 -68.5q0 -22 -5.5 -54t-11.5 -60l-72 -336h-51l71 336q6 27 11 54.5t5 49.5q0 53 -51 53q-50 0 -82 -52.5t-54 -152.5l-61 -288h-51z" />
    <glyph glyph-name="o" unicode="o" horiz-adv-x="383" 
d="M142 -10q-54 0 -85 38t-31 116q0 39 7 90.5t23 105t41.5 99t61.5 74t85 28.5q52 0 82 -39t30 -117q0 -48 -8 -102t-25 -106t-42.5 -94t-60 -67.5t-78.5 -25.5zM146 36q31 0 56.5 23.5t44.5 62.5t31.5 85.5t19 93.5t6.5 85q0 109 -66 109q-33 0 -59 -25.5t-44.5 -66.5
t-31 -89t-18.5 -93t-6 -77q0 -108 67 -108z" />
    <glyph glyph-name="p" unicode="p" horiz-adv-x="395" 
d="M-44 -230l160 761h42l-12 -85h2q26 45 55.5 70t68.5 25q48 0 74 -37.5t26 -111.5q0 -46 -8.5 -100.5t-25.5 -107.5t-43 -97t-60 -70.5t-77 -26.5q-36 0 -58 23t-29 57h-3q-4 -25 -9 -51.5t-10 -50.5l-43 -198h-50zM155 36q31 0 56.5 23.5t45.5 63t33.5 86.5t20.5 94t7 87
q0 56 -16 81t-46 25q-34 0 -61 -29t-46 -75t-32 -97.5t-19 -97t-6 -73.5q0 -40 16 -64t47 -24z" />
    <glyph glyph-name="q" unicode="q" horiz-adv-x="401" 
d="M181 -236l53 253q4 17 8 32.5t8 30.5h-2q-22 -40 -52.5 -65t-69.5 -25q-48 0 -74 37t-26 110q0 42 8 95.5t24.5 107.5t42 99.5t59.5 73.5t78 28q40 0 62.5 -24t27.5 -63h2l21 77h43l-162 -767h-51zM142 36q34 0 61 28.5t46 73.5t32 95t19 95t6 72q0 45 -17 69.5t-49 24.5
q-31 0 -56.5 -24.5t-45 -65t-32.5 -87.5t-19.5 -93t-6.5 -82q0 -57 16.5 -81.5t45.5 -24.5z" />
    <glyph glyph-name="r" unicode="r" horiz-adv-x="254" 
d="M3 0l112 531h41l-14 -89h2q21 48 50 73.5t69 25.5q11 0 20 -2t17 -4l-15 -53q-13 6 -33 6q-30 0 -52.5 -19t-39 -49.5t-27.5 -67t-19 -71.5l-60 -281h-51z" />
    <glyph glyph-name="s" unicode="s" horiz-adv-x="295" 
d="M88 -10q-34 0 -61 7.5t-41 16.5v54q16 -12 43 -21.5t55 -9.5q48 0 72 26.5t24 76.5q0 33 -13.5 57.5t-46.5 62.5q-28 32 -46 63.5t-18 76.5q0 59 37 100t103 41q38 0 64.5 -9.5t45.5 -21.5l-25 -43q-16 12 -37 20.5t-48 8.5q-40 0 -63.5 -25t-23.5 -65q0 -31 11.5 -55.5
t39.5 -55.5q25 -27 41.5 -49t24.5 -45t8 -56q0 -73 -38.5 -114t-107.5 -41z" />
    <glyph glyph-name="t" unicode="t" horiz-adv-x="210" 
d="M88 -10q-34 0 -51 20t-17 56q0 15 3 35.5t7 42.5l73 342h-47l6 33l52 12l38 125h38l-26 -125h70l-10 -45h-70l-73 -345q-5 -20 -7.5 -37.5t-2.5 -29.5q0 -37 33 -37q10 0 20.5 2t19.5 5v-43q-27 -11 -56 -11z" />
    <glyph glyph-name="u" unicode="u" horiz-adv-x="386" 
d="M114 -10q-42 0 -65 23.5t-23 68.5q0 21 5 51t10 56l73 342h52l-73 -341q-6 -26 -10.5 -51t-4.5 -47q0 -55 51 -55q50 0 82.5 53t53.5 154l61 287h52l-112 -531h-42l10 73h-2q-20 -40 -51 -61.5t-67 -21.5z" />
    <glyph glyph-name="v" unicode="v" horiz-adv-x="304" 
d="M64 0l-6 531h51v-329q0 -26 -0.5 -60.5t-2.5 -61.5h3q10 28 20.5 53t20.5 51l150 347h54l-234 -531h-56z" />
    <glyph glyph-name="w" unicode="w" horiz-adv-x="502" 
d="M56 -1l7 532h49l-6 -337q0 -30 -1 -57.5t-3 -53.5h2q7 24 18.5 53.5t21.5 53.5l136 341h57l-8 -337q-1 -22 -2.5 -53.5t-3.5 -59.5h2q10 28 20.5 56.5t22.5 59.5l128 334h52l-211 -532h-58l10 362q1 22 1.5 46.5t3.5 48.5h-2q-7 -22 -14.5 -42.5t-15.5 -41.5l-148 -373
h-58z" />
    <glyph glyph-name="x" unicode="x" horiz-adv-x="314" 
d="M-44 0l171 277l-49 254h53l37 -211l124 211h58l-162 -261l54 -270h-54l-40 226l-136 -226h-56z" />
    <glyph glyph-name="y" unicode="y" horiz-adv-x="317" 
d="M-57 -242q-30 0 -47 10l8 47q8 -4 17.5 -6.5t21.5 -2.5q30 0 50.5 22.5t40.5 69.5l48 110l-10 523h52l2 -341v-50.5t-2 -53.5h2q9 27 19.5 53.5t18.5 45.5l150 346h54l-285 -645q-29 -63 -59 -95.5t-81 -32.5z" />
    <glyph glyph-name="z" unicode="z" horiz-adv-x="256" 
d="M-34 0l8 38l248 448h-142l10 45h198l-9 -39l-247 -446h157l-10 -46h-213z" />
    <glyph glyph-name="braceleft" unicode="{" horiz-adv-x="319" 
d="M192 -158q-65 0 -95.5 27t-30.5 78q0 12 2.5 25.5t4.5 27.5l31 148q6 27 6 48q0 32 -18.5 46t-63.5 14l10 44q54 0 81 22t39 78l38 181q16 76 58 104.5t122 28.5h4l-10 -45q-58 -1 -85 -23t-39 -77l-38 -181q-10 -48 -35 -75.5t-72 -34.5v-2q30 -8 45.5 -26t15.5 -51
q0 -19 -6 -48l-32 -152q-2 -13 -3.5 -24.5t-1.5 -20.5q0 -37 19.5 -52t64.5 -15l-4 -45h-7z" />
    <glyph glyph-name="bar" unicode="|" horiz-adv-x="354" 
d="M151 -240v1002h48v-1002h-48z" />
    <glyph glyph-name="braceright" unicode="}" horiz-adv-x="318" 
d="M-63 -158l3 45q61 0 89.5 23.5t39.5 76.5l38 180q10 48 35.5 75.5t71.5 35.5v2q-30 7 -46 25t-16 51q0 21 6 48l32 152q6 27 6 46q0 36 -20.5 51t-65.5 16l10 45h8q63 0 91.5 -26.5t28.5 -77.5q0 -26 -6 -54l-32 -148q-6 -27 -6 -48q0 -33 18.5 -46.5t63.5 -13.5l-9 -45
q-55 0 -82 -21.5t-38 -77.5l-39 -181q-16 -75 -57 -104t-119 -29h-5z" />
    <glyph glyph-name="asciitilde" unicode="~" horiz-adv-x="414" 
d="M208 330q-20 12 -40 20t-40 8q-50 0 -94 -56v56q19 21 42.5 34.5t53.5 13.5q26 0 47 -8.5t45 -21.5q22 -14 39 -21t37 -7q24 0 48.5 14t43.5 40v-55q-16 -20 -40 -32.5t-53 -12.5q-27 0 -47 8t-42 20z" />
    <glyph glyph-name="uni00A0" unicode="&#xa0;" horiz-adv-x="169" 
 />
    <glyph glyph-name="exclamdown" unicode="&#xa1;" horiz-adv-x="219" 
d="M154 442q-28 0 -28 35q0 23 12.5 42t32.5 19q31 0 31 -33q0 -23 -12.5 -43t-35.5 -20zM-15 -182l126 534h41l-108 -534h-59z" />
    <glyph glyph-name="cent" unicode="&#xa2;" horiz-adv-x="366" 
d="M126 -10l22 104q-42 10 -62.5 47.5t-20.5 109.5q0 44 7.5 94.5t23 100t39 91.5t56 69.5t73.5 33.5l18 84h40l-18 -83q16 -2 31 -6t25 -10l-20 -45q-24 15 -54 15q-40 0 -71.5 -32.5t-53.5 -84.5t-33 -111.5t-11 -112.5q0 -64 18.5 -90t56.5 -26q18 0 35.5 5t32.5 13
l10 -42q-18 -10 -39.5 -15.5t-43.5 -6.5l-21 -102h-40z" />
    <glyph glyph-name="sterling" unicode="&#xa3;" horiz-adv-x="368" 
d="M-28 0l9 44q36 13 60 47.5t39 103.5l30 138h-70l10 45h68l40 188q16 73 48.5 115.5t100.5 42.5q34 0 59 -11t45 -29l-27 -42q-15 14 -33.5 24t-44.5 10q-45 0 -65.5 -31t-32.5 -86l-38 -181h110l-9 -45h-109l-30 -137q-14 -67 -35 -100t-46 -48h231l-10 -48h-300z" />
    <glyph glyph-name="currency" unicode="&#xa4;" horiz-adv-x="538" 
d="M466 138l-72 68q-53 -42 -118 -42q-66 0 -119 44l-69 -70l-26 28l68 68q-42 54 -42 120q0 30 10.5 60.5t31.5 57.5l-70 70l27 26l71 -70q27 22 57.5 33t60.5 11q31 0 61 -10.5t57 -32.5l70 69l28 -26l-70 -69q44 -53 44 -119q0 -65 -44 -120l70 -70zM275 204q43 0 77 21
t54 55t20 74q1 40 -20 74t-55.5 55t-74.5 21t-74 -20.5t-55 -55t-21 -74.5q0 -42 20.5 -76t54 -54t74.5 -20z" />
    <glyph glyph-name="yen" unicode="&#xa5;" horiz-adv-x="356" 
d="M83 0l31 142h-96l8 42h96l21 97h-95l9 41h86l-22 392h52l13 -352l162 352h54l-188 -392h88l-8 -41h-98l-22 -97h98l-8 -42h-98l-31 -142h-52z" />
    <glyph glyph-name="brokenbar" unicode="&#xa6;" horiz-adv-x="354" 
d="M150 380v380h49v-380h-49zM150 -240v382h49v-382h-49z" />
    <glyph glyph-name="section" unicode="&#xa7;" horiz-adv-x="317" 
d="M92 45q-35 0 -61.5 7.5t-42.5 17.5v50q19 -15 45.5 -24t56.5 -9q48 0 77 27.5t29 71.5q0 32 -18 54t-48 44q-32 22 -56.5 49t-24.5 71t24 75t71 53q-22 21 -32 44t-10 50q0 56 37 94t101 40q34 0 62 -9.5t49 -24.5l-23 -37q-38 29 -86 29q-40 0 -65 -24t-25 -64
q0 -33 17 -53.5t43 -39.5q40 -28 61 -55.5t21 -61.5q0 -45 -24 -78.5t-64 -59.5q16 -16 28 -40t12 -52q0 -63 -43 -104t-111 -41zM180 308q31 20 48.5 45t17.5 57q0 31 -18 52.5t-54 45.5q-77 -30 -77 -97q0 -31 21.5 -53t61.5 -50z" />
    <glyph glyph-name="dieresis" unicode="&#xa8;" horiz-adv-x="470" 
d="M346 639q-26 0 -26 30q0 19 10 36t30 17q25 0 25 -28q0 -21 -10.5 -38t-28.5 -17zM208 639q-26 0 -26 30q0 19 10 36t30 17q25 0 25 -28q0 -21 -10.5 -38t-28.5 -17z" />
    <glyph glyph-name="copyright" unicode="&#xa9;" horiz-adv-x="830" 
d="M414 -9q-84 0 -151.5 28t-115.5 78t-73.5 116.5t-25.5 143.5q0 82 28 149.5t78 116t117 74.5t145 26q82 0 149 -28t115.5 -78t75 -117t26.5 -144q0 -79 -27 -145.5t-76 -116t-116.5 -76.5t-148.5 -27zM414 30q98 0 171.5 43.5t114 118t40.5 165.5q0 93 -41.5 167
t-115 117t-169.5 43t-169 -43t-114 -117t-41 -167q0 -95 41 -169t114 -116t169 -42zM434 138q-96 0 -150 56t-54 162q0 101 53 160.5t150 59.5q67 0 123 -28l-18 -38q-50 22 -104 22q-74 0 -114 -46t-40 -128q0 -90 41 -133.5t117 -43.5q50 0 107 22v-42q-54 -23 -111 -23z
" />
    <glyph glyph-name="ordfeminine" unicode="&#xaa;" horiz-adv-x="252" 
d="M144 392q-32 0 -56 26t-24 86q0 38 8.5 76t26 70.5t43.5 52t61 19.5q30 0 44.5 -15t20.5 -35h3l15 44h31l-66 -318h-33l7 48h-3q-14 -26 -32.5 -40t-45.5 -14zM153 430q27 0 45 21t29 52t16 60.5t5 46.5q0 35 -11 54.5t-37 19.5q-30 0 -50.5 -28t-31 -68.5t-10.5 -79.5
q0 -41 11.5 -59.5t33.5 -18.5z" />
    <glyph glyph-name="guillemotleft" unicode="&#xab;" horiz-adv-x="381" 
d="M115 70l-86 187l2 13l161 176l33 -23l-139 -163l68 -173zM273 70l-87 187l2 13l162 176l32 -23l-138 -163l68 -173z" />
    <glyph glyph-name="logicalnot" unicode="&#xac;" horiz-adv-x="414" 
d="M380 375v-255h-48v208h-295v47h343z" />
    <glyph glyph-name="uni00AD" unicode="&#xad;" horiz-adv-x="260" 
d="M20 246l7 50h210l-7 -50h-210z" />
    <glyph glyph-name="registered" unicode="&#xae;" horiz-adv-x="830" 
d="M414 -9q-84 0 -151.5 28t-115.5 78t-73.5 116.5t-25.5 143.5q0 82 28 149.5t78 116t117 74.5t145 26q82 0 149 -28t115.5 -78t75 -117t26.5 -144q0 -79 -27 -145.5t-76 -116t-116.5 -76.5t-148.5 -27zM414 30q98 0 171.5 43.5t114 118t40.5 165.5q0 93 -41.5 167
t-115 117t-169.5 43t-169 -43t-114 -117t-41 -167q0 -95 41 -169t114 -116t169 -42zM290 144v428h118q68 0 108 -30t40 -94q0 -48 -22.5 -76t-59.5 -42l96 -186h-54l-88 176h-90v-176h-48zM337 358h66q45 0 74 21t29 68q0 44 -27 63.5t-75 19.5h-67v-172z" />
    <glyph glyph-name="overscore" unicode="&#xaf;" horiz-adv-x="375" 
d="M98 760l10 43h380l-10 -43h-380z" />
    <glyph glyph-name="degree" unicode="&#xb0;" horiz-adv-x="362" 
d="M180 467q-56 0 -92.5 34.5t-36.5 94.5q0 59 37.5 93t91.5 34t92 -34.5t38 -93.5t-37 -93.5t-93 -34.5zM180 504q39 0 64 25.5t25 66.5q0 40 -24.5 65t-64.5 25q-41 0 -64.5 -26t-23.5 -64q0 -43 25 -67.5t63 -24.5z" />
    <glyph glyph-name="plusminus" unicode="&#xb1;" horiz-adv-x="414" 
d="M236 384h152v-46h-152v-208h-47v208h-155v46h155v211h47v-211zM38 1v46h348v-46h-348z" />
    <glyph glyph-name="uni00B2" unicode="&#xb2;" horiz-adv-x="271" 
d="M44 416l6 36l118 134q39 45 70 87t31 87q0 27 -14 41.5t-39 14.5q-21 0 -39 -9t-35 -23l-18 32q20 18 44.5 29t55.5 11q42 0 66 -24t24 -66q0 -56 -34 -104t-78 -96l-100 -110h157l-9 -40h-206z" />
    <glyph glyph-name="uni00B3" unicode="&#xb3;" horiz-adv-x="271" 
d="M134 408q-28 0 -48 5.5t-34 14.5v44q16 -10 36.5 -17t46.5 -7q47 0 71 29t24 69t-20 57t-50 17h-27l7 38h27q35 0 58 15t33.5 38t10.5 47q0 26 -13.5 42t-39.5 16q-22 0 -40.5 -8.5t-34.5 -21.5l-19 32q19 16 44 27t56 11q47 0 69.5 -27t22.5 -65q0 -46 -25.5 -79.5
t-66.5 -44.5l-2 -2q22 -9 38.5 -30.5t16.5 -59.5q0 -57 -35.5 -98.5t-105.5 -41.5z" />
    <glyph glyph-name="acute" unicode="&#xb4;" horiz-adv-x="226" 
d="M114 606v8q36 39 67 79.5t49 72.5h62l-1 -8q-14 -20 -40.5 -50t-55.5 -58t-50 -44h-31z" />
    <glyph glyph-name="uni03BC" unicode="&#x3bc;" horiz-adv-x="386" 
d="M-50 -240l164 771h51l-72 -341q-5 -26 -8.5 -47t-3.5 -38q0 -31 13.5 -49t41.5 -18q48 0 77 49.5t51 154.5l62 289h51l-112 -531h-41l8 64h-2q-20 -37 -44.5 -55.5t-57.5 -18.5q-29 0 -45.5 14t-23.5 35h-2q-1 -17 -4 -32t-6 -32l-46 -215h-51z" />
    <glyph glyph-name="paragraph" unicode="&#xb6;" horiz-adv-x="430" 
d="M222 -127v508q-13 -7 -32 -7q-50 0 -76 51.5t-26 138.5q0 98 33 147t94 49h165v-887h-40v849h-78v-849h-40z" />
    <glyph glyph-name="periodcentered" unicode="&#xb7;" horiz-adv-x="188" 
d="M103 304q-30 0 -30 33q0 23 12 42.5t34 19.5q29 0 29 -34q0 -23 -12.5 -42t-32.5 -19z" />
    <glyph glyph-name="cedilla" unicode="&#xb8;" horiz-adv-x="202" 
d="M-10 -240q-20 0 -34 2t-26 5v38q8 -3 22 -5t35 -2q37 0 58 19t21 47q0 26 -19 39t-57 17l54 80h36l-40 -58q33 -6 52 -25t19 -49q0 -50 -34.5 -79t-86.5 -29z" />
    <glyph glyph-name="uni00B9" unicode="&#xb9;" horiz-adv-x="271" 
d="M146 416l72 333q3 13 6 24t5 21q-10 -10 -17.5 -16.5t-15.5 -11.5l-62 -44l-20 32l125 90h43l-92 -428h-44z" />
    <glyph glyph-name="ordmasculine" unicode="&#xba;" horiz-adv-x="253" 
d="M156 390q-42 0 -62 28t-20 78q0 34 8 73.5t24.5 74t42.5 56.5t63 22q38 0 60 -25t22 -80q0 -36 -8.5 -76t-26 -74t-43.5 -55.5t-60 -21.5zM160 429q24 0 41 18.5t28 47.5t16 61t5 58q0 34 -10 52t-33 18t-40.5 -18.5t-28.5 -47.5t-16.5 -61t-5.5 -59q0 -69 44 -69z" />
    <glyph glyph-name="guillemotright" unicode="&#xbb;" horiz-adv-x="383" 
d="M183 70l-33 24l138 162l-67 174l39 16l86 -186l-2 -14zM25 70l-33 24l138 162l-67 174l39 16l86 -186l-2 -14z" />
    <glyph glyph-name="onequarter" unicode="&#xbc;" horiz-adv-x="602" 
d="M10 0l544 714h50l-544 -714h-50zM123 286l72 333q3 13 6 24t5 21q-10 -10 -17.5 -16.5t-15.5 -11.5l-62 -44l-20 32l125 90h43l-92 -428h-44zM427 0l22 104h-144l4 34l210 293h43l-62 -289h45l-8 -38h-44l-24 -104h-42zM354 142h103l32 148q4 20 8 38t8 32
q-9 -15 -18 -29.5t-22 -31.5z" />
    <glyph glyph-name="onehalf" unicode="&#xbd;" horiz-adv-x="649" 
d="M6 0l544 714h50l-544 -714h-50zM123 286l72 333q3 13 6 24t5 21q-10 -10 -17.5 -16.5t-15.5 -11.5l-62 -44l-20 32l125 90h43l-92 -428h-44zM341 0l6 36l118 134q39 45 70 87t31 87q0 27 -14 41.5t-39 14.5q-21 0 -39 -9t-35 -23l-18 32q20 18 44.5 29t55.5 11
q42 0 66 -24t24 -66q0 -56 -34 -104t-78 -96l-100 -110h157l-9 -40h-206z" />
    <glyph glyph-name="threequarters" unicode="&#xbe;" horiz-adv-x="612" 
d="M110 278q-28 0 -48 5.5t-34 14.5v44q16 -10 36.5 -17t46.5 -7q47 0 71 29t24 69t-20 57t-50 17h-27l7 38h27q35 0 58 15t33.5 38t10.5 47q0 26 -13.5 42t-39.5 16q-22 0 -40.5 -8.5t-34.5 -21.5l-19 32q19 16 44 27t56 11q47 0 69.5 -27t22.5 -65q0 -46 -25.5 -79.5
t-66.5 -44.5l-2 -2q22 -9 38.5 -30.5t16.5 -59.5q0 -57 -35.5 -98.5t-105.5 -41.5zM26 0l544 714h50l-544 -714h-50zM438 0l22 104h-144l4 34l210 293h43l-62 -289h45l-8 -38h-44l-24 -104h-42zM365 142h103l32 148q4 20 8 38t8 32q-9 -15 -18 -29.5t-22 -31.5z" />
    <glyph glyph-name="questiondown" unicode="&#xbf;" horiz-adv-x="259" 
d="M204 342q-10 -50 -21.5 -85.5t-29.5 -66.5t-47 -67q-32 -39 -55.5 -69t-36 -61.5t-12.5 -72.5q0 -35 18 -53.5t50 -18.5q26 0 47 9t39 22l14 -41q-24 -18 -52 -28t-58 -10q-52 0 -81 30t-29 82q0 65 31 116.5t79 107.5q32 38 51 67t30 61t19 78h44zM212 528q30 0 30 -33
q0 -23 -11.5 -42.5t-35.5 -19.5q-28 0 -28 34q0 23 12.5 42t32.5 19z" />
    <glyph glyph-name="Agrave" unicode="&#xc0;" horiz-adv-x="365" 
d="M-66 0l296 717h68v-717h-54v256h-148l-105 -256h-57zM114 304h132l3 274q0 48 3 79h-3q-5 -16 -11.5 -35t-15.5 -44zM292 793q-13 18 -29.5 44.5t-31 54.5t-22.5 51v8h57q13 -38 26 -75t31 -74v-9h-31z" />
    <glyph glyph-name="Aacute" unicode="&#xc1;" horiz-adv-x="365" 
d="M-66 0l296 717h68v-717h-54v256h-148l-105 -256h-57zM114 304h132l3 274q0 48 3 79h-3q-5 -16 -11.5 -35t-15.5 -44zM242 790v8q36 39 67 79.5t49 72.5h62l-1 -8q-14 -20 -40.5 -50t-55.5 -58t-50 -44h-31z" />
    <glyph glyph-name="Acircumflex" unicode="&#xc2;" horiz-adv-x="365" 
d="M-66 0l296 717h68v-717h-54v256h-148l-105 -256h-57zM114 304h132l3 274q0 48 3 79h-3q-5 -16 -11.5 -35t-15.5 -44zM155 790l1 9q32 33 64 73.5t54 77.5h45q3 -19 13 -48.5t22 -57.5t20 -45l-2 -9h-26q-14 21 -30 49t-28 58q-24 -29 -51 -57t-55 -50h-27z" />
    <glyph glyph-name="Atilde" unicode="&#xc3;" horiz-adv-x="365" 
d="M-66 0l296 717h68v-717h-54v256h-148l-105 -256h-57zM114 304h132l3 274q0 48 3 79h-3q-5 -16 -11.5 -35t-15.5 -44zM141 794q9 52 30.5 80t57.5 28q20 0 35 -9.5t27 -21.5t23 -21.5t25 -9.5q17 0 27.5 14t18.5 48h37q-10 -57 -31.5 -82.5t-53.5 -25.5q-20 0 -34.5 9.5
t-26 22.5t-23.5 22.5t-26 9.5q-21 0 -32.5 -17t-17.5 -47h-36z" />
    <glyph glyph-name="Adieresis" unicode="&#xc4;" horiz-adv-x="365" 
d="M-66 0l296 717h68v-717h-54v256h-148l-105 -256h-57zM114 304h132l3 274q0 48 3 79h-3q-5 -16 -11.5 -35t-15.5 -44zM337 823q-26 0 -26 30q0 19 10 36t30 17q25 0 25 -28q0 -21 -10.5 -38t-28.5 -17zM199 823q-26 0 -26 30q0 19 10 36t30 17q25 0 25 -28
q0 -21 -10.5 -38t-28.5 -17z" />
    <glyph glyph-name="Aring" unicode="&#xc5;" horiz-adv-x="365" 
d="M-66 0l296 717h68v-717h-54v256h-148l-105 -256h-57zM114 304h132l3 274q0 48 3 79h-3q-5 -16 -11.5 -35t-15.5 -44zM283 792q-44 0 -69 25t-25 69q0 40 25 66t69 26t68 -26t25 -66q0 -40 -24.5 -67t-68.5 -27zM283 827q27 0 42.5 16t15.5 43q0 26 -15 42t-43 16
t-43 -16.5t-15 -41.5q0 -27 15 -43t43 -16z" />
    <glyph glyph-name="AE" unicode="&#xc6;" horiz-adv-x="514" 
d="M-70 0l336 714h293l-10 -48h-189l-56 -268h176l-10 -48h-178l-64 -302h190l-10 -48h-242l54 257h-114l-119 -257h-57zM129 306h102l77 359h-14z" />
    <glyph glyph-name="Ccedilla" unicode="&#xc7;" horiz-adv-x="362" 
d="M190 -10q-76 0 -115 56.5t-39 175.5q0 56 11.5 123t35 134t60 122.5t85.5 89.5t111 34q32 0 56 -8t43 -23l-29 -43q-26 25 -71 25q-50 0 -90 -31.5t-69.5 -82.5t-49 -111.5t-29 -119.5t-9.5 -105q0 -99 26.5 -143.5t82.5 -44.5q19 0 39.5 5.5t44.5 14.5v-50
q-48 -18 -94 -18zM88 -240q-20 0 -34 2t-26 5v38q8 -3 22 -5t35 -2q37 0 58 19t21 47q0 26 -19 39t-57 17l54 80h36l-40 -58q33 -6 52 -25t19 -49q0 -50 -34.5 -79t-86.5 -29z" />
    <glyph glyph-name="Egrave" unicode="&#xc8;" horiz-adv-x="352" 
d="M1 0l151 714h242l-10 -48h-188l-57 -268h177l-12 -48h-176l-64 -302h189l-10 -48h-242zM287 792q-13 18 -29.5 44.5t-31 54.5t-22.5 51v8h57q13 -38 26 -75t31 -74v-9h-31z" />
    <glyph glyph-name="Eacute" unicode="&#xc9;" horiz-adv-x="352" 
d="M1 0l151 714h242l-10 -48h-188l-57 -268h177l-12 -48h-176l-64 -302h189l-10 -48h-242zM236 790v8q36 39 67 79.5t49 72.5h62l-1 -8q-14 -20 -40.5 -50t-55.5 -58t-50 -44h-31z" />
    <glyph glyph-name="Ecircumflex" unicode="&#xca;" horiz-adv-x="352" 
d="M1 0l151 714h242l-10 -48h-188l-57 -268h177l-12 -48h-176l-64 -302h189l-10 -48h-242zM169 771l1 9q32 33 64 73.5t54 77.5h45q3 -19 13 -48.5t22 -57.5t20 -45l-2 -9h-26q-14 21 -30 49t-28 58q-24 -29 -51 -57t-55 -50h-27z" />
    <glyph glyph-name="Edieresis" unicode="&#xcb;" horiz-adv-x="352" 
d="M1 0l151 714h242l-10 -48h-188l-57 -268h177l-12 -48h-176l-64 -302h189l-10 -48h-242zM346 804q-26 0 -26 30q0 19 10 36t30 17q25 0 25 -28q0 -21 -10.5 -38t-28.5 -17zM208 804q-26 0 -26 30q0 19 10 36t30 17q25 0 25 -28q0 -21 -10.5 -38t-28.5 -17z" />
    <glyph glyph-name="Igrave" unicode="&#xcc;" horiz-adv-x="212" 
d="M-54 0l6 32l70 9l134 631l-66 10l7 32h187l-8 -32l-68 -10l-134 -631l64 -9l-6 -32h-186zM216 792q-13 18 -29.5 44.5t-31 54.5t-22.5 51v8h57q13 -38 26 -75t31 -74v-9h-31z" />
    <glyph glyph-name="Iacute" unicode="&#xcd;" horiz-adv-x="212" 
d="M-54 0l6 32l70 9l134 631l-66 10l7 32h187l-8 -32l-68 -10l-134 -631l64 -9l-6 -32h-186zM166 790v8q36 39 67 79.5t49 72.5h62l-1 -8q-14 -20 -40.5 -50t-55.5 -58t-50 -44h-31z" />
    <glyph glyph-name="Icircumflex" unicode="&#xce;" horiz-adv-x="212" 
d="M-54 0l6 32l70 9l134 631l-66 10l7 32h187l-8 -32l-68 -10l-134 -631l64 -9l-6 -32h-186zM98 793l1 9q32 33 64 73.5t54 77.5h45q3 -19 13 -48.5t22 -57.5t20 -45l-2 -9h-26q-14 21 -30 49t-28 58q-24 -29 -51 -57t-55 -50h-27z" />
    <glyph glyph-name="Idieresis" unicode="&#xcf;" horiz-adv-x="212" 
d="M-54 0l6 32l70 9l134 631l-66 10l7 32h187l-8 -32l-68 -10l-134 -631l64 -9l-6 -32h-186zM279 826q-26 0 -26 30q0 19 10 36t30 17q25 0 25 -28q0 -21 -10.5 -38t-28.5 -17zM141 826q-26 0 -26 30q0 19 10 36t30 17q25 0 25 -28q0 -21 -10.5 -38t-28.5 -17z" />
    <glyph glyph-name="Eth" unicode="&#xd0;" horiz-adv-x="441" 
d="M2 0l73 348h-51l10 45h50l68 321h96q84 0 128.5 -51t44.5 -157q0 -61 -10.5 -130.5t-34 -136t-60.5 -120.5t-90.5 -86.5t-123.5 -32.5h-100zM64 49h43q57 0 100 30.5t73 80.5t48.5 110.5t27 121.5t8.5 112q0 88 -30.5 124.5t-91.5 36.5h-46l-58 -272h92l-10 -45h-93z" />
    <glyph glyph-name="Ntilde" unicode="&#xd1;" horiz-adv-x="487" 
d="M1 0l151 714h64l108 -612h2q8 44 16.5 86t13.5 68l97 458h53l-152 -714h-62l-108 620h-2q-6 -38 -15 -83t-17 -80l-97 -457h-52zM201 775q9 52 30.5 80t57.5 28q20 0 35 -9.5t27 -21.5t23 -21.5t25 -9.5q17 0 27.5 14t18.5 48h37q-10 -57 -31.5 -82.5t-53.5 -25.5
q-20 0 -34.5 9.5t-26 22.5t-23.5 22.5t-26 9.5q-21 0 -32.5 -17t-17.5 -47h-36z" />
    <glyph glyph-name="Ograve" unicode="&#xd2;" horiz-adv-x="470" 
d="M176 -10q-70 0 -106 49.5t-36 153.5q0 60 10.5 131.5t32.5 141.5t55.5 128.5t78.5 94t103 35.5q69 0 103.5 -46.5t34.5 -145.5q0 -46 -6.5 -103.5t-20.5 -118.5t-36 -118t-53 -102.5t-70.5 -72.5t-89.5 -27zM180 39q45 0 80 34.5t61 91t43 122.5t25.5 130.5t8.5 114.5
q0 75 -21.5 109.5t-67.5 34.5q-39 0 -70.5 -25.5t-55.5 -67.5t-42 -94t-29.5 -106.5t-17 -103.5t-5.5 -85q0 -82 23.5 -118.5t67.5 -36.5zM345 792q-13 18 -29.5 44.5t-31 54.5t-22.5 51v8h57q13 -38 26 -75t31 -74v-9h-31z" />
    <glyph glyph-name="Oacute" unicode="&#xd3;" horiz-adv-x="470" 
d="M176 -10q-70 0 -106 49.5t-36 153.5q0 60 10.5 131.5t32.5 141.5t55.5 128.5t78.5 94t103 35.5q69 0 103.5 -46.5t34.5 -145.5q0 -46 -6.5 -103.5t-20.5 -118.5t-36 -118t-53 -102.5t-70.5 -72.5t-89.5 -27zM180 39q45 0 80 34.5t61 91t43 122.5t25.5 130.5t8.5 114.5
q0 75 -21.5 109.5t-67.5 34.5q-39 0 -70.5 -25.5t-55.5 -67.5t-42 -94t-29.5 -106.5t-17 -103.5t-5.5 -85q0 -82 23.5 -118.5t67.5 -36.5zM295 790v8q36 39 67 79.5t49 72.5h62l-1 -8q-14 -20 -40.5 -50t-55.5 -58t-50 -44h-31z" />
    <glyph glyph-name="Ocircumflex" unicode="&#xd4;" horiz-adv-x="470" 
d="M176 -10q-70 0 -106 49.5t-36 153.5q0 60 10.5 131.5t32.5 141.5t55.5 128.5t78.5 94t103 35.5q69 0 103.5 -46.5t34.5 -145.5q0 -46 -6.5 -103.5t-20.5 -118.5t-36 -118t-53 -102.5t-70.5 -72.5t-89.5 -27zM180 39q45 0 80 34.5t61 91t43 122.5t25.5 130.5t8.5 114.5
q0 75 -21.5 109.5t-67.5 34.5q-39 0 -70.5 -25.5t-55.5 -67.5t-42 -94t-29.5 -106.5t-17 -103.5t-5.5 -85q0 -82 23.5 -118.5t67.5 -36.5zM209 771l1 9q32 33 64 73.5t54 77.5h45q3 -19 13 -48.5t22 -57.5t20 -45l-2 -9h-26q-14 21 -30 49t-28 58q-24 -29 -51 -57t-55 -50
h-27z" />
    <glyph glyph-name="Otilde" unicode="&#xd5;" horiz-adv-x="470" 
d="M176 -10q-70 0 -106 49.5t-36 153.5q0 60 10.5 131.5t32.5 141.5t55.5 128.5t78.5 94t103 35.5q69 0 103.5 -46.5t34.5 -145.5q0 -46 -6.5 -103.5t-20.5 -118.5t-36 -118t-53 -102.5t-70.5 -72.5t-89.5 -27zM180 39q45 0 80 34.5t61 91t43 122.5t25.5 130.5t8.5 114.5
q0 75 -21.5 109.5t-67.5 34.5q-39 0 -70.5 -25.5t-55.5 -67.5t-42 -94t-29.5 -106.5t-17 -103.5t-5.5 -85q0 -82 23.5 -118.5t67.5 -36.5zM192 775q9 52 30.5 80t57.5 28q20 0 35 -9.5t27 -21.5t23 -21.5t25 -9.5q17 0 27.5 14t18.5 48h37q-10 -57 -31.5 -82.5t-53.5 -25.5
q-20 0 -34.5 9.5t-26 22.5t-23.5 22.5t-26 9.5q-21 0 -32.5 -17t-17.5 -47h-36z" />
    <glyph glyph-name="Odieresis" unicode="&#xd6;" horiz-adv-x="470" 
d="M176 -10q-70 0 -106 49.5t-36 153.5q0 60 10.5 131.5t32.5 141.5t55.5 128.5t78.5 94t103 35.5q69 0 103.5 -46.5t34.5 -145.5q0 -46 -6.5 -103.5t-20.5 -118.5t-36 -118t-53 -102.5t-70.5 -72.5t-89.5 -27zM180 39q45 0 80 34.5t61 91t43 122.5t25.5 130.5t8.5 114.5
q0 75 -21.5 109.5t-67.5 34.5q-39 0 -70.5 -25.5t-55.5 -67.5t-42 -94t-29.5 -106.5t-17 -103.5t-5.5 -85q0 -82 23.5 -118.5t67.5 -36.5zM393 804q-26 0 -26 30q0 19 10 36t30 17q25 0 25 -28q0 -21 -10.5 -38t-28.5 -17zM255 804q-26 0 -26 30q0 19 10 36t30 17
q25 0 25 -28q0 -21 -10.5 -38t-28.5 -17z" />
    <glyph glyph-name="multiply" unicode="&#xd7;" horiz-adv-x="414" 
d="M352 526l32 -31l-140 -141l138 -140l-32 -32l-138 140l-140 -140l-31 31l139 141l-138 139l31 31l139 -139z" />
    <glyph glyph-name="Oslash" unicode="&#xd8;" horiz-adv-x="472" 
d="M15 -44l-32 18l67 108q-8 22 -12 49.5t-4 61.5q0 60 10.5 131.5t32.5 141.5t55.5 128.5t78.5 94t103 35.5q71 0 105 -54l53 86l34 -20l-66 -105q12 -41 12 -99q0 -46 -6.5 -103.5t-20.5 -118.5t-36 -118t-53 -102.5t-70.5 -72.5t-89.5 -27q-71 0 -104 54zM93 148l294 470
q-20 58 -78 58q-38 0 -69 -24.5t-55 -65t-41.5 -91t-29 -103.5t-17.5 -101t-7 -84q0 -32 3 -59zM180 39q44 0 78.5 33t60 87.5t42.5 118.5t25.5 127t9.5 113q1 13 0.5 24.5t-1.5 21.5l-292 -468q11 -30 30.5 -43.5t46.5 -13.5z" />
    <glyph glyph-name="Ugrave" unicode="&#xd9;" horiz-adv-x="448" 
d="M165 -10q-61 0 -97 36t-36 103q0 18 3 40.5t7 46.5l106 498h54l-107 -500q-5 -22 -7 -43t-2 -37q0 -48 22.5 -71.5t61.5 -23.5q62 0 91.5 47.5t50.5 141.5l106 486h52l-106 -490q-15 -72 -38.5 -124.5t-61.5 -81t-99 -28.5zM334 792q-13 18 -29.5 44.5t-31 54.5t-22.5 51
v8h57q13 -38 26 -75t31 -74v-9h-31z" />
    <glyph glyph-name="Uacute" unicode="&#xda;" horiz-adv-x="448" 
d="M165 -10q-61 0 -97 36t-36 103q0 18 3 40.5t7 46.5l106 498h54l-107 -500q-5 -22 -7 -43t-2 -37q0 -48 22.5 -71.5t61.5 -23.5q62 0 91.5 47.5t50.5 141.5l106 486h52l-106 -490q-15 -72 -38.5 -124.5t-61.5 -81t-99 -28.5zM284 790v8q36 39 67 79.5t49 72.5h62l-1 -8
q-14 -20 -40.5 -50t-55.5 -58t-50 -44h-31z" />
    <glyph glyph-name="Ucircumflex" unicode="&#xdb;" horiz-adv-x="448" 
d="M165 -10q-61 0 -97 36t-36 103q0 18 3 40.5t7 46.5l106 498h54l-107 -500q-5 -22 -7 -43t-2 -37q0 -48 22.5 -71.5t61.5 -23.5q62 0 91.5 47.5t50.5 141.5l106 486h52l-106 -490q-15 -72 -38.5 -124.5t-61.5 -81t-99 -28.5zM206 771l1 9q32 33 64 73.5t54 77.5h45
q3 -19 13 -48.5t22 -57.5t20 -45l-2 -9h-26q-14 21 -30 49t-28 58q-24 -29 -51 -57t-55 -50h-27z" />
    <glyph glyph-name="Udieresis" unicode="&#xdc;" horiz-adv-x="448" 
d="M165 -10q-61 0 -97 36t-36 103q0 18 3 40.5t7 46.5l106 498h54l-107 -500q-5 -22 -7 -43t-2 -37q0 -48 22.5 -71.5t61.5 -23.5q62 0 91.5 47.5t50.5 141.5l106 486h52l-106 -490q-15 -72 -38.5 -124.5t-61.5 -81t-99 -28.5zM384 804q-26 0 -26 30q0 19 10 36t30 17
q25 0 25 -28q0 -21 -10.5 -38t-28.5 -17zM246 804q-26 0 -26 30q0 19 10 36t30 17q25 0 25 -28q0 -21 -10.5 -38t-28.5 -17z" />
    <glyph glyph-name="Yacute" unicode="&#xdd;" horiz-adv-x="322" 
d="M68 0l58 276l-42 438h54l30 -363l182 363h58l-228 -436l-59 -278h-53zM222 790v8q36 39 67 79.5t49 72.5h62l-1 -8q-14 -20 -40.5 -50t-55.5 -58t-50 -44h-31z" />
    <glyph glyph-name="Thorn" unicode="&#xde;" horiz-adv-x="376" 
d="M1 0l151 714h54l-28 -129h33q77 0 116.5 -40.5t39.5 -110.5q0 -77 -27.5 -138t-79 -96.5t-124.5 -35.5h-48l-34 -164h-53zM99 212h35q60 0 99.5 28t59 77t19.5 111q0 52 -25.5 80t-82.5 28h-36z" />
    <glyph glyph-name="germandbls" unicode="&#xdf;" horiz-adv-x="370" 
d="M-92 -240q-15 0 -26 2t-20 6v48q18 -8 40 -8q34 0 49 29t27 87l144 672q18 86 53 127.5t97 41.5q51 0 78.5 -29t27.5 -75q0 -47 -20 -82.5t-57 -74.5q-29 -32 -43.5 -57t-14.5 -57q0 -23 10 -49t24 -55q14 -26 26.5 -58.5t12.5 -71.5q0 -72 -40 -119t-110 -47
q-26 0 -48 6t-36 16l5 51q19 -13 39.5 -19.5t41.5 -6.5q43 0 68.5 31.5t25.5 83.5q0 30 -9.5 57t-24.5 57q-16 30 -27 60t-11 60q0 66 60 129q34 37 54 67.5t20 74.5q0 29 -15.5 45t-40.5 16q-38 0 -59 -30.5t-35 -93.5l-145 -675q-10 -45 -22.5 -81t-35.5 -57t-63 -21z" />
    <glyph glyph-name="agrave" unicode="&#xe0;" horiz-adv-x="401" 
d="M128 -10q-50 0 -76 38t-26 110q0 46 8.5 100t25.5 107.5t42.5 98t60 71t77.5 26.5q38 0 59 -23t29 -62h2l21 75h43l-112 -531h-42l12 83h-2q-26 -43 -54.5 -68t-67.5 -25zM142 36q36 0 62 28.5t44.5 73.5t31.5 94q12 48 19 92.5t7 82.5q0 40 -16.5 63.5t-45.5 23.5
q-31 0 -57 -23.5t-46 -62.5t-33.5 -85.5t-20.5 -93.5t-7 -87q0 -56 16.5 -81t45.5 -25zM271 609q-13 18 -29.5 44.5t-31 54.5t-22.5 51v8h57q13 -38 26 -75t31 -74v-9h-31z" />
    <glyph glyph-name="aacute" unicode="&#xe1;" horiz-adv-x="401" 
d="M128 -10q-50 0 -76 38t-26 110q0 46 8.5 100t25.5 107.5t42.5 98t60 71t77.5 26.5q38 0 59 -23t29 -62h2l21 75h43l-112 -531h-42l12 83h-2q-26 -43 -54.5 -68t-67.5 -25zM142 36q36 0 62 28.5t44.5 73.5t31.5 94q12 48 19 92.5t7 82.5q0 40 -16.5 63.5t-45.5 23.5
q-31 0 -57 -23.5t-46 -62.5t-33.5 -85.5t-20.5 -93.5t-7 -87q0 -56 16.5 -81t45.5 -25zM222 607v8q36 39 67 79.5t49 72.5h62l-1 -8q-14 -20 -40.5 -50t-55.5 -58t-50 -44h-31z" />
    <glyph glyph-name="acircumflex" unicode="&#xe2;" horiz-adv-x="401" 
d="M128 -10q-50 0 -76 38t-26 110q0 46 8.5 100t25.5 107.5t42.5 98t60 71t77.5 26.5q38 0 59 -23t29 -62h2l21 75h43l-112 -531h-42l12 83h-2q-26 -43 -54.5 -68t-67.5 -25zM142 36q36 0 62 28.5t44.5 73.5t31.5 94q12 48 19 92.5t7 82.5q0 40 -16.5 63.5t-45.5 23.5
q-31 0 -57 -23.5t-46 -62.5t-33.5 -85.5t-20.5 -93.5t-7 -87q0 -56 16.5 -81t45.5 -25zM155 606l1 9q32 33 64 73.5t54 77.5h45q3 -19 13 -48.5t22 -57.5t20 -45l-2 -9h-26q-14 21 -30 49t-28 58q-24 -29 -51 -57t-55 -50h-27z" />
    <glyph glyph-name="atilde" unicode="&#xe3;" horiz-adv-x="401" 
d="M128 -10q-50 0 -76 38t-26 110q0 46 8.5 100t25.5 107.5t42.5 98t60 71t77.5 26.5q38 0 59 -23t29 -62h2l21 75h43l-112 -531h-42l12 83h-2q-26 -43 -54.5 -68t-67.5 -25zM142 36q36 0 62 28.5t44.5 73.5t31.5 94q12 48 19 92.5t7 82.5q0 40 -16.5 63.5t-45.5 23.5
q-31 0 -57 -23.5t-46 -62.5t-33.5 -85.5t-20.5 -93.5t-7 -87q0 -56 16.5 -81t45.5 -25zM141 610q9 52 30.5 80t57.5 28q20 0 35 -9.5t27 -21.5t23 -21.5t25 -9.5q17 0 27.5 14t18.5 48h37q-10 -57 -31.5 -82.5t-53.5 -25.5q-20 0 -34.5 9.5t-26 22.5t-23.5 22.5t-26 9.5
q-21 0 -32.5 -17t-17.5 -47h-36z" />
    <glyph glyph-name="adieresis" unicode="&#xe4;" horiz-adv-x="401" 
d="M128 -10q-50 0 -76 38t-26 110q0 46 8.5 100t25.5 107.5t42.5 98t60 71t77.5 26.5q38 0 59 -23t29 -62h2l21 75h43l-112 -531h-42l12 83h-2q-26 -43 -54.5 -68t-67.5 -25zM142 36q36 0 62 28.5t44.5 73.5t31.5 94q12 48 19 92.5t7 82.5q0 40 -16.5 63.5t-45.5 23.5
q-31 0 -57 -23.5t-46 -62.5t-33.5 -85.5t-20.5 -93.5t-7 -87q0 -56 16.5 -81t45.5 -25zM337 639q-26 0 -26 30q0 19 10 36t30 17q25 0 25 -28q0 -21 -10.5 -38t-28.5 -17zM199 639q-26 0 -26 30q0 19 10 36t30 17q25 0 25 -28q0 -21 -10.5 -38t-28.5 -17z" />
    <glyph glyph-name="aring" unicode="&#xe5;" horiz-adv-x="401" 
d="M128 -10q-50 0 -76 38t-26 110q0 46 8.5 100t25.5 107.5t42.5 98t60 71t77.5 26.5q38 0 59 -23t29 -62h2l21 75h43l-112 -531h-42l12 83h-2q-26 -43 -54.5 -68t-67.5 -25zM142 36q36 0 62 28.5t44.5 73.5t31.5 94q12 48 19 92.5t7 82.5q0 40 -16.5 63.5t-45.5 23.5
q-31 0 -57 -23.5t-46 -62.5t-33.5 -85.5t-20.5 -93.5t-7 -87q0 -56 16.5 -81t45.5 -25zM284 610q-44 0 -69 25t-25 69q0 40 25 66t69 26t68 -26t25 -66q0 -40 -24.5 -67t-68.5 -27zM284 645q27 0 42.5 16t15.5 43q0 26 -15 42t-43 16t-43 -16.5t-15 -41.5q0 -27 15 -43
t43 -16z" />
    <glyph glyph-name="ae" unicode="&#xe6;" horiz-adv-x="588" 
d="M125 -10q-47 0 -73 38t-26 110q0 52 9.5 108t27.5 108.5t44 94.5t59.5 67t73.5 25q35 0 56.5 -22t28.5 -60h3l18 72h38l-16 -77q23 38 53.5 62.5t68.5 24.5q42 0 66.5 -25t24.5 -75q0 -53 -27 -97.5t-81.5 -71t-136.5 -26.5h-6q-4 -21 -6 -43.5t-2 -47.5q0 -59 20 -89.5
t66 -30.5q26 0 49 8t47 22l-4 -49q-22 -12 -46 -19t-56 -7q-89 0 -106 94l-17 -84h-39l14 82h-2q-24 -44 -53 -68t-70 -24zM338 288h4q68 0 109.5 21t60.5 55.5t19 73.5q0 27 -12 42.5t-38 15.5q-31 0 -59 -27.5t-49.5 -74.5t-34.5 -106zM142 36q34 0 60 27t44 71.5t30 95.5
q12 49 19 94t7 84q0 40 -15 63t-43 23q-30 0 -55.5 -22.5t-45.5 -60.5t-34 -84t-21.5 -94t-7.5 -91q0 -56 16.5 -81t45.5 -25z" />
    <glyph glyph-name="ccedilla" unicode="&#xe7;" horiz-adv-x="293" 
d="M146 -10q-58 0 -88 38.5t-30 121.5q0 47 8 100t25 104.5t43.5 94t62 67.5t81.5 25t74 -17l-20 -44q-12 8 -26 11t-28 3q-41 0 -72.5 -33t-52.5 -85t-32 -111t-11 -111q0 -63 19 -90.5t57 -27.5q34 0 72 22v-47q-15 -9 -36.5 -15t-45.5 -6zM43 -240q-20 0 -34 2t-26 5v38
q8 -3 22 -5t35 -2q37 0 58 19t21 47q0 26 -19 39t-57 17l54 80h36l-40 -58q33 -6 52 -25t19 -49q0 -50 -34.5 -79t-86.5 -29z" />
    <glyph glyph-name="egrave" unicode="&#xe8;" horiz-adv-x="354" 
d="M152 -10q-60 0 -93 40t-33 118q0 80 17 151t47 125.5t69.5 85.5t84.5 31q42 0 67.5 -24t25.5 -76q0 -53 -27 -97.5t-81.5 -71t-136.5 -26.5h-6q-9 -42 -9 -91q0 -62 21.5 -91t65.5 -29q26 0 47.5 7.5t45.5 20.5v-47q-21 -12 -47 -19t-58 -7zM93 288h4q69 0 110.5 21
t60.5 55.5t19 73.5q0 27 -11.5 42.5t-37.5 15.5q-31 0 -59.5 -27.5t-50.5 -74.5t-35 -106zM247 606q-13 18 -29.5 44.5t-31 54.5t-22.5 51v8h57q13 -38 26 -75t31 -74v-9h-31z" />
    <glyph glyph-name="eacute" unicode="&#xe9;" horiz-adv-x="354" 
d="M152 -10q-60 0 -93 40t-33 118q0 80 17 151t47 125.5t69.5 85.5t84.5 31q42 0 67.5 -24t25.5 -76q0 -53 -27 -97.5t-81.5 -71t-136.5 -26.5h-6q-9 -42 -9 -91q0 -62 21.5 -91t65.5 -29q26 0 47.5 7.5t45.5 20.5v-47q-21 -12 -47 -19t-58 -7zM93 288h4q69 0 110.5 21
t60.5 55.5t19 73.5q0 27 -11.5 42.5t-37.5 15.5q-31 0 -59.5 -27.5t-50.5 -74.5t-35 -106zM198 603v8q36 39 67 79.5t49 72.5h62l-1 -8q-14 -20 -40.5 -50t-55.5 -58t-50 -44h-31z" />
    <glyph glyph-name="ecircumflex" unicode="&#xea;" horiz-adv-x="354" 
d="M152 -10q-60 0 -93 40t-33 118q0 80 17 151t47 125.5t69.5 85.5t84.5 31q42 0 67.5 -24t25.5 -76q0 -53 -27 -97.5t-81.5 -71t-136.5 -26.5h-6q-9 -42 -9 -91q0 -62 21.5 -91t65.5 -29q26 0 47.5 7.5t45.5 20.5v-47q-21 -12 -47 -19t-58 -7zM93 288h4q69 0 110.5 21
t60.5 55.5t19 73.5q0 27 -11.5 42.5t-37.5 15.5q-31 0 -59.5 -27.5t-50.5 -74.5t-35 -106zM144 606l1 9q32 33 64 73.5t54 77.5h45q3 -19 13 -48.5t22 -57.5t20 -45l-2 -9h-26q-14 21 -30 49t-28 58q-24 -29 -51 -57t-55 -50h-27z" />
    <glyph glyph-name="edieresis" unicode="&#xeb;" horiz-adv-x="354" 
d="M152 -10q-60 0 -93 40t-33 118q0 80 17 151t47 125.5t69.5 85.5t84.5 31q42 0 67.5 -24t25.5 -76q0 -53 -27 -97.5t-81.5 -71t-136.5 -26.5h-6q-9 -42 -9 -91q0 -62 21.5 -91t65.5 -29q26 0 47.5 7.5t45.5 20.5v-47q-21 -12 -47 -19t-58 -7zM93 288h4q69 0 110.5 21
t60.5 55.5t19 73.5q0 27 -11.5 42.5t-37.5 15.5q-31 0 -59.5 -27.5t-50.5 -74.5t-35 -106zM327 639q-26 0 -26 30q0 19 10 36t30 17q25 0 25 -28q0 -21 -10.5 -38t-28.5 -17zM189 639q-26 0 -26 30q0 19 10 36t30 17q25 0 25 -28q0 -21 -10.5 -38t-28.5 -17z" />
    <glyph glyph-name="igrave" unicode="&#xec;" horiz-adv-x="174" 
d="M3 0l113 531h50l-113 -531h-50zM158 609q-13 18 -29.5 44.5t-31 54.5t-22.5 51v8h57q13 -38 26 -75t31 -74v-9h-31z" />
    <glyph glyph-name="iacute" unicode="&#xed;" horiz-adv-x="174" 
d="M3 0l113 531h50l-113 -531h-50zM108 607v8q36 39 67 79.5t49 72.5h62l-1 -8q-14 -20 -40.5 -50t-55.5 -58t-50 -44h-31z" />
    <glyph glyph-name="icircumflex" unicode="&#xee;" horiz-adv-x="174" 
d="M3 0l113 531h50l-113 -531h-50zM40 606l1 9q32 33 64 73.5t54 77.5h45q3 -19 13 -48.5t22 -57.5t20 -45l-2 -9h-26q-14 21 -30 49t-28 58q-24 -29 -51 -57t-55 -50h-27z" />
    <glyph glyph-name="idieresis" unicode="&#xef;" horiz-adv-x="174" 
d="M3 0l113 531h50l-113 -531h-50zM222 639q-26 0 -26 30q0 19 10 36t30 17q25 0 25 -28q0 -21 -10.5 -38t-28.5 -17zM84 639q-26 0 -26 30q0 19 10 36t30 17q25 0 25 -28q0 -21 -10.5 -38t-28.5 -17z" />
    <glyph glyph-name="eth" unicode="&#xf0;" horiz-adv-x="380" 
d="M129 -10q-58 0 -89 40t-31 114q0 51 12.5 107.5t37 105.5t62.5 80t89 31q40 0 59 -27t26 -61h1q0 81 -15 147.5t-51 114.5l-111 -64l-17 32l108 62q-10 14 -32 31.5t-47 32.5l26 32q49 -26 93 -72l109 62l19 -30l-106 -60q36 -52 54 -120t18 -143q0 -44 -6 -99
t-20.5 -110.5t-39 -102t-61.5 -75t-88 -28.5zM133 36q39 0 66.5 28.5t45.5 71.5t26.5 89.5t8.5 82.5q0 52 -18 82.5t-52 30.5q-37 0 -64.5 -26t-46.5 -67.5t-28.5 -89.5t-9.5 -92q0 -57 19 -83.5t53 -26.5z" />
    <glyph glyph-name="ntilde" unicode="&#xf1;" horiz-adv-x="384" 
d="M3 0l112 531h42l-12 -75h3q20 40 50 62.5t68 22.5q39 0 64 -22.5t25 -68.5q0 -22 -5.5 -54t-11.5 -60l-72 -336h-51l71 336q6 27 11 54.5t5 49.5q0 53 -51 53q-50 0 -82 -52.5t-54 -152.5l-61 -288h-51zM127 610q9 52 30.5 80t57.5 28q20 0 35 -9.5t27 -21.5t23 -21.5
t25 -9.5q17 0 27.5 14t18.5 48h37q-10 -57 -31.5 -82.5t-53.5 -25.5q-20 0 -34.5 9.5t-26 22.5t-23.5 22.5t-26 9.5q-21 0 -32.5 -17t-17.5 -47h-36z" />
    <glyph glyph-name="ograve" unicode="&#xf2;" horiz-adv-x="383" 
d="M142 -10q-54 0 -85 38t-31 116q0 39 7 90.5t23 105t41.5 99t61.5 74t85 28.5q52 0 82 -39t30 -117q0 -48 -8 -102t-25 -106t-42.5 -94t-60 -67.5t-78.5 -25.5zM146 36q31 0 56.5 23.5t44.5 62.5t31.5 85.5t19 93.5t6.5 85q0 109 -66 109q-33 0 -59 -25.5t-44.5 -66.5
t-31 -89t-18.5 -93t-6 -77q0 -108 67 -108zM263 606q-13 18 -29.5 44.5t-31 54.5t-22.5 51v8h57q13 -38 26 -75t31 -74v-9h-31z" />
    <glyph glyph-name="oacute" unicode="&#xf3;" horiz-adv-x="383" 
d="M142 -10q-54 0 -85 38t-31 116q0 39 7 90.5t23 105t41.5 99t61.5 74t85 28.5q52 0 82 -39t30 -117q0 -48 -8 -102t-25 -106t-42.5 -94t-60 -67.5t-78.5 -25.5zM146 36q31 0 56.5 23.5t44.5 62.5t31.5 85.5t19 93.5t6.5 85q0 109 -66 109q-33 0 -59 -25.5t-44.5 -66.5
t-31 -89t-18.5 -93t-6 -77q0 -108 67 -108zM212 603v8q36 39 67 79.5t49 72.5h62l-1 -8q-14 -20 -40.5 -50t-55.5 -58t-50 -44h-31z" />
    <glyph glyph-name="ocircumflex" unicode="&#xf4;" horiz-adv-x="383" 
d="M142 -10q-54 0 -85 38t-31 116q0 39 7 90.5t23 105t41.5 99t61.5 74t85 28.5q52 0 82 -39t30 -117q0 -48 -8 -102t-25 -106t-42.5 -94t-60 -67.5t-78.5 -25.5zM146 36q31 0 56.5 23.5t44.5 62.5t31.5 85.5t19 93.5t6.5 85q0 109 -66 109q-33 0 -59 -25.5t-44.5 -66.5
t-31 -89t-18.5 -93t-6 -77q0 -108 67 -108zM144 606l1 9q32 33 64 73.5t54 77.5h45q3 -19 13 -48.5t22 -57.5t20 -45l-2 -9h-26q-14 21 -30 49t-28 58q-24 -29 -51 -57t-55 -50h-27z" />
    <glyph glyph-name="otilde" unicode="&#xf5;" horiz-adv-x="383" 
d="M142 -10q-54 0 -85 38t-31 116q0 39 7 90.5t23 105t41.5 99t61.5 74t85 28.5q52 0 82 -39t30 -117q0 -48 -8 -102t-25 -106t-42.5 -94t-60 -67.5t-78.5 -25.5zM146 36q31 0 56.5 23.5t44.5 62.5t31.5 85.5t19 93.5t6.5 85q0 109 -66 109q-33 0 -59 -25.5t-44.5 -66.5
t-31 -89t-18.5 -93t-6 -77q0 -108 67 -108zM119 610q9 52 30.5 80t57.5 28q20 0 35 -9.5t27 -21.5t23 -21.5t25 -9.5q17 0 27.5 14t18.5 48h37q-10 -57 -31.5 -82.5t-53.5 -25.5q-20 0 -34.5 9.5t-26 22.5t-23.5 22.5t-26 9.5q-21 0 -32.5 -17t-17.5 -47h-36z" />
    <glyph glyph-name="odieresis" unicode="&#xf6;" horiz-adv-x="383" 
d="M142 -10q-54 0 -85 38t-31 116q0 39 7 90.5t23 105t41.5 99t61.5 74t85 28.5q52 0 82 -39t30 -117q0 -48 -8 -102t-25 -106t-42.5 -94t-60 -67.5t-78.5 -25.5zM146 36q31 0 56.5 23.5t44.5 62.5t31.5 85.5t19 93.5t6.5 85q0 109 -66 109q-33 0 -59 -25.5t-44.5 -66.5
t-31 -89t-18.5 -93t-6 -77q0 -108 67 -108zM326 639q-26 0 -26 30q0 19 10 36t30 17q25 0 25 -28q0 -21 -10.5 -38t-28.5 -17zM188 639q-26 0 -26 30q0 19 10 36t30 17q25 0 25 -28q0 -21 -10.5 -38t-28.5 -17z" />
    <glyph glyph-name="divide" unicode="&#xf7;" horiz-adv-x="414" 
d="M212 482q-38 0 -38 48q0 22 9 35.5t29 13.5t29 -13.5t9 -35.5q0 -48 -38 -48zM34 330v46h354v-46h-354zM212 126q-20 0 -29 13t-9 35q0 50 38 50q20 0 29 -13t9 -36q0 -49 -38 -49z" />
    <glyph glyph-name="oslash" unicode="&#xf8;" horiz-adv-x="385" 
d="M24 -61l-31 19l53 89q-9 19 -14.5 43t-5.5 54q0 37 7 88t22.5 105t41 100t62 75t85.5 29q45 0 72 -30l43 74l32 -19l-51 -88q8 -18 12 -41t4 -52q0 -43 -7.5 -96t-24 -105.5t-41.5 -96.5t-60 -70.5t-81 -26.5t-72 26zM84 105l206 361q-16 30 -52 30q-32 0 -57 -24
t-44 -63t-31.5 -85t-19.5 -90.5t-8 -79.5q0 -30 6 -49zM146 35q31 0 55.5 22t43 59t31.5 81.5t20 89.5t8 83q0 14 -0.5 26t-3.5 22l-204 -356q18 -27 50 -27z" />
    <glyph glyph-name="ugrave" unicode="&#xf9;" horiz-adv-x="386" 
d="M114 -10q-42 0 -65 23.5t-23 68.5q0 21 5 51t10 56l73 342h52l-73 -341q-6 -26 -10.5 -51t-4.5 -47q0 -55 51 -55q50 0 82.5 53t53.5 154l61 287h52l-112 -531h-42l10 73h-2q-20 -40 -51 -61.5t-67 -21.5zM263 606q-13 18 -29.5 44.5t-31 54.5t-22.5 51v8h57
q13 -38 26 -75t31 -74v-9h-31z" />
    <glyph glyph-name="uacute" unicode="&#xfa;" horiz-adv-x="386" 
d="M114 -10q-42 0 -65 23.5t-23 68.5q0 21 5 51t10 56l73 342h52l-73 -341q-6 -26 -10.5 -51t-4.5 -47q0 -55 51 -55q50 0 82.5 53t53.5 154l61 287h52l-112 -531h-42l10 73h-2q-20 -40 -51 -61.5t-67 -21.5zM213 603v8q36 39 67 79.5t49 72.5h62l-1 -8q-14 -20 -40.5 -50
t-55.5 -58t-50 -44h-31z" />
    <glyph glyph-name="ucircumflex" unicode="&#xfb;" horiz-adv-x="386" 
d="M114 -10q-42 0 -65 23.5t-23 68.5q0 21 5 51t10 56l73 342h52l-73 -341q-6 -26 -10.5 -51t-4.5 -47q0 -55 51 -55q50 0 82.5 53t53.5 154l61 287h52l-112 -531h-42l10 73h-2q-20 -40 -51 -61.5t-67 -21.5zM147 606l1 9q32 33 64 73.5t54 77.5h45q3 -19 13 -48.5t22 -57.5
t20 -45l-2 -9h-26q-14 21 -30 49t-28 58q-24 -29 -51 -57t-55 -50h-27z" />
    <glyph glyph-name="udieresis" unicode="&#xfc;" horiz-adv-x="386" 
d="M114 -10q-42 0 -65 23.5t-23 68.5q0 21 5 51t10 56l73 342h52l-73 -341q-6 -26 -10.5 -51t-4.5 -47q0 -55 51 -55q50 0 82.5 53t53.5 154l61 287h52l-112 -531h-42l10 73h-2q-20 -40 -51 -61.5t-67 -21.5zM322 639q-26 0 -26 30q0 19 10 36t30 17q25 0 25 -28
q0 -21 -10.5 -38t-28.5 -17zM184 639q-26 0 -26 30q0 19 10 36t30 17q25 0 25 -28q0 -21 -10.5 -38t-28.5 -17z" />
    <glyph glyph-name="yacute" unicode="&#xfd;" horiz-adv-x="317" 
d="M-57 -242q-30 0 -47 10l8 47q8 -4 17.5 -6.5t21.5 -2.5q30 0 50.5 22.5t40.5 69.5l48 110l-10 523h52l2 -341v-50.5t-2 -53.5h2q9 27 19.5 53.5t18.5 45.5l150 346h54l-285 -645q-29 -63 -59 -95.5t-81 -32.5zM180 603v8q36 39 67 79.5t49 72.5h62l-1 -8
q-14 -20 -40.5 -50t-55.5 -58t-50 -44h-31z" />
    <glyph glyph-name="thorn" unicode="&#xfe;" horiz-adv-x="396" 
d="M-44 -230l208 990h52l-57 -264q-4 -15 -6 -25t-5 -19h3q23 40 52.5 64.5t68.5 24.5q48 0 74 -37.5t26 -111.5q0 -46 -8.5 -100.5t-25.5 -107.5t-43 -97t-60 -70.5t-77 -26.5q-37 0 -59 23t-29 57h-2q-3 -20 -7.5 -43.5t-8.5 -43.5l-46 -213h-50zM155 36q32 0 58 24.5
t45.5 64.5t33 87.5t20 94t6.5 83.5q0 56 -16 81t-46 25q-33 0 -59 -28t-45.5 -72t-31.5 -91q-15 -53 -21.5 -103t-6.5 -78q0 -40 16 -64t47 -24z" />
    <glyph glyph-name="ydieresis" unicode="&#xff;" horiz-adv-x="317" 
d="M-57 -242q-30 0 -47 10l8 47q8 -4 17.5 -6.5t21.5 -2.5q30 0 50.5 22.5t40.5 69.5l48 110l-10 523h52l2 -341v-50.5t-2 -53.5h2q9 27 19.5 53.5t18.5 45.5l150 346h54l-285 -645q-29 -63 -59 -95.5t-81 -32.5zM276 639q-26 0 -26 30q0 19 10 36t30 17q25 0 25 -28
q0 -21 -10.5 -38t-28.5 -17zM138 639q-26 0 -26 30q0 19 10 36t30 17q25 0 25 -28q0 -21 -10.5 -38t-28.5 -17z" />
    <glyph glyph-name="Amacron" unicode="&#x100;" horiz-adv-x="365" 
d="M-66 0l296 717h68v-717h-54v256h-148l-105 -256h-57zM114 304h132l3 274q0 48 3 79h-3q-5 -16 -11.5 -35t-15.5 -44zM154 795l8 43h227l-9 -43h-226z" />
    <glyph glyph-name="amacron" unicode="&#x101;" horiz-adv-x="401" 
d="M128 -10q-50 0 -76 38t-26 110q0 46 8.5 100t25.5 107.5t42.5 98t60 71t77.5 26.5q38 0 59 -23t29 -62h2l21 75h43l-112 -531h-42l12 83h-2q-26 -43 -54.5 -68t-67.5 -25zM142 36q36 0 62 28.5t44.5 73.5t31.5 94q12 48 19 92.5t7 82.5q0 40 -16.5 63.5t-45.5 23.5
q-31 0 -57 -23.5t-46 -62.5t-33.5 -85.5t-20.5 -93.5t-7 -87q0 -56 16.5 -81t45.5 -25zM154 611l8 43h227l-9 -43h-226z" />
    <glyph glyph-name="Abreve" unicode="&#x102;" horiz-adv-x="365" 
d="M-66 0l296 717h68v-717h-54v256h-148l-105 -256h-57zM114 304h132l3 274q0 48 3 79h-3q-5 -16 -11.5 -35t-15.5 -44zM275 791q-53 0 -74 26.5t-21 66.5v14t2 10h34q0 -37 13 -55.5t48 -18.5t53.5 17t27.5 57h36q-10 -57 -38 -87t-81 -30z" />
    <glyph glyph-name="abreve" unicode="&#x103;" horiz-adv-x="401" 
d="M128 -10q-50 0 -76 38t-26 110q0 46 8.5 100t25.5 107.5t42.5 98t60 71t77.5 26.5q38 0 59 -23t29 -62h2l21 75h43l-112 -531h-42l12 83h-2q-26 -43 -54.5 -68t-67.5 -25zM142 36q36 0 62 28.5t44.5 73.5t31.5 94q12 48 19 92.5t7 82.5q0 40 -16.5 63.5t-45.5 23.5
q-31 0 -57 -23.5t-46 -62.5t-33.5 -85.5t-20.5 -93.5t-7 -87q0 -56 16.5 -81t45.5 -25zM275 607q-53 0 -74 26.5t-21 66.5v14t2 10h34q0 -37 13 -55.5t48 -18.5t53.5 17t27.5 57h36q-10 -57 -38 -87t-81 -30z" />
    <glyph glyph-name="Aogonek" unicode="&#x104;" horiz-adv-x="365" 
d="M-66 0l296 717h68v-717h-54v256h-148l-105 -256h-57zM114 304h132l3 274q0 48 3 79h-3q-5 -16 -11.5 -35t-15.5 -44zM219 -220q-34 0 -53 19.5t-19 49.5q0 40 23 74.5t79 76.5h40q-52 -44 -73 -75.5t-20 -64.5q0 -38 39 -38q18 0 37 6l-8 -40q-10 -3 -20.5 -5.5
t-24.5 -2.5z" />
    <glyph glyph-name="aogonek" unicode="&#x105;" horiz-adv-x="401" 
d="M128 -10q-50 0 -76 38t-26 110q0 46 8.5 100t25.5 107.5t42.5 98t60 71t77.5 26.5q38 0 59 -23t29 -62h2l21 75h43l-112 -531h-42l12 83h-2q-26 -43 -54.5 -68t-67.5 -25zM142 36q36 0 62 28.5t44.5 73.5t31.5 94q12 48 19 92.5t7 82.5q0 40 -16.5 63.5t-45.5 23.5
q-31 0 -57 -23.5t-46 -62.5t-33.5 -85.5t-20.5 -93.5t-7 -87q0 -56 16.5 -81t45.5 -25zM210 -220q-34 0 -53 19.5t-19 49.5q0 40 23 74.5t79 76.5h40q-52 -44 -73 -75.5t-20 -64.5q0 -38 39 -38q18 0 37 6l-8 -40q-10 -3 -20.5 -5.5t-24.5 -2.5z" />
    <glyph glyph-name="Cacute" unicode="&#x106;" horiz-adv-x="362" 
d="M190 -10q-76 0 -115 56.5t-39 175.5q0 56 11.5 123t35 134t60 122.5t85.5 89.5t111 34q32 0 56 -8t43 -23l-29 -43q-26 25 -71 25q-50 0 -90 -31.5t-69.5 -82.5t-49 -111.5t-29 -119.5t-9.5 -105q0 -99 26.5 -143.5t82.5 -44.5q19 0 39.5 5.5t44.5 14.5v-50
q-48 -18 -94 -18zM247 790v8q36 39 67 79.5t49 72.5h62l-1 -8q-14 -20 -40.5 -50t-55.5 -58t-50 -44h-31z" />
    <glyph glyph-name="cacute" unicode="&#x107;" horiz-adv-x="293" 
d="M146 -10q-58 0 -88 38.5t-30 121.5q0 47 8 100t25 104.5t43.5 94t62 67.5t81.5 25t74 -17l-20 -44q-12 8 -26 11t-28 3q-41 0 -72.5 -33t-52.5 -85t-32 -111t-11 -111q0 -63 19 -90.5t57 -27.5q34 0 72 22v-47q-15 -9 -36.5 -15t-45.5 -6zM168 607v8q36 39 67 79.5
t49 72.5h62l-1 -8q-14 -20 -40.5 -50t-55.5 -58t-50 -44h-31z" />
    <glyph glyph-name="Ccircumflex" unicode="&#x108;" horiz-adv-x="362" 
d="M190 -10q-76 0 -115 56.5t-39 175.5q0 56 11.5 123t35 134t60 122.5t85.5 89.5t111 34q32 0 56 -8t43 -23l-29 -43q-26 25 -71 25q-50 0 -90 -31.5t-69.5 -82.5t-49 -111.5t-29 -119.5t-9.5 -105q0 -99 26.5 -143.5t82.5 -44.5q19 0 39.5 5.5t44.5 14.5v-50
q-48 -18 -94 -18zM217 771l1 9q32 33 64 73.5t54 77.5h45q3 -19 13 -48.5t22 -57.5t20 -45l-2 -9h-26q-14 21 -30 49t-28 58q-24 -29 -51 -57t-55 -50h-27z" />
    <glyph glyph-name="ccircumflex" unicode="&#x109;" horiz-adv-x="293" 
d="M146 -10q-58 0 -88 38.5t-30 121.5q0 47 8 100t25 104.5t43.5 94t62 67.5t81.5 25t74 -17l-20 -44q-12 8 -26 11t-28 3q-41 0 -72.5 -33t-52.5 -85t-32 -111t-11 -111q0 -63 19 -90.5t57 -27.5q34 0 72 22v-47q-15 -9 -36.5 -15t-45.5 -6zM126 606l1 9q32 33 64 73.5
t54 77.5h45q3 -19 13 -48.5t22 -57.5t20 -45l-2 -9h-26q-14 21 -30 49t-28 58q-24 -29 -51 -57t-55 -50h-27z" />
    <glyph glyph-name="Cdot" unicode="&#x10a;" horiz-adv-x="362" 
d="M190 -10q-76 0 -115 56.5t-39 175.5q0 56 11.5 123t35 134t60 122.5t85.5 89.5t111 34q32 0 56 -8t43 -23l-29 -43q-26 25 -71 25q-50 0 -90 -31.5t-69.5 -82.5t-49 -111.5t-29 -119.5t-9.5 -105q0 -99 26.5 -143.5t82.5 -44.5q19 0 39.5 5.5t44.5 14.5v-50
q-48 -18 -94 -18zM366 804q-29 0 -29 33q0 20 11 38.5t32 18.5q28 0 28 -32q0 -21 -11 -39.5t-31 -18.5z" />
    <glyph glyph-name="cdot" unicode="&#x10b;" horiz-adv-x="293" 
d="M146 -10q-58 0 -88 38.5t-30 121.5q0 47 8 100t25 104.5t43.5 94t62 67.5t81.5 25t74 -17l-20 -44q-12 8 -26 11t-28 3q-41 0 -72.5 -33t-52.5 -85t-32 -111t-11 -111q0 -63 19 -90.5t57 -27.5q34 0 72 22v-47q-15 -9 -36.5 -15t-45.5 -6zM274 634q-29 0 -29 33
q0 20 11 38.5t32 18.5q28 0 28 -32q0 -21 -11 -39.5t-31 -18.5z" />
    <glyph glyph-name="Ccaron" unicode="&#x10c;" horiz-adv-x="362" 
d="M190 -10q-76 0 -115 56.5t-39 175.5q0 56 11.5 123t35 134t60 122.5t85.5 89.5t111 34q32 0 56 -8t43 -23l-29 -43q-26 25 -71 25q-50 0 -90 -31.5t-69.5 -82.5t-49 -111.5t-29 -119.5t-9.5 -105q0 -99 26.5 -143.5t82.5 -44.5q19 0 39.5 5.5t44.5 14.5v-50
q-48 -18 -94 -18zM323 771q-4 19 -14 48.5t-21 57.5t-20 45l1 9h28q12 -19 28 -47t30 -60q24 29 50.5 57t54.5 50h27l-1 -9q-17 -17 -40 -44.5t-44 -56t-33 -50.5h-46z" />
    <glyph glyph-name="ccaron" unicode="&#x10d;" horiz-adv-x="293" 
d="M146 -10q-58 0 -88 38.5t-30 121.5q0 47 8 100t25 104.5t43.5 94t62 67.5t81.5 25t74 -17l-20 -44q-12 8 -26 11t-28 3q-41 0 -72.5 -33t-52.5 -85t-32 -111t-11 -111q0 -63 19 -90.5t57 -27.5q34 0 72 22v-47q-15 -9 -36.5 -15t-45.5 -6zM228 606q-4 19 -14 48.5
t-21 57.5t-20 45l1 9h28q12 -19 28 -47t30 -60q24 29 50.5 57t54.5 50h27l-1 -9q-17 -17 -40 -44.5t-44 -56t-33 -50.5h-46z" />
    <glyph glyph-name="Dcaron" unicode="&#x10e;" horiz-adv-x="438" 
d="M2 0l150 714h96q84 0 128.5 -51t44.5 -157q0 -61 -10.5 -130.5t-33.5 -136t-60.5 -120.5t-90.5 -86.5t-124 -32.5h-100zM64 49h43q56 0 98.5 29t72.5 78t49 109t28 122t9 117q0 88 -30.5 124.5t-91.5 36.5h-46zM262 771q-4 19 -14 48.5t-21 57.5t-20 45l1 9h28
q12 -19 28 -47t30 -60q24 29 50.5 57t54.5 50h27l-1 -9q-17 -17 -40 -44.5t-44 -56t-33 -50.5h-46z" />
    <glyph glyph-name="dcaron" unicode="&#x10f;" horiz-adv-x="433" 
d="M126 -10q-48 0 -74 38t-26 110q0 46 8.5 100t25.5 107.5t42 97.5t59 71t77 27q37 0 59.5 -22t29.5 -57h3q4 25 9 51.5t11 50.5l41 196h51l-160 -760h-42l12 84h-2q-26 -44 -55 -69t-69 -25zM142 36q36 0 63 30t46 77t31.5 99t18 96.5t5.5 69.5q0 40 -16 63t-46 23
q-32 0 -58 -24t-45.5 -63.5t-33 -86.5t-20.5 -93.5t-7 -84.5q0 -56 16.5 -81t45.5 -25zM443 600v8q20 39 36 79t24 73h52v-10q-7 -20 -21 -47.5t-30.5 -55t-30.5 -47.5h-30z" />
    <glyph glyph-name="Dcroat" unicode="&#x110;" horiz-adv-x="441" 
d="M2 0l73 348h-51l10 45h50l68 321h96q84 0 128.5 -51t44.5 -157q0 -61 -10.5 -130.5t-34 -136t-60.5 -120.5t-90.5 -86.5t-123.5 -32.5h-100zM64 49h43q57 0 100 30.5t73 80.5t48.5 110.5t27 121.5t8.5 112q0 88 -30.5 124.5t-91.5 36.5h-46l-58 -272h92l-10 -45h-93z" />
    <glyph glyph-name="dcroat" unicode="&#x111;" horiz-adv-x="400" 
d="M126 -10q-48 0 -74 38t-26 110q0 46 8.5 100t25.5 107.5t42 97.5t59 71t77 27q37 0 59.5 -22t29.5 -57h3q4 24 9 49l10 50l13 63h-100l8 42h102l19 94h51l-19 -94h60l-9 -42h-60l-132 -624h-42l12 84h-2q-26 -44 -55 -69t-69 -25zM142 36q36 0 63 30t46 77t31.5 99
t18 96.5t5.5 69.5q0 40 -16 63t-46 23q-32 0 -58 -24t-45.5 -63.5t-33 -86.5t-20.5 -93.5t-7 -84.5q0 -56 16.5 -81t45.5 -25z" />
    <glyph glyph-name="Emacron" unicode="&#x112;" horiz-adv-x="352" 
d="M1 0l151 714h242l-10 -48h-188l-57 -268h177l-12 -48h-176l-64 -302h189l-10 -48h-242zM168 776l8 43h227l-9 -43h-226z" />
    <glyph glyph-name="emacron" unicode="&#x113;" horiz-adv-x="354" 
d="M152 -10q-60 0 -93 40t-33 118q0 80 17 151t47 125.5t69.5 85.5t84.5 31q42 0 67.5 -24t25.5 -76q0 -53 -27 -97.5t-81.5 -71t-136.5 -26.5h-6q-9 -42 -9 -91q0 -62 21.5 -91t65.5 -29q26 0 47.5 7.5t45.5 20.5v-47q-21 -12 -47 -19t-58 -7zM93 288h4q69 0 110.5 21
t60.5 55.5t19 73.5q0 27 -11.5 42.5t-37.5 15.5q-31 0 -59.5 -27.5t-50.5 -74.5t-35 -106zM147 611l8 43h227l-9 -43h-226z" />
    <glyph glyph-name="Ebreve" unicode="&#x114;" horiz-adv-x="352" 
d="M1 0l151 714h242l-10 -48h-188l-57 -268h177l-12 -48h-176l-64 -302h189l-10 -48h-242zM285 772q-53 0 -74 26.5t-21 66.5v14t2 10h34q0 -37 13 -55.5t48 -18.5t53.5 17t27.5 57h36q-10 -57 -38 -87t-81 -30z" />
    <glyph glyph-name="ebreve" unicode="&#x115;" horiz-adv-x="354" 
d="M152 -10q-60 0 -93 40t-33 118q0 80 17 151t47 125.5t69.5 85.5t84.5 31q42 0 67.5 -24t25.5 -76q0 -53 -27 -97.5t-81.5 -71t-136.5 -26.5h-6q-9 -42 -9 -91q0 -62 21.5 -91t65.5 -29q26 0 47.5 7.5t45.5 20.5v-47q-21 -12 -47 -19t-58 -7zM93 288h4q69 0 110.5 21
t60.5 55.5t19 73.5q0 27 -11.5 42.5t-37.5 15.5q-31 0 -59.5 -27.5t-50.5 -74.5t-35 -106zM275 607q-53 0 -74 26.5t-21 66.5v14t2 10h34q0 -37 13 -55.5t48 -18.5t53.5 17t27.5 57h36q-10 -57 -38 -87t-81 -30z" />
    <glyph glyph-name="Edotaccent" unicode="&#x116;" horiz-adv-x="352" 
d="M1 0l151 714h242l-10 -48h-188l-57 -268h177l-12 -48h-176l-64 -302h189l-10 -48h-242zM305 785q-29 0 -29 33q0 20 11 38.5t32 18.5q28 0 28 -32q0 -21 -11 -39.5t-31 -18.5z" />
    <glyph glyph-name="edotaccent" unicode="&#x117;" horiz-adv-x="354" 
d="M152 -10q-60 0 -93 40t-33 118q0 80 17 151t47 125.5t69.5 85.5t84.5 31q42 0 67.5 -24t25.5 -76q0 -53 -27 -97.5t-81.5 -71t-136.5 -26.5h-6q-9 -42 -9 -91q0 -62 21.5 -91t65.5 -29q26 0 47.5 7.5t45.5 20.5v-47q-21 -12 -47 -19t-58 -7zM93 288h4q69 0 110.5 21
t60.5 55.5t19 73.5q0 27 -11.5 42.5t-37.5 15.5q-31 0 -59.5 -27.5t-50.5 -74.5t-35 -106zM292 634q-29 0 -29 33q0 20 11 38.5t32 18.5q28 0 28 -32q0 -21 -11 -39.5t-31 -18.5z" />
    <glyph glyph-name="Eogonek" unicode="&#x118;" horiz-adv-x="352" 
d="M1 0l151 714h242l-10 -48h-188l-57 -268h177l-12 -48h-176l-64 -302h189l-10 -48h-242zM136 -220q-34 0 -53 19.5t-19 49.5q0 40 23 74.5t79 76.5h40q-52 -44 -73 -75.5t-20 -64.5q0 -38 39 -38q18 0 37 6l-8 -40q-10 -3 -20.5 -5.5t-24.5 -2.5z" />
    <glyph glyph-name="eogonek" unicode="&#x119;" horiz-adv-x="354" 
d="M152 -10q-60 0 -93 40t-33 118q0 80 17 151t47 125.5t69.5 85.5t84.5 31q42 0 67.5 -24t25.5 -76q0 -53 -27 -97.5t-81.5 -71t-136.5 -26.5h-6q-9 -42 -9 -91q0 -62 21.5 -91t65.5 -29q26 0 47.5 7.5t45.5 20.5v-47q-7 -4 -15 -7q-75 -69 -76 -132q0 -38 36 -38
q8 0 16 1.5t17 3.5l-9 -38q-9 -4 -20.5 -6t-25.5 -2q-32 0 -48 19.5t-16 50.5q0 32 14.5 61.5t51.5 62.5q-14 -2 -30 -2zM93 288h4q69 0 110.5 21t60.5 55.5t19 73.5q0 27 -11.5 42.5t-37.5 15.5q-31 0 -59.5 -27.5t-50.5 -74.5t-35 -106z" />
    <glyph glyph-name="Ecaron" unicode="&#x11a;" horiz-adv-x="352" 
d="M1 0l151 714h242l-10 -48h-188l-57 -268h177l-12 -48h-176l-64 -302h189l-10 -48h-242zM254 771q-4 19 -14 48.5t-21 57.5t-20 45l1 9h28q12 -19 28 -47t30 -60q24 29 50.5 57t54.5 50h27l-1 -9q-17 -17 -40 -44.5t-44 -56t-33 -50.5h-46z" />
    <glyph glyph-name="ecaron" unicode="&#x11b;" horiz-adv-x="354" 
d="M152 -10q-60 0 -93 40t-33 118q0 80 17 151t47 125.5t69.5 85.5t84.5 31q42 0 67.5 -24t25.5 -76q0 -53 -27 -97.5t-81.5 -71t-136.5 -26.5h-6q-9 -42 -9 -91q0 -62 21.5 -91t65.5 -29q26 0 47.5 7.5t45.5 20.5v-47q-21 -12 -47 -19t-58 -7zM93 288h4q69 0 110.5 21
t60.5 55.5t19 73.5q0 27 -11.5 42.5t-37.5 15.5q-31 0 -59.5 -27.5t-50.5 -74.5t-35 -106zM234 606q-4 19 -14 48.5t-21 57.5t-20 45l1 9h28q12 -19 28 -47t30 -60q24 29 50.5 57t54.5 50h27l-1 -9q-17 -17 -40 -44.5t-44 -56t-33 -50.5h-46z" />
    <glyph glyph-name="Gcircumflex" unicode="&#x11c;" horiz-adv-x="472" 
d="M220 -10q-184 0 -184 226q0 100 22.5 191.5t64 163t100.5 113t133 41.5q44 0 78 -12.5t60 -30.5l-28 -46q-26 20 -53 30t-60 10q-61 0 -110 -40t-82.5 -106.5t-51.5 -147t-18 -162.5q0 -96 33.5 -139t101.5 -43q46 0 87 15l55 263h-93l11 48h146l-74 -348
q-33 -12 -67 -19t-71 -7zM241 771l1 9q32 33 64 73.5t54 77.5h45q3 -19 13 -48.5t22 -57.5t20 -45l-2 -9h-26q-14 21 -30 49t-28 58q-24 -29 -51 -57t-55 -50h-27z" />
    <glyph glyph-name="gcircumflex" unicode="&#x11d;" horiz-adv-x="400" 
d="M83 -240q-31 0 -59 9t-44 19v52q16 -12 45 -23t59 -11q60 0 91 39t48 116l11 51q2 10 7 29t9 39h-2q-25 -44 -54 -67t-68 -23q-48 0 -74 38t-26 109q0 46 8.5 100.5t25.5 108t42.5 97.5t60 71t77.5 27q39 0 60 -23.5t28 -61.5h4l19 75h43l-120 -573q-22 -99 -66 -148.5
t-125 -49.5zM142 36q34 0 61 30t46 76.5t32 98.5t19 97.5t6 71.5q0 39 -16.5 61.5t-45.5 22.5q-32 0 -58 -24t-45.5 -63.5t-33 -86.5t-20.5 -93.5t-7 -84.5q0 -56 16 -81t46 -25zM130 606l1 9q32 33 64 73.5t54 77.5h45q3 -19 13 -48.5t22 -57.5t20 -45l-2 -9h-26
q-14 21 -30 49t-28 58q-24 -29 -51 -57t-55 -50h-27z" />
    <glyph glyph-name="Gbreve" unicode="&#x11e;" horiz-adv-x="472" 
d="M220 -10q-184 0 -184 226q0 100 22.5 191.5t64 163t100.5 113t133 41.5q44 0 78 -12.5t60 -30.5l-28 -46q-26 20 -53 30t-60 10q-61 0 -110 -40t-82.5 -106.5t-51.5 -147t-18 -162.5q0 -96 33.5 -139t101.5 -43q46 0 87 15l55 263h-93l11 48h146l-74 -348
q-33 -12 -67 -19t-71 -7zM363 772q-53 0 -74 26.5t-21 66.5v14t2 10h34q0 -37 13 -55.5t48 -18.5t53.5 17t27.5 57h36q-10 -57 -38 -87t-81 -30z" />
    <glyph glyph-name="gbreve" unicode="&#x11f;" horiz-adv-x="400" 
d="M83 -240q-31 0 -59 9t-44 19v52q16 -12 45 -23t59 -11q60 0 91 39t48 116l11 51q2 10 7 29t9 39h-2q-25 -44 -54 -67t-68 -23q-48 0 -74 38t-26 109q0 46 8.5 100.5t25.5 108t42.5 97.5t60 71t77.5 27q39 0 60 -23.5t28 -61.5h4l19 75h43l-120 -573q-22 -99 -66 -148.5
t-125 -49.5zM142 36q34 0 61 30t46 76.5t32 98.5t19 97.5t6 71.5q0 39 -16.5 61.5t-45.5 22.5q-32 0 -58 -24t-45.5 -63.5t-33 -86.5t-20.5 -93.5t-7 -84.5q0 -56 16 -81t46 -25zM247 607q-53 0 -74 26.5t-21 66.5v14t2 10h34q0 -37 13 -55.5t48 -18.5t53.5 17t27.5 57h36
q-10 -57 -38 -87t-81 -30z" />
    <glyph glyph-name="Gdot" unicode="&#x120;" horiz-adv-x="472" 
d="M220 -10q-184 0 -184 226q0 100 22.5 191.5t64 163t100.5 113t133 41.5q44 0 78 -12.5t60 -30.5l-28 -46q-26 20 -53 30t-60 10q-61 0 -110 -40t-82.5 -106.5t-51.5 -147t-18 -162.5q0 -96 33.5 -139t101.5 -43q46 0 87 15l55 263h-93l11 48h146l-74 -348
q-33 -12 -67 -19t-71 -7zM386 799q-29 0 -29 33q0 20 11 38.5t32 18.5q28 0 28 -32q0 -21 -11 -39.5t-31 -18.5z" />
    <glyph glyph-name="gdot" unicode="&#x121;" horiz-adv-x="400" 
d="M83 -240q-31 0 -59 9t-44 19v52q16 -12 45 -23t59 -11q60 0 91 39t48 116l11 51q2 10 7 29t9 39h-2q-25 -44 -54 -67t-68 -23q-48 0 -74 38t-26 109q0 46 8.5 100.5t25.5 108t42.5 97.5t60 71t77.5 27q39 0 60 -23.5t28 -61.5h4l19 75h43l-120 -573q-22 -99 -66 -148.5
t-125 -49.5zM142 36q34 0 61 30t46 76.5t32 98.5t19 97.5t6 71.5q0 39 -16.5 61.5t-45.5 22.5q-32 0 -58 -24t-45.5 -63.5t-33 -86.5t-20.5 -93.5t-7 -84.5q0 -56 16 -81t46 -25zM268 634q-29 0 -29 33q0 20 11 38.5t32 18.5q28 0 28 -32q0 -21 -11 -39.5t-31 -18.5z" />
    <glyph glyph-name="uni0122" unicode="&#x122;" horiz-adv-x="472" 
d="M220 -10q-184 0 -184 226q0 100 22.5 191.5t64 163t100.5 113t133 41.5q44 0 78 -12.5t60 -30.5l-28 -46q-26 20 -53 30t-60 10q-61 0 -110 -40t-82.5 -106.5t-51.5 -147t-18 -162.5q0 -96 33.5 -139t101.5 -43q46 0 87 15l55 263h-93l11 48h146l-74 -348
q-33 -12 -67 -19t-71 -7zM87 -221v15q13 15 28.5 41t29.5 54.5t21 49.5h51v-11q-7 -21 -25 -49t-39 -55.5t-38 -44.5h-28z" />
    <glyph glyph-name="uni0123" unicode="&#x123;" horiz-adv-x="400" 
d="M83 -240q-31 0 -59 9t-44 19v52q16 -12 45 -23t59 -11q60 0 91 39t48 116l11 51q2 10 7 29t9 39h-2q-25 -44 -54 -67t-68 -23q-48 0 -74 38t-26 109q0 46 8.5 100.5t25.5 108t42.5 97.5t60 71t77.5 27q39 0 60 -23.5t28 -61.5h4l19 75h43l-120 -573q-22 -99 -66 -148.5
t-125 -49.5zM142 36q34 0 61 30t46 76.5t32 98.5t19 97.5t6 71.5q0 39 -16.5 61.5t-45.5 22.5q-32 0 -58 -24t-45.5 -63.5t-33 -86.5t-20.5 -93.5t-7 -84.5q0 -56 16 -81t46 -25zM222 606v10q9 22 26 50t37.5 55t38.5 45h27l1 -13q-12 -14 -28.5 -41t-30.5 -56.5t-21 -49.5
h-50z" />
    <glyph glyph-name="Hcircumflex" unicode="&#x124;" horiz-adv-x="462" 
d="M1 0l151 714h54l-67 -315h221l66 315h54l-152 -714h-54l74 350h-220l-74 -350h-53zM209 771l1 9q32 33 64 73.5t54 77.5h45q3 -19 13 -48.5t22 -57.5t20 -45l-2 -9h-26q-14 21 -30 49t-28 58q-24 -29 -51 -57t-55 -50h-27z" />
    <glyph glyph-name="hcircumflex" unicode="&#x125;" horiz-adv-x="384" 
d="M4 0l160 760h52l-48 -218q-4 -21 -9 -42t-11 -42h2q20 40 50 61.5t68 21.5q40 0 64 -23t24 -68q0 -22 -6 -55t-12 -61l-71 -334h-51l70 333q6 28 11 55.5t5 51.5q0 53 -51 53q-49 0 -80.5 -49.5t-53.5 -151.5l-62 -292h-51zM89 830l1 9q32 33 64 73.5t54 77.5h45
q3 -19 13 -48.5t22 -57.5t20 -45l-2 -9h-26q-14 21 -30 49t-28 58q-24 -29 -51 -57t-55 -50h-27z" />
    <glyph glyph-name="Hbar" unicode="&#x126;" horiz-adv-x="456" 
d="M1 0l113 536h-68l8 44h70l28 134h54l-29 -134h221l28 134h54l-29 -134h59l-8 -44h-60l-114 -536h-54l74 350h-220l-74 -350h-53zM138 398h221l29 138h-220z" />
    <glyph glyph-name="hbar" unicode="&#x127;" horiz-adv-x="388" 
d="M4 0l132 624h-62l8 42h62l20 94h52l-20 -94h98l-8 -42h-100q-15 -73 -24 -110t-15 -60h2q40 84 118 84q40 0 63.5 -23.5t23.5 -68.5q0 -22 -5.5 -55t-11.5 -61l-70 -330h-51l70 330q6 27 11 55t5 52q0 26 -14 39.5t-38 13.5q-50 0 -81.5 -50t-52.5 -152l-61 -288h-51z
" />
    <glyph glyph-name="Itilde" unicode="&#x128;" horiz-adv-x="212" 
d="M-54 0l6 32l70 9l134 631l-66 10l7 32h187l-8 -32l-68 -10l-134 -631l64 -9l-6 -32h-186zM84 797q9 52 30.5 80t57.5 28q20 0 35 -9.5t27 -21.5t23 -21.5t25 -9.5q17 0 27.5 14t18.5 48h37q-10 -57 -31.5 -82.5t-53.5 -25.5q-20 0 -34.5 9.5t-26 22.5t-23.5 22.5t-26 9.5
q-21 0 -32.5 -17t-17.5 -47h-36z" />
    <glyph glyph-name="itilde" unicode="&#x129;" horiz-adv-x="174" 
d="M3 0l113 531h50l-113 -531h-50zM26 610q9 52 30.5 80t57.5 28q20 0 35 -9.5t27 -21.5t23 -21.5t25 -9.5q17 0 27.5 14t18.5 48h37q-10 -57 -31.5 -82.5t-53.5 -25.5q-20 0 -34.5 9.5t-26 22.5t-23.5 22.5t-26 9.5q-21 0 -32.5 -17t-17.5 -47h-36z" />
    <glyph glyph-name="Imacron" unicode="&#x12a;" horiz-adv-x="212" 
d="M-54 0l6 32l70 9l134 631l-66 10l7 32h187l-8 -32l-68 -10l-134 -631l64 -9l-6 -32h-186zM96 798l8 43h227l-9 -43h-226z" />
    <glyph glyph-name="imacron" unicode="&#x12b;" horiz-adv-x="174" 
d="M3 0l113 531h50l-113 -531h-50zM38 611l8 43h227l-9 -43h-226z" />
    <glyph glyph-name="Ibreve" unicode="&#x12c;" horiz-adv-x="212" 
d="M-54 0l6 32l70 9l134 631l-66 10l7 32h187l-8 -32l-68 -10l-134 -631l64 -9l-6 -32h-186zM217 794q-53 0 -74 26.5t-21 66.5v14t2 10h34q0 -37 13 -55.5t48 -18.5t53.5 17t27.5 57h36q-10 -57 -38 -87t-81 -30z" />
    <glyph glyph-name="ibreve" unicode="&#x12d;" horiz-adv-x="174" 
d="M3 0l113 531h50l-113 -531h-50zM161 607q-53 0 -74 26.5t-21 66.5v14t2 10h34q0 -37 13 -55.5t48 -18.5t53.5 17t27.5 57h36q-10 -57 -38 -87t-81 -30z" />
    <glyph glyph-name="Iogonek" unicode="&#x12e;" horiz-adv-x="212" 
d="M-54 0l6 32l70 9l134 631l-66 10l7 32h187l-8 -32l-68 -10l-134 -631l64 -9l-6 -32h-186zM25 -220q-34 0 -53 19.5t-19 49.5q0 40 23 74.5t79 76.5h40q-52 -44 -73 -75.5t-20 -64.5q0 -38 39 -38q18 0 37 6l-8 -40q-10 -3 -20.5 -5.5t-24.5 -2.5z" />
    <glyph glyph-name="iogonek" unicode="&#x12f;" horiz-adv-x="174" 
d="M166 634q-28 0 -28 32q0 20 10.5 39t32.5 19q27 0 27 -30q0 -22 -11 -41t-31 -19zM3 0l113 531h51l-113 -531h-51zM-20 -220q-34 0 -53 19.5t-19 49.5q0 40 23 74.5t79 76.5h40q-52 -44 -73 -75.5t-20 -64.5q0 -38 39 -38q18 0 37 6l-8 -40q-10 -3 -20.5 -5.5t-24.5 -2.5
z" />
    <glyph glyph-name="Idotaccent" unicode="&#x130;" horiz-adv-x="212" 
d="M-54 0l6 32l70 9l134 631l-66 10l7 32h187l-8 -32l-68 -10l-134 -631l64 -9l-6 -32h-186zM230 821q-29 0 -29 33q0 20 11 38.5t32 18.5q28 0 28 -32q0 -21 -11 -39.5t-31 -18.5z" />
    <glyph glyph-name="IJ" unicode="&#x132;" horiz-adv-x="414" 
d="M-54 0l6 32l70 9l134 631l-66 10l7 32h187l-8 -32l-68 -10l-134 -631l64 -9l-6 -32h-186zM148 -182q-37 0 -58 12l12 48q10 -5 22 -8.5t24 -3.5q34 0 53 29t32 90l154 729h53l-157 -740q-17 -81 -49 -118.5t-86 -37.5z" />
    <glyph glyph-name="ij" unicode="&#x133;" horiz-adv-x="348" 
d="M166 634q-28 0 -28 32q0 20 10.5 39t32.5 19q27 0 27 -30q0 -22 -11 -41t-31 -19zM3 0l113 531h51l-113 -531h-51zM344 634q-28 0 -28 32q0 20 10.5 39t31.5 19q28 0 28 -30q0 -22 -11 -41t-31 -19zM86 -240q-26 0 -43 6v48q17 -6 38 -6q25 0 40.5 12.5t26.5 44t22 87.5
l123 579h51l-124 -583q-13 -62 -28 -103.5t-39.5 -63t-66.5 -21.5z" />
    <glyph glyph-name="Jcircumflex" unicode="&#x134;" horiz-adv-x="178" 
d="M-86 -182q-37 0 -58 12l12 48q10 -5 22 -8.5t24 -3.5q34 0 53 29t32 90l154 729h53l-157 -740q-17 -81 -49 -118.5t-86 -37.5zM75 771l1 9q32 33 64 73.5t54 77.5h45q3 -19 13 -48.5t22 -57.5t20 -45l-2 -9h-26q-14 21 -30 49t-28 58q-24 -29 -51 -57t-55 -50h-27z" />
    <glyph glyph-name="jcircumflex" unicode="&#x135;" horiz-adv-x="174" 
d="M-88 -240q-26 0 -43 6v48q17 -6 38 -6q25 0 40.5 12.5t26.5 44t22 87.5l123 579h51l-124 -583q-13 -62 -28 -103.5t-39.5 -63t-66.5 -21.5zM39 606l1 9q32 33 64 73.5t54 77.5h45q3 -19 13 -48.5t22 -57.5t20 -45l-2 -9h-26q-14 21 -30 49t-28 58q-24 -29 -51 -57
t-55 -50h-27z" />
    <glyph glyph-name="uni0136" unicode="&#x136;" horiz-adv-x="376" 
d="M1 0l151 714h54l-80 -376l62 91l204 285h60l-228 -320l86 -394h-58l-74 352l-66 -76l-58 -276h-53zM39 -221v15q13 15 28.5 41t29.5 54.5t21 49.5h51v-11q-7 -21 -25 -49t-39 -55.5t-38 -44.5h-28z" />
    <glyph glyph-name="uni0137" unicode="&#x137;" horiz-adv-x="328" 
d="M3 0l161 760h52l-82 -383q-6 -28 -12.5 -56t-14.5 -61h1l204 271h56l-156 -210l54 -321h-54l-45 276l-74 -87l-39 -189h-51zM15 -221v15q13 15 28.5 41t29.5 54.5t21 49.5h51v-11q-7 -21 -25 -49t-39 -55.5t-38 -44.5h-28z" />
    <glyph glyph-name="kgreenlandic" unicode="&#x138;" horiz-adv-x="324" 
d="M3 0l115 531h51l-35 -157q-7 -27 -13 -54.5t-14 -59.5h1l204 272h56l-156 -211l54 -321h-54l-45 276l-74 -87l-39 -189h-51z" />
    <glyph glyph-name="Lacute" unicode="&#x139;" horiz-adv-x="320" 
d="M1 0l151 714h54l-142 -666h182l-10 -48h-235zM220 790v8q36 39 67 79.5t49 72.5h62l-1 -8q-14 -20 -40.5 -50t-55.5 -58t-50 -44h-31z" />
    <glyph glyph-name="lacute" unicode="&#x13a;" horiz-adv-x="169" 
d="M3 0l161 760h52l-162 -760h-51zM154 836v8q36 39 67 79.5t49 72.5h62l-1 -8q-14 -20 -40.5 -50t-55.5 -58t-50 -44h-31z" />
    <glyph glyph-name="uni013B" unicode="&#x13b;" horiz-adv-x="320" 
d="M1 0l151 714h54l-142 -666h182l-10 -48h-235zM10 -221v15q13 15 28.5 41t29.5 54.5t21 49.5h51v-11q-7 -21 -25 -49t-39 -55.5t-38 -44.5h-28z" />
    <glyph glyph-name="uni013C" unicode="&#x13c;" horiz-adv-x="169" 
d="M3 0l161 760h52l-162 -760h-51zM-65 -221v15q13 15 28.5 41t29.5 54.5t21 49.5h51v-11q-7 -21 -25 -49t-39 -55.5t-38 -44.5h-28z" />
    <glyph glyph-name="Lcaron" unicode="&#x13d;" horiz-adv-x="320" 
d="M1 0l151 714h54l-142 -666h182l-10 -48h-235zM248 553v8q20 39 36 79t24 73h52v-10q-7 -20 -21 -47.5t-30.5 -55t-30.5 -47.5h-30z" />
    <glyph glyph-name="lcaron" unicode="&#x13e;" horiz-adv-x="209" 
d="M3 0l161 760h52l-162 -760h-51zM219 600v8q20 39 36 79t24 73h52v-10q-7 -20 -21 -47.5t-30.5 -55t-30.5 -47.5h-30z" />
    <glyph glyph-name="Ldot" unicode="&#x13f;" horiz-adv-x="320" 
d="M1 0l151 714h54l-142 -666h182l-10 -48h-235zM250 322q-29 0 -29 33q0 20 11 38.5t32 18.5q28 0 28 -32q0 -21 -11 -39.5t-31 -18.5z" />
    <glyph glyph-name="ldot" unicode="&#x140;" horiz-adv-x="268" 
d="M3 0l161 760h52l-162 -760h-51zM228 286q-29 0 -29 33q0 20 11 38.5t32 18.5q28 0 28 -32q0 -21 -11 -39.5t-31 -18.5z" />
    <glyph glyph-name="Lslash" unicode="&#x141;" horiz-adv-x="317" 
d="M4 0l64 299l-70 -39l-20 38l102 59l76 357h53l-67 -318l99 56l21 -37l-134 -77l-61 -290h182l-9 -48h-236z" />
    <glyph glyph-name="lslash" unicode="&#x142;" horiz-adv-x="182" 
d="M6 0l72 338l-68 -39l-16 39l96 54l78 368h52l-73 -339l75 43l18 -38l-104 -58l-79 -368h-51z" />
    <glyph glyph-name="Nacute" unicode="&#x143;" horiz-adv-x="487" 
d="M1 0l151 714h64l108 -612h2q8 44 16.5 86t13.5 68l97 458h53l-152 -714h-62l-108 620h-2q-6 -38 -15 -83t-17 -80l-97 -457h-52zM304 790v8q36 39 67 79.5t49 72.5h62l-1 -8q-14 -20 -40.5 -50t-55.5 -58t-50 -44h-31z" />
    <glyph glyph-name="nacute" unicode="&#x144;" horiz-adv-x="384" 
d="M3 0l112 531h42l-12 -75h3q20 40 50 62.5t68 22.5q39 0 64 -22.5t25 -68.5q0 -22 -5.5 -54t-11.5 -60l-72 -336h-51l71 336q6 27 11 54.5t5 49.5q0 53 -51 53q-50 0 -82 -52.5t-54 -152.5l-61 -288h-51zM214 604v8q36 39 67 79.5t49 72.5h62l-1 -8q-14 -20 -40.5 -50
t-55.5 -58t-50 -44h-31z" />
    <glyph glyph-name="uni0145" unicode="&#x145;" horiz-adv-x="487" 
d="M1 0l151 714h64l108 -612h2q8 44 16.5 86t13.5 68l97 458h53l-152 -714h-62l-108 620h-2q-6 -38 -15 -83t-17 -80l-97 -457h-52zM95 -221v15q13 15 28.5 41t29.5 54.5t21 49.5h51v-11q-7 -21 -25 -49t-39 -55.5t-38 -44.5h-28z" />
    <glyph glyph-name="uni0146" unicode="&#x146;" horiz-adv-x="384" 
d="M3 0l112 531h42l-12 -75h3q20 40 50 62.5t68 22.5q39 0 64 -22.5t25 -68.5q0 -22 -5.5 -54t-11.5 -60l-72 -336h-51l71 336q6 27 11 54.5t5 49.5q0 53 -51 53q-50 0 -82 -52.5t-54 -152.5l-61 -288h-51zM44 -221v15q13 15 28.5 41t29.5 54.5t21 49.5h51v-11
q-7 -21 -25 -49t-39 -55.5t-38 -44.5h-28z" />
    <glyph glyph-name="Ncaron" unicode="&#x147;" horiz-adv-x="487" 
d="M1 0l151 714h64l108 -612h2q8 44 16.5 86t13.5 68l97 458h53l-152 -714h-62l-108 620h-2q-6 -38 -15 -83t-17 -80l-97 -457h-52zM304 771q-4 19 -14 48.5t-21 57.5t-20 45l1 9h28q12 -19 28 -47t30 -60q24 29 50.5 57t54.5 50h27l-1 -9q-17 -17 -40 -44.5t-44 -56
t-33 -50.5h-46z" />
    <glyph glyph-name="ncaron" unicode="&#x148;" horiz-adv-x="384" 
d="M3 0l112 531h42l-12 -75h3q20 40 50 62.5t68 22.5q39 0 64 -22.5t25 -68.5q0 -22 -5.5 -54t-11.5 -60l-72 -336h-51l71 336q6 27 11 54.5t5 49.5q0 53 -51 53q-50 0 -82 -52.5t-54 -152.5l-61 -288h-51zM226 606q-4 19 -14 48.5t-21 57.5t-20 45l1 9h28q12 -19 28 -47
t30 -60q24 29 50.5 57t54.5 50h27l-1 -9q-17 -17 -40 -44.5t-44 -56t-33 -50.5h-46z" />
    <glyph glyph-name="napostrophe" unicode="&#x149;" horiz-adv-x="406" 
d="M24 0l112 531h42l-12 -75h3q20 40 50 62.5t68 22.5q39 0 64 -22.5t25 -68.5q0 -22 -5.5 -54t-11.5 -60l-72 -336h-51l71 336q6 27 11 54.5t5 49.5q0 53 -51 53q-50 0 -82 -52.5t-54 -152.5l-61 -288h-51zM24 482q28 54 53 115t40 117h51l4 -12q-19 -52 -47.5 -111
t-60.5 -109h-40z" />
    <glyph glyph-name="Eng" unicode="&#x14a;" horiz-adv-x="484" 
d="M212 -182q-16 0 -31 4t-25 9l12 48q20 -11 46 -11q36 0 54 29.5t30 92.5l-113 635h-3q-3 -25 -9 -56t-15 -69l-105 -500h-52l151 714h65l107 -606h3q5 29 11 59.5t12 61.5l103 485h53l-154 -722q-18 -86 -47 -130t-93 -44z" />
    <glyph glyph-name="eng" unicode="&#x14b;" horiz-adv-x="384" 
d="M120 -240q-27 0 -42 6v48q15 -6 38 -6q24 0 39 12t26.5 43.5t23.5 88.5l81 384q6 27 11 54.5t5 49.5q0 53 -51 53q-50 0 -82 -52t-53 -150l-62 -291h-51l112 531h42l-12 -75h3q20 40 50 62.5t68 22.5q39 0 64 -22.5t25 -68.5q0 -22 -5.5 -54t-11.5 -60l-82 -388
q-15 -69 -31 -110.5t-40.5 -59.5t-64.5 -18z" />
    <glyph glyph-name="Omacron" unicode="&#x14c;" horiz-adv-x="470" 
d="M176 -10q-70 0 -106 49.5t-36 153.5q0 60 10.5 131.5t32.5 141.5t55.5 128.5t78.5 94t103 35.5q69 0 103.5 -46.5t34.5 -145.5q0 -46 -6.5 -103.5t-20.5 -118.5t-36 -118t-53 -102.5t-70.5 -72.5t-89.5 -27zM180 39q45 0 80 34.5t61 91t43 122.5t25.5 130.5t8.5 114.5
q0 75 -21.5 109.5t-67.5 34.5q-39 0 -70.5 -25.5t-55.5 -67.5t-42 -94t-29.5 -106.5t-17 -103.5t-5.5 -85q0 -82 23.5 -118.5t67.5 -36.5zM212 776l8 43h227l-9 -43h-226z" />
    <glyph glyph-name="omacron" unicode="&#x14d;" horiz-adv-x="383" 
d="M142 -10q-54 0 -85 38t-31 116q0 39 7 90.5t23 105t41.5 99t61.5 74t85 28.5q52 0 82 -39t30 -117q0 -48 -8 -102t-25 -106t-42.5 -94t-60 -67.5t-78.5 -25.5zM146 36q31 0 56.5 23.5t44.5 62.5t31.5 85.5t19 93.5t6.5 85q0 109 -66 109q-33 0 -59 -25.5t-44.5 -66.5
t-31 -89t-18.5 -93t-6 -77q0 -108 67 -108zM140 611l8 43h227l-9 -43h-226z" />
    <glyph glyph-name="Obreve" unicode="&#x14e;" horiz-adv-x="470" 
d="M176 -10q-70 0 -106 49.5t-36 153.5q0 60 10.5 131.5t32.5 141.5t55.5 128.5t78.5 94t103 35.5q69 0 103.5 -46.5t34.5 -145.5q0 -46 -6.5 -103.5t-20.5 -118.5t-36 -118t-53 -102.5t-70.5 -72.5t-89.5 -27zM180 39q45 0 80 34.5t61 91t43 122.5t25.5 130.5t8.5 114.5
q0 75 -21.5 109.5t-67.5 34.5q-39 0 -70.5 -25.5t-55.5 -67.5t-42 -94t-29.5 -106.5t-17 -103.5t-5.5 -85q0 -82 23.5 -118.5t67.5 -36.5zM332 772q-53 0 -74 26.5t-21 66.5v14t2 10h34q0 -37 13 -55.5t48 -18.5t53.5 17t27.5 57h36q-10 -57 -38 -87t-81 -30z" />
    <glyph glyph-name="obreve" unicode="&#x14f;" horiz-adv-x="383" 
d="M142 -10q-54 0 -85 38t-31 116q0 39 7 90.5t23 105t41.5 99t61.5 74t85 28.5q52 0 82 -39t30 -117q0 -48 -8 -102t-25 -106t-42.5 -94t-60 -67.5t-78.5 -25.5zM146 36q31 0 56.5 23.5t44.5 62.5t31.5 85.5t19 93.5t6.5 85q0 109 -66 109q-33 0 -59 -25.5t-44.5 -66.5
t-31 -89t-18.5 -93t-6 -77q0 -108 67 -108zM267 607q-53 0 -74 26.5t-21 66.5v14t2 10h34q0 -37 13 -55.5t48 -18.5t53.5 17t27.5 57h36q-10 -57 -38 -87t-81 -30z" />
    <glyph glyph-name="Ohungarumlaut" unicode="&#x150;" horiz-adv-x="470" 
d="M176 -10q-70 0 -106 49.5t-36 153.5q0 60 10.5 131.5t32.5 141.5t55.5 128.5t78.5 94t103 35.5q69 0 103.5 -46.5t34.5 -145.5q0 -46 -6.5 -103.5t-20.5 -118.5t-36 -118t-53 -102.5t-70.5 -72.5t-89.5 -27zM180 39q45 0 80 34.5t61 91t43 122.5t25.5 130.5t8.5 114.5
q0 75 -21.5 109.5t-67.5 34.5q-39 0 -70.5 -25.5t-55.5 -67.5t-42 -94t-29.5 -106.5t-17 -103.5t-5.5 -85q0 -82 23.5 -118.5t67.5 -36.5zM362 771l1 9q37 41 67.5 81.5t45.5 69.5h58v-8q-14 -21 -39.5 -50t-54 -56.5t-52.5 -45.5h-26zM222 771v9q38 41 68 82t46 69h58v-8
q-14 -22 -39.5 -50.5t-54.5 -56t-54 -45.5h-24z" />
    <glyph glyph-name="ohungarumlaut" unicode="&#x151;" horiz-adv-x="383" 
d="M142 -10q-54 0 -85 38t-31 116q0 39 7 90.5t23 105t41.5 99t61.5 74t85 28.5q52 0 82 -39t30 -117q0 -48 -8 -102t-25 -106t-42.5 -94t-60 -67.5t-78.5 -25.5zM146 36q31 0 56.5 23.5t44.5 62.5t31.5 85.5t19 93.5t6.5 85q0 109 -66 109q-33 0 -59 -25.5t-44.5 -66.5
t-31 -89t-18.5 -93t-6 -77q0 -108 67 -108zM308 606l1 9q37 41 67.5 81.5t45.5 69.5h58v-8q-14 -21 -39.5 -50t-54 -56.5t-52.5 -45.5h-26zM168 606v9q38 41 68 82t46 69h58v-8q-14 -22 -39.5 -50.5t-54.5 -56t-54 -45.5h-24z" />
    <glyph glyph-name="OE" unicode="&#x152;" horiz-adv-x="545" 
d="M182 -3q-75 0 -111 51t-36 144q0 58 9.5 128.5t29.5 140.5t52.5 128t78.5 93.5t107 35.5q18 0 35 -1t27 -3h222l-10 -48h-190l-56 -268h176l-10 -48h-176l-65 -302h189l-10 -48h-214q-8 -1 -19.5 -2t-28.5 -1zM190 45q14 0 22 2l132 619q-6 1 -14 2t-20 1
q-45 0 -80.5 -31.5t-62 -84t-43.5 -115.5t-25.5 -126t-8.5 -116q0 -76 24 -113.5t76 -37.5z" />
    <glyph glyph-name="oe" unicode="&#x153;" horiz-adv-x="604" 
d="M140 -10q-52 0 -83 39t-31 121q0 35 7 84.5t22 103t40.5 99.5t61.5 75t85 29q50 0 73.5 -33.5t26.5 -99.5q28 62 68.5 97.5t85.5 35.5q42 0 68 -24t26 -76q0 -53 -27 -97.5t-81.5 -71t-136.5 -26.5h-7q-4 -21 -6 -44t-2 -47q0 -62 21 -91t65 -29q26 0 49 7.5t45 20.5v-46
q-21 -12 -47.5 -19.5t-58.5 -7.5q-105 0 -114 131q-26 -58 -63 -94.5t-87 -36.5zM346 288h4q68 0 110 21t61 55.5t19 73.5q0 27 -12 42.5t-38 15.5q-32 0 -61 -29.5t-51 -77t-32 -101.5zM147 36q31 0 56 24t44 63t31.5 86t19 94t6.5 85q0 106 -66 106q-33 0 -59 -24.5
t-44.5 -64.5t-31 -86.5t-18.5 -91.5t-6 -79q0 -58 17.5 -85t50.5 -27z" />
    <glyph glyph-name="Racute" unicode="&#x154;" horiz-adv-x="388" 
d="M2 0l150 714h92q70 0 110 -38t40 -112q0 -59 -18 -110.5t-52 -87t-82 -46.5l60 -320h-56l-56 310h-70l-66 -310h-52zM130 356h58q54 0 87 30.5t48 77.5t15 94q0 108 -104 108h-38zM254 790v8q36 39 67 79.5t49 72.5h62l-1 -8q-14 -20 -40.5 -50t-55.5 -58t-50 -44h-31z
" />
    <glyph glyph-name="racute" unicode="&#x155;" horiz-adv-x="254" 
d="M3 0l112 531h41l-14 -89h2q21 48 50 73.5t69 25.5q11 0 20 -2t17 -4l-15 -53q-13 6 -33 6q-30 0 -52.5 -19t-39 -49.5t-27.5 -67t-19 -71.5l-60 -281h-51zM148 603v8q36 39 67 79.5t49 72.5h62l-1 -8q-14 -20 -40.5 -50t-55.5 -58t-50 -44h-31z" />
    <glyph glyph-name="uni0156" unicode="&#x156;" horiz-adv-x="388" 
d="M2 0l150 714h92q70 0 110 -38t40 -112q0 -59 -18 -110.5t-52 -87t-82 -46.5l60 -320h-56l-56 310h-70l-66 -310h-52zM130 356h58q54 0 87 30.5t48 77.5t15 94q0 108 -104 108h-38zM45 -221v15q13 15 28.5 41t29.5 54.5t21 49.5h51v-11q-7 -21 -25 -49t-39 -55.5
t-38 -44.5h-28z" />
    <glyph glyph-name="uni0157" unicode="&#x157;" horiz-adv-x="254" 
d="M3 0l112 531h41l-14 -89h2q21 48 50 73.5t69 25.5q11 0 20 -2t17 -4l-15 -53q-13 6 -33 6q-30 0 -52.5 -19t-39 -49.5t-27.5 -67t-19 -71.5l-60 -281h-51zM-22 -221v15q13 15 28.5 41t29.5 54.5t21 49.5h51v-11q-7 -21 -25 -49t-39 -55.5t-38 -44.5h-28z" />
    <glyph glyph-name="Rcaron" unicode="&#x158;" horiz-adv-x="388" 
d="M2 0l150 714h92q70 0 110 -38t40 -112q0 -59 -18 -110.5t-52 -87t-82 -46.5l60 -320h-56l-56 310h-70l-66 -310h-52zM130 356h58q54 0 87 30.5t48 77.5t15 94q0 108 -104 108h-38zM256 771q-4 19 -14 48.5t-21 57.5t-20 45l1 9h28q12 -19 28 -47t30 -60q24 29 50.5 57
t54.5 50h27l-1 -9q-17 -17 -40 -44.5t-44 -56t-33 -50.5h-46z" />
    <glyph glyph-name="rcaron" unicode="&#x159;" horiz-adv-x="254" 
d="M3 0l112 531h41l-14 -89h2q21 48 50 73.5t69 25.5q11 0 20 -2t17 -4l-15 -53q-13 6 -33 6q-30 0 -52.5 -19t-39 -49.5t-27.5 -67t-19 -71.5l-60 -281h-51zM190 606q-4 19 -14 48.5t-21 57.5t-20 45l1 9h28q12 -19 28 -47t30 -60q24 29 50.5 57t54.5 50h27l-1 -9
q-17 -17 -40 -44.5t-44 -56t-33 -50.5h-46z" />
    <glyph glyph-name="Sacute" unicode="&#x15a;" horiz-adv-x="358" 
d="M102 -10q-41 0 -74 8t-54 22l5 56q25 -16 56 -26t69 -10q63 0 100.5 39t37.5 111q0 28 -7.5 51.5t-25 48t-46.5 56.5q-40 44 -63.5 83.5t-23.5 100.5q0 93 53 143.5t137 50.5q36 0 70 -10t54 -24l-26 -48q-20 13 -45.5 22.5t-56.5 9.5q-57 0 -93.5 -36t-36.5 -102
q0 -49 21 -83.5t65 -80.5q38 -40 59 -82t21 -96q0 -93 -51.5 -148.5t-144.5 -55.5zM240 790v8q36 39 67 79.5t49 72.5h62l-1 -8q-14 -20 -40.5 -50t-55.5 -58t-50 -44h-31z" />
    <glyph glyph-name="sacute" unicode="&#x15b;" horiz-adv-x="295" 
d="M88 -10q-34 0 -61 7.5t-41 16.5v54q16 -12 43 -21.5t55 -9.5q48 0 72 26.5t24 76.5q0 33 -13.5 57.5t-46.5 62.5q-28 32 -46 63.5t-18 76.5q0 59 37 100t103 41q38 0 64.5 -9.5t45.5 -21.5l-25 -43q-16 12 -37 20.5t-48 8.5q-40 0 -63.5 -25t-23.5 -65q0 -31 11.5 -55.5
t39.5 -55.5q25 -27 41.5 -49t24.5 -45t8 -56q0 -73 -38.5 -114t-107.5 -41zM168 603v8q36 39 67 79.5t49 72.5h62l-1 -8q-14 -20 -40.5 -50t-55.5 -58t-50 -44h-31z" />
    <glyph glyph-name="Scircumflex" unicode="&#x15c;" horiz-adv-x="358" 
d="M102 -10q-41 0 -74 8t-54 22l5 56q25 -16 56 -26t69 -10q63 0 100.5 39t37.5 111q0 28 -7.5 51.5t-25 48t-46.5 56.5q-40 44 -63.5 83.5t-23.5 100.5q0 93 53 143.5t137 50.5q36 0 70 -10t54 -24l-26 -48q-20 13 -45.5 22.5t-56.5 9.5q-57 0 -93.5 -36t-36.5 -102
q0 -49 21 -83.5t65 -80.5q38 -40 59 -82t21 -96q0 -93 -51.5 -148.5t-144.5 -55.5zM157 771l1 9q32 33 64 73.5t54 77.5h45q3 -19 13 -48.5t22 -57.5t20 -45l-2 -9h-26q-14 21 -30 49t-28 58q-24 -29 -51 -57t-55 -50h-27z" />
    <glyph glyph-name="scircumflex" unicode="&#x15d;" horiz-adv-x="295" 
d="M88 -10q-34 0 -61 7.5t-41 16.5v54q16 -12 43 -21.5t55 -9.5q48 0 72 26.5t24 76.5q0 33 -13.5 57.5t-46.5 62.5q-28 32 -46 63.5t-18 76.5q0 59 37 100t103 41q38 0 64.5 -9.5t45.5 -21.5l-25 -43q-16 12 -37 20.5t-48 8.5q-40 0 -63.5 -25t-23.5 -65q0 -31 11.5 -55.5
t39.5 -55.5q25 -27 41.5 -49t24.5 -45t8 -56q0 -73 -38.5 -114t-107.5 -41zM98 606l1 9q32 33 64 73.5t54 77.5h45q3 -19 13 -48.5t22 -57.5t20 -45l-2 -9h-26q-14 21 -30 49t-28 58q-24 -29 -51 -57t-55 -50h-27z" />
    <glyph glyph-name="Scedilla" unicode="&#x15e;" horiz-adv-x="358" 
d="M102 -10q-41 0 -74 8t-54 22l5 56q25 -16 56 -26t69 -10q63 0 100.5 39t37.5 111q0 28 -7.5 51.5t-25 48t-46.5 56.5q-40 44 -63.5 83.5t-23.5 100.5q0 93 53 143.5t137 50.5q36 0 70 -10t54 -24l-26 -48q-20 13 -45.5 22.5t-56.5 9.5q-57 0 -93.5 -36t-36.5 -102
q0 -49 21 -83.5t65 -80.5q38 -40 59 -82t21 -96q0 -93 -51.5 -148.5t-144.5 -55.5zM33 -240q-20 0 -34 2t-26 5v38q8 -3 22 -5t35 -2q37 0 58 19t21 47q0 26 -19 39t-57 17l54 80h36l-40 -58q33 -6 52 -25t19 -49q0 -50 -34.5 -79t-86.5 -29z" />
    <glyph glyph-name="scedilla" unicode="&#x15f;" horiz-adv-x="295" 
d="M88 -10q-34 0 -61 7.5t-41 16.5v54q16 -12 43 -21.5t55 -9.5q48 0 72 26.5t24 76.5q0 33 -13.5 57.5t-46.5 62.5q-28 32 -46 63.5t-18 76.5q0 59 37 100t103 41q38 0 64.5 -9.5t45.5 -21.5l-25 -43q-16 12 -37 20.5t-48 8.5q-40 0 -63.5 -25t-23.5 -65q0 -31 11.5 -55.5
t39.5 -55.5q25 -27 41.5 -49t24.5 -45t8 -56q0 -73 -38.5 -114t-107.5 -41zM6 -240q-20 0 -34 2t-26 5v38q8 -3 22 -5t35 -2q37 0 58 19t21 47q0 26 -19 39t-57 17l54 80h36l-40 -58q33 -6 52 -25t19 -49q0 -50 -34.5 -79t-86.5 -29z" />
    <glyph glyph-name="Scaron" unicode="&#x160;" horiz-adv-x="358" 
d="M102 -10q-41 0 -74 8t-54 22l5 56q25 -16 56 -26t69 -10q63 0 100.5 39t37.5 111q0 28 -7.5 51.5t-25 48t-46.5 56.5q-40 44 -63.5 83.5t-23.5 100.5q0 93 53 143.5t137 50.5q36 0 70 -10t54 -24l-26 -48q-20 13 -45.5 22.5t-56.5 9.5q-57 0 -93.5 -36t-36.5 -102
q0 -49 21 -83.5t65 -80.5q38 -40 59 -82t21 -96q0 -93 -51.5 -148.5t-144.5 -55.5zM254 771q-4 19 -14 48.5t-21 57.5t-20 45l1 9h28q12 -19 28 -47t30 -60q24 29 50.5 57t54.5 50h27l-1 -9q-17 -17 -40 -44.5t-44 -56t-33 -50.5h-46z" />
    <glyph glyph-name="scaron" unicode="&#x161;" horiz-adv-x="295" 
d="M88 -10q-34 0 -61 7.5t-41 16.5v54q16 -12 43 -21.5t55 -9.5q48 0 72 26.5t24 76.5q0 33 -13.5 57.5t-46.5 62.5q-28 32 -46 63.5t-18 76.5q0 59 37 100t103 41q38 0 64.5 -9.5t45.5 -21.5l-25 -43q-16 12 -37 20.5t-48 8.5q-40 0 -63.5 -25t-23.5 -65q0 -31 11.5 -55.5
t39.5 -55.5q25 -27 41.5 -49t24.5 -45t8 -56q0 -73 -38.5 -114t-107.5 -41zM190 606q-4 19 -14 48.5t-21 57.5t-20 45l1 9h28q12 -19 28 -47t30 -60q24 29 50.5 57t54.5 50h27l-1 -9q-17 -17 -40 -44.5t-44 -56t-33 -50.5h-46z" />
    <glyph glyph-name="uni021A" unicode="&#x21a;" horiz-adv-x="319" 
d="M66 0l141 665h-125l10 49h304l-10 -49h-126l-142 -665h-52zM10 -221v15q13 15 28.5 41t29.5 54.5t21 49.5h51v-11q-7 -21 -25 -49t-39 -55.5t-38 -44.5h-28z" />
    <glyph glyph-name="uni021B" unicode="&#x21b;" horiz-adv-x="210" 
d="M88 -10q-34 0 -51 20t-17 56q0 15 3 35.5t7 42.5l73 342h-47l6 33l52 12l38 125h38l-26 -125h70l-10 -45h-70l-73 -345q-5 -20 -7.5 -37.5t-2.5 -29.5q0 -37 33 -37q10 0 20.5 2t19.5 5v-43q-27 -11 -56 -11zM-44 -221v15q13 15 28.5 41t29.5 54.5t21 49.5h51v-11
q-7 -21 -25 -49t-39 -55.5t-38 -44.5h-28z" />
    <glyph glyph-name="Tcaron" unicode="&#x164;" horiz-adv-x="319" 
d="M66 0l141 665h-125l10 49h304l-10 -49h-126l-142 -665h-52zM224 771q-4 19 -14 48.5t-21 57.5t-20 45l1 9h28q12 -19 28 -47t30 -60q24 29 50.5 57t54.5 50h27l-1 -9q-17 -17 -40 -44.5t-44 -56t-33 -50.5h-46z" />
    <glyph glyph-name="tcaron" unicode="&#x165;" horiz-adv-x="205" 
d="M88 -10q-34 0 -51 20t-17 56q0 15 3 35.5t7 42.5l73 342h-47l6 33l52 12l38 125h38l-26 -125h70l-10 -45h-70l-73 -345q-5 -20 -7.5 -37.5t-2.5 -29.5q0 -37 33 -37q10 0 20.5 2t19.5 5v-43q-27 -11 -56 -11zM218 590v8q20 39 36 79t24 73h52v-10q-7 -20 -21 -47.5
t-30.5 -55t-30.5 -47.5h-30z" />
    <glyph glyph-name="Tbar" unicode="&#x166;" horiz-adv-x="316" 
d="M66 0l74 348h-94l8 44h95l58 273h-125l10 49h304l-10 -49h-126l-58 -273h98l-8 -44h-100l-73 -348h-53z" />
    <glyph glyph-name="tbar" unicode="&#x167;" horiz-adv-x="203" 
d="M87 -10q-34 0 -51 20t-17 56q0 29 11 76l30 140h-53l9 43h52l35 161h-47l6 33l52 12l38 125h38l-26 -125h70l-10 -45h-70l-35 -161h81l-8 -43h-81l-31 -141q-4 -20 -6.5 -36.5t-2.5 -28.5q0 -39 34 -39q11 0 20.5 2t18.5 5v-43q-27 -11 -57 -11z" />
    <glyph glyph-name="Utilde" unicode="&#x168;" horiz-adv-x="448" 
d="M165 -10q-61 0 -97 36t-36 103q0 18 3 40.5t7 46.5l106 498h54l-107 -500q-5 -22 -7 -43t-2 -37q0 -48 22.5 -71.5t61.5 -23.5q62 0 91.5 47.5t50.5 141.5l106 486h52l-106 -490q-15 -72 -38.5 -124.5t-61.5 -81t-99 -28.5zM188 775q9 52 30.5 80t57.5 28q20 0 35 -9.5
t27 -21.5t23 -21.5t25 -9.5q17 0 27.5 14t18.5 48h37q-10 -57 -31.5 -82.5t-53.5 -25.5q-20 0 -34.5 9.5t-26 22.5t-23.5 22.5t-26 9.5q-21 0 -32.5 -17t-17.5 -47h-36z" />
    <glyph glyph-name="utilde" unicode="&#x169;" horiz-adv-x="386" 
d="M114 -10q-42 0 -65 23.5t-23 68.5q0 21 5 51t10 56l73 342h52l-73 -341q-6 -26 -10.5 -51t-4.5 -47q0 -55 51 -55q50 0 82.5 53t53.5 154l61 287h52l-112 -531h-42l10 73h-2q-20 -40 -51 -61.5t-67 -21.5zM135 610q9 52 30.5 80t57.5 28q20 0 35 -9.5t27 -21.5t23 -21.5
t25 -9.5q17 0 27.5 14t18.5 48h37q-10 -57 -31.5 -82.5t-53.5 -25.5q-20 0 -34.5 9.5t-26 22.5t-23.5 22.5t-26 9.5q-21 0 -32.5 -17t-17.5 -47h-36z" />
    <glyph glyph-name="Umacron" unicode="&#x16a;" horiz-adv-x="448" 
d="M165 -10q-61 0 -97 36t-36 103q0 18 3 40.5t7 46.5l106 498h54l-107 -500q-5 -22 -7 -43t-2 -37q0 -48 22.5 -71.5t61.5 -23.5q62 0 91.5 47.5t50.5 141.5l106 486h52l-106 -490q-15 -72 -38.5 -124.5t-61.5 -81t-99 -28.5zM204 776l8 43h227l-9 -43h-226z" />
    <glyph glyph-name="umacron" unicode="&#x16b;" horiz-adv-x="386" 
d="M114 -10q-42 0 -65 23.5t-23 68.5q0 21 5 51t10 56l73 342h52l-73 -341q-6 -26 -10.5 -51t-4.5 -47q0 -55 51 -55q50 0 82.5 53t53.5 154l61 287h52l-112 -531h-42l10 73h-2q-20 -40 -51 -61.5t-67 -21.5zM145 611l8 43h227l-9 -43h-226z" />
    <glyph glyph-name="Ubreve" unicode="&#x16c;" horiz-adv-x="448" 
d="M165 -10q-61 0 -97 36t-36 103q0 18 3 40.5t7 46.5l106 498h54l-107 -500q-5 -22 -7 -43t-2 -37q0 -48 22.5 -71.5t61.5 -23.5q62 0 91.5 47.5t50.5 141.5l106 486h52l-106 -490q-15 -72 -38.5 -124.5t-61.5 -81t-99 -28.5zM317 772q-53 0 -74 26.5t-21 66.5v14t2 10h34
q0 -37 13 -55.5t48 -18.5t53.5 17t27.5 57h36q-10 -57 -38 -87t-81 -30z" />
    <glyph glyph-name="ubreve" unicode="&#x16d;" horiz-adv-x="386" 
d="M114 -10q-42 0 -65 23.5t-23 68.5q0 21 5 51t10 56l73 342h52l-73 -341q-6 -26 -10.5 -51t-4.5 -47q0 -55 51 -55q50 0 82.5 53t53.5 154l61 287h52l-112 -531h-42l10 73h-2q-20 -40 -51 -61.5t-67 -21.5zM261 607q-53 0 -74 26.5t-21 66.5v14t2 10h34q0 -37 13 -55.5
t48 -18.5t53.5 17t27.5 57h36q-10 -57 -38 -87t-81 -30z" />
    <glyph glyph-name="Uring" unicode="&#x16e;" horiz-adv-x="448" 
d="M165 -10q-61 0 -97 36t-36 103q0 18 3 40.5t7 46.5l106 498h54l-107 -500q-5 -22 -7 -43t-2 -37q0 -48 22.5 -71.5t61.5 -23.5q62 0 91.5 47.5t50.5 141.5l106 486h52l-106 -490q-15 -72 -38.5 -124.5t-61.5 -81t-99 -28.5zM330 775q-44 0 -69 25t-25 69q0 40 25 66
t69 26t68 -26t25 -66q0 -40 -24.5 -67t-68.5 -27zM330 810q27 0 42.5 16t15.5 43q0 26 -15 42t-43 16t-43 -16.5t-15 -41.5q0 -27 15 -43t43 -16z" />
    <glyph glyph-name="uring" unicode="&#x16f;" horiz-adv-x="386" 
d="M114 -10q-42 0 -65 23.5t-23 68.5q0 21 5 51t10 56l73 342h52l-73 -341q-6 -26 -10.5 -51t-4.5 -47q0 -55 51 -55q50 0 82.5 53t53.5 154l61 287h52l-112 -531h-42l10 73h-2q-20 -40 -51 -61.5t-67 -21.5zM270 610q-44 0 -69 25t-25 69q0 40 25 66t69 26t68 -26t25 -66
q0 -40 -24.5 -67t-68.5 -27zM270 645q27 0 42.5 16t15.5 43q0 26 -15 42t-43 16t-43 -16.5t-15 -41.5q0 -27 15 -43t43 -16z" />
    <glyph glyph-name="Uhungarumlaut" unicode="&#x170;" horiz-adv-x="448" 
d="M165 -10q-61 0 -97 36t-36 103q0 18 3 40.5t7 46.5l106 498h54l-107 -500q-5 -22 -7 -43t-2 -37q0 -48 22.5 -71.5t61.5 -23.5q62 0 91.5 47.5t50.5 141.5l106 486h52l-106 -490q-15 -72 -38.5 -124.5t-61.5 -81t-99 -28.5zM362 771l1 9q37 41 67.5 81.5t45.5 69.5h58v-8
q-14 -21 -39.5 -50t-54 -56.5t-52.5 -45.5h-26zM222 771v9q38 41 68 82t46 69h58v-8q-14 -22 -39.5 -50.5t-54.5 -56t-54 -45.5h-24z" />
    <glyph glyph-name="uhungarumlaut" unicode="&#x171;" horiz-adv-x="386" 
d="M114 -10q-42 0 -65 23.5t-23 68.5q0 21 5 51t10 56l73 342h52l-73 -341q-6 -26 -10.5 -51t-4.5 -47q0 -55 51 -55q50 0 82.5 53t53.5 154l61 287h52l-112 -531h-42l10 73h-2q-20 -40 -51 -61.5t-67 -21.5zM302 606l1 9q37 41 67.5 81.5t45.5 69.5h58v-8
q-14 -21 -39.5 -50t-54 -56.5t-52.5 -45.5h-26zM162 606v9q38 41 68 82t46 69h58v-8q-14 -22 -39.5 -50.5t-54.5 -56t-54 -45.5h-24z" />
    <glyph glyph-name="Uogonek" unicode="&#x172;" horiz-adv-x="448" 
d="M165 -10q-61 0 -97 36t-36 103q0 18 3 40.5t7 46.5l106 498h54l-107 -500q-5 -22 -7 -43t-2 -37q0 -48 22.5 -71.5t61.5 -23.5q62 0 91.5 47.5t50.5 141.5l106 486h52l-106 -490q-15 -72 -38.5 -124.5t-61.5 -81t-99 -28.5zM146 -220q-34 0 -53 19.5t-19 49.5
q0 40 23 74.5t79 76.5h40q-52 -44 -73 -75.5t-20 -64.5q0 -38 39 -38q18 0 37 6l-8 -40q-10 -3 -20.5 -5.5t-24.5 -2.5z" />
    <glyph glyph-name="uogonek" unicode="&#x173;" horiz-adv-x="386" 
d="M114 -10q-42 0 -65 23.5t-23 68.5q0 21 5 51t10 56l73 342h52l-73 -341q-6 -26 -10.5 -51t-4.5 -47q0 -55 51 -55q50 0 82.5 53t53.5 154l61 287h52l-112 -531h-42l10 73h-2q-20 -40 -51 -61.5t-67 -21.5zM198 -220q-34 0 -53 19.5t-19 49.5q0 40 23 74.5t79 76.5h40
q-52 -44 -73 -75.5t-20 -64.5q0 -38 39 -38q18 0 37 6l-8 -40q-10 -3 -20.5 -5.5t-24.5 -2.5z" />
    <glyph glyph-name="Wcircumflex" unicode="&#x174;" horiz-adv-x="626" 
d="M72 0l14 714h52l-12 -511q-1 -41 -2.5 -71t-2.5 -52h2q11 33 24 66.5t24 62.5l199 505h49l-17 -489q-2 -43 -3.5 -78t-3.5 -70h2q13 37 26 71.5t30 77.5l193 488h55l-285 -714h-67l18 507q1 23 2 47t3 50h-2q-8 -22 -15.5 -45t-16.5 -44l-200 -515h-66zM281 771l1 9
q32 33 64 73.5t54 77.5h45q3 -19 13 -48.5t22 -57.5t20 -45l-2 -9h-26q-14 21 -30 49t-28 58q-24 -29 -51 -57t-55 -50h-27z" />
    <glyph glyph-name="wcircumflex" unicode="&#x175;" horiz-adv-x="502" 
d="M56 -1l7 532h49l-6 -337q0 -30 -1 -57.5t-3 -53.5h2q7 24 18.5 53.5t21.5 53.5l136 341h57l-8 -337q-1 -22 -2.5 -53.5t-3.5 -59.5h2q10 28 20.5 56.5t22.5 59.5l128 334h52l-211 -532h-58l10 362q1 22 1.5 46.5t3.5 48.5h-2q-7 -22 -14.5 -42.5t-15.5 -41.5l-148 -373
h-58zM201 606l1 9q32 33 64 73.5t54 77.5h45q3 -19 13 -48.5t22 -57.5t20 -45l-2 -9h-26q-14 21 -30 49t-28 58q-24 -29 -51 -57t-55 -50h-27z" />
    <glyph glyph-name="Ycircumflex" unicode="&#x176;" horiz-adv-x="322" 
d="M68 0l58 276l-42 438h54l30 -363l182 363h58l-228 -436l-59 -278h-53zM141 771l1 9q32 33 64 73.5t54 77.5h45q3 -19 13 -48.5t22 -57.5t20 -45l-2 -9h-26q-14 21 -30 49t-28 58q-24 -29 -51 -57t-55 -50h-27z" />
    <glyph glyph-name="ycircumflex" unicode="&#x177;" horiz-adv-x="317" 
d="M-57 -242q-30 0 -47 10l8 47q8 -4 17.5 -6.5t21.5 -2.5q30 0 50.5 22.5t40.5 69.5l48 110l-10 523h52l2 -341v-50.5t-2 -53.5h2q9 27 19.5 53.5t18.5 45.5l150 346h54l-285 -645q-29 -63 -59 -95.5t-81 -32.5zM112 606l1 9q32 33 64 73.5t54 77.5h45q3 -19 13 -48.5
t22 -57.5t20 -45l-2 -9h-26q-14 21 -30 49t-28 58q-24 -29 -51 -57t-55 -50h-27z" />
    <glyph glyph-name="Ydieresis" unicode="&#x178;" horiz-adv-x="322" 
d="M68 0l58 276l-42 438h54l30 -363l182 363h58l-228 -436l-59 -278h-53zM320 804q-26 0 -26 30q0 19 10 36t30 17q25 0 25 -28q0 -21 -10.5 -38t-28.5 -17zM182 804q-26 0 -26 30q0 19 10 36t30 17q25 0 25 -28q0 -21 -10.5 -38t-28.5 -17z" />
    <glyph glyph-name="Zacute" unicode="&#x179;" horiz-adv-x="320" 
d="M-42 0l10 43l342 622h-202l10 49h262l-8 -44l-344 -622h218l-11 -48h-277zM220 790v8q36 39 67 79.5t49 72.5h62l-1 -8q-14 -20 -40.5 -50t-55.5 -58t-50 -44h-31z" />
    <glyph glyph-name="zacute" unicode="&#x17a;" horiz-adv-x="256" 
d="M-34 0l8 38l248 448h-142l10 45h198l-9 -39l-247 -446h157l-10 -46h-213zM149 603v8q36 39 67 79.5t49 72.5h62l-1 -8q-14 -20 -40.5 -50t-55.5 -58t-50 -44h-31z" />
    <glyph glyph-name="Zdotaccent" unicode="&#x17b;" horiz-adv-x="320" 
d="M-42 0l10 43l342 622h-202l10 49h262l-8 -44l-344 -622h218l-11 -48h-277zM258 799q-29 0 -29 33q0 20 11 38.5t32 18.5q28 0 28 -32q0 -21 -11 -39.5t-31 -18.5z" />
    <glyph glyph-name="zdotaccent" unicode="&#x17c;" horiz-adv-x="256" 
d="M-34 0l8 38l248 448h-142l10 45h198l-9 -39l-247 -446h157l-10 -46h-213zM209 634q-29 0 -29 33q0 20 11 38.5t32 18.5q28 0 28 -32q0 -21 -11 -39.5t-31 -18.5z" />
    <glyph glyph-name="Zcaron" unicode="&#x17d;" horiz-adv-x="320" 
d="M-42 0l10 43l342 622h-202l10 49h262l-8 -44l-344 -622h218l-11 -48h-277zM233 771q-4 19 -14 48.5t-21 57.5t-20 45l1 9h28q12 -19 28 -47t30 -60q24 29 50.5 57t54.5 50h27l-1 -9q-17 -17 -40 -44.5t-44 -56t-33 -50.5h-46z" />
    <glyph glyph-name="zcaron" unicode="&#x17e;" horiz-adv-x="256" 
d="M-34 0l8 38l248 448h-142l10 45h198l-9 -39l-247 -446h157l-10 -46h-213zM175 606q-4 19 -14 48.5t-21 57.5t-20 45l1 9h28q12 -19 28 -47t30 -60q24 29 50.5 57t54.5 50h27l-1 -9q-17 -17 -40 -44.5t-44 -56t-33 -50.5h-46z" />
    <glyph glyph-name="longs" unicode="&#x17f;" horiz-adv-x="172" 
d="M-94 -240q-26 0 -44 6v48q16 -6 40 -6q38 0 53 30t25 82l149 694q15 69 41 110t84 41q15 0 31.5 -3.5t27.5 -9.5l-19 -44q-20 10 -40 10q-35 0 -50.5 -32.5t-25.5 -83.5l-147 -686q-9 -44 -23 -79t-38 -56t-64 -21z" />
    <glyph glyph-name="florin" unicode="&#x192;" horiz-adv-x="365" 
d="M0 -240q-15 0 -27 2.5t-21 6.5v47q22 -9 46 -9q34 0 49 27.5t28 83.5l105 493h-72l6 31l76 16l26 114q17 81 44.5 116t80.5 35q16 0 32 -4.5t30 -10.5l-21 -44q-21 12 -44 12q-32 0 -47 -28t-26 -83l-23 -109h84l-9 -45h-85l-106 -494q-16 -75 -42.5 -116t-83.5 -41z" />
    <glyph glyph-name="Aringacute" unicode="&#x1fa;" horiz-adv-x="364" 
d="M231 803l-1 7q32 33 61.5 70t48.5 69h63v-7q-15 -20 -39.5 -46.5t-51 -52t-48.5 -40.5h-33zM-66 0l265 609q-44 19 -44 75q0 42 25 67t70 25q44 0 68 -26t26 -64q0 -34 -17 -56t-45 -28l17 -602h-55l-5 234h-147l-100 -234h-58zM249 626q26 0 41.5 16t15.5 41t-14.5 42
t-42.5 17q-26 0 -41.5 -17t-15.5 -42t14 -41t43 -16zM111 283h129l-3 235q-2 36 0 68h-3q-3 -15 -9.5 -32.5t-14.5 -35.5z" />
    <glyph glyph-name="aringacute" unicode="&#x1fb;" horiz-adv-x="403" 
d="M268 804l1 8q23 28 49 61.5t49 73.5h73v-8q-21 -28 -61 -66.5t-81 -68.5h-30zM271 582q-43 0 -68.5 24t-25.5 68q0 41 25 66.5t69 25.5q42 0 68.5 -25t26.5 -65q0 -44 -25.5 -69t-69.5 -25zM272 616q25 0 41 15.5t16 42.5q0 26 -15.5 42t-41.5 16q-27 0 -42.5 -16
t-15.5 -42q0 -58 58 -58zM131 -10q-103 0 -103 140q0 45 8 100t25 109.5t42.5 100t60.5 73.5t80 28q65 0 86 -73h2l20 63h43l-113 -531h-40l8 76h-2q-56 -86 -117 -86zM138 37q37 0 64 28.5t46.5 73t33.5 93.5q13 48 19.5 91t6.5 84q0 40 -17.5 63.5t-46.5 23.5
q-31 0 -57 -24t-46 -64t-33.5 -88.5t-20.5 -98.5t-7 -93q0 -44 13 -66.5t45 -22.5z" />
    <glyph glyph-name="AEacute" unicode="&#x1fc;" horiz-adv-x="514" 
d="M-70 0l336 714h293l-10 -48h-189l-56 -268h176l-10 -48h-178l-64 -302h190l-10 -48h-242l54 257h-114l-119 -257h-57zM129 306h102l77 359h-14zM317 790v8q36 39 67 79.5t49 72.5h62l-1 -8q-14 -20 -40.5 -50t-55.5 -58t-50 -44h-31z" />
    <glyph glyph-name="aeacute" unicode="&#x1fd;" horiz-adv-x="588" 
d="M125 -10q-47 0 -73 38t-26 110q0 52 9.5 108t27.5 108.5t44 94.5t59.5 67t73.5 25q35 0 56.5 -22t28.5 -60h3l18 72h38l-16 -77q23 38 53.5 62.5t68.5 24.5q42 0 66.5 -25t24.5 -75q0 -53 -27 -97.5t-81.5 -71t-136.5 -26.5h-6q-4 -21 -6 -43.5t-2 -47.5q0 -59 20 -89.5
t66 -30.5q26 0 49 8t47 22l-4 -49q-22 -12 -46 -19t-56 -7q-89 0 -106 94l-17 -84h-39l14 82h-2q-24 -44 -53 -68t-70 -24zM338 288h4q68 0 109.5 21t60.5 55.5t19 73.5q0 27 -12 42.5t-38 15.5q-31 0 -59 -27.5t-49.5 -74.5t-34.5 -106zM142 36q34 0 60 27t44 71.5t30 95.5
q12 49 19 94t7 84q0 40 -15 63t-43 23q-30 0 -55.5 -22.5t-45.5 -60.5t-34 -84t-21.5 -94t-7.5 -91q0 -56 16.5 -81t45.5 -25zM314 603v8q36 39 67 79.5t49 72.5h62l-1 -8q-14 -20 -40.5 -50t-55.5 -58t-50 -44h-31z" />
    <glyph glyph-name="Oslashacute" unicode="&#x1fe;" horiz-adv-x="472" 
d="M15 -44l-32 18l67 108q-8 22 -12 49.5t-4 61.5q0 60 10.5 131.5t32.5 141.5t55.5 128.5t78.5 94t103 35.5q71 0 105 -54l53 86l34 -20l-66 -105q12 -41 12 -99q0 -46 -6.5 -103.5t-20.5 -118.5t-36 -118t-53 -102.5t-70.5 -72.5t-89.5 -27q-71 0 -104 54zM93 148l294 470
q-20 58 -78 58q-38 0 -69 -24.5t-55 -65t-41.5 -91t-29 -103.5t-17.5 -101t-7 -84q0 -32 3 -59zM180 39q44 0 78.5 33t60 87.5t42.5 118.5t25.5 127t9.5 113q1 13 0.5 24.5t-1.5 21.5l-292 -468q11 -30 30.5 -43.5t46.5 -13.5zM296 790v8q36 39 67 79.5t49 72.5h62l-1 -8
q-14 -20 -40.5 -50t-55.5 -58t-50 -44h-31z" />
    <glyph glyph-name="oslashacute" unicode="&#x1ff;" horiz-adv-x="385" 
d="M24 -61l-31 19l53 89q-9 19 -14.5 43t-5.5 54q0 37 7 88t22.5 105t41 100t62 75t85.5 29q45 0 72 -30l43 74l32 -19l-51 -88q8 -18 12 -41t4 -52q0 -43 -7.5 -96t-24 -105.5t-41.5 -96.5t-60 -70.5t-81 -26.5t-72 26zM84 105l206 361q-16 30 -52 30q-32 0 -57 -24
t-44 -63t-31.5 -85t-19.5 -90.5t-8 -79.5q0 -30 6 -49zM146 35q31 0 55.5 22t43 59t31.5 81.5t20 89.5t8 83q0 14 -0.5 26t-3.5 22l-204 -356q18 -27 50 -27zM214 603v8q36 39 67 79.5t49 72.5h62l-1 -8q-14 -20 -40.5 -50t-55.5 -58t-50 -44h-31z" />
    <glyph glyph-name="uni0218" unicode="&#x218;" horiz-adv-x="358" 
d="M102 -10q-41 0 -74 8t-54 22l5 56q25 -16 56 -26t69 -10q63 0 100.5 39t37.5 111q0 28 -7.5 51.5t-25 48t-46.5 56.5q-40 44 -63.5 83.5t-23.5 100.5q0 93 53 143.5t137 50.5q36 0 70 -10t54 -24l-26 -48q-20 13 -45.5 22.5t-56.5 9.5q-57 0 -93.5 -36t-36.5 -102
q0 -49 21 -83.5t65 -80.5q38 -40 59 -82t21 -96q0 -93 -51.5 -148.5t-144.5 -55.5zM31 -221v15q13 15 28.5 41t29.5 54.5t21 49.5h51v-11q-7 -21 -25 -49t-39 -55.5t-38 -44.5h-28z" />
    <glyph glyph-name="uni0219" unicode="&#x219;" horiz-adv-x="295" 
d="M88 -10q-34 0 -61 7.5t-41 16.5v54q16 -12 43 -21.5t55 -9.5q48 0 72 26.5t24 76.5q0 33 -13.5 57.5t-46.5 62.5q-28 32 -46 63.5t-18 76.5q0 59 37 100t103 41q38 0 64.5 -9.5t45.5 -21.5l-25 -43q-16 12 -37 20.5t-48 8.5q-40 0 -63.5 -25t-23.5 -65q0 -31 11.5 -55.5
t39.5 -55.5q25 -27 41.5 -49t24.5 -45t8 -56q0 -73 -38.5 -114t-107.5 -41zM-2 -221v15q13 15 28.5 41t29.5 54.5t21 49.5h51v-11q-7 -21 -25 -49t-39 -55.5t-38 -44.5h-28z" />
    <glyph glyph-name="circumflex" unicode="&#x2c6;" horiz-adv-x="298" 
d="M113 606l1 9q32 33 64 73.5t54 77.5h45q3 -19 13 -48.5t22 -57.5t20 -45l-2 -9h-26q-14 21 -30 49t-28 58q-24 -29 -51 -57t-55 -50h-27z" />
    <glyph glyph-name="caron" unicode="&#x2c7;" horiz-adv-x="298" 
d="M200 606q-4 19 -14 48.5t-21 57.5t-20 45l1 9h28q12 -19 28 -47t30 -60q24 29 50.5 57t54.5 50h27l-1 -9q-17 -17 -40 -44.5t-44 -56t-33 -50.5h-46z" />
    <glyph glyph-name="macron" unicode="&#x2c9;" horiz-adv-x="307" 
d="M114 611l8 43h227l-9 -43h-226z" />
    <glyph glyph-name="breve" unicode="&#x2d8;" horiz-adv-x="292" 
d="M231 607q-53 0 -74 26.5t-21 66.5v14t2 10h34q0 -37 13 -55.5t48 -18.5t53.5 17t27.5 57h36q-10 -57 -38 -87t-81 -30z" />
    <glyph glyph-name="dotaccent" unicode="&#x2d9;" horiz-adv-x="149" 
d="M156 634q-29 0 -29 33q0 20 11 38.5t32 18.5q28 0 28 -32q0 -21 -11 -39.5t-31 -18.5z" />
    <glyph glyph-name="ring" unicode="&#x2da;" horiz-adv-x="272" 
d="M230 610q-44 0 -69 25t-25 69q0 40 25 66t69 26t68 -26t25 -66q0 -40 -24.5 -67t-68.5 -27zM230 645q27 0 42.5 16t15.5 43q0 26 -15 42t-43 16t-43 -16.5t-15 -41.5q0 -27 15 -43t43 -16z" />
    <glyph glyph-name="ogonek" unicode="&#x2db;" horiz-adv-x="212" 
d="M26 -220q-34 0 -53 19.5t-19 49.5q0 40 23 74.5t79 76.5h40q-52 -44 -73 -75.5t-20 -64.5q0 -38 39 -38q18 0 37 6l-8 -40q-10 -3 -20.5 -5.5t-24.5 -2.5z" />
    <glyph glyph-name="tilde" unicode="&#x2dc;" horiz-adv-x="339" 
d="M114 610q9 52 30.5 80t57.5 28q20 0 35 -9.5t27 -21.5t23 -21.5t25 -9.5q17 0 27.5 14t18.5 48h37q-10 -57 -31.5 -82.5t-53.5 -25.5q-20 0 -34.5 9.5t-26 22.5t-23.5 22.5t-26 9.5q-21 0 -32.5 -17t-17.5 -47h-36z" />
    <glyph glyph-name="hungarumlaut" unicode="&#x2dd;" horiz-adv-x="362" 
d="M254 606l1 9q37 41 67.5 81.5t45.5 69.5h58v-8q-14 -21 -39.5 -50t-54 -56.5t-52.5 -45.5h-26zM114 606v9q38 41 68 82t46 69h58v-8q-14 -22 -39.5 -50.5t-54.5 -56t-54 -45.5h-24z" />
    <glyph glyph-name="tonos" unicode="&#x384;" horiz-adv-x="513" 
d="M250 606l2 10q12 21 28 52.5t31 63t24 53.5h58l-2 -10q-6 -12 -20.5 -35t-32 -49.5t-33.5 -49.5t-25 -35h-30z" />
    <glyph glyph-name="dieresistonos" unicode="&#x385;" horiz-adv-x="514" 
d="M268 678v10q11 18 25 46.5t25.5 57t17.5 46.5h51l-1 -10q-8 -18 -25 -47.5t-35.5 -58.5t-31.5 -44h-26zM200 639q-26 0 -26 30q0 19 10 36t29 17q25 0 25 -28q0 -21 -11 -38t-27 -17zM370 639q-26 0 -26 30q0 19 10 36t28 17q25 0 25 -28q0 -21 -10.5 -38t-26.5 -17z" />
    <glyph glyph-name="Alphatonos" unicode="&#x386;" horiz-adv-x="366" 
d="M-65 0l296 717h68v-717h-54v256h-148l-105 -256h-57zM115 304h132l3 274q0 48 3 79h-3q-5 -16 -11.5 -35t-15.5 -44zM34 535l2 10q12 21 28 52.5t31 63t24 53.5h58l-2 -10q-6 -12 -20.5 -35t-32 -49.5t-33.5 -49.5t-25 -35h-30z" />
    <glyph glyph-name="anoteleia" unicode="&#x387;" horiz-adv-x="188" 
d="M99 302q-30 0 -30 33q0 23 12 42.5t34 19.5q29 0 29 -34q0 -23 -12.5 -42t-32.5 -19z" />
    <glyph glyph-name="Epsilontonos" unicode="&#x388;" horiz-adv-x="424" 
d="M72 0l151 714h242l-10 -48h-188l-57 -268h177l-12 -48h-176l-64 -302h189l-10 -48h-242zM38 535l2 10q12 21 28 52.5t31 63t24 53.5h58l-2 -10q-6 -12 -20.5 -35t-32 -49.5t-33.5 -49.5t-25 -35h-30z" />
    <glyph glyph-name="Etatonos" unicode="&#x389;" horiz-adv-x="533" 
d="M72 0l151 714h54l-67 -315h221l66 315h54l-152 -714h-54l74 350h-220l-74 -350h-53zM38 535l2 10q12 21 28 52.5t31 63t24 53.5h58l-2 -10q-6 -12 -20.5 -35t-32 -49.5t-33.5 -49.5t-25 -35h-30z" />
    <glyph glyph-name="Iotatonos" unicode="&#x38a;" horiz-adv-x="334" 
d="M67 0l6 32l70 9l134 631l-66 10l7 32h187l-8 -32l-68 -10l-134 -631l64 -9l-6 -32h-186zM38 535l2 10q12 21 28 52.5t31 63t24 53.5h58l-2 -10q-6 -12 -20.5 -35t-32 -49.5t-33.5 -49.5t-25 -35h-30z" />
    <glyph glyph-name="Omicrontonos" unicode="&#x38c;" horiz-adv-x="501" 
d="M207 -10q-70 0 -106 49.5t-36 153.5q0 60 10.5 131.5t32.5 141.5t55.5 128.5t78.5 94t103 35.5q69 0 103.5 -46.5t34.5 -145.5q0 -46 -6.5 -103.5t-20.5 -118.5t-36 -118t-53 -102.5t-70.5 -72.5t-89.5 -27zM211 39q45 0 80 34.5t61 91t43 122.5t25.5 130.5t8.5 114.5
q0 75 -21.5 109.5t-67.5 34.5q-39 0 -70.5 -25.5t-55.5 -67.5t-42 -94t-29.5 -106.5t-17 -103.5t-5.5 -85q0 -82 23.5 -118.5t67.5 -36.5zM38 535l2 10q12 21 28 52.5t31 63t24 53.5h58l-2 -10q-6 -12 -20.5 -35t-32 -49.5t-33.5 -49.5t-25 -35h-30z" />
    <glyph glyph-name="Upsilontonos" unicode="&#x38e;" horiz-adv-x="435" 
d="M180 0l58 276l-42 438h54l30 -363l182 363h58l-228 -436l-59 -278h-53zM32 535l2 10q12 21 28 52.5t31 63t24 53.5h58l-2 -10q-6 -12 -20.5 -35t-32 -49.5t-33.5 -49.5t-25 -35h-30z" />
    <glyph glyph-name="Omegatonos" unicode="&#x38f;" horiz-adv-x="516" 
d="M38 535l2 10q12 21 28 52.5t31 63t24 53.5h58l-2 -10q-6 -12 -20.5 -35t-32 -49.5t-33.5 -49.5t-25 -35h-30zM0 0l10 48h122q-24 32 -39 86.5t-15 122.5q0 57 10 120.5t30.5 125t52.5 111.5t76.5 80t102.5 30q75 0 110.5 -49t35.5 -137q0 -104 -24.5 -199.5t-67.5 -171
t-98 -119.5h126l-11 -48h-181l10 45q43 32 78 85t60 118.5t38.5 138t13.5 143.5q0 146 -96 146q-47 0 -82.5 -30t-60.5 -79t-41 -106.5t-23 -113.5t-7 -99q0 -129 52 -203l-10 -45h-172z" />
    <glyph glyph-name="iotadieresistonos" unicode="&#x390;" horiz-adv-x="206" 
d="M86 -10q-66 0 -66 68q0 10 2.5 26t6.5 36l88 411h51l-89 -415q-7 -28 -7 -49q0 -30 27 -30q11 0 20 2t19 6v-44q-24 -11 -52 -11zM144 678v10q11 18 25 46.5t25.5 57t17.5 46.5h51l-1 -10q-8 -18 -25 -47.5t-35.5 -58.5t-31.5 -44h-26zM76 639q-26 0 -26 30q0 19 10 36
t29 17q25 0 25 -28q0 -21 -11 -38t-27 -17zM246 639q-26 0 -26 30q0 19 10 36t28 17q25 0 25 -28q0 -21 -10.5 -38t-26.5 -17z" />
    <glyph glyph-name="Alpha" unicode="&#x391;" horiz-adv-x="365" 
d="M-66 0l296 717h68v-717h-54v256h-148l-105 -256h-57zM114 304h132l3 274q0 48 3 79h-3q-5 -16 -11.5 -35t-15.5 -44z" />
    <glyph glyph-name="Beta" unicode="&#x392;" horiz-adv-x="402" 
d="M2 0l150 714h113q67 0 105 -35t38 -99q0 -46 -15 -88.5t-45.5 -74t-78.5 -43.5v-2q38 -10 59.5 -44.5t21.5 -85.5q0 -67 -24 -122t-72 -87.5t-120 -32.5h-132zM139 398h63q52 0 85 25.5t49 65.5t16 83q0 94 -98 94h-58zM65 48h69q58 0 94 27.5t52 72t16 93.5q0 58 -29 84
t-75 26h-62z" />
    <glyph glyph-name="Gamma" unicode="&#x393;" horiz-adv-x="297" 
d="M1 0l151 714h224l-10 -49h-171l-141 -665h-53z" />
    <glyph glyph-name="Epsilon" unicode="&#x395;" horiz-adv-x="352" 
d="M1 0l151 714h242l-10 -48h-188l-57 -268h177l-12 -48h-176l-64 -302h189l-10 -48h-242z" />
    <glyph glyph-name="Zeta" unicode="&#x396;" horiz-adv-x="320" 
d="M-42 0l10 43l342 622h-202l10 49h262l-8 -44l-344 -622h218l-11 -48h-277z" />
    <glyph glyph-name="Eta" unicode="&#x397;" horiz-adv-x="462" 
d="M1 0l151 714h54l-67 -315h221l66 315h54l-152 -714h-54l74 350h-220l-74 -350h-53z" />
    <glyph glyph-name="Theta" unicode="&#x398;" horiz-adv-x="488" 
d="M178 -10q-72 0 -108 49.5t-36 153.5q0 46 7 102.5t22 116.5t38 115.5t54.5 100t72 70.5t90.5 26q68 0 104.5 -46t36.5 -146q0 -62 -11 -135t-33 -144.5t-55.5 -131t-78.5 -95.5t-103 -36zM182 39q38 0 69.5 25t56 67.5t43 95t30.5 108t18 106.5t6 91q0 75 -22.5 109.5
t-68.5 34.5q-40 0 -72 -25.5t-57 -68t-43 -94.5t-30 -106t-17.5 -103t-5.5 -85q0 -82 23.5 -118.5t69.5 -36.5zM185 346l11 48h116l-10 -48h-117z" />
    <glyph glyph-name="Iota" unicode="&#x399;" horiz-adv-x="212" 
d="M-54 0l6 32l70 9l134 631l-66 10l7 32h187l-8 -32l-68 -10l-134 -631l64 -9l-6 -32h-186z" />
    <glyph glyph-name="Kappa" unicode="&#x39a;" horiz-adv-x="376" 
d="M1 0l151 714h54l-80 -376l62 91l204 285h60l-228 -320l86 -394h-58l-74 352l-66 -76l-58 -276h-53z" />
    <glyph glyph-name="Lambda" unicode="&#x39b;" horiz-adv-x="364" 
d="M-68 0l304 715h65l2 -715h-55l3 538q0 51 3 108q-10 -30 -22.5 -61.5t-27.5 -70.5l-216 -514h-56z" />
    <glyph glyph-name="Mu" unicode="&#x39c;" horiz-adv-x="617" 
d="M1 0l151 714h76l28 -633h3l295 633h81l-152 -714h-53l113 529l10 44t11 48h-2l-290 -621h-60l-28 621h-2q-6 -31 -10 -53t-9 -46l-111 -522h-51z" />
    <glyph glyph-name="Nu" unicode="&#x39d;" horiz-adv-x="487" 
d="M1 0l151 714h64l108 -612h2q8 44 16.5 86t13.5 68l97 458h53l-152 -714h-62l-108 620h-2q-6 -38 -15 -83t-17 -80l-97 -457h-52z" />
    <glyph glyph-name="Xi" unicode="&#x39e;" horiz-adv-x="350" 
d="M130 666l10 48h256l-10 -48h-256zM78 350l10 49h225l-11 -49h-224zM-16 0l10 48h264l-10 -48h-264z" />
    <glyph glyph-name="Omicron" unicode="&#x39f;" horiz-adv-x="470" 
d="M176 -10q-70 0 -106 49.5t-36 153.5q0 60 10.5 131.5t32.5 141.5t55.5 128.5t78.5 94t103 35.5q69 0 103.5 -46.5t34.5 -145.5q0 -46 -6.5 -103.5t-20.5 -118.5t-36 -118t-53 -102.5t-70.5 -72.5t-89.5 -27zM180 39q45 0 80 34.5t61 91t43 122.5t25.5 130.5t8.5 114.5
q0 75 -21.5 109.5t-67.5 34.5q-39 0 -70.5 -25.5t-55.5 -67.5t-42 -94t-29.5 -106.5t-17 -103.5t-5.5 -85q0 -82 23.5 -118.5t67.5 -36.5z" />
    <glyph glyph-name="Pi" unicode="&#x3a0;" horiz-adv-x="456" 
d="M1 0l151 714h325l-151 -714h-54l142 665h-219l-141 -665h-53z" />
    <glyph glyph-name="Rho" unicode="&#x3a1;" horiz-adv-x="378" 
d="M2 0l150 714h87q77 0 116 -40t39 -111q0 -78 -27 -139.5t-79 -96.5t-125 -35h-47l-62 -292h-52zM126 341h36q60 0 99 28.5t58 77.5t19 111q0 51 -25.5 79.5t-81.5 28.5h-35z" />
    <glyph glyph-name="Sigma" unicode="&#x3a3;" horiz-adv-x="336" 
d="M-39 0l8 43l220 331l-83 294l10 46h270l-10 -48h-212l82 -296l-214 -322h226l-10 -48h-287z" />
    <glyph glyph-name="Tau" unicode="&#x3a4;" horiz-adv-x="319" 
d="M66 0l141 665h-125l10 49h304l-10 -49h-126l-142 -665h-52z" />
    <glyph glyph-name="Upsilon" unicode="&#x3a5;" horiz-adv-x="322" 
d="M68 0l58 276l-42 438h54l30 -363l182 363h58l-228 -436l-59 -278h-53z" />
    <glyph glyph-name="Phi" unicode="&#x3a6;" horiz-adv-x="536" 
d="M168 -10l24 110q-70 8 -109.5 54t-39.5 138q0 100 32 177t91 121t140 46l18 88h52l-18 -88q68 -6 108.5 -51t40.5 -136q0 -101 -33.5 -179.5t-92.5 -123t-137 -46.5l-24 -110h-52zM202 148l94 440q-56 -2 -94 -29.5t-61 -71.5t-33.5 -95t-10.5 -99q0 -73 28.5 -107
t76.5 -38zM254 148q49 1 86 26.5t62 68.5t37.5 96t12.5 109q0 74 -29 106t-75 34z" />
    <glyph glyph-name="Chi" unicode="&#x3a7;" horiz-adv-x="337" 
d="M-58 0l214 378l-44 336h55l31 -287l154 287h56l-190 -346l42 -368h-56l-30 316l-176 -316h-56z" />
    <glyph glyph-name="Psi" unicode="&#x3a8;" horiz-adv-x="520" 
d="M163 0l47 220h-2q-36 1 -66.5 15t-49 45.5t-18.5 82.5q0 27 4 58.5t12 68.5l47 224h53l-48 -225q-16 -74 -16 -121q0 -40 14 -61t35 -29.5t43 -8.5h2l94 445h53l-95 -445h2q54 0 85 24.5t48 67.5t29 99l54 254h52l-54 -264q-14 -66 -38 -118t-67.5 -82t-118.5 -30h-2
l-46 -220h-53z" />
    <glyph glyph-name="Iotadieresis" unicode="&#x3aa;" horiz-adv-x="212" 
d="M-54 0l6 32l70 9l134 631l-66 10l7 32h187l-8 -32l-68 -10l-134 -631l64 -9l-6 -32h-186zM279 826q-26 0 -26 30q0 19 10 36t30 17q25 0 25 -28q0 -21 -10.5 -38t-28.5 -17zM141 826q-26 0 -26 30q0 19 10 36t30 17q25 0 25 -28q0 -21 -10.5 -38t-28.5 -17z" />
    <glyph glyph-name="Upsilondieresis" unicode="&#x3ab;" horiz-adv-x="322" 
d="M68 0l58 276l-42 438h54l30 -363l182 363h58l-228 -436l-59 -278h-53zM320 804q-26 0 -26 30q0 19 10 36t30 17q25 0 25 -28q0 -21 -10.5 -38t-28.5 -17zM182 804q-26 0 -26 30q0 19 10 36t30 17q25 0 25 -28q0 -21 -10.5 -38t-28.5 -17z" />
    <glyph glyph-name="alphatonos" unicode="&#x3ac;" horiz-adv-x="412" 
d="M130 -10q-48 0 -74.5 38t-26.5 110q0 50 9 106t26.5 108.5t43.5 95t59.5 68t74.5 25.5q39 0 62.5 -23.5t31.5 -63.5h2q7 21 16.5 42.5t18.5 34.5h43q-30 -57 -54 -173l-44 -203q-6 -29 -9 -50t-3 -39q0 -30 23 -30q12 0 25 5v-42q-8 -5 -18.5 -7t-19.5 -2
q-42 0 -52.5 27.5t-6.5 62.5h-3q-26 -44 -55 -67t-69 -23zM144 36q37 0 64 29.5t45 75t29 91.5q12 48 19.5 92t7.5 82q0 42 -16.5 65t-48.5 23q-31 0 -57 -24.5t-45.5 -64t-32.5 -86.5t-20 -93t-7 -82q0 -57 16 -82.5t46 -25.5zM237 606l2 10q12 21 28 52.5t31 63t24 53.5
h58l-2 -10q-6 -12 -20.5 -35t-32 -49.5t-33.5 -49.5t-25 -35h-30z" />
    <glyph glyph-name="epsilontonos" unicode="&#x3ad;" horiz-adv-x="289" 
d="M120 -10q-58 0 -88 33.5t-30 91.5q0 68 32.5 113.5t87.5 55.5v4q-22 12 -34 38.5t-12 59.5q0 41 16.5 76.5t48 57t78.5 21.5q28 0 51.5 -7.5t40.5 -21.5l-27 -40q-26 23 -66 23q-42 0 -67 -31.5t-25 -80.5q0 -80 68 -80h22l-10 -43h-30q-43 0 -69.5 -20.5t-39 -52
t-12.5 -65.5q0 -86 75 -86q24 0 44.5 6.5t41.5 19.5v-47q-20 -11 -44 -18t-52 -7zM199 606l2 10q12 21 28 52.5t31 63t24 53.5h58l-2 -10q-6 -12 -20.5 -35t-32 -49.5t-33.5 -49.5t-25 -35h-30z" />
    <glyph glyph-name="etatonos" unicode="&#x3ae;" horiz-adv-x="386" 
d="M164 -240l122 576q6 27 11 54.5t5 49.5q0 53 -51 53q-50 0 -82 -52.5t-54 -152.5l-61 -288h-51l112 531h42l-12 -75h3q20 40 50 62.5t68 22.5q39 0 64 -22.5t25 -68.5q0 -22 -5.5 -54t-11.5 -60l-123 -576h-51zM242 606l2 10q12 21 28 52.5t31 63t24 53.5h58l-2 -10
q-6 -12 -20.5 -35t-32 -49.5t-33.5 -49.5t-25 -35h-30z" />
    <glyph glyph-name="iotatonos" unicode="&#x3af;" horiz-adv-x="201" 
d="M86 -10q-66 0 -66 68q0 10 2.5 26t6.5 36l88 411h51l-89 -415q-7 -28 -7 -49q0 -30 27 -30q11 0 20 2t19 6v-44q-24 -11 -52 -11zM134 606l2 10q12 21 28 52.5t31 63t24 53.5h58l-2 -10q-6 -12 -20.5 -35t-32 -49.5t-33.5 -49.5t-25 -35h-30z" />
    <glyph glyph-name="upsilondieresistonos" unicode="&#x3b0;" horiz-adv-x="385" 
d="M130 -10q-50 0 -76 28.5t-26 79.5q0 25 5 56.5t12 67.5l67 309h52l-68 -313q-8 -32 -12.5 -62t-4.5 -53q0 -32 15 -49t41 -17q39 0 68 32t48.5 86t31.5 119t17.5 132t5.5 125h52q-1 -72 -7.5 -147.5t-22 -146t-41.5 -126t-65 -88.5t-92 -33zM236 678v10q11 18 25 46.5
t25.5 57t17.5 46.5h51l-1 -10q-8 -18 -25 -47.5t-35.5 -58.5t-31.5 -44h-26zM168 639q-26 0 -26 30q0 19 10 36t29 17q25 0 25 -28q0 -21 -11 -38t-27 -17zM338 639q-26 0 -26 30q0 19 10 36t28 17q25 0 25 -28q0 -21 -10.5 -38t-26.5 -17z" />
    <glyph glyph-name="alpha" unicode="&#x3b1;" horiz-adv-x="412" 
d="M130 -10q-48 0 -74.5 38t-26.5 110q0 50 9 106t26.5 108.5t43.5 95t59.5 68t74.5 25.5q39 0 62.5 -23.5t31.5 -63.5h2q7 21 16.5 42.5t18.5 34.5h43q-30 -57 -54 -173l-44 -203q-6 -29 -9 -50t-3 -39q0 -30 23 -30q12 0 25 5v-42q-8 -5 -18.5 -7t-19.5 -2
q-42 0 -52.5 27.5t-6.5 62.5h-3q-26 -44 -55 -67t-69 -23zM144 36q37 0 64 29.5t45 75t29 91.5q12 48 19.5 92t7.5 82q0 42 -16.5 65t-48.5 23q-31 0 -57 -24.5t-45.5 -64t-32.5 -86.5t-20 -93t-7 -82q0 -57 16 -82.5t46 -25.5z" />
    <glyph glyph-name="beta" unicode="&#x3b2;" horiz-adv-x="396" 
d="M-50 -240l178 835q12 52 30 90t49 59t80 21q53 0 85 -33t32 -96q0 -56 -15.5 -106t-47 -85t-79.5 -45q40 -9 63.5 -49.5t23.5 -96.5q0 -45 -10.5 -91t-33 -85.5t-58.5 -63.5t-87 -24q-32 0 -58.5 11t-42.5 25l-59 -266h-50zM156 37q40 0 67 20.5t43 52.5t23 70t7 72
q0 60 -24.5 92t-65.5 32h-16l10 47h14q48 0 78 32t44 80t14 97q0 86 -70 86q-42 0 -64.5 -31t-35.5 -91l-110 -520q14 -16 37 -27.5t49 -11.5z" />
    <glyph glyph-name="gamma" unicode="&#x3b3;" horiz-adv-x="299" 
d="M-11 -240q11 57 30.5 116.5t42.5 118.5l-3 536h52l-2 -329q0 -27 -1 -61t-3 -64h3q12 36 25 71t33 79l126 304h55l-211 -493q-37 -84 -60.5 -156t-33.5 -122h-53z" />
    <glyph glyph-name="delta" unicode="&#x3b4;" horiz-adv-x="402" 
d="M158 -10q-62 0 -97 40t-35 114q0 106 54 191.5t148 126.5q-25 38 -41 73.5t-16 80.5q0 65 40.5 104.5t107.5 39.5q41 0 69.5 -12t43.5 -23l-27 -43q-17 14 -39 22.5t-50 8.5q-44 0 -68 -25.5t-24 -68.5q0 -41 18.5 -74t44.5 -73q34 -51 49 -102t15 -114q0 -50 -11 -97
t-34.5 -85.5t-60 -61t-87.5 -22.5zM164 36q38 0 63.5 21.5t41 55t22.5 71.5t7 70q0 52 -11 95t-37 81q-54 -24 -92.5 -68t-58.5 -100t-20 -116q0 -52 22.5 -81t62.5 -29z" />
    <glyph glyph-name="epsilon" unicode="&#x3b5;" horiz-adv-x="289" 
d="M120 -10q-58 0 -88 33.5t-30 91.5q0 68 32.5 113.5t87.5 55.5v4q-22 12 -34 38.5t-12 59.5q0 41 16.5 76.5t48 57t78.5 21.5q28 0 51.5 -7.5t40.5 -21.5l-27 -40q-26 23 -66 23q-42 0 -67 -31.5t-25 -80.5q0 -80 68 -80h22l-10 -43h-30q-43 0 -69.5 -20.5t-39 -52
t-12.5 -65.5q0 -86 75 -86q24 0 44.5 6.5t41.5 19.5v-47q-20 -11 -44 -18t-52 -7z" />
    <glyph glyph-name="zeta" unicode="&#x3b6;" horiz-adv-x="278" 
d="M56 -204q19 19 38 43.5t32 51t13 51.5q0 21 -13.5 37t-35.5 33q-34 26 -55 55.5t-21 86.5q0 92 40 188t105 190.5t141 183.5q-15 -2 -33 -2h-39h-78l9 46h212l-9 -40q-58 -68 -110.5 -139.5t-94 -143t-65.5 -140.5t-24 -131q0 -44 18 -69t52 -52q24 -18 40 -38.5
t16 -52.5q0 -43 -24 -84.5t-55 -73.5h-59z" />
    <glyph glyph-name="eta" unicode="&#x3b7;" horiz-adv-x="386" 
d="M164 -240l122 576q6 27 11 54.5t5 49.5q0 53 -51 53q-50 0 -82 -52.5t-54 -152.5l-61 -288h-51l112 531h42l-12 -75h3q20 40 50 62.5t68 22.5q39 0 64 -22.5t25 -68.5q0 -22 -5.5 -54t-11.5 -60l-123 -576h-51z" />
    <glyph glyph-name="theta" unicode="&#x3b8;" horiz-adv-x="393" 
d="M141 -11q-55 0 -83 43t-28 138q0 48 8 112t24 134q14 64 35 127t49 114.5t63.5 82t80.5 30.5q55 0 81.5 -40t26.5 -130q0 -42 -6 -96t-17 -110.5t-26 -107.5q-21 -80 -51 -147.5t-69 -108.5t-88 -41zM115 414h211q10 57 15 106t5 84q0 66 -14 93.5t-45 27.5
q-39 0 -71 -42.5t-57 -113.5t-44 -155zM143 34q30 0 56.5 27.5t48 74.5t39 107t31.5 126h-213q-12 -62 -18 -114.5t-6 -87.5q0 -74 16.5 -103.5t45.5 -29.5z" />
    <glyph glyph-name="iota" unicode="&#x3b9;" horiz-adv-x="201" 
d="M86 -10q-66 0 -66 68q0 10 2.5 26t6.5 36l88 411h51l-89 -415q-7 -28 -7 -49q0 -30 27 -30q11 0 20 2t19 6v-44q-24 -11 -52 -11z" />
    <glyph glyph-name="kappa" unicode="&#x3ba;" horiz-adv-x="324" 
d="M3 0l115 531h51l-35 -157q-7 -27 -13 -54.5t-14 -59.5h1l204 272h56l-156 -211l54 -321h-54l-45 276l-74 -87l-39 -189h-51z" />
    <glyph glyph-name="lambda" unicode="&#x3bb;" horiz-adv-x="322" 
d="M251 -10q-37 0 -53 24t-16 76l4 261q1 25 1 46t1 45q-10 -32 -26 -70l-159 -372h-53l234 534l2 128q1 32 -8 45t-30 13q-13 0 -28 -5v45q8 2 18 4t24 2q40 0 58 -26t18 -78l-6 -564q0 -33 6.5 -47t21.5 -14q14 0 26 5v-46q-16 -6 -35 -6z" />
    <glyph glyph-name="nu" unicode="&#x3bd;" horiz-adv-x="324" 
d="M60 0l6 531h52l-6 -353q-1 -31 -1.5 -59t-1.5 -55q44 60 82 135.5t66.5 160t46.5 171.5h52q-27 -142 -87 -278.5t-153 -252.5h-56z" />
    <glyph glyph-name="xi" unicode="&#x3be;" horiz-adv-x="289" 
d="M56 -204q19 20 38.5 45t33 51.5t13.5 51.5q-1 21 -13 36.5t-34 31.5q-38 26 -59 58.5t-21 95.5q0 58 18 108.5t53.5 85t85.5 44.5l1 3q-34 16 -48 42.5t-14 66.5q0 43 16 84.5t46 73t73 44.5q-17 -2 -31.5 -3t-27.5 -1h-46l10 46h213l-10 -43h-17q-55 0 -93.5 -30.5
t-59 -76.5t-20.5 -92q0 -92 88 -92h27l-10 -48h-34q-54 0 -91 -27.5t-56 -74t-19 -103.5q0 -49 16.5 -73.5t51.5 -50.5q26 -19 42 -39t16 -55q0 -41 -24 -83t-56 -76h-58z" />
    <glyph glyph-name="omicron" unicode="&#x3bf;" horiz-adv-x="383" 
d="M142 -10q-54 0 -85 38t-31 116q0 39 7 90.5t23 105t41.5 99t61.5 74t85 28.5q52 0 82 -39t30 -117q0 -48 -8 -102t-25 -106t-42.5 -94t-60 -67.5t-78.5 -25.5zM146 36q31 0 56.5 23.5t44.5 62.5t31.5 85.5t19 93.5t6.5 85q0 109 -66 109q-33 0 -59 -25.5t-44.5 -66.5
t-31 -89t-18.5 -93t-6 -77q0 -108 67 -108z" />
    <glyph glyph-name="pi" unicode="&#x3c0;" horiz-adv-x="390" 
d="M276 -5q-28 0 -46 16.5t-18 52.5q0 14 2.5 31t5.5 35l76 356h-130l-106 -486h-51l105 486h-68l6 24l46 21h322l-8 -45h-64l-77 -359q-7 -29 -7 -54q0 -31 30 -31q8 0 16 2t12 4v-43q-20 -10 -46 -10z" />
    <glyph glyph-name="rho" unicode="&#x3c1;" horiz-adv-x="393" 
d="M-47 -240l117 561q24 110 63 165t115 55q58 0 89 -41t31 -118q0 -43 -8 -95t-24 -104t-41 -96t-59.5 -70.5t-79.5 -26.5q-34 0 -58 12t-39 30q-1 -14 -4.5 -29t-6.5 -32l-44 -211h-51zM150 36q34 0 60.5 23.5t46 62t32.5 84.5t19.5 91.5t6.5 82.5q0 114 -74 114
q-49 0 -75 -46t-46 -142l-48 -227q11 -18 31.5 -30.5t46.5 -12.5z" />
    <glyph glyph-name="sigma1" unicode="&#x3c2;" horiz-adv-x="286" 
d="M68 -204q34 37 58 74t24 70q0 21 -12 37.5t-34 34.5q-27 20 -44.5 41t-25.5 50.5t-9 76.5q0 44 9 94t27 97t44.5 85.5t62.5 61.5t80 23q24 0 42.5 -4.5t33.5 -12.5l-20 -44q-12 6 -26 10t-30 4q-33 0 -60 -22t-47.5 -58t-34 -78t-20.5 -82t-7 -70q0 -52 15.5 -80.5
t49.5 -54.5q27 -20 44 -41.5t17 -58.5q0 -38 -23 -78.5t-55 -74.5h-59z" />
    <glyph glyph-name="sigma" unicode="&#x3c3;" horiz-adv-x="390" 
d="M144 -10q-56 0 -86 41t-30 119q0 48 8.5 100.5t26 102.5t46 90t68 64t91.5 24h159l-9 -46h-82q4 -20 8 -47t4 -54q0 -48 -7 -102t-22 -105.5t-38.5 -94t-57.5 -67.5t-79 -25zM149 36q33 0 57.5 23t41.5 62t27.5 86.5t15.5 96.5t5 92q0 26 -1 49t-3 40h-28
q-49 0 -84 -31.5t-57 -82.5t-32.5 -109t-10.5 -111q0 -115 69 -115z" />
    <glyph glyph-name="tau" unicode="&#x3c4;" horiz-adv-x="246" 
d="M124 -12q-38 0 -60 21t-22 61q0 15 3 34t9 45l72 336h-89l5 25l46 21h203l-9 -46h-105l-73 -343q-4 -20 -6.5 -34t-2.5 -28q0 -45 44 -45q11 0 21.5 2.5t19.5 5.5v-44q-25 -11 -56 -11z" />
    <glyph glyph-name="upsilon" unicode="&#x3c5;" horiz-adv-x="385" 
d="M130 -10q-50 0 -76 28.5t-26 79.5q0 25 5 56.5t12 67.5l67 309h52l-68 -313q-8 -32 -12.5 -62t-4.5 -53q0 -32 15 -49t41 -17q39 0 68 32t48.5 86t31.5 119t17.5 132t5.5 125h52q-1 -72 -7.5 -147.5t-22 -146t-41.5 -126t-65 -88.5t-92 -33z" />
    <glyph glyph-name="phi" unicode="&#x3c6;" horiz-adv-x="490" 
d="M110 -240l48 230q-56 8 -92 53t-36 131q0 105 39.5 199.5t109.5 164.5l35 -29q-58 -62 -94.5 -146.5t-36.5 -188.5q0 -66 23.5 -99t61.5 -39l77 370q13 64 41 100.5t76 36.5q47 0 73 -36.5t26 -107.5q0 -51 -9 -106.5t-28.5 -108.5t-49.5 -96t-71 -70t-95 -29l-48 -229
h-50zM218 35q43 4 74.5 30t53.5 66t36 87t20 94t6 86q0 98 -50 98q-22 0 -37 -22t-26 -74z" />
    <glyph glyph-name="chi" unicode="&#x3c7;" horiz-adv-x="311" 
d="M-116 -240l220 414v258q0 29 -6.5 43.5t-23.5 14.5q-7 0 -13.5 -1t-12.5 -3l3 45q13 6 39 6q36 0 50 -23.5t14 -67.5l-2 -201l142 286h55l-193 -372l-1 -293q-1 -59 29 -59q8 0 15 2t11 4v-45q-19 -8 -40 -8q-34 0 -49.5 23t-16.5 73l3 232l-168 -328h-55z" />
    <glyph glyph-name="psi" unicode="&#x3c8;" horiz-adv-x="449" 
d="M90 -240l50 230q-53 5 -84 40.5t-31 99.5q0 27 4.5 57.5t12.5 66.5l60 277h51l-61 -282q-7 -32 -12 -61t-5 -56q0 -46 20 -69t55 -27l154 727h50l-154 -726q43 1 74 33t51.5 86t32.5 119t18 131.5t7 124.5h51q-2 -68 -9 -142.5t-22 -145.5t-42 -128t-69 -91t-102 -35
l-48 -229h-52z" />
    <glyph glyph-name="omega" unicode="&#x3c9;" horiz-adv-x="448" 
d="M91 -10q-35 0 -57 29.5t-22 92.5q0 66 17 139.5t44.5 146t60.5 133.5h52q-34 -64 -62 -137.5t-44 -146.5t-16 -135q0 -40 11 -57t28 -17q31 0 48 38.5t36 128.5l27 127h50l-26 -127q-10 -45 -14 -71t-4 -48q0 -48 32 -48q24 0 43.5 26.5t34.5 69.5t24.5 95t14.5 103.5
t5 93.5q0 30 -1 58t-3 47h50q2 -17 4 -46t2 -61q0 -49 -6 -107.5t-19 -116t-33.5 -105t-50 -76.5t-67.5 -29q-33 0 -50 20t-17 52q-14 -34 -35.5 -53t-56.5 -19z" />
    <glyph glyph-name="iotadieresis" unicode="&#x3ca;" horiz-adv-x="201" 
d="M86 -10q-66 0 -66 68q0 10 2.5 26t6.5 36l88 411h51l-89 -415q-7 -28 -7 -49q0 -30 27 -30q11 0 20 2t19 6v-44q-24 -11 -52 -11zM224 639q-26 0 -26 30q0 19 10 36t30 17q25 0 25 -28q0 -21 -10.5 -38t-28.5 -17zM86 639q-26 0 -26 30q0 19 10 36t30 17q25 0 25 -28
q0 -21 -10.5 -38t-28.5 -17z" />
    <glyph glyph-name="upsilondieresis" unicode="&#x3cb;" horiz-adv-x="385" 
d="M130 -10q-50 0 -76 28.5t-26 79.5q0 25 5 56.5t12 67.5l67 309h52l-68 -313q-8 -32 -12.5 -62t-4.5 -53q0 -32 15 -49t41 -17q39 0 68 32t48.5 86t31.5 119t17.5 132t5.5 125h52q-1 -72 -7.5 -147.5t-22 -146t-41.5 -126t-65 -88.5t-92 -33zM319 639q-26 0 -26 30
q0 19 10 36t30 17q25 0 25 -28q0 -21 -10.5 -38t-28.5 -17zM181 639q-26 0 -26 30q0 19 10 36t30 17q25 0 25 -28q0 -21 -10.5 -38t-28.5 -17z" />
    <glyph glyph-name="omicrontonos" unicode="&#x3cc;" horiz-adv-x="383" 
d="M142 -10q-54 0 -85 38t-31 116q0 39 7 90.5t23 105t41.5 99t61.5 74t85 28.5q52 0 82 -39t30 -117q0 -48 -8 -102t-25 -106t-42.5 -94t-60 -67.5t-78.5 -25.5zM146 36q31 0 56.5 23.5t44.5 62.5t31.5 85.5t19 93.5t6.5 85q0 109 -66 109q-33 0 -59 -25.5t-44.5 -66.5
t-31 -89t-18.5 -93t-6 -77q0 -108 67 -108zM212 606l2 10q12 21 28 52.5t31 63t24 53.5h58l-2 -10q-6 -12 -20.5 -35t-32 -49.5t-33.5 -49.5t-25 -35h-30z" />
    <glyph glyph-name="upsilontonos" unicode="&#x3cd;" horiz-adv-x="385" 
d="M130 -10q-50 0 -76 28.5t-26 79.5q0 25 5 56.5t12 67.5l67 309h52l-68 -313q-8 -32 -12.5 -62t-4.5 -53q0 -32 15 -49t41 -17q39 0 68 32t48.5 86t31.5 119t17.5 132t5.5 125h52q-1 -72 -7.5 -147.5t-22 -146t-41.5 -126t-65 -88.5t-92 -33zM221 606l2 10q12 21 28 52.5
t31 63t24 53.5h58l-2 -10q-6 -12 -20.5 -35t-32 -49.5t-33.5 -49.5t-25 -35h-30z" />
    <glyph glyph-name="omegatonos" unicode="&#x3ce;" horiz-adv-x="448" 
d="M91 -10q-35 0 -57 29.5t-22 92.5q0 66 17 139.5t44.5 146t60.5 133.5h52q-34 -64 -62 -137.5t-44 -146.5t-16 -135q0 -40 11 -57t28 -17q31 0 48 38.5t36 128.5l27 127h50l-26 -127q-10 -45 -14 -71t-4 -48q0 -48 32 -48q24 0 43.5 26.5t34.5 69.5t24.5 95t14.5 103.5
t5 93.5q0 30 -1 58t-3 47h50q2 -17 4 -46t2 -61q0 -49 -6 -107.5t-19 -116t-33.5 -105t-50 -76.5t-67.5 -29q-33 0 -50 20t-17 52q-14 -34 -35.5 -53t-56.5 -19zM249 606l2 10q12 21 28 52.5t31 63t24 53.5h58l-2 -10q-6 -12 -20.5 -35t-32 -49.5t-33.5 -49.5t-25 -35h-30z
" />
    <glyph glyph-name="afii10023" unicode="&#x401;" horiz-adv-x="352" 
d="M1 0l151 714h242l-10 -48h-188l-57 -268h177l-12 -48h-176l-64 -302h189l-10 -48h-242zM350 804q-26 0 -26 30q0 19 10 36t30 17q25 0 25 -28q0 -21 -10.5 -38t-28.5 -17zM212 804q-26 0 -26 30q0 19 10 36t30 17q25 0 25 -28q0 -21 -10.5 -38t-28.5 -17z" />
    <glyph glyph-name="afii10051" unicode="&#x402;" horiz-adv-x="416" 
d="M206 -10q-35 0 -60 11l10 48q9 -5 21 -8t27 -3q27 0 42.5 14t24.5 36t14 47l29 131q2 13 4 27t2 27q0 28 -17.5 43.5t-61.5 15.5h-61l-81 -379h-53l142 665h-102l11 49h277l-10 -49h-123l-51 -237h60q64 0 94 -25.5t30 -74.5q0 -15 -2.5 -31.5t-5.5 -32.5l-30 -142
q-14 -58 -42 -95t-88 -37z" />
    <glyph glyph-name="afii10052" unicode="&#x403;" horiz-adv-x="297" 
d="M1 0l151 714h224l-10 -49h-171l-141 -665h-53zM208 790v8q36 39 67 79.5t49 72.5h62l-1 -8q-14 -20 -40.5 -50t-55.5 -58t-50 -44h-31z" />
    <glyph glyph-name="afii10053" unicode="&#x404;" horiz-adv-x="383" 
d="M192 -10q-78 0 -116.5 56.5t-38.5 177.5q0 59 12 127.5t36.5 134.5t60.5 120t84.5 86.5t109.5 32.5q34 0 59 -8t43 -23l-30 -43q-26 25 -72 25q-44 0 -80 -24t-63.5 -64.5t-48 -89.5t-32.5 -99h200l-11 -49h-201q-6 -33 -9 -65t-3 -59q0 -95 25.5 -141.5t84.5 -46.5
q20 0 41 5.5t45 15.5v-49q-22 -10 -48 -15t-48 -5z" />
    <glyph glyph-name="afii10054" unicode="&#x405;" horiz-adv-x="358" 
d="M102 -10q-41 0 -74 8t-54 22l5 56q25 -16 56 -26t69 -10q63 0 100.5 39t37.5 111q0 28 -7.5 51.5t-25 48t-46.5 56.5q-40 44 -63.5 83.5t-23.5 100.5q0 93 53 143.5t137 50.5q36 0 70 -10t54 -24l-26 -48q-20 13 -45.5 22.5t-56.5 9.5q-57 0 -93.5 -36t-36.5 -102
q0 -49 21 -83.5t65 -80.5q38 -40 59 -82t21 -96q0 -93 -51.5 -148.5t-144.5 -55.5z" />
    <glyph glyph-name="afii10055" unicode="&#x406;" horiz-adv-x="212" 
d="M-54 0l6 32l70 9l134 631l-66 10l7 32h187l-8 -32l-68 -10l-134 -631l64 -9l-6 -32h-186z" />
    <glyph glyph-name="afii10056" unicode="&#x407;" horiz-adv-x="212" 
d="M-54 0l6 32l70 9l134 631l-66 10l7 32h187l-8 -32l-68 -10l-134 -631l64 -9l-6 -32h-186zM279 826q-26 0 -26 30q0 19 10 36t30 17q25 0 25 -28q0 -21 -10.5 -38t-28.5 -17zM141 826q-26 0 -26 30q0 19 10 36t30 17q25 0 25 -28q0 -21 -10.5 -38t-28.5 -17z" />
    <glyph glyph-name="afii10057" unicode="&#x408;" horiz-adv-x="178" 
d="M-86 -182q-37 0 -58 12l12 48q10 -5 22 -8.5t24 -3.5q34 0 53 29t32 90l154 729h53l-157 -740q-17 -81 -49 -118.5t-86 -37.5z" />
    <glyph glyph-name="afii10058" unicode="&#x409;" horiz-adv-x="630" 
d="M-10 -5q-11 0 -22 2t-19 4v49q8 -3 16.5 -5t19.5 -2q28 0 45.5 19.5t37.5 75.5q15 38 35 99t44 138.5t49.5 164t51.5 174.5h210l-67 -314h33q156 0 156 -150q0 -43 -11 -87t-36.5 -81t-68 -59.5t-104.5 -22.5h-106l140 664h-110q-21 -75 -44.5 -155t-47 -155.5
t-44 -136.5t-34.5 -97q-24 -67 -51 -96t-73 -29zM316 48h50q46 0 77 18t49 47t25.5 64t7.5 70q0 55 -27.5 80t-83.5 25h-33z" />
    <glyph glyph-name="afii10059" unicode="&#x40a;" horiz-adv-x="598" 
d="M2 0l150 714h54l-67 -314h173l66 314h53l-65 -314h20q79 0 120.5 -39.5t41.5 -114.5q0 -112 -59 -179t-162 -67h-99l74 351h-173l-75 -351h-52zM292 48h46q74 0 114 53t40 143q0 108 -118 108h-18z" />
    <glyph glyph-name="afii10060" unicode="&#x40b;" horiz-adv-x="425" 
d="M49 0l141 665h-101l10 49h277l-10 -49h-122l-51 -237h59q64 0 93 -26t29 -72q0 -18 -2.5 -35t-5.5 -33l-57 -262h-53l57 266q3 14 5 28t2 28q0 28 -17 42.5t-61 14.5h-59l-81 -379h-53z" />
    <glyph glyph-name="afii10061" unicode="&#x40c;" horiz-adv-x="362" 
d="M2 0l150 714h54l-74 -345l252 345h61l-259 -349l114 -365h-57l-111 364l-78 -364h-52zM242 790v8q36 39 67 79.5t49 72.5h62l-1 -8q-14 -20 -40.5 -50t-55.5 -58t-50 -44h-31z" />
    <glyph glyph-name="afii10062" unicode="&#x40e;" horiz-adv-x="309" 
d="M-4 -8q-28 0 -44 8v49q16 -10 40 -10q21 0 37 13t35.5 49.5t51.5 108.5l-34 504h54l18 -328q2 -27 3 -55.5t2 -48.5q8 22 18.5 48t22.5 52l150 332h56l-264 -572q-34 -77 -66.5 -113.5t-79.5 -36.5zM262 790q-50 0 -77.5 26t-27.5 72q0 9 1 18.5t3 18.5h44q-3 -15 -3 -35
q0 -62 63 -62q40 0 60.5 25.5t29.5 71.5h46q-14 -67 -47.5 -101t-91.5 -34z" />
    <glyph glyph-name="afii10145" unicode="&#x40f;" horiz-adv-x="456" 
d="M100 -182l38 182h-135l151 714h54l-143 -666h217l142 666h54l-153 -714h-134l-39 -182h-52z" />
    <glyph glyph-name="afii10017" unicode="&#x410;" horiz-adv-x="365" 
d="M-66 0l296 717h68v-717h-54v256h-148l-105 -256h-57zM114 304h132l3 274q0 48 3 79h-3q-5 -16 -11.5 -35t-15.5 -44z" />
    <glyph glyph-name="afii10018" unicode="&#x411;" horiz-adv-x="384" 
d="M2 0l150 714h256l-10 -50h-202l-56 -264h38q160 0 160 -154q0 -112 -58.5 -179t-162.5 -67h-115zM64 48h64q74 0 114.5 53t40.5 143q0 108 -119 108h-35z" />
    <glyph glyph-name="afii10019" unicode="&#x412;" horiz-adv-x="402" 
d="M2 0l150 714h113q67 0 105 -35t38 -99q0 -46 -15 -88.5t-45.5 -74t-78.5 -43.5v-2q38 -10 59.5 -44.5t21.5 -85.5q0 -67 -24 -122t-72 -87.5t-120 -32.5h-132zM139 398h63q52 0 85 25.5t49 65.5t16 83q0 94 -98 94h-58zM65 48h69q58 0 94 27.5t52 72t16 93.5q0 58 -29 84
t-75 26h-62z" />
    <glyph glyph-name="afii10020" unicode="&#x413;" horiz-adv-x="297" 
d="M1 0l151 714h224l-10 -49h-171l-141 -665h-53z" />
    <glyph glyph-name="afii10021" unicode="&#x414;" horiz-adv-x="429" 
d="M-90 -182l49 230h39q48 85 93 192.5t83.5 228t65.5 245.5h207l-143 -666h56l-50 -230h-52l39 182h-297l-38 -182h-52zM55 48h197l132 618h-104q-26 -114 -63 -228.5t-79 -215t-83 -174.5z" />
    <glyph glyph-name="afii10022" unicode="&#x415;" horiz-adv-x="352" 
d="M1 0l151 714h242l-10 -48h-188l-57 -268h177l-12 -48h-176l-64 -302h189l-10 -48h-242z" />
    <glyph glyph-name="afii10024" unicode="&#x416;" horiz-adv-x="504" 
d="M-67 0l251 372l-98 342h55l96 -345l73 345h52l-72 -344l236 344h59l-243 -348l95 -366h-56l-93 366l-77 -366h-52l77 365l-243 -365h-60z" />
    <glyph glyph-name="afii10025" unicode="&#x417;" horiz-adv-x="362" 
d="M92 -10q-43 0 -71 7t-47 17v57q20 -14 48.5 -23.5t65.5 -9.5q58 0 93.5 27.5t52 70t16.5 88.5q0 66 -31 94t-83 28h-50l10 49h53q57 0 94.5 26.5t56 69t18.5 89.5q0 44 -23 70t-69 26q-37 0 -62 -13.5t-46 -30.5l-24 42q27 20 61 35t80 15q67 0 102 -37.5t35 -100.5
q0 -52 -19 -97.5t-53 -76.5t-80 -40l-1 -2q37 -12 61 -46.5t24 -98.5q0 -61 -23.5 -114.5t-70.5 -87t-118 -33.5z" />
    <glyph glyph-name="afii10026" unicode="&#x418;" horiz-adv-x="484" 
d="M1 0l151 714h53l-86 -403q-11 -55 -22 -103.5t-24 -99.5h3l370 606h61l-151 -714h-52l80 383q14 65 26 121.5t25 100.5h-3l-367 -605h-64z" />
    <glyph glyph-name="afii10027" unicode="&#x419;" horiz-adv-x="484" 
d="M1 0l151 714h53l-86 -403q-11 -55 -22 -103.5t-24 -99.5h3l370 606h61l-151 -714h-52l80 383q14 65 26 121.5t25 100.5h-3l-367 -605h-64zM350 790q-50 0 -77.5 26t-27.5 72q0 9 1 18.5t3 18.5h44q-3 -15 -3 -35q0 -62 63 -62q40 0 60.5 25.5t29.5 71.5h46
q-14 -67 -47.5 -101t-91.5 -34z" />
    <glyph glyph-name="afii10028" unicode="&#x41a;" horiz-adv-x="362" 
d="M2 0l150 714h54l-74 -345l252 345h61l-259 -349l114 -365h-57l-111 364l-78 -364h-52z" />
    <glyph glyph-name="afii10029" unicode="&#x41b;" horiz-adv-x="434" 
d="M-7 -5q-12 0 -23 2t-19 4v49q8 -3 17.5 -5t20.5 -2q46 0 74 73q16 40 38 106.5t47 148.5t51.5 170t50.5 173h223l-152 -714h-53l142 664h-124q-20 -72 -44.5 -154t-49 -162t-46.5 -146t-38 -106q-21 -50 -46.5 -75.5t-68.5 -25.5z" />
    <glyph glyph-name="afii10030" unicode="&#x41c;" horiz-adv-x="617" 
d="M1 0l151 714h76l28 -633h3l295 633h81l-152 -714h-53l113 529l10 44t11 48h-2l-290 -621h-60l-28 621h-2q-6 -31 -10 -53t-9 -46l-111 -522h-51z" />
    <glyph glyph-name="afii10031" unicode="&#x41d;" horiz-adv-x="462" 
d="M1 0l151 714h54l-67 -315h221l66 315h54l-152 -714h-54l74 350h-220l-74 -350h-53z" />
    <glyph glyph-name="afii10032" unicode="&#x41e;" horiz-adv-x="470" 
d="M176 -10q-70 0 -106 49.5t-36 153.5q0 60 10.5 131.5t32.5 141.5t55.5 128.5t78.5 94t103 35.5q69 0 103.5 -46.5t34.5 -145.5q0 -46 -6.5 -103.5t-20.5 -118.5t-36 -118t-53 -102.5t-70.5 -72.5t-89.5 -27zM180 39q45 0 80 34.5t61 91t43 122.5t25.5 130.5t8.5 114.5
q0 75 -21.5 109.5t-67.5 34.5q-39 0 -70.5 -25.5t-55.5 -67.5t-42 -94t-29.5 -106.5t-17 -103.5t-5.5 -85q0 -82 23.5 -118.5t67.5 -36.5z" />
    <glyph glyph-name="afii10033" unicode="&#x41f;" horiz-adv-x="456" 
d="M1 0l151 714h325l-151 -714h-54l142 665h-219l-141 -665h-53z" />
    <glyph glyph-name="afii10034" unicode="&#x420;" horiz-adv-x="378" 
d="M2 0l150 714h87q77 0 116 -40t39 -111q0 -78 -27 -139.5t-79 -96.5t-125 -35h-47l-62 -292h-52zM126 341h36q60 0 99 28.5t58 77.5t19 111q0 51 -25.5 79.5t-81.5 28.5h-35z" />
    <glyph glyph-name="afii10035" unicode="&#x421;" horiz-adv-x="362" 
d="M190 -10q-76 0 -115 56.5t-39 175.5q0 56 11.5 123t35 134t60 122.5t85.5 89.5t111 34q32 0 56 -8t43 -23l-29 -43q-26 25 -71 25q-50 0 -90 -31.5t-69.5 -82.5t-49 -111.5t-29 -119.5t-9.5 -105q0 -99 26.5 -143.5t82.5 -44.5q19 0 39.5 5.5t44.5 14.5v-50
q-48 -18 -94 -18z" />
    <glyph glyph-name="afii10036" unicode="&#x422;" horiz-adv-x="319" 
d="M66 0l141 665h-125l10 49h304l-10 -49h-126l-142 -665h-52z" />
    <glyph glyph-name="afii10037" unicode="&#x423;" horiz-adv-x="309" 
d="M-4 -8q-28 0 -44 8v49q16 -10 40 -10q21 0 37 13t35.5 49.5t51.5 108.5l-34 504h54l18 -328q2 -27 3 -55.5t2 -48.5q8 22 18.5 48t22.5 52l150 332h56l-264 -572q-34 -77 -66.5 -113.5t-79.5 -36.5z" />
    <glyph glyph-name="afii10038" unicode="&#x424;" horiz-adv-x="536" 
d="M168 -10l24 110q-70 8 -109.5 54t-39.5 138q0 100 32 177t91 121t140 46l18 88h52l-18 -88q68 -6 108.5 -51t40.5 -136q0 -101 -33.5 -179.5t-92.5 -123t-137 -46.5l-24 -110h-52zM202 148l94 440q-56 -2 -94 -29.5t-61 -71.5t-33.5 -95t-10.5 -99q0 -73 28.5 -107
t76.5 -38zM254 148q49 1 86 26.5t62 68.5t37.5 96t12.5 109q0 74 -29 106t-75 34z" />
    <glyph glyph-name="afii10039" unicode="&#x425;" horiz-adv-x="337" 
d="M-58 0l214 378l-44 336h55l31 -287l154 287h56l-190 -346l42 -368h-56l-30 316l-176 -316h-56z" />
    <glyph glyph-name="afii10040" unicode="&#x426;" horiz-adv-x="466" 
d="M288 -182l40 182h-321l151 714h54l-142 -666h211l141 666h54l-142 -666h56l-50 -230h-52z" />
    <glyph glyph-name="afii10041" unicode="&#x427;" horiz-adv-x="446" 
d="M252 0l64 304q-30 -18 -65 -31t-67 -13q-56 0 -84 30t-28 82q0 17 3 36.5t7 39.5l57 266h53l-56 -262q-4 -22 -7 -37.5t-3 -30.5q0 -76 75 -76q32 0 64 13t60 30l77 363h53l-151 -714h-52z" />
    <glyph glyph-name="afii10042" unicode="&#x428;" horiz-adv-x="626" 
d="M1 0l152 714h53l-143 -666h174l142 666h53l-142 -666h173l142 666h53l-152 -714h-505z" />
    <glyph glyph-name="afii10043" unicode="&#x429;" horiz-adv-x="646" 
d="M470 -182l40 182h-509l152 714h53l-143 -666h174l142 666h53l-142 -666h173l143 666h52l-142 -666h57l-51 -230h-52z" />
    <glyph glyph-name="afii10044" unicode="&#x42a;" horiz-adv-x="445" 
d="M58 0l140 662h-128l12 52h180l-67 -314h39q160 0 160 -154q0 -73 -26 -128.5t-74 -86.5t-113 -31h-123zM120 48h64q75 0 115 53t40 143q0 56 -29 82t-82 26h-42z" />
    <glyph glyph-name="afii10045" unicode="&#x42b;" horiz-adv-x="572" 
d="M2 0l150 714h53l-65 -314h43q155 0 155 -150q0 -44 -11.5 -88t-36.5 -80.5t-67 -59t-103 -22.5h-118zM381 0l152 714h53l-152 -714h-53zM64 48h60q46 0 77 18t49.5 47t26 64t7.5 70q0 55 -28.5 80t-84.5 25h-42z" />
    <glyph glyph-name="afii10046" unicode="&#x42c;" horiz-adv-x="388" 
d="M2 0l150 714h52l-64 -314h42q156 0 156 -150q0 -44 -11.5 -88t-36.5 -80.5t-67 -59t-103 -22.5h-118zM64 48h60q46 0 77 18t49.5 47t26 64t7.5 70q0 55 -28 80t-83 25h-44z" />
    <glyph glyph-name="afii10047" unicode="&#x42d;" horiz-adv-x="386" 
d="M74 -10q-32 0 -55 5.5t-43 13.5v51q22 -10 46.5 -15.5t50.5 -5.5q83 0 138.5 79.5t79.5 229.5h-203l11 49h199q4 28 6 55.5t2 54.5q0 86 -26.5 127.5t-77.5 41.5q-22 0 -44.5 -6t-44.5 -20l-18 43q25 15 53.5 23.5t61.5 8.5q150 0 150 -217q0 -67 -9 -139t-29.5 -139.5
t-54 -121.5t-81.5 -86t-112 -32z" />
    <glyph glyph-name="afii10048" unicode="&#x42e;" horiz-adv-x="600" 
d="M330 -10q-60 0 -90 43t-30 139q0 33 5 79.5t15 98.5h-102l-74 -350h-53l151 714h54l-67 -316h101q14 61 34.5 119t48.5 105t64.5 74.5t82.5 27.5q58 0 87 -41t29 -129q0 -46 -7 -104.5t-20.5 -122t-34.5 -123.5t-49.5 -108.5t-64.5 -77t-80 -28.5zM332 39q32 0 59.5 28
t50 74.5t39.5 103t28 114.5t17 109.5t6 86.5q0 63 -17 92t-51 29q-32 0 -59.5 -27.5t-50 -73t-39.5 -101t-28 -112.5t-17 -107t-6 -84q0 -73 17.5 -102.5t50.5 -29.5z" />
    <glyph glyph-name="afii10049" unicode="&#x42f;" horiz-adv-x="390" 
d="M-52 0l216 324q-39 14 -61.5 50t-22.5 94q0 45 12.5 88.5t38.5 79.5t68 57t101 21h108l-152 -714h-52l66 310h-58l-203 -310h-61zM233 358h47l65 308h-52q-59 0 -93.5 -30t-50 -74.5t-15.5 -89.5q0 -57 26 -85.5t73 -28.5z" />
    <glyph glyph-name="afii10065" unicode="&#x430;" horiz-adv-x="401" 
d="M128 -10q-50 0 -76 38t-26 110q0 46 8.5 100t25.5 107.5t42.5 98t60 71t77.5 26.5q38 0 59 -23t29 -62h2l21 75h43l-112 -531h-42l12 83h-2q-26 -43 -54.5 -68t-67.5 -25zM142 36q36 0 62 28.5t44.5 73.5t31.5 94q12 48 19 92.5t7 82.5q0 40 -16.5 63.5t-45.5 23.5
q-31 0 -57 -23.5t-46 -62.5t-33.5 -85.5t-20.5 -93.5t-7 -87q0 -56 16.5 -81t45.5 -25z" />
    <glyph glyph-name="afii10066" unicode="&#x431;" horiz-adv-x="378" 
d="M136 -10q-52 0 -82 36t-30 120q0 52 9 121t28 142.5t48.5 140.5t70.5 116t94 68q58 21 154 30v-48q-41 -4 -76 -10t-67 -18q-58 -22 -97.5 -92t-67.5 -166h4q20 27 48.5 44.5t62.5 17.5q55 0 80 -40t25 -112q0 -56 -13 -117t-38 -114t-63.5 -86t-89.5 -33zM138 36
q37 0 65 30.5t46.5 78t28 99.5t9.5 94q0 47 -14.5 77.5t-51.5 30.5q-32 0 -63.5 -24t-53.5 -71q-13 -53 -20.5 -105t-7.5 -102q0 -56 16.5 -82t45.5 -26z" />
    <glyph glyph-name="afii10067" unicode="&#x432;" horiz-adv-x="396" 
d="M160 -10q-64 0 -100 39t-36 125q0 43 7.5 94.5t24 103t43.5 94.5t66 69t92 26t83 -29t30 -80q0 -66 -36 -106.5t-88 -49.5v-2q33 -9 53.5 -38.5t20.5 -77.5q0 -44 -17.5 -82t-53 -62t-89.5 -24zM95 298h87q58 0 96.5 33.5t38.5 96.5q0 69 -66 69q-52 0 -92 -50t-64 -149z
M165 34q35 0 58.5 17.5t34.5 45.5t11 59q0 44 -23 71t-72 27h-87q-3 -18 -6.5 -44t-3.5 -54q0 -70 24 -96t64 -26z" />
    <glyph glyph-name="afii10068" unicode="&#x433;" horiz-adv-x="290" 
d="M114 -10q-53 0 -85.5 28t-32.5 85q0 49 16.5 83t46 60t67.5 49q31 19 56.5 38.5t40.5 43.5t15 59q0 30 -17 44t-45 14q-26 0 -45.5 -7.5t-38.5 -18.5l-16 42q52 30 106 30q50 0 79 -25.5t29 -76.5q0 -45 -18 -77t-47 -56t-63 -45q-61 -37 -87 -70t-26 -84
q0 -35 19.5 -52.5t53.5 -17.5q28 0 50.5 9t41.5 21v-50q-46 -26 -100 -26z" />
    <glyph glyph-name="afii10069" unicode="&#x434;" horiz-adv-x="392" 
d="M149 -10q-121 0 -121 159q0 39 6.5 87t21 96.5t37.5 89.5t56.5 66t78.5 25q34 0 56 -14t36 -33h2q1 14 1 30v30q0 96 -24.5 146t-80.5 50q-21 0 -39.5 -5.5t-35.5 -14.5l-14 44q42 22 96 22q79 0 115 -64.5t36 -181.5q0 -59 -6 -130t-20.5 -142t-40 -130t-65 -94.5
t-95.5 -35.5zM151 35q40 0 69.5 33t49.5 87.5t31 120t15 131.5q-13 31 -35.5 46t-50.5 15q-32 0 -56.5 -22t-42.5 -57.5t-29 -78t-16.5 -84.5t-5.5 -76q0 -63 18 -89t53 -26z" />
    <glyph glyph-name="afii10070" unicode="&#x435;" horiz-adv-x="354" 
d="M152 -10q-60 0 -93 40t-33 118q0 80 17 151t47 125.5t69.5 85.5t84.5 31q42 0 67.5 -24t25.5 -76q0 -53 -27 -97.5t-81.5 -71t-136.5 -26.5h-6q-9 -42 -9 -91q0 -62 21.5 -91t65.5 -29q26 0 47.5 7.5t45.5 20.5v-47q-21 -12 -47 -19t-58 -7zM93 288h4q69 0 110.5 21
t60.5 55.5t19 73.5q0 27 -11.5 42.5t-37.5 15.5q-31 0 -59.5 -27.5t-50.5 -74.5t-35 -106z" />
    <glyph glyph-name="afii10072" unicode="&#x436;" horiz-adv-x="546" 
d="M-19 -9q-10 0 -19.5 1t-17.5 4l11 47q12 -6 28 -6q33 0 58.5 24.5t45 64t32 86.5t18.5 93t6 83q0 56 -17 81t-51 25q-5 0 -10 -0.5t-9 -1.5v45q6 2 13 2.5t15 0.5q52 0 81 -36t29 -112q0 -22 -2 -48t-6 -52h66l51 239h50l-51 -239h66q14 62 39 119t63.5 93t93.5 36
q17 0 32 -3l-12 -47q-8 4 -22 4q-32 0 -58 -24.5t-45.5 -64t-32.5 -86.5t-19.5 -93.5t-6.5 -82.5q0 -55 18 -80.5t52 -25.5q13 0 22 3v-46q-14 -3 -30 -3q-54 0 -83.5 35.5t-29.5 112.5q0 23 2.5 50.5t7.5 57.5h-67l-52 -247h-50l52 247h-64q-16 -72 -43.5 -130t-66 -92
t-87.5 -34z" />
    <glyph glyph-name="afii10073" unicode="&#x437;" horiz-adv-x="288" 
d="M72 -10q-32 0 -57 7.5t-41 18.5v52q20 -15 43.5 -24t50.5 -9q58 0 83.5 40t25.5 98q0 43 -20.5 65t-56.5 22h-34l10 43h32q34 0 57.5 18t36.5 46t13 59q0 70 -61 70q-20 0 -36.5 -5.5t-31.5 -14.5l-16 40q21 12 44 18.5t50 6.5q51 0 77 -28.5t26 -78.5q0 -54 -28 -96.5
t-72 -53.5l-1 -4q28 -9 46 -36t18 -72q0 -47 -17 -89t-52 -67.5t-89 -25.5z" />
    <glyph glyph-name="afii10074" unicode="&#x438;" horiz-adv-x="386" 
d="M114 -10q-42 0 -65 23.5t-23 68.5q0 21 5 51t10 56l73 342h52l-73 -341q-6 -26 -10.5 -51t-4.5 -47q0 -55 51 -55q50 0 82.5 53t53.5 154l61 287h52l-112 -531h-42l10 73h-2q-20 -40 -51 -61.5t-67 -21.5z" />
    <glyph glyph-name="afii10075" unicode="&#x439;" horiz-adv-x="386" 
d="M114 -10q-42 0 -65 23.5t-23 68.5q0 21 5 51t10 56l73 342h52l-73 -341q-6 -26 -10.5 -51t-4.5 -47q0 -55 51 -55q50 0 82.5 53t53.5 154l61 287h52l-112 -531h-42l10 73h-2q-20 -40 -51 -61.5t-67 -21.5zM260 604q-50 0 -77.5 26t-27.5 72q0 9 1 18.5t3 18.5h44
q-3 -15 -3 -35q0 -62 63 -62q40 0 60.5 25.5t29.5 71.5h46q-14 -67 -47.5 -101t-91.5 -34z" />
    <glyph glyph-name="afii10076" unicode="&#x43a;" horiz-adv-x="316" 
d="M4 0l113 531h51l-54 -249l192 249h58l-198 -255l92 -276h-54l-91 276l-58 -276h-51z" />
    <glyph glyph-name="afii10077" unicode="&#x43b;" horiz-adv-x="354" 
d="M-16 -5q-10 0 -18 1.5t-14 3.5v47q12 -5 26 -5q23 0 41 16.5t34 62t33 133.5q18 95 41.5 157t61 92t97.5 30q22 0 43 -2t41 -6l-111 -525h-51l102 483q-8 1 -15.5 2t-17.5 1q-39 0 -64 -24.5t-43 -77.5t-36 -138q-19 -94 -38.5 -148.5t-45.5 -78t-66 -24.5z" />
    <glyph glyph-name="afii10078" unicode="&#x43c;" horiz-adv-x="470" 
d="M2 0l115 531h68l5 -452h2l200 452h72l-114 -531h-50l68 312q7 33 13 61t14 60h-2l-195 -433h-46l-8 433h-2q-4 -28 -9 -51.5t-11 -53.5l-71 -328h-49z" />
    <glyph glyph-name="afii10079" unicode="&#x43d;" horiz-adv-x="392" 
d="M4 0l112 531h52l-49 -231h164l49 231h51l-113 -531h-52l55 254h-163l-55 -254h-51z" />
    <glyph glyph-name="afii10080" unicode="&#x43e;" horiz-adv-x="383" 
d="M142 -10q-54 0 -85 38t-31 116q0 39 7 90.5t23 105t41.5 99t61.5 74t85 28.5q52 0 82 -39t30 -117q0 -48 -8 -102t-25 -106t-42.5 -94t-60 -67.5t-78.5 -25.5zM146 36q31 0 56.5 23.5t44.5 62.5t31.5 85.5t19 93.5t6.5 85q0 109 -66 109q-33 0 -59 -25.5t-44.5 -66.5
t-31 -89t-18.5 -93t-6 -77q0 -108 67 -108z" />
    <glyph glyph-name="afii10081" unicode="&#x43f;" horiz-adv-x="384" 
d="M3 0l112 531h42l-12 -75h3q20 40 50 62.5t68 22.5q39 0 64 -22.5t25 -68.5q0 -22 -5.5 -54t-11.5 -60l-72 -336h-51l71 336q6 27 11 54.5t5 49.5q0 53 -51 53q-50 0 -82 -52.5t-54 -152.5l-61 -288h-51z" />
    <glyph glyph-name="afii10082" unicode="&#x440;" horiz-adv-x="395" 
d="M-44 -230l160 761h42l-12 -85h2q26 45 55.5 70t68.5 25q48 0 74 -37.5t26 -111.5q0 -46 -8.5 -100.5t-25.5 -107.5t-43 -97t-60 -70.5t-77 -26.5q-36 0 -58 23t-29 57h-3q-4 -25 -9 -51.5t-10 -50.5l-43 -198h-50zM155 36q31 0 56.5 23.5t45.5 63t33.5 86.5t20.5 94t7 87
q0 56 -16 81t-46 25q-34 0 -61 -29t-46 -75t-32 -97.5t-19 -97t-6 -73.5q0 -40 16 -64t47 -24z" />
    <glyph glyph-name="afii10083" unicode="&#x441;" horiz-adv-x="293" 
d="M146 -10q-58 0 -88 38.5t-30 121.5q0 47 8 100t25 104.5t43.5 94t62 67.5t81.5 25t74 -17l-20 -44q-12 8 -26 11t-28 3q-41 0 -72.5 -33t-52.5 -85t-32 -111t-11 -111q0 -63 19 -90.5t57 -27.5q34 0 72 22v-47q-15 -9 -36.5 -15t-45.5 -6z" />
    <glyph glyph-name="afii10084" unicode="&#x442;" horiz-adv-x="579" 
d="M3 0l112 531h43l-12 -71h2q20 39 49 60t65 21q75 0 84 -70h2q20 33 48 51.5t66 18.5q39 0 63.5 -23.5t24.5 -69.5q0 -14 -2.5 -33t-5.5 -35l-81 -380h-51l78 373q4 19 7 36t3 27q0 28 -15 43t-39 15q-31 0 -52 -19t-34 -49t-20 -63l-79 -363h-51l82 386q4 15 5 28.5
t1 23.5q0 56 -50 56q-38 0 -62.5 -28t-40 -74t-27.5 -100l-62 -292h-51z" />
    <glyph glyph-name="afii10085" unicode="&#x443;" horiz-adv-x="317" 
d="M-57 -242q-30 0 -47 10l8 47q8 -4 17.5 -6.5t21.5 -2.5q30 0 50.5 22.5t40.5 69.5l48 110l-10 523h52l2 -341v-50.5t-2 -53.5h2q9 27 19.5 53.5t18.5 45.5l150 346h54l-285 -645q-29 -63 -59 -95.5t-81 -32.5z" />
    <glyph glyph-name="afii10086" unicode="&#x444;" horiz-adv-x="450" 
d="M93 -240l49 230q-57 5 -88.5 51.5t-31.5 126.5q0 57 12.5 120.5t40 119.5t73 92.5t110.5 39.5l45 220h51l-46 -220q56 -6 87 -48t31 -126q0 -44 -8.5 -94.5t-26 -99.5t-45.5 -90t-66.5 -66.5t-88.5 -27.5l-48 -228h-50zM150 36l98 458q-46 -3 -79 -34.5t-54 -80.5
t-31 -105t-10 -107q0 -57 20 -91.5t56 -39.5zM201 36q38 2 66.5 26.5t49 62.5t33 81.5t18.5 85.5t6 74q0 119 -76 128z" />
    <glyph glyph-name="afii10087" unicode="&#x445;" horiz-adv-x="314" 
d="M-44 0l171 277l-49 254h53l37 -211l124 211h58l-162 -261l54 -270h-54l-40 226l-136 -226h-56z" />
    <glyph glyph-name="afii10088" unicode="&#x446;" horiz-adv-x="405" 
d="M236 -181l40 182q-21 4 -31 20.5t-8 52.5h-3q-44 -84 -121 -84q-41 0 -64 23t-23 69q0 21 5 51t11 57l72 341h52l-73 -341q-6 -26 -10.5 -51t-4.5 -46q0 -56 50 -56t83 53t54 154l61 287h52l-78 -365q-6 -30 -10 -52.5t-4 -39.5q0 -29 30 -29q8 0 20 3l-49 -229h-51z" />
    <glyph glyph-name="afii10089" unicode="&#x447;" horiz-adv-x="384" 
d="M211 0l41 193q6 31 17 66h-2q-19 -35 -50 -56t-69 -21q-39 0 -62.5 24t-23.5 66q0 24 5 55t12 61l31 143h52l-32 -149q-6 -27 -11 -52t-5 -48q0 -26 14 -39.5t36 -13.5q52 0 83.5 48t52.5 147l24 107h51l-113 -531h-51z" />
    <glyph glyph-name="afii10090" unicode="&#x448;" horiz-adv-x="575" 
d="M112 -10q-39 0 -64 24t-25 70q0 15 3 36t7 39l79 372h52l-78 -367q-10 -43 -10 -69q0 -29 14.5 -43.5t39.5 -14.5q32 0 53 21t34.5 54t21.5 70l76 349h51l-82 -381q-6 -33 -6 -56q0 -57 50 -57q38 0 62 28.5t39 75t27 99.5l62 291h51l-113 -531h-41l9 66h-2
q-41 -76 -110 -76q-75 0 -84 70h-2q-20 -33 -48 -51.5t-66 -18.5z" />
    <glyph glyph-name="afii10091" unicode="&#x449;" horiz-adv-x="595" 
d="M426 -181l40 182q-21 5 -30.5 20t-8.5 49h-3q-41 -80 -112 -80q-75 0 -84 70h-2q-20 -33 -48 -51.5t-66 -18.5q-39 0 -64 24t-25 70q0 15 3 36t7 39l79 372h52l-78 -367q-10 -43 -10 -69q0 -29 14.5 -43.5t39.5 -14.5q32 0 53 21t34.5 54t21.5 70l76 349h51l-82 -381
q-6 -33 -6 -56q0 -57 50 -57q38 0 62 28.5t39 75t27 99.5l62 291h51l-81 -380q-5 -25 -8 -44t-3 -33q0 -29 29 -29q8 0 20 3l-48 -229h-52z" />
    <glyph glyph-name="afii10092" unicode="&#x44a;" horiz-adv-x="392" 
d="M183 -10q-56 0 -82.5 28.5t-26.5 78.5q0 22 4 44.5t8 42.5l66 300h-104l10 47h154l-50 -241q9 2 25 4t34 2q61 0 90.5 -32.5t29.5 -91.5q0 -46 -18 -88t-53.5 -68t-86.5 -26zM188 33q35 0 57 21.5t32.5 52.5t10.5 62q0 83 -76 83q-32 0 -60 -6q-14 -62 -20 -94t-6 -52
q0 -30 14.5 -48.5t47.5 -18.5z" />
    <glyph glyph-name="afii10093" unicode="&#x44b;" horiz-adv-x="498" 
d="M139 -10q-109 0 -109 107q0 19 3 39t7 39l77 356h51l-51 -241q10 2 25.5 4t34.5 2q61 0 90.5 -33t29.5 -91q0 -46 -18 -87.5t-53.5 -68t-86.5 -26.5zM324 0l113 531h51l-112 -531h-52zM144 33q35 0 57 21.5t32.5 52.5t10.5 62q0 83 -76 83q-33 0 -60 -6
q-15 -64 -20.5 -95t-5.5 -51q0 -30 14.5 -48.5t47.5 -18.5z" />
    <glyph glyph-name="afii10094" unicode="&#x44c;" horiz-adv-x="350" 
d="M139 -10q-109 0 -109 107q0 19 3 40t7 39l77 355h51l-51 -242q10 2 26 4.5t35 2.5q62 0 91 -33t29 -91q0 -48 -18.5 -89.5t-54 -67t-86.5 -25.5zM144 33q35 0 57.5 21.5t33 52.5t10.5 62q0 83 -77 83q-33 0 -60 -6q-15 -64 -20.5 -95t-5.5 -51q0 -30 14.5 -48.5
t47.5 -18.5z" />
    <glyph glyph-name="afii10095" unicode="&#x44d;" horiz-adv-x="304" 
d="M49 -10q-25 0 -44 4t-36 9v51q17 -8 36.5 -13.5t40.5 -5.5q45 0 77 30.5t53.5 80.5t32.5 108h-129l10 44h126q3 19 5 41.5t2 46.5q0 110 -77 110q-20 0 -36.5 -5t-31.5 -13l-10 42q18 9 42 15t46 6q61 0 90.5 -39t29.5 -110q0 -45 -7 -99t-23 -107t-42.5 -97.5
t-64.5 -71.5t-90 -27z" />
    <glyph glyph-name="afii10096" unicode="&#x44e;" horiz-adv-x="524" 
d="M295 -10q-49 0 -77 36t-28 116q0 46 11 112h-91l-56 -254h-50l112 531h52l-49 -231h91q15 63 40 118t61.5 89t84.5 34t75 -36.5t27 -116.5q0 -45 -8 -98t-24 -106t-40 -97t-57 -70.5t-74 -26.5zM298 36q29 0 52.5 24t41 64t30 87t18.5 93.5t6 83.5q0 57 -14 81.5
t-42 24.5q-29 0 -52.5 -25.5t-41.5 -66.5t-30 -88.5t-18 -93t-6 -78.5q0 -56 14 -81t42 -25z" />
    <glyph glyph-name="afii10097" unicode="&#x44f;" horiz-adv-x="356" 
d="M-18 -3q-10 0 -17.5 1.5l-12.5 2.5v43q9 -3 22 -3q18 0 32 17.5t30 63.5q24 66 43 92.5t47 35.5q-32 10 -50 35t-18 69q0 46 19 86.5t57 65.5t96 25h116l-112 -531h-52l50 234h-30q-30 0 -48.5 -9t-33 -35t-32.5 -75q-24 -64 -46 -91t-60 -27zM196 276h44l46 212h-58
q-43 0 -68.5 -20.5t-37 -51t-11.5 -62.5q0 -78 85 -78z" />
    <glyph glyph-name="afii10071" unicode="&#x451;" horiz-adv-x="354" 
d="M152 -10q-60 0 -93 40t-33 118q0 80 17 151t47 125.5t69.5 85.5t84.5 31q42 0 67.5 -24t25.5 -76q0 -53 -27 -97.5t-81.5 -71t-136.5 -26.5h-6q-9 -42 -9 -91q0 -62 21.5 -91t65.5 -29q26 0 47.5 7.5t45.5 20.5v-47q-21 -12 -47 -19t-58 -7zM93 288h4q69 0 110.5 21
t60.5 55.5t19 73.5q0 27 -11.5 42.5t-37.5 15.5q-31 0 -59.5 -27.5t-50.5 -74.5t-35 -106zM326 639q-26 0 -26 30q0 19 10 36t30 17q25 0 25 -28q0 -21 -10.5 -38t-28.5 -17zM188 639q-26 0 -26 30q0 19 10 36t30 17q25 0 25 -28q0 -21 -10.5 -38t-28.5 -17z" />
    <glyph glyph-name="afii10099" unicode="&#x452;" horiz-adv-x="386" 
d="M121 -238q-25 0 -43 6v48q18 -6 39 -6q37 0 55 33.5t34 110.5l82 391q5 23 9.5 46.5t4.5 44.5q0 54 -51 54q-49 0 -81.5 -50t-53.5 -152l-61 -288h-51l132 622h-60l9 43h59l20 95h52l-21 -95h103l-9 -43h-103l-18 -81q-4 -23 -10 -45t-11 -42h2q40 84 118 84
q41 0 64.5 -23.5t23.5 -68.5q0 -20 -5 -48t-10 -54l-84 -394q-13 -63 -28 -104.5t-40 -62.5t-67 -21z" />
    <glyph glyph-name="afii10100" unicode="&#x453;" horiz-adv-x="290" 
d="M114 -10q-53 0 -85.5 28t-32.5 85q0 49 16.5 83t46 60t67.5 49q31 19 56.5 38.5t40.5 43.5t15 59q0 30 -17 44t-45 14q-26 0 -45.5 -7.5t-38.5 -18.5l-16 42q52 30 106 30q50 0 79 -25.5t29 -76.5q0 -45 -18 -77t-47 -56t-63 -45q-61 -37 -87 -70t-26 -84
q0 -35 19.5 -52.5t53.5 -17.5q28 0 50.5 9t41.5 21v-50q-46 -26 -100 -26zM166 603v8q36 39 67 79.5t49 72.5h62l-1 -8q-14 -20 -40.5 -50t-55.5 -58t-50 -44h-31z" />
    <glyph glyph-name="afii10101" unicode="&#x454;" horiz-adv-x="306" 
d="M146 -10q-58 0 -88 38t-30 120q0 47 8 101t25 105.5t43.5 94t62 67.5t81.5 25q22 0 41.5 -4t34.5 -13l-20 -44q-12 8 -27 11.5t-29 3.5q-38 0 -67 -28.5t-50 -73t-32 -93.5h127l-10 -44h-127q-9 -51 -9 -104q0 -63 19 -90t57 -27q18 0 37 5.5t37 15.5v-45
q-15 -9 -38.5 -15t-45.5 -6z" />
    <glyph glyph-name="afii10102" unicode="&#x455;" horiz-adv-x="295" 
d="M88 -10q-34 0 -61 7.5t-41 16.5v54q16 -12 43 -21.5t55 -9.5q48 0 72 26.5t24 76.5q0 33 -13.5 57.5t-46.5 62.5q-28 32 -46 63.5t-18 76.5q0 59 37 100t103 41q38 0 64.5 -9.5t45.5 -21.5l-25 -43q-16 12 -37 20.5t-48 8.5q-40 0 -63.5 -25t-23.5 -65q0 -31 11.5 -55.5
t39.5 -55.5q25 -27 41.5 -49t24.5 -45t8 -56q0 -73 -38.5 -114t-107.5 -41z" />
    <glyph glyph-name="afii10103" unicode="&#x456;" horiz-adv-x="174" 
d="M166 634q-28 0 -28 32q0 20 10.5 39t32.5 19q27 0 27 -30q0 -22 -11 -41t-31 -19zM3 0l113 531h51l-113 -531h-51z" />
    <glyph glyph-name="afii10104" unicode="&#x457;" horiz-adv-x="174" 
d="M3 0l113 531h50l-113 -531h-50zM232 639q-26 0 -26 30q0 19 10 36t30 17q25 0 25 -28q0 -21 -10.5 -38t-28.5 -17zM94 639q-26 0 -26 30q0 19 10 36t30 17q25 0 25 -28q0 -21 -10.5 -38t-28.5 -17z" />
    <glyph glyph-name="afii10105" unicode="&#x458;" horiz-adv-x="177" 
d="M170 634q-28 0 -28 32q0 20 10.5 39t31.5 19q28 0 28 -30q0 -22 -11 -41t-31 -19zM-88 -240q-26 0 -43 6v48q17 -6 38 -6q25 0 40.5 12.5t26.5 44t22 87.5l123 579h51l-124 -583q-13 -62 -28 -103.5t-39.5 -63t-66.5 -21.5z" />
    <glyph glyph-name="afii10106" unicode="&#x459;" horiz-adv-x="547" 
d="M336 -10q-55 0 -80.5 27.5t-25.5 79.5q0 19 3 40t7 38l66 309q-6 0 -12.5 1t-16.5 1q-41 0 -66 -26.5t-42 -79.5t-34 -133q-19 -93 -38.5 -148t-46 -79t-66.5 -25q-10 0 -18 1.5t-14 3.5v47q5 -3 12 -4t14 -1q23 0 40.5 16.5t33.5 61t33 130.5q19 95 42 158t60.5 94
t98.5 31q22 0 43 -2.5t37 -5.5l-50 -235q10 2 26 4t34 2q60 0 90 -32.5t30 -91.5q0 -46 -18.5 -87.5t-54 -68t-87.5 -26.5zM341 33q37 0 59 22t32 53.5t10 60.5q0 83 -76 83q-31 0 -58 -6q-15 -65 -20.5 -96t-5.5 -50q0 -67 59 -67z" />
    <glyph glyph-name="afii10107" unicode="&#x45a;" horiz-adv-x="541" 
d="M332 -10q-56 0 -82 28.5t-26 78.5q0 22 5.5 54.5t20.5 102.5h-140l-55 -254h-51l112 531h52l-49 -231h141l50 231h52l-52 -241q10 3 26 5t34 2q60 -1 90 -34t30 -91q0 -46 -18 -87.5t-53 -68t-87 -26.5zM336 33q36 0 58 21.5t32 53.5t10 61q0 84 -76 84q-14 0 -29 -2
t-29 -5q-15 -63 -20.5 -94.5t-5.5 -51.5q0 -67 60 -67z" />
    <glyph glyph-name="afii10108" unicode="&#x45b;" horiz-adv-x="388" 
d="M4 0l132 624h-62l8 42h62l20 94h52l-20 -94h98l-8 -42h-100q-15 -73 -24 -110t-15 -60h2q40 84 118 84q40 0 63.5 -23.5t23.5 -68.5q0 -22 -5.5 -55t-11.5 -61l-70 -330h-51l70 330q6 27 11 55t5 52q0 26 -14 39.5t-38 13.5q-50 0 -81.5 -50t-52.5 -152l-61 -288h-51z
" />
    <glyph glyph-name="afii10109" unicode="&#x45c;" horiz-adv-x="312" 
d="M4 0l113 531h51l-54 -249l192 249h58l-198 -255l92 -276h-54l-91 276l-58 -276h-51zM188 603v8q36 39 67 79.5t49 72.5h62l-1 -8q-14 -20 -40.5 -50t-55.5 -58t-50 -44h-31z" />
    <glyph glyph-name="afii10110" unicode="&#x45e;" horiz-adv-x="317" 
d="M-57 -242q-30 0 -47 10l8 47q8 -4 17.5 -6.5t21.5 -2.5q30 0 50.5 22.5t40.5 69.5l48 110l-10 523h52l2 -341v-50.5t-2 -53.5h2q9 27 19.5 53.5t18.5 45.5l150 346h54l-285 -645q-29 -63 -59 -95.5t-81 -32.5zM233 604q-50 0 -77.5 26t-27.5 72q0 9 1 18.5t3 18.5h44
q-3 -15 -3 -35q0 -62 63 -62q40 0 60.5 25.5t29.5 71.5h46q-14 -67 -47.5 -101t-91.5 -34z" />
    <glyph glyph-name="afii10193" unicode="&#x45f;" horiz-adv-x="386" 
d="M114 -10q-42 0 -65 23.5t-23 68.5q0 21 5 51t10 56l73 342h52l-73 -341q-6 -26 -10.5 -51t-4.5 -47q0 -55 51 -55q50 0 82.5 53t53.5 154l61 287h52l-112 -531h-42l10 73h-2q-20 -40 -51 -61.5t-67 -21.5zM60 -231l52 177l42 20h8l-52 -197h-50z" />
    <glyph glyph-name="afii10050" unicode="&#x490;" horiz-adv-x="307" 
d="M1 0l151 714h170l32 148h52l-42 -196h-168l-142 -666h-53z" />
    <glyph glyph-name="afii10098" unicode="&#x491;" horiz-adv-x="264" 
d="M-4 0l112 531h133l33 159h50l-42 -206h-132l-103 -484h-51z" />
    <glyph glyph-name="Wgrave" unicode="&#x1e80;" horiz-adv-x="626" 
d="M72 0l14 714h52l-12 -511q-1 -41 -2.5 -71t-2.5 -52h2q11 33 24 66.5t24 62.5l199 505h49l-17 -489q-2 -43 -3.5 -78t-3.5 -70h2q13 37 26 71.5t30 77.5l193 488h55l-285 -714h-67l18 507q1 23 2 47t3 50h-2q-8 -22 -15.5 -45t-16.5 -44l-200 -515h-66zM423 792
q-13 18 -29.5 44.5t-31 54.5t-22.5 51v8h57q13 -38 26 -75t31 -74v-9h-31z" />
    <glyph glyph-name="wgrave" unicode="&#x1e81;" horiz-adv-x="502" 
d="M56 -1l7 532h49l-6 -337q0 -30 -1 -57.5t-3 -53.5h2q7 24 18.5 53.5t21.5 53.5l136 341h57l-8 -337q-1 -22 -2.5 -53.5t-3.5 -59.5h2q10 28 20.5 56.5t22.5 59.5l128 334h52l-211 -532h-58l10 362q1 22 1.5 46.5t3.5 48.5h-2q-7 -22 -14.5 -42.5t-15.5 -41.5l-148 -373
h-58zM321 606q-13 18 -29.5 44.5t-31 54.5t-22.5 51v8h57q13 -38 26 -75t31 -74v-9h-31z" />
    <glyph glyph-name="Wacute" unicode="&#x1e82;" horiz-adv-x="626" 
d="M72 0l14 714h52l-12 -511q-1 -41 -2.5 -71t-2.5 -52h2q11 33 24 66.5t24 62.5l199 505h49l-17 -489q-2 -43 -3.5 -78t-3.5 -70h2q13 37 26 71.5t30 77.5l193 488h55l-285 -714h-67l18 507q1 23 2 47t3 50h-2q-8 -22 -15.5 -45t-16.5 -44l-200 -515h-66zM373 790v8
q36 39 67 79.5t49 72.5h62l-1 -8q-14 -20 -40.5 -50t-55.5 -58t-50 -44h-31z" />
    <glyph glyph-name="wacute" unicode="&#x1e83;" horiz-adv-x="502" 
d="M56 -1l7 532h49l-6 -337q0 -30 -1 -57.5t-3 -53.5h2q7 24 18.5 53.5t21.5 53.5l136 341h57l-8 -337q-1 -22 -2.5 -53.5t-3.5 -59.5h2q10 28 20.5 56.5t22.5 59.5l128 334h52l-211 -532h-58l10 362q1 22 1.5 46.5t3.5 48.5h-2q-7 -22 -14.5 -42.5t-15.5 -41.5l-148 -373
h-58zM272 603v8q36 39 67 79.5t49 72.5h62l-1 -8q-14 -20 -40.5 -50t-55.5 -58t-50 -44h-31z" />
    <glyph glyph-name="Wdieresis" unicode="&#x1e84;" horiz-adv-x="626" 
d="M72 0l14 714h52l-12 -511q-1 -41 -2.5 -71t-2.5 -52h2q11 33 24 66.5t24 62.5l199 505h49l-17 -489q-2 -43 -3.5 -78t-3.5 -70h2q13 37 26 71.5t30 77.5l193 488h55l-285 -714h-67l18 507q1 23 2 47t3 50h-2q-8 -22 -15.5 -45t-16.5 -44l-200 -515h-66zM460 804
q-26 0 -26 30q0 19 10 36t30 17q25 0 25 -28q0 -21 -10.5 -38t-28.5 -17zM322 804q-26 0 -26 30q0 19 10 36t30 17q25 0 25 -28q0 -21 -10.5 -38t-28.5 -17z" />
    <glyph glyph-name="wdieresis" unicode="&#x1e85;" horiz-adv-x="502" 
d="M56 -1l7 532h49l-6 -337q0 -30 -1 -57.5t-3 -53.5h2q7 24 18.5 53.5t21.5 53.5l136 341h57l-8 -337q-1 -22 -2.5 -53.5t-3.5 -59.5h2q10 28 20.5 56.5t22.5 59.5l128 334h52l-211 -532h-58l10 362q1 22 1.5 46.5t3.5 48.5h-2q-7 -22 -14.5 -42.5t-15.5 -41.5l-148 -373
h-58zM377 639q-26 0 -26 30q0 19 10 36t30 17q25 0 25 -28q0 -21 -10.5 -38t-28.5 -17zM239 639q-26 0 -26 30q0 19 10 36t30 17q25 0 25 -28q0 -21 -10.5 -38t-28.5 -17z" />
    <glyph glyph-name="Ygrave" unicode="&#x1ef2;" horiz-adv-x="322" 
d="M68 0l58 276l-42 438h54l30 -363l182 363h58l-228 -436l-59 -278h-53zM272 792q-13 18 -29.5 44.5t-31 54.5t-22.5 51v8h57q13 -38 26 -75t31 -74v-9h-31z" />
    <glyph glyph-name="ygrave" unicode="&#x1ef3;" horiz-adv-x="317" 
d="M-57 -242q-30 0 -47 10l8 47q8 -4 17.5 -6.5t21.5 -2.5q30 0 50.5 22.5t40.5 69.5l48 110l-10 523h52l2 -341v-50.5t-2 -53.5h2q9 27 19.5 53.5t18.5 45.5l150 346h54l-285 -645q-29 -63 -59 -95.5t-81 -32.5zM230 606q-13 18 -29.5 44.5t-31 54.5t-22.5 51v8h57
q13 -38 26 -75t31 -74v-9h-31z" />
    <glyph glyph-name="endash" unicode="&#x2013;" horiz-adv-x="450" 
d="M29 246l9 46h380l-10 -46h-379z" />
    <glyph glyph-name="emdash" unicode="&#x2014;" horiz-adv-x="900" 
d="M29 246l9 46h830l-9 -46h-830z" />
    <glyph glyph-name="afii00208" unicode="&#x2015;" horiz-adv-x="905" 
d="M29 246l9 46h830l-9 -46h-830z" />
    <glyph glyph-name="underscoredbl" unicode="&#x2017;" horiz-adv-x="374" 
d="M-76 -130l8 38h376l-8 -38h-376zM-99 -239l9 37h376l-8 -37h-377z" />
    <glyph glyph-name="quoteleft" unicode="&#x2018;" horiz-adv-x="144" 
d="M67 482l-4 12q20 54 48.5 113t60.5 107h40q-17 -31 -35.5 -72.5t-34 -83.5t-24.5 -76h-51z" />
    <glyph glyph-name="quoteright" unicode="&#x2019;" horiz-adv-x="144" 
d="M56 482q28 54 53 115t40 117h51l4 -12q-19 -52 -47.5 -111t-60.5 -109h-40z" />
    <glyph glyph-name="quotesinglbase" unicode="&#x201a;" horiz-adv-x="188" 
d="M-42 -130q18 32 36 73t33 82.5t24 76.5h52l4 -11q-19 -53 -48 -112t-61 -109h-40z" />
    <glyph glyph-name="quotereversed" unicode="&#x201b;" horiz-adv-x="144" 
d="M106 482q-10 52 -16.5 111t-7.5 110l8 11h52q-4 -36 -4.5 -77.5t2 -82t5.5 -72.5h-39z" />
    <glyph glyph-name="quotedblleft" unicode="&#x201c;" horiz-adv-x="273" 
d="M197 482l-3 12q20 54 48 113t60 107h40q-18 -33 -36 -73.5t-33 -81.5t-24 -77h-52zM68 482l-4 12q21 54 49.5 113.5t60.5 106.5h40q-18 -31 -36 -72.5t-33.5 -83.5t-24.5 -76h-52z" />
    <glyph glyph-name="quotedblright" unicode="&#x201d;" horiz-adv-x="273" 
d="M182 482q28 52 53 113.5t41 118.5h50l4 -12q-19 -52 -47.5 -111t-61.5 -109h-39zM52 482q28 52 53 113.5t41 118.5h52l3 -12q-19 -52 -47.5 -111t-61.5 -109h-40z" />
    <glyph glyph-name="quotedblbase" unicode="&#x201e;" horiz-adv-x="273" 
d="M61 -130q17 32 35 72.5t33.5 82t24.5 77.5h52l3 -12q-19 -52 -47.5 -111t-60.5 -109h-40zM-68 -130q28 52 53.5 114.5t40.5 117.5h51l3 -12q-19 -52 -47.5 -111t-60.5 -109h-40z" />
    <glyph glyph-name="dagger" unicode="&#x2020;" horiz-adv-x="390" 
d="M94 0l120 518l-123 -6l10 46l119 -6l36 208h54l-54 -208l128 6l-9 -46l-125 6l-102 -518h-54z" />
    <glyph glyph-name="daggerdbl" unicode="&#x2021;" horiz-adv-x="390" 
d="M94 0l52 200l-127 -7l10 46l123 -5l26 148l38 144l-124 -5l10 46l120 -7l34 200h54l-52 -200l128 7l-10 -46l-125 5l-25 -144l-38 -148l125 5l-11 -46l-121 7l-35 -200h-52z" />
    <glyph glyph-name="bullet" unicode="&#x2022;" horiz-adv-x="340" 
d="M181 244q-52 0 -80.5 31.5t-28.5 89.5q0 59 28 90t81 31q52 0 80 -31t28 -90q0 -58 -28 -89.5t-80 -31.5z" />
    <glyph glyph-name="ellipsis" unicode="&#x2026;" horiz-adv-x="564" 
d="M44 -4q-30 0 -30 33q0 23 12 42.5t34 19.5q29 0 29 -34q0 -23 -12.5 -42t-32.5 -19zM233 -4q-30 0 -30 33q0 23 12 42.5t34 19.5q29 0 29 -34q0 -23 -12.5 -42t-32.5 -19zM422 -4q-30 0 -30 33q0 23 12 42.5t34 19.5q29 0 29 -34q0 -23 -12.5 -42t-32.5 -19z" />
    <glyph glyph-name="perthousand" unicode="&#x2030;" horiz-adv-x="812" 
d="M119 276q-34 0 -52.5 26t-18.5 84q0 35 6 79.5t18.5 89.5t31.5 83.5t45 62t59 23.5t51.5 -25t18.5 -80q0 -32 -6 -76t-18 -90.5t-31 -86.5t-45 -65t-59 -25zM83 0l363 714h44l-360 -714h-47zM124 318q21 0 38.5 23t31 60t22.5 78t14 78.5t5 60.5q0 36 -8.5 50t-24.5 14
q-20 0 -37 -21.5t-30.5 -56t-23.5 -74.5t-15 -77.5t-5 -64.5q0 -40 9 -55t24 -15zM368 -11q-33 0 -52.5 25.5t-19.5 83.5q0 37 6.5 82t19.5 90t32 83t44.5 61t57.5 23q34 0 53 -25.5t19 -79.5q0 -32 -6 -76.5t-18.5 -91t-31.5 -86t-45 -64.5t-59 -25zM616 -11
q-33 0 -52.5 25.5t-19.5 83.5q0 37 6.5 82t19.5 90t32 83t44.5 61t57.5 23q34 0 53 -25.5t19 -79.5q0 -32 -6 -76.5t-18.5 -91t-31.5 -86t-45 -64.5t-59 -25zM373 31q21 0 38 23t30.5 60t23 78.5t14.5 78.5t5 61q0 34 -9 49t-25 15q-20 0 -37 -22t-30.5 -57t-23 -75
t-14.5 -78t-5 -64q0 -39 8.5 -54t24.5 -15zM622 31q20 0 37.5 23t31 60t22.5 78.5t14 78.5t5 61q0 34 -8.5 49t-24.5 15q-20 0 -37 -22t-31 -57t-23.5 -75t-14.5 -78t-5 -64q0 -39 9 -54t25 -15z" />
    <glyph glyph-name="minute" unicode="&#x2032;" horiz-adv-x="174" 
d="M82 522l78 192h57l-97 -192h-38z" />
    <glyph glyph-name="second" unicode="&#x2033;" horiz-adv-x="308" 
d="M216 522l78 192h57l-97 -192h-38zM82 522l78 192h57l-97 -192h-38z" />
    <glyph glyph-name="guilsinglleft" unicode="&#x2039;" horiz-adv-x="228" 
d="M115 70l-86 187l2 13l161 176l33 -23l-139 -163l68 -173z" />
    <glyph glyph-name="guilsinglright" unicode="&#x203a;" horiz-adv-x="228" 
d="M27 70l-33 24l138 162l-66 174l38 16l86 -186l-2 -14z" />
    <glyph glyph-name="exclamdbl" unicode="&#x203c;" horiz-adv-x="386" 
d="M234 182l108 532h60l-125 -532h-43zM216 -4q-30 0 -30 33q0 23 12 42.5t36 19.5q28 0 28 -34q0 -23 -12.5 -42t-33.5 -19zM60 182l108 532h60l-125 -532h-43zM42 -4q-30 0 -30 33q0 23 12 42.5t36 19.5q28 0 28 -34q0 -23 -12.5 -42t-33.5 -19z" />
    <glyph glyph-name="fraction" unicode="&#x2044;" horiz-adv-x="116" 
d="M-232 0l544 714h50l-544 -714h-50z" />
    <glyph glyph-name="nsuperior" unicode="&#x207f;" horiz-adv-x="250" 
d="M54.9502 287l72.8027 318.587h27.3008l-7.7998 -44.998h1.94922q13.001 23.999 32.502 37.498q19.5 13.5 44.2012 13.5q25.3516 0 41.6016 -13.5q16.251 -13.499 16.251 -41.0977q0 -13.2002 -3.5752 -32.3994t-7.47559 -35.998l-46.8018 -201.592h-33.1514
l46.1523 201.592q3.89941 16.1992 7.15039 32.6982q3.25 16.5 3.25 29.6992q0 31.7988 -33.1514 31.7988q-32.501 0 -53.3018 -31.499q-20.8008 -31.498 -35.1016 -91.4961l-39.6514 -172.793h-33.1514z" />
    <glyph glyph-name="franc" unicode="&#x20a3;" horiz-adv-x="365" 
d="M36 0l30 144h-65l10 43h65l112 527h240l-10 -48h-188l-62 -294h175l-10 -49h-175l-30 -136h102l-10 -43h-101l-30 -144h-53z" />
    <glyph glyph-name="afii08941" unicode="&#x20a4;" horiz-adv-x="365" 
d="M-28 0l9 44q31 10 49.5 31t31.5 59t26 98h-70l8 42h70l23 106h-70l9 41h69l31 145q16 73 48.5 115.5t100.5 42.5q34 0 59 -11t45 -29l-27 -42q-15 14 -33.5 24t-44.5 10q-46 0 -66 -32.5t-32 -84.5l-28 -138h108l-9 -41h-108l-23 -106h109l-9 -42h-108q-13 -58 -24.5 -94
t-26.5 -57t-38 -33h231l-10 -48h-300z" />
    <glyph glyph-name="peseta" unicode="&#x20a7;" horiz-adv-x="513" 
d="M-1 0l151 714h56q76 0 116 -39.5t40 -111.5q0 -51 -12.5 -99t-40.5 -87t-72 -62t-107 -23h-17l-62 -292h-52zM123 341h11q66 0 104 31.5t54 81t16 104.5q0 50 -24.5 79t-82.5 29h-9zM399 -10q-67 0 -67 76q0 15 3 34.5t7 41.5l46 216h-46l6 30l50 14l40 128h36l-26 -127
h70l-10 -45h-70l-46 -217q-9 -41 -9 -65q0 -39 33 -39q10 0 20 2t19 5v-43q-27 -11 -56 -11z" />
    <glyph glyph-name="Euro" unicode="&#x20ac;" horiz-adv-x="365" 
d="M193 -10q-59 0 -90 31t-42 89t-11 138h-55l8 39h50q1 17 4 41t6.5 48t7.5 40h-45l8 39h47q20 76 52.5 137t80.5 97t114 36q61 0 98 -31l-28 -43q-25 25 -72 25q-51 0 -88 -29.5t-62.5 -80t-41.5 -111.5h165l-9 -39h-167q-3 -16 -7 -39.5t-6.5 -48t-3.5 -41.5h148l-8 -39
h-144q0 -64 7 -111t28 -73t63 -26q20 0 38 4.5t38 13.5l11 -46q-22 -9 -45.5 -14.5t-48.5 -5.5z" />
    <glyph glyph-name="afii61248" unicode="&#x2105;" horiz-adv-x="500" 
d="M158 384q-84 0 -84 107q0 35 9 75t27 75t46.5 57.5t67.5 22.5q36 0 60 -15l-20 -38q-18 12 -44 12q-25 0 -44 -18.5t-31.5 -47.5t-18.5 -61.5t-6 -60.5q0 -35 12 -51t37 -16t54 15l-5 -40q-14 -8 -28 -12t-32 -4zM45 0l367 714h44l-367 -714h-44zM307 -6q-39 0 -59 26.5
t-20 73.5q0 34 8 75t24.5 77.5t42.5 60t63 23.5q40 0 60 -26t20 -74q0 -40 -8.5 -81.5t-25.5 -76.5t-43 -56.5t-62 -21.5zM310 33q23 0 40.5 20t29 51.5t17 65.5t5.5 62q0 27 -9.5 42.5t-29.5 15.5q-24 0 -41 -21t-28.5 -53t-16.5 -65t-5 -57q0 -28 9 -44.5t29 -16.5z" />
    <glyph glyph-name="afii61289" unicode="&#x2113;" horiz-adv-x="365" 
d="M196 -9q-60 0 -83.5 42.5t-23.5 126.5v128q-16 -8 -34.5 -14t-32.5 -10v45l33 11t34 14v226q0 88 24.5 126t74.5 38q51 0 77.5 -38t26.5 -107q0 -91 -38.5 -160t-113.5 -111v-154q0 -60 13 -89.5t47 -29.5t49.5 26t16.5 89h46q-1 -83 -28.5 -121t-87.5 -38zM140 355
q103 71 103 223q0 50 -14.5 76t-39.5 26q-27 0 -38 -23.5t-11 -80.5v-221z" />
    <glyph glyph-name="afii61352" unicode="&#x2116;" horiz-adv-x="668" 
d="M3 0l151 714h66l57 -606q4 26 8 47.5t8 42.5l109 516h51l-151 -714h-62l-60 616q-2 -16 -4.5 -33.5t-5.5 -32.5l-116 -550h-51zM496 134q-84 0 -84 102q0 37 8 77t25 74.5t43.5 56t63.5 21.5q42 0 63.5 -26.5t21.5 -76.5q0 -36 -8.5 -75.5t-25.5 -74t-43.5 -56.5
t-63.5 -22zM500 174q26 0 43.5 19.5t29 49t16.5 61.5t5 58q0 64 -46 64q-24 0 -41.5 -19t-28.5 -49t-16.5 -62.5t-5.5 -59.5q0 -62 44 -62zM374 0l8 41h182l-8 -41h-182z" />
    <glyph glyph-name="trademark" unicode="&#x2122;" horiz-adv-x="600" 
d="M256 362v352h56l90 -295l92 295h54v-352h-38v194v49t1 49h-3l-92 -292h-33l-91 295h-2q1 -25 1.5 -49t0.5 -47v-199h-36zM96 362v314h-90v38h218v-38h-90v-314h-38z" />
    <glyph glyph-name="uni03A9" unicode="&#x3a9;" horiz-adv-x="480" 
d="M-36 0l10 48h122q-24 32 -39 86.5t-15 122.5q0 57 10 120.5t30.5 125t52.5 111.5t76.5 80t102.5 30q75 0 110.5 -49t35.5 -137q0 -104 -24.5 -199.5t-67.5 -171t-98 -119.5h126l-11 -48h-181l10 45q43 32 78 85t60 118.5t38.5 138t13.5 143.5q0 146 -96 146
q-47 0 -82.5 -30t-60.5 -79t-41 -106.5t-23 -113.5t-7 -99q0 -129 52 -203l-10 -45h-172z" />
    <glyph glyph-name="estimated" unicode="&#x212e;" horiz-adv-x="557" 
d="M269 -17q-74 0 -126 38t-79.5 100.5t-27.5 137.5q0 79 28.5 141t81 98.5t123.5 36.5q67 1 120 -34t83.5 -98t29.5 -144h-363v-174q22 -26 58.5 -43t71.5 -17q63 0 102 27.5t72 86.5l31 -20q-38 -68 -85 -102t-120 -34zM139 301h261v135q-22 26 -57.5 42t-74.5 16
q-76 0 -129 -57v-136z" />
    <glyph glyph-name="oneeighth" unicode="&#x215b;" horiz-adv-x="618" 
d="M8 0l544 714h50l-544 -714h-50zM123 286l72 333q3 13 6 24t5 21q-10 -10 -17.5 -16.5t-15.5 -11.5l-62 -44l-20 32l125 90h43l-92 -428h-44zM431 -10q-47 0 -75 26t-28 74q0 52 28 83t78 51q-22 21 -34 44.5t-12 52.5q0 47 30 81t88 34q44 0 68 -24t24 -66
q0 -46 -26 -75.5t-70 -48.5q22 -16 38 -41t16 -63q0 -57 -33.5 -92.5t-91.5 -35.5zM474 242q35 14 58.5 37.5t23.5 62.5q0 26 -14.5 41t-41.5 15q-34 0 -51.5 -23t-17.5 -51t11.5 -47t31.5 -35zM434 28q39 0 59 25.5t20 63.5q0 31 -15.5 52t-33.5 35q-40 -15 -66 -40.5
t-26 -69.5q0 -30 17 -48t45 -18z" />
    <glyph glyph-name="threeeighths" unicode="&#x215c;" horiz-adv-x="636" 
d="M110 278q-28 0 -48 5.5t-34 14.5v44q16 -10 36.5 -17t46.5 -7q47 0 71 29t24 69t-20 57t-50 17h-27l7 38h27q35 0 58 15t33.5 38t10.5 47q0 26 -13.5 42t-39.5 16q-22 0 -40.5 -8.5t-34.5 -21.5l-19 32q19 16 44 27t56 11q47 0 69.5 -27t22.5 -65q0 -46 -25.5 -79.5
t-66.5 -44.5l-2 -2q22 -9 38.5 -30.5t16.5 -59.5q0 -57 -35.5 -98.5t-105.5 -41.5zM26 0l544 714h50l-544 -714h-50zM447 -10q-47 0 -75 26t-28 74q0 52 28 83t78 51q-22 21 -34 44.5t-12 52.5q0 47 30 81t88 34q44 0 68 -24t24 -66q0 -46 -26 -75.5t-70 -48.5
q22 -16 38 -41t16 -63q0 -57 -33.5 -92.5t-91.5 -35.5zM490 242q35 14 58.5 37.5t23.5 62.5q0 26 -14.5 41t-41.5 15q-34 0 -51.5 -23t-17.5 -51t11.5 -47t31.5 -35zM450 28q39 0 59 25.5t20 63.5q0 31 -15.5 52t-33.5 35q-40 -15 -66 -40.5t-26 -69.5q0 -30 17 -48t45 -18z
" />
    <glyph glyph-name="fiveeighths" unicode="&#x215d;" horiz-adv-x="630" 
d="M21 0l544 714h50l-544 -714h-50zM113 278q-22 0 -40.5 4t-33.5 12l4 43q26 -19 70 -19q38 0 60.5 20t32 49t9.5 57q0 67 -61 67q-11 0 -24.5 -3t-22.5 -6l-22 19l59 193h154l-9 -40h-118l-40 -130q8 2 19 3t21 1q42 0 66.5 -26t24.5 -74q0 -39 -15 -78.5t-48 -65.5
t-86 -26zM443 -10q-47 0 -75 26t-28 74q0 52 28 83t78 51q-22 21 -34 44.5t-12 52.5q0 47 30 81t88 34q44 0 68 -24t24 -66q0 -46 -26 -75.5t-70 -48.5q22 -16 38 -41t16 -63q0 -57 -33.5 -92.5t-91.5 -35.5zM486 242q35 14 58.5 37.5t23.5 62.5q0 26 -14.5 41t-41.5 15
q-34 0 -51.5 -23t-17.5 -51t11.5 -47t31.5 -35zM446 28q39 0 59 25.5t20 63.5q0 31 -15.5 52t-33.5 35q-40 -15 -66 -40.5t-26 -69.5q0 -30 17 -48t45 -18z" />
    <glyph glyph-name="seveneighths" unicode="&#x215e;" horiz-adv-x="604" 
d="M-8 0l544 714h50l-544 -714h-50zM417 -10q-47 0 -75 26t-28 74q0 52 28 83t78 51q-22 21 -34 44.5t-12 52.5q0 47 30 81t88 34q44 0 68 -24t24 -66q0 -46 -26 -75.5t-70 -48.5q22 -16 38 -41t16 -63q0 -57 -33.5 -92.5t-91.5 -35.5zM460 242q35 14 58.5 37.5t23.5 62.5
q0 26 -14.5 41t-41.5 15q-34 0 -51.5 -23t-17.5 -51t11.5 -47t31.5 -35zM420 28q39 0 59 25.5t20 63.5q0 31 -15.5 52t-33.5 35q-40 -15 -66 -40.5t-26 -69.5q0 -30 17 -48t45 -18zM67 286l195 388h-158l8 40h205l-7 -36l-196 -392h-47z" />
    <glyph glyph-name="uni0394" unicode="&#x394;" horiz-adv-x="361" 
d="M-46 0l4 41l287 674h67l4 -674l-8 -41h-354zM16 49h246l2 498v54t2 57q-9 -24 -21 -56.5t-26 -64.5z" />
    <glyph glyph-name="cyrillicbreve" horiz-adv-x="514" 
d="M297 608q-50 0 -77.5 26t-27.5 72q0 9 1 18.5t3 18.5h44q-3 -15 -3 -35q0 -62 63 -62q40 0 60.5 25.5t29.5 71.5h46q-14 -67 -47.5 -101t-91.5 -34z" />
    <glyph glyph-name="caroncommaaccent" horiz-adv-x="446" 
d="M208 600v8q20 39 36 79t24 73h52v-10q-7 -20 -21 -47.5t-30.5 -55t-30.5 -47.5h-30z" />
    <glyph glyph-name="commaaccentrotate" horiz-adv-x="446" 
d="M206 606v10q9 22 26 50t37.5 55t38.5 45h27l1 -13q-12 -14 -28.5 -41t-30.5 -56.5t-21 -49.5h-50z" />
    <glyph glyph-name="uni2074" unicode="&#x2074;" horiz-adv-x="271" 
d="M180 416l22 104h-144l4 34l210 293h43l-62 -289h45l-8 -38h-44l-24 -104h-42zM107 558h103l32 148q4 20 8 38t8 32q-9 -15 -18 -29.5t-22 -31.5z" />
    <glyph glyph-name="uni2075" unicode="&#x2075;" horiz-adv-x="271" 
d="M136 408q-22 0 -40.5 4t-33.5 12l4 43q26 -19 70 -19q38 0 60.5 20t32 49t9.5 57q0 67 -61 67q-11 0 -24.5 -3t-22.5 -6l-22 19l59 193h154l-9 -40h-118l-40 -130q8 2 19 3t21 1q42 0 66.5 -26t24.5 -74q0 -39 -15 -78.5t-48 -65.5t-86 -26z" />
    <glyph glyph-name="uni2077" unicode="&#x2077;" horiz-adv-x="271" 
d="M89 416l195 388h-158l8 40h205l-7 -36l-196 -392h-47z" />
    <glyph glyph-name="uni2078" unicode="&#x2078;" horiz-adv-x="271" 
d="M165 408q-47 0 -75 26t-28 74q0 52 28 83t78 51q-22 21 -34 44.5t-12 52.5q0 47 30 81t88 34q44 0 68 -24t24 -66q0 -46 -26 -75.5t-70 -48.5q22 -16 38 -41t16 -63q0 -57 -33.5 -92.5t-91.5 -35.5zM208 660q35 14 58.5 37.5t23.5 62.5q0 26 -14.5 41t-41.5 15
q-34 0 -51.5 -23t-17.5 -51t11.5 -47t31.5 -35zM168 446q39 0 59 25.5t20 63.5q0 31 -15.5 52t-33.5 35q-40 -15 -66 -40.5t-26 -69.5q0 -30 17 -48t45 -18z" />
    <glyph glyph-name="uni2000" unicode="&#x2000;" horiz-adv-x="500" 
 />
    <glyph glyph-name="uni2001" unicode="&#x2001;" horiz-adv-x="1000" 
 />
    <glyph glyph-name="uni2002" unicode="&#x2002;" horiz-adv-x="500" 
 />
    <glyph glyph-name="uni2003" unicode="&#x2003;" horiz-adv-x="1000" 
 />
    <glyph glyph-name="uni2004" unicode="&#x2004;" horiz-adv-x="333" 
 />
    <glyph glyph-name="uni2005" unicode="&#x2005;" horiz-adv-x="250" 
 />
    <glyph glyph-name="uni2006" unicode="&#x2006;" horiz-adv-x="167" 
 />
    <glyph glyph-name="uni2007" unicode="&#x2007;" horiz-adv-x="367" 
 />
    <glyph glyph-name="uni2008" unicode="&#x2008;" horiz-adv-x="178" 
 />
    <glyph glyph-name="uni2009" unicode="&#x2009;" horiz-adv-x="180" 
 />
    <glyph glyph-name="uni200A" unicode="&#x200a;" horiz-adv-x="100" 
 />
    <glyph glyph-name="uni200B" unicode="&#x200b;" 
 />
    <glyph glyph-name="uniFEFF" unicode="&#xfeff;" horiz-adv-x="2" 
 />
    <glyph glyph-name="uniFFFC" unicode="&#xfffc;" horiz-adv-x="1000" 
d="M916 593v94h-95v54h148v-148h-53zM630 687v54h133v-54h-133zM439 687v54h133v-54h-133zM41 593v148h148v-54h-94v-94h-54zM248 687v54h132v-54h-132zM916 402v132h53v-132h-53zM41 402v132h54v-132h-54zM294 160q-66 0 -97 40.5t-31 106.5q0 67 31 107t97 40t97 -40
t31 -107q0 -66 -31 -106.5t-97 -40.5zM728 161q-24 0 -39 5v50q7 -2 15 -3t18 -1q18 0 30 8.5t12 33.5v196h61v-194q0 -50 -27 -72.5t-70 -22.5zM463 164v286h84q53 0 80.5 -16t27.5 -57q0 -24 -11.5 -40t-32.5 -20v-4q22 -5 37 -18.5t15 -47.5q0 -39 -26.5 -61t-72.5 -22
h-101zM294 211q34 0 50 25.5t16 70.5t-16 70.5t-50 25.5t-50 -25.5t-16 -70.5t16 -70.5t50 -25.5zM523 337h32q23 0 31.5 8t8.5 24q0 31 -43 31h-29v-63zM41 210v133h54v-133h-54zM916 210v133h53v-133h-53zM523 214h36q24 0 33 10.5t9 28.5q0 16 -9.5 26t-34.5 10h-34v-75z
M916 19v132h53v-132h-53zM41 19v132h54v-132h-54zM821 -187v53h95v95h53v-148h-148zM41 -187v148h54v-95h94v-53h-148zM630 -187v53h133v-53h-133zM439 -187v53h133v-53h-133zM248 -187v53h132v-53h-132z" />
    <glyph glyph-name="uniFFFD" unicode="&#xfffd;" horiz-adv-x="1000" 
d="M499 -156l-458 458l458 458l459 -458zM428 179h103v23q0 25 10 39.5t43 40.5q43 34 64.5 65t21.5 80q0 67 -46 104t-126 37q-42 0 -86 -14t-78 -34l40 -87q33 17 64 28t58 11q31 0 46 -14t15 -37q0 -29 -13 -46t-46 -43q-38 -30 -54 -57.5t-16 -66.5v-29zM484 -21
q27 0 47.5 15.5t20.5 50.5q0 37 -20.5 52t-47.5 15q-29 0 -49 -15t-20 -52q0 -35 20 -50.5t49 -15.5z" />
    <glyph glyph-name="uni01F0" unicode="&#x1f0;" horiz-adv-x="174" 
d="M-88 -240q-26 0 -43 6v48q17 -6 38 -6q25 0 40.5 12.5t26.5 44t22 87.5l123 579h51l-124 -583q-13 -62 -28 -103.5t-39.5 -63t-66.5 -21.5zM129 606q-4 19 -14 48.5t-21 57.5t-20 45l1 9h28q12 -19 28 -47t30 -60q24 29 50.5 57t54.5 50h27l-1 -9q-17 -17 -40 -44.5
t-44 -56t-33 -50.5h-46z" />
    <glyph glyph-name="uni02BC" unicode="&#x2bc;" horiz-adv-x="144" 
d="M56 482q28 54 53 115t40 117h51l4 -12q-19 -52 -47.5 -111t-60.5 -109h-40z" />
    <glyph glyph-name="uni03D1" unicode="&#x3d1;" horiz-adv-x="432" 
d="M132 -10q-45 0 -74 24.5t-29 80.5q0 38 9 74.5t21 73.5q10 31 18.5 58.5t8.5 48.5q0 32 -25 32q-10 0 -20 -4t-19 -8v46q10 5 25 9t31 4q27 0 44 -16.5t17 -50.5q0 -24 -9 -55t-21 -65q-12 -37 -19.5 -73t-7.5 -68q0 -66 56 -66q64 0 112.5 101t77.5 284
q-82 -1 -134 40.5t-52 129.5q0 47 16 88.5t47 67t77 25.5q58 0 86 -42.5t28 -134.5q0 -33 -2 -64.5t-6 -63.5h62l-10 -47h-60q-32 -203 -91.5 -316t-156.5 -113zM336 466q4 34 6 64.5t2 60.5q0 64 -14 99.5t-50 35.5q-27 0 -46.5 -18.5t-29.5 -49t-10 -66.5q0 -70 39.5 -98
t102.5 -28z" />
    <glyph glyph-name="uni03D2" unicode="&#x3d2;" horiz-adv-x="309" 
d="M68 0l58 276l-42 438h54l29 -363q40 88 77.5 166t68.5 139q17 33 33.5 48.5t46.5 15.5q20 0 29 -6l-6 -46q-4 2 -8.5 3t-9.5 1q-17 0 -28.5 -13t-27.5 -44q-38 -76 -79 -162t-83 -179l-59 -274h-53z" />
    <glyph glyph-name="uni03D6" unicode="&#x3d6;" horiz-adv-x="461" 
d="M96 -10q-34 0 -56.5 29.5t-22.5 92.5q0 59 14 124t36.5 129.5t50.5 119.5h-74l5 25l49 21h408l-10 -46h-70q2 -16 3 -34.5t1 -38.5q0 -48 -6.5 -105t-19.5 -113t-34 -102t-49.5 -74t-65.5 -28q-66 0 -66 76q-16 -37 -36.5 -56.5t-56.5 -19.5zM109 38q33 0 50 43t33 124
l25 117h51l-25 -117q-10 -45 -14 -71t-4 -48q0 -48 33 -48q24 0 43 25.5t33.5 67.5t24 92t14.5 99.5t5 90.5q0 18 -0.5 37t-1.5 35h-206q-28 -58 -51 -123t-36 -129.5t-13 -120.5q0 -40 10.5 -57t28.5 -17z" />
    <glyph glyph-name="uni1E3E" unicode="&#x1e3e;" horiz-adv-x="617" 
d="M1 0l151 714h76l28 -633h3l295 633h81l-152 -714h-53l113 529l10 44t11 48h-2l-290 -621h-60l-28 621h-2q-6 -31 -10 -53t-9 -46l-111 -522h-51zM369 790v8q36 39 67 79.5t49 72.5h62l-1 -8q-14 -20 -40.5 -50t-55.5 -58t-50 -44h-31z" />
    <glyph glyph-name="uni1E3F" unicode="&#x1e3f;" horiz-adv-x="579" 
d="M3 0l112 531h43l-12 -71h2q20 39 49 60t65 21q75 0 84 -70h2q20 33 48 51.5t66 18.5q39 0 63.5 -23.5t24.5 -69.5q0 -14 -2.5 -33t-5.5 -35l-81 -380h-51l78 373q4 19 7 36t3 27q0 28 -15 43t-39 15q-31 0 -52 -19t-34 -49t-20 -63l-79 -363h-51l82 386q4 15 5 28.5
t1 23.5q0 56 -50 56q-38 0 -62.5 -28t-40 -74t-27.5 -100l-62 -292h-51zM310 603v8q36 39 67 79.5t49 72.5h62l-1 -8q-14 -20 -40.5 -50t-55.5 -58t-50 -44h-31z" />
    <glyph glyph-name="uni1E00" unicode="&#x1e00;" horiz-adv-x="365" 
d="M-66 0l296 717h68v-717h-54v256h-148l-105 -256h-57zM114 304h132l3 274q0 48 3 79h-3q-5 -16 -11.5 -35t-15.5 -44zM76 -248q-43 0 -68.5 25t-25.5 67q0 41 25.5 67t68.5 26t68 -26t25 -65q0 -40 -25 -67t-68 -27zM75 -214q28 0 43 16t15 42t-15 42.5t-43 16.5
t-42.5 -16.5t-14.5 -42.5t14.5 -42t42.5 -16z" />
    <glyph glyph-name="uni1E01" unicode="&#x1e01;" horiz-adv-x="401" 
d="M128 -10q-50 0 -76 38t-26 110q0 46 8.5 100t25.5 107.5t42.5 98t60 71t77.5 26.5q38 0 59 -23t29 -62h2l21 75h43l-112 -531h-42l12 83h-2q-26 -43 -54.5 -68t-67.5 -25zM142 36q36 0 62 28.5t44.5 73.5t31.5 94q12 48 19 92.5t7 82.5q0 40 -16.5 63.5t-45.5 23.5
q-31 0 -57 -23.5t-46 -62.5t-33.5 -85.5t-20.5 -93.5t-7 -87q0 -56 16.5 -81t45.5 -25zM95 -248q-43 0 -68.5 25t-25.5 67q0 41 25.5 67t68.5 26t68 -26t25 -65q0 -40 -25 -67t-68 -27zM94 -214q28 0 43 16t15 42t-15 42.5t-43 16.5t-42.5 -16.5t-14.5 -42.5t14.5 -42
t42.5 -16z" />
    <glyph glyph-name="uni02F3" unicode="&#x2f3;" horiz-adv-x="304" 
d="M73 -248q-43 0 -68.5 25t-25.5 67q0 41 25.5 67t68.5 26t68 -26t25 -65q0 -40 -25 -67t-68 -27zM72 -214q28 0 43 16t15 42t-15 42.5t-43 16.5t-42.5 -16.5t-14.5 -42.5t14.5 -42t42.5 -16z" />
    <glyph glyph-name="Ohorn" unicode="&#x1a0;" horiz-adv-x="473" 
d="M176 -10q-70 0 -106 49.5t-36 153.5q0 61 11 132.5t33 141.5t55.5 128.5t78.5 93.5t102 35q103 0 128 -108q36 12 58 46.5t32 97.5h44l4 -9q-14 -73 -44 -116t-86 -59q2 -10 2 -21v-23q0 -61 -10.5 -134t-32 -145t-54.5 -131.5t-77.5 -95.5t-101.5 -36zM180 39
q44 0 79.5 34.5t61.5 91t43 123t25.5 130.5t8.5 114q0 75 -21.5 109.5t-67.5 34.5q-44 0 -79.5 -34t-62 -89.5t-44 -120t-26 -127.5t-8.5 -111q0 -82 23.5 -118.5t67.5 -36.5z" />
    <glyph glyph-name="ohorn" unicode="&#x1a1;" horiz-adv-x="391" 
d="M140 -10q-54 0 -85 38t-31 116q0 44 8 97t24.5 105.5t42 97t61 71t81.5 26.5q76 0 101 -77q64 25 84 144h44l4 -8q-14 -73 -42.5 -115.5t-80.5 -57.5q3 -23 3 -42q0 -49 -8.5 -103t-26 -106t-43 -94t-59.5 -67t-77 -25zM144 36q32 0 57 24t43.5 63.5t31.5 86.5t19 93.5
t6 84.5q0 106 -66 106q-32 0 -57.5 -25.5t-44.5 -66.5t-31.5 -88.5t-19 -93t-6.5 -78.5q0 -106 68 -106z" />
    <glyph glyph-name="Uhorn" unicode="&#x1af;" horiz-adv-x="468" 
d="M165 -10q-61 0 -97 36t-36 103q0 18 3 40.5t7 46.5l106 498h54l-107 -500q-5 -22 -7 -43t-2 -37q0 -48 22.5 -71.5t61.5 -23.5q62 0 91.5 47.5t50.5 141.5l106 486h52l-22 -104q39 9 61.5 45t35.5 105h45l3 -9q-15 -82 -52 -127t-102 -54l-75 -346q-15 -72 -38.5 -124.5
t-62 -81t-98.5 -28.5z" />
    <glyph glyph-name="uhorn" unicode="&#x1b0;" horiz-adv-x="408" 
d="M112 -10q-40 0 -64 23.5t-24 68.5q0 22 5 51.5t11 56.5l73 341h51l-73 -341q-5 -26 -9.5 -51t-4.5 -46q0 -55 51 -55q50 0 82.5 52.5t53.5 153.5l61 287h51l-15 -71q38 9 60.5 45t34.5 103h44l4 -8q-14 -80 -50 -126t-101 -54l-89 -420h-41l9 73h-2q-20 -40 -50 -61.5
t-68 -21.5z" />
    <glyph glyph-name="hook" 
d="M-272 590l16 86q38 2 59.5 16t21.5 46q0 20 -12.5 31t-34.5 11q-26 0 -44 -6v37q12 4 25 6t30 2q37 0 59.5 -20.5t22.5 -54.5q0 -42 -25.5 -66t-69.5 -28l-14 -60h-34z" />
    <glyph glyph-name="uni0400" unicode="&#x400;" horiz-adv-x="352" 
d="M1 0l151 714h242l-10 -48h-188l-57 -268h177l-12 -48h-176l-64 -302h189l-10 -48h-242zM287 792q-13 18 -29.5 44.5t-31 54.5t-22.5 51v8h57q13 -38 26 -75t31 -74v-9h-31z" />
    <glyph glyph-name="uni040D" unicode="&#x40d;" horiz-adv-x="484" 
d="M1 0l151 714h53l-86 -403q-11 -55 -22 -103.5t-24 -99.5h3l370 606h61l-151 -714h-52l80 383q14 65 26 121.5t25 100.5h-3l-367 -605h-64zM353 792q-13 18 -29.5 44.5t-31 54.5t-22.5 51v8h57q13 -38 26 -75t31 -74v-9h-31z" />
    <glyph glyph-name="uni0450" unicode="&#x450;" horiz-adv-x="354" 
d="M152 -10q-60 0 -93 40t-33 118q0 80 17 151t47 125.5t69.5 85.5t84.5 31q42 0 67.5 -24t25.5 -76q0 -53 -27 -97.5t-81.5 -71t-136.5 -26.5h-6q-9 -42 -9 -91q0 -62 21.5 -91t65.5 -29q26 0 47.5 7.5t45.5 20.5v-47q-21 -12 -47 -19t-58 -7zM93 288h4q69 0 110.5 21
t60.5 55.5t19 73.5q0 27 -11.5 42.5t-37.5 15.5q-31 0 -59.5 -27.5t-50.5 -74.5t-35 -106zM247 606q-13 18 -29.5 44.5t-31 54.5t-22.5 51v8h57q13 -38 26 -75t31 -74v-9h-31z" />
    <glyph glyph-name="uni045D" unicode="&#x45d;" horiz-adv-x="386" 
d="M114 -10q-42 0 -65 23.5t-23 68.5q0 21 5 51t10 56l73 342h52l-73 -341q-6 -26 -10.5 -51t-4.5 -47q0 -55 51 -55q50 0 82.5 53t53.5 154l61 287h52l-112 -531h-42l10 73h-2q-20 -40 -51 -61.5t-67 -21.5zM263 606q-13 18 -29.5 44.5t-31 54.5t-22.5 51v8h57
q13 -38 26 -75t31 -74v-9h-31z" />
    <glyph glyph-name="uni0460" unicode="&#x460;" horiz-adv-x="630" 
d="M108 0q-40 205 -38 377.5t43 336.5h51q-39 -153 -42.5 -315.5t22.5 -314.5h3q11 33 25 68.5t32 75.5l118 276q5 56 13 109t18 101h49q-30 -152 -36.5 -312.5t9.5 -317.5h3q94 153 155 311.5t92 318.5h55q-34 -178 -104 -353.5t-190 -360.5h-50q-14 102 -17 198.5
t-1 179.5l-158 -378h-52z" />
    <glyph glyph-name="uni0461" unicode="&#x461;" horiz-adv-x="540" 
d="M76 0q-28 144 -28.5 277t24.5 254h52q-50 -229 -11 -463h2q11 22 22 41t23 40l99 173q2 52 8 106t16 103h51q-22 -116 -26.5 -232t10.5 -232h2q75 103 120.5 215.5t75.5 248.5h52q-33 -155 -90 -285t-154 -246h-45q-10 60 -14.5 121t-4.5 120l-138 -241h-46z" />
    <glyph glyph-name="uni0462" unicode="&#x462;" horiz-adv-x="415" 
d="M29 0l118 563h-91l9 44h91l34 156h52l-32 -156h114l-10 -44h-114l-34 -163h44q80 0 118 -39.5t38 -110.5q0 -43 -11.5 -87t-37 -81t-67 -59.5t-102.5 -22.5h-119zM91 48h60q47 0 77.5 18t49 47t26 64t7.5 70q0 55 -28.5 80t-84.5 25h-42z" />
    <glyph glyph-name="uni0463" unicode="&#x463;" horiz-adv-x="354" 
d="M144 -10q-56 0 -82 28.5t-26 78.5q0 19 3 40t7 38l68 314h-66l10 42h64l25 114h51l-24 -114h78l-10 -42h-77l-43 -199q10 2 26 4t34 2q61 0 91 -32.5t30 -91.5q0 -44 -18 -86t-53.5 -69t-87.5 -27zM148 33q37 0 59.5 22.5t32.5 54t10 59.5q0 83 -76 83q-32 0 -61 -6
q-15 -60 -20.5 -92.5t-5.5 -53.5q0 -32 15 -49.5t46 -17.5z" />
    <glyph glyph-name="uni0464" unicode="&#x464;" horiz-adv-x="556" 
d="M362 -10q-75 0 -113.5 56t-38.5 178q0 58 12 126h-94l-74 -350h-53l151 714h54l-68 -315h94q15 60 40 118t60.5 105t80.5 75t101 28q33 0 56.5 -8t42.5 -23l-29 -43q-28 25 -73 25q-43 0 -78.5 -24t-63.5 -63.5t-48.5 -89t-33.5 -100.5h199l-10 -49h-200q-6 -33 -9 -65
t-3 -59q0 -99 26 -143.5t82 -44.5q19 0 40.5 5.5t43.5 15.5l2 -49q-46 -20 -96 -20z" />
    <glyph glyph-name="uni0465" unicode="&#x465;" horiz-adv-x="458" 
d="M306 -10q-57 0 -87.5 38t-30.5 120q0 26 3 53t7 55h-88l-55 -256h-51l112 531h52l-49 -231h87q14 63 41.5 118t68 89t93.5 34q22 0 41 -4t34 -13l-20 -44q-26 15 -56 15q-37 0 -66.5 -27.5t-50.5 -72.5t-33 -95h128l-10 -44h-127q-4 -26 -6.5 -52t-2.5 -52q0 -63 19 -90
t56 -27q19 0 38.5 6t36.5 15v-45q-16 -10 -39 -15.5t-45 -5.5z" />
    <glyph glyph-name="uni0466" unicode="&#x466;" horiz-adv-x="404" 
d="M-67 0l319 716h64l21 -716h-54l-8 350h-40l-73 -350h-52l74 350h-42l-153 -350h-56zM162 396h110l-2 198v33.5t2 29.5q-6 -18 -11 -29t-15 -36z" />
    <glyph glyph-name="uni0467" unicode="&#x467;" horiz-adv-x="350" 
d="M-54 0l256 531h54l30 -531h-50l-13 252h-29l-54 -252h-48l55 252h-31l-119 -252h-51zM139 298h81q-2 62 -3 97.5t-0.5 53.5t1.5 27q-8 -18 -16.5 -39t-23 -53.5t-39.5 -85.5z" />
    <glyph glyph-name="uni0468" unicode="&#x468;" horiz-adv-x="582" 
d="M1 0l151 714h54l-66 -312h150l140 314h64l22 -716h-56l-8 350h-39l-73 -350h-52l74 350h-42l-154 -350h-55l157 354h-139l-75 -354h-53zM340 396h110l-2 198v33.5t2 29.5q-5 -14 -10.5 -27.5t-12.5 -31.5z" />
    <glyph glyph-name="uni0469" unicode="&#x469;" horiz-adv-x="496" 
d="M4 0l112 531h52l-48 -225h127l108 225h55l30 -531h-52l-12 252h-28l-54 -252h-48l54 252h-30l-120 -252h-50l124 260h-114l-55 -260h-51zM292 298h82l-5 172z" />
    <glyph glyph-name="uni046A" unicode="&#x46a;" horiz-adv-x="453" 
d="M-60 0l103 252q21 50 40 83.5t46 50.5t71 20l-71 269l9 39h350l-8 -38l-186 -270q54 -8 74 -45t18 -110l-2 -251h-54l4 250q1 60 -13 85t-54 25h-5l-76 -360h-50l76 360h-6q-31 0 -49.5 -12.5t-32.5 -37t-29 -62.5l-99 -248h-56zM248 414l169 253h-232z" />
    <glyph glyph-name="uni046B" unicode="&#x46b;" horiz-adv-x="428" 
d="M-51 0l93 204q24 52 52 76t80 28l-72 189l8 34h312l-7 -35l-148 -188q47 -7 64 -38.5t21 -91.5l10 -178h-50l-10 178q-3 57 -17 73.5t-49 16.5l-56 -268h-48l55 267q-38 0 -57.5 -13.5t-35.5 -51.5l-94 -202h-51zM222 314l130 174h-194z" />
    <glyph glyph-name="uni046C" unicode="&#x46c;" horiz-adv-x="640" 
d="M1 0l151 714h54l-66 -306h241l-70 267l9 39h350l-9 -38l-186 -272q55 -8 74 -44t19 -111l-2 -249h-55l4 244q1 66 -13.5 90t-53.5 24h-4l-76 -358h-51l76 358h-5q-31 0 -49.5 -11t-34 -39t-36.5 -80l-91 -228h-54l102 252q19 48 33 69.5t32 36.5h-160l-76 -358h-53z
M428 412l170 255h-232z" />
    <glyph glyph-name="uni046D" unicode="&#x46d;" horiz-adv-x="592" 
d="M4 0l112 531h52l-46 -220h216l-70 186l8 34h312l-8 -35l-148 -191q45 -6 63.5 -35.5t22.5 -93.5l10 -176h-52l-8 178q-3 56 -17.5 71.5t-49.5 15.5l-56 -265h-48l55 264q-27 0 -43.5 -5.5t-28 -20t-24.5 -42.5l-90 -196h-51l89 194q13 28 23.5 44t22.5 27h-138l-57 -265
h-51zM386 312l130 176h-193z" />
    <glyph glyph-name="uni046E" unicode="&#x46e;" horiz-adv-x="362" 
d="M184 -186q-18 9 -45 9q-22 0 -47.5 -4.5t-44.5 -4.5q-50 0 -76.5 26t-26.5 70q0 62 39 91t118 46q80 17 114.5 59t34.5 120q0 64 -30.5 92t-83.5 28h-50l10 49h52q56 0 94 26.5t57 69t19 89.5q0 44 -22 70t-68 26q-38 0 -63.5 -14t-46.5 -30l-24 41q21 17 48 30t62 17
q-9 33 -20.5 63.5t-23.5 54.5l1 7h34q10 -17 23.5 -45t23.5 -62q27 52 50.5 79t51.5 27q8 0 14 -1t10 -3v-40q-8 4 -19 4q-20 0 -37.5 -22t-38.5 -64q49 -9 74 -44.5t25 -87.5q0 -53 -19 -98.5t-53 -76t-80 -39.5l-1 -2q37 -12 62 -46.5t23 -96.5q-2 -98 -47 -152t-139 -74
q-59 -13 -89 -29.5t-30 -57.5q0 -52 56 -52q20 0 43 4t45 4q14 0 23.5 -2t17.5 -4v-50z" />
    <glyph glyph-name="uni046F" unicode="&#x46f;" horiz-adv-x="288" 
d="M154 -162q-12 6 -41 6q-14 0 -33.5 -2.5t-38.5 -2.5q-44 0 -69.5 23t-25.5 66q0 51 30 76t79 37q67 16 94 44.5t27 88.5q0 44 -21 65t-56 21h-33l9 43h33q32 0 56 18t37 46t13 59q0 69 -62 69q-20 0 -36.5 -5.5t-31.5 -14.5l-14 41q14 8 30 14.5t35 8.5q-5 25 -14 55.5
t-21 57.5v8h34q12 -21 23 -51.5t17 -62.5q29 57 56 85t56 28q15 0 22 -5v-38q-3 2 -7.5 3t-10.5 1q-17 0 -36.5 -20t-43.5 -66q56 -24 56 -100q0 -54 -28 -96t-72 -54l-1 -3q28 -9 45.5 -35.5t17.5 -71.5q0 -57 -19.5 -91.5t-55 -54t-83.5 -30.5q-34 -8 -53.5 -22.5
t-19.5 -43.5q0 -46 50 -46q18 0 35 2.5t32 2.5q27 0 40 -5v-48z" />
    <glyph glyph-name="uni0470" unicode="&#x470;" horiz-adv-x="520" 
d="M163 0l47 220h-2q-36 1 -66.5 15t-49 45.5t-18.5 82.5q0 27 4 58.5t12 68.5l47 224h53l-48 -225q-16 -74 -16 -121q0 -40 14 -61t35 -29.5t43 -8.5h2l94 445h53l-95 -445h2q54 0 85 24.5t48 67.5t29 99l54 254h52l-54 -264q-14 -66 -38 -118t-67.5 -82t-118.5 -30h-2
l-46 -220h-53z" />
    <glyph glyph-name="uni0471" unicode="&#x471;" horiz-adv-x="449" 
d="M90 -240l50 230q-53 5 -84 40.5t-31 99.5q0 27 4.5 57.5t12.5 66.5l60 277h51l-61 -282q-7 -32 -12 -61t-5 -56q0 -46 20 -69t55 -27l154 727h50l-154 -726q43 1 74 33t51.5 86t32.5 119t18 131.5t7 124.5h51q-2 -68 -9 -142.5t-22 -145.5t-42 -128t-69 -91t-102 -35
l-48 -229h-52z" />
    <glyph glyph-name="uni0472" unicode="&#x472;" horiz-adv-x="470" 
d="M174 -10q-70 0 -106 49.5t-36 153.5q0 61 11 132.5t33 141.5t55.5 128.5t78.5 93.5t102 35q69 0 104.5 -46.5t35.5 -145.5q0 -60 -10.5 -132.5t-31.5 -144.5t-54 -132t-78.5 -96.5t-103.5 -36.5zM111 388h275q6 40 9 77t3 67q0 75 -21.5 109.5t-67.5 34.5
q-39 0 -70.5 -25t-56 -67t-42 -93t-29.5 -103zM178 39q39 0 71 26.5t56.5 70t42 97t28.5 107.5h-275q-15 -84 -15 -146q0 -82 23.5 -118.5t68.5 -36.5z" />
    </font>
</defs>
</svg>
