<?xml version="1.0" standalone="no"?>
<!DOCTYPE svg PUBLIC "-//W3C//DTD SVG 1.1//EN" "http://www.w3.org/Graphics/SVG/1.1/DTD/svg11.dtd" >
<svg>
<metadata>
Created by FontForge 20120731 at Thu Nov  8 00:23:50 2018
 By Salim,,,
Copyright 2015 Google Inc. All Rights Reserved.
</metadata>
<defs>
<font id="NotoSans-ExtraCondensedExtraBoldItalic" horiz-adv-x="0" >
  <font-face 
    font-family="Noto Sans ExtCond ExtBd"
    font-weight="800"
    font-style="italic"
    font-stretch="extra-condensed"
    units-per-em="1000"
    panose-1="2 11 9 6 4 5 4 9 2 4"
    ascent="800"
    descent="-200"
    x-height="549"
    cap-height="714"
    bbox="-599 -389 2585 1098"
    underline-thickness="50"
    underline-position="-75"
    slope="-12"
    unicode-range="U+000D-FFFD"
  />
<missing-glyph horiz-adv-x="574" 
d="M104 0v714h403v-714h-403zM154 50h303v614h-303v-614z" />
    <glyph glyph-name="f_f" unicode="ff" horiz-adv-x="561" 
d="M-45 -240q-17 0 -33.5 1.5t-35.5 8.5v121q9 -5 24 -7t25 -2q33 0 43.5 23t17.5 57l100 471h-55l15 73l63 39l10 41q6 30 16.5 61.5t28.5 58t47.5 43t73.5 16.5q27 0 54 -5.5t54 -19.5l-47 -105q-23 13 -42 13q-21 0 -31 -17t-15 -42l-10 -40h135l8 37q6 30 16.5 61.5
t29 58t48 43t73.5 16.5q26 0 53.5 -5.5t53.5 -19.5l-47 -105q-23 13 -42 13q-20 0 -30.5 -17t-15.5 -42l-9 -40h79l-24 -116h-79l-103 -483q-12 -59 -32 -101.5t-54 -65.5t-91 -23q-17 0 -33.5 1.5t-34.5 8.5v121q9 -5 23.5 -7t24.5 -2q33 0 44 23t18 57l99 471h-133
l-104 -483q-12 -59 -31.5 -101.5t-54 -65.5t-90.5 -23z" />
    <glyph glyph-name="f_f_i" unicode="ffi" horiz-adv-x="792" 
d="M750 612q-65 0 -65 55q0 23 9.5 46t29.5 38t51 15t48 -13.5t17 -41.5q0 -41 -25 -70t-65 -29zM-45 -240q-17 0 -33.5 1.5t-35.5 8.5v121q9 -5 24 -7t25 -2q33 0 43.5 23t17.5 57l100 471h-55l15 73l63 39l10 41q6 30 16.5 61.5t28.5 58t47.5 43t73.5 16.5q27 0 54 -5.5
t54 -19.5l-47 -105q-23 13 -42 13q-21 0 -31 -17t-15 -42l-10 -40h135l8 37q6 30 16.5 61.5t29 58t48 43t73.5 16.5q26 0 53.5 -5.5t53.5 -19.5l-47 -105q-23 13 -42 13q-20 0 -30.5 -17t-15.5 -42l-9 -40h79l-24 -116h-79l-103 -483q-12 -59 -32 -101.5t-54 -65.5t-91 -23
q-17 0 -33.5 1.5t-34.5 8.5v121q9 -5 23.5 -7t24.5 -2q33 0 44 23t18 57l99 471h-133l-104 -483q-12 -59 -31.5 -101.5t-54 -65.5t-90.5 -23zM547 0l117 549h137l-115 -549h-139z" />
    <glyph glyph-name="f_f_l" unicode="ffl" horiz-adv-x="791" 
d="M-45 -240q-17 0 -33.5 1.5t-35.5 8.5v121q9 -5 24 -7t25 -2q33 0 43.5 23t17.5 57l100 471h-55l15 73l63 39l10 41q6 30 16.5 61.5t28.5 58t47.5 43t73.5 16.5q27 0 54 -5.5t54 -19.5l-47 -105q-23 13 -42 13q-21 0 -31 -17t-15 -42l-10 -40h135l8 37q6 30 16.5 61.5
t29 58t48 43t73.5 16.5q26 0 53.5 -5.5t53.5 -19.5l-47 -105q-23 13 -42 13q-20 0 -30.5 -17t-15.5 -42l-9 -40h79l-24 -116h-79l-103 -483q-12 -59 -32 -101.5t-54 -65.5t-91 -23q-17 0 -33.5 1.5t-34.5 8.5v121q9 -5 23.5 -7t24.5 -2q33 0 44 23t18 57l99 471h-133
l-104 -483q-12 -59 -31.5 -101.5t-54 -65.5t-90.5 -23zM547 0l162 760h138l-161 -760h-139z" />
    <glyph glyph-name="f_i" unicode="fi" horiz-adv-x="520" 
d="M-45 -240q-17 0 -33.5 1.5t-35.5 8.5v121q9 -5 24 -7t25 -2q33 0 43.5 23t17.5 57l100 471h-55l15 73l63 39l10 41q6 30 16.5 61.5t28.5 58t47.5 43t73.5 16.5q27 0 54 -5.5t54 -19.5l-47 -105q-23 13 -42 13q-21 0 -31 -17t-15 -42l-10 -40h79l-23 -116h-79l-104 -483
q-12 -59 -31.5 -101.5t-54 -65.5t-90.5 -23zM478 612q-65 0 -65 55q0 23 9.5 46t29.5 38t51 15t48 -13.5t17 -41.5q0 -41 -25 -70t-65 -29zM275 0l117 549h138l-116 -549h-139z" />
    <glyph glyph-name="f_l" unicode="fl" horiz-adv-x="518" 
d="M-45 -240q-17 0 -33.5 1.5t-35.5 8.5v121q9 -5 24 -7t25 -2q33 0 43.5 23t17.5 57l100 471h-55l15 73l63 39l10 41q6 30 16.5 61.5t28.5 58t47.5 43t73.5 16.5q27 0 54 -5.5t54 -19.5l-47 -105q-23 13 -42 13q-21 0 -31 -17t-15 -42l-10 -40h79l-23 -116h-79l-104 -483
q-12 -59 -31.5 -101.5t-54 -65.5t-90.5 -23zM274 0l162 760h139l-162 -760h-139z" />
    <glyph glyph-name=".notdef" horiz-adv-x="574" 
d="M104 0v714h403v-714h-403zM154 50h303v614h-303v-614z" />
    <glyph glyph-name="NULL" 
 />
    <glyph glyph-name="NULL" 
 />
    <glyph glyph-name="CR" unicode="&#xd;" horiz-adv-x="171" 
 />
    <glyph glyph-name="space" unicode=" " horiz-adv-x="171" 
 />
    <glyph glyph-name="exclam" unicode="!" horiz-adv-x="253" 
d="M57 238l82 476h158l-121 -476h-119zM67 -11q-69 0 -69 62q0 42 26 75t76 33q29 0 46 -16t17 -45q0 -49 -29 -79t-67 -30z" />
    <glyph glyph-name="quotedbl" unicode="&#x22;" horiz-adv-x="420" 
d="M288 456l38 258h148l-72 -258h-114zM94 456l38 258h147l-71 -258h-114z" />
    <glyph glyph-name="numbersign" unicode="#" horiz-adv-x="501" 
d="M17 0l62 198h-76l18 101h89l39 120h-81l18 102h94l60 193h104l-62 -193h69l61 193h104l-62 -193h77l-18 -102h-90l-38 -120h82l-18 -101h-95l-63 -198h-102l62 198h-70l-62 -198h-102zM213 299h69l38 120h-69z" />
    <glyph glyph-name="dollar" unicode="$" horiz-adv-x="452" 
d="M131 -59l21 97q-51 2 -84 14.5t-58 29.5l28 141q28 -25 64.5 -44t74.5 -23l32 156q-27 16 -54 37.5t-45 53t-18 75.5q0 72 28.5 117t74 67t94.5 26l15 71h48l-15 -71q49 -4 79.5 -16t54.5 -29l-61 -119q-24 20 -48 31.5t-50 14.5l-31 -146q27 -18 54 -39t44.5 -52
t17.5 -78q0 -69 -28 -115.5t-72.5 -71.5t-96.5 -30l-21 -96zM240 453l24 116q-27 -5 -39.5 -23t-12.5 -44q0 -25 28 -49zM226 161q51 13 51 67q0 30 -26 55z" />
    <glyph glyph-name="percent" unicode="%" horiz-adv-x="744" 
d="M164 276q-111 0 -111 139q0 33 7 74t21.5 82t37.5 76t54 56t71 21q50 0 80.5 -34t30.5 -107q0 -31 -7 -71t-21 -81t-36.5 -76.5t-54 -57t-72.5 -21.5zM134 0l394 714h109l-394 -714h-109zM177 373q16 0 29.5 24t23.5 60t15.5 71.5t5.5 57.5q0 40 -20 40q-16 0 -29.5 -24
t-24 -59.5t-16 -71t-5.5 -57.5q0 -41 21 -41zM530 -9q-110 0 -110 140q0 52 13 106t37 100t59.5 74t80.5 28q50 0 80 -33.5t30 -107.5q0 -32 -7 -72.5t-21 -81.5t-36.5 -75.5t-54 -56t-71.5 -21.5zM543 89q16 0 29.5 23.5t23.5 58.5t15.5 70.5t5.5 59.5q0 40 -21 40
q-14 0 -26 -17.5t-20.5 -44.5t-14.5 -56.5t-9 -55t-3 -38.5q0 -40 20 -40z" />
    <glyph glyph-name="ampersand" unicode="&#x26;" horiz-adv-x="554" 
d="M153 -10q-71 0 -112 41t-41 114q0 77 42.5 140.5t113.5 107.5q-12 27 -19 57t-7 68q0 56 24 103t68 74.5t102 27.5q36 0 68 -13t52 -40.5t20 -71.5q0 -64 -38 -119.5t-101 -102.5l42 -100q11 21 22 48t22 61h143q-21 -61 -55 -126.5t-69 -113.5l69 -145h-172l-17 45
q-40 -27 -74.5 -41t-82.5 -14zM277 467q23 21 39.5 51.5t16.5 60.5q0 15 -5.5 28t-21.5 13q-15 0 -24.5 -13t-13.5 -32t-4 -35q0 -41 13 -73zM190 114q20 0 37 10t34 27l-60 148q-55 -50 -55 -130q0 -55 44 -55z" />
    <glyph glyph-name="quotesingle" unicode="'" horiz-adv-x="226" 
d="M95 456l38 258h147l-71 -258h-114z" />
    <glyph glyph-name="parenleft" unicode="(" horiz-adv-x="276" 
d="M50 -158q-13 28 -21 68t-12 84t-4 83q0 81 16 171.5t46 179.5t71.5 167.5t92.5 134.5h117q-44 -60 -83 -137t-69 -163t-47 -175t-17 -173q0 -66 5.5 -125.5t21.5 -114.5h-117z" />
    <glyph glyph-name="parenright" unicode=")" horiz-adv-x="276" 
d="M-79 -158q44 60 83 137t68.5 163t46.5 175t17 173q0 62 -5 126t-22 114h119q21 -52 28 -112t7 -124q0 -86 -16.5 -177.5t-47 -179.5t-71.5 -164.5t-90 -130.5h-117z" />
    <glyph glyph-name="asterisk" unicode="*" horiz-adv-x="421" 
d="M306 335l-46 130l-77 -116l-91 92l106 96l-123 34l43 119l111 -64l2 142l128 -15l-33 -138l124 36l12 -127l-127 -3l81 -119z" />
    <glyph glyph-name="plus" unicode="+" horiz-adv-x="485" 
d="M313 412h149v-118h-149v-181h-120v181h-150v118h150v183h120v-183z" />
    <glyph glyph-name="comma" unicode="," horiz-adv-x="245" 
d="M-55 -137q15 41 32 89t33 96t27 89h136l3 -10q-26 -76 -56 -142.5t-61 -121.5h-114z" />
    <glyph glyph-name="hyphen" unicode="-" horiz-adv-x="295" 
d="M11 202l27 132h244l-29 -132h-242z" />
    <glyph glyph-name="period" unicode="." horiz-adv-x="244" 
d="M69 -11q-69 0 -69 62q0 42 26 75t75 33q30 0 47 -16t17 -45q0 -49 -29.5 -79t-66.5 -30z" />
    <glyph glyph-name="slash" unicode="/" horiz-adv-x="381" 
d="M-55 -8l395 730h129l-396 -730h-128z" />
    <glyph glyph-name="zero" unicode="0" horiz-adv-x="452" 
d="M175 -10q-74 0 -110 47t-36 147q0 40 6.5 94.5t20 115.5t35.5 119.5t53 106t71.5 76t91.5 28.5q75 0 110.5 -47t35.5 -151q0 -58 -10.5 -129t-32.5 -142.5t-55 -131.5t-78 -96.5t-102 -36.5zM191 118q17 0 32.5 23.5t30 62t26.5 85t20.5 93.5t13.5 87.5t5 66.5
q0 31 -5.5 45.5t-21.5 14.5t-32 -24.5t-30.5 -64.5t-26.5 -87.5t-21 -95t-14 -86t-5 -59.5q0 -61 28 -61z" />
    <glyph glyph-name="one" unicode="1" horiz-adv-x="452" 
d="M150 0l86 409q8 33 13 55.5t14 54.5q-8 -10 -17 -20t-19 -18l-69 -65l-66 89l224 209h128l-152 -714h-142z" />
    <glyph glyph-name="two" unicode="2" horiz-adv-x="452" 
d="M-29 0l21 101l175 202q34 39 65 80t50.5 82t19.5 81q0 51 -39 51q-19 0 -39.5 -12t-40.5 -29.5t-37 -34.5l-47 101q46 52 94.5 77t104.5 25q67 0 109.5 -41t42.5 -108q0 -85 -46.5 -161t-115.5 -149l-125 -135v-3h204l-27 -127h-369z" />
    <glyph glyph-name="three" unicode="3" horiz-adv-x="452" 
d="M134 -10q-44 0 -74.5 8t-66.5 27v136q32 -25 72.5 -35.5t69.5 -10.5q52 0 81.5 30.5t29.5 83.5q0 37 -22 57t-72 20h-38l26 121h37q60 0 96.5 31t36.5 89q0 52 -50 52q-23 0 -53.5 -11t-63.5 -35l-29 110q46 34 89 47.5t92 13.5q43 0 80.5 -14t60 -45t22.5 -81
q0 -74 -43.5 -129t-114.5 -80v-3q96 -26 96 -136q0 -70 -33 -125.5t-92 -88t-137 -32.5z" />
    <glyph glyph-name="four" unicode="4" horiz-adv-x="452" 
d="M171 0l30 143h-212l25 114l311 459h137l-96 -454h65l-26 -119h-64l-30 -143h-140zM124 262h102l40 187q3 13 8.5 32t9.5 34h-3q-13 -26 -19.5 -37.5t-11.5 -19.5z" />
    <glyph glyph-name="five" unicode="5" horiz-adv-x="452" 
d="M146 -10q-44 0 -77.5 7.5t-57.5 20.5v145q26 -22 61.5 -35t73.5 -13q36 0 60.5 21t37.5 54.5t13 68.5q0 79 -70 79q-18 0 -36.5 -5t-37.5 -13l-40 36l94 358h299l-27 -128h-176l-36 -132q15 4 28 5t23 1q58 0 93.5 -45t35.5 -128q0 -50 -13.5 -102t-43.5 -96.5t-80 -71.5
t-124 -27z" />
    <glyph glyph-name="six" unicode="6" horiz-adv-x="452" 
d="M194 -10q-88 0 -126 56.5t-38 151.5q0 70 17 149t50 152t81 126q38 43 88 71t112 28q64 0 105 -10l-26 -124q-41 12 -78 12q-64 0 -108.5 -51t-70.5 -146h2q21 30 49.5 47.5t62.5 17.5q60 0 85.5 -47t25.5 -118q0 -49 -13 -103.5t-41 -102.5t-72 -78.5t-105 -30.5z
M201 115q22 0 37 20t24.5 49.5t13.5 59t4 49.5q0 55 -31 55q-15 0 -27 -10t-20 -25q-10 -14 -17.5 -36.5t-11 -47.5t-3.5 -45q0 -69 31 -69z" />
    <glyph glyph-name="seven" unicode="7" horiz-adv-x="452" 
d="M28 0l305 585h-233l27 128h377l-21 -97l-307 -616h-148z" />
    <glyph glyph-name="eight" unicode="8" horiz-adv-x="452" 
d="M186 -10q-86 0 -133.5 42t-47.5 118q0 72 38.5 126t111.5 98q-29 31 -42 67.5t-13 73.5q0 59 25 106.5t71.5 75t112.5 27.5q71 0 113.5 -36.5t42.5 -106.5q0 -65 -36 -117t-100 -89q41 -37 57.5 -76.5t16.5 -85.5q0 -58 -27.5 -109t-76.5 -82.5t-113 -31.5zM260 447
q35 23 51.5 52t16.5 61q0 26 -10.5 37.5t-27.5 11.5q-26 0 -41.5 -24.5t-15.5 -62.5q0 -21 8 -40.5t19 -34.5zM190 105q38 0 57.5 31t20.5 69q0 51 -42 98q-34 -23 -58.5 -59t-24.5 -83q0 -25 12.5 -40.5t34.5 -15.5z" />
    <glyph glyph-name="nine" unicode="9" horiz-adv-x="452" 
d="M112 -10q-33 0 -57 3.5t-46 8.5v124q19 -7 45 -10.5t51 -3.5q65 0 108.5 51t70.5 146h-2q-22 -29 -50.5 -47t-61.5 -18q-61 0 -86 45t-25 111q0 48 13 104t41.5 106t73.5 82t108 32q78 0 118.5 -54t40.5 -153q0 -55 -14 -132t-44 -151q-24 -63 -62.5 -119t-93 -90.5
t-128.5 -34.5zM235 366q16 0 28 11t21 27q15 25 22.5 60t7.5 66q0 69 -31 69q-20 0 -35 -19.5t-24.5 -48.5t-14.5 -58.5t-5 -49.5q0 -57 31 -57z" />
    <glyph glyph-name="colon" unicode=":" horiz-adv-x="250" 
d="M154 386q-69 0 -69 61q0 41 25.5 75t75.5 34q29 0 46 -16.5t17 -44.5q0 -49 -28.5 -79t-66.5 -30zM68 -11q-68 0 -68 62q0 42 26 75t75 33q30 0 47 -16t17 -45q0 -49 -29.5 -79t-67.5 -30z" />
    <glyph glyph-name="semicolon" unicode=";" horiz-adv-x="250" 
d="M155 386q-69 0 -69 61q0 41 26 75t75 34q30 0 46.5 -16.5t16.5 -44.5q0 -49 -28.5 -79t-66.5 -30zM-56 -137q26 66 49 134.5t43 139.5h136l3 -10q-27 -75 -56.5 -142t-61.5 -122h-113z" />
    <glyph glyph-name="less" unicode="&#x3c;" horiz-adv-x="485" 
d="M462 116l-423 206v76l423 205v-131l-253 -112l253 -114v-130z" />
    <glyph glyph-name="equal" unicode="=" horiz-adv-x="485" 
d="M43 404v117h419v-117h-419zM43 183v118h419v-118h-419z" />
    <glyph glyph-name="greater" unicode="&#x3e;" horiz-adv-x="485" 
d="M43 246l253 114l-253 112v131l423 -205v-76l-423 -206v130z" />
    <glyph glyph-name="question" unicode="?" horiz-adv-x="353" 
d="M83 238q9 47 19.5 77.5t26 53.5t40.5 47q31 32 51.5 52.5t30.5 40t10 45.5q0 45 -45 45q-30 0 -59.5 -14.5t-55.5 -33.5l-18 108q43 33 86 49t85 16q71 0 108 -35.5t37 -97.5q0 -47 -17 -87t-45 -73t-60 -63q-26 -24 -39.5 -41t-21 -36.5t-14.5 -52.5h-119zM96 -11
q-70 0 -70 62q0 42 26 75t76 33q29 0 46 -16t17 -45q0 -49 -28.5 -79t-66.5 -30z" />
    <glyph glyph-name="at" unicode="@" horiz-adv-x="675" 
d="M280 -78q-125 0 -191 67.5t-66 183.5q0 106 30 204t85.5 176t132 123.5t170.5 45.5q69 0 121.5 -30.5t82 -86t29.5 -131.5q0 -58 -14 -121t-40.5 -117t-64 -88t-83.5 -34q-45 0 -62.5 17t-25.5 48h-2q-22 -31 -46.5 -48t-47.5 -17q-53 0 -78 30t-25 89q0 34 8.5 75
t25.5 81.5t42.5 74.5t60 54.5t78.5 20.5q41 0 73.5 -7.5t56.5 -20.5l-61 -255q-6 -20 -6 -32q0 -27 15 -27q21 0 37.5 20t29 52t20 68.5t11.5 70.5t4 57q0 86 -39 129.5t-108 43.5q-72 0 -130.5 -39.5t-100 -105.5t-63.5 -147t-22 -164q0 -78 38.5 -126t122.5 -48
q45 0 89.5 10t94.5 32v-83q-43 -21 -92 -33t-90 -12zM312 198q41 0 71 121l34 132q-11 4 -27 4q-24 0 -43 -22t-32.5 -55.5t-20.5 -69.5t-7 -65q0 -45 25 -45z" />
    <glyph glyph-name="A" unicode="A" horiz-adv-x="499" 
d="M-60 0l306 717h184l8 -717h-153l4 162h-128l-63 -162h-158zM209 288h87l7 203q1 24 2 46.5t3 48.5h-3q-4 -24 -10.5 -46t-14.5 -47z" />
    <glyph glyph-name="B" unicode="B" horiz-adv-x="494" 
d="M-4 0l151 714h178q47 0 88.5 -14.5t67 -47.5t25.5 -88q0 -64 -31.5 -116t-98.5 -73v-4q34 -13 53.5 -48t19.5 -82q0 -63 -27.5 -118t-82 -89t-134.5 -34h-209zM231 428h35q27 0 46.5 16.5t30 42t10.5 53.5q0 54 -55 54h-31zM167 123h38q49 0 72 37.5t23 87.5q0 64 -55 64
h-38z" />
    <glyph glyph-name="C" unicode="C" horiz-adv-x="449" 
d="M212 -10q-88 0 -132.5 61.5t-44.5 168.5q0 68 14 139t40.5 136t65.5 117t90 82t112 30q42 0 82.5 -10.5t74.5 -36.5l-69 -114q-43 34 -83 34q-36 0 -64.5 -28t-49.5 -73t-34.5 -96t-20 -97t-6.5 -76q0 -59 16.5 -84t47.5 -25q30 0 60 9.5t59 24.5v-129q-35 -17 -77.5 -25
t-80.5 -8z" />
    <glyph glyph-name="D" unicode="D" horiz-adv-x="523" 
d="M-3 0l151 714h151q108 0 164.5 -58.5t56.5 -164.5q0 -66 -13 -135.5t-40 -133t-69.5 -113.5t-100.5 -79.5t-134 -29.5h-166zM168 129h16q40 0 70 24t51.5 63.5t35 86t20 92.5t6.5 82q0 56 -20.5 82.5t-60.5 26.5h-21z" />
    <glyph glyph-name="E" unicode="E" horiz-adv-x="406" 
d="M-3 0l151 714h307l-26 -125h-163l-34 -157h152l-27 -125h-151l-39 -180h164l-27 -127h-307z" />
    <glyph glyph-name="F" unicode="F" horiz-adv-x="391" 
d="M-3 0l151 714h306l-26 -125h-162l-39 -182h150l-27 -125h-150l-59 -282h-144z" />
    <glyph glyph-name="G" unicode="G" horiz-adv-x="533" 
d="M248 -10q-109 0 -160.5 60.5t-51.5 170.5q0 72 14.5 144t43 136.5t71.5 114.5t100.5 79t129.5 29q50 0 94.5 -12.5t72.5 -32.5l-63 -123q-55 41 -118 41q-44 0 -80 -34t-61.5 -88.5t-39 -117.5t-13.5 -122q0 -117 74 -117q27 0 52 7l33 159h-73l25 123h217l-80 -376
q-53 -20 -102 -30.5t-85 -10.5z" />
    <glyph glyph-name="H" unicode="H" horiz-adv-x="543" 
d="M-3 0l151 714h144l-59 -279h142l59 279h145l-152 -714h-145l65 308h-141l-65 -308h-144z" />
    <glyph glyph-name="I" unicode="I" horiz-adv-x="343" 
d="M-40 0l16 75l87 34l105 496l-73 34l15 75h307l-16 -75l-89 -34l-105 -496l75 -34l-16 -75h-306z" />
    <glyph glyph-name="J" unicode="J" horiz-adv-x="256" 
d="M-68 -215q-29 0 -49.5 3t-37.5 9l27 126q26 -13 52 -13t42 19.5t25 48.5t14 57l145 679h144l-148 -701q-26 -123 -81 -175.5t-133 -52.5z" />
    <glyph glyph-name="K" unicode="K" horiz-adv-x="485" 
d="M-3 0l151 714h144l-64 -305l40 73l155 232h159l-226 -334l75 -380h-158l-43 277l-36 -28l-53 -249h-144z" />
    <glyph glyph-name="L" unicode="L" horiz-adv-x="384" 
d="M-3 0l151 714h144l-125 -587h170l-26 -127h-314z" />
    <glyph glyph-name="M" unicode="M" horiz-adv-x="717" 
d="M-3 0l151 714h189l13 -457h3l198 457h202l-152 -714h-141l78 365q4 20 10 40t11 40h-3l-198 -445h-122l-11 441h-3q-5 -31 -9.5 -57.5t-9.5 -50.5l-70 -333h-136z" />
    <glyph glyph-name="N" unicode="N" horiz-adv-x="581" 
d="M-3 0l151 714h161l79 -449h3q7 43 14 83t12 67l64 299h136l-151 -714h-161l-80 461h-2q-7 -48 -14.5 -92t-12.5 -71l-64 -298h-135z" />
    <glyph glyph-name="O" unicode="O" horiz-adv-x="554" 
d="M230 -10q-100 0 -147.5 56.5t-47.5 177.5q0 67 13.5 137t40 135t65.5 116.5t90 82t114 30.5q100 0 146 -58.5t46 -172.5q0 -57 -11.5 -125t-35.5 -134.5t-61.5 -122t-90 -89t-121.5 -33.5zM240 119q31 0 56.5 26.5t45 70t32.5 94.5t19.5 100.5t6.5 87.5q0 100 -54 100
q-32 0 -57.5 -27t-44.5 -70.5t-32 -94t-19.5 -99t-6.5 -84.5q0 -61 14 -82.5t40 -21.5z" />
    <glyph glyph-name="P" unicode="P" horiz-adv-x="462" 
d="M-3 0l151 714h157q97 0 140.5 -46t43.5 -121q0 -54 -15 -107t-46 -96.5t-79.5 -69.5t-114.5 -26h-41l-52 -248h-144zM219 373h17q50 0 77 43.5t27 111.5q0 34 -15 47.5t-45 13.5h-14z" />
    <glyph glyph-name="Q" unicode="Q" horiz-adv-x="554" 
d="M247 -170l-44 162h-7.5t-7.5 1q-78 11 -115.5 67t-37.5 164q0 67 13.5 137t40 135t65.5 116.5t90 82t114 30.5q100 0 146 -58.5t46 -172.5q0 -58 -11.5 -127t-36 -136.5t-63 -123t-92.5 -85.5l66 -192h-166zM240 119q31 0 56.5 26.5t45 70t32.5 94.5t19.5 100.5t6.5 87.5
q0 100 -54 100q-32 0 -57.5 -27t-44.5 -70.5t-32 -94t-19.5 -99t-6.5 -84.5q0 -61 14 -82.5t40 -21.5z" />
    <glyph glyph-name="R" unicode="R" horiz-adv-x="482" 
d="M-3 0l151 714h147q102 0 150.5 -43t48.5 -122q0 -91 -37 -155t-100 -90l73 -304h-160l-49 274h-23l-57 -274h-144zM224 391h22q33 0 54 21t31 52.5t10 64.5q0 63 -59 63h-16z" />
    <glyph glyph-name="S" unicode="S" horiz-adv-x="420" 
d="M142 -10q-50 0 -90 10t-72 33l30 148q26 -21 62 -38t71 -17q31 0 57.5 18t26.5 65q0 27 -11.5 49t-49.5 56q-45 40 -66.5 81.5t-21.5 103.5q0 63 26 114t78 81t130 30q39 0 81.5 -12t76.5 -38l-65 -130q-58 46 -101 46q-29 0 -51.5 -19t-22.5 -58q0 -25 14 -48t54 -57
q44 -37 63.5 -80t19.5 -103q0 -61 -26 -115t-79.5 -87t-133.5 -33z" />
    <glyph glyph-name="T" unicode="T" horiz-adv-x="407" 
d="M71 0l125 586h-117l27 128h379l-27 -128h-118l-124 -586h-145z" />
    <glyph glyph-name="U" unicode="U" horiz-adv-x="525" 
d="M209 -10q-82 0 -128.5 44t-46.5 124q0 17 3 39.5t7 45.5l101 471h144l-100 -474q-5 -16 -6.5 -31.5t-1.5 -26.5q0 -63 47 -63q35 0 56 28.5t35 95.5l101 471h144l-105 -492q-23 -112 -82 -172t-168 -60z" />
    <glyph glyph-name="V" unicode="V" horiz-adv-x="489" 
d="M103 0l-12 714h149l-8 -386q-1 -32 -2.5 -61.5t-6.5 -69.5h2q7 30 17.5 60.5t24.5 64.5l157 392h155l-310 -714h-166z" />
    <glyph glyph-name="W" unicode="W" horiz-adv-x="720" 
d="M67 0l24 714h140l-15 -336q-2 -40 -5 -72.5t-6 -55.5h2q11 32 23 63t25 64l135 337h120l-12 -334q-2 -40 -4 -68.5t-4 -60.5h2q9 30 20.5 60.5t25.5 67.5l126 335h146l-275 -714h-165l8 304q0 21 2 47t4 53h-2q-8 -23 -15.5 -45.5t-16.5 -45.5l-120 -313h-163z" />
    <glyph glyph-name="X" unicode="X" horiz-adv-x="467" 
d="M-58 0l225 362l-64 352h151l25 -200l106 200h155l-210 -350l76 -364h-156l-28 214l-126 -214h-154z" />
    <glyph glyph-name="Y" unicode="Y" horiz-adv-x="455" 
d="M95 0l57 270l-61 444h150l21 -255l129 255h154l-247 -439l-58 -275h-145z" />
    <glyph glyph-name="Z" unicode="Z" horiz-adv-x="412" 
d="M-40 0l22 102l307 487h-199l26 125h364l-21 -103l-309 -484h211l-27 -127h-374z" />
    <glyph glyph-name="bracketleft" unicode="[" horiz-adv-x="286" 
d="M-45 -166l191 896h218l-23 -108h-93l-144 -680h92l-23 -108h-218z" />
    <glyph glyph-name="backslash" unicode="\" horiz-adv-x="382" 
d="M193 -8l-94 730h121l95 -730h-122z" />
    <glyph glyph-name="bracketright" unicode="]" horiz-adv-x="286" 
d="M-75 -166l22 108h93l145 680h-93l23 108h218l-191 -896h-217z" />
    <glyph glyph-name="asciicircum" unicode="^" horiz-adv-x="448" 
d="M-12 265l282 449h79l102 -449h-124l-56 247l-154 -247h-129z" />
    <glyph glyph-name="underscore" unicode="_" horiz-adv-x="364" 
d="M-95 -174l21 105h367l-22 -105h-366z" />
    <glyph glyph-name="grave" unicode="`" horiz-adv-x="309" 
d="M236 606q-12 17 -30 45t-35 57.5t-26 48.5v9h154q7 -31 17 -67.5t25 -80.5l-1 -12h-104z" />
    <glyph glyph-name="a" unicode="a" horiz-adv-x="470" 
d="M129 -10q-53 0 -82.5 43t-29.5 119q0 43 8 97t25 108.5t43 100t61.5 73.5t80.5 28q32 0 57.5 -18t38.5 -59h3l25 67h121l-117 -549h-112l-1 69h-4q-26 -35 -53 -57t-64 -22zM189 107q25 0 42.5 24.5t29.5 59.5t20 68q11 47 14 73t3 46q0 60 -36 60q-19 0 -34.5 -19
t-28 -50t-21.5 -67t-13.5 -70.5t-4.5 -59.5q0 -65 29 -65z" />
    <glyph glyph-name="b" unicode="b" horiz-adv-x="469" 
d="M231 -10q-35 0 -59.5 18.5t-38.5 51.5h-3l-28 -60h-112l162 760h138l-39 -183q-2 -13 -8 -35t-13 -47h2q25 35 52 49.5t61 14.5q50 0 80 -43t30 -118q0 -46 -9 -100.5t-26.5 -109t-44.5 -99.5t-63 -72t-81 -27zM209 107q16 0 31.5 19t28 50t22 67.5t15 70.5t5.5 60
q0 64 -31 64q-21 0 -38 -19.5t-30 -50.5t-22 -67.5t-13.5 -71t-4.5 -60.5q0 -62 37 -62z" />
    <glyph glyph-name="c" unicode="c" horiz-adv-x="377" 
d="M171 -10q-73 0 -112 46.5t-39 128.5q0 49 9 103.5t28 106t49.5 93.5t73.5 66.5t100 24.5q38 0 69 -9.5t59 -28.5l-57 -110q-14 12 -33 19.5t-36 7.5q-33 0 -55.5 -27.5t-36.5 -69t-20.5 -83.5t-6.5 -72q0 -76 45 -76q44 0 102 43v-119q-25 -18 -62.5 -31t-76.5 -13z" />
    <glyph glyph-name="d" unicode="d" horiz-adv-x="470" 
d="M128 -10q-52 0 -81.5 43t-29.5 119q0 41 8 94.5t25 108t42 101t58.5 75t76.5 28.5q35 0 63 -15.5t41 -50.5h3q4 28 7.5 51.5t7.5 38.5l38 177h138l-162 -760h-112l-1 61h-4q-28 -34 -54 -52.5t-64 -18.5zM189 107q22 0 39 20t30.5 52.5t22 69.5t13 71t4.5 58q0 60 -36 60
q-20 0 -36.5 -21t-28.5 -54t-20.5 -70t-12.5 -69.5t-4 -52.5q0 -64 29 -64z" />
    <glyph glyph-name="e" unicode="e" horiz-adv-x="440" 
d="M190 -10q-80 0 -125.5 47.5t-45.5 132.5q0 69 16 137.5t49 125.5t83.5 91t119.5 34q65 0 105 -36t40 -99q0 -97 -72 -145.5t-191 -48.5h-9q-5 -23 -5 -44q0 -45 17 -64t51 -19q33 0 61 8t66 30v-105q-40 -26 -79.5 -35.5t-80.5 -9.5zM180 329h3q71 0 96.5 23t25.5 58
q0 17 -10.5 28t-27.5 11q-25 0 -48 -30.5t-39 -89.5z" />
    <glyph glyph-name="f" unicode="f" horiz-adv-x="289" 
d="M-45 -240q-17 0 -33.5 1.5t-35.5 8.5v121q9 -5 24 -7t25 -2q33 0 43.5 23t17.5 57l100 471h-55l15 73l63 39l10 41q6 30 16.5 61.5t28.5 58t47.5 43t73.5 16.5q27 0 54 -5.5t54 -19.5l-47 -105q-23 13 -42 13q-21 0 -31 -17t-15 -42l-10 -40h79l-23 -116h-79l-104 -483
q-12 -59 -31.5 -101.5t-54 -65.5t-90.5 -23z" />
    <glyph glyph-name="g" unicode="g" horiz-adv-x="470" 
d="M122 -240q-44 0 -83.5 9.5t-65.5 23.5v124q24 -16 66.5 -28.5t79.5 -12.5q42 0 65 24t33 65l5 22q3 13 7.5 30t10.5 36h-2q-26 -35 -52.5 -49t-60.5 -14q-49 0 -79 40.5t-30 114.5q0 44 8.5 98.5t26 110t44.5 102t63 75t82 28.5q40 0 61.5 -18.5t32.5 -58.5h2l23 67h120
l-122 -581q-24 -111 -83 -159.5t-152 -48.5zM191 111q21 0 38 20.5t29.5 54t21.5 71t13.5 72.5t4.5 58q0 51 -37 51q-20 0 -36 -21t-28 -53.5t-20.5 -69t-12.5 -69t-4 -51.5q0 -63 31 -63z" />
    <glyph glyph-name="h" unicode="h" horiz-adv-x="470" 
d="M-9 0l161 760h139l-34 -155q-5 -26 -14 -56t-18 -58h2q22 33 49.5 50.5t64.5 17.5q51 0 80 -33.5t29 -91.5q0 -18 -3 -41t-8 -44l-74 -349h-138l66 313q5 22 8 42.5t3 39.5q0 17 -7.5 28t-25.5 11q-21 0 -41 -27t-36 -101l-64 -306h-139z" />
    <glyph glyph-name="i" unicode="i" horiz-adv-x="236" 
d="M194 612q-65 0 -65 55q0 23 9.5 46t29.5 38t51 15t48 -13.5t17 -41.5q0 -41 -25 -70t-65 -29zM-9 0l117 549h138l-116 -549h-139z" />
    <glyph glyph-name="j" unicode="j" horiz-adv-x="237" 
d="M195 612q-65 0 -65 55q0 23 9.5 46t29 38t51.5 15q31 0 48 -13.5t17 -41.5q0 -41 -24.5 -70t-65.5 -29zM-58 -240q-17 0 -33.5 1.5t-34.5 8.5v121q9 -5 23.5 -7t24.5 -2q28 0 40.5 19t22.5 64l123 584h138l-126 -595q-13 -61 -33 -104.5t-54 -66.5t-91 -23z" />
    <glyph glyph-name="k" unicode="k" horiz-adv-x="452" 
d="M-10 0l162 760h139l-68 -313q-5 -26 -12.5 -53.5t-16.5 -57.5h2l158 213h151l-179 -234l73 -315h-150l-43 203l-45 -42l-32 -161h-139z" />
    <glyph glyph-name="l" unicode="l" horiz-adv-x="234" 
d="M-10 0l162 760h139l-162 -760h-139z" />
    <glyph glyph-name="m" unicode="m" horiz-adv-x="696" 
d="M-10 0l117 549h111l-5 -65h4q23 34 54 54.5t68 20.5q81 0 104 -69h3q24 32 56.5 50.5t69.5 18.5q50 0 77.5 -30.5t27.5 -86.5q0 -17 -2.5 -39t-7.5 -45l-76 -358h-139l68 320q4 21 7 40.5t3 32.5q0 41 -28 41q-22 0 -36.5 -20.5t-24.5 -50t-16 -56.5l-65 -307h-138
l69 323q4 20 6.5 39t2.5 32q0 40 -27 40q-23 0 -38.5 -22t-26 -55t-16.5 -65l-62 -292h-140z" />
    <glyph glyph-name="n" unicode="n" horiz-adv-x="470" 
d="M-10 0l117 549h111l-4 -66h3q23 35 53.5 55.5t65.5 20.5q29 0 55 -11.5t42.5 -38.5t16.5 -73q0 -16 -3 -37.5t-8 -48.5l-74 -350h-139l67 314q5 23 8 44.5t3 36.5q0 39 -29 39q-31 0 -51 -42t-34 -106l-60 -286h-140z" />
    <glyph glyph-name="o" unicode="o" horiz-adv-x="460" 
d="M182 -10q-76 0 -119 48.5t-43 134.5q0 43 8.5 94.5t27.5 103t49.5 94t74 68.5t101.5 26q75 0 117.5 -49.5t42.5 -134.5q0 -47 -9.5 -100t-29 -103.5t-50 -91.5t-73 -65.5t-97.5 -24.5zM199 107q23 0 42 28.5t32.5 71.5t21 88.5t7.5 79.5q0 66 -39 66q-20 0 -36.5 -19
t-29 -50t-21 -67.5t-13 -71.5t-4.5 -61q0 -31 10 -48t30 -17z" />
    <glyph glyph-name="p" unicode="p" horiz-adv-x="469" 
d="M-59 -238l166 787h113l-4 -72h4q28 44 57.5 63t64.5 19q52 0 82 -40t30 -123q0 -47 -9 -102t-26.5 -108.5t-44 -98t-61.5 -71t-78 -26.5q-34 0 -58.5 18.5t-36.5 51.5h-3q-4 -27 -8 -51t-6 -40l-45 -207h-137zM209 111q23 0 41.5 28.5t32 71.5t21 88t7.5 78q0 64 -29 64
q-20 0 -37.5 -20t-31 -52.5t-22.5 -69t-14 -70.5t-5 -57q0 -61 37 -61z" />
    <glyph glyph-name="q" unicode="q" horiz-adv-x="470" 
d="M174 -239l44 207q3 13 9 36.5t14 48.5h-3q-26 -35 -52.5 -49t-60.5 -14q-49 0 -79 40.5t-30 114.5q0 43 8.5 97.5t26 110t44 102.5t62.5 75.5t82 28.5q41 0 62.5 -18.5t32.5 -58.5h2l23 67h121l-168 -788h-138zM191 111q26 0 46 29t33.5 73.5t20.5 91t7 81.5q0 52 -37 52
q-23 0 -41.5 -28t-31.5 -71t-20.5 -87.5t-7.5 -77.5q0 -63 31 -63z" />
    <glyph glyph-name="r" unicode="r" horiz-adv-x="332" 
d="M-9 0l116 549h109l-5 -82h4q26 48 54.5 70t70.5 22q18 0 42 -7l-42 -152q-21 9 -46 9q-30 0 -51 -19t-35 -48.5t-20 -62.5l-59 -279h-138z" />
    <glyph glyph-name="s" unicode="s" horiz-adv-x="369" 
d="M133 -10q-49 0 -80 8t-57 23v130q27 -19 60 -29.5t59 -10.5q25 0 42.5 12.5t17.5 37.5q0 17 -9.5 35.5t-42.5 47.5q-42 36 -55 69t-13 70q0 49 20 88.5t59 63.5t97 24q45 0 85 -12.5t68 -32.5l-54 -105q-23 19 -49 28t-42 9q-19 0 -30.5 -11t-11.5 -31q0 -18 8 -32.5
t41 -42.5q38 -32 56.5 -64t18.5 -90q0 -50 -22 -92.5t-64.5 -67.5t-101.5 -25z" />
    <glyph glyph-name="t" unicode="t" horiz-adv-x="315" 
d="M142 -10q-58 0 -82.5 33.5t-24.5 85.5q0 17 2.5 37t8.5 47l51 240h-50l15 73l71 39l53 117h98l-25 -113h89l-24 -116h-89l-55 -259q-2 -9 -3.5 -17.5t-1.5 -15.5q0 -29 28 -29q7 0 24 3t33 10v-111q-25 -14 -59 -19t-59 -5z" />
    <glyph glyph-name="u" unicode="u" horiz-adv-x="470" 
d="M134 -10q-56 0 -84.5 32.5t-28.5 90.5q0 18 2.5 39.5t6.5 43.5l76 353h138l-67 -316q-11 -47 -11 -80q0 -38 30 -38q31 0 50.5 42t33.5 107l62 285h138l-116 -549h-111l3 65h-3q-23 -35 -53 -55t-66 -20z" />
    <glyph glyph-name="v" unicode="v" horiz-adv-x="426" 
d="M80 0l-19 549h138l-2 -238q0 -25 -1 -53.5t-4 -53.5h4q4 16 11 33.5t13 33.5l114 278h146l-252 -549h-148z" />
    <glyph glyph-name="w" unicode="w" horiz-adv-x="643" 
d="M51 0l13 549h135l-9 -208q-2 -31 -5.5 -60.5t-5.5 -57.5h3q7 23 16 52t19 56l83 218h157l-12 -217q-1 -31 -4 -61t-5 -56h3q10 31 20.5 64.5t22.5 64.5l76 205h138l-220 -549h-160l16 271l4 46t3 46h-3q-7 -21 -13 -40t-13 -39l-106 -284h-153z" />
    <glyph glyph-name="x" unicode="x" horiz-adv-x="430" 
d="M-51 0l181 281l-61 268h149l22 -148l82 148h155l-174 -270l63 -279h-149l-25 161l-91 -161h-152z" />
    <glyph glyph-name="y" unicode="y" horiz-adv-x="427" 
d="M1 -240q-41 0 -70 9l25 125q22 -9 42 -9q22 0 35.5 14t26.5 40l32 69l-29 541h140l1 -239q0 -50 -3 -98h3q8 26 17 53.5t15 43.5l101 240h145l-286 -622q-22 -48 -47.5 -85.5t-61 -59.5t-86.5 -22z" />
    <glyph glyph-name="z" unicode="z" horiz-adv-x="363" 
d="M-40 0l17 84l236 347h-152l25 118h309l-19 -92l-228 -340h163l-25 -117h-326z" />
    <glyph glyph-name="braceleft" unicode="{" horiz-adv-x="340" 
d="M236 -158q-99 0 -141.5 35t-42.5 100q0 13 2 28.5t5 30.5l20 93q1 7 2.5 15.5t1.5 18.5q0 30 -14.5 44t-59.5 14l25 120q46 1 72 21.5t36 66.5l28 132q14 67 44.5 99.5t79 43t116.5 10.5h3l-26 -118q-41 -1 -59 -15t-26 -56l-27 -128q-10 -47 -42.5 -78.5t-94.5 -39.5
l-1 -3q44 -14 64 -39t20 -59q0 -24 -6 -56l-18 -85q-3 -17 -3 -28q0 -25 10 -36.5t41 -12.5v-118h-9z" />
    <glyph glyph-name="bar" unicode="|" horiz-adv-x="385" 
d="M130 -231v1000h122v-1000h-122z" />
    <glyph glyph-name="braceright" unicode="}" horiz-adv-x="340" 
d="M-59 -158v118q42 0 64.5 15t31.5 56l26 128q10 47 42.5 78.5t94.5 39.5l1 3q-43 14 -63.5 39t-20.5 59q0 12 1.5 26t5.5 30l18 85q3 17 3 28q0 48 -60 49l25 118h6q94 0 132 -31t38 -95q0 -14 -1.5 -33.5t-4.5 -35.5l-20 -92q-2 -7 -3 -15.5t-1 -18.5q0 -30 14.5 -44
t59.5 -14l-25 -120q-91 -1 -108 -88l-28 -132q-14 -65 -41 -98t-71.5 -44t-113.5 -11h-2z" />
    <glyph glyph-name="asciitilde" unicode="~" horiz-adv-x="485" 
d="M237 295q-54 27 -99 27q-47 0 -100 -59v125q45 53 112 53q32 0 60.5 -8.5t57.5 -22.5q56 -27 100 -27q22 0 49 15.5t50 43.5v-125q-45 -52 -112 -52q-31 0 -59 8t-59 22z" />
    <glyph glyph-name="uni00A0" unicode="&#xa0;" horiz-adv-x="171" 
 />
    <glyph glyph-name="exclamdown" unicode="&#xa1;" horiz-adv-x="253" 
d="M152 388q-29 0 -46 16t-17 44q0 50 28.5 80t66.5 30q69 0 69 -62q0 -43 -25.5 -75.5t-75.5 -32.5zM-48 -181l123 490h120l-85 -490h-158z" />
    <glyph glyph-name="cent" unicode="&#xa2;" horiz-adv-x="452" 
d="M145 -10l21 95q-56 11 -80.5 55t-24.5 127q0 53 13 114t40.5 118t69.5 97t101 49l17 79h80l-16 -79q24 -4 45 -13.5t37 -20.5l-57 -112q-13 12 -31.5 20.5t-31.5 8.5q-29 0 -52 -25t-39 -64t-24.5 -83t-8.5 -81q0 -76 44 -76q37 0 86 32l37 -97q-28 -24 -63.5 -35
t-60.5 -15l-21 -94h-81z" />
    <glyph glyph-name="sterling" unicode="&#xa3;" horiz-adv-x="452" 
d="M-15 0l26 119q35 21 55 49.5t30 75.5l13 68h-59l23 107h59l24 117q20 86 66 137t132 51q37 0 73 -10.5t63 -30.5l-57 -116q-18 14 -38 21.5t-37 7.5q-28 0 -42.5 -19.5t-22.5 -57.5l-22 -100h115l-23 -107h-114l-13 -67q-8 -40 -31 -69.5t-55 -48.5h234l-27 -127h-372z
" />
    <glyph glyph-name="currency" unicode="&#xa4;" horiz-adv-x="483" 
d="M426 126l-65 62q-48 -27 -100 -27q-57 0 -101 28l-63 -62l-63 63l63 63q-28 44 -28 100q0 53 28 100l-64 64l64 64l64 -64q23 15 48.5 22t51.5 7q54 0 100 -29l65 64l64 -63l-64 -64q28 -47 28 -101q0 -58 -28 -102l62 -62zM261 250q43 0 74 30.5t31 72.5
q0 28 -14.5 51.5t-38 38t-52.5 14.5q-42 0 -72.5 -30.5t-30.5 -73.5q0 -42 30.5 -72.5t72.5 -30.5z" />
    <glyph glyph-name="yen" unicode="&#xa5;" horiz-adv-x="451" 
d="M95 0l24 111h-108l19 91h108l14 65h-108l20 91h86l-45 356h146l12 -246l115 246h150l-198 -356h89l-19 -91h-108l-14 -65h109l-20 -91h-109l-22 -111h-141z" />
    <glyph glyph-name="brokenbar" unicode="&#xa6;" horiz-adv-x="385" 
d="M130 388v381h122v-381h-122zM130 -231v381h122v-381h-122z" />
    <glyph glyph-name="section" unicode="&#xa7;" horiz-adv-x="417" 
d="M155 -6q-83 0 -134 37v111q34 -28 67.5 -39t56.5 -11q30 0 47.5 18t17.5 48q0 23 -19.5 38.5t-39.5 30.5q-40 27 -62.5 58t-22.5 76q0 53 26.5 87.5t70.5 58.5q-19 19 -28.5 42.5t-9.5 58.5q0 36 19.5 70.5t57.5 58t93 24.5q89 0 154 -41l-50 -93q-23 19 -48 28t-51 9
q-22 0 -37.5 -15t-15.5 -38q0 -18 13.5 -32t38.5 -32q52 -36 73 -65.5t21 -65.5q0 -52 -24.5 -87t-67.5 -67q13 -15 23 -37.5t10 -57.5q0 -47 -22 -86.5t-62 -63t-95 -23.5zM242 310q14 12 22.5 32t8.5 43t-10.5 39.5t-41.5 38.5q-19 -11 -28 -30.5t-9 -40.5q0 -44 58 -82z
" />
    <glyph glyph-name="dieresis" unicode="&#xa8;" horiz-adv-x="439" 
d="M377 618q-55 0 -55 51q0 35 21 62t61 27q51 0 51 -50q0 -40 -23.5 -65t-54.5 -25zM198 618q-55 0 -55 51q0 35 21 62t61 27q23 0 37 -13t14 -37q0 -40 -23 -65t-55 -25z" />
    <glyph glyph-name="copyright" unicode="&#xa9;" horiz-adv-x="825" 
d="M411 -10q-84 0 -152 28t-116 78.5t-74 117t-26 143.5q0 81 28 148.5t78.5 116.5t118 75.5t145.5 26.5q80 0 147.5 -27.5t117 -77t77 -117t27.5 -147.5t-27.5 -147t-77 -116t-117.5 -75.5t-149 -26.5zM415 60q85 0 150 38.5t101 105t36 152.5q0 90 -38 157t-104 104
t-149 37q-87 0 -151.5 -39.5t-100.5 -107.5t-36 -153q0 -89 38.5 -155t104.5 -102.5t149 -36.5zM423 129q-101 0 -157 60t-56 168q0 107 55 167t155 60q39 0 76 -9.5t74 -26.5l-41 -83q-25 13 -51 19.5t-48 6.5q-50 0 -78 -33.5t-28 -104.5q0 -67 26 -99t82 -32q28 0 59 7.5
t60 23.5v-94q-60 -30 -128 -30z" />
    <glyph glyph-name="ordfeminine" unicode="&#xaa;" horiz-adv-x="314" 
d="M164 363q-21 0 -43.5 11.5t-38 39.5t-15.5 77q0 39 10.5 79.5t31.5 74.5t51.5 55t70.5 21q28 0 44.5 -13.5t24.5 -35.5h3l18 43h68l-74 -346h-72l4 44h-3q-13 -21 -32 -35.5t-48 -14.5zM188 444q22 0 36.5 23.5t22.5 56t8 58.5q0 60 -26 60q-19 0 -34 -22t-23 -55.5
t-8 -68.5q0 -28 6 -40t18 -12z" />
    <glyph glyph-name="guillemotleft" unicode="&#xab;" horiz-adv-x="507" 
d="M124 38l-106 230l1 11l175 229l99 -61l-133 -177l77 -183zM343 38l-106 230l2 11l174 229l99 -61l-133 -177l77 -183z" />
    <glyph glyph-name="logicalnot" unicode="&#xac;" horiz-adv-x="485" 
d="M456 412v-295h-120v177h-293v118h413z" />
    <glyph glyph-name="uni00AD" unicode="&#xad;" horiz-adv-x="295" 
d="M11 202l27 132h244l-29 -132h-242z" />
    <glyph glyph-name="registered" unicode="&#xae;" horiz-adv-x="825" 
d="M411 -10q-84 0 -152 28t-116 78.5t-74 117t-26 143.5q0 81 28 148.5t78.5 116.5t118 75.5t145.5 26.5q80 0 147.5 -27.5t117 -77t77 -117t27.5 -147.5t-27.5 -147t-77 -116t-117.5 -75.5t-149 -26.5zM415 60q85 0 150 38.5t101 105t36 152.5q0 90 -38 157t-104 104
t-149 37q-87 0 -151.5 -39.5t-100.5 -107.5t-36 -153q0 -89 38.5 -155t104.5 -102.5t149 -36.5zM256 151v428h142q174 0 174 -131q0 -42 -16.5 -71.5t-53.5 -46.5l91 -179h-121l-69 160h-35v-160h-112zM368 390h23q31 0 48.5 12t17.5 42q0 26 -15 36.5t-50 10.5h-24v-101z
" />
    <glyph glyph-name="overscore" unicode="&#xaf;" horiz-adv-x="443" 
d="M99 760l23 105h447l-22 -105h-448z" />
    <glyph glyph-name="degree" unicode="&#xb0;" horiz-adv-x="361" 
d="M180 424q-44 0 -79 19t-55.5 53t-20.5 78t20.5 78t55.5 53t79 19t79 -19t55.5 -53t20.5 -78t-20.5 -78t-55.5 -53t-79 -19zM180 509q30 0 47 17.5t17 47.5q0 29 -17 47t-47 18q-31 0 -47.5 -18.5t-16.5 -46.5q0 -30 17 -47.5t47 -17.5z" />
    <glyph glyph-name="plusminus" unicode="&#xb1;" horiz-adv-x="485" 
d="M313 463h149v-118h-149v-181h-120v181h-150v118h150v183h120v-183zM43 0v118h419v-118h-419z" />
    <glyph glyph-name="uni00B2" unicode="&#xb2;" horiz-adv-x="314" 
d="M57 416l17 87l106 113q37 39 58 66t21 55q0 31 -27 31q-18 0 -37 -14.5t-34 -29.5l-33 69q26 30 62.5 46t73.5 16q52 0 79 -26.5t27 -70.5q0 -34 -16 -65t-41 -58t-51 -52l-77 -75h140l-20 -92h-248z" />
    <glyph glyph-name="uni00B3" unicode="&#xb3;" horiz-adv-x="314" 
d="M171 408q-33 0 -58.5 8.5t-43.5 23.5v98q37 -39 104 -39q27 0 43.5 14.5t16.5 41.5q0 17 -12 27.5t-32 10.5h-43l17 79h36q31 0 47.5 17.5t16.5 44.5q0 16 -9 24.5t-23 8.5q-17 0 -33.5 -8.5t-36.5 -24.5l-37 70q31 27 65.5 38.5t66.5 11.5q60 0 86.5 -27.5t26.5 -70.5
q0 -39 -21 -68.5t-67 -46.5l-1 -4q23 -10 38 -30t15 -56q0 -69 -44.5 -106t-117.5 -37z" />
    <glyph glyph-name="acute" unicode="&#xb4;" horiz-adv-x="309" 
d="M111 606l2 10q29 38 55 75t49 75h155l-1 -8q-11 -12 -32.5 -33.5t-46.5 -45t-47 -43.5l-33 -30h-101z" />
    <glyph glyph-name="uni03BC" unicode="&#x3bc;" horiz-adv-x="471" 
d="M-62 -240l168 789h138l-67 -316q-5 -23 -7.5 -41t-2.5 -32q0 -45 29 -45q16 0 30.5 11.5t27.5 41.5t25 85l63 296h138l-116 -549h-109v57h-2q-20 -38 -41.5 -52.5t-43.5 -14.5q-28 0 -44 27h-3q0 -20 -2 -43t-7 -47l-35 -167h-139z" />
    <glyph glyph-name="paragraph" unicode="&#xb6;" horiz-adv-x="518" 
d="M258 -127l-1 408q-13 -5 -35 -5q-44 0 -72.5 23t-44 60t-21.5 81t-6 85q0 43 8 85t26.5 76t49 54t75.5 20h238v-887h-80v816h-57v-816h-80z" />
    <glyph glyph-name="periodcentered" unicode="&#xb7;" horiz-adv-x="246" 
d="M126 268q-69 0 -69 62q0 42 26 75t75 33q30 0 47 -16t17 -45q0 -49 -29.5 -79t-66.5 -30z" />
    <glyph glyph-name="cedilla" unicode="&#xb8;" horiz-adv-x="154" 
d="M-38 -240q-20 0 -39 2t-39 8v78q11 -3 26 -5t30 -2q48 0 48 40q0 34 -56 37l50 82h69l-24 -38q30 -5 50 -25.5t20 -54.5q0 -67 -39.5 -94.5t-95.5 -27.5z" />
    <glyph glyph-name="uni00B9" unicode="&#xb9;" horiz-adv-x="314" 
d="M160 416l53 246q4 16 7.5 28.5t7.5 25.5q-5 -5 -10 -10.5t-8 -7.5l-55 -40l-43 62l158 124h86l-91 -428h-105z" />
    <glyph glyph-name="ordmasculine" unicode="&#xba;" horiz-adv-x="310" 
d="M181 362q-55 0 -84 35.5t-29 94.5q0 56 19.5 109t58 87t94.5 34q47 0 79.5 -31t32.5 -99q0 -56 -20.5 -109t-59 -87t-91.5 -34zM194 446q19 0 32.5 20.5t21 52t7.5 65.5q0 54 -28 54q-19 0 -33 -20.5t-21.5 -53t-7.5 -66.5q0 -28 7 -40t22 -12z" />
    <glyph glyph-name="guillemotright" unicode="&#xbb;" horiz-adv-x="507" 
d="M310 38l-99 60l133 178l-77 182l112 50l108 -230l-2 -11zM91 38l-99 60l133 178l-77 182l112 50l107 -230l-1 -11z" />
    <glyph glyph-name="onequarter" unicode="&#xbc;" horiz-adv-x="764" 
d="M99 0l482 714h108l-483 -714h-107zM135 286l53 246q4 16 7.5 28.5t7.5 25.5q-5 -5 -10 -10.5t-8 -7.5l-55 -40l-43 62l158 124h86l-91 -428h-105zM541 0l16 75h-144l15 75l195 281h112l-58 -274h48l-18 -82h-47l-17 -75h-102zM516 157h59l20 98q4 12 6.5 23.5t6.5 26.5
q-7 -12 -12.5 -24t-13.5 -24z" />
    <glyph glyph-name="onehalf" unicode="&#xbd;" horiz-adv-x="775" 
d="M90 0l482 714h108l-483 -714h-107zM135 286l53 246q4 16 7.5 28.5t7.5 25.5q-5 -5 -10 -10.5t-8 -7.5l-55 -40l-43 62l158 124h86l-91 -428h-105zM430 0l17 87l106 113q37 39 58 66t21 55q0 31 -27 31q-18 0 -37 -14.5t-34 -29.5l-33 69q26 30 62.5 46t73.5 16
q52 0 79 -26.5t27 -70.5q0 -34 -16 -65t-41 -58t-51 -52l-77 -75h140l-20 -92h-248z" />
    <glyph glyph-name="threequarters" unicode="&#xbe;" horiz-adv-x="766" 
d="M146 278q-33 0 -58.5 8.5t-43.5 23.5v98q37 -39 104 -39q27 0 43.5 14.5t16.5 41.5q0 17 -12 27.5t-32 10.5h-43l17 79h36q31 0 47.5 17.5t16.5 44.5q0 16 -9 24.5t-23 8.5q-17 0 -33.5 -8.5t-36.5 -24.5l-37 70q31 27 65.5 38.5t66.5 11.5q60 0 86.5 -27.5t26.5 -70.5
q0 -39 -21 -68.5t-67 -46.5l-1 -4q23 -10 38 -30t15 -56q0 -69 -44.5 -106t-117.5 -37zM110 0l482 714h108l-483 -714h-107zM543 0l16 75h-144l15 75l195 281h112l-58 -274h48l-18 -82h-47l-17 -75h-102zM518 157h59l20 98q4 12 6.5 23.5t6.5 26.5q-7 -12 -12.5 -24
t-13.5 -24z" />
    <glyph glyph-name="questiondown" unicode="&#xbf;" horiz-adv-x="353" 
d="M269 308q-9 -47 -19.5 -77.5t-26 -53.5t-40.5 -47q-31 -32 -51.5 -52.5t-30.5 -40t-10 -45.5q0 -45 45 -45q30 0 59.5 14.5t55.5 33.5l18 -108q-43 -33 -86 -49t-85 -16q-71 0 -108 35.5t-37 97.5q0 47 17 87t45 73t60 63q26 24 39.5 41t21 36.5t14.5 52.5h119zM256 557
q70 0 70 -62q0 -42 -26 -75t-76 -33q-29 0 -46 16t-17 45q0 49 28.5 79t66.5 30z" />
    <glyph glyph-name="Agrave" unicode="&#xc0;" horiz-adv-x="499" 
d="M-60 0l306 717h184l8 -717h-153l4 162h-128l-63 -162h-158zM209 288h87l7 203q1 24 2 46.5t3 48.5h-3q-4 -24 -10.5 -46t-14.5 -47zM307 792q-12 17 -30 45t-35 57.5t-26 48.5v9h154q7 -31 17 -67.5t25 -80.5l-1 -12h-104z" />
    <glyph glyph-name="Aacute" unicode="&#xc1;" horiz-adv-x="499" 
d="M-60 0l306 717h184l8 -717h-153l4 162h-128l-63 -162h-158zM209 288h87l7 203q1 24 2 46.5t3 48.5h-3q-4 -24 -10.5 -46t-14.5 -47zM264 792l2 10q29 38 55 75t49 75h155l-1 -8q-11 -12 -32.5 -33.5t-46.5 -45t-47 -43.5l-33 -30h-101z" />
    <glyph glyph-name="Acircumflex" unicode="&#xc2;" horiz-adv-x="499" 
d="M-60 0l306 717h184l8 -717h-153l4 162h-128l-63 -162h-158zM209 288h87l7 203q1 24 2 46.5t3 48.5h-3q-4 -24 -10.5 -46t-14.5 -47zM202 792l2 11q33 35 63 72.5t56 76.5h126q4 -19 13.5 -46t20 -54t20.5 -47l-3 -13h-84q-11 14 -23.5 32.5t-25.5 41.5q-44 -49 -77 -74
h-88z" />
    <glyph glyph-name="Atilde" unicode="&#xc3;" horiz-adv-x="499" 
d="M-60 0l306 717h184l8 -717h-153l4 162h-128l-63 -162h-158zM209 288h87l7 203q1 24 2 46.5t3 48.5h-3q-4 -24 -10.5 -46t-14.5 -47zM195 791q9 43 22 78.5t36 56.5t58 21q31 0 51 -12.5t34 -25t30 -12.5q14 0 22.5 11.5t14.5 39.5h79q-15 -88 -48 -122t-69 -34
q-31 0 -50.5 12.5t-34 25t-30.5 12.5q-11 0 -21 -11.5t-16 -39.5h-78z" />
    <glyph glyph-name="Adieresis" unicode="&#xc4;" horiz-adv-x="499" 
d="M-60 0l306 717h184l8 -717h-153l4 162h-128l-63 -162h-158zM209 288h87l7 203q1 24 2 46.5t3 48.5h-3q-4 -24 -10.5 -46t-14.5 -47zM445 804q-55 0 -55 51q0 35 21 62t61 27q51 0 51 -50q0 -40 -23.5 -65t-54.5 -25zM266 804q-55 0 -55 51q0 35 21 62t61 27q23 0 37 -13
t14 -37q0 -40 -23 -65t-55 -25z" />
    <glyph glyph-name="Aring" unicode="&#xc5;" horiz-adv-x="499" 
d="M-60 0l306 717h184l8 -717h-153l4 162h-128l-63 -162h-158zM209 288h87l7 203q1 24 2 46.5t3 48.5h-3q-4 -24 -10.5 -46t-14.5 -47zM360 759q-57 0 -88.5 32t-31.5 85q0 52 32.5 83.5t87.5 31.5q50 0 83.5 -31t33.5 -82q0 -53 -31.5 -86t-85.5 -33zM360 828q20 0 33 13
t13 34t-12.5 34.5t-33.5 13.5q-23 0 -35.5 -13.5t-12.5 -34.5t11.5 -34t36.5 -13z" />
    <glyph glyph-name="AE" unicode="&#xc6;" horiz-adv-x="654" 
d="M-64 0l349 714h418l-26 -125h-163l-33 -157h151l-27 -125h-151l-38 -180h163l-27 -127h-306l35 162h-114l-75 -162h-156zM225 289h83l63 300h-10z" />
    <glyph glyph-name="Ccedilla" unicode="&#xc7;" horiz-adv-x="449" 
d="M212 -10q-88 0 -132.5 61.5t-44.5 168.5q0 68 14 139t40.5 136t65.5 117t90 82t112 30q42 0 82.5 -10.5t74.5 -36.5l-69 -114q-43 34 -83 34q-36 0 -64.5 -28t-49.5 -73t-34.5 -96t-20 -97t-6.5 -76q0 -59 16.5 -84t47.5 -25q30 0 60 9.5t59 24.5v-129q-35 -17 -77.5 -25
t-80.5 -8zM160 -240q-20 0 -39 2t-39 8v78q11 -3 26 -5t30 -2q48 0 48 40q0 34 -56 37l50 82h69l-24 -38q30 -5 50 -25.5t20 -54.5q0 -67 -39.5 -94.5t-95.5 -27.5z" />
    <glyph glyph-name="Egrave" unicode="&#xc8;" horiz-adv-x="406" 
d="M-3 0l151 714h307l-26 -125h-163l-34 -157h152l-27 -125h-151l-39 -180h164l-27 -127h-307zM268 771q-12 17 -30 45t-35 57.5t-26 48.5v9h154q7 -31 17 -67.5t25 -80.5l-1 -12h-104z" />
    <glyph glyph-name="Eacute" unicode="&#xc9;" horiz-adv-x="406" 
d="M-3 0l151 714h307l-26 -125h-163l-34 -157h152l-27 -125h-151l-39 -180h164l-27 -127h-307zM229 771l2 10q29 38 55 75t49 75h155l-1 -8q-11 -12 -32.5 -33.5t-46.5 -45t-47 -43.5l-33 -30h-101z" />
    <glyph glyph-name="Ecircumflex" unicode="&#xca;" horiz-adv-x="406" 
d="M-3 0l151 714h307l-26 -125h-163l-34 -157h152l-27 -125h-151l-39 -180h164l-27 -127h-307zM162 771l2 11q33 35 63 72.5t56 76.5h126q4 -19 13.5 -46t20 -54t20.5 -47l-3 -13h-84q-11 14 -23.5 32.5t-25.5 41.5q-44 -49 -77 -74h-88z" />
    <glyph glyph-name="Edieresis" unicode="&#xcb;" horiz-adv-x="406" 
d="M-3 0l151 714h307l-26 -125h-163l-34 -157h152l-27 -125h-151l-39 -180h164l-27 -127h-307zM398 783q-55 0 -55 51q0 35 21 62t61 27q51 0 51 -50q0 -40 -23.5 -65t-54.5 -25zM219 783q-55 0 -55 51q0 35 21 62t61 27q23 0 37 -13t14 -37q0 -40 -23 -65t-55 -25z" />
    <glyph glyph-name="Igrave" unicode="&#xcc;" horiz-adv-x="343" 
d="M-40 0l16 75l87 34l105 496l-73 34l15 75h307l-16 -75l-89 -34l-105 -496l75 -34l-16 -75h-306zM234 791q-12 17 -30 45t-35 57.5t-26 48.5v9h154q7 -31 17 -67.5t25 -80.5l-1 -12h-104z" />
    <glyph glyph-name="Iacute" unicode="&#xcd;" horiz-adv-x="343" 
d="M-40 0l16 75l87 34l105 496l-73 34l15 75h307l-16 -75l-89 -34l-105 -496l75 -34l-16 -75h-306zM191 791l2 10q29 38 55 75t49 75h155l-1 -8q-11 -12 -32.5 -33.5t-46.5 -45t-47 -43.5l-33 -30h-101z" />
    <glyph glyph-name="Icircumflex" unicode="&#xce;" horiz-adv-x="343" 
d="M-40 0l16 75l87 34l105 496l-73 34l15 75h307l-16 -75l-89 -34l-105 -496l75 -34l-16 -75h-306zM128 791l2 11q33 35 63 72.5t56 76.5h126q4 -19 13.5 -46t20 -54t20.5 -47l-3 -13h-84q-11 14 -23.5 32.5t-25.5 41.5q-44 -49 -77 -74h-88z" />
    <glyph glyph-name="Idieresis" unicode="&#xcf;" horiz-adv-x="343" 
d="M-40 0l16 75l87 34l105 496l-73 34l15 75h307l-16 -75l-89 -34l-105 -496l75 -34l-16 -75h-306zM372 803q-55 0 -55 51q0 35 21 62t61 27q51 0 51 -50q0 -40 -23.5 -65t-54.5 -25zM193 803q-55 0 -55 51q0 35 21 62t61 27q23 0 37 -13t14 -37q0 -40 -23 -65t-55 -25z" />
    <glyph glyph-name="Eth" unicode="&#xd0;" horiz-adv-x="523" 
d="M-3 0l66 316h-52l24 109h51l62 289h151q108 0 164.5 -58.5t56.5 -164.5q0 -68 -13.5 -137.5t-41.5 -133t-70.5 -113t-100 -78.5t-131.5 -29h-166zM168 129h16q41 0 72 25t52 65.5t34 88t19 92t6 77.5q0 56 -20.5 82.5t-60.5 26.5h-21l-35 -161h69l-23 -109h-69z" />
    <glyph glyph-name="Ntilde" unicode="&#xd1;" horiz-adv-x="581" 
d="M-3 0l151 714h161l79 -449h3q7 43 14 83t12 67l64 299h136l-151 -714h-161l-80 461h-2q-7 -48 -14.5 -92t-12.5 -71l-64 -298h-135zM228 770q9 43 22 78.5t36 56.5t58 21q31 0 51 -12.5t34 -25t30 -12.5q14 0 22.5 11.5t14.5 39.5h79q-15 -88 -48 -122t-69 -34
q-31 0 -50.5 12.5t-34 25t-30.5 12.5q-11 0 -21 -11.5t-16 -39.5h-78z" />
    <glyph glyph-name="Ograve" unicode="&#xd2;" horiz-adv-x="554" 
d="M230 -10q-100 0 -147.5 56.5t-47.5 177.5q0 67 13.5 137t40 135t65.5 116.5t90 82t114 30.5q100 0 146 -58.5t46 -172.5q0 -57 -11.5 -125t-35.5 -134.5t-61.5 -122t-90 -89t-121.5 -33.5zM240 119q31 0 56.5 26.5t45 70t32.5 94.5t19.5 100.5t6.5 87.5q0 100 -54 100
q-32 0 -57.5 -27t-44.5 -70.5t-32 -94t-19.5 -99t-6.5 -84.5q0 -61 14 -82.5t40 -21.5zM332 771q-12 17 -30 45t-35 57.5t-26 48.5v9h154q7 -31 17 -67.5t25 -80.5l-1 -12h-104z" />
    <glyph glyph-name="Oacute" unicode="&#xd3;" horiz-adv-x="554" 
d="M230 -10q-100 0 -147.5 56.5t-47.5 177.5q0 67 13.5 137t40 135t65.5 116.5t90 82t114 30.5q100 0 146 -58.5t46 -172.5q0 -57 -11.5 -125t-35.5 -134.5t-61.5 -122t-90 -89t-121.5 -33.5zM240 119q31 0 56.5 26.5t45 70t32.5 94.5t19.5 100.5t6.5 87.5q0 100 -54 100
q-32 0 -57.5 -27t-44.5 -70.5t-32 -94t-19.5 -99t-6.5 -84.5q0 -61 14 -82.5t40 -21.5zM295 771l2 10q29 38 55 75t49 75h155l-1 -8q-11 -12 -32.5 -33.5t-46.5 -45t-47 -43.5l-33 -30h-101z" />
    <glyph glyph-name="Ocircumflex" unicode="&#xd4;" horiz-adv-x="554" 
d="M230 -10q-100 0 -147.5 56.5t-47.5 177.5q0 67 13.5 137t40 135t65.5 116.5t90 82t114 30.5q100 0 146 -58.5t46 -172.5q0 -57 -11.5 -125t-35.5 -134.5t-61.5 -122t-90 -89t-121.5 -33.5zM240 119q31 0 56.5 26.5t45 70t32.5 94.5t19.5 100.5t6.5 87.5q0 100 -54 100
q-32 0 -57.5 -27t-44.5 -70.5t-32 -94t-19.5 -99t-6.5 -84.5q0 -61 14 -82.5t40 -21.5zM213 771l2 11q33 35 63 72.5t56 76.5h126q4 -19 13.5 -46t20 -54t20.5 -47l-3 -13h-84q-11 14 -23.5 32.5t-25.5 41.5q-44 -49 -77 -74h-88z" />
    <glyph glyph-name="Otilde" unicode="&#xd5;" horiz-adv-x="554" 
d="M230 -10q-100 0 -147.5 56.5t-47.5 177.5q0 67 13.5 137t40 135t65.5 116.5t90 82t114 30.5q100 0 146 -58.5t46 -172.5q0 -57 -11.5 -125t-35.5 -134.5t-61.5 -122t-90 -89t-121.5 -33.5zM240 119q31 0 56.5 26.5t45 70t32.5 94.5t19.5 100.5t6.5 87.5q0 100 -54 100
q-32 0 -57.5 -27t-44.5 -70.5t-32 -94t-19.5 -99t-6.5 -84.5q0 -61 14 -82.5t40 -21.5zM217 770q9 43 22 78.5t36 56.5t58 21q31 0 51 -12.5t34 -25t30 -12.5q14 0 22.5 11.5t14.5 39.5h79q-15 -88 -48 -122t-69 -34q-31 0 -50.5 12.5t-34 25t-30.5 12.5q-11 0 -21 -11.5
t-16 -39.5h-78z" />
    <glyph glyph-name="Odieresis" unicode="&#xd6;" horiz-adv-x="554" 
d="M230 -10q-100 0 -147.5 56.5t-47.5 177.5q0 67 13.5 137t40 135t65.5 116.5t90 82t114 30.5q100 0 146 -58.5t46 -172.5q0 -57 -11.5 -125t-35.5 -134.5t-61.5 -122t-90 -89t-121.5 -33.5zM240 119q31 0 56.5 26.5t45 70t32.5 94.5t19.5 100.5t6.5 87.5q0 100 -54 100
q-32 0 -57.5 -27t-44.5 -70.5t-32 -94t-19.5 -99t-6.5 -84.5q0 -61 14 -82.5t40 -21.5zM460 783q-55 0 -55 51q0 35 21 62t61 27q51 0 51 -50q0 -40 -23.5 -65t-54.5 -25zM281 783q-55 0 -55 51q0 35 21 62t61 27q23 0 37 -13t14 -37q0 -40 -23 -65t-55 -25z" />
    <glyph glyph-name="multiply" unicode="&#xd7;" horiz-adv-x="485" 
d="M378 560l82 -80l-127 -127l125 -126l-81 -81l-126 125l-126 -124l-79 82l123 124l-123 124l79 83l126 -124z" />
    <glyph glyph-name="Oslash" unicode="&#xd8;" horiz-adv-x="554" 
d="M72 -55l-64 38l58 90q-31 55 -31 151q0 67 13.5 137t40 135t65.5 116.5t90 82t114 30.5q69 0 112 -31l42 65l64 -38l-54 -84q14 -27 21 -63t7 -80q0 -57 -11.5 -125t-35.5 -134.5t-61.5 -122t-90.5 -89t-122 -33.5q-67 0 -110 28zM188 252l202 312q-13 34 -44 34
q-33 0 -59.5 -30t-45.5 -77t-31.5 -99.5t-17.5 -97.5q-2 -11 -2.5 -21.5t-1.5 -20.5zM240 119q33 0 59 29t45 75t31.5 99.5t17.5 101.5q1 8 2 15t2 15l-199 -309q13 -26 42 -26z" />
    <glyph glyph-name="Ugrave" unicode="&#xd9;" horiz-adv-x="525" 
d="M209 -10q-82 0 -128.5 44t-46.5 124q0 17 3 39.5t7 45.5l101 471h144l-100 -474q-5 -16 -6.5 -31.5t-1.5 -26.5q0 -63 47 -63q35 0 56 28.5t35 95.5l101 471h144l-105 -492q-23 -112 -82 -172t-168 -60zM321 771q-12 17 -30 45t-35 57.5t-26 48.5v9h154q7 -31 17 -67.5
t25 -80.5l-1 -12h-104z" />
    <glyph glyph-name="Uacute" unicode="&#xda;" horiz-adv-x="525" 
d="M209 -10q-82 0 -128.5 44t-46.5 124q0 17 3 39.5t7 45.5l101 471h144l-100 -474q-5 -16 -6.5 -31.5t-1.5 -26.5q0 -63 47 -63q35 0 56 28.5t35 95.5l101 471h144l-105 -492q-23 -112 -82 -172t-168 -60zM291 771l2 10q29 38 55 75t49 75h155l-1 -8q-11 -12 -32.5 -33.5
t-46.5 -45t-47 -43.5l-33 -30h-101z" />
    <glyph glyph-name="Ucircumflex" unicode="&#xdb;" horiz-adv-x="525" 
d="M209 -10q-82 0 -128.5 44t-46.5 124q0 17 3 39.5t7 45.5l101 471h144l-100 -474q-5 -16 -6.5 -31.5t-1.5 -26.5q0 -63 47 -63q35 0 56 28.5t35 95.5l101 471h144l-105 -492q-23 -112 -82 -172t-168 -60zM212 771l2 11q33 35 63 72.5t56 76.5h126q4 -19 13.5 -46t20 -54
t20.5 -47l-3 -13h-84q-11 14 -23.5 32.5t-25.5 41.5q-44 -49 -77 -74h-88z" />
    <glyph glyph-name="Udieresis" unicode="&#xdc;" horiz-adv-x="525" 
d="M209 -10q-82 0 -128.5 44t-46.5 124q0 17 3 39.5t7 45.5l101 471h144l-100 -474q-5 -16 -6.5 -31.5t-1.5 -26.5q0 -63 47 -63q35 0 56 28.5t35 95.5l101 471h144l-105 -492q-23 -112 -82 -172t-168 -60zM453 783q-55 0 -55 51q0 35 21 62t61 27q51 0 51 -50
q0 -40 -23.5 -65t-54.5 -25zM274 783q-55 0 -55 51q0 35 21 62t61 27q23 0 37 -13t14 -37q0 -40 -23 -65t-55 -25z" />
    <glyph glyph-name="Yacute" unicode="&#xdd;" horiz-adv-x="455" 
d="M95 0l57 270l-61 444h150l21 -255l129 255h154l-247 -439l-58 -275h-145zM256 771l2 10q29 38 55 75t49 75h155l-1 -8q-11 -12 -32.5 -33.5t-46.5 -45t-47 -43.5l-33 -30h-101z" />
    <glyph glyph-name="Thorn" unicode="&#xde;" horiz-adv-x="461" 
d="M-3 0l151 714h144l-23 -109h13q96 0 140 -45.5t44 -121.5q0 -53 -15 -106t-46.5 -96.5t-79.5 -70t-114 -26.5h-41l-29 -139h-144zM196 264h17q49 0 76 43.5t27 111.5q0 34 -14.5 47t-44.5 13h-15z" />
    <glyph glyph-name="germandbls" unicode="&#xdf;" horiz-adv-x="512" 
d="M-60 -240q-17 0 -33.5 2t-34.5 8v121q9 -4 23.5 -6.5t24.5 -2.5q25 0 38.5 17.5t22.5 62.5l124 586q21 99 78 158t152 59q87 0 133 -39t46 -101q0 -47 -16.5 -81t-49.5 -67q-28 -25 -48 -46t-20 -55q0 -28 33 -67q23 -26 38 -54.5t15 -75.5q0 -57 -25 -99.5t-69 -66
t-102 -23.5q-32 0 -61 6.5t-53 21.5l25 130q23 -21 47 -29t44 -8q25 0 37 15.5t12 37.5q0 19 -10 35.5t-36 52.5q-23 29 -32 51.5t-9 51.5q0 37 19.5 71.5t53.5 66.5q29 28 46 51.5t17 57.5q0 20 -10 32.5t-32 12.5q-33 0 -53.5 -28.5t-34.5 -86.5l-124 -581
q-12 -59 -31.5 -102t-53.5 -66t-91 -23z" />
    <glyph glyph-name="agrave" unicode="&#xe0;" horiz-adv-x="470" 
d="M129 -10q-53 0 -82.5 43t-29.5 119q0 43 8 97t25 108.5t43 100t61.5 73.5t80.5 28q32 0 57.5 -18t38.5 -59h3l25 67h121l-117 -549h-112l-1 69h-4q-26 -35 -53 -57t-64 -22zM189 107q25 0 42.5 24.5t29.5 59.5t20 68q11 47 14 73t3 46q0 60 -36 60q-19 0 -34.5 -19
t-28 -50t-21.5 -67t-13.5 -70.5t-4.5 -59.5q0 -65 29 -65zM264 611q-12 17 -30 45t-35 57.5t-26 48.5v9h154q7 -31 17 -67.5t25 -80.5l-1 -12h-104z" />
    <glyph glyph-name="aacute" unicode="&#xe1;" horiz-adv-x="470" 
d="M129 -10q-53 0 -82.5 43t-29.5 119q0 43 8 97t25 108.5t43 100t61.5 73.5t80.5 28q32 0 57.5 -18t38.5 -59h3l25 67h121l-117 -549h-112l-1 69h-4q-26 -35 -53 -57t-64 -22zM189 107q25 0 42.5 24.5t29.5 59.5t20 68q11 47 14 73t3 46q0 60 -36 60q-19 0 -34.5 -19
t-28 -50t-21.5 -67t-13.5 -70.5t-4.5 -59.5q0 -65 29 -65zM220 611l2 10q29 38 55 75t49 75h155l-1 -8q-11 -12 -32.5 -33.5t-46.5 -45t-47 -43.5l-33 -30h-101z" />
    <glyph glyph-name="acircumflex" unicode="&#xe2;" horiz-adv-x="470" 
d="M129 -10q-53 0 -82.5 43t-29.5 119q0 43 8 97t25 108.5t43 100t61.5 73.5t80.5 28q32 0 57.5 -18t38.5 -59h3l25 67h121l-117 -549h-112l-1 69h-4q-26 -35 -53 -57t-64 -22zM189 107q25 0 42.5 24.5t29.5 59.5t20 68q11 47 14 73t3 46q0 60 -36 60q-19 0 -34.5 -19
t-28 -50t-21.5 -67t-13.5 -70.5t-4.5 -59.5q0 -65 29 -65zM158 611l2 11q33 35 63 72.5t56 76.5h126q4 -19 13.5 -46t20 -54t20.5 -47l-3 -13h-84q-11 14 -23.5 32.5t-25.5 41.5q-44 -49 -77 -74h-88z" />
    <glyph glyph-name="atilde" unicode="&#xe3;" horiz-adv-x="470" 
d="M129 -10q-53 0 -82.5 43t-29.5 119q0 43 8 97t25 108.5t43 100t61.5 73.5t80.5 28q32 0 57.5 -18t38.5 -59h3l25 67h121l-117 -549h-112l-1 69h-4q-26 -35 -53 -57t-64 -22zM189 107q25 0 42.5 24.5t29.5 59.5t20 68q11 47 14 73t3 46q0 60 -36 60q-19 0 -34.5 -19
t-28 -50t-21.5 -67t-13.5 -70.5t-4.5 -59.5q0 -65 29 -65zM151 610q9 43 22 78.5t36 56.5t58 21q31 0 51 -12.5t34 -25t30 -12.5q14 0 22.5 11.5t14.5 39.5h79q-15 -88 -48 -122t-69 -34q-31 0 -50.5 12.5t-34 25t-30.5 12.5q-11 0 -21 -11.5t-16 -39.5h-78z" />
    <glyph glyph-name="adieresis" unicode="&#xe4;" horiz-adv-x="470" 
d="M129 -10q-53 0 -82.5 43t-29.5 119q0 43 8 97t25 108.5t43 100t61.5 73.5t80.5 28q32 0 57.5 -18t38.5 -59h3l25 67h121l-117 -549h-112l-1 69h-4q-26 -35 -53 -57t-64 -22zM189 107q25 0 42.5 24.5t29.5 59.5t20 68q11 47 14 73t3 46q0 60 -36 60q-19 0 -34.5 -19
t-28 -50t-21.5 -67t-13.5 -70.5t-4.5 -59.5q0 -65 29 -65zM401 623q-55 0 -55 51q0 35 21 62t61 27q51 0 51 -50q0 -40 -23.5 -65t-54.5 -25zM222 623q-55 0 -55 51q0 35 21 62t61 27q23 0 37 -13t14 -37q0 -40 -23 -65t-55 -25z" />
    <glyph glyph-name="aring" unicode="&#xe5;" horiz-adv-x="470" 
d="M129 -10q-53 0 -82.5 43t-29.5 119q0 43 8 97t25 108.5t43 100t61.5 73.5t80.5 28q32 0 57.5 -18t38.5 -59h3l25 67h121l-117 -549h-112l-1 69h-4q-26 -35 -53 -57t-64 -22zM189 107q25 0 42.5 24.5t29.5 59.5t20 68q11 47 14 73t3 46q0 60 -36 60q-19 0 -34.5 -19
t-28 -50t-21.5 -67t-13.5 -70.5t-4.5 -59.5q0 -65 29 -65zM322 606q-57 0 -88.5 32t-31.5 85q0 52 32.5 83.5t87.5 31.5q50 0 83.5 -31t33.5 -82q0 -53 -31.5 -86t-85.5 -33zM322 675q20 0 33 13t13 34t-12.5 34.5t-33.5 13.5q-23 0 -35.5 -13.5t-12.5 -34.5t11.5 -34
t36.5 -13z" />
    <glyph glyph-name="ae" unicode="&#xe6;" horiz-adv-x="684" 
d="M121 -10q-47 0 -75.5 43t-28.5 119q0 53 9.5 109.5t27.5 109.5t44.5 95.5t60.5 67.5t76 25q29 0 55.5 -14.5t40.5 -47.5h1l13 52h97l-5 -36q19 18 45 31.5t63 13.5q61 0 96.5 -37.5t35.5 -97.5q0 -65 -33 -108t-92.5 -64.5t-137.5 -21.5h-9q-2 -11 -3 -22t-1 -22
q0 -43 16.5 -63t50.5 -20q33 0 66 11t76 35l-24 -118q-38 -22 -72 -31t-74 -9q-38 0 -60.5 12t-32.5 30l-8 -32h-96l9 64h-2q-26 -33 -58 -53.5t-71 -20.5zM425 329h3q71 0 96.5 23.5t25.5 57.5q0 17 -10.5 28t-27.5 11q-22 0 -39 -19t-29 -46.5t-19 -54.5zM189 107
q25 0 43 25t29 60.5t18 65.5q11 46 14.5 73t3.5 47q0 60 -35 60q-21 0 -39 -26t-32.5 -67.5t-22.5 -87.5t-8 -86q0 -64 29 -64z" />
    <glyph glyph-name="ccedilla" unicode="&#xe7;" horiz-adv-x="377" 
d="M171 -10q-73 0 -112 46.5t-39 128.5q0 49 9 103.5t28 106t49.5 93.5t73.5 66.5t100 24.5q38 0 69 -9.5t59 -28.5l-57 -110q-14 12 -33 19.5t-36 7.5q-33 0 -55.5 -27.5t-36.5 -69t-20.5 -83.5t-6.5 -72q0 -76 45 -76q44 0 102 43v-119q-25 -18 -62.5 -31t-76.5 -13z
M109 -240q-20 0 -39 2t-39 8v78q11 -3 26 -5t30 -2q48 0 48 40q0 34 -56 37l50 82h69l-24 -38q30 -5 50 -25.5t20 -54.5q0 -67 -39.5 -94.5t-95.5 -27.5z" />
    <glyph glyph-name="egrave" unicode="&#xe8;" horiz-adv-x="440" 
d="M190 -10q-80 0 -125.5 47.5t-45.5 132.5q0 69 16 137.5t49 125.5t83.5 91t119.5 34q65 0 105 -36t40 -99q0 -97 -72 -145.5t-191 -48.5h-9q-5 -23 -5 -44q0 -45 17 -64t51 -19q33 0 61 8t66 30v-105q-40 -26 -79.5 -35.5t-80.5 -9.5zM180 329h3q71 0 96.5 23t25.5 58
q0 17 -10.5 28t-27.5 11q-25 0 -48 -30.5t-39 -89.5zM261 606q-12 17 -30 45t-35 57.5t-26 48.5v9h154q7 -31 17 -67.5t25 -80.5l-1 -12h-104z" />
    <glyph glyph-name="eacute" unicode="&#xe9;" horiz-adv-x="440" 
d="M190 -10q-80 0 -125.5 47.5t-45.5 132.5q0 69 16 137.5t49 125.5t83.5 91t119.5 34q65 0 105 -36t40 -99q0 -97 -72 -145.5t-191 -48.5h-9q-5 -23 -5 -44q0 -45 17 -64t51 -19q33 0 61 8t66 30v-105q-40 -26 -79.5 -35.5t-80.5 -9.5zM180 329h3q71 0 96.5 23t25.5 58
q0 17 -10.5 28t-27.5 11q-25 0 -48 -30.5t-39 -89.5zM205 606l2 10q29 38 55 75t49 75h155l-1 -8q-11 -12 -32.5 -33.5t-46.5 -45t-47 -43.5l-33 -30h-101z" />
    <glyph glyph-name="ecircumflex" unicode="&#xea;" horiz-adv-x="440" 
d="M190 -10q-80 0 -125.5 47.5t-45.5 132.5q0 69 16 137.5t49 125.5t83.5 91t119.5 34q65 0 105 -36t40 -99q0 -97 -72 -145.5t-191 -48.5h-9q-5 -23 -5 -44q0 -45 17 -64t51 -19q33 0 61 8t66 30v-105q-40 -26 -79.5 -35.5t-80.5 -9.5zM180 329h3q71 0 96.5 23t25.5 58
q0 17 -10.5 28t-27.5 11q-25 0 -48 -30.5t-39 -89.5zM144 606l2 11q33 35 63 72.5t56 76.5h126q4 -19 13.5 -46t20 -54t20.5 -47l-3 -13h-84q-11 14 -23.5 32.5t-25.5 41.5q-44 -49 -77 -74h-88z" />
    <glyph glyph-name="edieresis" unicode="&#xeb;" horiz-adv-x="440" 
d="M190 -10q-80 0 -125.5 47.5t-45.5 132.5q0 69 16 137.5t49 125.5t83.5 91t119.5 34q65 0 105 -36t40 -99q0 -97 -72 -145.5t-191 -48.5h-9q-5 -23 -5 -44q0 -45 17 -64t51 -19q33 0 61 8t66 30v-105q-40 -26 -79.5 -35.5t-80.5 -9.5zM180 329h3q71 0 96.5 23t25.5 58
q0 17 -10.5 28t-27.5 11q-25 0 -48 -30.5t-39 -89.5zM388 618q-55 0 -55 51q0 35 21 62t61 27q51 0 51 -50q0 -40 -23.5 -65t-54.5 -25zM209 618q-55 0 -55 51q0 35 21 62t61 27q23 0 37 -13t14 -37q0 -40 -23 -65t-55 -25z" />
    <glyph glyph-name="igrave" unicode="&#xec;" horiz-adv-x="236" 
d="M-9 0l117 549h138l-117 -549h-138zM147 606q-12 17 -30 45t-35 57.5t-26 48.5v9h154q7 -31 17 -67.5t25 -80.5l-1 -12h-104z" />
    <glyph glyph-name="iacute" unicode="&#xed;" horiz-adv-x="236" 
d="M-9 0l117 549h138l-117 -549h-138zM107 606l2 10q29 38 55 75t49 75h155l-1 -8q-11 -12 -32.5 -33.5t-46.5 -45t-47 -43.5l-33 -30h-101z" />
    <glyph glyph-name="icircumflex" unicode="&#xee;" horiz-adv-x="236" 
d="M-9 0l117 549h138l-117 -549h-138zM34 606l2 11q33 35 63 72.5t56 76.5h126q4 -19 13.5 -46t20 -54t20.5 -47l-3 -13h-84q-11 14 -23.5 32.5t-25.5 41.5q-44 -49 -77 -74h-88z" />
    <glyph glyph-name="idieresis" unicode="&#xef;" horiz-adv-x="236" 
d="M-9 0l117 549h138l-117 -549h-138zM277 618q-55 0 -55 51q0 35 21 62t61 27q51 0 51 -50q0 -40 -23.5 -65t-54.5 -25zM98 618q-55 0 -55 51q0 35 21 62t61 27q23 0 37 -13t14 -37q0 -40 -23 -65t-55 -25z" />
    <glyph glyph-name="eth" unicode="&#xf0;" horiz-adv-x="460" 
d="M178 -10q-80 0 -123 46t-43 132q0 48 14 103.5t42.5 105.5t72 81.5t102.5 31.5q21 0 36.5 -10t26.5 -25h2q0 36 -6 63.5t-20 54.5l-69 -50l-45 62l77 57q-10 11 -22.5 23.5t-26.5 24.5l71 77q19 -13 37 -27t34 -30l74 57l47 -63l-75 -56q29 -48 43 -102.5t14 -114.5
q0 -53 -7.5 -113.5t-25.5 -118.5t-48.5 -105t-75 -75.5t-106.5 -28.5zM193 107q20 0 37 20t30 51t20.5 65.5t7.5 64.5q0 63 -40 63q-21 0 -38.5 -20t-30 -50.5t-19.5 -64.5t-7 -63q0 -66 40 -66z" />
    <glyph glyph-name="ntilde" unicode="&#xf1;" horiz-adv-x="470" 
d="M-10 0l117 549h111l-4 -66h3q23 35 53.5 55.5t65.5 20.5q29 0 55 -11.5t42.5 -38.5t16.5 -73q0 -16 -3 -37.5t-8 -48.5l-74 -350h-139l67 314q5 23 8 44.5t3 36.5q0 39 -29 39q-31 0 -51 -42t-34 -106l-60 -286h-140zM155 610q9 43 22 78.5t36 56.5t58 21q31 0 51 -12.5
t34 -25t30 -12.5q14 0 22.5 11.5t14.5 39.5h79q-15 -88 -48 -122t-69 -34q-31 0 -50.5 12.5t-34 25t-30.5 12.5q-11 0 -21 -11.5t-16 -39.5h-78z" />
    <glyph glyph-name="ograve" unicode="&#xf2;" horiz-adv-x="460" 
d="M182 -10q-76 0 -119 48.5t-43 134.5q0 43 8.5 94.5t27.5 103t49.5 94t74 68.5t101.5 26q75 0 117.5 -49.5t42.5 -134.5q0 -47 -9.5 -100t-29 -103.5t-50 -91.5t-73 -65.5t-97.5 -24.5zM199 107q23 0 42 28.5t32.5 71.5t21 88.5t7.5 79.5q0 66 -39 66q-20 0 -36.5 -19
t-29 -50t-21 -67.5t-13 -71.5t-4.5 -61q0 -31 10 -48t30 -17zM249 606q-12 17 -30 45t-35 57.5t-26 48.5v9h154q7 -31 17 -67.5t25 -80.5l-1 -12h-104z" />
    <glyph glyph-name="oacute" unicode="&#xf3;" horiz-adv-x="460" 
d="M182 -10q-76 0 -119 48.5t-43 134.5q0 43 8.5 94.5t27.5 103t49.5 94t74 68.5t101.5 26q75 0 117.5 -49.5t42.5 -134.5q0 -47 -9.5 -100t-29 -103.5t-50 -91.5t-73 -65.5t-97.5 -24.5zM199 107q23 0 42 28.5t32.5 71.5t21 88.5t7.5 79.5q0 66 -39 66q-20 0 -36.5 -19
t-29 -50t-21 -67.5t-13 -71.5t-4.5 -61q0 -31 10 -48t30 -17zM221 606l2 10q29 38 55 75t49 75h155l-1 -8q-11 -12 -32.5 -33.5t-46.5 -45t-47 -43.5l-33 -30h-101z" />
    <glyph glyph-name="ocircumflex" unicode="&#xf4;" horiz-adv-x="460" 
d="M182 -10q-76 0 -119 48.5t-43 134.5q0 43 8.5 94.5t27.5 103t49.5 94t74 68.5t101.5 26q75 0 117.5 -49.5t42.5 -134.5q0 -47 -9.5 -100t-29 -103.5t-50 -91.5t-73 -65.5t-97.5 -24.5zM199 107q23 0 42 28.5t32.5 71.5t21 88.5t7.5 79.5q0 66 -39 66q-20 0 -36.5 -19
t-29 -50t-21 -67.5t-13 -71.5t-4.5 -61q0 -31 10 -48t30 -17zM140 606l2 11q33 35 63 72.5t56 76.5h126q4 -19 13.5 -46t20 -54t20.5 -47l-3 -13h-84q-11 14 -23.5 32.5t-25.5 41.5q-44 -49 -77 -74h-88z" />
    <glyph glyph-name="otilde" unicode="&#xf5;" horiz-adv-x="460" 
d="M182 -10q-76 0 -119 48.5t-43 134.5q0 43 8.5 94.5t27.5 103t49.5 94t74 68.5t101.5 26q75 0 117.5 -49.5t42.5 -134.5q0 -47 -9.5 -100t-29 -103.5t-50 -91.5t-73 -65.5t-97.5 -24.5zM199 107q23 0 42 28.5t32.5 71.5t21 88.5t7.5 79.5q0 66 -39 66q-20 0 -36.5 -19
t-29 -50t-21 -67.5t-13 -71.5t-4.5 -61q0 -31 10 -48t30 -17zM137 605q9 43 22 78.5t36 56.5t58 21q31 0 51 -12.5t34 -25t30 -12.5q14 0 22.5 11.5t14.5 39.5h79q-15 -88 -48 -122t-69 -34q-31 0 -50.5 12.5t-34 25t-30.5 12.5q-11 0 -21 -11.5t-16 -39.5h-78z" />
    <glyph glyph-name="odieresis" unicode="&#xf6;" horiz-adv-x="460" 
d="M182 -10q-76 0 -119 48.5t-43 134.5q0 43 8.5 94.5t27.5 103t49.5 94t74 68.5t101.5 26q75 0 117.5 -49.5t42.5 -134.5q0 -47 -9.5 -100t-29 -103.5t-50 -91.5t-73 -65.5t-97.5 -24.5zM199 107q23 0 42 28.5t32.5 71.5t21 88.5t7.5 79.5q0 66 -39 66q-20 0 -36.5 -19
t-29 -50t-21 -67.5t-13 -71.5t-4.5 -61q0 -31 10 -48t30 -17zM378 618q-55 0 -55 51q0 35 21 62t61 27q51 0 51 -50q0 -40 -23.5 -65t-54.5 -25zM199 618q-55 0 -55 51q0 35 21 62t61 27q23 0 37 -13t14 -37q0 -40 -23 -65t-55 -25z" />
    <glyph glyph-name="divide" unicode="&#xf7;" horiz-adv-x="485" 
d="M253 465q-34 0 -54 21t-20 60q0 81 74 81q72 0 72 -81q0 -39 -19 -60t-53 -21zM43 294v118h419v-118h-419zM253 78q-34 0 -54 21t-20 60q0 81 74 81q72 0 72 -81q0 -39 -19 -60t-53 -21z" />
    <glyph glyph-name="oslash" unicode="&#xf8;" horiz-adv-x="460" 
d="M55 -63l-62 38l55 84q-28 47 -28 114q0 42 8.5 93.5t27.5 103t49.5 94.5t74 69t101.5 26q23 0 43 -5.5t37 -15.5l39 60l62 -39l-47 -73q13 -22 20 -50t7 -61q0 -45 -9 -97.5t-28.5 -103t-50 -92.5t-73 -67t-98.5 -25q-45 0 -81 19zM155 205l143 222q-12 20 -34 20
q-20 0 -37.5 -20t-31 -52t-23.5 -69.5t-14 -72.5l-2 -14t-1 -14zM197 102q21 0 39 19.5t31.5 51.5t23 69t13.5 72q1 7 1 13t1 11l-141 -218q12 -18 32 -18z" />
    <glyph glyph-name="ugrave" unicode="&#xf9;" horiz-adv-x="470" 
d="M134 -10q-56 0 -84.5 32.5t-28.5 90.5q0 18 2.5 39.5t6.5 43.5l76 353h138l-67 -316q-11 -47 -11 -80q0 -38 30 -38q31 0 50.5 42t33.5 107l62 285h138l-116 -549h-111l3 65h-3q-23 -35 -53 -55t-66 -20zM250 606q-12 17 -30 45t-35 57.5t-26 48.5v9h154q7 -31 17 -67.5
t25 -80.5l-1 -12h-104z" />
    <glyph glyph-name="uacute" unicode="&#xfa;" horiz-adv-x="470" 
d="M134 -10q-56 0 -84.5 32.5t-28.5 90.5q0 18 2.5 39.5t6.5 43.5l76 353h138l-67 -316q-11 -47 -11 -80q0 -38 30 -38q31 0 50.5 42t33.5 107l62 285h138l-116 -549h-111l3 65h-3q-23 -35 -53 -55t-66 -20zM237 606l2 10q29 38 55 75t49 75h155l-1 -8q-11 -12 -32.5 -33.5
t-46.5 -45t-47 -43.5l-33 -30h-101z" />
    <glyph glyph-name="ucircumflex" unicode="&#xfb;" horiz-adv-x="470" 
d="M134 -10q-56 0 -84.5 32.5t-28.5 90.5q0 18 2.5 39.5t6.5 43.5l76 353h138l-67 -316q-11 -47 -11 -80q0 -38 30 -38q31 0 50.5 42t33.5 107l62 285h138l-116 -549h-111l3 65h-3q-23 -35 -53 -55t-66 -20zM149 606l2 11q33 35 63 72.5t56 76.5h126q4 -19 13.5 -46t20 -54
t20.5 -47l-3 -13h-84q-11 14 -23.5 32.5t-25.5 41.5q-44 -49 -77 -74h-88z" />
    <glyph glyph-name="udieresis" unicode="&#xfc;" horiz-adv-x="470" 
d="M134 -10q-56 0 -84.5 32.5t-28.5 90.5q0 18 2.5 39.5t6.5 43.5l76 353h138l-67 -316q-11 -47 -11 -80q0 -38 30 -38q31 0 50.5 42t33.5 107l62 285h138l-116 -549h-111l3 65h-3q-23 -35 -53 -55t-66 -20zM386 618q-55 0 -55 51q0 35 21 62t61 27q51 0 51 -50
q0 -40 -23.5 -65t-54.5 -25zM207 618q-55 0 -55 51q0 35 21 62t61 27q23 0 37 -13t14 -37q0 -40 -23 -65t-55 -25z" />
    <glyph glyph-name="yacute" unicode="&#xfd;" horiz-adv-x="427" 
d="M1 -240q-41 0 -70 9l25 125q22 -9 42 -9q22 0 35.5 14t26.5 40l32 69l-29 541h140l1 -239q0 -50 -3 -98h3q8 26 17 53.5t15 43.5l101 240h145l-286 -622q-22 -48 -47.5 -85.5t-61 -59.5t-86.5 -22zM219 606l2 10q29 38 55 75t49 75h155l-1 -8q-11 -12 -32.5 -33.5
t-46.5 -45t-47 -43.5l-33 -30h-101z" />
    <glyph glyph-name="thorn" unicode="&#xfe;" horiz-adv-x="469" 
d="M-59 -238l211 999h138l-46 -213q-3 -14 -5.5 -24.5t-6.5 -22.5h4q18 26 45 42t61 16q52 0 82 -40t30 -123q0 -47 -9 -102t-26.5 -108.5t-44 -98t-61.5 -71t-78 -26.5q-34 0 -58.5 19t-36.5 51h-3q-3 -26 -7 -48t-6 -36l-46 -214h-137zM209 111q19 0 34.5 19t28 50
t21.5 67t13.5 70.5t4.5 59.5q0 64 -29 64q-22 0 -40 -23t-32 -58.5t-22 -72.5q-16 -70 -16 -115q0 -61 37 -61z" />
    <glyph glyph-name="ydieresis" unicode="&#xff;" horiz-adv-x="427" 
d="M1 -240q-41 0 -70 9l25 125q22 -9 42 -9q22 0 35.5 14t26.5 40l32 69l-29 541h140l1 -239q0 -50 -3 -98h3q8 26 17 53.5t15 43.5l101 240h145l-286 -622q-22 -48 -47.5 -85.5t-61 -59.5t-86.5 -22zM372 618q-55 0 -55 51q0 35 21 62t61 27q51 0 51 -50q0 -40 -23.5 -65
t-54.5 -25zM193 618q-55 0 -55 51q0 35 21 62t61 27q23 0 37 -13t14 -37q0 -40 -23 -65t-55 -25z" />
    <glyph glyph-name="Amacron" unicode="&#x100;" horiz-adv-x="499" 
d="M-60 0l306 717h184l8 -717h-153l4 162h-128l-63 -162h-158zM209 288h87l7 203q1 24 2 46.5t3 48.5h-3q-4 -24 -10.5 -46t-14.5 -47zM215 793l21 101h270l-21 -101h-270z" />
    <glyph glyph-name="amacron" unicode="&#x101;" horiz-adv-x="470" 
d="M129 -10q-53 0 -82.5 43t-29.5 119q0 43 8 97t25 108.5t43 100t61.5 73.5t80.5 28q32 0 57.5 -18t38.5 -59h3l25 67h121l-117 -549h-112l-1 69h-4q-26 -35 -53 -57t-64 -22zM189 107q25 0 42.5 24.5t29.5 59.5t20 68q11 47 14 73t3 46q0 60 -36 60q-19 0 -34.5 -19
t-28 -50t-21.5 -67t-13.5 -70.5t-4.5 -59.5q0 -65 29 -65zM172 612l21 101h270l-21 -101h-270z" />
    <glyph glyph-name="Abreve" unicode="&#x102;" horiz-adv-x="499" 
d="M-60 0l306 717h184l8 -717h-153l4 162h-128l-63 -162h-158zM209 288h87l7 203q1 24 2 46.5t3 48.5h-3q-4 -24 -10.5 -46t-14.5 -47zM361 792q-67 0 -95.5 32t-28.5 82q0 12 2 26t4 29h85q0 -32 8 -51t33 -19q26 0 42.5 15.5t26.5 54.5h86q-14 -82 -57 -125.5t-106 -43.5z
" />
    <glyph glyph-name="abreve" unicode="&#x103;" horiz-adv-x="470" 
d="M129 -10q-53 0 -82.5 43t-29.5 119q0 43 8 97t25 108.5t43 100t61.5 73.5t80.5 28q32 0 57.5 -18t38.5 -59h3l25 67h121l-117 -549h-112l-1 69h-4q-26 -35 -53 -57t-64 -22zM189 107q25 0 42.5 24.5t29.5 59.5t20 68q11 47 14 73t3 46q0 60 -36 60q-19 0 -34.5 -19
t-28 -50t-21.5 -67t-13.5 -70.5t-4.5 -59.5q0 -65 29 -65zM318 611q-67 0 -95.5 32t-28.5 82q0 12 2 26t4 29h85q0 -32 8 -51t33 -19q26 0 42.5 15.5t26.5 54.5h86q-14 -82 -57 -125.5t-106 -43.5z" />
    <glyph glyph-name="Aogonek" unicode="&#x104;" horiz-adv-x="499" 
d="M-60 0l306 717h184l8 -717h-153l4 162h-128l-63 -162h-158zM209 288h87l7 203q1 24 2 46.5t3 48.5h-3q-4 -24 -10.5 -46t-14.5 -47zM311 -236q-45 0 -67 23t-22 58q0 47 29 85t72 70h85q-38 -38 -54 -65t-17 -52q0 -11 6.5 -17t15.5 -6q7 0 18.5 2t23.5 5l-19 -92
q-18 -7 -35.5 -9t-35.5 -2z" />
    <glyph glyph-name="aogonek" unicode="&#x105;" horiz-adv-x="470" 
d="M129 -10q-53 0 -82.5 43t-29.5 119q0 43 8 97t25 108.5t43 100t61.5 73.5t80.5 28q32 0 57.5 -18t38.5 -59h3l25 67h121l-117 -549h-112l-1 69h-4q-26 -35 -53 -57t-64 -22zM189 107q25 0 42.5 24.5t29.5 59.5t20 68q11 47 14 73t3 46q0 60 -36 60q-19 0 -34.5 -19
t-28 -50t-21.5 -67t-13.5 -70.5t-4.5 -59.5q0 -65 29 -65zM250 -236q-45 0 -67 23t-22 58q0 47 29 85t72 70h85q-38 -38 -54 -65t-17 -52q0 -11 6.5 -17t15.5 -6q7 0 18.5 2t23.5 5l-19 -92q-18 -7 -35.5 -9t-35.5 -2z" />
    <glyph glyph-name="Cacute" unicode="&#x106;" horiz-adv-x="449" 
d="M212 -10q-88 0 -132.5 61.5t-44.5 168.5q0 68 14 139t40.5 136t65.5 117t90 82t112 30q42 0 82.5 -10.5t74.5 -36.5l-69 -114q-43 34 -83 34q-36 0 -64.5 -28t-49.5 -73t-34.5 -96t-20 -97t-6.5 -76q0 -59 16.5 -84t47.5 -25q30 0 60 9.5t59 24.5v-129q-35 -17 -77.5 -25
t-80.5 -8zM287 771l2 10q29 38 55 75t49 75h155l-1 -8q-11 -12 -32.5 -33.5t-46.5 -45t-47 -43.5l-33 -30h-101z" />
    <glyph glyph-name="cacute" unicode="&#x107;" horiz-adv-x="377" 
d="M171 -10q-73 0 -112 46.5t-39 128.5q0 49 9 103.5t28 106t49.5 93.5t73.5 66.5t100 24.5q38 0 69 -9.5t59 -28.5l-57 -110q-14 12 -33 19.5t-36 7.5q-33 0 -55.5 -27.5t-36.5 -69t-20.5 -83.5t-6.5 -72q0 -76 45 -76q44 0 102 43v-119q-25 -18 -62.5 -31t-76.5 -13z
M226 606l2 10q29 38 55 75t49 75h155l-1 -8q-11 -12 -32.5 -33.5t-46.5 -45t-47 -43.5l-33 -30h-101z" />
    <glyph glyph-name="Ccircumflex" unicode="&#x108;" horiz-adv-x="449" 
d="M212 -10q-88 0 -132.5 61.5t-44.5 168.5q0 68 14 139t40.5 136t65.5 117t90 82t112 30q42 0 82.5 -10.5t74.5 -36.5l-69 -114q-43 34 -83 34q-36 0 -64.5 -28t-49.5 -73t-34.5 -96t-20 -97t-6.5 -76q0 -59 16.5 -84t47.5 -25q30 0 60 9.5t59 24.5v-129q-35 -17 -77.5 -25
t-80.5 -8zM215 771l2 11q33 35 63 72.5t56 76.5h126q4 -19 13.5 -46t20 -54t20.5 -47l-3 -13h-84q-11 14 -23.5 32.5t-25.5 41.5q-44 -49 -77 -74h-88z" />
    <glyph glyph-name="ccircumflex" unicode="&#x109;" horiz-adv-x="377" 
d="M171 -10q-73 0 -112 46.5t-39 128.5q0 49 9 103.5t28 106t49.5 93.5t73.5 66.5t100 24.5q38 0 69 -9.5t59 -28.5l-57 -110q-14 12 -33 19.5t-36 7.5q-33 0 -55.5 -27.5t-36.5 -69t-20.5 -83.5t-6.5 -72q0 -76 45 -76q44 0 102 43v-119q-25 -18 -62.5 -31t-76.5 -13z
M135 606l2 11q33 35 63 72.5t56 76.5h126q4 -19 13.5 -46t20 -54t20.5 -47l-3 -13h-84q-11 14 -23.5 32.5t-25.5 41.5q-44 -49 -77 -74h-88z" />
    <glyph glyph-name="Cdot" unicode="&#x10a;" horiz-adv-x="449" 
d="M212 -10q-88 0 -132.5 61.5t-44.5 168.5q0 68 14 139t40.5 136t65.5 117t90 82t112 30q42 0 82.5 -10.5t74.5 -36.5l-69 -114q-43 34 -83 34q-36 0 -64.5 -28t-49.5 -73t-34.5 -96t-20 -97t-6.5 -76q0 -59 16.5 -84t47.5 -25q30 0 60 9.5t59 24.5v-129q-35 -17 -77.5 -25
t-80.5 -8zM375 778q-34 0 -51 17t-17 45q0 36 22.5 64t66.5 28q67 0 67 -63q0 -36 -22.5 -63.5t-65.5 -27.5z" />
    <glyph glyph-name="cdot" unicode="&#x10b;" horiz-adv-x="377" 
d="M171 -10q-73 0 -112 46.5t-39 128.5q0 49 9 103.5t28 106t49.5 93.5t73.5 66.5t100 24.5q38 0 69 -9.5t59 -28.5l-57 -110q-14 12 -33 19.5t-36 7.5q-33 0 -55.5 -27.5t-36.5 -69t-20.5 -83.5t-6.5 -72q0 -76 45 -76q44 0 102 43v-119q-25 -18 -62.5 -31t-76.5 -13z
M299 612q-34 0 -51 17t-17 45q0 36 22.5 64t66.5 28q67 0 67 -63q0 -36 -22.5 -63.5t-65.5 -27.5z" />
    <glyph glyph-name="Ccaron" unicode="&#x10c;" horiz-adv-x="449" 
d="M212 -10q-88 0 -132.5 61.5t-44.5 168.5q0 68 14 139t40.5 136t65.5 117t90 82t112 30q42 0 82.5 -10.5t74.5 -36.5l-69 -114q-43 34 -83 34q-36 0 -64.5 -28t-49.5 -73t-34.5 -96t-20 -97t-6.5 -76q0 -59 16.5 -84t47.5 -25q30 0 60 9.5t59 24.5v-129q-35 -17 -77.5 -25
t-80.5 -8zM304 771q-8 31 -24.5 73.5t-30.5 73.5l3 13h84q11 -13 23 -31.5t25 -42.5q45 50 77 74h89l-2 -11q-16 -17 -39.5 -44.5t-45.5 -56.5t-34 -48h-125z" />
    <glyph glyph-name="ccaron" unicode="&#x10d;" horiz-adv-x="377" 
d="M171 -10q-73 0 -112 46.5t-39 128.5q0 49 9 103.5t28 106t49.5 93.5t73.5 66.5t100 24.5q38 0 69 -9.5t59 -28.5l-57 -110q-14 12 -33 19.5t-36 7.5q-33 0 -55.5 -27.5t-36.5 -69t-20.5 -83.5t-6.5 -72q0 -76 45 -76q44 0 102 43v-119q-25 -18 -62.5 -31t-76.5 -13z
M222 606q-8 31 -24.5 73.5t-30.5 73.5l3 13h84q11 -13 23 -31.5t25 -42.5q45 50 77 74h89l-2 -11q-16 -17 -39.5 -44.5t-45.5 -56.5t-34 -48h-125z" />
    <glyph glyph-name="Dcaron" unicode="&#x10e;" horiz-adv-x="523" 
d="M-3 0l151 714h151q108 0 164.5 -58.5t56.5 -164.5q0 -66 -13 -135.5t-40 -133t-69.5 -113.5t-100.5 -79.5t-134 -29.5h-166zM168 129h16q40 0 70 24t51.5 63.5t35 86t20 92.5t6.5 82q0 56 -20.5 82.5t-60.5 26.5h-21zM256 771q-8 31 -24.5 73.5t-30.5 73.5l3 13h84
q11 -13 23 -31.5t25 -42.5q45 50 77 74h89l-2 -11q-16 -17 -39.5 -44.5t-45.5 -56.5t-34 -48h-125z" />
    <glyph glyph-name="dcaron" unicode="&#x10f;" horiz-adv-x="593" 
d="M128 -10q-52 0 -81.5 43t-29.5 119q0 41 8 94.5t25 108t42 101t58.5 75t76.5 28.5q35 0 63 -15.5t41 -50.5h3q4 28 7.5 51.5t7.5 38.5l38 177h138l-162 -760h-112l-1 61h-4q-28 -34 -54 -52.5t-64 -18.5zM189 107q22 0 39 20t30.5 52.5t22 69.5t13 71t4.5 58q0 60 -36 60
q-20 0 -36.5 -21t-28.5 -54t-20.5 -70t-12.5 -69.5t-4 -52.5q0 -64 29 -64zM542 600v10q15 38 27 75t22 75h131v-10q-37 -81 -88 -150h-92z" />
    <glyph glyph-name="Dcroat" unicode="&#x110;" horiz-adv-x="523" 
d="M-3 0l66 316h-52l24 109h51l62 289h151q108 0 164.5 -58.5t56.5 -164.5q0 -68 -13.5 -137.5t-41.5 -133t-70.5 -113t-100 -78.5t-131.5 -29h-166zM168 129h16q41 0 72 25t52 65.5t34 88t19 92t6 77.5q0 56 -20.5 82.5t-60.5 26.5h-21l-35 -161h69l-23 -109h-69z" />
    <glyph glyph-name="dcroat" unicode="&#x111;" horiz-adv-x="470" 
d="M128 -10q-52 0 -81.5 43t-29.5 119q0 41 8 94.5t25 108t42 101t58.5 75t76.5 28.5q35 0 63 -15.5t41 -50.5h3q6 45 12 75l3 16h-77l22 100h77l16 76h138l-16 -76h55l-22 -100h-55l-124 -584h-112l-1 61h-4q-28 -34 -54 -52.5t-64 -18.5zM189 107q22 0 39 20t30.5 52.5
t22 69.5t13 71t4.5 58q0 60 -36 60q-20 0 -36.5 -21t-28.5 -54t-20.5 -70t-12.5 -69.5t-4 -52.5q0 -64 29 -64z" />
    <glyph glyph-name="Emacron" unicode="&#x112;" horiz-adv-x="406" 
d="M-3 0l151 714h307l-26 -125h-163l-34 -157h152l-27 -125h-151l-39 -180h164l-27 -127h-307zM172 772l21 101h270l-21 -101h-270z" />
    <glyph glyph-name="emacron" unicode="&#x113;" horiz-adv-x="440" 
d="M190 -10q-80 0 -125.5 47.5t-45.5 132.5q0 69 16 137.5t49 125.5t83.5 91t119.5 34q65 0 105 -36t40 -99q0 -97 -72 -145.5t-191 -48.5h-9q-5 -23 -5 -44q0 -45 17 -64t51 -19q33 0 61 8t66 30v-105q-40 -26 -79.5 -35.5t-80.5 -9.5zM180 329h3q71 0 96.5 23t25.5 58
q0 17 -10.5 28t-27.5 11q-25 0 -48 -30.5t-39 -89.5zM161 607l21 101h270l-21 -101h-270z" />
    <glyph glyph-name="Ebreve" unicode="&#x114;" horiz-adv-x="406" 
d="M-3 0l151 714h307l-26 -125h-163l-34 -157h152l-27 -125h-151l-39 -180h164l-27 -127h-307zM324 771q-67 0 -95.5 32t-28.5 82q0 12 2 26t4 29h85q0 -32 8 -51t33 -19q26 0 42.5 15.5t26.5 54.5h86q-14 -82 -57 -125.5t-106 -43.5z" />
    <glyph glyph-name="ebreve" unicode="&#x115;" horiz-adv-x="440" 
d="M190 -10q-80 0 -125.5 47.5t-45.5 132.5q0 69 16 137.5t49 125.5t83.5 91t119.5 34q65 0 105 -36t40 -99q0 -97 -72 -145.5t-191 -48.5h-9q-5 -23 -5 -44q0 -45 17 -64t51 -19q33 0 61 8t66 30v-105q-40 -26 -79.5 -35.5t-80.5 -9.5zM180 329h3q71 0 96.5 23t25.5 58
q0 17 -10.5 28t-27.5 11q-25 0 -48 -30.5t-39 -89.5zM322 606q-67 0 -95.5 32t-28.5 82q0 12 2 26t4 29h85q0 -32 8 -51t33 -19q26 0 42.5 15.5t26.5 54.5h86q-14 -82 -57 -125.5t-106 -43.5z" />
    <glyph glyph-name="Edotaccent" unicode="&#x116;" horiz-adv-x="406" 
d="M-3 0l151 714h307l-26 -125h-163l-34 -157h152l-27 -125h-151l-39 -180h164l-27 -127h-307zM311 763q-34 0 -51 17t-17 45q0 36 22.5 64t66.5 28q67 0 67 -63q0 -36 -22.5 -63.5t-65.5 -27.5z" />
    <glyph glyph-name="edotaccent" unicode="&#x117;" horiz-adv-x="440" 
d="M190 -10q-80 0 -125.5 47.5t-45.5 132.5q0 69 16 137.5t49 125.5t83.5 91t119.5 34q65 0 105 -36t40 -99q0 -97 -72 -145.5t-191 -48.5h-9q-5 -23 -5 -44q0 -45 17 -64t51 -19q33 0 61 8t66 30v-105q-40 -26 -79.5 -35.5t-80.5 -9.5zM180 329h3q71 0 96.5 23t25.5 58
q0 17 -10.5 28t-27.5 11q-25 0 -48 -30.5t-39 -89.5zM306 612q-34 0 -51 17t-17 45q0 36 22.5 64t66.5 28q67 0 67 -63q0 -36 -22.5 -63.5t-65.5 -27.5z" />
    <glyph glyph-name="Eogonek" unicode="&#x118;" horiz-adv-x="406" 
d="M-3 0l151 714h307l-26 -125h-163l-34 -157h152l-27 -125h-151l-39 -180h164l-27 -127h-307zM182 -236q-45 0 -67 23t-22 58q0 47 29 85t72 70h85q-38 -38 -54 -65t-17 -52q0 -11 6.5 -17t15.5 -6q7 0 18.5 2t23.5 5l-19 -92q-18 -7 -35.5 -9t-35.5 -2z" />
    <glyph glyph-name="eogonek" unicode="&#x119;" horiz-adv-x="440" 
d="M188 -228q-44 0 -66.5 23t-22.5 58q0 41 22.5 74.5t57.5 62.5q-75 4 -117.5 51t-42.5 129q0 69 16 137.5t49 125.5t83.5 91t119.5 34q65 0 105 -36t40 -99q0 -97 -72 -145.5t-191 -48.5h-9q-5 -23 -5 -44q0 -45 17 -64t51 -19q33 0 61 8t66 30v-105q-21 -14 -42 -23
q-51 -33 -71.5 -65t-21.5 -56q0 -11 6.5 -17t14.5 -6t19 2t24 5l-20 -92q-18 -7 -35.5 -9t-35.5 -2zM180 329h3q71 0 96.5 23t25.5 58q0 17 -10.5 28t-27.5 11q-25 0 -48 -30.5t-39 -89.5z" />
    <glyph glyph-name="Ecaron" unicode="&#x11a;" horiz-adv-x="406" 
d="M-3 0l151 714h307l-26 -125h-163l-34 -157h152l-27 -125h-151l-39 -180h164l-27 -127h-307zM241 771q-8 31 -24.5 73.5t-30.5 73.5l3 13h84q11 -13 23 -31.5t25 -42.5q45 50 77 74h89l-2 -11q-16 -17 -39.5 -44.5t-45.5 -56.5t-34 -48h-125z" />
    <glyph glyph-name="ecaron" unicode="&#x11b;" horiz-adv-x="440" 
d="M190 -10q-80 0 -125.5 47.5t-45.5 132.5q0 69 16 137.5t49 125.5t83.5 91t119.5 34q65 0 105 -36t40 -99q0 -97 -72 -145.5t-191 -48.5h-9q-5 -23 -5 -44q0 -45 17 -64t51 -19q33 0 61 8t66 30v-105q-40 -26 -79.5 -35.5t-80.5 -9.5zM180 329h3q71 0 96.5 23t25.5 58
q0 17 -10.5 28t-27.5 11q-25 0 -48 -30.5t-39 -89.5zM229 606q-8 31 -24.5 73.5t-30.5 73.5l3 13h84q11 -13 23 -31.5t25 -42.5q45 50 77 74h89l-2 -11q-16 -17 -39.5 -44.5t-45.5 -56.5t-34 -48h-125z" />
    <glyph glyph-name="Gcircumflex" unicode="&#x11c;" horiz-adv-x="533" 
d="M248 -10q-109 0 -160.5 60.5t-51.5 170.5q0 72 14.5 144t43 136.5t71.5 114.5t100.5 79t129.5 29q50 0 94.5 -12.5t72.5 -32.5l-63 -123q-55 41 -118 41q-44 0 -80 -34t-61.5 -88.5t-39 -117.5t-13.5 -122q0 -117 74 -117q27 0 52 7l33 159h-73l25 123h217l-80 -376
q-53 -20 -102 -30.5t-85 -10.5zM242 771l2 11q33 35 63 72.5t56 76.5h126q4 -19 13.5 -46t20 -54t20.5 -47l-3 -13h-84q-11 14 -23.5 32.5t-25.5 41.5q-44 -49 -77 -74h-88z" />
    <glyph glyph-name="gcircumflex" unicode="&#x11d;" horiz-adv-x="470" 
d="M122 -240q-44 0 -83.5 9.5t-65.5 23.5v124q24 -16 66.5 -28.5t79.5 -12.5q42 0 65 24t33 65l5 22q3 13 7.5 30t10.5 36h-2q-26 -35 -52.5 -49t-60.5 -14q-49 0 -79 40.5t-30 114.5q0 44 8.5 98.5t26 110t44.5 102t63 75t82 28.5q40 0 61.5 -18.5t32.5 -58.5h2l23 67h120
l-122 -581q-24 -111 -83 -159.5t-152 -48.5zM191 111q21 0 38 20.5t29.5 54t21.5 71t13.5 72.5t4.5 58q0 51 -37 51q-20 0 -36 -21t-28 -53.5t-20.5 -69t-12.5 -69t-4 -51.5q0 -63 31 -63zM150 611l2 11q33 35 63 72.5t56 76.5h126q4 -19 13.5 -46t20 -54t20.5 -47l-3 -13
h-84q-11 14 -23.5 32.5t-25.5 41.5q-44 -49 -77 -74h-88z" />
    <glyph glyph-name="Gbreve" unicode="&#x11e;" horiz-adv-x="533" 
d="M248 -10q-109 0 -160.5 60.5t-51.5 170.5q0 72 14.5 144t43 136.5t71.5 114.5t100.5 79t129.5 29q50 0 94.5 -12.5t72.5 -32.5l-63 -123q-55 41 -118 41q-44 0 -80 -34t-61.5 -88.5t-39 -117.5t-13.5 -122q0 -117 74 -117q27 0 52 7l33 159h-73l25 123h217l-80 -376
q-53 -20 -102 -30.5t-85 -10.5zM419 771q-67 0 -95.5 32t-28.5 82q0 12 2 26t4 29h85q0 -32 8 -51t33 -19q26 0 42.5 15.5t26.5 54.5h86q-14 -82 -57 -125.5t-106 -43.5z" />
    <glyph glyph-name="gbreve" unicode="&#x11f;" horiz-adv-x="470" 
d="M122 -240q-44 0 -83.5 9.5t-65.5 23.5v124q24 -16 66.5 -28.5t79.5 -12.5q42 0 65 24t33 65l5 22q3 13 7.5 30t10.5 36h-2q-26 -35 -52.5 -49t-60.5 -14q-49 0 -79 40.5t-30 114.5q0 44 8.5 98.5t26 110t44.5 102t63 75t82 28.5q40 0 61.5 -18.5t32.5 -58.5h2l23 67h120
l-122 -581q-24 -111 -83 -159.5t-152 -48.5zM191 111q21 0 38 20.5t29.5 54t21.5 71t13.5 72.5t4.5 58q0 51 -37 51q-20 0 -36 -21t-28 -53.5t-20.5 -69t-12.5 -69t-4 -51.5q0 -63 31 -63zM309 611q-67 0 -95.5 32t-28.5 82q0 12 2 26t4 29h85q0 -32 8 -51t33 -19
q26 0 42.5 15.5t26.5 54.5h86q-14 -82 -57 -125.5t-106 -43.5z" />
    <glyph glyph-name="Gdot" unicode="&#x120;" horiz-adv-x="533" 
d="M248 -10q-109 0 -160.5 60.5t-51.5 170.5q0 72 14.5 144t43 136.5t71.5 114.5t100.5 79t129.5 29q50 0 94.5 -12.5t72.5 -32.5l-63 -123q-55 41 -118 41q-44 0 -80 -34t-61.5 -88.5t-39 -117.5t-13.5 -122q0 -117 74 -117q27 0 52 7l33 159h-73l25 123h217l-80 -376
q-53 -20 -102 -30.5t-85 -10.5zM405 777q-34 0 -51 17t-17 45q0 36 22.5 64t66.5 28q67 0 67 -63q0 -36 -22.5 -63.5t-65.5 -27.5z" />
    <glyph glyph-name="gdot" unicode="&#x121;" horiz-adv-x="470" 
d="M122 -240q-44 0 -83.5 9.5t-65.5 23.5v124q24 -16 66.5 -28.5t79.5 -12.5q42 0 65 24t33 65l5 22q3 13 7.5 30t10.5 36h-2q-26 -35 -52.5 -49t-60.5 -14q-49 0 -79 40.5t-30 114.5q0 44 8.5 98.5t26 110t44.5 102t63 75t82 28.5q40 0 61.5 -18.5t32.5 -58.5h2l23 67h120
l-122 -581q-24 -111 -83 -159.5t-152 -48.5zM191 111q21 0 38 20.5t29.5 54t21.5 71t13.5 72.5t4.5 58q0 51 -37 51q-20 0 -36 -21t-28 -53.5t-20.5 -69t-12.5 -69t-4 -51.5q0 -63 31 -63zM304 612q-34 0 -51 17t-17 45q0 36 22.5 64t66.5 28q67 0 67 -63q0 -36 -22.5 -63.5
t-65.5 -27.5z" />
    <glyph glyph-name="uni0122" unicode="&#x122;" horiz-adv-x="533" 
d="M248 -10q-109 0 -160.5 60.5t-51.5 170.5q0 72 14.5 144t43 136.5t71.5 114.5t100.5 79t129.5 29q50 0 94.5 -12.5t72.5 -32.5l-63 -123q-55 41 -118 41q-44 0 -80 -34t-61.5 -88.5t-39 -117.5t-13.5 -122q0 -117 74 -117q27 0 52 7l33 159h-73l25 123h217l-80 -376
q-53 -20 -102 -30.5t-85 -10.5zM125 -221v13q8 19 18.5 45t20 53t14.5 49h131v-10q-16 -35 -42.5 -77.5t-49.5 -72.5h-92z" />
    <glyph glyph-name="uni0123" unicode="&#x123;" horiz-adv-x="470" 
d="M122 -240q-44 0 -83.5 9.5t-65.5 23.5v124q24 -16 66.5 -28.5t79.5 -12.5q42 0 65 24t33 65l5 22q3 13 7.5 30t10.5 36h-2q-26 -35 -52.5 -49t-60.5 -14q-49 0 -79 40.5t-30 114.5q0 44 8.5 98.5t26 110t44.5 102t63 75t82 28.5q40 0 61.5 -18.5t32.5 -58.5h2l23 67h120
l-122 -581q-24 -111 -83 -159.5t-152 -48.5zM191 111q21 0 38 20.5t29.5 54t21.5 71t13.5 72.5t4.5 58q0 51 -37 51q-20 0 -36 -21t-28 -53.5t-20.5 -69t-12.5 -69t-4 -51.5q0 -63 31 -63zM225 606v10q16 34 41.5 76t50.5 74h91l1 -11q-8 -19 -18.5 -47t-20.5 -56t-15 -46
h-130z" />
    <glyph glyph-name="Hcircumflex" unicode="&#x124;" horiz-adv-x="543" 
d="M-3 0l151 714h144l-59 -279h142l59 279h145l-152 -714h-145l65 308h-141l-65 -308h-144zM220 771l2 11q33 35 63 72.5t56 76.5h126q4 -19 13.5 -46t20 -54t20.5 -47l-3 -13h-84q-11 14 -23.5 32.5t-25.5 41.5q-44 -49 -77 -74h-88z" />
    <glyph glyph-name="hcircumflex" unicode="&#x125;" horiz-adv-x="470" 
d="M-9 0l161 760h139l-34 -155q-5 -26 -14 -56t-18 -58h2q22 33 49.5 50.5t64.5 17.5q51 0 80 -33.5t29 -91.5q0 -18 -3 -41t-8 -44l-74 -349h-138l66 313q5 22 8 42.5t3 39.5q0 17 -7.5 28t-25.5 11q-21 0 -41 -27t-36 -101l-64 -306h-139zM73 830l2 11q33 35 63 72.5
t56 76.5h126q4 -19 13.5 -46t20 -54t20.5 -47l-3 -13h-84q-11 14 -23.5 32.5t-25.5 41.5q-44 -49 -77 -74h-88z" />
    <glyph glyph-name="Hbar" unicode="&#x126;" horiz-adv-x="541" 
d="M-3 0l110 524h-56l22 100h55l20 90h144l-19 -90h142l19 90h145l-19 -90h55l-22 -100h-55l-111 -524h-145l65 308h-141l-65 -308h-144zM231 426h142l21 98h-142z" />
    <glyph glyph-name="hbar" unicode="&#x127;" horiz-adv-x="471" 
d="M-9 0l123 584h-53l21 100h54l16 76h139l-17 -76h83l-20 -100h-84q-10 -44 -17.5 -67.5t-15.5 -42.5h3q23 32 50 49t64 17q52 0 80.5 -33.5t28.5 -90.5q0 -19 -3 -41.5t-8 -43.5l-70 -331h-138l61 294q5 22 8.5 43t3.5 40q0 38 -31 38q-28 0 -46.5 -31t-31.5 -96l-61 -288
h-139z" />
    <glyph glyph-name="Itilde" unicode="&#x128;" horiz-adv-x="343" 
d="M-40 0l16 75l87 34l105 496l-73 34l15 75h307l-16 -75l-89 -34l-105 -496l75 -34l-16 -75h-306zM121 790q9 43 22 78.5t36 56.5t58 21q31 0 51 -12.5t34 -25t30 -12.5q14 0 22.5 11.5t14.5 39.5h79q-15 -88 -48 -122t-69 -34q-31 0 -50.5 12.5t-34 25t-30.5 12.5
q-11 0 -21 -11.5t-16 -39.5h-78z" />
    <glyph glyph-name="itilde" unicode="&#x129;" horiz-adv-x="236" 
d="M-9 0l117 549h138l-117 -549h-138zM27 605q9 43 22 78.5t36 56.5t58 21q31 0 51 -12.5t34 -25t30 -12.5q14 0 22.5 11.5t14.5 39.5h79q-15 -88 -48 -122t-69 -34q-31 0 -50.5 12.5t-34 25t-30.5 12.5q-11 0 -21 -11.5t-16 -39.5h-78z" />
    <glyph glyph-name="Imacron" unicode="&#x12a;" horiz-adv-x="343" 
d="M-40 0l16 75l87 34l105 496l-73 34l15 75h307l-16 -75l-89 -34l-105 -496l75 -34l-16 -75h-306zM142 792l21 101h270l-21 -101h-270z" />
    <glyph glyph-name="imacron" unicode="&#x12b;" horiz-adv-x="236" 
d="M-9 0l117 549h138l-117 -549h-138zM51 607l21 101h270l-21 -101h-270z" />
    <glyph glyph-name="Ibreve" unicode="&#x12c;" horiz-adv-x="343" 
d="M-40 0l16 75l87 34l105 496l-73 34l15 75h307l-16 -75l-89 -34l-105 -496l75 -34l-16 -75h-306zM288 791q-67 0 -95.5 32t-28.5 82q0 12 2 26t4 29h85q0 -32 8 -51t33 -19q26 0 42.5 15.5t26.5 54.5h86q-14 -82 -57 -125.5t-106 -43.5z" />
    <glyph glyph-name="ibreve" unicode="&#x12d;" horiz-adv-x="236" 
d="M-9 0l117 549h138l-117 -549h-138zM204 606q-67 0 -95.5 32t-28.5 82q0 12 2 26t4 29h85q0 -32 8 -51t33 -19q26 0 42.5 15.5t26.5 54.5h86q-14 -82 -57 -125.5t-106 -43.5z" />
    <glyph glyph-name="Iogonek" unicode="&#x12e;" horiz-adv-x="343" 
d="M-40 0l16 75l87 34l105 496l-73 34l15 75h307l-16 -75l-89 -34l-105 -496l75 -34l-16 -75h-306zM88 -236q-45 0 -67 23t-22 58q0 47 29 85t72 70h85q-38 -38 -54 -65t-17 -52q0 -11 6.5 -17t15.5 -6q7 0 18.5 2t23.5 5l-19 -92q-18 -7 -35.5 -9t-35.5 -2z" />
    <glyph glyph-name="iogonek" unicode="&#x12f;" horiz-adv-x="236" 
d="M194 612q-65 0 -65 55q0 23 9.5 46t29.5 38t51 15t48 -13.5t17 -41.5q0 -41 -25 -70t-65 -29zM-9 0l117 549h138l-116 -549h-139zM20 -236q-45 0 -67 23t-22 58q0 47 29 85t72 70h85q-38 -38 -54 -65t-17 -52q0 -11 6.5 -17t15.5 -6q7 0 18.5 2t23.5 5l-19 -92
q-18 -7 -35.5 -9t-35.5 -2z" />
    <glyph glyph-name="Idotaccent" unicode="&#x130;" horiz-adv-x="343" 
d="M-40 0l16 75l87 34l105 496l-73 34l15 75h307l-16 -75l-89 -34l-105 -496l75 -34l-16 -75h-306zM286 797q-34 0 -51 17t-17 45q0 36 22.5 64t66.5 28q67 0 67 -63q0 -36 -22.5 -63.5t-65.5 -27.5z" />
    <glyph glyph-name="IJ" unicode="&#x132;" horiz-adv-x="602" 
d="M-40 0l16 75l87 34l105 496l-73 34l15 75h307l-16 -75l-89 -34l-105 -496l75 -34l-16 -75h-306zM278 -215q-29 0 -49.5 3t-37.5 9l27 126q26 -13 52 -13t42 19.5t25 48.5t14 57l145 679h144l-148 -701q-26 -123 -81 -175.5t-133 -52.5z" />
    <glyph glyph-name="ij" unicode="&#x133;" horiz-adv-x="473" 
d="M194 612q-65 0 -65 55q0 23 9.5 46t29.5 38t51 15t48 -13.5t17 -41.5q0 -41 -25 -70t-65 -29zM-9 0l117 549h138l-116 -549h-139zM431 612q-65 0 -65 55q0 23 9.5 46t29 38t51.5 15q31 0 48 -13.5t17 -41.5q0 -41 -24.5 -70t-65.5 -29zM178 -240q-17 0 -33.5 1.5
t-34.5 8.5v121q9 -5 23.5 -7t24.5 -2q28 0 40.5 19t22.5 64l123 584h138l-126 -595q-13 -61 -33 -104.5t-54 -66.5t-91 -23z" />
    <glyph glyph-name="Jcircumflex" unicode="&#x134;" horiz-adv-x="256" 
d="M-68 -215q-29 0 -49.5 3t-37.5 9l27 126q26 -13 52 -13t42 19.5t25 48.5t14 57l145 679h144l-148 -701q-26 -123 -81 -175.5t-133 -52.5zM74 771l2 11q33 35 63 72.5t56 76.5h126q4 -19 13.5 -46t20 -54t20.5 -47l-3 -13h-84q-11 14 -23.5 32.5t-25.5 41.5
q-44 -49 -77 -74h-88z" />
    <glyph glyph-name="jcircumflex" unicode="&#x135;" horiz-adv-x="236" 
d="M-58 -240q-17 0 -33.5 1.5t-34.5 8.5v121q9 -5 23.5 -7t24.5 -2q28 0 40.5 19t22.5 64l123 584h138l-126 -595q-13 -61 -33 -104.5t-54 -66.5t-91 -23zM30 606l2 11q33 35 63 72.5t56 76.5h126q4 -19 13.5 -46t20 -54t20.5 -47l-3 -13h-84q-11 14 -23.5 32.5t-25.5 41.5
q-44 -49 -77 -74h-88z" />
    <glyph glyph-name="uni0136" unicode="&#x136;" horiz-adv-x="485" 
d="M-3 0l151 714h144l-64 -305l40 73l155 232h159l-226 -334l75 -380h-158l-43 277l-36 -28l-53 -249h-144zM81 -221v13q8 19 18.5 45t20 53t14.5 49h131v-10q-16 -35 -42.5 -77.5t-49.5 -72.5h-92z" />
    <glyph glyph-name="uni0137" unicode="&#x137;" horiz-adv-x="452" 
d="M-10 0l162 760h139l-68 -313q-5 -26 -12.5 -53.5t-16.5 -57.5h2l158 213h151l-179 -234l73 -315h-150l-43 203l-45 -42l-32 -161h-139zM63 -221v13q8 19 18.5 45t20 53t14.5 49h131v-10q-16 -35 -42.5 -77.5t-49.5 -72.5h-92z" />
    <glyph glyph-name="kgreenlandic" unicode="&#x138;" horiz-adv-x="452" 
d="M-10 0l117 549h139l-23 -102q-5 -27 -12.5 -54t-16.5 -57h2l158 213h151l-179 -234l73 -315h-150l-43 203l-45 -42l-32 -161h-139z" />
    <glyph glyph-name="Lacute" unicode="&#x139;" horiz-adv-x="384" 
d="M-3 0l151 714h144l-125 -587h170l-26 -127h-314zM169 771l2 10q29 38 55 75t49 75h155l-1 -8q-11 -12 -32.5 -33.5t-46.5 -45t-47 -43.5l-33 -30h-101z" />
    <glyph glyph-name="lacute" unicode="&#x13a;" horiz-adv-x="234" 
d="M-10 0l162 760h139l-162 -760h-139zM154 799l2 10q29 38 55 75t49 75h155l-1 -8q-11 -12 -32.5 -33.5t-46.5 -45t-47 -43.5l-33 -30h-101z" />
    <glyph glyph-name="uni013B" unicode="&#x13b;" horiz-adv-x="384" 
d="M-3 0l151 714h144l-125 -587h170l-26 -127h-314zM22 -221v13q8 19 18.5 45t20 53t14.5 49h131v-10q-16 -35 -42.5 -77.5t-49.5 -72.5h-92z" />
    <glyph glyph-name="uni013C" unicode="&#x13c;" horiz-adv-x="234" 
d="M-10 0l162 760h139l-162 -760h-139zM-70 -221v13q8 19 18.5 45t20 53t14.5 49h131v-10q-16 -35 -42.5 -77.5t-49.5 -72.5h-92z" />
    <glyph glyph-name="Lcaron" unicode="&#x13d;" horiz-adv-x="384" 
d="M-3 0l151 714h144l-125 -587h170l-26 -127h-314zM301 555v10q15 38 27 75t22 75h131v-10q-37 -81 -88 -150h-92z" />
    <glyph glyph-name="lcaron" unicode="&#x13e;" horiz-adv-x="357" 
d="M-10 0l162 760h139l-162 -760h-139zM306 600v10q15 38 27 75t22 75h131v-10q-37 -81 -88 -150h-92z" />
    <glyph glyph-name="Ldot" unicode="&#x13f;" horiz-adv-x="384" 
d="M-3 0l151 714h144l-125 -587h170l-26 -127h-314zM326 295q-34 0 -51 17t-17 45q0 36 22.5 64t66.5 28q67 0 67 -63q0 -36 -22.5 -63.5t-65.5 -27.5z" />
    <glyph glyph-name="ldot" unicode="&#x140;" horiz-adv-x="376" 
d="M-10 0l162 760h139l-162 -760h-139zM315 264q-34 0 -51 17t-17 45q0 36 22.5 64t66.5 28q67 0 67 -63q0 -36 -22.5 -63.5t-65.5 -27.5z" />
    <glyph glyph-name="Lslash" unicode="&#x141;" horiz-adv-x="401" 
d="M14 0l50 240l-35 -23l-57 83l124 87l69 327h145l-45 -207l72 49l58 -80l-160 -117l-51 -232h171l-26 -127h-315z" />
    <glyph glyph-name="lslash" unicode="&#x142;" horiz-adv-x="281" 
d="M12 0l64 297l-45 -21l-39 93l108 47l74 344h138l-61 -285l48 21l39 -92l-112 -49l-75 -355h-139z" />
    <glyph glyph-name="Nacute" unicode="&#x143;" horiz-adv-x="581" 
d="M-3 0l151 714h161l79 -449h3q7 43 14 83t12 67l64 299h136l-151 -714h-161l-80 461h-2q-7 -48 -14.5 -92t-12.5 -71l-64 -298h-135zM324 771l2 10q29 38 55 75t49 75h155l-1 -8q-11 -12 -32.5 -33.5t-46.5 -45t-47 -43.5l-33 -30h-101z" />
    <glyph glyph-name="nacute" unicode="&#x144;" horiz-adv-x="470" 
d="M-10 0l117 549h111l-4 -66h3q23 35 53.5 55.5t65.5 20.5q29 0 55 -11.5t42.5 -38.5t16.5 -73q0 -16 -3 -37.5t-8 -48.5l-74 -350h-139l67 314q5 23 8 44.5t3 36.5q0 39 -29 39q-31 0 -51 -42t-34 -106l-60 -286h-140zM236 606l2 10q29 38 55 75t49 75h155l-1 -8
q-11 -12 -32.5 -33.5t-46.5 -45t-47 -43.5l-33 -30h-101z" />
    <glyph glyph-name="uni0145" unicode="&#x145;" horiz-adv-x="581" 
d="M-3 0l151 714h161l79 -449h3q7 43 14 83t12 67l64 299h136l-151 -714h-161l-80 461h-2q-7 -48 -14.5 -92t-12.5 -71l-64 -298h-135zM114 -221v13q8 19 18.5 45t20 53t14.5 49h131v-10q-16 -35 -42.5 -77.5t-49.5 -72.5h-92z" />
    <glyph glyph-name="uni0146" unicode="&#x146;" horiz-adv-x="470" 
d="M-10 0l117 549h111l-4 -66h3q23 35 53.5 55.5t65.5 20.5q29 0 55 -11.5t42.5 -38.5t16.5 -73q0 -16 -3 -37.5t-8 -48.5l-74 -350h-139l67 314q5 23 8 44.5t3 36.5q0 39 -29 39q-31 0 -51 -42t-34 -106l-60 -286h-140zM50 -221v13q8 19 18.5 45t20 53t14.5 49h131v-10
q-16 -35 -42.5 -77.5t-49.5 -72.5h-92z" />
    <glyph glyph-name="Ncaron" unicode="&#x147;" horiz-adv-x="581" 
d="M-3 0l151 714h161l79 -449h3q7 43 14 83t12 67l64 299h136l-151 -714h-161l-80 461h-2q-7 -48 -14.5 -92t-12.5 -71l-64 -298h-135zM322 771q-8 31 -24.5 73.5t-30.5 73.5l3 13h84q11 -13 23 -31.5t25 -42.5q45 50 77 74h89l-2 -11q-16 -17 -39.5 -44.5t-45.5 -56.5
t-34 -48h-125z" />
    <glyph glyph-name="ncaron" unicode="&#x148;" horiz-adv-x="470" 
d="M-10 0l117 549h111l-4 -66h3q23 35 53.5 55.5t65.5 20.5q29 0 55 -11.5t42.5 -38.5t16.5 -73q0 -16 -3 -37.5t-8 -48.5l-74 -350h-139l67 314q5 23 8 44.5t3 36.5q0 39 -29 39q-31 0 -51 -42t-34 -106l-60 -286h-140zM238 606q-8 31 -24.5 73.5t-30.5 73.5l3 13h84
q11 -13 23 -31.5t25 -42.5q45 50 77 74h89l-2 -11q-16 -17 -39.5 -44.5t-45.5 -56.5t-34 -48h-125z" />
    <glyph glyph-name="napostrophe" unicode="&#x149;" horiz-adv-x="599" 
d="M119 0l117 549h111l-4 -66h3q23 35 53.5 55.5t65.5 20.5q29 0 55 -11.5t42.5 -38.5t16.5 -73q0 -16 -3 -37.5t-8 -48.5l-74 -350h-139l67 314q5 23 8 44.5t3 36.5q0 39 -29 39q-31 0 -51 -42t-34 -106l-60 -286h-140zM12 440q26 66 49.5 134t43.5 140h136l2 -10
q-53 -151 -117 -264h-114z" />
    <glyph glyph-name="Eng" unicode="&#x14a;" horiz-adv-x="581" 
d="M251 -215q-20 0 -39 2.5t-35 9.5l26 127q13 -6 26.5 -10t26.5 -4q30 0 46.5 24t25.5 68l-97 484h-3q-4 -39 -11 -79t-14 -69l-71 -338h-135l151 714h167l82 -413h3q6 40 12 74.5t11 62.5l58 276h136l-144 -684q-17 -74 -42.5 -129t-68 -85.5t-111.5 -30.5z" />
    <glyph glyph-name="eng" unicode="&#x14b;" horiz-adv-x="470" 
d="M176 -240q-44 0 -67 10v121q9 -5 23.5 -7t24.5 -2q29 0 41 18t22 65l73 349q5 23 8 44.5t3 36.5q0 39 -29 39q-21 0 -36.5 -18.5t-26.5 -48t-18 -63.5l-64 -304h-140l117 549h111l-4 -66h3q23 35 53.5 55.5t65.5 20.5q29 0 55 -11.5t42.5 -38.5t16.5 -73q0 -16 -3 -38
t-8 -48l-84 -396q-16 -74 -39 -116.5t-57.5 -60t-82.5 -17.5z" />
    <glyph glyph-name="Omacron" unicode="&#x14c;" horiz-adv-x="554" 
d="M230 -10q-100 0 -147.5 56.5t-47.5 177.5q0 67 13.5 137t40 135t65.5 116.5t90 82t114 30.5q100 0 146 -58.5t46 -172.5q0 -57 -11.5 -125t-35.5 -134.5t-61.5 -122t-90 -89t-121.5 -33.5zM240 119q31 0 56.5 26.5t45 70t32.5 94.5t19.5 100.5t6.5 87.5q0 100 -54 100
q-32 0 -57.5 -27t-44.5 -70.5t-32 -94t-19.5 -99t-6.5 -84.5q0 -61 14 -82.5t40 -21.5zM237 772l21 101h270l-21 -101h-270z" />
    <glyph glyph-name="omacron" unicode="&#x14d;" horiz-adv-x="460" 
d="M182 -10q-76 0 -119 48.5t-43 134.5q0 43 8.5 94.5t27.5 103t49.5 94t74 68.5t101.5 26q75 0 117.5 -49.5t42.5 -134.5q0 -47 -9.5 -100t-29 -103.5t-50 -91.5t-73 -65.5t-97.5 -24.5zM199 107q23 0 42 28.5t32.5 71.5t21 88.5t7.5 79.5q0 66 -39 66q-20 0 -36.5 -19
t-29 -50t-21 -67.5t-13 -71.5t-4.5 -61q0 -31 10 -48t30 -17zM153 607l21 101h270l-21 -101h-270z" />
    <glyph glyph-name="Obreve" unicode="&#x14e;" horiz-adv-x="554" 
d="M230 -10q-100 0 -147.5 56.5t-47.5 177.5q0 67 13.5 137t40 135t65.5 116.5t90 82t114 30.5q100 0 146 -58.5t46 -172.5q0 -57 -11.5 -125t-35.5 -134.5t-61.5 -122t-90 -89t-121.5 -33.5zM240 119q31 0 56.5 26.5t45 70t32.5 94.5t19.5 100.5t6.5 87.5q0 100 -54 100
q-32 0 -57.5 -27t-44.5 -70.5t-32 -94t-19.5 -99t-6.5 -84.5q0 -61 14 -82.5t40 -21.5zM392 771q-67 0 -95.5 32t-28.5 82q0 12 2 26t4 29h85q0 -32 8 -51t33 -19q26 0 42.5 15.5t26.5 54.5h86q-14 -82 -57 -125.5t-106 -43.5z" />
    <glyph glyph-name="obreve" unicode="&#x14f;" horiz-adv-x="460" 
d="M182 -10q-76 0 -119 48.5t-43 134.5q0 43 8.5 94.5t27.5 103t49.5 94t74 68.5t101.5 26q75 0 117.5 -49.5t42.5 -134.5q0 -47 -9.5 -100t-29 -103.5t-50 -91.5t-73 -65.5t-97.5 -24.5zM199 107q23 0 42 28.5t32.5 71.5t21 88.5t7.5 79.5q0 66 -39 66q-20 0 -36.5 -19
t-29 -50t-21 -67.5t-13 -71.5t-4.5 -61q0 -31 10 -48t30 -17zM313 606q-67 0 -95.5 32t-28.5 82q0 12 2 26t4 29h85q0 -32 8 -51t33 -19q26 0 42.5 15.5t26.5 54.5h86q-14 -82 -57 -125.5t-106 -43.5z" />
    <glyph glyph-name="Ohungarumlaut" unicode="&#x150;" horiz-adv-x="554" 
d="M230 -10q-100 0 -147.5 56.5t-47.5 177.5q0 67 13.5 137t40 135t65.5 116.5t90 82t114 30.5q100 0 146 -58.5t46 -172.5q0 -57 -11.5 -125t-35.5 -134.5t-61.5 -122t-90 -89t-121.5 -33.5zM240 119q31 0 56.5 26.5t45 70t32.5 94.5t19.5 100.5t6.5 87.5q0 100 -54 100
q-32 0 -57.5 -27t-44.5 -70.5t-32 -94t-19.5 -99t-6.5 -84.5q0 -61 14 -82.5t40 -21.5zM402 771l3 11q36 52 61.5 90t36.5 59h129l-1 -8q-14 -20 -40.5 -48t-57 -56t-55.5 -48h-76zM232 771l2 11q74 105 98 149h128l-1 -8q-12 -20 -38 -47t-59 -55t-62 -50h-68z" />
    <glyph glyph-name="ohungarumlaut" unicode="&#x151;" horiz-adv-x="460" 
d="M182 -10q-76 0 -119 48.5t-43 134.5q0 43 8.5 94.5t27.5 103t49.5 94t74 68.5t101.5 26q75 0 117.5 -49.5t42.5 -134.5q0 -47 -9.5 -100t-29 -103.5t-50 -91.5t-73 -65.5t-97.5 -24.5zM199 107q23 0 42 28.5t32.5 71.5t21 88.5t7.5 79.5q0 66 -39 66q-20 0 -36.5 -19
t-29 -50t-21 -67.5t-13 -71.5t-4.5 -61q0 -31 10 -48t30 -17zM320 606l3 11q36 52 61.5 90t36.5 59h129l-1 -8q-14 -20 -40.5 -48t-57 -56t-55.5 -48h-76zM150 606l2 11q74 105 98 149h128l-1 -8q-12 -20 -38 -47t-59 -55t-62 -50h-68z" />
    <glyph glyph-name="OE" unicode="&#x152;" horiz-adv-x="667" 
d="M211 -9q-62 0 -101 28t-57 76.5t-18 109.5q0 62 10.5 133t33 139t58.5 123.5t87.5 89t119.5 33.5q24 0 47 -2.5t37 -6.5h289l-26 -125h-163l-34 -157h151l-26 -125h-151l-39 -180h163l-26 -127h-289q-12 -2 -29.5 -5.5t-36.5 -3.5zM240 121q36 0 49 6l97 458
q-8 5 -18 8.5t-21 3.5q-31 0 -56.5 -26t-45 -68.5t-32.5 -92.5t-19.5 -99t-6.5 -87q0 -56 12.5 -79.5t40.5 -23.5z" />
    <glyph glyph-name="oe" unicode="&#x153;" horiz-adv-x="694" 
d="M170 -10q-68 0 -109 48.5t-41 135.5q0 38 8 88.5t25.5 102t46.5 96t71.5 71.5t100.5 27q50 0 76 -19.5t43 -53.5q29 34 69 53t81 19q65 0 105 -36t40 -99q0 -97 -72 -145.5t-191 -48.5h-10q-1 -11 -2.5 -22t-1.5 -22q0 -45 17 -64t51 -19q33 0 66 11t61 27v-104
q-76 -46 -160 -46q-94 0 -129 74q-26 -34 -62.5 -54t-82.5 -20zM435 329h4q70 0 95 23.5t25 57.5q0 17 -10.5 28t-27.5 11q-21 0 -39.5 -19.5t-31.5 -47.5t-15 -53zM199 107q23 0 42 28.5t32.5 71.5t21 88.5t7.5 80.5q0 65 -39 65q-23 0 -41.5 -28t-33 -71t-22 -89t-7.5 -81
q0 -65 40 -65z" />
    <glyph glyph-name="Racute" unicode="&#x154;" horiz-adv-x="482" 
d="M-3 0l151 714h147q102 0 150.5 -43t48.5 -122q0 -91 -37 -155t-100 -90l73 -304h-160l-49 274h-23l-57 -274h-144zM224 391h22q33 0 54 21t31 52.5t10 64.5q0 63 -59 63h-16zM242 771l2 10q29 38 55 75t49 75h155l-1 -8q-11 -12 -32.5 -33.5t-46.5 -45t-47 -43.5l-33 -30
h-101z" />
    <glyph glyph-name="racute" unicode="&#x155;" horiz-adv-x="332" 
d="M-9 0l116 549h109l-5 -82h4q26 48 54.5 70t70.5 22q18 0 42 -7l-42 -152q-21 9 -46 9q-30 0 -51 -19t-35 -48.5t-20 -62.5l-59 -279h-138zM180 606l2 10q29 38 55 75t49 75h155l-1 -8q-11 -12 -32.5 -33.5t-46.5 -45t-47 -43.5l-33 -30h-101z" />
    <glyph glyph-name="uni0156" unicode="&#x156;" horiz-adv-x="482" 
d="M-3 0l151 714h147q102 0 150.5 -43t48.5 -122q0 -91 -37 -155t-100 -90l73 -304h-160l-49 274h-23l-57 -274h-144zM224 391h22q33 0 54 21t31 52.5t10 64.5q0 63 -59 63h-16zM81 -221v13q8 19 18.5 45t20 53t14.5 49h131v-10q-16 -35 -42.5 -77.5t-49.5 -72.5h-92z" />
    <glyph glyph-name="uni0157" unicode="&#x157;" horiz-adv-x="332" 
d="M-9 0l116 549h109l-5 -82h4q26 48 54.5 70t70.5 22q18 0 42 -7l-42 -152q-21 9 -46 9q-30 0 -51 -19t-35 -48.5t-20 -62.5l-59 -279h-138zM-68 -221v13q8 19 18.5 45t20 53t14.5 49h131v-10q-16 -35 -42.5 -77.5t-49.5 -72.5h-92z" />
    <glyph glyph-name="Rcaron" unicode="&#x158;" horiz-adv-x="482" 
d="M-3 0l151 714h147q102 0 150.5 -43t48.5 -122q0 -91 -37 -155t-100 -90l73 -304h-160l-49 274h-23l-57 -274h-144zM224 391h22q33 0 54 21t31 52.5t10 64.5q0 63 -59 63h-16zM251 771q-8 31 -24.5 73.5t-30.5 73.5l3 13h84q11 -13 23 -31.5t25 -42.5q45 50 77 74h89
l-2 -11q-16 -17 -39.5 -44.5t-45.5 -56.5t-34 -48h-125z" />
    <glyph glyph-name="rcaron" unicode="&#x159;" horiz-adv-x="332" 
d="M-9 0l116 549h109l-5 -82h4q26 48 54.5 70t70.5 22q18 0 42 -7l-42 -152q-21 9 -46 9q-30 0 -51 -19t-35 -48.5t-20 -62.5l-59 -279h-138zM185 606q-8 31 -24.5 73.5t-30.5 73.5l3 13h84q11 -13 23 -31.5t25 -42.5q45 50 77 74h89l-2 -11q-16 -17 -39.5 -44.5
t-45.5 -56.5t-34 -48h-125z" />
    <glyph glyph-name="Sacute" unicode="&#x15a;" horiz-adv-x="420" 
d="M142 -10q-50 0 -90 10t-72 33l30 148q26 -21 62 -38t71 -17q31 0 57.5 18t26.5 65q0 27 -11.5 49t-49.5 56q-45 40 -66.5 81.5t-21.5 103.5q0 63 26 114t78 81t130 30q39 0 81.5 -12t76.5 -38l-65 -130q-58 46 -101 46q-29 0 -51.5 -19t-22.5 -58q0 -25 14 -48t54 -57
q44 -37 63.5 -80t19.5 -103q0 -61 -26 -115t-79.5 -87t-133.5 -33zM232 771l2 10q29 38 55 75t49 75h155l-1 -8q-11 -12 -32.5 -33.5t-46.5 -45t-47 -43.5l-33 -30h-101z" />
    <glyph glyph-name="sacute" unicode="&#x15b;" horiz-adv-x="369" 
d="M133 -10q-49 0 -80 8t-57 23v130q27 -19 60 -29.5t59 -10.5q25 0 42.5 12.5t17.5 37.5q0 17 -9.5 35.5t-42.5 47.5q-42 36 -55 69t-13 70q0 49 20 88.5t59 63.5t97 24q45 0 85 -12.5t68 -32.5l-54 -105q-23 19 -49 28t-42 9q-19 0 -30.5 -11t-11.5 -31q0 -18 8 -32.5
t41 -42.5q38 -32 56.5 -64t18.5 -90q0 -50 -22 -92.5t-64.5 -67.5t-101.5 -25zM190 606l2 10q29 38 55 75t49 75h155l-1 -8q-11 -12 -32.5 -33.5t-46.5 -45t-47 -43.5l-33 -30h-101z" />
    <glyph glyph-name="Scircumflex" unicode="&#x15c;" horiz-adv-x="420" 
d="M142 -10q-50 0 -90 10t-72 33l30 148q26 -21 62 -38t71 -17q31 0 57.5 18t26.5 65q0 27 -11.5 49t-49.5 56q-45 40 -66.5 81.5t-21.5 103.5q0 63 26 114t78 81t130 30q39 0 81.5 -12t76.5 -38l-65 -130q-58 46 -101 46q-29 0 -51.5 -19t-22.5 -58q0 -25 14 -48t54 -57
q44 -37 63.5 -80t19.5 -103q0 -61 -26 -115t-79.5 -87t-133.5 -33zM162 771l2 11q33 35 63 72.5t56 76.5h126q4 -19 13.5 -46t20 -54t20.5 -47l-3 -13h-84q-11 14 -23.5 32.5t-25.5 41.5q-44 -49 -77 -74h-88z" />
    <glyph glyph-name="scircumflex" unicode="&#x15d;" horiz-adv-x="369" 
d="M133 -10q-49 0 -80 8t-57 23v130q27 -19 60 -29.5t59 -10.5q25 0 42.5 12.5t17.5 37.5q0 17 -9.5 35.5t-42.5 47.5q-42 36 -55 69t-13 70q0 49 20 88.5t59 63.5t97 24q45 0 85 -12.5t68 -32.5l-54 -105q-23 19 -49 28t-42 9q-19 0 -30.5 -11t-11.5 -31q0 -18 8 -32.5
t41 -42.5q38 -32 56.5 -64t18.5 -90q0 -50 -22 -92.5t-64.5 -67.5t-101.5 -25zM94 606l2 11q33 35 63 72.5t56 76.5h126q4 -19 13.5 -46t20 -54t20.5 -47l-3 -13h-84q-11 14 -23.5 32.5t-25.5 41.5q-44 -49 -77 -74h-88z" />
    <glyph glyph-name="Scedilla" unicode="&#x15e;" horiz-adv-x="420" 
d="M142 -10q-50 0 -90 10t-72 33l30 148q26 -21 62 -38t71 -17q31 0 57.5 18t26.5 65q0 27 -11.5 49t-49.5 56q-45 40 -66.5 81.5t-21.5 103.5q0 63 26 114t78 81t130 30q39 0 81.5 -12t76.5 -38l-65 -130q-58 46 -101 46q-29 0 -51.5 -19t-22.5 -58q0 -25 14 -48t54 -57
q44 -37 63.5 -80t19.5 -103q0 -61 -26 -115t-79.5 -87t-133.5 -33zM96 -240q-20 0 -39 2t-39 8v78q11 -3 26 -5t30 -2q48 0 48 40q0 34 -56 37l50 82h69l-24 -38q30 -5 50 -25.5t20 -54.5q0 -67 -39.5 -94.5t-95.5 -27.5z" />
    <glyph glyph-name="scedilla" unicode="&#x15f;" horiz-adv-x="369" 
d="M133 -10q-49 0 -80 8t-57 23v130q27 -19 60 -29.5t59 -10.5q25 0 42.5 12.5t17.5 37.5q0 17 -9.5 35.5t-42.5 47.5q-42 36 -55 69t-13 70q0 49 20 88.5t59 63.5t97 24q45 0 85 -12.5t68 -32.5l-54 -105q-23 19 -49 28t-42 9q-19 0 -30.5 -11t-11.5 -31q0 -18 8 -32.5
t41 -42.5q38 -32 56.5 -64t18.5 -90q0 -50 -22 -92.5t-64.5 -67.5t-101.5 -25zM69 -240q-20 0 -39 2t-39 8v78q11 -3 26 -5t30 -2q48 0 48 40q0 34 -56 37l50 82h69l-24 -38q30 -5 50 -25.5t20 -54.5q0 -67 -39.5 -94.5t-95.5 -27.5z" />
    <glyph glyph-name="Scaron" unicode="&#x160;" horiz-adv-x="420" 
d="M142 -10q-50 0 -90 10t-72 33l30 148q26 -21 62 -38t71 -17q31 0 57.5 18t26.5 65q0 27 -11.5 49t-49.5 56q-45 40 -66.5 81.5t-21.5 103.5q0 63 26 114t78 81t130 30q39 0 81.5 -12t76.5 -38l-65 -130q-58 46 -101 46q-29 0 -51.5 -19t-22.5 -58q0 -25 14 -48t54 -57
q44 -37 63.5 -80t19.5 -103q0 -61 -26 -115t-79.5 -87t-133.5 -33zM255 771q-8 31 -24.5 73.5t-30.5 73.5l3 13h84q11 -13 23 -31.5t25 -42.5q45 50 77 74h89l-2 -11q-16 -17 -39.5 -44.5t-45.5 -56.5t-34 -48h-125z" />
    <glyph glyph-name="scaron" unicode="&#x161;" horiz-adv-x="369" 
d="M133 -10q-49 0 -80 8t-57 23v130q27 -19 60 -29.5t59 -10.5q25 0 42.5 12.5t17.5 37.5q0 17 -9.5 35.5t-42.5 47.5q-42 36 -55 69t-13 70q0 49 20 88.5t59 63.5t97 24q45 0 85 -12.5t68 -32.5l-54 -105q-23 19 -49 28t-42 9q-19 0 -30.5 -11t-11.5 -31q0 -18 8 -32.5
t41 -42.5q38 -32 56.5 -64t18.5 -90q0 -50 -22 -92.5t-64.5 -67.5t-101.5 -25zM184 606q-8 31 -24.5 73.5t-30.5 73.5l3 13h84q11 -13 23 -31.5t25 -42.5q45 50 77 74h89l-2 -11q-16 -17 -39.5 -44.5t-45.5 -56.5t-34 -48h-125z" />
    <glyph glyph-name="uni021A" unicode="&#x21a;" horiz-adv-x="407" 
d="M71 0l125 586h-117l27 128h379l-27 -128h-118l-124 -586h-145zM12 -221v13q8 19 18.5 45t20 53t14.5 49h131v-10q-16 -35 -42.5 -77.5t-49.5 -72.5h-92z" />
    <glyph glyph-name="uni021B" unicode="&#x21b;" horiz-adv-x="315" 
d="M142 -10q-58 0 -82.5 33.5t-24.5 85.5q0 17 2.5 37t8.5 47l51 240h-50l15 73l71 39l53 117h98l-25 -113h89l-24 -116h-89l-55 -259q-2 -9 -3.5 -17.5t-1.5 -15.5q0 -29 28 -29q7 0 24 3t33 10v-111q-25 -14 -59 -19t-59 -5zM9 -221v13q8 19 18.5 45t20 53t14.5 49h131
v-10q-16 -35 -42.5 -77.5t-49.5 -72.5h-92z" />
    <glyph glyph-name="Tcaron" unicode="&#x164;" horiz-adv-x="407" 
d="M71 0l125 586h-117l27 128h379l-27 -128h-118l-124 -586h-145zM240 771q-8 31 -24.5 73.5t-30.5 73.5l3 13h84q11 -13 23 -31.5t25 -42.5q45 50 77 74h89l-2 -11q-16 -17 -39.5 -44.5t-45.5 -56.5t-34 -48h-125z" />
    <glyph glyph-name="tcaron" unicode="&#x165;" horiz-adv-x="357" 
d="M142 -10q-58 0 -82.5 33.5t-24.5 85.5q0 17 2.5 37t8.5 47l51 240h-50l15 73l71 39l53 117h98l-25 -113h89l-24 -116h-89l-55 -259q-2 -9 -3.5 -17.5t-1.5 -15.5q0 -29 28 -29q7 0 24 3t33 10v-111q-25 -14 -59 -19t-59 -5zM316 603v10q15 38 27 75t22 75h131v-10
q-37 -81 -88 -150h-92z" />
    <glyph glyph-name="Tbar" unicode="&#x166;" horiz-adv-x="407" 
d="M71 0l63 297h-76l23 109h76l38 180h-116l26 128h379l-26 -128h-118l-38 -180h77l-22 -109h-79l-62 -297h-145z" />
    <glyph glyph-name="tbar" unicode="&#x167;" horiz-adv-x="315" 
d="M142 -10q-58 0 -82.5 33.5t-24.5 84.5q0 17 2.5 37t8.5 47l8 43h-47l21 99h48l21 99h-50l15 73l71 39l53 117h98l-25 -113h89l-24 -116h-89l-22 -99h84l-22 -99h-82l-13 -61q-2 -9 -3.5 -17.5t-1.5 -14.5q0 -30 29 -30q8 0 23.5 3t32.5 10v-111q-25 -14 -59 -19t-59 -5z
" />
    <glyph glyph-name="Utilde" unicode="&#x168;" horiz-adv-x="525" 
d="M209 -10q-82 0 -128.5 44t-46.5 124q0 17 3 39.5t7 45.5l101 471h144l-100 -474q-5 -16 -6.5 -31.5t-1.5 -26.5q0 -63 47 -63q35 0 56 28.5t35 95.5l101 471h144l-105 -492q-23 -112 -82 -172t-168 -60zM208 770q9 43 22 78.5t36 56.5t58 21q31 0 51 -12.5t34 -25
t30 -12.5q14 0 22.5 11.5t14.5 39.5h79q-15 -88 -48 -122t-69 -34q-31 0 -50.5 12.5t-34 25t-30.5 12.5q-11 0 -21 -11.5t-16 -39.5h-78z" />
    <glyph glyph-name="utilde" unicode="&#x169;" horiz-adv-x="470" 
d="M134 -10q-56 0 -84.5 32.5t-28.5 90.5q0 18 2.5 39.5t6.5 43.5l76 353h138l-67 -316q-11 -47 -11 -80q0 -38 30 -38q31 0 50.5 42t33.5 107l62 285h138l-116 -549h-111l3 65h-3q-23 -35 -53 -55t-66 -20zM149 605q9 43 22 78.5t36 56.5t58 21q31 0 51 -12.5t34 -25
t30 -12.5q14 0 22.5 11.5t14.5 39.5h79q-15 -88 -48 -122t-69 -34q-31 0 -50.5 12.5t-34 25t-30.5 12.5q-11 0 -21 -11.5t-16 -39.5h-78z" />
    <glyph glyph-name="Umacron" unicode="&#x16a;" horiz-adv-x="525" 
d="M209 -10q-82 0 -128.5 44t-46.5 124q0 17 3 39.5t7 45.5l101 471h144l-100 -474q-5 -16 -6.5 -31.5t-1.5 -26.5q0 -63 47 -63q35 0 56 28.5t35 95.5l101 471h144l-105 -492q-23 -112 -82 -172t-168 -60zM223 772l21 101h270l-21 -101h-270z" />
    <glyph glyph-name="umacron" unicode="&#x16b;" horiz-adv-x="471" 
d="M134 -10q-56 0 -84.5 32.5t-28.5 90.5q0 18 2.5 39.5t6.5 43.5l76 353h138l-67 -316q-11 -47 -11 -80q0 -38 30 -38q31 0 50.5 42t33.5 107l62 285h138l-116 -549h-111l3 65h-3q-23 -35 -53 -55t-66 -20zM164 607l21 101h270l-21 -101h-270z" />
    <glyph glyph-name="Ubreve" unicode="&#x16c;" horiz-adv-x="525" 
d="M209 -10q-82 0 -128.5 44t-46.5 124q0 17 3 39.5t7 45.5l101 471h144l-100 -474q-5 -16 -6.5 -31.5t-1.5 -26.5q0 -63 47 -63q35 0 56 28.5t35 95.5l101 471h144l-105 -492q-23 -112 -82 -172t-168 -60zM379 771q-67 0 -95.5 32t-28.5 82q0 12 2 26t4 29h85q0 -32 8 -51
t33 -19q26 0 42.5 15.5t26.5 54.5h86q-14 -82 -57 -125.5t-106 -43.5z" />
    <glyph glyph-name="ubreve" unicode="&#x16d;" horiz-adv-x="470" 
d="M134 -10q-56 0 -84.5 32.5t-28.5 90.5q0 18 2.5 39.5t6.5 43.5l76 353h138l-67 -316q-11 -47 -11 -80q0 -38 30 -38q31 0 50.5 42t33.5 107l62 285h138l-116 -549h-111l3 65h-3q-23 -35 -53 -55t-66 -20zM322 606q-67 0 -95.5 32t-28.5 82q0 12 2 26t4 29h85q0 -32 8 -51
t33 -19q26 0 42.5 15.5t26.5 54.5h86q-14 -82 -57 -125.5t-106 -43.5z" />
    <glyph glyph-name="Uring" unicode="&#x16e;" horiz-adv-x="525" 
d="M209 -10q-82 0 -128.5 44t-46.5 124q0 17 3 39.5t7 45.5l101 471h144l-100 -474q-5 -16 -6.5 -31.5t-1.5 -26.5q0 -63 47 -63q35 0 56 28.5t35 95.5l101 471h144l-105 -492q-23 -112 -82 -172t-168 -60zM369 771q-57 0 -88.5 32t-31.5 85q0 52 32.5 83.5t87.5 31.5
q50 0 83.5 -31t33.5 -82q0 -53 -31.5 -86t-85.5 -33zM369 840q20 0 33 13t13 34t-12.5 34.5t-33.5 13.5q-23 0 -35.5 -13.5t-12.5 -34.5t11.5 -34t36.5 -13z" />
    <glyph glyph-name="uring" unicode="&#x16f;" horiz-adv-x="470" 
d="M134 -10q-56 0 -84.5 32.5t-28.5 90.5q0 18 2.5 39.5t6.5 43.5l76 353h138l-67 -316q-11 -47 -11 -80q0 -38 30 -38q31 0 50.5 42t33.5 107l62 285h138l-116 -549h-111l3 65h-3q-23 -35 -53 -55t-66 -20zM325 606q-57 0 -88.5 32t-31.5 85q0 52 32.5 83.5t87.5 31.5
q50 0 83.5 -31t33.5 -82q0 -53 -31.5 -86t-85.5 -33zM325 675q20 0 33 13t13 34t-12.5 34.5t-33.5 13.5q-23 0 -35.5 -13.5t-12.5 -34.5t11.5 -34t36.5 -13z" />
    <glyph glyph-name="Uhungarumlaut" unicode="&#x170;" horiz-adv-x="525" 
d="M209 -10q-82 0 -128.5 44t-46.5 124q0 17 3 39.5t7 45.5l101 471h144l-100 -474q-5 -16 -6.5 -31.5t-1.5 -26.5q0 -63 47 -63q35 0 56 28.5t35 95.5l101 471h144l-105 -492q-23 -112 -82 -172t-168 -60zM391 771l3 11q36 52 61.5 90t36.5 59h129l-1 -8q-14 -20 -40.5 -48
t-57 -56t-55.5 -48h-76zM221 771l2 11q74 105 98 149h128l-1 -8q-12 -20 -38 -47t-59 -55t-62 -50h-68z" />
    <glyph glyph-name="uhungarumlaut" unicode="&#x171;" horiz-adv-x="470" 
d="M134 -10q-56 0 -84.5 32.5t-28.5 90.5q0 18 2.5 39.5t6.5 43.5l76 353h138l-67 -316q-11 -47 -11 -80q0 -38 30 -38q31 0 50.5 42t33.5 107l62 285h138l-116 -549h-111l3 65h-3q-23 -35 -53 -55t-66 -20zM323 606l3 11q36 52 61.5 90t36.5 59h129l-1 -8
q-14 -20 -40.5 -48t-57 -56t-55.5 -48h-76zM153 606l2 11q74 105 98 149h128l-1 -8q-12 -20 -38 -47t-59 -55t-62 -50h-68z" />
    <glyph glyph-name="Uogonek" unicode="&#x172;" horiz-adv-x="525" 
d="M209 -10q-82 0 -128.5 44t-46.5 124q0 17 3 39.5t7 45.5l101 471h144l-100 -474q-5 -16 -6.5 -31.5t-1.5 -26.5q0 -63 47 -63q35 0 56 28.5t35 95.5l101 471h144l-105 -492q-23 -112 -82 -172t-168 -60zM182 -236q-45 0 -67 23t-22 58q0 47 29 85t72 70h85
q-38 -38 -54 -65t-17 -52q0 -11 6.5 -17t15.5 -6q7 0 18.5 2t23.5 5l-19 -92q-18 -7 -35.5 -9t-35.5 -2z" />
    <glyph glyph-name="uogonek" unicode="&#x173;" horiz-adv-x="470" 
d="M134 -10q-56 0 -84.5 32.5t-28.5 90.5q0 18 2.5 39.5t6.5 43.5l76 353h138l-67 -316q-11 -47 -11 -80q0 -38 30 -38q31 0 50.5 42t33.5 107l62 285h138l-116 -549h-111l3 65h-3q-23 -35 -53 -55t-66 -20zM266 -236q-45 0 -67 23t-22 58q0 47 29 85t72 70h85
q-38 -38 -54 -65t-17 -52q0 -11 6.5 -17t15.5 -6q7 0 18.5 2t23.5 5l-19 -92q-18 -7 -35.5 -9t-35.5 -2z" />
    <glyph glyph-name="Wcircumflex" unicode="&#x174;" horiz-adv-x="720" 
d="M67 0l24 714h140l-15 -336q-2 -40 -5 -72.5t-6 -55.5h2q11 32 23 63t25 64l135 337h120l-12 -334q-2 -40 -4 -68.5t-4 -60.5h2q9 30 20.5 60.5t25.5 67.5l126 335h146l-275 -714h-165l8 304q0 21 2 47t4 53h-2q-8 -23 -15.5 -45.5t-16.5 -45.5l-120 -313h-163zM307 771
l2 11q33 35 63 72.5t56 76.5h126q4 -19 13.5 -46t20 -54t20.5 -47l-3 -13h-84q-11 14 -23.5 32.5t-25.5 41.5q-44 -49 -77 -74h-88z" />
    <glyph glyph-name="wcircumflex" unicode="&#x175;" horiz-adv-x="643" 
d="M51 0l13 549h135l-9 -208q-2 -31 -5.5 -60.5t-5.5 -57.5h3q7 23 16 52t19 56l83 218h157l-12 -217q-1 -31 -4 -61t-5 -56h3q10 31 20.5 64.5t22.5 64.5l76 205h138l-220 -549h-160l16 271l4 46t3 46h-3q-7 -21 -13 -40t-13 -39l-106 -284h-153zM241 606l2 11
q33 35 63 72.5t56 76.5h126q4 -19 13.5 -46t20 -54t20.5 -47l-3 -13h-84q-11 14 -23.5 32.5t-25.5 41.5q-44 -49 -77 -74h-88z" />
    <glyph glyph-name="Ycircumflex" unicode="&#x176;" horiz-adv-x="455" 
d="M95 0l57 270l-61 444h150l21 -255l129 255h154l-247 -439l-58 -275h-145zM170 771l2 11q33 35 63 72.5t56 76.5h126q4 -19 13.5 -46t20 -54t20.5 -47l-3 -13h-84q-11 14 -23.5 32.5t-25.5 41.5q-44 -49 -77 -74h-88z" />
    <glyph glyph-name="ycircumflex" unicode="&#x177;" horiz-adv-x="427" 
d="M1 -240q-41 0 -70 9l25 125q22 -9 42 -9q22 0 35.5 14t26.5 40l32 69l-29 541h140l1 -239q0 -50 -3 -98h3q8 26 17 53.5t15 43.5l101 240h145l-286 -622q-22 -48 -47.5 -85.5t-61 -59.5t-86.5 -22zM127 606l2 11q33 35 63 72.5t56 76.5h126q4 -19 13.5 -46t20 -54
t20.5 -47l-3 -13h-84q-11 14 -23.5 32.5t-25.5 41.5q-44 -49 -77 -74h-88z" />
    <glyph glyph-name="Ydieresis" unicode="&#x178;" horiz-adv-x="455" 
d="M95 0l57 270l-61 444h150l21 -255l129 255h154l-247 -439l-58 -275h-145zM412 783q-55 0 -55 51q0 35 21 62t61 27q51 0 51 -50q0 -40 -23.5 -65t-54.5 -25zM233 783q-55 0 -55 51q0 35 21 62t61 27q23 0 37 -13t14 -37q0 -40 -23 -65t-55 -25z" />
    <glyph glyph-name="Zacute" unicode="&#x179;" horiz-adv-x="412" 
d="M-40 0l22 102l307 487h-199l26 125h364l-21 -103l-309 -484h211l-27 -127h-374zM222 771l2 10q29 38 55 75t49 75h155l-1 -8q-11 -12 -32.5 -33.5t-46.5 -45t-47 -43.5l-33 -30h-101z" />
    <glyph glyph-name="zacute" unicode="&#x17a;" horiz-adv-x="363" 
d="M-40 0l17 84l236 347h-152l25 118h309l-19 -92l-228 -340h163l-25 -117h-326zM178 606l2 10q29 38 55 75t49 75h155l-1 -8q-11 -12 -32.5 -33.5t-46.5 -45t-47 -43.5l-33 -30h-101z" />
    <glyph glyph-name="Zdotaccent" unicode="&#x17b;" horiz-adv-x="412" 
d="M-40 0l22 102l307 487h-199l26 125h364l-21 -103l-309 -484h211l-27 -127h-374zM311 777q-34 0 -51 17t-17 45q0 36 22.5 64t66.5 28q67 0 67 -63q0 -36 -22.5 -63.5t-65.5 -27.5z" />
    <glyph glyph-name="zdotaccent" unicode="&#x17c;" horiz-adv-x="363" 
d="M-40 0l17 84l236 347h-152l25 118h309l-19 -92l-228 -340h163l-25 -117h-326zM252 612q-34 0 -51 17t-17 45q0 36 22.5 64t66.5 28q67 0 67 -63q0 -36 -22.5 -63.5t-65.5 -27.5z" />
    <glyph glyph-name="Zcaron" unicode="&#x17d;" horiz-adv-x="412" 
d="M-40 0l22 102l307 487h-199l26 125h364l-21 -103l-309 -484h211l-27 -127h-374zM241 771q-8 31 -24.5 73.5t-30.5 73.5l3 13h84q11 -13 23 -31.5t25 -42.5q45 50 77 74h89l-2 -11q-16 -17 -39.5 -44.5t-45.5 -56.5t-34 -48h-125z" />
    <glyph glyph-name="zcaron" unicode="&#x17e;" horiz-adv-x="363" 
d="M-40 0l17 84l236 347h-152l25 118h309l-19 -92l-228 -340h163l-25 -117h-326zM178 606q-8 31 -24.5 73.5t-30.5 73.5l3 13h84q11 -13 23 -31.5t25 -42.5q45 50 77 74h89l-2 -11q-16 -17 -39.5 -44.5t-45.5 -56.5t-34 -48h-125z" />
    <glyph glyph-name="longs" unicode="&#x17f;" horiz-adv-x="273" 
d="M-44 -240q-18 0 -34.5 1.5t-33.5 8.5v121q8 -5 22.5 -7t24.5 -2q31 0 42 20.5t19 59.5l133 624q9 49 28 89.5t52 65t86 24.5q27 0 54 -5.5t55 -19.5l-48 -105q-10 6 -21.5 9t-19.5 3q-23 0 -34.5 -23.5t-18.5 -63.5l-130 -610q-13 -60 -33 -102.5t-54.5 -65t-88.5 -22.5z
" />
    <glyph glyph-name="florin" unicode="&#x192;" horiz-adv-x="452" 
d="M32 -240q-26 0 -44 4t-32 10v118q14 -7 32.5 -10.5t25.5 -3.5q20 0 29 16t17 54l93 435h-58l15 72l66 40l13 53q16 66 37.5 104.5t53.5 55t77 16.5q27 0 52.5 -6t55.5 -20l-50 -105q-15 7 -25.5 10t-19.5 3q-20 0 -29 -17.5t-16 -45.5l-9 -44h81l-24 -116h-82l-91 -425
q-21 -103 -59 -150.5t-109 -47.5z" />
    <glyph glyph-name="Aringacute" unicode="&#x1fa;" horiz-adv-x="499" 
d="M296 860l1 6q22 22 44 46t40 49h163l-1 -4q-15 -13 -40 -32t-50.5 -37t-42.5 -28h-114zM-60 0l288 670q-13 20 -13 48q0 52 32.5 83.5t86.5 31.5q52 0 85.5 -32t33.5 -81q0 -44 -26 -70l13 -650h-154l2 159h-126l-63 -159h-159zM334 671q21 0 34 12.5t13 33.5t-12.5 34.5
t-34.5 13.5t-34.5 -13.5t-12.5 -34.5t11.5 -33.5t35.5 -12.5zM210 286h86l5 193q1 23 1.5 45t3.5 48h-3q-5 -24 -11 -45.5t-14 -44.5z" />
    <glyph glyph-name="aringacute" unicode="&#x1fb;" horiz-adv-x="470" 
d="M284 850l2 7q21 23 42.5 49t41.5 55h165l-1 -5q-16 -14 -42 -35t-52.5 -41t-42.5 -30h-113zM316 587q-56 0 -87 31.5t-31 84.5t32 84.5t86 31.5q50 0 83 -30.5t35 -83.5q0 -52 -31.5 -85t-86.5 -33zM316 656q21 0 34.5 12.5t13.5 34.5q0 21 -13 34.5t-35 13.5t-34 -13.5
t-12 -34.5q0 -47 46 -47zM130 -10q-53 0 -83 43t-30 118q0 43 8 97t25 108.5t43 100.5t61.5 74t80.5 28q31 0 57 -17.5t39 -58.5h3l25 66h121l-117 -549h-112l-2 68h-3q-26 -34 -53 -56t-63 -22zM189 108q25 0 42.5 24t29.5 59t20 68q11 47 14.5 73t3.5 46q0 60 -37 60
q-19 0 -34.5 -19.5t-28 -50.5t-21.5 -67t-13.5 -70.5t-4.5 -60.5q0 -62 29 -62z" />
    <glyph glyph-name="AEacute" unicode="&#x1fc;" horiz-adv-x="654" 
d="M-64 0l349 714h418l-26 -125h-163l-33 -157h151l-27 -125h-151l-38 -180h163l-27 -127h-306l35 162h-114l-75 -162h-156zM225 289h83l63 300h-10zM377 771l2 10q29 38 55 75t49 75h155l-1 -8q-11 -12 -32.5 -33.5t-46.5 -45t-47 -43.5l-33 -30h-101z" />
    <glyph glyph-name="aeacute" unicode="&#x1fd;" horiz-adv-x="684" 
d="M121 -10q-47 0 -75.5 43t-28.5 119q0 53 9.5 109.5t27.5 109.5t44.5 95.5t60.5 67.5t76 25q29 0 55.5 -14.5t40.5 -47.5h1l13 52h97l-5 -36q19 18 45 31.5t63 13.5q61 0 96.5 -37.5t35.5 -97.5q0 -65 -33 -108t-92.5 -64.5t-137.5 -21.5h-9q-2 -11 -3 -22t-1 -22
q0 -43 16.5 -63t50.5 -20q33 0 66 11t76 35l-24 -118q-38 -22 -72 -31t-74 -9q-38 0 -60.5 12t-32.5 30l-8 -32h-96l9 64h-2q-26 -33 -58 -53.5t-71 -20.5zM425 329h3q71 0 96.5 23.5t25.5 57.5q0 17 -10.5 28t-27.5 11q-22 0 -39 -19t-29 -46.5t-19 -54.5zM189 107
q25 0 43 25t29 60.5t18 65.5q11 46 14.5 73t3.5 47q0 60 -35 60q-21 0 -39 -26t-32.5 -67.5t-22.5 -87.5t-8 -86q0 -64 29 -64zM324 606l2 10q29 38 55 75t49 75h155l-1 -8q-11 -12 -32.5 -33.5t-46.5 -45t-47 -43.5l-33 -30h-101z" />
    <glyph glyph-name="Oslashacute" unicode="&#x1fe;" horiz-adv-x="554" 
d="M72 -55l-64 38l58 90q-31 55 -31 151q0 67 13.5 137t40 135t65.5 116.5t90 82t114 30.5q69 0 112 -31l42 65l64 -38l-54 -84q14 -27 21 -63t7 -80q0 -57 -11.5 -125t-35.5 -134.5t-61.5 -122t-90.5 -89t-122 -33.5q-67 0 -110 28zM188 252l202 312q-13 34 -44 34
q-33 0 -59.5 -30t-45.5 -77t-31.5 -99.5t-17.5 -97.5q-2 -11 -2.5 -21.5t-1.5 -20.5zM240 119q33 0 59 29t45 75t31.5 99.5t17.5 101.5q1 8 2 15t2 15l-199 -309q13 -26 42 -26zM294 771l2 10q29 38 55 75t49 75h155l-1 -8q-11 -12 -32.5 -33.5t-46.5 -45t-47 -43.5l-33 -30
h-101z" />
    <glyph glyph-name="oslashacute" unicode="&#x1ff;" horiz-adv-x="460" 
d="M55 -63l-62 38l55 84q-28 47 -28 114q0 42 8.5 93.5t27.5 103t49.5 94.5t74 69t101.5 26q23 0 43 -5.5t37 -15.5l39 60l62 -39l-47 -73q13 -22 20 -50t7 -61q0 -45 -9 -97.5t-28.5 -103t-50 -92.5t-73 -67t-98.5 -25q-45 0 -81 19zM155 205l143 222q-12 20 -34 20
q-20 0 -37.5 -20t-31 -52t-23.5 -69.5t-14 -72.5l-2 -14t-1 -14zM197 102q21 0 39 19.5t31.5 51.5t23 69t13.5 72q1 7 1 13t1 11l-141 -218q12 -18 32 -18zM222 606l2 10q29 38 55 75t49 75h155l-1 -8q-11 -12 -32.5 -33.5t-46.5 -45t-47 -43.5l-33 -30h-101z" />
    <glyph glyph-name="uni0218" unicode="&#x218;" horiz-adv-x="420" 
d="M142 -10q-50 0 -90 10t-72 33l30 148q26 -21 62 -38t71 -17q31 0 57.5 18t26.5 65q0 27 -11.5 49t-49.5 56q-45 40 -66.5 81.5t-21.5 103.5q0 63 26 114t78 81t130 30q39 0 81.5 -12t76.5 -38l-65 -130q-58 46 -101 46q-29 0 -51.5 -19t-22.5 -58q0 -25 14 -48t54 -57
q44 -37 63.5 -80t19.5 -103q0 -61 -26 -115t-79.5 -87t-133.5 -33zM5 -221v13q8 19 18.5 45t20 53t14.5 49h131v-10q-16 -35 -42.5 -77.5t-49.5 -72.5h-92z" />
    <glyph glyph-name="uni0219" unicode="&#x219;" horiz-adv-x="369" 
d="M133 -10q-49 0 -80 8t-57 23v130q27 -19 60 -29.5t59 -10.5q25 0 42.5 12.5t17.5 37.5q0 17 -9.5 35.5t-42.5 47.5q-42 36 -55 69t-13 70q0 49 20 88.5t59 63.5t97 24q45 0 85 -12.5t68 -32.5l-54 -105q-23 19 -49 28t-42 9q-19 0 -30.5 -11t-11.5 -31q0 -18 8 -32.5
t41 -42.5q38 -32 56.5 -64t18.5 -90q0 -50 -22 -92.5t-64.5 -67.5t-101.5 -25zM-4 -221v13q8 19 18.5 45t20 53t14.5 49h131v-10q-16 -35 -42.5 -77.5t-49.5 -72.5h-92z" />
    <glyph glyph-name="circumflex" unicode="&#x2c6;" horiz-adv-x="379" 
d="M111 606l2 11q33 35 63 72.5t56 76.5h126q4 -19 13.5 -46t20 -54t20.5 -47l-3 -13h-84q-11 14 -23.5 32.5t-25.5 41.5q-44 -49 -77 -74h-88z" />
    <glyph glyph-name="caron" unicode="&#x2c7;" horiz-adv-x="379" 
d="M197 606q-8 31 -24.5 73.5t-30.5 73.5l3 13h84q11 -13 23 -31.5t25 -42.5q45 50 77 74h89l-2 -11q-16 -17 -39.5 -44.5t-45.5 -56.5t-34 -48h-125z" />
    <glyph glyph-name="macron" unicode="&#x2c9;" horiz-adv-x="351" 
d="M111 607l21 101h270l-21 -101h-270z" />
    <glyph glyph-name="breve" unicode="&#x2d8;" horiz-adv-x="362" 
d="M264 606q-67 0 -95.5 32t-28.5 82q0 12 2 26t4 29h85q0 -32 8 -51t33 -19q26 0 42.5 15.5t26.5 54.5h86q-14 -82 -57 -125.5t-106 -43.5z" />
    <glyph glyph-name="dotaccent" unicode="&#x2d9;" horiz-adv-x="234" 
d="M195 612q-34 0 -51 17t-17 45q0 36 22.5 64t66.5 28q67 0 67 -63q0 -36 -22.5 -63.5t-65.5 -27.5z" />
    <glyph glyph-name="ring" unicode="&#x2da;" horiz-adv-x="323" 
d="M258 606q-57 0 -88.5 32t-31.5 85q0 52 32.5 83.5t87.5 31.5q50 0 83.5 -31t33.5 -82q0 -53 -31.5 -86t-85.5 -33zM258 675q20 0 33 13t13 34t-12.5 34.5t-33.5 13.5q-23 0 -35.5 -13.5t-12.5 -34.5t11.5 -34t36.5 -13z" />
    <glyph glyph-name="ogonek" unicode="&#x2db;" horiz-adv-x="258" 
d="M41 -236q-45 0 -67 23t-22 58q0 47 29 85t72 70h85q-38 -38 -54 -65t-17 -52q0 -11 6.5 -17t15.5 -6q7 0 18.5 2t23.5 5l-19 -92q-18 -7 -35.5 -9t-35.5 -2z" />
    <glyph glyph-name="tilde" unicode="&#x2dc;" horiz-adv-x="394" 
d="M111 605q9 43 22 78.5t36 56.5t58 21q31 0 51 -12.5t34 -25t30 -12.5q14 0 22.5 11.5t14.5 39.5h79q-15 -88 -48 -122t-69 -34q-31 0 -50.5 12.5t-34 25t-30.5 12.5q-11 0 -21 -11.5t-16 -39.5h-78z" />
    <glyph glyph-name="hungarumlaut" unicode="&#x2dd;" horiz-adv-x="447" 
d="M281 606l3 11q36 52 61.5 90t36.5 59h129l-1 -8q-14 -20 -40.5 -48t-57 -56t-55.5 -48h-76zM111 606l2 11q74 105 98 149h128l-1 -8q-12 -20 -38 -47t-59 -55t-62 -50h-68z" />
    <glyph glyph-name="tonos" unicode="&#x384;" horiz-adv-x="412" 
d="M210 606l3 13q6 11 14.5 31.5t18 44t17.5 43.5t12 31h125l-2 -10q-12 -19 -30.5 -48.5t-37.5 -58t-33 -46.5h-87z" />
    <glyph glyph-name="dieresistonos" unicode="&#x385;" horiz-adv-x="425" 
d="M245 690v10q7 16 16.5 43l19 54t12.5 41h114l-2 -8q-8 -16 -25 -43.5t-35.5 -54t-29.5 -42.5h-70zM154 618q-52 0 -52 51q0 35 19.5 62t56.5 27q48 0 48 -50q0 -40 -22 -65t-50 -25zM406 618q-50 0 -50 51q0 35 19 62t56 27q22 0 34.5 -13t12.5 -37q0 -40 -21.5 -65
t-50.5 -25z" />
    <glyph glyph-name="Alphatonos" unicode="&#x386;" horiz-adv-x="520" 
d="M-38 0l306 717h184l8 -717h-153l4 162h-128l-63 -162h-158zM231 288h87l7 203q1 24 2 46.5t3 48.5h-3q-4 -24 -10.5 -46t-14.5 -47zM27 551l3 13q6 11 14.5 31.5t18 44t17.5 43.5t12 31h125l-2 -10q-12 -19 -30.5 -48.5t-37.5 -58t-33 -46.5h-87z" />
    <glyph glyph-name="anoteleia" unicode="&#x387;" horiz-adv-x="246" 
d="M126 268q-69 0 -69 62q0 42 26 75t75 33q30 0 47 -16t17 -45q0 -49 -29.5 -79t-66.5 -30z" />
    <glyph glyph-name="Epsilontonos" unicode="&#x388;" horiz-adv-x="529" 
d="M120 0l151 714h307l-26 -125h-163l-34 -157h152l-27 -125h-151l-39 -180h164l-27 -127h-307zM47 551l3 13q6 11 14.5 31.5t18 44t17.5 43.5t12 31h125l-2 -10q-12 -19 -30.5 -48.5t-37.5 -58t-33 -46.5h-87z" />
    <glyph glyph-name="Etatonos" unicode="&#x389;" horiz-adv-x="666" 
d="M120 0l151 714h144l-59 -279h142l59 279h145l-152 -714h-145l65 308h-141l-65 -308h-144zM47 551l3 13q6 11 14.5 31.5t18 44t17.5 43.5t12 31h125l-2 -10q-12 -19 -30.5 -48.5t-37.5 -58t-33 -46.5h-87z" />
    <glyph glyph-name="Iotatonos" unicode="&#x38a;" horiz-adv-x="505" 
d="M122 0l16 75l87 34l105 496l-73 34l15 75h307l-16 -75l-89 -34l-105 -496l75 -34l-16 -75h-306zM47 551l3 13q6 11 14.5 31.5t18 44t17.5 43.5t12 31h125l-2 -10q-12 -19 -30.5 -48.5t-37.5 -58t-33 -46.5h-87z" />
    <glyph glyph-name="Omicrontonos" unicode="&#x38c;" horiz-adv-x="630" 
d="M307 -10q-100 0 -147.5 56.5t-47.5 177.5q0 67 13.5 137t40 135t65.5 116.5t90 82t114 30.5q100 0 146 -58.5t46 -172.5q0 -57 -11.5 -125t-35.5 -134.5t-61.5 -122t-90 -89t-121.5 -33.5zM317 119q31 0 56.5 26.5t45 70t32.5 94.5t19.5 100.5t6.5 87.5q0 100 -54 100
q-32 0 -57.5 -27t-44.5 -70.5t-32 -94t-19.5 -99t-6.5 -84.5q0 -61 14 -82.5t40 -21.5zM47 551l3 13q6 11 14.5 31.5t18 44t17.5 43.5t12 31h125l-2 -10q-12 -19 -30.5 -48.5t-37.5 -58t-33 -46.5h-87z" />
    <glyph glyph-name="Upsilontonos" unicode="&#x38e;" horiz-adv-x="613" 
d="M254 0l57 270l-61 444h150l21 -255l129 255h154l-247 -439l-58 -275h-145zM42 551l3 13q6 11 14.5 31.5t18 44t17.5 43.5t12 31h125l-2 -10q-12 -19 -30.5 -48.5t-37.5 -58t-33 -46.5h-87z" />
    <glyph glyph-name="Omegatonos" unicode="&#x38f;" horiz-adv-x="638" 
d="M42 551l3 13q6 11 14.5 31.5t18 44t17.5 43.5t12 31h125l-2 -10q-12 -19 -30.5 -48.5t-37.5 -58t-33 -46.5h-87zM42 0l27 127h128q-35 35 -49.5 84t-14.5 104q0 75 21.5 147.5t61.5 132t96 95t126 35.5q98 0 150.5 -58.5t52.5 -156.5q0 -77 -21 -149.5t-62 -133
t-101 -100.5h129l-27 -127h-236l29 139q34 27 59.5 69.5t43 93t26 100.5t8.5 92q0 50 -17.5 77t-49.5 27q-30 0 -54.5 -23.5t-42.5 -62t-30 -83.5t-18 -89t-6 -77q0 -80 34 -124l-30 -139h-233z" />
    <glyph glyph-name="iotadieresistonos" unicode="&#x390;" horiz-adv-x="292" 
d="M129 -10q-53 0 -80.5 28.5t-27.5 79.5q0 18 2.5 40t7.5 42l79 369h138l-82 -384l-2 -14t-1 -15q0 -24 21 -24q9 0 23 4.5t25 10.5v-108q-23 -14 -51.5 -21.5t-51.5 -7.5zM156 690v10q7 16 16.5 43l19 54t12.5 41h114l-2 -8q-8 -16 -25 -43.5t-35.5 -54t-29.5 -42.5h-70z
M65 618q-52 0 -52 51q0 35 19.5 62t56.5 27q48 0 48 -50q0 -40 -22 -65t-50 -25zM317 618q-50 0 -50 51q0 35 19 62t56 27q22 0 34.5 -13t12.5 -37q0 -40 -21.5 -65t-50.5 -25z" />
    <glyph glyph-name="Alpha" unicode="&#x391;" horiz-adv-x="499" 
d="M-60 0l306 717h184l8 -717h-153l4 162h-128l-63 -162h-158zM209 288h87l7 203q1 24 2 46.5t3 48.5h-3q-4 -24 -10.5 -46t-14.5 -47z" />
    <glyph glyph-name="Beta" unicode="&#x392;" horiz-adv-x="494" 
d="M-4 0l151 714h178q47 0 88.5 -14.5t67 -47.5t25.5 -88q0 -64 -31.5 -116t-98.5 -73v-4q34 -13 53.5 -48t19.5 -82q0 -63 -27.5 -118t-82 -89t-134.5 -34h-209zM231 428h35q27 0 46.5 16.5t30 42t10.5 53.5q0 54 -55 54h-31zM167 123h38q49 0 72 37.5t23 87.5q0 64 -55 64
h-38z" />
    <glyph glyph-name="Gamma" unicode="&#x393;" horiz-adv-x="389" 
d="M-3 0l151 714h320l-26 -126h-176l-125 -588h-144z" />
    <glyph glyph-name="Epsilon" unicode="&#x395;" horiz-adv-x="406" 
d="M-3 0l151 714h307l-26 -125h-163l-34 -157h152l-27 -125h-151l-39 -180h164l-27 -127h-307z" />
    <glyph glyph-name="Zeta" unicode="&#x396;" horiz-adv-x="412" 
d="M-40 0l22 102l307 487h-199l26 125h364l-21 -103l-309 -484h211l-27 -127h-374z" />
    <glyph glyph-name="Eta" unicode="&#x397;" horiz-adv-x="543" 
d="M-3 0l151 714h144l-59 -279h142l59 279h145l-152 -714h-145l65 308h-141l-65 -308h-144z" />
    <glyph glyph-name="Theta" unicode="&#x398;" horiz-adv-x="571" 
d="M236 -10q-103 0 -152 56.5t-49 177.5q0 64 13.5 134t40.5 135t67 117.5t93 83.5t119 31q102 0 150 -58t48 -173q0 -72 -14 -144t-41.5 -136.5t-68 -115t-92 -79.5t-114.5 -29zM245 119q37 0 65.5 30t49 77.5t34 100t20 99t6.5 72.5q0 100 -63 100q-35 0 -62.5 -27.5
t-48.5 -71.5t-34.5 -94.5t-20.5 -98.5t-7 -83q0 -61 16 -82.5t45 -21.5zM226 305l26 118h125l-25 -118h-126z" />
    <glyph glyph-name="Iota" unicode="&#x399;" horiz-adv-x="343" 
d="M-40 0l16 75l87 34l105 496l-73 34l15 75h307l-16 -75l-89 -34l-105 -496l75 -34l-16 -75h-306z" />
    <glyph glyph-name="Kappa" unicode="&#x39a;" horiz-adv-x="485" 
d="M-3 0l151 714h144l-64 -305l40 73l155 232h159l-226 -334l75 -380h-158l-43 277l-36 -28l-53 -249h-144z" />
    <glyph glyph-name="Lambda" unicode="&#x39b;" horiz-adv-x="488" 
d="M-60 0l313 717h166l10 -717h-153l7 386q1 23 2 52.5t3 54.5q-14 -39 -24 -65.5t-19 -48.5l-153 -379h-152z" />
    <glyph glyph-name="Mu" unicode="&#x39c;" horiz-adv-x="717" 
d="M-3 0l151 714h189l13 -457h3l198 457h202l-152 -714h-141l78 365q4 20 10 40t11 40h-3l-198 -445h-122l-11 441h-3q-5 -31 -9.5 -57.5t-9.5 -50.5l-70 -333h-136z" />
    <glyph glyph-name="Nu" unicode="&#x39d;" horiz-adv-x="581" 
d="M-3 0l151 714h161l79 -449h3q7 43 14 83t12 67l64 299h136l-151 -714h-161l-80 461h-2q-7 -48 -14.5 -92t-12.5 -71l-64 -298h-135z" />
    <glyph glyph-name="Xi" unicode="&#x39e;" horiz-adv-x="412" 
d="M107 589l26 125h330l-26 -125h-330zM73 312l27 125h279l-27 -125h-279zM-31 0l27 127h354l-27 -127h-354z" />
    <glyph glyph-name="Omicron" unicode="&#x39f;" horiz-adv-x="554" 
d="M230 -10q-100 0 -147.5 56.5t-47.5 177.5q0 67 13.5 137t40 135t65.5 116.5t90 82t114 30.5q100 0 146 -58.5t46 -172.5q0 -57 -11.5 -125t-35.5 -134.5t-61.5 -122t-90 -89t-121.5 -33.5zM240 119q31 0 56.5 26.5t45 70t32.5 94.5t19.5 100.5t6.5 87.5q0 100 -54 100
q-32 0 -57.5 -27t-44.5 -70.5t-32 -94t-19.5 -99t-6.5 -84.5q0 -61 14 -82.5t40 -21.5z" />
    <glyph glyph-name="Pi" unicode="&#x3a0;" horiz-adv-x="531" 
d="M-3 0l151 714h419l-151 -714h-145l125 586h-131l-124 -586h-144z" />
    <glyph glyph-name="Rho" unicode="&#x3a1;" horiz-adv-x="462" 
d="M-3 0l151 714h157q97 0 140.5 -46t43.5 -121q0 -54 -15 -107t-46 -96.5t-79.5 -69.5t-114.5 -26h-41l-52 -248h-144zM219 373h17q50 0 77 43.5t27 111.5q0 34 -15 47.5t-45 13.5h-14z" />
    <glyph glyph-name="Sigma" unicode="&#x3a3;" horiz-adv-x="426" 
d="M-30 0l25 119l196 255l-86 224l24 116h346l-26 -125h-182l80 -213l-190 -249h210l-27 -127h-370z" />
    <glyph glyph-name="Tau" unicode="&#x3a4;" horiz-adv-x="407" 
d="M71 0l125 586h-117l27 128h379l-27 -128h-118l-124 -586h-145z" />
    <glyph glyph-name="Upsilon" unicode="&#x3a5;" horiz-adv-x="455" 
d="M95 0l57 270l-61 444h150l21 -255l129 255h154l-247 -439l-58 -275h-145z" />
    <glyph glyph-name="Phi" unicode="&#x3a6;" horiz-adv-x="658" 
d="M196 -10l24 110q-82 3 -130.5 51.5t-48.5 143.5q0 63 17 122.5t52.5 108t90.5 78.5t132 32l19 88h140l-19 -88q80 -3 129.5 -56.5t49.5 -139.5q0 -64 -18 -124.5t-54.5 -109t-91.5 -77t-129 -29.5l-23 -110h-140zM245 222l63 292q-31 0 -54 -20t-38.5 -51.5t-23 -68.5
t-7.5 -70q0 -42 15 -61.5t45 -20.5zM385 222q37 0 64.5 31t42.5 78t15 96q0 85 -60 87z" />
    <glyph glyph-name="Chi" unicode="&#x3a7;" horiz-adv-x="467" 
d="M-58 0l225 362l-64 352h151l25 -200l106 200h155l-210 -350l76 -364h-156l-28 214l-126 -214h-154z" />
    <glyph glyph-name="Psi" unicode="&#x3a8;" horiz-adv-x="675" 
d="M207 0l42 199h-2q-89 1 -131.5 44.5t-42.5 124.5q0 48 14 107l50 239h144l-55 -259q-4 -21 -7 -38t-3 -30q0 -35 16 -47.5t42 -13.5h2l82 388h140l-82 -388h2q34 0 53.5 18t30 47.5t18.5 63.5l54 259h145l-56 -263q-17 -84 -45.5 -140t-81 -84t-143.5 -28h-4l-42 -199
h-140z" />
    <glyph glyph-name="Iotadieresis" unicode="&#x3aa;" horiz-adv-x="343" 
d="M-40 0l16 75l87 34l105 496l-73 34l15 75h307l-16 -75l-89 -34l-105 -496l75 -34l-16 -75h-306zM372 803q-55 0 -55 51q0 35 21 62t61 27q51 0 51 -50q0 -40 -23.5 -65t-54.5 -25zM193 803q-55 0 -55 51q0 35 21 62t61 27q23 0 37 -13t14 -37q0 -40 -23 -65t-55 -25z" />
    <glyph glyph-name="Upsilondieresis" unicode="&#x3ab;" horiz-adv-x="455" 
d="M95 0l57 270l-61 444h150l21 -255l129 255h154l-247 -439l-58 -275h-145zM412 783q-55 0 -55 51q0 35 21 62t61 27q51 0 51 -50q0 -40 -23.5 -65t-54.5 -25zM233 783q-55 0 -55 51q0 35 21 62t61 27q23 0 37 -13t14 -37q0 -40 -23 -65t-55 -25z" />
    <glyph glyph-name="alphatonos" unicode="&#x3ac;" horiz-adv-x="498" 
d="M133 -10q-53 0 -84.5 43t-31.5 119q0 53 9.5 110t28.5 110t46 95t61.5 67t75.5 25q34 0 63 -18.5t43 -59.5h3q19 44 40 68h122q-23 -49 -40 -103.5t-30 -114.5l-33 -153q-7 -28 -7 -46q0 -13 5 -17t13 -4q11 0 30 10v-113q-19 -7 -44.5 -12.5t-40.5 -5.5q-44 0 -66 13.5
t-29 32t-7 33.5h-4q-26 -35 -56 -57t-67 -22zM189 107q26 0 44.5 24.5t30.5 59.5t19 67q11 47 14.5 73.5t3.5 44.5q0 62 -38 62q-19 0 -35 -20t-28.5 -51.5t-21.5 -68t-13.5 -70t-4.5 -56.5q0 -65 29 -65zM256 606l3 13q6 11 14.5 31.5t18 44t17.5 43.5t12 31h125l-2 -10
q-12 -19 -30.5 -48.5t-37.5 -58t-33 -46.5h-87z" />
    <glyph glyph-name="epsilontonos" unicode="&#x3ad;" horiz-adv-x="394" 
d="M163 -10q-165 0 -165 136q0 33 14 66.5t43.5 59.5t74.5 34v5q-24 11 -39.5 36.5t-15.5 70.5q0 46 23.5 82t65.5 57.5t97 21.5q43 0 83 -10.5t75 -35.5l-61 -103q-22 17 -45.5 25t-43.5 8q-29 0 -45 -17t-16 -47q0 -24 14.5 -34t43.5 -10h40l-22 -103h-48q-40 0 -66 -20
t-26 -56q0 -23 12.5 -36t45.5 -13q51 0 117 36v-115q-36 -20 -77.5 -29t-78.5 -9zM216 606l3 13q6 11 14.5 31.5t18 44t17.5 43.5t12 31h125l-2 -10q-12 -19 -30.5 -48.5t-37.5 -58t-33 -46.5h-87z" />
    <glyph glyph-name="etatonos" unicode="&#x3ae;" horiz-adv-x="471" 
d="M175 -240l118 554q5 23 8 44.5t3 36.5q0 39 -29 39q-31 0 -51 -42t-34 -106l-60 -286h-140l117 549h111l-4 -66h3q23 35 53.5 55.5t65.5 20.5q29 0 55 -11.5t42.5 -38.5t16.5 -73q0 -16 -3 -37.5t-8 -48.5l-125 -590h-139zM247 606l3 13q6 11 14.5 31.5t18 44t17.5 43.5
t12 31h125l-2 -10q-12 -19 -30.5 -48.5t-37.5 -58t-33 -46.5h-87z" />
    <glyph glyph-name="iotatonos" unicode="&#x3af;" horiz-adv-x="291" 
d="M129 -10q-53 0 -80.5 28.5t-27.5 79.5q0 18 2.5 40t7.5 42l79 369h138l-82 -384l-2 -14t-1 -15q0 -24 21 -24q9 0 23 4.5t25 10.5v-108q-23 -14 -51.5 -21.5t-51.5 -7.5zM137 606l3 13q6 11 14.5 31.5t18 44t17.5 43.5t12 31h125l-2 -10q-12 -19 -30.5 -48.5t-37.5 -58
t-33 -46.5h-87z" />
    <glyph glyph-name="upsilondieresistonos" unicode="&#x3b0;" horiz-adv-x="473" 
d="M184 -9q-82 0 -119 39.5t-37 110.5q0 23 4 52.5t11 61.5l62 294h138l-67 -317q-4 -18 -6.5 -37t-2.5 -32q0 -48 31 -48q26 0 46.5 30.5t35 79.5t24 107.5t15 115.5t6.5 101h137q-1 -75 -8.5 -153.5t-26 -151t-50 -129.5t-79 -90.5t-114.5 -33.5zM264 690v10q7 16 16.5 43
l19 54t12.5 41h114l-2 -8q-8 -16 -25 -43.5t-35.5 -54t-29.5 -42.5h-70zM173 618q-52 0 -52 51q0 35 19.5 62t56.5 27q48 0 48 -50q0 -40 -22 -65t-50 -25zM425 618q-50 0 -50 51q0 35 19 62t56 27q22 0 34.5 -13t12.5 -37q0 -40 -21.5 -65t-50.5 -25z" />
    <glyph glyph-name="alpha" unicode="&#x3b1;" horiz-adv-x="498" 
d="M133 -10q-53 0 -84.5 43t-31.5 119q0 53 9.5 110t28.5 110t46 95t61.5 67t75.5 25q34 0 63 -18.5t43 -59.5h3q19 44 40 68h122q-23 -49 -40 -103.5t-30 -114.5l-33 -153q-7 -28 -7 -46q0 -13 5 -17t13 -4q11 0 30 10v-113q-19 -7 -44.5 -12.5t-40.5 -5.5q-44 0 -66 13.5
t-29 32t-7 33.5h-4q-26 -35 -56 -57t-67 -22zM189 107q26 0 44.5 24.5t30.5 59.5t19 67q11 47 14.5 73.5t3.5 44.5q0 62 -38 62q-19 0 -35 -20t-28.5 -51.5t-21.5 -68t-13.5 -70t-4.5 -56.5q0 -65 29 -65z" />
    <glyph glyph-name="beta" unicode="&#x3b2;" horiz-adv-x="481" 
d="M-60 -240l166 786q23 104 75 161.5t151 57.5q78 0 120 -45.5t42 -111.5q0 -77 -34.5 -132.5t-107.5 -72.5q46 -10 71 -48.5t25 -91.5q0 -49 -14.5 -97.5t-42 -88.5t-67 -63.5t-90.5 -23.5q-30 0 -58 7t-44 18l-55 -255h-137zM211 112q27 0 45 16t29 40t16 49.5t5 44.5
q0 34 -13 52.5t-38 18.5h-22l25 118h17q25 0 41.5 24.5t24.5 57.5t8 60q0 54 -38 54q-23 0 -39 -24t-25 -68l-89 -417q8 -12 24 -19t29 -7z" />
    <glyph glyph-name="gamma" unicode="&#x3b3;" horiz-adv-x="428" 
d="M2 -240q14 62 35.5 123.5t46.5 120.5l-22 545h140v-191q0 -24 -0.5 -52t-2 -53t-2.5 -40h5q9 31 22 67.5t29 71.5l82 197h148l-247 -536q-18 -38 -34.5 -82.5t-30.5 -89t-22 -81.5h-147z" />
    <glyph glyph-name="delta" unicode="&#x3b4;" horiz-adv-x="457" 
d="M184 -10q-89 0 -131 47t-42 131q0 62 23.5 116.5t66.5 96t100 63.5q-27 32 -42.5 65.5t-15.5 77.5q0 54 25.5 94.5t70 63t102.5 22.5q55 0 100 -14.5t73 -37.5l-65 -110q-32 25 -60.5 35t-51.5 10q-25 0 -40 -14.5t-15 -40.5q0 -20 12.5 -39.5t30 -38.5t32.5 -39
q67 -87 67 -192q0 -82 -27 -149t-80 -107t-133 -40zM194 107q23 0 39.5 18.5t26.5 46.5t15 56.5t5 48.5q0 32 -7.5 56t-21.5 43q-19 -10 -36.5 -33.5t-31.5 -53.5t-21.5 -60.5t-7.5 -56.5q0 -28 10 -46.5t30 -18.5z" />
    <glyph glyph-name="epsilon" unicode="&#x3b5;" horiz-adv-x="394" 
d="M163 -10q-165 0 -165 136q0 33 14 66.5t43.5 59.5t74.5 34v5q-24 11 -39.5 36.5t-15.5 70.5q0 46 23.5 82t65.5 57.5t97 21.5q43 0 83 -10.5t75 -35.5l-61 -103q-22 17 -45.5 25t-43.5 8q-29 0 -45 -17t-16 -47q0 -24 14.5 -34t43.5 -10h40l-22 -103h-48q-40 0 -66 -20
t-26 -56q0 -23 12.5 -36t45.5 -13q51 0 117 36v-115q-36 -20 -77.5 -29t-78.5 -9z" />
    <glyph glyph-name="zeta" unicode="&#x3b6;" horiz-adv-x="376" 
d="M82 -183q14 17 30.5 39.5t27.5 47.5t11 47q0 25 -18.5 40.5t-41.5 31.5q-35 25 -56.5 54t-21.5 82q0 70 24 138t63.5 131.5t87 119t94.5 101.5q-13 -4 -27.5 -5t-30.5 -1h-93l25 117h306l-19 -92q-48 -48 -97 -106.5t-91 -120t-67.5 -121.5t-25.5 -111q0 -25 11 -42.5
t27 -30t30 -24.5q16 -12 34.5 -27t31 -35t12.5 -47q0 -59 -25.5 -102t-62.5 -84h-138z" />
    <glyph glyph-name="eta" unicode="&#x3b7;" horiz-adv-x="471" 
d="M175 -240l118 554q5 23 8 44.5t3 36.5q0 39 -29 39q-31 0 -51 -42t-34 -106l-60 -286h-140l117 549h111l-4 -66h3q23 35 53.5 55.5t65.5 20.5q29 0 55 -11.5t42.5 -38.5t16.5 -73q0 -16 -3 -37.5t-8 -48.5l-125 -590h-139z" />
    <glyph glyph-name="theta" unicode="&#x3b8;" horiz-adv-x="475" 
d="M189 -10q-79 0 -118.5 51t-39.5 157q0 44 6.5 98t19.5 110q15 69 37.5 134t55 117t76.5 83t100 31q46 0 81 -20t55.5 -66.5t20.5 -126.5q0 -50 -9 -114.5t-26.5 -131t-40.5 -121.5q-24 -57 -55.5 -102.5t-71.5 -72t-91 -26.5zM205 438h126q7 49 12 85.5t5 61.5
q0 73 -37 73q-22 0 -41 -28.5t-35 -78t-30 -113.5zM198 102q25 0 45.5 33.5t36.5 85t29 105.5h-129q-9 -52 -14.5 -90t-5.5 -62q0 -36 11 -54t27 -18z" />
    <glyph glyph-name="iota" unicode="&#x3b9;" horiz-adv-x="291" 
d="M129 -10q-53 0 -80.5 28.5t-27.5 79.5q0 18 2.5 40t7.5 42l79 369h138l-82 -384l-2 -14t-1 -15q0 -24 21 -24q9 0 23 4.5t25 10.5v-108q-23 -14 -51.5 -21.5t-51.5 -7.5z" />
    <glyph glyph-name="kappa" unicode="&#x3ba;" horiz-adv-x="452" 
d="M-10 0l117 549h139l-23 -102q-5 -27 -12.5 -54t-16.5 -57h2l158 213h151l-179 -234l73 -315h-150l-43 203l-45 -42l-32 -161h-139z" />
    <glyph glyph-name="lambda" unicode="&#x3bb;" horiz-adv-x="458" 
d="M345 -10q-53 0 -79 21t-35.5 57t-10.5 81v93v35.5t1 35.5q-4 -15 -9 -33t-11 -31l-112 -249h-143l257 523l-1 65q-1 36 -11 49t-27 13q-8 0 -15 -1.5t-20 -5.5v114q16 4 40.5 7t41.5 3q54 0 81 -23t37.5 -64.5t12.5 -96.5l12 -417q1 -30 8.5 -40.5t21.5 -10.5q8 0 15 1
t19 5v-122q-15 -4 -37 -6.5t-36 -2.5z" />
    <glyph glyph-name="nu" unicode="&#x3bd;" horiz-adv-x="440" 
d="M67 0l-4 549h141l-4 -261q-1 -28 -1.5 -57.5t-2.5 -56.5q44 72 75.5 161t57.5 214h144q-23 -106 -58 -199t-87 -179.5t-125 -170.5h-136z" />
    <glyph glyph-name="xi" unicode="&#x3be;" horiz-adv-x="390" 
d="M81 -183q15 17 33.5 43t32.5 53.5t14 47.5q-1 18 -12 29.5t-36 22.5q-48 22 -72.5 58t-24.5 93q0 78 38 143t117 90l1 4q-33 11 -48 36t-15 57q0 52 32 95t84 58q-18 -2 -32.5 -3t-29.5 -1h-36l25 117h301l-25 -117h-49q-54 0 -91.5 -37.5t-37.5 -96.5q0 -56 65 -56h50
l-25 -118h-51q-59 0 -92 -38.5t-33 -101.5q0 -34 19.5 -49.5t48.5 -29.5q33 -15 53.5 -39.5t20.5 -68.5q0 -49 -22.5 -96.5t-64.5 -94.5h-138z" />
    <glyph glyph-name="omicron" unicode="&#x3bf;" horiz-adv-x="460" 
d="M182 -10q-76 0 -119 48.5t-43 134.5q0 43 8.5 94.5t27.5 103t49.5 94t74 68.5t101.5 26q75 0 117.5 -49.5t42.5 -134.5q0 -47 -9.5 -100t-29 -103.5t-50 -91.5t-73 -65.5t-97.5 -24.5zM199 107q23 0 42 28.5t32.5 71.5t21 88.5t7.5 79.5q0 66 -39 66q-20 0 -36.5 -19
t-29 -50t-21 -67.5t-13 -71.5t-4.5 -61q0 -31 10 -48t30 -17z" />
    <glyph glyph-name="pi" unicode="&#x3c0;" horiz-adv-x="532" 
d="M369 -9q-52 0 -79.5 28t-27.5 80q0 19 3 41t7 42l53 249h-82l-92 -431h-139l93 431h-76l14 63l75 55h445l-25 -118h-75l-56 -264l-2 -14t-1 -16q0 -24 22 -24q12 0 23.5 4.5t21.5 9.5v-108q-23 -14 -51 -21t-51 -7z" />
    <glyph glyph-name="rho" unicode="&#x3c1;" horiz-adv-x="468" 
d="M-59 -240l110 525q19 91 47 152t72 91.5t112 30.5q86 0 128.5 -50t42.5 -133q0 -44 -9 -96.5t-27 -103.5t-44.5 -93t-61 -67.5t-76.5 -25.5q-71 0 -104 41q-1 -21 -5.5 -43.5t-8.5 -40.5l-39 -187h-137zM208 111q20 0 36.5 20.5t29 53t20.5 69t12.5 69t4.5 52.5
q0 33 -11 49.5t-27 16.5q-18 0 -32.5 -14.5t-26.5 -50.5t-26 -101l-28 -128q7 -13 19 -24.5t29 -11.5z" />
    <glyph glyph-name="sigma1" unicode="&#x3c2;" horiz-adv-x="385" 
d="M88 -183q35 42 52.5 71.5t17.5 53.5t-15.5 40t-45.5 37q-44 31 -59.5 67.5t-17.5 93.5q0 48 9.5 100t29.5 102t51 90t74.5 63.5t99.5 23.5q77 0 133 -38l-55 -108q-16 12 -34.5 18.5t-32.5 6.5q-30 0 -54 -24t-40.5 -61.5t-25 -77t-8.5 -71.5q0 -37 17 -58.5t42 -38.5
q35 -24 60.5 -51t25.5 -75q0 -37 -19.5 -78t-65.5 -86h-139z" />
    <glyph glyph-name="sigma" unicode="&#x3c3;" horiz-adv-x="489" 
d="M183 -10q-77 0 -120 49t-43 135q0 62 15.5 128t49.5 122t90.5 90.5t137.5 34.5h210l-24 -118h-89q11 -19 18 -45t7 -63q0 -55 -17.5 -113.5t-50.5 -108t-79.5 -80.5t-104.5 -31zM199 107q23 0 41.5 26.5t32 67.5t20.5 86t7 83q0 21 -1 35.5t-3 25.5h-8q-34 0 -58.5 -26
t-40 -66.5t-22.5 -85t-7 -80.5q0 -66 39 -66z" />
    <glyph glyph-name="tau" unicode="&#x3c4;" horiz-adv-x="360" 
d="M175 -11q-54 0 -82.5 29.5t-28.5 81.5q0 40 11 87l52 244h-99l14 62l75 56h283l-25 -118h-110l-55 -260q-2 -8 -3 -15.5t-1 -17.5q0 -27 24 -27q10 0 24 5t25 11v-109q-24 -14 -52.5 -21.5t-51.5 -7.5z" />
    <glyph glyph-name="upsilon" unicode="&#x3c5;" horiz-adv-x="473" 
d="M184 -9q-82 0 -119 39.5t-37 110.5q0 23 4 52.5t11 61.5l62 294h138l-67 -317q-4 -18 -6.5 -37t-2.5 -32q0 -48 31 -48q26 0 46.5 30.5t35 79.5t24 107.5t15 115.5t6.5 101h137q-1 -75 -8.5 -153.5t-26 -151t-50 -129.5t-79 -90.5t-114.5 -33.5z" />
    <glyph glyph-name="phi" unicode="&#x3c6;" horiz-adv-x="645" 
d="M140 -240l50 235q-47 6 -85.5 28.5t-61.5 65.5t-23 109q0 90 40 185.5t111 175.5l99 -63q-30 -40 -55 -89t-40 -102t-15 -103q0 -74 56 -88l53 250q19 91 66 142t133 51q72 0 115 -46t43 -135q0 -74 -21.5 -140.5t-61.5 -119.5t-95 -85t-122 -36l-51 -235h-135zM351 114
q40 8 66 38t41 71.5t21.5 83.5t6.5 73q0 28 -9 43.5t-24 15.5q-16 0 -28.5 -17t-22.5 -67z" />
    <glyph glyph-name="chi" unicode="&#x3c7;" horiz-adv-x="438" 
d="M-125 -240l250 426l-10 198q-1 52 -33 52q-10 0 -21 -2.5t-21 -5.5l18 121q14 4 36.5 6.5t40.5 2.5q58 0 84.5 -35.5t30.5 -97.5l1 -49l87 173h150l-224 -384l11 -232q1 -28 9 -39.5t21 -11.5q8 0 21.5 4.5t24.5 9.5v-116q-24 -10 -51 -15t-50 -5q-53 0 -79.5 34
t-31.5 117l-2 77l-114 -228h-148z" />
    <glyph glyph-name="psi" unicode="&#x3c8;" horiz-adv-x="646" 
d="M146 -240l50 232q-86 10 -127 56t-41 126q0 46 14 107l57 268h138l-62 -292q-5 -21 -7.5 -39t-2.5 -34q0 -33 12.5 -49t44.5 -19l137 644h135l-136 -643q35 0 60 28.5t41 76t25 104.5t13 115.5t4 107.5h135q0 -79 -7 -158.5t-25 -150.5t-52 -126.5t-88 -88t-133 -33.5
l-49 -232h-136z" />
    <glyph glyph-name="omega" unicode="&#x3c9;" horiz-adv-x="655" 
d="M147 -10q-69 0 -99.5 47t-30.5 127q0 56 15.5 123t41.5 135t59 127h138q-51 -104 -82.5 -202.5t-31.5 -178.5q0 -26 8 -38t20 -12q25 0 39 31t27 99l29 132h135l-29 -132q-5 -28 -8.5 -49t-3.5 -35q0 -46 26 -46q21 0 37.5 25t28 64.5t18.5 84.5t10.5 86t3.5 69
q0 36 -1 59.5t-4 42.5h141q2 -19 2.5 -42t0.5 -61q0 -52 -7 -113.5t-23.5 -121.5t-44.5 -110.5t-69.5 -80.5t-98.5 -30q-42 0 -66 14.5t-34 35.5t-11 41q-23 -43 -57.5 -67t-78.5 -24z" />
    <glyph glyph-name="iotadieresis" unicode="&#x3ca;" horiz-adv-x="291" 
d="M129 -10q-53 0 -80.5 28.5t-27.5 79.5q0 18 2.5 40t7.5 42l79 369h138l-82 -384l-2 -14t-1 -15q0 -24 21 -24q9 0 23 4.5t25 10.5v-108q-23 -14 -51.5 -21.5t-51.5 -7.5zM277 618q-55 0 -55 51q0 35 21 62t61 27q51 0 51 -50q0 -40 -23.5 -65t-54.5 -25zM98 618
q-55 0 -55 51q0 35 21 62t61 27q23 0 37 -13t14 -37q0 -40 -23 -65t-55 -25z" />
    <glyph glyph-name="upsilondieresis" unicode="&#x3cb;" horiz-adv-x="473" 
d="M184 -9q-82 0 -119 39.5t-37 110.5q0 23 4 52.5t11 61.5l62 294h138l-67 -317q-4 -18 -6.5 -37t-2.5 -32q0 -48 31 -48q26 0 46.5 30.5t35 79.5t24 107.5t15 115.5t6.5 101h137q-1 -75 -8.5 -153.5t-26 -151t-50 -129.5t-79 -90.5t-114.5 -33.5zM384 618q-55 0 -55 51
q0 35 21 62t61 27q51 0 51 -50q0 -40 -23.5 -65t-54.5 -25zM205 618q-55 0 -55 51q0 35 21 62t61 27q23 0 37 -13t14 -37q0 -40 -23 -65t-55 -25z" />
    <glyph glyph-name="omicrontonos" unicode="&#x3cc;" horiz-adv-x="460" 
d="M182 -10q-76 0 -119 48.5t-43 134.5q0 43 8.5 94.5t27.5 103t49.5 94t74 68.5t101.5 26q75 0 117.5 -49.5t42.5 -134.5q0 -47 -9.5 -100t-29 -103.5t-50 -91.5t-73 -65.5t-97.5 -24.5zM199 107q23 0 42 28.5t32.5 71.5t21 88.5t7.5 79.5q0 66 -39 66q-20 0 -36.5 -19
t-29 -50t-21 -67.5t-13 -71.5t-4.5 -61q0 -31 10 -48t30 -17zM236 606l3 13q6 11 14.5 31.5t18 44t17.5 43.5t12 31h125l-2 -10q-12 -19 -30.5 -48.5t-37.5 -58t-33 -46.5h-87z" />
    <glyph glyph-name="upsilontonos" unicode="&#x3cd;" horiz-adv-x="473" 
d="M184 -9q-82 0 -119 39.5t-37 110.5q0 23 4 52.5t11 61.5l62 294h138l-67 -317q-4 -18 -6.5 -37t-2.5 -32q0 -48 31 -48q26 0 46.5 30.5t35 79.5t24 107.5t15 115.5t6.5 101h137q-1 -75 -8.5 -153.5t-26 -151t-50 -129.5t-79 -90.5t-114.5 -33.5zM234 606l3 13
q6 11 14.5 31.5t18 44t17.5 43.5t12 31h125l-2 -10q-12 -19 -30.5 -48.5t-37.5 -58t-33 -46.5h-87z" />
    <glyph glyph-name="omegatonos" unicode="&#x3ce;" horiz-adv-x="655" 
d="M147 -10q-69 0 -99.5 47t-30.5 127q0 56 15.5 123t41.5 135t59 127h138q-51 -104 -82.5 -202.5t-31.5 -178.5q0 -26 8 -38t20 -12q25 0 39 31t27 99l29 132h135l-29 -132q-5 -28 -8.5 -49t-3.5 -35q0 -46 26 -46q21 0 37.5 25t28 64.5t18.5 84.5t10.5 86t3.5 69
q0 36 -1 59.5t-4 42.5h141q2 -19 2.5 -42t0.5 -61q0 -52 -7 -113.5t-23.5 -121.5t-44.5 -110.5t-69.5 -80.5t-98.5 -30q-42 0 -66 14.5t-34 35.5t-11 41q-23 -43 -57.5 -67t-78.5 -24zM332 606l3 13q6 11 14.5 31.5t18 44t17.5 43.5t12 31h125l-2 -10q-12 -19 -30.5 -48.5
t-37.5 -58t-33 -46.5h-87z" />
    <glyph glyph-name="afii10023" unicode="&#x401;" horiz-adv-x="406" 
d="M-3 0l151 714h307l-26 -125h-163l-34 -157h152l-27 -125h-151l-39 -180h164l-27 -127h-307zM397 783q-55 0 -55 51q0 35 21 62t61 27q51 0 51 -50q0 -40 -23.5 -65t-54.5 -25zM218 783q-55 0 -55 51q0 35 21 62t61 27q23 0 37 -13t14 -37q0 -40 -23 -65t-55 -25z" />
    <glyph glyph-name="afii10051" unicode="&#x402;" horiz-adv-x="547" 
d="M318 -10q-17 0 -36.5 3t-33.5 9l24 122q8 -5 16 -7t13 -2q21 0 29 18.5t13 43.5l20 89q1 8 2 17t1 14q0 19 -10.5 27t-29.5 8h-44l-71 -332h-144l124 586h-111l27 128h370l-27 -128h-115l-27 -127h59q69 0 106 -35.5t37 -97.5q0 -14 -2 -34.5t-6 -38.5l-24 -118
q-16 -74 -54 -109.5t-106 -35.5z" />
    <glyph glyph-name="afii10052" unicode="&#x403;" horiz-adv-x="389" 
d="M-3 0l151 714h320l-26 -126h-176l-125 -588h-144zM228 771l2 10q29 38 55 75t49 75h155l-1 -8q-11 -12 -32.5 -33.5t-46.5 -45t-47 -43.5l-33 -30h-101z" />
    <glyph glyph-name="afii10053" unicode="&#x404;" horiz-adv-x="467" 
d="M222 -10q-95 0 -141 62t-46 175q0 68 15 138t43 134.5t69 115t92.5 80t112.5 29.5q49 0 91 -11.5t72 -35.5l-68 -114q-47 34 -91 34q-30 0 -53.5 -16.5t-42 -42.5t-32 -55t-21.5 -54h176l-28 -126h-177q-2 -19 -4 -39t-2 -37q0 -53 15 -81t57 -28q24 0 58.5 11t65.5 27
v-128q-23 -12 -52.5 -20.5t-58.5 -13t-50 -4.5z" />
    <glyph glyph-name="afii10054" unicode="&#x405;" horiz-adv-x="420" 
d="M142 -10q-50 0 -90 10t-72 33l30 148q26 -21 62 -38t71 -17q31 0 57.5 18t26.5 65q0 27 -11.5 49t-49.5 56q-45 40 -66.5 81.5t-21.5 103.5q0 63 26 114t78 81t130 30q39 0 81.5 -12t76.5 -38l-65 -130q-58 46 -101 46q-29 0 -51.5 -19t-22.5 -58q0 -25 14 -48t54 -57
q44 -37 63.5 -80t19.5 -103q0 -61 -26 -115t-79.5 -87t-133.5 -33z" />
    <glyph glyph-name="afii10055" unicode="&#x406;" horiz-adv-x="343" 
d="M-40 0l16 75l87 34l105 496l-73 34l15 75h307l-16 -75l-89 -34l-105 -496l75 -34l-16 -75h-306z" />
    <glyph glyph-name="afii10056" unicode="&#x407;" horiz-adv-x="343" 
d="M-40 0l16 75l87 34l105 496l-73 34l15 75h307l-16 -75l-89 -34l-105 -496l75 -34l-16 -75h-306zM372 803q-55 0 -55 51q0 35 21 62t61 27q51 0 51 -50q0 -40 -23.5 -65t-54.5 -25zM193 803q-55 0 -55 51q0 35 21 62t61 27q23 0 37 -13t14 -37q0 -40 -23 -65t-55 -25z" />
    <glyph glyph-name="afii10057" unicode="&#x408;" horiz-adv-x="256" 
d="M-68 -215q-29 0 -49.5 3t-37.5 9l27 126q26 -13 52 -13t42 19.5t25 48.5t14 57l145 679h144l-148 -701q-26 -123 -81 -175.5t-133 -52.5z" />
    <glyph glyph-name="afii10058" unicode="&#x409;" horiz-adv-x="737" 
d="M12 -9q-14 0 -29.5 2.5t-27.5 7.5v125q11 -5 22 -7.5t18 -2.5q19 0 34.5 13.5t33.5 59.5q28 65 67.5 194t95.5 331h345l-57 -266h17q86 0 131.5 -43t45.5 -127q0 -51 -15 -100.5t-47 -89.5t-83.5 -64t-124.5 -24h-161l122 578h-75q-17 -61 -37 -128t-39.5 -129.5
t-36 -111.5t-27.5 -73q-23 -53 -46 -85t-52.5 -46t-73.5 -14zM445 126h20q46 0 70 40.5t24 100.5q0 30 -15.5 43t-45.5 13h-10z" />
    <glyph glyph-name="afii10059" unicode="&#x40a;" horiz-adv-x="715" 
d="M-3 0l151 714h144l-58 -272h112l59 272h144l-56 -266h15q177 0 177 -170q0 -72 -28 -135.5t-88 -103t-155 -39.5h-161l68 317h-113l-67 -317h-144zM424 126h19q43 0 68 39t25 102q0 30 -16 43t-46 13h-8z" />
    <glyph glyph-name="afii10060" unicode="&#x40b;" horiz-adv-x="554" 
d="M68 0l124 586h-110l27 128h369l-27 -128h-114l-27 -127h59q71 0 106.5 -37.5t35.5 -93.5q0 -22 -3 -45.5t-7 -42.5l-52 -240h-143l58 266q1 8 2 17t1 14q0 19 -11 27t-29 8h-44l-70 -332h-145z" />
    <glyph glyph-name="afii10061" unicode="&#x40c;" horiz-adv-x="490" 
d="M-3 0l151 714h144l-73 -342l213 342h156l-231 -348l81 -366h-152l-69 364l-76 -364h-144zM290 771l2 10q29 38 55 75t49 75h155l-1 -8q-11 -12 -32.5 -33.5t-46.5 -45t-47 -43.5l-33 -30h-101z" />
    <glyph glyph-name="afii10062" unicode="&#x40e;" horiz-adv-x="461" 
d="M65 -9q-29 0 -48.5 3.5t-36.5 10.5v127q14 -10 36 -13.5t34 -3.5q33 0 51.5 21.5t39.5 67.5l-48 510h148l11 -213q1 -13 2 -35t1.5 -43t1.5 -33q11 27 24.5 59t28.5 66l89 199h154l-258 -518q-27 -54 -59 -101t-74 -75.5t-97 -28.5zM329 767q-76 0 -108.5 34t-32.5 93
q0 8 1.5 21t2.5 24h111q-2 -10 -3 -21.5t-1 -20.5q0 -46 38 -46q48 0 69 88h110q-19 -91 -67.5 -131.5t-119.5 -40.5z" />
    <glyph glyph-name="afii10145" unicode="&#x40f;" horiz-adv-x="531" 
d="M90 -214l45 214h-138l151 714h144l-125 -587h131l124 587h145l-151 -714h-140l-45 -214h-141z" />
    <glyph glyph-name="afii10017" unicode="&#x410;" horiz-adv-x="499" 
d="M-60 0l306 717h184l8 -717h-153l4 162h-128l-63 -162h-158zM209 288h87l7 203q1 24 2 46.5t3 48.5h-3q-4 -24 -10.5 -46t-14.5 -47z" />
    <glyph glyph-name="afii10018" unicode="&#x411;" horiz-adv-x="461" 
d="M-3 0l151 714h336l-27 -128h-192l-30 -138h20q86 0 131.5 -43t45.5 -127q0 -52 -15.5 -102t-48 -89.5t-84 -63t-123.5 -23.5h-164zM167 126h23q43 0 68 39t25 102q0 30 -16.5 43t-46.5 13h-11z" />
    <glyph glyph-name="afii10019" unicode="&#x412;" horiz-adv-x="494" 
d="M-4 0l151 714h178q47 0 88.5 -14.5t67 -47.5t25.5 -88q0 -64 -31.5 -116t-98.5 -73v-4q34 -13 53.5 -48t19.5 -82q0 -63 -27.5 -118t-82 -89t-134.5 -34h-209zM231 428h35q27 0 46.5 16.5t30 42t10.5 53.5q0 54 -55 54h-31zM167 123h38q49 0 72 37.5t23 87.5q0 64 -55 64
h-38z" />
    <glyph glyph-name="afii10020" unicode="&#x413;" horiz-adv-x="389" 
d="M-3 0l151 714h320l-26 -126h-176l-125 -588h-144z" />
    <glyph glyph-name="afii10021" unicode="&#x414;" horiz-adv-x="566" 
d="M-98 -214l71 341h42q68 121 126.5 271t99.5 316h340l-125 -587h66l-73 -341h-141l45 214h-266l-45 -214h-140zM167 127h145l98 463h-65q-32 -121 -79 -242t-99 -221z" />
    <glyph glyph-name="afii10022" unicode="&#x415;" horiz-adv-x="406" 
d="M-3 0l151 714h307l-26 -125h-163l-34 -157h152l-27 -125h-151l-39 -180h164l-27 -127h-307z" />
    <glyph glyph-name="afii10024" unicode="&#x416;" horiz-adv-x="712" 
d="M-67 0l234 377l-83 337h147l74 -342l72 342h141l-73 -342l211 342h155l-230 -348l79 -366h-152l-65 364l-77 -364h-140l77 364l-212 -364h-158z" />
    <glyph glyph-name="afii10025" unicode="&#x417;" horiz-adv-x="457" 
d="M144 -10q-52 0 -88 7.5t-65 23.5v143q27 -23 65.5 -34.5t78.5 -11.5q60 0 92 30t32 88q0 73 -92 73h-62l27 125h60q61 0 91.5 29.5t30.5 80.5q0 22 -16.5 37.5t-46.5 15.5q-34 0 -61 -13t-52 -34l-48 102q48 37 97 54.5t108 17.5q75 0 120 -40.5t46 -116.5
q0 -76 -42.5 -125.5t-116.5 -65.5l-1 -4q41 -8 74 -43.5t33 -102.5q0 -72 -34.5 -125t-94 -82t-135.5 -29z" />
    <glyph glyph-name="afii10026" unicode="&#x418;" horiz-adv-x="592" 
d="M-3 0l151 714h141l-59 -271q-7 -35 -17.5 -80t-24.5 -89h4l265 440h170l-151 -714h-141l58 271q7 35 19.5 85.5t25.5 91.5h-4l-267 -448h-170z" />
    <glyph glyph-name="afii10027" unicode="&#x419;" horiz-adv-x="592" 
d="M-3 0l151 714h141l-59 -271q-7 -35 -17.5 -80t-24.5 -89h4l265 440h170l-151 -714h-141l58 271q7 35 19.5 85.5t25.5 91.5h-4l-267 -448h-170zM388 767q-76 0 -108.5 34t-32.5 93q0 8 1.5 21t2.5 24h111q-2 -10 -3 -21.5t-1 -20.5q0 -46 38 -46q48 0 69 88h110
q-19 -91 -67.5 -131.5t-119.5 -40.5z" />
    <glyph glyph-name="afii10028" unicode="&#x41a;" horiz-adv-x="490" 
d="M-3 0l151 714h144l-73 -342l213 342h156l-231 -348l81 -366h-152l-69 364l-76 -364h-144z" />
    <glyph glyph-name="afii10029" unicode="&#x41b;" horiz-adv-x="542" 
d="M14 -9q-15 0 -30.5 2.5t-27.5 7.5v125q12 -5 23 -7.5t18 -2.5q18 0 35 15.5t35 63.5q10 26 27 79t38.5 124t46 152.5t48.5 163.5h354l-151 -714h-145l123 578h-83q-13 -50 -32 -114.5t-40 -130.5t-40 -121.5t-32 -87.5q-22 -46 -44 -75.5t-51.5 -43.5t-71.5 -14z" />
    <glyph glyph-name="afii10030" unicode="&#x41c;" horiz-adv-x="717" 
d="M-3 0l151 714h189l13 -457h3l198 457h202l-152 -714h-141l78 365q4 20 10 40t11 40h-3l-198 -445h-122l-11 441h-3q-5 -31 -9.5 -57.5t-9.5 -50.5l-70 -333h-136z" />
    <glyph glyph-name="afii10031" unicode="&#x41d;" horiz-adv-x="543" 
d="M-3 0l151 714h144l-59 -279h142l59 279h145l-152 -714h-145l65 308h-141l-65 -308h-144z" />
    <glyph glyph-name="afii10032" unicode="&#x41e;" horiz-adv-x="554" 
d="M230 -10q-100 0 -147.5 56.5t-47.5 177.5q0 67 13.5 137t40 135t65.5 116.5t90 82t114 30.5q100 0 146 -58.5t46 -172.5q0 -57 -11.5 -125t-35.5 -134.5t-61.5 -122t-90 -89t-121.5 -33.5zM240 119q31 0 56.5 26.5t45 70t32.5 94.5t19.5 100.5t6.5 87.5q0 100 -54 100
q-32 0 -57.5 -27t-44.5 -70.5t-32 -94t-19.5 -99t-6.5 -84.5q0 -61 14 -82.5t40 -21.5z" />
    <glyph glyph-name="afii10033" unicode="&#x41f;" horiz-adv-x="531" 
d="M-3 0l151 714h419l-151 -714h-145l125 586h-131l-124 -586h-144z" />
    <glyph glyph-name="afii10034" unicode="&#x420;" horiz-adv-x="462" 
d="M-3 0l151 714h157q97 0 140.5 -46t43.5 -121q0 -54 -15 -107t-46 -96.5t-79.5 -69.5t-114.5 -26h-41l-52 -248h-144zM219 373h17q50 0 77 43.5t27 111.5q0 34 -15 47.5t-45 13.5h-14z" />
    <glyph glyph-name="afii10035" unicode="&#x421;" horiz-adv-x="449" 
d="M212 -10q-88 0 -132.5 61.5t-44.5 168.5q0 68 14 139t40.5 136t65.5 117t90 82t112 30q42 0 82.5 -10.5t74.5 -36.5l-69 -114q-43 34 -83 34q-36 0 -64.5 -28t-49.5 -73t-34.5 -96t-20 -97t-6.5 -76q0 -59 16.5 -84t47.5 -25q30 0 60 9.5t59 24.5v-129q-35 -17 -77.5 -25
t-80.5 -8z" />
    <glyph glyph-name="afii10036" unicode="&#x422;" horiz-adv-x="407" 
d="M71 0l125 586h-117l27 128h379l-27 -128h-118l-124 -586h-145z" />
    <glyph glyph-name="afii10037" unicode="&#x423;" horiz-adv-x="461" 
d="M65 -9q-29 0 -48.5 3.5t-36.5 10.5v127q14 -10 36 -13.5t34 -3.5q33 0 51.5 21.5t39.5 67.5l-48 510h148l11 -213q1 -13 2 -35t1.5 -43t1.5 -33q11 27 24.5 59t28.5 66l89 199h154l-258 -518q-27 -54 -59 -101t-74 -75.5t-97 -28.5z" />
    <glyph glyph-name="afii10038" unicode="&#x424;" horiz-adv-x="658" 
d="M196 -10l24 110q-82 3 -130.5 51.5t-48.5 143.5q0 63 17 122.5t52.5 108t90.5 78.5t132 32l19 88h140l-19 -88q80 -3 129.5 -56.5t49.5 -139.5q0 -64 -18 -124.5t-54.5 -109t-91.5 -77t-129 -29.5l-23 -110h-140zM245 222l63 292q-31 0 -54 -20t-38.5 -51.5t-23 -68.5
t-7.5 -70q0 -42 15 -61.5t45 -20.5zM385 222q37 0 64.5 31t42.5 78t15 96q0 85 -60 87z" />
    <glyph glyph-name="afii10039" unicode="&#x425;" horiz-adv-x="467" 
d="M-58 0l225 362l-64 352h151l25 -200l106 200h155l-210 -350l76 -364h-156l-28 214l-126 -214h-154z" />
    <glyph glyph-name="afii10040" unicode="&#x426;" horiz-adv-x="579" 
d="M318 -214l45 214h-366l152 714h144l-125 -587h141l125 587h145l-126 -587h78l-73 -341h-140z" />
    <glyph glyph-name="afii10041" unicode="&#x427;" horiz-adv-x="510" 
d="M249 0l55 264q-30 -14 -63 -24.5t-62 -10.5q-59 0 -86.5 34t-27.5 91q0 16 3 40t8 46l58 274h144l-54 -253q-4 -18 -6 -32.5t-2 -25.5q0 -47 33 -47q20 0 41.5 9.5t38.5 19.5l71 329h144l-151 -714h-144z" />
    <glyph glyph-name="afii10042" unicode="&#x428;" horiz-adv-x="778" 
d="M-3 0l151 714h144l-125 -587h118l125 587h144l-125 -587h117l125 587h144l-151 -714h-667z" />
    <glyph glyph-name="afii10043" unicode="&#x429;" horiz-adv-x="814" 
d="M555 -214l46 214h-604l151 714h144l-125 -587h118l125 587h144l-125 -587h117l125 587h145l-126 -587h78l-72 -341h-141z" />
    <glyph glyph-name="afii10044" unicode="&#x42a;" horiz-adv-x="535" 
d="M70 0l124 586h-118l27 128h263l-57 -266h20q86 0 131 -42.5t45 -127.5q0 -52 -15.5 -102t-47.5 -89.5t-83 -63t-123 -23.5h-166zM241 126h23q44 0 68.5 39t24.5 102q0 30 -16.5 43t-44.5 13h-13z" />
    <glyph glyph-name="afii10045" unicode="&#x42b;" horiz-adv-x="709" 
d="M-3 0l151 714h144l-57 -266h21q86 0 131 -42.5t45 -127.5q0 -52 -15 -101.5t-47.5 -89.5t-84 -63.5t-123.5 -23.5h-165zM448 0l152 714h145l-152 -714h-145zM167 126h22q45 0 69.5 40.5t24.5 100.5q0 30 -16 43t-46 13h-12z" />
    <glyph glyph-name="afii10046" unicode="&#x42c;" horiz-adv-x="462" 
d="M-3 0l151 714h144l-57 -266h21q86 0 131 -43t45 -127q0 -52 -15 -101.5t-47.5 -89.5t-84 -63.5t-123.5 -23.5h-165zM167 126h22q45 0 69.5 40.5t24.5 100.5q0 30 -16.5 43t-44.5 13h-13z" />
    <glyph glyph-name="afii10047" unicode="&#x42d;" horiz-adv-x="470" 
d="M135 -10q-45 0 -77 8t-57 25v132q29 -19 65 -28t66 -9q51 0 90 47t64 138h-181l27 126h176q2 8 3 20t1 22q0 126 -73 126q-29 0 -53.5 -8.5t-58.5 -25.5l-34 111q83 50 169 50q92 0 145 -65t53 -196q0 -62 -13 -128t-38.5 -127.5t-64.5 -110.5t-91 -78t-118 -29z" />
    <glyph glyph-name="afii10048" unicode="&#x42e;" horiz-adv-x="750" 
d="M443 -10q-94 0 -138 55.5t-44 174.5q0 40 6 87h-61l-65 -307h-144l151 714h144l-59 -280h58q14 53 37.5 105t57 94t78 67t100.5 25q87 0 135 -54.5t48 -173.5q0 -55 -11 -123t-33.5 -135.5t-58.5 -123.5t-86 -90.5t-115 -34.5zM448 119q26 0 47 22t37.5 58.5t28.5 79.5
t19.5 86t11.5 79t4 57q0 97 -47 97q-29 0 -52.5 -28.5t-41.5 -74t-30 -97t-18 -99.5t-6 -80q0 -59 12 -79.5t35 -20.5z" />
    <glyph glyph-name="afii10049" unicode="&#x42f;" horiz-adv-x="483" 
d="M-64 0l199 310q-51 42 -51 131q0 80 31 141.5t91 96.5t148 35h165l-151 -714h-145l57 272h-18l-166 -272h-160zM287 391h19l42 200h-21q-33 0 -54 -20.5t-31 -52.5t-10 -67q0 -29 15 -44.5t40 -15.5z" />
    <glyph glyph-name="afii10065" unicode="&#x430;" horiz-adv-x="470" 
d="M129 -10q-53 0 -82.5 43t-29.5 119q0 43 8 97t25 108.5t43 100t61.5 73.5t80.5 28q32 0 57.5 -18t38.5 -59h3l25 67h121l-117 -549h-112l-1 69h-4q-26 -35 -53 -57t-64 -22zM189 107q25 0 42.5 24.5t29.5 59.5t20 68q11 47 14 73t3 46q0 60 -36 60q-19 0 -34.5 -19
t-28 -50t-21.5 -67t-13.5 -70.5t-4.5 -59.5q0 -65 29 -65z" />
    <glyph glyph-name="afii10066" unicode="&#x431;" horiz-adv-x="458" 
d="M187 -10q-47 0 -85 19.5t-59.5 64t-21.5 118.5q0 53 7 117.5t25.5 130.5t52 125.5t85.5 104t126 64.5q29 8 76.5 18t112.5 17v-128q-44 -4 -81.5 -9.5t-82.5 -15.5q-62 -16 -94 -62t-46 -105h3q22 29 50.5 45.5t59.5 16.5q51 0 85.5 -38t34.5 -125q0 -61 -17.5 -124
t-49.5 -116t-78 -85.5t-103 -32.5zM194 107q22 0 39.5 25t30 62t19 75.5t6.5 66.5q0 23 -6 42.5t-26 19.5q-13 0 -28.5 -11.5t-29.5 -29t-22 -34.5q-17 -83 -17 -140q0 -76 34 -76z" />
    <glyph glyph-name="afii10067" unicode="&#x432;" horiz-adv-x="478" 
d="M196 -10q-48 0 -88 20t-64 61.5t-24 103.5q0 49 8.5 102.5t28 103.5t51.5 90.5t79 64t111 23.5q76 0 121.5 -35t45.5 -101q0 -49 -28 -84.5t-92 -52.5l-1 -3q30 -7 53.5 -34t23.5 -79q0 -47 -25 -88t-75.5 -66.5t-124.5 -25.5zM187 333h56q39 0 58.5 20t19.5 54
q0 47 -38 47q-26 0 -44 -18t-30.5 -45.5t-21.5 -57.5zM215 95q26 0 46.5 22.5t20.5 55.5q0 27 -14 43t-46 16h-58q-3 -17 -4 -29.5t-1 -28.5q0 -45 16 -62t40 -17z" />
    <glyph glyph-name="afii10068" unicode="&#x433;" horiz-adv-x="384" 
d="M171 -10q-46 0 -83 12t-59.5 42t-24.5 82q0 70 36 117t91 75q43 24 70 45.5t27 50.5q0 16 -11 22.5t-26 6.5q-25 0 -47 -9t-39 -19l-33 100q34 20 69 32t76 12q77 0 115 -38.5t38 -103.5q0 -67 -34 -110.5t-88 -71.5q-56 -30 -76.5 -49.5t-20.5 -45.5q0 -17 14.5 -25
t33.5 -8q24 0 55 8t60 24v-115q-33 -18 -70.5 -26t-72.5 -8z" />
    <glyph glyph-name="afii10069" unicode="&#x434;" horiz-adv-x="475" 
d="M192 -10q-82 0 -127 45.5t-45 127.5q0 38 7.5 84.5t23.5 93t42 85t62.5 62t84.5 23.5q30 0 54 -11t37 -25h2q4 21 4.5 40t0.5 36q0 59 -15.5 82t-46.5 23q-23 0 -47.5 -9t-53.5 -26l-28 109q35 21 77 30.5t77 9.5q86 0 131.5 -60.5t45.5 -166.5q0 -50 -6 -110t-19 -122.5
t-35 -119.5t-53.5 -102.5t-74.5 -72t-98 -26.5zM199 102q19 0 35 19.5t29 50.5t23 67t16.5 69t9.5 56q-7 12 -21 23t-31 11q-24 0 -42.5 -25.5t-31.5 -63.5t-19.5 -78t-6.5 -69q0 -60 39 -60z" />
    <glyph glyph-name="afii10070" unicode="&#x435;" horiz-adv-x="440" 
d="M190 -10q-80 0 -125.5 47.5t-45.5 132.5q0 69 16 137.5t49 125.5t83.5 91t119.5 34q65 0 105 -36t40 -99q0 -97 -72 -145.5t-191 -48.5h-9q-5 -23 -5 -44q0 -45 17 -64t51 -19q33 0 61 8t66 30v-105q-40 -26 -79.5 -35.5t-80.5 -9.5zM180 329h3q71 0 96.5 23t25.5 58
q0 17 -10.5 28t-27.5 11q-25 0 -48 -30.5t-39 -89.5z" />
    <glyph glyph-name="afii10072" unicode="&#x436;" horiz-adv-x="779" 
d="M15 -9q-13 0 -26 1t-27 5l33 116q9 -3 23 -3q25 0 44.5 19t33.5 49t23 64.5t13 67t4 54.5q0 74 -44 74q-14 0 -32 -5v114q28 11 65 11q72 0 110.5 -46t38.5 -127q0 -11 -1 -23t-3 -25h63l45 212h134l-45 -212h56q17 61 46 111t75 80t112 30q13 0 26.5 -1t26.5 -5
l-33 -117q-10 3 -23 3q-28 0 -50 -25.5t-37 -65t-23 -83.5t-8 -80q0 -74 44 -74q17 0 33 6v-115q-30 -10 -65 -10q-72 0 -111 46t-39 127q0 14 1 29t2 31h-58l-47 -224h-134l47 224h-56q-34 -123 -93 -178t-144 -55z" />
    <glyph glyph-name="afii10073" unicode="&#x437;" horiz-adv-x="381" 
d="M131 -10q-40 0 -78 8t-68 25v126q34 -23 68 -32.5t63 -9.5q38 0 59.5 19.5t21.5 51.5q0 27 -15.5 40.5t-49.5 13.5h-49l22 103h41q34 0 59 16.5t25 47.5q0 45 -41 45q-20 0 -41 -7t-48 -20l-33 99q45 27 82 35t76 8q71 0 108 -34.5t37 -99.5q0 -52 -29 -85.5t-78 -49.5
l-1 -4q37 -10 56 -40.5t19 -73.5q0 -50 -25 -91.5t-71 -66t-110 -24.5z" />
    <glyph glyph-name="afii10074" unicode="&#x438;" horiz-adv-x="470" 
d="M134 -10q-56 0 -84.5 32.5t-28.5 90.5q0 18 2.5 39.5t6.5 43.5l76 353h138l-67 -316q-11 -47 -11 -80q0 -38 30 -38q31 0 50.5 42t33.5 107l62 285h138l-116 -549h-111l3 65h-3q-23 -35 -53 -55t-66 -20z" />
    <glyph glyph-name="afii10075" unicode="&#x439;" horiz-adv-x="470" 
d="M134 -10q-56 0 -84.5 32.5t-28.5 90.5q0 18 2.5 39.5t6.5 43.5l76 353h138l-67 -316q-11 -47 -11 -80q0 -38 30 -38q31 0 50.5 42t33.5 107l62 285h138l-116 -549h-111l3 65h-3q-23 -35 -53 -55t-66 -20zM302 602q-76 0 -108.5 34t-32.5 93q0 8 1.5 21t2.5 24h111
q-2 -10 -3 -21.5t-1 -20.5q0 -46 38 -46q48 0 69 88h110q-19 -91 -67.5 -131.5t-119.5 -40.5z" />
    <glyph glyph-name="afii10076" unicode="&#x43a;" horiz-adv-x="459" 
d="M-9 0l117 549h138l-55 -258l163 258h152l-183 -270l78 -279h-148l-66 270l-57 -270h-139z" />
    <glyph glyph-name="afii10077" unicode="&#x43b;" horiz-adv-x="478" 
d="M13 -9q-19 0 -31 3.5t-26 10.5v119q8 -7 17.5 -9t19.5 -2q17 0 33 16t31 57.5t30 118.5q17 85 47 141t81 83.5t130 27.5q43 0 75 -2.5t71 -7.5l-115 -547h-139l92 436q-3 1 -7 1h-9q-41 0 -62.5 -44.5t-43.5 -144.5q-11 -47 -25 -93t-36 -83t-54 -59t-79 -22z" />
    <glyph glyph-name="afii10078" unicode="&#x43c;" horiz-adv-x="609" 
d="M-10 0l117 549h186l-1 -319h2l131 319h193l-116 -549h-131l51 242q7 26 12.5 51t11.5 50h-1l-147 -343h-103l-4 343h-1q-4 -24 -8 -46.5t-8 -47.5l-53 -249h-131z" />
    <glyph glyph-name="afii10079" unicode="&#x43d;" horiz-adv-x="473" 
d="M-10 0l118 549h138l-44 -208h97l44 208h139l-117 -549h-138l48 223h-99l-46 -223h-140z" />
    <glyph glyph-name="afii10080" unicode="&#x43e;" horiz-adv-x="460" 
d="M182 -10q-76 0 -119 48.5t-43 134.5q0 43 8.5 94.5t27.5 103t49.5 94t74 68.5t101.5 26q75 0 117.5 -49.5t42.5 -134.5q0 -47 -9.5 -100t-29 -103.5t-50 -91.5t-73 -65.5t-97.5 -24.5zM199 107q23 0 42 28.5t32.5 71.5t21 88.5t7.5 79.5q0 66 -39 66q-20 0 -36.5 -19
t-29 -50t-21 -67.5t-13 -71.5t-4.5 -61q0 -31 10 -48t30 -17z" />
    <glyph glyph-name="afii10081" unicode="&#x43f;" horiz-adv-x="470" 
d="M-10 0l117 549h111l-4 -66h3q23 35 53.5 55.5t65.5 20.5q29 0 55 -11.5t42.5 -38.5t16.5 -73q0 -16 -3 -37.5t-8 -48.5l-74 -350h-139l67 314q5 23 8 44.5t3 36.5q0 39 -29 39q-31 0 -51 -42t-34 -106l-60 -286h-140z" />
    <glyph glyph-name="afii10082" unicode="&#x440;" horiz-adv-x="469" 
d="M-59 -238l166 787h113l-4 -72h4q28 44 57.5 63t64.5 19q52 0 82 -40t30 -123q0 -47 -9 -102t-26.5 -108.5t-44 -98t-61.5 -71t-78 -26.5q-34 0 -58.5 18.5t-36.5 51.5h-3q-4 -27 -8 -51t-6 -40l-45 -207h-137zM209 111q23 0 41.5 28.5t32 71.5t21 88t7.5 78q0 64 -29 64
q-20 0 -37.5 -20t-31 -52.5t-22.5 -69t-14 -70.5t-5 -57q0 -61 37 -61z" />
    <glyph glyph-name="afii10083" unicode="&#x441;" horiz-adv-x="377" 
d="M171 -10q-73 0 -112 46.5t-39 128.5q0 49 9 103.5t28 106t49.5 93.5t73.5 66.5t100 24.5q38 0 69 -9.5t59 -28.5l-57 -110q-14 12 -33 19.5t-36 7.5q-33 0 -55.5 -27.5t-36.5 -69t-20.5 -83.5t-6.5 -72q0 -76 45 -76q44 0 102 43v-119q-25 -18 -62.5 -31t-76.5 -13z" />
    <glyph glyph-name="afii10084" unicode="&#x442;" horiz-adv-x="696" 
d="M-10 0l117 549h111l-5 -65h4q23 34 54 54.5t68 20.5q81 0 104 -69h3q24 32 56.5 50.5t69.5 18.5q50 0 77.5 -30.5t27.5 -86.5q0 -17 -2.5 -39t-7.5 -45l-76 -358h-139l68 320q4 21 7 40.5t3 32.5q0 41 -28 41q-22 0 -36.5 -20.5t-24.5 -50t-16 -56.5l-65 -307h-138
l69 323q4 20 6.5 39t2.5 32q0 40 -27 40q-23 0 -38.5 -22t-26 -55t-16.5 -65l-62 -292h-140z" />
    <glyph glyph-name="afii10085" unicode="&#x443;" horiz-adv-x="427" 
d="M1 -240q-41 0 -70 9l25 125q22 -9 42 -9q22 0 35.5 14t26.5 40l32 69l-29 541h140l1 -239q0 -50 -3 -98h3q8 26 17 53.5t15 43.5l101 240h145l-286 -622q-22 -48 -47.5 -85.5t-61 -59.5t-86.5 -22z" />
    <glyph glyph-name="afii10086" unicode="&#x444;" horiz-adv-x="648" 
d="M149 -240l50 238q-88 8 -134 60.5t-46 151.5q0 56 18 115.5t54.5 110t92.5 82t131 32.5l44 210h136l-45 -211q87 -11 133 -60.5t46 -149.5q0 -57 -18.5 -117t-56 -110.5t-93 -82t-128.5 -31.5l-50 -238h-134zM222 116l68 317q-32 -1 -56 -22.5t-41 -56.5t-25.5 -75
t-8.5 -79q0 -26 14.5 -52t48.5 -32zM360 116q34 1 59 25.5t40.5 61t23 76t7.5 69.5q0 27 -15 53t-49 32z" />
    <glyph glyph-name="afii10087" unicode="&#x445;" horiz-adv-x="430" 
d="M-51 0l181 281l-61 268h149l22 -148l82 148h155l-174 -270l63 -279h-149l-25 161l-91 -161h-152z" />
    <glyph glyph-name="afii10088" unicode="&#x446;" horiz-adv-x="499" 
d="M246 -199l43 207q-28 15 -32 58h-3q-50 -76 -120 -76q-53 0 -83 31.5t-30 91.5q0 17 2.5 39.5t7.5 44.5l75 352h138l-67 -316q-11 -47 -11 -79q0 -39 30 -39t50 42t34 107l62 285h138l-77 -364q-3 -13 -5.5 -26.5t-2.5 -22.5q0 -14 7.5 -18.5t15.5 -4.5q5 0 12.5 1
t17.5 5l-68 -318h-134z" />
    <glyph glyph-name="afii10089" unicode="&#x447;" horiz-adv-x="463" 
d="M217 0l36 168q3 11 7 26t9 28h-2q-20 -26 -49.5 -40.5t-58.5 -14.5q-35 0 -58.5 17.5t-36 45t-12.5 58.5q0 56 15 117l31 144h138l-29 -140q-5 -22 -8 -41t-3 -38q0 -16 7 -27.5t21 -11.5q28 0 48 28t33 96l29 134h139l-117 -549h-139z" />
    <glyph glyph-name="afii10090" unicode="&#x448;" horiz-adv-x="697" 
d="M127 -10q-51 0 -78.5 31t-27.5 87q0 35 11 87l75 354h139l-68 -317q-5 -23 -7.5 -42.5t-2.5 -33.5q0 -41 28 -41q22 0 36.5 22t24.5 52.5t16 58.5l64 301h139l-68 -320q-5 -22 -7.5 -41.5t-2.5 -33.5q0 -39 27 -39q22 0 37.5 23t26.5 55.5t17 62.5l62 293h138l-116 -549
h-111l4 63h-4q-23 -34 -53 -53.5t-66 -19.5q-43 0 -68 17t-38 52h-2q-24 -31 -56.5 -50t-68.5 -19z" />
    <glyph glyph-name="afii10091" unicode="&#x449;" horiz-adv-x="725" 
d="M471 -199l44 207q-27 16 -33 55h-3q-23 -35 -53.5 -54t-65.5 -19q-43 0 -68 17t-38 52h-2q-24 -31 -56.5 -50t-68.5 -19q-51 0 -78.5 31t-27.5 87q0 35 11 87l75 354h139l-68 -317q-5 -23 -7.5 -42.5t-2.5 -33.5q0 -41 28 -41q22 0 36.5 22t24.5 52.5t16 58.5l64 301h139
l-68 -320q-5 -22 -7.5 -41.5t-2.5 -33.5q0 -39 27 -39q22 0 37.5 23t26.5 55.5t17 62.5l62 293h138l-79 -372q-2 -10 -4 -22t-2 -19q0 -14 7 -18.5t16 -4.5q4 0 11 1t18 5l-67 -318h-135z" />
    <glyph glyph-name="afii10092" unicode="&#x44a;" horiz-adv-x="504" 
d="M237 -10q-77 0 -112.5 35.5t-35.5 97.5q0 17 2.5 36t7.5 39l48 228h-104l26 123h243l-44 -210q5 1 15.5 2t21.5 1q155 0 155 -143q0 -95 -58 -152t-165 -57zM257 95q26 0 43 29.5t17 63.5q0 49 -40 49q-7 0 -16 -1.5t-17 -2.5q-10 -46 -14 -68.5t-4 -32.5
q0 -14 5.5 -25.5t25.5 -11.5z" />
    <glyph glyph-name="afii10093" unicode="&#x44b;" horiz-adv-x="652" 
d="M167 -10q-64 0 -106 30t-42 103q0 13 2 29.5t7 41.5l76 355h138l-44 -210q12 3 37 3q156 0 156 -143q0 -69 -28.5 -115.5t-79.5 -70t-116 -23.5zM406 0l117 549h138l-116 -549h-139zM186 95q28 0 45 27.5t17 65.5q0 49 -41 49q-7 0 -16 -1.5t-17 -2.5q-18 -89 -18 -101
t5 -24.5t25 -12.5z" />
    <glyph glyph-name="afii10094" unicode="&#x44c;" horiz-adv-x="435" 
d="M167 -10q-64 0 -106 30t-42 103q0 13 2 30t7 42l76 354h138l-44 -210q12 3 37 3q156 0 156 -143q0 -71 -28.5 -117t-79.5 -69t-116 -23zM186 95q28 0 45 27.5t17 65.5q0 49 -41 49q-7 0 -16 -1.5t-17 -2.5q-18 -87 -18 -101q0 -12 5 -24.5t25 -12.5z" />
    <glyph glyph-name="afii10095" unicode="&#x44d;" horiz-adv-x="384" 
d="M99 -10q-35 0 -62.5 5t-47.5 19v131q23 -20 50 -30.5t50 -10.5q33 0 54 17.5t34 45t21 56.5h-128l22 105h127q1 8 2 20.5t1 20.5q0 75 -53 75q-17 0 -37 -5t-39 -19l-31 101q26 17 68 27.5t80 10.5q73 0 113.5 -46.5t40.5 -127.5q0 -49 -9 -103.5t-28 -106t-50 -93.5
t-75 -67t-103 -25z" />
    <glyph glyph-name="afii10096" unicode="&#x44e;" horiz-adv-x="668" 
d="M393 -10q-77 0 -117.5 48t-40.5 134q0 26 3 51h-62l-46 -223h-140l118 549h138l-44 -208h59q18 55 48.5 105t75.5 81.5t105 31.5q76 0 117.5 -49t41.5 -134q0 -44 -9 -96.5t-28 -103.5t-49.5 -93t-72.5 -67.5t-97 -25.5zM407 107q19 0 35 19.5t28.5 51t21.5 68t13.5 71
t4.5 59.5q0 65 -37 65q-18 0 -34 -19.5t-28.5 -50.5t-21.5 -67.5t-13.5 -71.5t-4.5 -61q0 -64 36 -64z" />
    <glyph glyph-name="afii10097" unicode="&#x44f;" horiz-adv-x="460" 
d="M16 -8q-20 0 -34 3t-21 5v109q5 -1 11.5 -2.5t13.5 -1.5q18 0 32 9.5t23 36.5q13 43 28.5 66.5t47.5 33.5q-23 14 -37.5 37.5t-14.5 69.5q0 65 28.5 107.5t78.5 63t112 20.5h185l-116 -549h-138l44 212h-14q-17 0 -29.5 -6.5t-25 -30t-29.5 -73.5q-23 -65 -59 -87.5
t-86 -22.5zM254 305h26l30 144h-27q-27 0 -44 -14.5t-25 -35.5t-8 -42q0 -22 10.5 -37t37.5 -15z" />
    <glyph glyph-name="afii10071" unicode="&#x451;" horiz-adv-x="440" 
d="M190 -10q-80 0 -125.5 47.5t-45.5 132.5q0 69 16 137.5t49 125.5t83.5 91t119.5 34q65 0 105 -36t40 -99q0 -97 -72 -145.5t-191 -48.5h-9q-5 -23 -5 -44q0 -45 17 -64t51 -19q33 0 61 8t66 30v-105q-40 -26 -79.5 -35.5t-80.5 -9.5zM180 329h3q71 0 96.5 23t25.5 58
q0 17 -10.5 28t-27.5 11q-25 0 -48 -30.5t-39 -89.5zM387 618q-55 0 -55 51q0 35 21 62t61 27q51 0 51 -50q0 -40 -23.5 -65t-54.5 -25zM208 618q-55 0 -55 51q0 35 21 62t61 27q23 0 37 -13t14 -37q0 -40 -23 -65t-55 -25z" />
    <glyph glyph-name="afii10099" unicode="&#x452;" horiz-adv-x="471" 
d="M178 -239q-17 0 -33.5 1.5t-34.5 8.5v121q9 -4 23.5 -6.5t24.5 -2.5q31 0 42.5 23t19.5 60l70 335q4 20 7 38.5t3 36.5q0 16 -7 27.5t-21 11.5q-28 0 -47.5 -28.5t-33.5 -98.5l-61 -288h-139l123 583h-52l21 100h53l16 77h139l-17 -77h85l-21 -100h-85l-7 -30
q-4 -19 -11 -40t-15 -39h3q23 32 50 49t64 17q52 0 80.5 -33.5t28.5 -90.5q0 -16 -3 -37.5t-7 -42.5l-80 -382q-14 -62 -34 -105t-54.5 -65.5t-89.5 -22.5z" />
    <glyph glyph-name="afii10100" unicode="&#x453;" horiz-adv-x="384" 
d="M171 -10q-46 0 -83 12t-59.5 42t-24.5 82q0 70 36 117t91 75q43 24 70 45.5t27 50.5q0 16 -11 22.5t-26 6.5q-25 0 -47 -9t-39 -19l-33 100q34 20 69 32t76 12q77 0 115 -38.5t38 -103.5q0 -67 -34 -110.5t-88 -71.5q-56 -30 -76.5 -49.5t-20.5 -45.5q0 -17 14.5 -25
t33.5 -8q24 0 55 8t60 24v-115q-33 -18 -70.5 -26t-72.5 -8zM167 606l2 10q29 38 55 75t49 75h155l-1 -8q-11 -12 -32.5 -33.5t-46.5 -45t-47 -43.5l-33 -30h-101z" />
    <glyph glyph-name="afii10101" unicode="&#x454;" horiz-adv-x="386" 
d="M172 -10q-73 0 -113.5 46.5t-40.5 128.5q0 49 9 103.5t28.5 106t50.5 93.5t74.5 66.5t101.5 24.5q76 0 131 -38l-56 -105q-14 13 -35.5 20.5t-38.5 7.5q-25 0 -45 -19t-33.5 -46t-20.5 -51h127l-22 -105h-126q-1 -10 -1.5 -21.5t-0.5 -21.5q0 -39 13 -57t34 -18
q22 0 50 10t58 32v-113q-27 -19 -68 -31.5t-76 -12.5z" />
    <glyph glyph-name="afii10102" unicode="&#x455;" horiz-adv-x="369" 
d="M133 -10q-49 0 -80 8t-57 23v130q27 -19 60 -29.5t59 -10.5q25 0 42.5 12.5t17.5 37.5q0 17 -9.5 35.5t-42.5 47.5q-42 36 -55 69t-13 70q0 49 20 88.5t59 63.5t97 24q45 0 85 -12.5t68 -32.5l-54 -105q-23 19 -49 28t-42 9q-19 0 -30.5 -11t-11.5 -31q0 -18 8 -32.5
t41 -42.5q38 -32 56.5 -64t18.5 -90q0 -50 -22 -92.5t-64.5 -67.5t-101.5 -25z" />
    <glyph glyph-name="afii10103" unicode="&#x456;" horiz-adv-x="236" 
d="M194 612q-65 0 -65 55q0 23 9.5 46t29.5 38t51 15t48 -13.5t17 -41.5q0 -41 -25 -70t-65 -29zM-9 0l117 549h138l-116 -549h-139z" />
    <glyph glyph-name="afii10104" unicode="&#x457;" horiz-adv-x="236" 
d="M-9 0l117 549h138l-117 -549h-138zM277 618q-55 0 -55 51q0 35 21 62t61 27q51 0 51 -50q0 -40 -23.5 -65t-54.5 -25zM98 618q-55 0 -55 51q0 35 21 62t61 27q23 0 37 -13t14 -37q0 -40 -23 -65t-55 -25z" />
    <glyph glyph-name="afii10105" unicode="&#x458;" horiz-adv-x="237" 
d="M195 612q-65 0 -65 55q0 23 9.5 46t29 38t51.5 15q31 0 48 -13.5t17 -41.5q0 -41 -24.5 -70t-65.5 -29zM-58 -240q-17 0 -33.5 1.5t-34.5 8.5v121q9 -5 23.5 -7t24.5 -2q28 0 40.5 19t22.5 64l123 584h138l-126 -595q-13 -61 -33 -104.5t-54 -66.5t-91 -23z" />
    <glyph glyph-name="afii10106" unicode="&#x459;" horiz-adv-x="680" 
d="M413 -10q-77 0 -111 35t-34 98q0 33 9 71l51 242q-4 1 -7.5 1h-7.5q-42 0 -63 -45.5t-41 -136.5q-12 -54 -26.5 -101.5t-36 -84t-54 -57.5t-79.5 -21q-19 0 -31 3.5t-26 10.5v119q8 -8 20 -9.5t17 -1.5q29 0 48 37.5t39 128.5q21 102 53 163t83.5 88t128.5 27
q37 0 72 -2.5t72 -7.5l-45 -208q6 1 16.5 2t21.5 1q75 0 114.5 -35t39.5 -108q0 -96 -60 -152.5t-163 -56.5zM433 95q19 0 32.5 14.5t20.5 35.5t7 43q0 49 -40 49q-7 0 -15.5 -1.5t-16.5 -2.5q-11 -49 -14.5 -71t-3.5 -30q0 -37 30 -37z" />
    <glyph glyph-name="afii10107" unicode="&#x45a;" horiz-adv-x="672" 
d="M405 -10q-78 0 -113 35.5t-35 97.5q0 31 15 103h-95l-47 -226h-140l118 549h138l-43 -206h94l45 206h138l-45 -210q7 2 17 3t21 1q75 0 115 -35.5t40 -108.5q0 -96 -60 -152.5t-163 -56.5zM424 95q21 0 34.5 15.5t20 37.5t6.5 40q0 50 -40 50q-15 0 -32 -5
q-11 -46 -15 -68t-4 -33q0 -37 30 -37z" />
    <glyph glyph-name="afii10108" unicode="&#x45b;" horiz-adv-x="471" 
d="M-9 0l123 584h-53l21 100h54l16 76h139l-17 -76h83l-20 -100h-84q-10 -44 -17.5 -67.5t-15.5 -42.5h3q23 32 50 49t64 17q52 0 80.5 -33.5t28.5 -90.5q0 -19 -3 -41.5t-8 -43.5l-70 -331h-138l61 294q5 22 8.5 43t3.5 40q0 38 -31 38q-28 0 -46.5 -31t-31.5 -96l-61 -288
h-139z" />
    <glyph glyph-name="afii10109" unicode="&#x45c;" horiz-adv-x="459" 
d="M-9 0l117 549h138l-55 -258l163 258h152l-183 -270l78 -279h-148l-66 270l-57 -270h-139zM245 606l2 10q29 38 55 75t49 75h155l-1 -8q-11 -12 -32.5 -33.5t-46.5 -45t-47 -43.5l-33 -30h-101z" />
    <glyph glyph-name="afii10110" unicode="&#x45e;" horiz-adv-x="427" 
d="M1 -240q-41 0 -70 9l25 125q22 -9 42 -9q22 0 35.5 14t26.5 40l32 69l-29 541h140l1 -239q0 -50 -3 -98h3q8 26 17 53.5t15 43.5l101 240h145l-286 -622q-22 -48 -47.5 -85.5t-61 -59.5t-86.5 -22zM283 602q-76 0 -108.5 34t-32.5 93q0 8 1.5 21t2.5 24h111
q-2 -10 -3 -21.5t-1 -20.5q0 -46 38 -46q48 0 69 88h110q-19 -91 -67.5 -131.5t-119.5 -40.5z" />
    <glyph glyph-name="afii10193" unicode="&#x45f;" horiz-adv-x="471" 
d="M134 -10q-56 0 -84.5 32.5t-28.5 90.5q0 18 2.5 39.5t6.5 43.5l76 353h138l-67 -316q-11 -47 -11 -80q0 -38 30 -38q31 0 50.5 42t33.5 107l62 285h138l-116 -549h-111l3 65h-3q-23 -35 -53 -55t-66 -20zM52 -232l46 168l119 34h21l-52 -202h-134z" />
    <glyph glyph-name="afii10050" unicode="&#x490;" horiz-adv-x="408" 
d="M-4 0l152 714h197l32 152h141l-60 -278l-192 1l-126 -589h-144z" />
    <glyph glyph-name="afii10098" unicode="&#x491;" horiz-adv-x="346" 
d="M-11 0l117 549h153l31 146h134l-57 -264h-148l-91 -431h-139z" />
    <glyph glyph-name="Wgrave" unicode="&#x1e80;" horiz-adv-x="720" 
d="M67 0l24 714h140l-15 -336q-2 -40 -5 -72.5t-6 -55.5h2q11 32 23 63t25 64l135 337h120l-12 -334q-2 -40 -4 -68.5t-4 -60.5h2q9 30 20.5 60.5t25.5 67.5l126 335h146l-275 -714h-165l8 304q0 21 2 47t4 53h-2q-8 -23 -15.5 -45.5t-16.5 -45.5l-120 -313h-163zM418 771
q-12 17 -30 45t-35 57.5t-26 48.5v9h154q7 -31 17 -67.5t25 -80.5l-1 -12h-104z" />
    <glyph glyph-name="wgrave" unicode="&#x1e81;" horiz-adv-x="643" 
d="M51 0l13 549h135l-9 -208q-2 -31 -5.5 -60.5t-5.5 -57.5h3q7 23 16 52t19 56l83 218h157l-12 -217q-1 -31 -4 -61t-5 -56h3q10 31 20.5 64.5t22.5 64.5l76 205h138l-220 -549h-160l16 271l4 46t3 46h-3q-7 -21 -13 -40t-13 -39l-106 -284h-153zM352 606q-12 17 -30 45
t-35 57.5t-26 48.5v9h154q7 -31 17 -67.5t25 -80.5l-1 -12h-104z" />
    <glyph glyph-name="Wacute" unicode="&#x1e82;" horiz-adv-x="720" 
d="M67 0l24 714h140l-15 -336q-2 -40 -5 -72.5t-6 -55.5h2q11 32 23 63t25 64l135 337h120l-12 -334q-2 -40 -4 -68.5t-4 -60.5h2q9 30 20.5 60.5t25.5 67.5l126 335h146l-275 -714h-165l8 304q0 21 2 47t4 53h-2q-8 -23 -15.5 -45.5t-16.5 -45.5l-120 -313h-163zM387 771
l2 10q29 38 55 75t49 75h155l-1 -8q-11 -12 -32.5 -33.5t-46.5 -45t-47 -43.5l-33 -30h-101z" />
    <glyph glyph-name="wacute" unicode="&#x1e83;" horiz-adv-x="643" 
d="M51 0l13 549h135l-9 -208q-2 -31 -5.5 -60.5t-5.5 -57.5h3q7 23 16 52t19 56l83 218h157l-12 -217q-1 -31 -4 -61t-5 -56h3q10 31 20.5 64.5t22.5 64.5l76 205h138l-220 -549h-160l16 271l4 46t3 46h-3q-7 -21 -13 -40t-13 -39l-106 -284h-153zM325 606l2 10q29 38 55 75
t49 75h155l-1 -8q-11 -12 -32.5 -33.5t-46.5 -45t-47 -43.5l-33 -30h-101z" />
    <glyph glyph-name="Wdieresis" unicode="&#x1e84;" horiz-adv-x="720" 
d="M67 0l24 714h140l-15 -336q-2 -40 -5 -72.5t-6 -55.5h2q11 32 23 63t25 64l135 337h120l-12 -334q-2 -40 -4 -68.5t-4 -60.5h2q9 30 20.5 60.5t25.5 67.5l126 335h146l-275 -714h-165l8 304q0 21 2 47t4 53h-2q-8 -23 -15.5 -45.5t-16.5 -45.5l-120 -313h-163zM547 783
q-55 0 -55 51q0 35 21 62t61 27q51 0 51 -50q0 -40 -23.5 -65t-54.5 -25zM368 783q-55 0 -55 51q0 35 21 62t61 27q23 0 37 -13t14 -37q0 -40 -23 -65t-55 -25z" />
    <glyph glyph-name="wdieresis" unicode="&#x1e85;" horiz-adv-x="643" 
d="M51 0l13 549h135l-9 -208q-2 -31 -5.5 -60.5t-5.5 -57.5h3q7 23 16 52t19 56l83 218h157l-12 -217q-1 -31 -4 -61t-5 -56h3q10 31 20.5 64.5t22.5 64.5l76 205h138l-220 -549h-160l16 271l4 46t3 46h-3q-7 -21 -13 -40t-13 -39l-106 -284h-153zM485 618q-55 0 -55 51
q0 35 21 62t61 27q51 0 51 -50q0 -40 -23.5 -65t-54.5 -25zM306 618q-55 0 -55 51q0 35 21 62t61 27q23 0 37 -13t14 -37q0 -40 -23 -65t-55 -25z" />
    <glyph glyph-name="Ygrave" unicode="&#x1ef2;" horiz-adv-x="455" 
d="M95 0l57 270l-61 444h150l21 -255l129 255h154l-247 -439l-58 -275h-145zM274 771q-12 17 -30 45t-35 57.5t-26 48.5v9h154q7 -31 17 -67.5t25 -80.5l-1 -12h-104z" />
    <glyph glyph-name="ygrave" unicode="&#x1ef3;" horiz-adv-x="427" 
d="M1 -240q-41 0 -70 9l25 125q22 -9 42 -9q22 0 35.5 14t26.5 40l32 69l-29 541h140l1 -239q0 -50 -3 -98h3q8 26 17 53.5t15 43.5l101 240h145l-286 -622q-22 -48 -47.5 -85.5t-61 -59.5t-86.5 -22zM231 606q-12 17 -30 45t-35 57.5t-26 48.5v9h154q7 -31 17 -67.5
t25 -80.5l-1 -12h-104z" />
    <glyph glyph-name="endash" unicode="&#x2013;" horiz-adv-x="462" 
d="M15 211l25 117h406l-26 -117h-405z" />
    <glyph glyph-name="emdash" unicode="&#x2014;" horiz-adv-x="913" 
d="M15 211l25 117h856l-25 -117h-856z" />
    <glyph glyph-name="afii00208" unicode="&#x2015;" horiz-adv-x="958" 
d="M15 211l25 117h856l-25 -117h-856z" />
    <glyph glyph-name="underscoredbl" unicode="&#x2017;" horiz-adv-x="447" 
d="M-80 -118l15 72h449l-15 -72h-449zM-106 -239l16 72h449l-15 -72h-450z" />
    <glyph glyph-name="quoteleft" unicode="&#x2018;" horiz-adv-x="237" 
d="M69 440l-3 10q27 76 56.5 142.5t61.5 121.5h114q-10 -26 -23.5 -62t-27 -75.5t-25 -75.5t-17.5 -61h-136z" />
    <glyph glyph-name="quoteright" unicode="&#x2019;" horiz-adv-x="237" 
d="M63 440q26 66 49.5 134t43.5 140h136l2 -10q-53 -151 -117 -264h-114z" />
    <glyph glyph-name="quotesinglbase" unicode="&#x201a;" horiz-adv-x="246" 
d="M-56 -137q15 41 32.5 89t33.5 96.5t27 88.5h136l2 -10q-25 -76 -55 -142.5t-62 -121.5h-114z" />
    <glyph glyph-name="quotereversed" unicode="&#x201b;" horiz-adv-x="237" 
d="M133 440q-9 57 -13 125.5t-4 135.5l9 13h135q-4 -26 -6.5 -62.5t-2.5 -76t0.5 -75t2.5 -60.5h-121z" />
    <glyph glyph-name="quotedblleft" unicode="&#x201c;" horiz-adv-x="455" 
d="M287 440l-2 10q26 76 55.5 142.5t61.5 121.5h115q-27 -68 -51.5 -139t-42.5 -135h-136zM70 440l-3 10q27 76 56.5 142.5t61.5 121.5h114q-11 -26 -24 -62t-26.5 -75.5t-25 -75.5t-17.5 -61h-136z" />
    <glyph glyph-name="quotedblright" unicode="&#x201d;" horiz-adv-x="455" 
d="M280 440q26 65 50 133.5t44 140.5h135l3 -10q-53 -151 -117 -264h-115zM62 440q53 132 93 274h136l2 -10q-51 -151 -117 -264h-114z" />
    <glyph glyph-name="quotedblbase" unicode="&#x201e;" horiz-adv-x="455" 
d="M157 -137q15 40 33 89t34 97.5t26 87.5h135l3 -10q-26 -76 -55.5 -142.5t-61.5 -121.5h-114zM-61 -137q16 41 33.5 90t33 97t26.5 87h136l2 -10q-26 -76 -55.5 -142.5t-61.5 -121.5h-114z" />
    <glyph glyph-name="dagger" unicode="&#x2020;" horiz-adv-x="432" 
d="M85 0l121 462l-133 -16l26 123l127 -17l21 208h138l-66 -208l134 17l-25 -123l-128 16l-76 -462h-139z" />
    <glyph glyph-name="daggerdbl" unicode="&#x2021;" horiz-adv-x="432" 
d="M87 0l62 188l-134 -17l26 123l127 -15l4 104l40 98l-135 -15l27 123l127 -16l17 187h137l-63 -187l135 16l-26 -123l-128 15l-2 -97l-42 -105l136 15l-27 -123l-128 17l-16 -188h-137z" />
    <glyph glyph-name="bullet" unicode="&#x2022;" horiz-adv-x="382" 
d="M210 200q-71 0 -110.5 42.5t-39.5 122.5t38.5 122.5t111.5 42.5t111.5 -43t38.5 -122t-40 -122t-110 -43z" />
    <glyph glyph-name="ellipsis" unicode="&#x2026;" horiz-adv-x="737" 
d="M69 -11q-69 0 -69 62q0 42 26 75t75 33q30 0 47 -16t17 -45q0 -49 -29.5 -79t-66.5 -30zM315 -11q-69 0 -69 62q0 42 26 75t75 33q30 0 47 -16t17 -45q0 -49 -29.5 -79t-66.5 -30zM561 -11q-69 0 -69 62q0 42 26 75t75 33q30 0 47 -16t17 -45q0 -49 -29.5 -79t-66.5 -30z
" />
    <glyph glyph-name="perthousand" unicode="&#x2030;" horiz-adv-x="1066" 
d="M164 276q-111 0 -111 139q0 33 7 74t21.5 82t37.5 76t54 56t71 21q50 0 80.5 -34t30.5 -107q0 -31 -7 -71t-21 -81t-36.5 -76.5t-54 -57t-72.5 -21.5zM134 0l394 714h109l-394 -714h-109zM177 373q16 0 29.5 24t23.5 60t15.5 71.5t5.5 57.5q0 40 -20 40q-16 0 -29.5 -24
t-24 -59.5t-16 -71t-5.5 -57.5q0 -41 21 -41zM530 -9q-110 0 -110 140q0 52 13 106t37 100t59.5 74t80.5 28q50 0 80 -33.5t30 -107.5q0 -32 -7 -72.5t-21 -81.5t-36.5 -75.5t-54 -56t-71.5 -21.5zM853 -9q-111 0 -111 140q0 52 13 106t37 100t59.5 74t80.5 28
q50 0 80.5 -33.5t30.5 -107.5q0 -32 -7 -72.5t-21 -81.5t-36.5 -75.5t-53.5 -56t-72 -21.5zM543 89q16 0 29.5 23.5t23.5 58.5t15.5 70.5t5.5 59.5q0 40 -21 40q-14 0 -26 -17.5t-20.5 -44.5t-14.5 -56.5t-9 -55t-3 -38.5q0 -40 20 -40zM866 89q16 0 29.5 23.5t23.5 58.5
t15.5 70.5t5.5 59.5q0 40 -21 40q-14 0 -26 -17.5t-21 -44.5t-15 -56.5t-9 -55t-3 -38.5q0 -40 21 -40z" />
    <glyph glyph-name="minute" unicode="&#x2032;" horiz-adv-x="228" 
d="M42 469l124 245h148l-158 -245h-114z" />
    <glyph glyph-name="second" unicode="&#x2033;" horiz-adv-x="438" 
d="M252 469l124 245h148l-158 -245h-114zM42 469l124 245h148l-158 -245h-114z" />
    <glyph glyph-name="guilsinglleft" unicode="&#x2039;" horiz-adv-x="288" 
d="M124 38l-106 230l1 11l175 229l99 -61l-133 -177l77 -183z" />
    <glyph glyph-name="guilsinglright" unicode="&#x203a;" horiz-adv-x="288" 
d="M92 38l-99 60l132 178l-77 182l112 50l107 -230l-1 -11z" />
    <glyph glyph-name="exclamdbl" unicode="&#x203c;" horiz-adv-x="490" 
d="M294 238l82 476h158l-121 -476h-119zM304 -11q-69 0 -69 62q0 42 26 75t76 33q29 0 46 -16t17 -45q0 -49 -29 -79t-67 -30zM57 238l82 476h158l-121 -476h-119zM67 -11q-69 0 -69 62q0 42 26 75t76 33q29 0 46 -16t17 -45q0 -49 -29 -79t-67 -30z" />
    <glyph glyph-name="fraction" unicode="&#x2044;" horiz-adv-x="93" 
d="M-232 0l482 714h108l-483 -714h-107z" />
    <glyph glyph-name="nsuperior" unicode="&#x207f;" horiz-adv-x="306" 
d="M46.5 287l76.0527 329.387h72.1523l-2.59961 -39.5986h1.9502q14.9502 20.999 34.7764 33.2988q19.8252 12.2998 42.5762 12.2998q18.8506 0 35.751 -6.90039q16.9014 -6.89941 27.626 -23.0986q10.7256 -16.1992 10.7256 -43.7979q0 -9.59961 -1.9502 -22.5
q-1.94922 -12.8994 -5.2002 -29.0986l-48.1016 -209.991h-90.3535l43.5518 188.393q3.25 13.7988 5.2002 26.6982t1.9502 21.8994q0 23.3994 -18.8506 23.3994q-20.1514 0 -33.1514 -25.1992t-22.1006 -63.5977l-39.002 -171.593h-91.0029z" />
    <glyph glyph-name="franc" unicode="&#x20a3;" horiz-adv-x="452" 
d="M40 0l24 114h-65l22 106h66l105 494h303l-26 -125h-161l-33 -154h148l-26 -125h-149l-19 -90h109l-23 -106h-108l-24 -114h-143z" />
    <glyph glyph-name="afii08941" unicode="&#x20a4;" horiz-adv-x="452" 
d="M-15 0l26 119q38 19 54.5 42t26.5 70h-64l20 91h63l15 65h-65l20 91h64l11 58q19 86 65.5 137t132.5 51q37 0 73 -10.5t63 -30.5l-57 -116q-18 14 -38 21.5t-37 7.5q-32 0 -45 -23t-20 -54l-8 -41h107l-20 -91h-107l-14 -65h108l-20 -91h-107q-9 -45 -25.5 -67t-56.5 -37
h234l-27 -127h-372z" />
    <glyph glyph-name="peseta" unicode="&#x20a7;" horiz-adv-x="700" 
d="M-11 0l152 714h135q89 0 136.5 -42t47.5 -125q0 -52 -14.5 -104.5t-45.5 -96.5t-79.5 -71t-115.5 -27h-24l-52 -248h-140zM207 373h10q36 0 58.5 22t33.5 57.5t11 75.5q0 61 -54 61h-13zM534 -10q-58 0 -82.5 33.5t-24.5 84.5q0 17 3 37.5t8 46.5l23 110h-50l12 53l69 51
l59 130h91l-27 -125h89l-23 -109h-90l-27 -128q-2 -8 -3 -17t-1 -16q0 -15 6 -22t22 -7q8 0 24 3t32 10v-111q-26 -14 -55.5 -19t-54.5 -5z" />
    <glyph glyph-name="Euro" unicode="&#x20ac;" horiz-adv-x="452" 
d="M247 -10q-67 0 -104 25t-52.5 78.5t-15.5 139.5h-60l17 84h53q2 16 6 34t7 30h-53l17 85h57q25 79 58 137t82 89.5t122 31.5q41 0 78 -11.5t66 -35.5l-65 -113q-20 16 -39 25.5t-47 9.5q-32 0 -54 -19t-37 -49.5t-26 -64.5h128l-18 -85h-131q-4 -12 -7 -30.5t-5 -33.5
h111l-18 -84h-104q0 -63 11 -90.5t44 -27.5q31 0 52.5 7.5t51.5 23.5l27 -115q-31 -17 -71.5 -29t-80.5 -12z" />
    <glyph glyph-name="afii61248" unicode="&#x2105;" horiz-adv-x="635" 
d="M177 363q-59 0 -84.5 34t-25.5 91q0 59 21 113t60.5 88t96.5 34q52 0 87 -26l-38 -82q-32 22 -56 22q-17 0 -30 -15t-21 -38t-12 -47t-4 -42q0 -46 27 -46q31 0 79 24l-19 -85q-38 -25 -81 -25zM41 0l443 714h103l-444 -714h-102zM425 -10q-59 0 -85.5 33t-26.5 91
t19.5 112t57.5 89t91 35q58 0 85 -35t27 -90q0 -42 -11.5 -83.5t-33 -75.5t-53 -55t-70.5 -21zM433 74q16 0 28 17t20.5 42.5t12.5 51.5t4 43q0 40 -24 40q-16 0 -28.5 -17t-21 -42.5t-12.5 -51.5t-4 -43q0 -40 25 -40z" />
    <glyph glyph-name="afii61289" unicode="&#x2113;" horiz-adv-x="452" 
d="M247 -8q-73 0 -111 44t-38 151v55q-16 -6 -33.5 -12t-32.5 -11v106q16 5 33 10.5t33 12.5v176q0 199 159 199q51 0 84 -24t49 -64.5t16 -92.5q0 -178 -174 -253v-106q0 -46 7.5 -66t28.5 -20q37 0 39 99h110q-1 -66 -17 -111.5t-52 -69t-101 -23.5zM232 401q56 41 56 141
q0 12 -2.5 30.5t-9 33t-17.5 14.5q-27 0 -27 -70v-149z" />
    <glyph glyph-name="afii61352" unicode="&#x2116;" horiz-adv-x="810" 
d="M-7 0l151 714h161l39 -429q7 42 10.5 62.5t5.5 31.5l4 22l64 313h133l-151 -714h-160l-41 431q-5 -31 -9.5 -60t-10.5 -58l-64 -313h-132zM633 146q-60 0 -87 33t-27 91t20 112t57.5 88.5t91.5 34.5q58 0 86 -35.5t28 -90.5q0 -41 -11.5 -82.5t-33.5 -75.5t-53.5 -54.5
t-70.5 -20.5zM640 230q17 0 29.5 16t20.5 40.5t11.5 50t3.5 44.5q0 42 -25 42q-15 0 -27 -16t-20.5 -40t-13 -50.5t-4.5 -47.5q0 -39 25 -39zM475 0l20 92h241l-19 -92h-242z" />
    <glyph glyph-name="trademark" unicode="&#x2122;" horiz-adv-x="682" 
d="M273 362v352h123l57 -210l62 210h118v-352h-87v166q0 36 3 61h-4l-67 -227h-53l-64 227h-3q1 -15 1.5 -30t0.5 -31v-166h-87zM78 362v267h-73v85h240v-85h-74v-267h-93z" />
    <glyph glyph-name="uni03A9" unicode="&#x3a9;" horiz-adv-x="556" 
d="M-40 0l27 127h128q-35 35 -49.5 84t-14.5 104q0 75 21.5 147.5t61.5 132t96 95t126 35.5q98 0 150.5 -58.5t52.5 -156.5q0 -77 -21 -149.5t-62 -133t-101 -100.5h129l-27 -127h-236l29 139q34 27 59.5 69.5t43 93t26 100.5t8.5 92q0 50 -17.5 77t-49.5 27
q-30 0 -54.5 -23.5t-42.5 -62t-30 -83.5t-18 -89t-6 -77q0 -80 34 -124l-30 -139h-233z" />
    <glyph glyph-name="estimated" unicode="&#x212e;" horiz-adv-x="557" 
d="M283 -17q-74 0 -126 38t-79.5 101t-27.5 137q0 79 28.5 141t81 98.5t123.5 36.5q67 1 119.5 -34.5t83 -98t30.5 -143.5h-363v-174q22 -26 58.5 -43t71.5 -17q63 0 102.5 28t72.5 86l30 -20q-38 -68 -84.5 -102t-120.5 -34zM153 301h262v135q-23 26 -58 42t-75 16
q-76 0 -129 -57v-136z" />
    <glyph glyph-name="oneeighth" unicode="&#x215b;" horiz-adv-x="745" 
d="M89 0l482 714h108l-483 -714h-107zM135 286l53 246q4 16 7.5 28.5t7.5 25.5q-5 -5 -10 -10.5t-8 -7.5l-55 -40l-43 62l158 124h86l-91 -428h-105zM534 -13q-128 0 -128 105q0 44 23.5 72.5t68.5 52.5q-18 18 -26 38.5t-8 49.5q0 58 40 92t103 34q55 0 85 -24.5t30 -71.5
q0 -71 -83 -113q26 -16 39 -37.5t13 -57.5q0 -43 -21.5 -74.5t-57.5 -48.5t-78 -17zM581 258q18 10 31 26.5t13 40.5q0 28 -28 28q-19 0 -29 -14.5t-10 -36.5q0 -27 23 -44zM540 65q21 0 36 16.5t15 44.5q0 34 -31 49q-22 -9 -37 -27t-15 -44q0 -16 7.5 -27.5t24.5 -11.5z
" />
    <glyph glyph-name="threeeighths" unicode="&#x215c;" horiz-adv-x="771" 
d="M146 278q-33 0 -58.5 8.5t-43.5 23.5v98q37 -39 104 -39q27 0 43.5 14.5t16.5 41.5q0 17 -12 27.5t-32 10.5h-43l17 79h36q31 0 47.5 17.5t16.5 44.5q0 16 -9 24.5t-23 8.5q-17 0 -33.5 -8.5t-36.5 -24.5l-37 70q31 27 65.5 38.5t66.5 11.5q60 0 86.5 -27.5t26.5 -70.5
q0 -39 -21 -68.5t-67 -46.5l-1 -4q23 -10 38 -30t15 -56q0 -69 -44.5 -106t-117.5 -37zM107 0l482 714h108l-483 -714h-107zM560 -12q-128 0 -128 105q0 44 23.5 72.5t68.5 52.5q-18 18 -26 38.5t-8 49.5q0 58 40 92t103 34q55 0 85 -24.5t30 -71.5q0 -71 -83 -113
q26 -16 39 -37.5t13 -57.5q0 -43 -21.5 -74.5t-57.5 -48.5t-78 -17zM607 259q18 10 31 26.5t13 40.5q0 28 -28 28q-19 0 -29 -14.5t-10 -36.5q0 -27 23 -44zM566 66q21 0 36 16.5t15 44.5q0 34 -31 49q-22 -9 -37 -27t-15 -44q0 -16 7.5 -27.5t24.5 -11.5z" />
    <glyph glyph-name="fiveeighths" unicode="&#x215d;" horiz-adv-x="771" 
d="M106 0l482 714h108l-483 -714h-107zM138 279q-57 0 -101 24l18 92q18 -17 40 -24.5t45 -7.5q33 0 50.5 26t17.5 54q0 19 -9.5 31.5t-31.5 12.5q-13 0 -31 -8l-53 23l61 215h205l-18 -88h-128l-20 -67q22 3 36 3q50 0 74.5 -30.5t24.5 -78.5q0 -44 -19 -85t-58.5 -66.5
t-102.5 -25.5zM560 -12q-128 0 -128 105q0 44 23.5 72.5t68.5 52.5q-18 18 -26 38.5t-8 49.5q0 58 40 92t103 34q55 0 85 -24.5t30 -71.5q0 -71 -83 -113q26 -16 39 -37.5t13 -57.5q0 -43 -21.5 -74.5t-57.5 -48.5t-78 -17zM607 259q18 10 31 26.5t13 40.5q0 28 -28 28
q-19 0 -29 -14.5t-10 -36.5q0 -27 23 -44zM566 66q21 0 36 16.5t15 44.5q0 34 -31 49q-22 -9 -37 -27t-15 -44q0 -16 7.5 -27.5t24.5 -11.5z" />
    <glyph glyph-name="seveneighths" unicode="&#x215e;" horiz-adv-x="744" 
d="M69 0l482 714h108l-483 -714h-107zM534 -12q-128 0 -128 105q0 44 23.5 72.5t68.5 52.5q-18 18 -26 38.5t-8 49.5q0 58 40 92t103 34q55 0 85 -24.5t30 -71.5q0 -71 -83 -113q26 -16 39 -37.5t13 -57.5q0 -43 -21.5 -74.5t-57.5 -48.5t-78 -17zM581 259q18 10 31 26.5
t13 40.5q0 28 -28 28q-19 0 -29 -14.5t-10 -36.5q0 -27 23 -44zM540 66q21 0 36 16.5t15 44.5q0 34 -31 49q-22 -9 -37 -27t-15 -44q0 -16 7.5 -27.5t24.5 -11.5zM56 286l197 339h-158l19 89h266l-16 -73l-190 -355h-118z" />
    <glyph glyph-name="uni0394" unicode="&#x394;" horiz-adv-x="498" 
d="M-31 0v85l280 632h183l15 -631l-18 -86h-460zM138 128h160l6 351q1 22 1.5 44t1.5 55q-5 -20 -14 -50t-16 -47z" />
    <glyph glyph-name="cyrillicbreve" horiz-adv-x="430" 
d="M288 602q-76 0 -108.5 34t-32.5 93q0 8 1.5 21t2.5 24h111q-2 -10 -3 -21.5t-1 -20.5q0 -46 38 -46q48 0 69 88h110q-19 -91 -67.5 -131.5t-119.5 -40.5z" />
    <glyph glyph-name="caroncommaaccent" horiz-adv-x="360" 
d="M174 600v10q15 38 27 75t22 75h131v-10q-37 -81 -88 -150h-92z" />
    <glyph glyph-name="commaaccentrotate" horiz-adv-x="360" 
d="M165 606v10q16 34 41.5 76t50.5 74h91l1 -11q-8 -19 -18.5 -47t-20.5 -56t-15 -46h-130z" />
    <glyph glyph-name="uni2074" unicode="&#x2074;" horiz-adv-x="314" 
d="M179 416l16 75h-144l15 75l195 281h112l-58 -274h48l-18 -82h-47l-17 -75h-102zM154 573h59l20 98q4 12 6.5 23.5t6.5 26.5q-7 -12 -12.5 -24t-13.5 -24z" />
    <glyph glyph-name="uni2075" unicode="&#x2075;" horiz-adv-x="314" 
d="M163 409q-57 0 -101 24l18 92q18 -17 40 -24.5t45 -7.5q33 0 50.5 26t17.5 54q0 19 -9.5 31.5t-31.5 12.5q-13 0 -31 -8l-53 23l61 215h205l-18 -88h-128l-20 -67q22 3 36 3q50 0 74.5 -30.5t24.5 -78.5q0 -44 -19 -85t-58.5 -66.5t-102.5 -25.5z" />
    <glyph glyph-name="uni2077" unicode="&#x2077;" horiz-adv-x="314" 
d="M81 416l197 339h-158l19 89h266l-16 -73l-190 -355h-118z" />
    <glyph glyph-name="uni2078" unicode="&#x2078;" horiz-adv-x="314" 
d="M192 407q-128 0 -128 105q0 44 23.5 72.5t68.5 52.5q-18 18 -26 38.5t-8 49.5q0 58 40 92t103 34q55 0 85 -24.5t30 -71.5q0 -71 -83 -113q26 -16 39 -37.5t13 -57.5q0 -43 -21.5 -74.5t-57.5 -48.5t-78 -17zM239 678q18 10 31 26.5t13 40.5q0 28 -28 28q-19 0 -29 -14.5
t-10 -36.5q0 -27 23 -44zM198 485q21 0 36 16.5t15 44.5q0 34 -31 49q-22 -9 -37 -27t-15 -44q0 -16 7.5 -27.5t24.5 -11.5z" />
    <glyph glyph-name="uni2000" unicode="&#x2000;" horiz-adv-x="500" 
 />
    <glyph glyph-name="uni2001" unicode="&#x2001;" horiz-adv-x="1000" 
 />
    <glyph glyph-name="uni2002" unicode="&#x2002;" horiz-adv-x="500" 
 />
    <glyph glyph-name="uni2003" unicode="&#x2003;" horiz-adv-x="1000" 
 />
    <glyph glyph-name="uni2004" unicode="&#x2004;" horiz-adv-x="333" 
 />
    <glyph glyph-name="uni2005" unicode="&#x2005;" horiz-adv-x="250" 
 />
    <glyph glyph-name="uni2006" unicode="&#x2006;" horiz-adv-x="167" 
 />
    <glyph glyph-name="uni2007" unicode="&#x2007;" horiz-adv-x="452" 
 />
    <glyph glyph-name="uni2008" unicode="&#x2008;" horiz-adv-x="244" 
 />
    <glyph glyph-name="uni2009" unicode="&#x2009;" horiz-adv-x="191" 
 />
    <glyph glyph-name="uni200A" unicode="&#x200a;" horiz-adv-x="100" 
 />
    <glyph glyph-name="uni200B" unicode="&#x200b;" 
 />
    <glyph glyph-name="uniFEFF" unicode="&#xfeff;" horiz-adv-x="11" 
 />
    <glyph glyph-name="uniFFFC" unicode="&#xfffc;" horiz-adv-x="1000" 
d="M916 593v94h-95v54h148v-148h-53zM630 687v54h133v-54h-133zM439 687v54h133v-54h-133zM41 593v148h148v-54h-94v-94h-54zM248 687v54h132v-54h-132zM916 402v132h53v-132h-53zM41 402v132h54v-132h-54zM294 160q-66 0 -97 40.5t-31 106.5q0 67 31 107t97 40t97 -40
t31 -107q0 -66 -31 -106.5t-97 -40.5zM728 161q-24 0 -39 5v50q7 -2 15 -3t18 -1q18 0 30 8.5t12 33.5v196h61v-194q0 -50 -27 -72.5t-70 -22.5zM463 164v286h84q53 0 80.5 -16t27.5 -57q0 -24 -11.5 -40t-32.5 -20v-4q22 -5 37 -18.5t15 -47.5q0 -39 -26.5 -61t-72.5 -22
h-101zM294 211q34 0 50 25.5t16 70.5t-16 70.5t-50 25.5t-50 -25.5t-16 -70.5t16 -70.5t50 -25.5zM523 337h32q23 0 31.5 8t8.5 24q0 31 -43 31h-29v-63zM41 210v133h54v-133h-54zM916 210v133h53v-133h-53zM523 214h36q24 0 33 10.5t9 28.5q0 16 -9.5 26t-34.5 10h-34v-75z
M916 19v132h53v-132h-53zM41 19v132h54v-132h-54zM821 -187v53h95v95h53v-148h-148zM41 -187v148h54v-95h94v-53h-148zM630 -187v53h133v-53h-133zM439 -187v53h133v-53h-133zM248 -187v53h132v-53h-132z" />
    <glyph glyph-name="uniFFFD" unicode="&#xfffd;" horiz-adv-x="1000" 
d="M499 -156l-458 458l458 458l459 -458zM428 179h103v23q0 25 10 39.5t43 40.5q43 34 64.5 65t21.5 80q0 67 -46 104t-126 37q-42 0 -86 -14t-78 -34l40 -87q33 17 64 28t58 11q31 0 46 -14t15 -37q0 -29 -13 -46t-46 -43q-38 -30 -54 -57.5t-16 -66.5v-29zM484 -21
q27 0 47.5 15.5t20.5 50.5q0 37 -20.5 52t-47.5 15q-29 0 -49 -15t-20 -52q0 -35 20 -50.5t49 -15.5z" />
    <glyph glyph-name="uni01F0" unicode="&#x1f0;" horiz-adv-x="236" 
d="M-58 -240q-17 0 -33.5 1.5t-34.5 8.5v121q9 -5 23.5 -7t24.5 -2q28 0 40.5 19t22.5 64l123 584h138l-126 -595q-13 -61 -33 -104.5t-54 -66.5t-91 -23zM120 606q-8 31 -24.5 73.5t-30.5 73.5l3 13h84q11 -13 23 -31.5t25 -42.5q45 50 77 74h89l-2 -11
q-16 -17 -39.5 -44.5t-45.5 -56.5t-34 -48h-125z" />
    <glyph glyph-name="uni02BC" unicode="&#x2bc;" horiz-adv-x="237" 
d="M63 440q26 66 49.5 134t43.5 140h136l2 -10q-53 -151 -117 -264h-114z" />
    <glyph glyph-name="uni03D1" unicode="&#x3d1;" horiz-adv-x="522" 
d="M193 -10q-41 0 -79 10t-61.5 35.5t-23.5 73.5q0 19 5.5 38.5t11.5 38.5q4 16 8.5 30.5t4.5 26.5q0 20 -15 20q-4 0 -11 -1.5t-18 -5.5v115q14 5 38.5 9.5t47.5 4.5q43 0 72 -23t29 -69q0 -17 -4.5 -35.5t-10.5 -36.5q-6 -21 -12 -41.5t-6 -38.5q0 -38 34 -38
q38 0 73 60.5t68 197.5q-101 1 -152.5 54.5t-51.5 145.5q0 52 21 100t64 79t110 31q66 0 105 -25t56 -69.5t17 -104.5q0 -22 -2 -44t-6 -50h49l-25 -117h-47q-32 -136 -71.5 -217.5t-93 -117.5t-124.5 -36zM366 478q9 54 9 91q0 36 -8.5 63t-33.5 27q-18 0 -30 -16
t-18 -38.5t-6 -41.5q0 -43 22 -63t65 -22z" />
    <glyph glyph-name="uni03D2" unicode="&#x3d2;" horiz-adv-x="456" 
d="M95 0l57 270l-61 444h148l20 -255q31 63 62.5 119t64.5 96q20 24 43 35t49 11q21 0 39.5 -4t31.5 -11l-25 -121q-15 9 -28 9q-15 0 -29.5 -14.5t-41.5 -55.5q-29 -49 -62 -116t-67 -139l-56 -268h-145z" />
    <glyph glyph-name="uni03D6" unicode="&#x3d6;" horiz-adv-x="712" 
d="M174 -10q-69 0 -99.5 47t-30.5 127q0 40 9 87.5t24 94.5t31 85h-75l14 62l74 56h633l-25 -118h-74q3 -23 3 -51q0 -67 -14.5 -135.5t-44 -126t-74.5 -93t-105 -35.5q-51 0 -80 24.5t-29 71.5q-50 -96 -137 -96zM212 118q20 0 32 18.5t19.5 48t14.5 63.5l17 76h135
l-16 -76q-6 -28 -9.5 -49t-3.5 -35q0 -46 26 -46q22 0 39.5 28t29.5 70.5t18 86.5t6 76v25.5t-2 26.5h-268q-28 -65 -47 -133.5t-19 -129.5q0 -26 8 -38t20 -12z" />
    <glyph glyph-name="uni1E3E" unicode="&#x1e3e;" horiz-adv-x="717" 
d="M-3 0l151 714h189l13 -457h3l198 457h202l-152 -714h-141l78 365q4 20 10 40t11 40h-3l-198 -445h-122l-11 441h-3q-5 -31 -9.5 -57.5t-9.5 -50.5l-70 -333h-136zM373 772l2 10q29 38 55 75t49 75h155l-1 -8q-11 -12 -32.5 -33.5t-46.5 -45t-47 -43.5l-33 -30h-101z" />
    <glyph glyph-name="uni1E3F" unicode="&#x1e3f;" horiz-adv-x="696" 
d="M-10 0l117 549h111l-5 -65h4q23 34 54 54.5t68 20.5q81 0 104 -69h3q24 32 56.5 50.5t69.5 18.5q50 0 77.5 -30.5t27.5 -86.5q0 -17 -2.5 -39t-7.5 -45l-76 -358h-139l68 320q4 21 7 40.5t3 32.5q0 41 -28 41q-22 0 -36.5 -20.5t-24.5 -50t-16 -56.5l-65 -307h-138
l69 323q4 20 6.5 39t2.5 32q0 40 -27 40q-23 0 -38.5 -22t-26 -55t-16.5 -65l-62 -292h-140zM329 606l2 10q29 38 55 75t49 75h155l-1 -8q-11 -12 -32.5 -33.5t-46.5 -45t-47 -43.5l-33 -30h-101z" />
    <glyph glyph-name="uni1E00" unicode="&#x1e00;" horiz-adv-x="499" 
d="M-60 0l306 717h184l8 -717h-153l4 162h-128l-63 -162h-158zM209 288h87l7 203q1 24 2 46.5t3 48.5h-3q-4 -24 -10.5 -46t-14.5 -47zM169 -282q-55 0 -86.5 32t-31.5 84t32 84t86 32q49 0 83.5 -31t34.5 -83t-31.5 -85t-86.5 -33zM169 -213q22 0 34.5 13t12.5 34
q0 20 -12.5 33.5t-34.5 13.5q-23 0 -35 -13.5t-12 -33.5q0 -21 11 -34t36 -13z" />
    <glyph glyph-name="uni1E01" unicode="&#x1e01;" horiz-adv-x="470" 
d="M129 -10q-53 0 -82.5 43t-29.5 119q0 43 8 97t25 108.5t43 100t61.5 73.5t80.5 28q32 0 57.5 -18t38.5 -59h3l25 67h121l-117 -549h-112l-1 69h-4q-26 -35 -53 -57t-64 -22zM189 107q25 0 42.5 24.5t29.5 59.5t20 68q11 47 14 73t3 46q0 60 -36 60q-19 0 -34.5 -19
t-28 -50t-21.5 -67t-13.5 -70.5t-4.5 -59.5q0 -65 29 -65zM137 -282q-55 0 -86.5 32t-31.5 84t32 84t86 32q49 0 83.5 -31t34.5 -83t-31.5 -85t-86.5 -33zM137 -213q22 0 34.5 13t12.5 34q0 20 -12.5 33.5t-34.5 13.5q-23 0 -35 -13.5t-12 -33.5q0 -21 11 -34t36 -13z" />
    <glyph glyph-name="uni02F3" unicode="&#x2f3;" horiz-adv-x="374" 
d="M99 -282q-55 0 -86.5 32t-31.5 84t32 84t86 32q49 0 83.5 -31t34.5 -83t-31.5 -85t-86.5 -33zM99 -213q22 0 34.5 13t12.5 34q0 20 -12.5 33.5t-34.5 13.5q-23 0 -35 -13.5t-12 -33.5q0 -21 11 -34t36 -13z" />
    <glyph glyph-name="Ohorn" unicode="&#x1a0;" horiz-adv-x="572" 
d="M230 -10q-100 0 -147.5 56.5t-47.5 177.5q0 70 14 141t41 135.5t66 115t89.5 80t112.5 29.5q115 0 161 -85q23 21 36 53.5t17 66.5h128l3 -10q-13 -74 -49.5 -130t-104.5 -87q1 -9 1 -19v-20q0 -71 -13.5 -143t-40 -136.5t-65.5 -115.5t-89 -80t-112 -29zM240 119
q31 0 56.5 27t45 71t32.5 95.5t19.5 100.5t6.5 85q0 100 -54 100q-29 0 -54 -25.5t-44.5 -67t-33.5 -91.5t-21 -100t-7 -91q0 -61 14 -82.5t40 -21.5z" />
    <glyph glyph-name="ohorn" unicode="&#x1a1;" horiz-adv-x="513" 
d="M181 -10q-77 0 -119.5 48.5t-42.5 134.5q0 69 17 137t50 124.5t82 90.5t112 34q46 0 79.5 -19.5t53.5 -54.5q33 22 50 60t22 85h128l2 -10q-17 -89 -58.5 -146.5t-117.5 -76.5q1 -7 1 -12v-10q0 -69 -17 -137.5t-50.5 -124.5t-81.5 -89.5t-110 -33.5zM197 107q23 0 42 28
t32.5 71t21 89t7.5 81q0 65 -39 65q-19 0 -34.5 -19.5t-28.5 -51t-22 -68t-13.5 -71t-4.5 -59.5q0 -65 39 -65z" />
    <glyph glyph-name="Uhorn" unicode="&#x1af;" horiz-adv-x="618" 
d="M209 -10q-82 0 -128.5 44t-46.5 124q0 17 3 39.5t7 45.5l101 471h144l-100 -474q-5 -16 -6.5 -31.5t-1.5 -26.5q0 -63 47 -63q35 0 56 28.5t35 95.5l101 471h144l-22 -102q32 6 51.5 49.5t27.5 98.5h128l3 -10q-20 -103 -76 -166t-154 -66l-63 -296q-23 -112 -82.5 -172
t-167.5 -60z" />
    <glyph glyph-name="uhorn" unicode="&#x1b0;" horiz-adv-x="566" 
d="M133 -10q-55 0 -84 32.5t-29 90.5q0 18 3 39.5t7 44.5l75 352h138l-67 -316q-4 -23 -7 -43.5t-3 -35.5q0 -39 29 -39q31 0 51 42t34 107l61 285h138l-14 -67q25 7 40 29.5t23.5 53.5t13.5 65h128l3 -10q-13 -62 -39 -113t-72 -83t-117 -36l-82 -388h-111l4 65h-3
q-24 -35 -54 -55t-66 -20z" />
    <glyph glyph-name="hook" 
d="M-219 596l10 67q54 9 54 51q0 16 -9 23t-21 7q-7 0 -18.5 -3t-19.5 -7v81q39 18 84 18q47 0 72.5 -26t25.5 -70q0 -38 -24.5 -69t-74.5 -42l-12 -30h-67z" />
    <glyph glyph-name="uni0400" unicode="&#x400;" horiz-adv-x="406" 
d="M-3 0l151 714h307l-26 -125h-163l-34 -157h152l-27 -125h-151l-39 -180h164l-27 -127h-307zM261 771q-12 17 -30 45t-35 57.5t-26 48.5v9h154q7 -31 17 -67.5t25 -80.5l-1 -12h-104z" />
    <glyph glyph-name="uni040D" unicode="&#x40d;" horiz-adv-x="592" 
d="M-3 0l151 714h141l-59 -271q-7 -35 -17.5 -80t-24.5 -89h4l265 440h170l-151 -714h-141l58 271q7 35 19.5 85.5t25.5 91.5h-4l-267 -448h-170zM344 771q-12 17 -30 45t-35 57.5t-26 48.5v9h154q7 -31 17 -67.5t25 -80.5l-1 -12h-104z" />
    <glyph glyph-name="uni0450" unicode="&#x450;" horiz-adv-x="440" 
d="M190 -10q-80 0 -125.5 47.5t-45.5 132.5q0 69 16 137.5t49 125.5t83.5 91t119.5 34q65 0 105 -36t40 -99q0 -97 -72 -145.5t-191 -48.5h-9q-5 -23 -5 -44q0 -45 17 -64t51 -19q33 0 61 8t66 30v-105q-40 -26 -79.5 -35.5t-80.5 -9.5zM180 329h3q71 0 96.5 23t25.5 58
q0 17 -10.5 28t-27.5 11q-25 0 -48 -30.5t-39 -89.5zM265 606q-12 17 -30 45t-35 57.5t-26 48.5v9h154q7 -31 17 -67.5t25 -80.5l-1 -12h-104z" />
    <glyph glyph-name="uni045D" unicode="&#x45d;" horiz-adv-x="470" 
d="M134 -10q-56 0 -84.5 32.5t-28.5 90.5q0 18 2.5 39.5t6.5 43.5l76 353h138l-67 -316q-11 -47 -11 -80q0 -38 30 -38q31 0 50.5 42t33.5 107l62 285h138l-116 -549h-111l3 65h-3q-23 -35 -53 -55t-66 -20zM259 606q-12 17 -30 45t-35 57.5t-26 48.5v9h154q7 -31 17 -67.5
t25 -80.5l-1 -12h-104z" />
    <glyph glyph-name="uni0460" unicode="&#x460;" horiz-adv-x="764" 
d="M125 0q-36 141 -48 259t-2.5 228t40.5 227h143q-39 -121 -49.5 -254t15.5 -254h1q11 32 22.5 63.5t26.5 65.5l91 204q5 43 12 87t16 88h123q-28 -121 -36 -253.5t9 -254.5h2q73 121 119.5 253.5t59.5 254.5h150q-21 -119 -56 -234t-93.5 -233t-150.5 -247h-127
q-12 67 -19 129.5t-11 121.5l-107 -251h-131z" />
    <glyph glyph-name="uni0461" unicode="&#x461;" horiz-adv-x="652" 
d="M99 0q-34 129 -44 271.5t5 277.5h143q-19 -86 -20.5 -184.5t13.5 -184.5h3q5 18 13.5 34t16.5 32l50 96q1 52 6 104t14 103h134q-43 -185 -24 -369h2q33 60 55.5 117t40 118t33.5 134h138q-35 -165 -96.5 -304t-168.5 -245h-100q-16 78 -24 155l-84 -155h-106z" />
    <glyph glyph-name="uni0462" unicode="&#x462;" horiz-adv-x="468" 
d="M2 0l117 554h-61l24 109h60l21 98h144l-21 -98h119l-24 -109h-118l-22 -106h20q67 0 105.5 -23t55 -62t16.5 -85q0 -51 -15 -100.5t-47.5 -89.5t-84 -64t-124.5 -24h-165zM173 126h22q45 0 69.5 40.5t24.5 100.5q0 30 -16.5 43t-45.5 13h-12z" />
    <glyph glyph-name="uni0463" unicode="&#x463;" horiz-adv-x="470" 
d="M202 -10q-77 0 -112 35.5t-35 97.5q0 17 2 34.5t6 36.5l54 255h-80l21 100h81l21 95h138l-21 -95h97l-21 -100h-97l-23 -110q12 3 38 3q75 0 115 -35t40 -108q0 -97 -61.5 -153t-162.5 -56zM223 95q21 0 34 16t19 37.5t7 39.5q0 49 -39 49q-8 0 -17 -1.5t-17 -2.5
q-8 -29 -13.5 -57t-5.5 -43q0 -38 32 -38z" />
    <glyph glyph-name="uni0464" unicode="&#x464;" horiz-adv-x="682" 
d="M444 -10q-94 0 -140 62t-46 175q0 18 1 37.5t4 38.5h-58l-64 -303h-144l151 714h144l-61 -285h60q25 81 67.5 148t101 107t130.5 40q50 0 87 -11.5t68 -35.5l-68 -114q-47 34 -91 34q-36 0 -64.5 -25t-50 -63.5t-35.5 -79.5h175l-26 -126h-177q-6 -39 -6 -76
q0 -59 17 -84t54 -25q24 0 58.5 11t65.5 27l1 -128q-36 -18 -79 -28t-75 -10z" />
    <glyph glyph-name="uni0465" unicode="&#x465;" horiz-adv-x="596" 
d="M388 -10q-73 0 -113.5 46.5t-40.5 128.5q0 13 1 27.5t3 30.5h-61l-47 -223h-140l118 549h138l-47 -221h59q12 63 45.5 115.5t83 84t110.5 31.5q74 0 127 -38l-55 -105q-14 13 -35.5 20.5t-38.5 7.5q-34 0 -61.5 -35t-37.5 -81h127l-22 -105h-126q-1 -10 -1.5 -21.5
t-0.5 -21.5q0 -39 12.5 -57t34.5 -18t50.5 10.5t57.5 31.5v-113q-28 -21 -68 -32.5t-72 -11.5z" />
    <glyph glyph-name="uni0466" unicode="&#x466;" horiz-adv-x="601" 
d="M-62 0l358 714h192l56 -714h-153l-14 285h-9l-60 -285h-136l61 287h-10l-133 -287h-152zM280 404h91l-6 135q-1 12 -1 24t-1 24q-5 -14 -9 -25.5t-11 -27.5z" />
    <glyph glyph-name="uni0467" unicode="&#x467;" horiz-adv-x="502" 
d="M-58 0l283 549h171l49 -549h-138l-8 187h-6l-39 -187h-120l39 187h-6l-89 -187h-136zM226 306h65q-3 64 -4 94.5t-1 45.5q-6 -18 -12.5 -34.5t-17.5 -41t-30 -64.5z" />
    <glyph glyph-name="uni0468" unicode="&#x468;" horiz-adv-x="834" 
d="M-3 0l151 714h144l-59 -280h158l139 280h190l57 -714h-153l-14 287h-9l-60 -287h-136l61 287h-9l-135 -287h-150l153 308h-119l-65 -308h-144zM513 404h90l-7 135v48q-5 -15 -9.5 -26t-10.5 -24z" />
    <glyph glyph-name="uni0469" unicode="&#x469;" horiz-adv-x="705" 
d="M-10 0l118 549h138l-43 -205h125l104 205h172l49 -549h-138l-9 187h-6l-39 -187h-120l40 186h-7l-89 -186h-133l115 227h-90l-47 -227h-140zM434 306h64l-5 138z" />
    <glyph glyph-name="uni046A" unicode="&#x46a;" horiz-adv-x="616" 
d="M-56 0l104 226q25 56 46.5 94t49 61t69.5 35l-70 223l16 75h485l-17 -75l-168 -223q46 -10 65.5 -60t22.5 -129l7 -227h-152l-1 224q1 40 -4 58t-17 18h-2l-63 -300h-133l64 300h-3q-13 0 -24.5 -20t-27.5 -57l-95 -223h-152zM341 441l103 155h-141z" />
    <glyph glyph-name="uni046B" unicode="&#x46b;" horiz-adv-x="528" 
d="M-52 0l76 177q26 60 57 94.5t83 44.5l-67 168l13 65h420l-13 -64l-136 -170q47 -13 62.5 -51.5t16.5 -90.5l5 -173h-135l2 176q-1 32 -4.5 39.5t-14.5 7.5l-48 -223h-120l47 222q-11 0 -19 -9t-18 -32l-73 -181h-134zM277 340l81 109h-117z" />
    <glyph glyph-name="uni046C" unicode="&#x46c;" horiz-adv-x="847" 
d="M-3 0l151 714h144l-59 -279h207l-63 204l16 75h481l-16 -75l-169 -224q35 -13 53 -35.5t25 -60t10 -93.5l7 -226h-152l-1 196q0 46 -1.5 67.5t-6.5 28.5t-13 7h-1l-64 -299h-132l64 299h-3q-10 0 -18 -8t-20.5 -34.5t-35.5 -81.5l-74 -175h-147l104 226q12 27 22.5 46.5
t20.5 35.5h-120l-65 -308h-144zM571 439l103 157h-140z" />
    <glyph glyph-name="uni046D" unicode="&#x46d;" horiz-adv-x="740" 
d="M-10 0l118 549h138l-43 -205h164l-53 140l14 65h415l-14 -64l-135 -171q40 -13 59 -46.5t20 -94.5l4 -173h-134l2 192q-1 18 -5 24t-14 6l-47 -222h-121l48 221q-14 0 -20.5 -8t-18.5 -35l-73 -178h-132l75 173q7 17 14 30t14 24h-87l-48 -227h-140zM489 338l83 111h-118
z" />
    <glyph glyph-name="uni046E" unicode="&#x46e;" horiz-adv-x="457" 
d="M264 -231q-8 9 -27.5 14.5t-40.5 5.5q-22 0 -48 -2t-46 -2q-78 0 -121.5 34.5t-43.5 98.5q0 94 50.5 137t150.5 60q64 12 92.5 36.5t28.5 84.5q0 73 -93 73h-60l26 125h56q57 0 91.5 30t34.5 78q0 26 -15 40.5t-47 14.5q-34 0 -61.5 -13.5t-52.5 -33.5l-48 102
q32 25 65.5 41.5t70.5 23.5q-9 34 -22 61.5t-29 58.5l3 12h85q11 -13 22 -31.5t21 -41.5q24 37 55 59.5t68 22.5q11 0 18.5 -1.5t17.5 -4.5v-82q-12 5 -26 5q-20 0 -40 -19.5t-36 -41.5q48 -15 73 -54.5t25 -92.5q0 -79 -42.5 -127t-116.5 -64l-1 -4q41 -8 74 -43.5
t33 -102.5q0 -97 -58 -154.5t-159 -76.5q-47 -9 -78 -20.5t-31 -37.5q0 -21 11 -28t33 -7q20 0 38 3t41 3q19 0 35 -5t24 -11v-123z" />
    </font>
</defs>
</svg>
