<?xml version="1.0" standalone="no"?>
<!DOCTYPE svg PUBLIC "-//W3C//DTD SVG 1.1//EN" "http://www.w3.org/Graphics/SVG/1.1/DTD/svg11.dtd" >
<svg>
<metadata>
Created by FontForge 20120731 at Thu Nov  8 00:23:11 2018
 By Salim,,,
Copyright 2015 Google Inc. All Rights Reserved.
</metadata>
<defs>
<font id="NotoSans-CondensedLightItalic" horiz-adv-x="0" >
  <font-face 
    font-family="Noto Sans Cond Light"
    font-weight="300"
    font-style="italic"
    font-stretch="condensed"
    units-per-em="1000"
    panose-1="2 11 4 6 4 5 4 9 2 4"
    ascent="800"
    descent="-200"
    x-height="531"
    cap-height="714"
    bbox="-605 -389 2557 1064"
    underline-thickness="50"
    underline-position="-75"
    slope="-12"
    unicode-range="U+000D-FFFD"
  />
<missing-glyph horiz-adv-x="559" 
d="M87 0v714h383v-714h-383zM133 46h291v622h-291v-622z" />
    <glyph glyph-name="f_f" unicode="ff" horiz-adv-x="459" 
d="M-76 -240q-29 0 -50 8v47q10 -3 21.5 -5t24.5 -2q36 0 53 29t29 82l120 567h-68l5 31l73 15l17 77q17 78 47 117t92 39q18 0 36.5 -4t30.5 -10l-18 -44q-22 11 -49 11q-37 0 -55.5 -28t-31.5 -85l-16 -74h174l17 78q16 78 46.5 117t92.5 39q18 0 36 -4t31 -10l-18 -44
q-22 11 -49 11q-37 0 -56 -28t-31 -85l-16 -74h85l-9 -45h-85l-123 -572q-10 -45 -24.5 -79.5t-39.5 -54.5t-65 -20q-29 0 -50 8v47q10 -3 21.5 -5t24.5 -2q36 0 53 29t28 82l121 567h-173l-122 -572q-10 -45 -25 -79.5t-40 -54.5t-65 -20z" />
    <glyph glyph-name="f_f_i" unicode="ffi" horiz-adv-x="646" 
d="M-76 -240q-29 0 -50 8v47q10 -3 21.5 -5t24.5 -2q36 0 53 29t29 82l120 567h-68l5 31l73 15l17 77q17 78 47 117t92 39q18 0 36.5 -4t30.5 -10l-18 -44q-22 11 -49 11q-37 0 -55.5 -28t-31.5 -85l-16 -74h174l17 78q16 78 46.5 117t92.5 39q18 0 36 -4t31 -10l-18 -44
q-22 11 -49 11q-37 0 -56 -28t-31 -85l-16 -74h85l-9 -45h-85l-123 -572q-10 -45 -24.5 -79.5t-39.5 -54.5t-65 -20q-29 0 -50 8v47q10 -3 21.5 -5t24.5 -2q36 0 53 29t28 82l121 567h-173l-122 -572q-10 -45 -25 -79.5t-40 -54.5t-65 -20zM631 637q-30 0 -30 32
q0 20 11 38.5t33 18.5q29 0 29 -32q0 -22 -12 -39.5t-31 -17.5zM466 0l113 531h53l-113 -531h-53z" />
    <glyph glyph-name="f_f_l" unicode="ffl" horiz-adv-x="645" 
d="M-76 -240q-29 0 -50 8v47q10 -3 21.5 -5t24.5 -2q36 0 53 29t29 82l120 567h-68l5 31l73 15l17 77q17 78 47 117t92 39q18 0 36.5 -4t30.5 -10l-18 -44q-22 11 -49 11q-37 0 -55.5 -28t-31.5 -85l-16 -74h174l17 78q16 78 46.5 117t92.5 39q18 0 36 -4t31 -10l-18 -44
q-22 11 -49 11q-37 0 -56 -28t-31 -85l-16 -74h85l-9 -45h-85l-123 -572q-10 -45 -24.5 -79.5t-39.5 -54.5t-65 -20q-29 0 -50 8v47q10 -3 21.5 -5t24.5 -2q36 0 53 29t28 82l121 567h-173l-122 -572q-10 -45 -25 -79.5t-40 -54.5t-65 -20zM468 0l162 760h53l-163 -760h-52z
" />
    <glyph glyph-name="f_i" unicode="fi" horiz-adv-x="419" 
d="M-76 -240q-29 0 -50 8v47q10 -3 21.5 -5t24.5 -2q37 0 54 29.5t28 81.5l120 567h-68l5 31l73 15l17 77q17 78 47 117t92 39q18 0 36.5 -4t30.5 -10l-18 -44q-22 11 -49 11q-37 0 -55.5 -28t-31.5 -85l-16 -74h85l-9 -45h-85l-122 -572q-10 -45 -25 -79.5t-40 -54.5
t-65 -20zM405 637q-30 0 -30 32q0 20 11 38.5t33 18.5q29 0 29 -32q0 -22 -11.5 -39.5t-31.5 -17.5zM240 0l113 531h53l-113 -531h-53z" />
    <glyph glyph-name="f_l" unicode="fl" horiz-adv-x="419" 
d="M-76 -240q-29 0 -50 8v47q10 -3 21.5 -5t24.5 -2q37 0 54 29.5t28 81.5l120 567h-68l5 31l73 15l17 77q17 78 47 117t92 39q18 0 36.5 -4t30.5 -10l-18 -44q-22 11 -49 11q-37 0 -55.5 -28t-31.5 -85l-16 -74h85l-9 -45h-85l-122 -572q-10 -45 -25 -79.5t-40 -54.5
t-65 -20zM240 0l161 760h54l-162 -760h-53z" />
    <glyph glyph-name=".notdef" horiz-adv-x="559" 
d="M87 0v714h383v-714h-383zM133 46h291v622h-291v-622z" />
    <glyph glyph-name="NULL" 
 />
    <glyph glyph-name="NULL" 
 />
    <glyph glyph-name="CR" unicode="&#xd;" horiz-adv-x="196" 
 />
    <glyph glyph-name="space" unicode=" " horiz-adv-x="196" 
 />
    <glyph glyph-name="exclam" unicode="!" horiz-adv-x="224" 
d="M65 184l107 530h62l-125 -530h-44zM49 -6q-32 0 -32 34q0 23 12 42.5t37 19.5q30 0 30 -35q0 -23 -12 -42t-35 -19z" />
    <glyph glyph-name="quotedbl" unicode="&#x22;" horiz-adv-x="314" 
d="M240 456l45 258h59l-65 -258h-39zM101 456l45 258h58l-65 -258h-38z" />
    <glyph glyph-name="numbersign" unicode="#" horiz-adv-x="465" 
d="M33 0l67 224h-89l5 44h98l59 193h-95l5 44h103l63 209h45l-63 -209h118l63 209h44l-63 -209h89l-5 -44h-97l-59 -193h94l-5 -44h-102l-68 -224h-46l70 224h-119l-68 -224h-44zM158 268h119l58 193h-118z" />
    <glyph glyph-name="dollar" unicode="$" horiz-adv-x="421" 
d="M116 -58l22 103q-41 1 -74.5 10t-54.5 20l4 53q24 -14 58.5 -24t76.5 -12l54 255q-44 31 -74.5 65.5t-30.5 91.5q0 82 49.5 125t125.5 47l18 83h36l-18 -83q38 -2 67 -12t51 -22l-23 -45q-21 13 -47 22t-58 11l-53 -251q48 -33 78 -67.5t30 -89.5q0 -80 -50 -125
t-129 -52l-22 -103h-36zM214 401l48 228q-54 -5 -84.5 -35.5t-30.5 -83.5q0 -35 17.5 -59.5t49.5 -49.5zM184 94q56 5 87.5 37t31.5 86q0 34 -17.5 57.5t-52.5 50.5z" />
    <glyph glyph-name="percent" unicode="%" horiz-adv-x="629" 
d="M141 276q-39 0 -61 28.5t-22 89.5q0 34 6 77.5t19 87.5t32.5 81.5t47 60.5t63.5 23q39 0 60.5 -27.5t21.5 -85.5q0 -31 -6 -74.5t-18.5 -88.5t-32 -84.5t-47 -63.5t-63.5 -24zM93 0l412 714h48l-411 -714h-49zM146 319q23 0 42 22t33 57.5t23.5 75.5t14 76t4.5 59
q0 39 -10.5 55.5t-31.5 16.5q-23 0 -41.5 -20.5t-33 -54t-24 -72t-14.5 -75.5t-5 -63q0 -42 11.5 -59.5t31.5 -17.5zM421 -11q-39 0 -61 28.5t-22 89.5q0 35 6 79t19 88t33 81t47.5 59.5t62.5 22.5q40 0 61.5 -27.5t21.5 -85.5q0 -32 -6 -75t-18.5 -88.5t-32.5 -84.5
t-47.5 -63t-63.5 -24zM426 32q23 0 42 22t33 57.5t23.5 75t14 76t4.5 59.5q0 39 -11 55.5t-31 16.5q-23 0 -42 -21t-33 -54.5t-23.5 -72t-14.5 -75t-5 -62.5q0 -42 11.5 -59.5t31.5 -17.5z" />
    <glyph glyph-name="ampersand" unicode="&#x26;" horiz-adv-x="466" 
d="M136 -10q-59 0 -94.5 36t-35.5 103q0 85 45 147t121 115q-15 34 -23.5 70.5t-8.5 73.5q0 54 17 96.5t49 67.5t78 25q44 0 72 -28t28 -78q0 -76 -42 -133.5t-106 -104.5l86 -208q20 30 38 69t31 82h53q-16 -53 -42 -105t-58 -97l53 -121h-59l-34 81q-32 -37 -71 -64
t-97 -27zM218 420q29 22 55 51.5t42.5 65t16.5 76.5q0 30 -14.5 48t-39.5 18q-27 0 -46.5 -19.5t-29.5 -51t-10 -68.5q0 -67 26 -120zM145 38q47 0 79 26t60 61l-94 226q-59 -44 -94.5 -95t-35.5 -119q0 -48 23.5 -73.5t61.5 -25.5z" />
    <glyph glyph-name="quotesingle" unicode="'" horiz-adv-x="174" 
d="M102 456l45 258h59l-66 -258h-38z" />
    <glyph glyph-name="parenleft" unicode="(" horiz-adv-x="254" 
d="M87 -158q-29 55 -45 129.5t-16 149.5q0 173 64 322t179 271h49q-113 -130 -176.5 -278.5t-63.5 -315.5q0 -76 14 -148t40 -130h-45z" />
    <glyph glyph-name="parenright" unicode=")" horiz-adv-x="254" 
d="M-71 -158q113 130 176 279t63 315q0 75 -13.5 148.5t-39.5 129.5h45q29 -56 44.5 -129t15.5 -149q0 -174 -64 -323.5t-178 -270.5h-49z" />
    <glyph glyph-name="asterisk" unicode="*" horiz-adv-x="400" 
d="M319 418l-55 140l-103 -113l-35 34l115 103l-130 55l18 45l126 -71l17 149l51 -8l-35 -146l142 24l2 -49l-140 -7l73 -135z" />
    <glyph glyph-name="plus" unicode="+" horiz-adv-x="461" 
d="M264 375h169v-46h-169v-209h-47v209h-171v46h171v212h47v-212z" />
    <glyph glyph-name="comma" unicode="," horiz-adv-x="191" 
d="M-43 -129q17 35 35 76t34 82.5t26 76.5h55l3 -11q-20 -53 -50 -114t-61 -110h-42z" />
    <glyph glyph-name="hyphen" unicode="-" horiz-adv-x="276" 
d="M23 245l9 51h217l-9 -51h-217z" />
    <glyph glyph-name="period" unicode="." horiz-adv-x="194" 
d="M50 -6q-33 0 -33 34q0 23 12.5 42.5t36.5 19.5q31 0 31 -35q0 -23 -12.5 -42t-34.5 -19z" />
    <glyph glyph-name="slash" unicode="/" horiz-adv-x="318" 
d="M-46 0l387 714h52l-387 -714h-52z" />
    <glyph glyph-name="zero" unicode="0" horiz-adv-x="422" 
d="M158 -10q-59 0 -92 46t-33 141q0 43 6.5 99.5t20 118t34.5 120t50 106t66 75.5t82 28q123 0 123 -175q0 -49 -7 -109t-20.5 -123t-35 -121t-50 -104.5t-64.5 -74t-80 -27.5zM162 39q32 0 59 26t49 70t39 98t28.5 111.5t17.5 110.5t6 94q0 64 -17.5 95t-55.5 31
q-32 0 -59.5 -26t-50 -69.5t-39.5 -97t-29 -110t-18 -107.5t-6 -89q0 -73 19.5 -105t56.5 -32z" />
    <glyph glyph-name="one" unicode="1" horiz-adv-x="422" 
d="M145 0l114 538q6 30 11.5 54t14.5 56q-10 -9 -19.5 -17.5t-22.5 -18.5l-94 -72l-26 37l177 137h50l-151 -714h-54z" />
    <glyph glyph-name="two" unicode="2" horiz-adv-x="422" 
d="M-22 0l8 44l193 214q49 56 89.5 106.5t64.5 102t24 109.5q0 47 -24.5 73t-68.5 26q-34 0 -62.5 -14t-56.5 -35l-24 40q31 26 68.5 42t82.5 16q64 0 102.5 -38t38.5 -103q0 -61 -24.5 -117t-67.5 -112t-98 -116l-169 -186v-3h264l-9 -49h-331z" />
    <glyph glyph-name="three" unicode="3" horiz-adv-x="422" 
d="M127 -10q-42 0 -75.5 8t-58.5 22v56q25 -17 60 -27.5t74 -10.5q56 0 93.5 25.5t56.5 66.5t19 88q0 67 -33 97.5t-92 30.5h-42l10 47h42q53 0 94 24.5t64 66.5t23 92q0 46 -24.5 73t-69.5 27q-38 0 -70 -14.5t-61 -36.5l-23 42q32 24 71 40.5t89 16.5q68 0 105.5 -38.5
t37.5 -102.5q0 -53 -20.5 -97t-56.5 -74.5t-84 -40.5l-1 -3q43 -11 70.5 -47.5t27.5 -98.5q0 -60 -25 -113t-75.5 -86t-125.5 -33z" />
    <glyph glyph-name="four" unicode="4" horiz-adv-x="422" 
d="M210 0l36 167h-256l8 43l353 510h65l-107 -505h83l-10 -48h-83l-36 -167h-53zM54 215h202l67 312q8 36 16 69t15 61h-3q-15 -28 -28 -48.5t-29 -42.5z" />
    <glyph glyph-name="five" unicode="5" horiz-adv-x="422" 
d="M122 -10q-40 0 -72 9t-52 20v57q22 -16 54.5 -27t70.5 -11q61 0 102.5 29t62.5 77.5t21 105.5q0 64 -30.5 99t-88.5 35q-26 0 -47 -5t-44 -12l-22 25l90 322h256l-11 -50h-207l-69 -244q14 4 32 7.5t42 3.5q72 0 114 -46.5t42 -126.5q0 -70 -27 -131t-81 -99t-136 -38z
" />
    <glyph glyph-name="six" unicode="6" horiz-adv-x="422" 
d="M174 -10q-68 0 -103 49t-35 136q0 74 15 153t41.5 150.5t63.5 123.5q34 50 84.5 86t117.5 36q48 0 78 -11l-13 -49q-25 12 -67 12q-83 0 -145.5 -76.5t-101.5 -241.5h3q24 38 60.5 61.5t84.5 23.5q59 0 91.5 -41.5t32.5 -112.5q0 -50 -13 -102.5t-39 -97t-64.5 -72
t-90.5 -27.5zM178 38q38 0 66 24t46 62t27 80.5t9 79.5q0 54 -22 83t-62 29q-52 0 -88 -34t-49 -78q-8 -21 -11.5 -49.5t-3.5 -62.5q0 -60 21 -97t67 -37z" />
    <glyph glyph-name="seven" unicode="7" horiz-adv-x="422" 
d="M53 0l336 664h-288l10 50h343l-7 -42l-336 -672h-58z" />
    <glyph glyph-name="eight" unicode="8" horiz-adv-x="422" 
d="M169 -10q-76 0 -119 43.5t-43 113.5q0 86 48.5 139.5t129.5 91.5q-35 34 -55.5 73.5t-20.5 90.5q0 53 21.5 94t61.5 64.5t93 23.5q65 0 103 -39t38 -99q0 -74 -44 -126t-116 -88q44 -38 70.5 -81.5t26.5 -104.5q0 -54 -23.5 -98.5t-66.5 -71t-104 -26.5zM232 401
q68 31 104 75.5t36 103.5q0 46 -25.5 71.5t-65.5 25.5q-53 0 -86 -35t-33 -98q0 -46 19 -80t51 -63zM171 37q65 0 101.5 42.5t36.5 104.5q0 54 -25 92t-65 72q-45 -20 -81 -46t-56.5 -62t-20.5 -89q0 -51 30.5 -82.5t79.5 -31.5z" />
    <glyph glyph-name="nine" unicode="9" horiz-adv-x="422" 
d="M98 -10q-26 0 -48 3.5t-38 9.5v51q16 -7 38 -11.5t48 -4.5q82 0 142 77t97 239h-3q-23 -36 -59.5 -59.5t-82.5 -23.5q-61 0 -93.5 42.5t-32.5 112.5q0 51 13 103t39 96.5t65 71.5t91 27q65 0 100.5 -47t35.5 -136q0 -71 -13.5 -148t-38 -146t-56.5 -120
q-34 -59 -84.5 -98t-119.5 -39zM205 319q47 0 80 28.5t49 70.5q11 22 17 53t6 72q0 62 -21.5 97.5t-65.5 35.5q-38 0 -66 -23.5t-46.5 -60.5t-28 -79.5t-9.5 -80.5q0 -55 22.5 -84t62.5 -29z" />
    <glyph glyph-name="colon" unicode=":" horiz-adv-x="195" 
d="M135 440q-33 0 -33 34q0 23 12.5 42.5t36.5 19.5q31 0 31 -35q0 -23 -12 -42t-35 -19zM41 -6q-14 0 -23 9t-9 25q0 23 12.5 42.5t36.5 19.5q31 0 31 -35q0 -23 -12.5 -42t-35.5 -19z" />
    <glyph glyph-name="semicolon" unicode=";" horiz-adv-x="196" 
d="M138 440q-14 0 -23 9t-9 25q0 23 12 42.5t37 19.5q31 0 31 -35q0 -23 -13 -42t-35 -19zM-47 -129q28 56 53 118.5t41 116.5h55l4 -11q-20 -53 -50 -114t-62 -110h-41z" />
    <glyph glyph-name="less" unicode="&#x3c;" horiz-adv-x="461" 
d="M434 136l-388 206v35l388 200v-53l-327 -165l327 -170v-53z" />
    <glyph glyph-name="equal" unicode="=" horiz-adv-x="461" 
d="M47 434v47h385v-47h-385zM47 223v48h385v-48h-385z" />
    <glyph glyph-name="greater" unicode="&#x3e;" horiz-adv-x="461" 
d="M46 189l327 170l-327 165v53l388 -200v-35l-388 -206v53z" />
    <glyph glyph-name="question" unicode="?" horiz-adv-x="310" 
d="M74 184q9 50 22 84.5t33.5 64t51.5 63.5t56 63t39.5 60t14.5 72t-21.5 62.5t-58.5 21.5q-29 0 -54 -9.5t-48 -22.5l-17 42q30 19 62 29t65 10q59 0 93 -33t34 -92q0 -67 -34 -117.5t-88 -104.5q-32 -34 -52.5 -60.5t-32.5 -57t-20 -75.5h-45zM66 -6q-33 0 -33 34
q0 23 12 42.5t37 19.5q31 0 31 -35q0 -23 -12.5 -42t-34.5 -19z" />
    <glyph glyph-name="at" unicode="@" horiz-adv-x="636" 
d="M252 -88q-103 0 -161 69t-58 191q0 77 16.5 154.5t48 147.5t77.5 124.5t106 86t132 31.5q101 0 153 -65t52 -178q0 -58 -13 -121t-36.5 -117.5t-57 -88.5t-73.5 -34q-38 0 -52 24t-16 64h-2q-16 -40 -43 -64.5t-61 -24.5q-38 0 -59.5 26.5t-21.5 81.5q0 47 14 98.5
t40.5 97t63.5 74t83 28.5q26 0 49 -5.5t42 -12.5l-51 -201q-9 -33 -13 -56t-4 -37q0 -52 36 -52q27 0 51 31t41.5 80t27.5 103.5t10 101.5q0 101 -41 153.5t-124 52.5q-62 0 -114 -29t-92 -79t-67.5 -114.5t-41.5 -135.5t-14 -142q0 -103 44.5 -162.5t131.5 -59.5
q36 0 71.5 8.5t63.5 21.5v-41q-30 -14 -65 -22t-73 -8zM274 152q65 0 109 171l38 147q-8 3 -19.5 5t-24.5 2q-33 0 -60 -25t-46.5 -64t-30.5 -82.5t-11 -81.5q0 -72 45 -72z" />
    <glyph glyph-name="A" unicode="A" horiz-adv-x="422" 
d="M-63 0l329 716h65l29 -716h-55l-9 253h-185l-114 -253h-60zM133 303h161l-6 259q-1 24 -1.5 48.5t-0.5 44.5h-2q-8 -20 -17.5 -43.5t-21.5 -50.5z" />
    <glyph glyph-name="B" unicode="B" horiz-adv-x="461" 
d="M15 0l151 714h133q77 0 119.5 -36t42.5 -104q0 -70 -36.5 -127t-110.5 -73v-2q43 -11 67.5 -47t24.5 -89q0 -69 -28 -122.5t-80.5 -83.5t-127.5 -30h-155zM154 398h85q53 0 90 23t55.5 61t18.5 85q0 48 -27.5 73t-86.5 25h-79zM80 49h92q60 0 99 25t58.5 67t19.5 94
q0 59 -32 87.5t-89 28.5h-84z" />
    <glyph glyph-name="C" unicode="C" horiz-adv-x="430" 
d="M230 -10q-88 0 -134.5 62t-46.5 183q0 61 13 128.5t39.5 131.5t66 116t92 83t117.5 31q71 0 119 -33l-27 -46q-38 29 -93 29q-53 0 -96 -28.5t-75.5 -75.5t-54.5 -104.5t-33 -117t-11 -111.5q0 -198 134 -198q27 0 54 6t54 16v-50q-27 -10 -56 -16t-62 -6z" />
    <glyph glyph-name="D" unicode="D" horiz-adv-x="508" 
d="M15 0l151 714h114q98 0 152 -57t54 -175q0 -64 -12.5 -131t-39.5 -130t-68.5 -112.5t-99.5 -79t-133 -29.5h-118zM79 50h59q61 0 108 26t81.5 70.5t56.5 100.5t33 116.5t11 117.5q0 98 -40 140.5t-116 42.5h-62z" />
    <glyph glyph-name="E" unicode="E" horiz-adv-x="404" 
d="M14 0l152 714h277l-10 -50h-223l-56 -265h208l-10 -49h-209l-64 -300h223l-10 -50h-278z" />
    <glyph glyph-name="F" unicode="F" horiz-adv-x="375" 
d="M14 0l152 714h278l-11 -50h-223l-63 -297h210l-11 -49h-210l-67 -318h-55z" />
    <glyph glyph-name="G" unicode="G" horiz-adv-x="536" 
d="M255 -10q-101 0 -153.5 61.5t-52.5 178.5q0 100 24.5 189.5t69.5 158.5t107 108t138 39q49 0 87.5 -12t69.5 -31l-26 -47q-30 19 -63 29.5t-71 10.5q-63 0 -114.5 -36.5t-88.5 -99.5t-57 -142t-20 -164q0 -98 40 -145.5t116 -47.5q30 0 58 5t51 13l54 257h-116l11 49h171
l-74 -343q-37 -14 -77.5 -22.5t-83.5 -8.5z" />
    <glyph glyph-name="H" unicode="H" horiz-adv-x="527" 
d="M14 0l152 714h54l-66 -315h264l67 315h55l-152 -714h-54l73 349h-264l-74 -349h-55z" />
    <glyph glyph-name="I" unicode="I" horiz-adv-x="239" 
d="M-40 0l7 33l71 10l133 628l-66 10l6 33h192l-7 -33l-71 -10l-133 -628l66 -10l-6 -33h-192z" />
    <glyph glyph-name="J" unicode="J" horiz-adv-x="200" 
d="M-85 -182q-20 0 -37 3.5t-28 8.5l10 49q25 -11 54 -11q40 0 63 30t36 92l154 724h54l-155 -734q-18 -84 -54.5 -123t-96.5 -39z" />
    <glyph glyph-name="K" unicode="K" horiz-adv-x="429" 
d="M14 0l152 714h54l-79 -373l61 81l243 292h63l-258 -316l116 -398h-59l-102 357l-77 -77l-59 -280h-55z" />
    <glyph glyph-name="L" unicode="L" horiz-adv-x="369" 
d="M14 0l152 714h54l-141 -664h217l-9 -50h-273z" />
    <glyph glyph-name="M" unicode="M" horiz-adv-x="679" 
d="M14 0l152 714h77l48 -631h3l314 631h83l-151 -714h-54l111 524q12 54 25 106h-2l-316 -630h-56l-49 630h-2q-5 -29 -10 -55.5t-10 -55.5l-110 -519h-53z" />
    <glyph glyph-name="N" unicode="N" horiz-adv-x="548" 
d="M14 0l152 714h61l151 -616h2q8 42 16 86t15 75l97 455h53l-152 -714h-60l-151 622h-3q-5 -38 -14.5 -84t-17.5 -85l-96 -453h-53z" />
    <glyph glyph-name="O" unicode="O" horiz-adv-x="545" 
d="M224 -10q-89 0 -132.5 59t-43.5 168q0 63 12 132.5t35.5 136t59.5 120.5t84.5 86t109.5 32q83 0 128 -54t45 -164q0 -57 -10.5 -126t-33 -137.5t-57.5 -126t-84 -92t-113 -34.5zM227 40q49 0 87.5 31.5t67 83.5t47 114t27.5 124t9 113q0 169 -120 169q-50 0 -89.5 -32
t-68 -83.5t-47 -113t-27.5 -122t-9 -107.5q0 -177 123 -177z" />
    <glyph glyph-name="P" unicode="P" horiz-adv-x="433" 
d="M15 0l151 714h108q86 0 128.5 -42.5t42.5 -117.5q0 -77 -29 -136t-85 -92.5t-137 -33.5h-63l-62 -292h-54zM141 341h55q97 0 144.5 58.5t47.5 150.5q0 115 -122 115h-56z" />
    <glyph glyph-name="Q" unicode="Q" horiz-adv-x="545" 
d="M299 -170l-65 162q-4 -1 -8 -1.5t-9 -0.5q-85 2 -127 60t-42 167q0 63 12 132.5t35.5 136t59.5 120.5t84.5 86t109.5 32q83 0 128 -54t45 -164q0 -50 -8.5 -111t-25.5 -123t-45 -117.5t-66.5 -96t-88.5 -56.5l75 -172h-64zM227 40q49 0 87.5 31.5t67 83.5t47 114
t27.5 124t9 113q0 169 -120 169q-50 0 -89.5 -32t-68 -83.5t-47 -113t-27.5 -122t-9 -107.5q0 -177 123 -177z" />
    <glyph glyph-name="R" unicode="R" horiz-adv-x="442" 
d="M15 0l151 714h109q81 0 125 -40t44 -117q0 -88 -41 -153.5t-121 -83.5l77 -320h-59l-70 309h-95l-66 -309h-54zM145 357h75q57 0 94.5 27.5t55.5 72t18 95.5q0 58 -30.5 85.5t-91.5 27.5h-56z" />
    <glyph glyph-name="S" unicode="S" horiz-adv-x="401" 
d="M129 -10q-47 0 -81.5 9t-59.5 22l3 57q27 -16 62 -26.5t77 -10.5q64 0 109 37.5t45 111.5q0 46 -23 79t-74 78q-43 38 -71.5 78t-28.5 103q0 64 26.5 107.5t72.5 66t102 22.5q43 0 78.5 -10.5t60.5 -25.5l-25 -49q-24 14 -53 24t-63 10q-58 0 -100 -35t-42 -105
q0 -33 11 -58t32 -48t51 -50q46 -40 74.5 -80.5t28.5 -102.5q0 -97 -59 -150.5t-153 -53.5z" />
    <glyph glyph-name="T" unicode="T" horiz-adv-x="371" 
d="M94 0l142 664h-151l11 50h356l-11 -50h-151l-141 -664h-55z" />
    <glyph glyph-name="U" unicode="U" horiz-adv-x="519" 
d="M206 -10q-74 0 -116.5 40.5t-42.5 115.5q0 36 11 86l102 482h55l-103 -484q-4 -22 -6.5 -43t-2.5 -37q0 -54 28.5 -82t78.5 -28q71 0 109 49t60 147l103 478h54l-104 -483q-24 -113 -75.5 -177t-150.5 -64z" />
    <glyph glyph-name="V" unicode="V" horiz-adv-x="425" 
d="M116 0l-27 714h55l15 -517q3 -63 0 -127h2q10 27 23 58.5t29 67.5l234 518h59l-328 -714h-62z" />
    <glyph glyph-name="W" unicode="W" horiz-adv-x="690" 
d="M95 0v714h53l-2 -504q0 -39 -1 -71.5t-3 -58.5h3q12 33 25.5 68t26.5 67l208 499h52l-3 -487q-1 -41 -1.5 -78t-2.5 -71h2q13 36 26.5 71t29.5 77l200 488h58l-298 -714h-63l4 511q0 51 3 103h-3q-7 -23 -16 -46.5t-20 -48.5l-215 -519h-63z" />
    <glyph glyph-name="X" unicode="X" horiz-adv-x="388" 
d="M-58 0l241 377l-70 337h56l55 -290l179 290h59l-217 -345l72 -369h-57l-57 320l-202 -320h-59z" />
    <glyph glyph-name="Y" unicode="Y" horiz-adv-x="375" 
d="M96 0l58 274l-67 440h55l52 -370l208 370h60l-253 -439l-58 -275h-55z" />
    <glyph glyph-name="Z" unicode="Z" horiz-adv-x="384" 
d="M-32 0l9 43l387 621h-245l11 50h308l-9 -44l-387 -620h263l-10 -50h-327z" />
    <glyph glyph-name="bracketleft" unicode="[" horiz-adv-x="284" 
d="M-18 -159l187 875h182l-10 -46h-132l-167 -783h132l-10 -46h-182z" />
    <glyph glyph-name="backslash" unicode="\" horiz-adv-x="330" 
d="M205 -1l-103 716h50l103 -716h-50z" />
    <glyph glyph-name="bracketright" unicode="]" horiz-adv-x="284" 
d="M-66 -159l9 46h132l167 783h-132l10 46h182l-187 -875h-181z" />
    <glyph glyph-name="asciicircum" unicode="^" horiz-adv-x="444" 
d="M26 328l220 387h38l145 -387h-52l-119 320l-178 -320h-54z" />
    <glyph glyph-name="underscore" unicode="_" horiz-adv-x="312" 
d="M-83 -135l7 44h311l-7 -44h-311z" />
    <glyph glyph-name="grave" unicode="`" horiz-adv-x="234" 
d="M235 606q-15 18 -32 45t-32.5 55t-24.5 50v9h58q26 -78 63 -149v-10h-32z" />
    <glyph glyph-name="a" unicode="a" horiz-adv-x="448" 
d="M148 -10q-55 0 -85 41.5t-30 118.5q0 48 9.5 102t28 105t46 92.5t64 66.5t81.5 25t70 -27t33 -66h3l24 83h43l-112 -531h-43l14 94h-3q-26 -44 -61.5 -74t-81.5 -30zM162 37q38 0 69 29t54 75.5t36 100.5q10 43 16 81t6 70q0 47 -20.5 74t-56.5 27q-42 0 -75 -33
t-56 -85.5t-35 -112t-12 -111.5q0 -58 19.5 -86.5t54.5 -28.5z" />
    <glyph glyph-name="b" unicode="b" horiz-adv-x="448" 
d="M188 -10q-48 0 -74 27.5t-34 66.5h-3l-24 -84h-42l160 760h54l-51 -239q-11 -50 -21 -82h3q25 43 61 72.5t84 29.5q54 0 84.5 -40.5t30.5 -118.5q0 -46 -9 -99t-27 -105t-45 -94.5t-64 -68t-83 -25.5zM185 37q34 0 62 22.5t49 60.5t35.5 83t22 91t7.5 85q0 59 -20 87
t-56 28q-35 0 -63.5 -25t-50.5 -65.5t-37 -87.5t-23 -92t-8 -79q0 -108 82 -108z" />
    <glyph glyph-name="c" unicode="c" horiz-adv-x="341" 
d="M176 -10q-68 0 -104.5 43t-36.5 129q0 62 14.5 128.5t44.5 123.5t74.5 92t104.5 35q25 0 48.5 -4.5t42.5 -14.5l-19 -46q-34 18 -72 18q-44 0 -78 -30t-57.5 -79t-36 -106.5t-12.5 -112.5q0 -129 96 -129q23 0 45 7t44 18v-48q-19 -10 -43.5 -17t-54.5 -7z" />
    <glyph glyph-name="d" unicode="d" horiz-adv-x="452" 
d="M148 -10q-56 0 -85.5 41.5t-29.5 118.5q0 48 9 101.5t27.5 105t46 93t64 66.5t82.5 25q45 0 71.5 -25.5t34.5 -63.5h3q5 28 10 56.5t11 55.5l41 196h53l-160 -760h-44l14 94h-2q-28 -45 -63.5 -74.5t-82.5 -29.5zM163 37q35 0 64 26t51 68t37.5 90.5t23.5 94t8 78.5
q0 47 -21 73.5t-60 26.5q-34 0 -62 -22.5t-49.5 -59.5t-36.5 -82t-22.5 -91.5t-7.5 -87.5q0 -114 75 -114z" />
    <glyph glyph-name="e" unicode="e" horiz-adv-x="396" 
d="M180 -10q-67 0 -106.5 43t-39.5 129q0 76 18 144.5t49.5 121.5t74 83t92.5 30t78.5 -26.5t28.5 -79.5q0 -55 -30.5 -97.5t-90.5 -67.5t-147 -25h-12q-3 -17 -5 -37t-2 -41q0 -131 103 -131q30 0 55.5 8.5t51.5 22.5v-48q-23 -13 -52.5 -21t-65.5 -8zM103 290h11
q104 0 156.5 40t52.5 102q0 29 -15 46t-46 17q-34 0 -65 -26.5t-56 -72.5t-38 -106z" />
    <glyph glyph-name="f" unicode="f" horiz-adv-x="232" 
d="M-76 -240q-29 0 -50 8v47q10 -3 21.5 -5t24.5 -2q37 0 54 29.5t28 81.5l120 567h-68l5 31l73 15l17 77q17 78 47 117t92 39q18 0 36.5 -4t30.5 -10l-18 -44q-22 11 -49 11q-37 0 -55.5 -28t-31.5 -85l-16 -74h85l-9 -45h-85l-122 -572q-10 -45 -25 -79.5t-40 -54.5
t-65 -20z" />
    <glyph glyph-name="g" unicode="g" horiz-adv-x="452" 
d="M112 -240q-36 0 -67 9t-51 20v53q20 -13 52.5 -24t65.5 -11q66 0 101 39.5t52 117.5l11 47q3 16 9 39.5t11 41.5h-3q-27 -45 -63 -73.5t-82 -28.5q-56 0 -85.5 41t-29.5 118q0 48 9.5 102t28 105t46 93t64.5 67t83 25t71.5 -26.5t33.5 -66.5h3l23 83h43l-120 -569
q-22 -101 -70.5 -151.5t-135.5 -50.5zM164 37q34 0 62 26t50.5 67.5t38 90t23.5 94.5t8 80q0 47 -21 73t-58 26q-35 0 -63 -22.5t-49.5 -59.5t-36.5 -82t-22.5 -91.5t-7.5 -86.5q0 -115 76 -115z" />
    <glyph glyph-name="h" unicode="h" horiz-adv-x="439" 
d="M11 0l161 760h54l-47 -213q-5 -25 -11.5 -51t-13.5 -52h3q22 41 58 69t85 28q46 0 73.5 -26t27.5 -78q0 -20 -5 -48.5t-10 -54.5l-71 -334h-53l71 335q5 25 9.5 49.5t4.5 44.5q0 64 -64 64q-54 0 -95.5 -53.5t-63.5 -159.5l-59 -280h-54z" />
    <glyph glyph-name="i" unicode="i" horiz-adv-x="191" 
d="M176 637q-30 0 -30 32q0 20 11 38.5t33 18.5q29 0 29 -32q0 -22 -11.5 -39.5t-31.5 -17.5zM11 0l113 531h53l-113 -531h-53z" />
    <glyph glyph-name="j" unicode="j" horiz-adv-x="194" 
d="M179 637q-30 0 -30 32q0 20 10.5 38.5t32.5 18.5q29 0 29 -32q0 -22 -11.5 -39.5t-30.5 -17.5zM-84 -240q-14 0 -26.5 2t-21.5 5v49q19 -8 44 -8q37 0 55.5 29t33.5 102l125 592h53l-127 -596q-18 -85 -45.5 -130t-90.5 -45z" />
    <glyph glyph-name="k" unicode="k" horiz-adv-x="370" 
d="M11 0l161 760h54l-80 -370q-8 -39 -16 -71.5t-16 -64.5h2l232 277h60l-181 -216l83 -315h-57l-70 273l-80 -86l-39 -187h-53z" />
    <glyph glyph-name="l" unicode="l" horiz-adv-x="188" 
d="M11 0l161 760h54l-162 -760h-53z" />
    <glyph glyph-name="m" unicode="m" horiz-adv-x="663" 
d="M11 0l112 531h44l-14 -85h3q22 40 55.5 67.5t79.5 27.5q44 0 67.5 -23t27.5 -66h2q22 38 56 63.5t81 25.5q46 0 73.5 -26t27.5 -78q0 -16 -3 -35t-7 -36l-77 -366h-53l77 363q4 19 6 35.5t2 28.5q0 66 -63 66q-34 0 -61 -21.5t-45.5 -58.5t-27.5 -81l-72 -332h-53l79 370
q4 16 5.5 31.5t1.5 26.5q0 31 -15 48t-45 17q-39 0 -68.5 -28.5t-50 -76.5t-32.5 -108l-60 -280h-53z" />
    <glyph glyph-name="n" unicode="n" horiz-adv-x="439" 
d="M10 0l113 532h44l-14 -88h2q22 40 58.5 69t84.5 29q46 0 74.5 -26t28.5 -78q0 -21 -4.5 -49t-9.5 -53l-72 -336h-54l71 338q5 24 9.5 48t4.5 44q0 62 -63 62q-55 0 -96 -55.5t-64 -159.5l-58 -277h-55z" />
    <glyph glyph-name="o" unicode="o" horiz-adv-x="437" 
d="M172 -10q-65 0 -101.5 44t-36.5 126q0 44 8.5 95.5t26.5 101.5t46 92t66 67t87 25q64 0 99.5 -44t35.5 -126q0 -62 -14.5 -128.5t-43 -124t-72 -93t-101.5 -35.5zM176 38q42 0 74 31.5t54 82.5t33.5 109t11.5 112q0 55 -21.5 88t-64.5 33q-35 0 -62.5 -22t-48.5 -59
t-35.5 -81.5t-21.5 -89.5t-7 -83q0 -121 88 -121z" />
    <glyph glyph-name="p" unicode="p" horiz-adv-x="449" 
d="M-37 -232l161 763h44l-15 -95h3q27 46 62.5 75.5t82.5 29.5q54 0 84.5 -41t30.5 -118q0 -49 -9 -102.5t-27.5 -105t-46 -93t-64 -66.5t-82.5 -25q-45 0 -71 26t-34 63h-3q-4 -25 -9 -53t-10 -52l-44 -206h-53zM184 37q42 0 75.5 33.5t56 86t34.5 112t12 111.5
q0 58 -20 86.5t-56 28.5q-34 0 -63 -25.5t-51 -67t-37 -90t-23 -94.5t-8 -80q0 -47 21 -74t59 -27z" />
    <glyph glyph-name="q" unicode="q" horiz-adv-x="453" 
d="M223 -236l52 244l11 44t10 41h-3q-25 -43 -61.5 -73t-83.5 -30q-55 0 -85 40.5t-30 118.5q0 45 9 98t27 105t45.5 94.5t64.5 68.5t83 26q48 0 74 -27t33 -67h2l24 84h43l-162 -767h-53zM164 37q34 0 62 25t50.5 66t38 88.5t23.5 93t8 79.5q0 49 -21 77t-60 28
q-35 0 -63 -22.5t-49 -60.5t-35.5 -83t-22 -91t-7.5 -85q0 -59 19 -87t57 -28z" />
    <glyph glyph-name="r" unicode="r" horiz-adv-x="293" 
d="M11 0l112 531h43l-16 -97h3q23 46 57 76.5t80 30.5q12 0 23 -2t20 -4l-14 -53q-17 6 -38 6q-43 0 -74.5 -32.5t-53 -82t-31.5 -100.5l-58 -273h-53z" />
    <glyph glyph-name="s" unicode="s" horiz-adv-x="335" 
d="M109 -10q-38 0 -68 8t-48 19v55q19 -14 49.5 -24.5t63.5 -10.5q55 0 82 27.5t27 76.5q0 35 -17.5 58.5t-55.5 57.5q-36 31 -58.5 63t-22.5 79q0 62 41.5 102t110.5 40q40 0 70.5 -9.5t52.5 -22.5l-23 -44q-19 12 -44 21t-56 9q-44 0 -70.5 -24.5t-26.5 -65.5
q0 -33 16 -56.5t50 -53.5q27 -25 46.5 -46t30.5 -45t11 -59q0 -72 -42 -113.5t-119 -41.5z" />
    <glyph glyph-name="t" unicode="t" horiz-adv-x="243" 
d="M111 -10q-81 0 -81 85q0 14 2.5 33.5t7.5 40.5l71 337h-57l7 32l61 15l41 124h38l-27 -126h94l-10 -45h-93l-72 -339q-5 -19 -7.5 -35.5t-2.5 -29.5q0 -21 9.5 -33t32.5 -12q13 0 26 2.5t24 7.5v-45q-13 -5 -30 -8.5t-34 -3.5z" />
    <glyph glyph-name="u" unicode="u" horiz-adv-x="440" 
d="M137 -10q-48 0 -75.5 26.5t-27.5 77.5q0 20 4.5 46.5t9.5 51.5l72 339h54l-73 -341q-5 -24 -8.5 -46t-3.5 -42q0 -64 63 -64q55 0 96.5 56t63.5 160l59 277h53l-112 -531h-43l13 87h-3q-22 -41 -58.5 -69t-83.5 -28z" />
    <glyph glyph-name="v" unicode="v" horiz-adv-x="344" 
d="M81 0l-26 531h53l13 -333q1 -29 2 -64.5t0 -61.5h3q11 28 23.5 57t26.5 57l162 345h56l-253 -531h-60z" />
    <glyph glyph-name="w" unicode="w" horiz-adv-x="557" 
d="M64 0l-3 531h51v-335q1 -34 -0.5 -64t-2.5 -56h3q8 25 20.5 56.5t24.5 59.5l146 339h57l3 -334q1 -28 0 -60.5t-3 -61.5h3q10 29 22 60t26 68l135 328h54l-223 -531h-60l-1 355q-1 25 -0.5 50.5t2.5 53.5h-2q-8 -25 -17 -47.5t-21 -48.5l-154 -363h-60z" />
    <glyph glyph-name="x" unicode="x" horiz-adv-x="360" 
d="M-42 0l191 276l-70 255h55l55 -213l143 213h60l-182 -261l76 -270h-55l-60 227l-153 -227h-60z" />
    <glyph glyph-name="y" unicode="y" horiz-adv-x="353" 
d="M-52 -242q-17 0 -30 3t-22 7l5 48q10 -4 21 -7t25 -3q33 0 56 24t46 73l48 102l-32 526h54l15 -332q2 -30 3 -63t0 -59h3q10 25 23.5 57t25.5 57l159 340h56l-305 -642q-31 -65 -64.5 -98t-86.5 -33z" />
    <glyph glyph-name="z" unicode="z" horiz-adv-x="312" 
d="M-28 0l7 38l284 448h-175l9 45h235l-8 -40l-282 -445h194l-9 -46h-255z" />
    <glyph glyph-name="braceleft" unicode="{" horiz-adv-x="325" 
d="M197 -158q-67 0 -98 26t-31 79q0 13 2 26.5t5 28.5l31 144q6 27 6 48q0 33 -20 47.5t-67 14.5l10 46q56 0 84.5 22.5t40.5 78.5l38 176q16 76 58 105.5t121 29.5h7l-11 -46q-57 -1 -85 -22.5t-40 -76.5l-38 -175q-10 -49 -35 -78.5t-73 -37.5v-2q62 -15 62 -80
q0 -23 -6 -50l-31 -147q-6 -27 -6 -45q0 -37 20.5 -51t66.5 -15l-3 -46h-8z" />
    <glyph glyph-name="bar" unicode="|" horiz-adv-x="411" 
d="M187 -241v1003h48v-1003h-48z" />
    <glyph glyph-name="braceright" unicode="}" horiz-adv-x="324" 
d="M-57 -158l3 46q58 0 88 22.5t42 76.5l37 175q11 49 36 78.5t72 36.5v2q-62 17 -62 81q0 10 2 23t5 27l31 147q6 25 6 45q0 37 -21.5 51t-67.5 15l9 46h7q66 0 96 -26t30 -78q0 -12 -2 -26.5t-5 -29.5l-31 -144q-3 -14 -5 -26t-2 -23q0 -33 20.5 -47.5t66.5 -14.5l-10 -46
q-56 0 -84.5 -22.5t-39.5 -77.5l-38 -177q-16 -76 -58 -105t-120 -29h-5z" />
    <glyph glyph-name="asciitilde" unicode="~" horiz-adv-x="461" 
d="M235 330q-24 14 -45.5 21.5t-43.5 7.5q-52 0 -100 -57v55q20 23 45.5 36t56.5 13q29 0 52 -8.5t51 -22.5q25 -13 44 -20t41 -7q25 0 51 14t48 40v-54q-19 -21 -44.5 -34t-56.5 -13q-28 0 -50.5 7.5t-48.5 21.5z" />
    <glyph glyph-name="uni00A0" unicode="&#xa0;" horiz-adv-x="196" 
 />
    <glyph glyph-name="exclamdown" unicode="&#xa1;" horiz-adv-x="224" 
d="M156 442q-31 0 -31 36q0 23 12.5 42t35.5 19q14 0 23 -9t9 -26q0 -22 -12 -42t-37 -20zM-13 -182l126 531h41l-105 -531h-62z" />
    <glyph glyph-name="cent" unicode="&#xa2;" horiz-adv-x="422" 
d="M157 -10l22 104q-101 21 -101 168q0 59 13.5 122t40.5 118.5t67 93t94 44.5l17 84h42l-18 -83q20 -2 39 -6.5t33 -12.5l-19 -46q-33 18 -71 18q-43 0 -77 -30t-58 -78.5t-36.5 -106.5t-12.5 -114q0 -65 24 -96t70 -31q45 0 86 22l7 -45q-23 -12 -48 -17.5t-52 -6.5
l-21 -101h-41z" />
    <glyph glyph-name="sterling" unicode="&#xa3;" horiz-adv-x="423" 
d="M-22 0l9 45q41 13 68.5 48t42.5 104l28 134h-78l9 45h78l38 180q18 81 56.5 124.5t110.5 43.5q38 0 67 -11t51 -28l-26 -43q-18 13 -40.5 23t-52.5 10q-49 0 -75 -31.5t-39 -94.5l-36 -173h131l-9 -45h-131l-29 -134q-14 -66 -36.5 -99t-49.5 -48h271l-10 -50h-348z" />
    <glyph glyph-name="currency" unicode="&#xa4;" horiz-adv-x="544" 
d="M472 136l-71 69q-53 -42 -118 -42q-66 0 -120 43l-69 -69l-28 28l69 69q-42 52 -42 120q0 31 10.5 61.5t31.5 56.5l-69 70l27 28l71 -70q26 22 57 32.5t62 10.5t61.5 -10.5t56.5 -31.5l70 69l29 -28l-70 -69q43 -54 43 -119q0 -66 -43 -120l70 -70zM282 204q42 0 76 21
t54.5 55t20.5 74q1 40 -20 74t-55.5 55t-74.5 20q-41 1 -75 -19.5t-54 -55t-20 -74.5q0 -42 20 -76t54 -54t74 -20z" />
    <glyph glyph-name="yen" unicode="&#xa5;" horiz-adv-x="414" 
d="M114 0l31 143h-113l9 43h113l20 96h-112l9 43h100l-51 389h53l43 -357l192 357h57l-215 -389h101l-8 -43h-116l-20 -96h115l-9 -43h-115l-31 -143h-53z" />
    <glyph glyph-name="brokenbar" unicode="&#xa6;" horiz-adv-x="411" 
d="M187 382v378h48v-378h-48zM187 -240v379h48v-379h-48z" />
    <glyph glyph-name="section" unicode="&#xa7;" horiz-adv-x="370" 
d="M117 31q-39 0 -69 7.5t-48 18.5v51q22 -14 52.5 -24t63.5 -10q54 0 86.5 27t32.5 72q0 32 -21 53.5t-58 43.5t-65.5 51t-28.5 76q0 49 29 81t76 52q-24 19 -37 42.5t-13 53.5q0 58 42 95t110 39q37 1 68.5 -8.5t54.5 -23.5l-22 -40q-22 14 -47.5 22t-52.5 8
q-41 0 -71.5 -22.5t-30.5 -66.5q0 -33 20 -53t54 -40q43 -26 69 -53.5t26 -69.5q0 -48 -27 -83.5t-68 -60.5q19 -16 31.5 -39.5t12.5 -52.5q0 -65 -46 -105.5t-123 -40.5zM212 293q33 20 54 48t21 63q0 33 -21.5 54.5t-65.5 47.5q-39 -14 -63.5 -39t-24.5 -63q0 -35 25 -58
t75 -53z" />
    <glyph glyph-name="dieresis" unicode="&#xa8;" horiz-adv-x="498" 
d="M378 639q-28 0 -28 30q0 19 10 36t30 17q27 0 27 -30q0 -20 -11 -36.5t-28 -16.5zM228 639q-28 0 -28 30q0 19 10 36t30 17q27 0 27 -30q0 -20 -11 -36.5t-28 -16.5z" />
    <glyph glyph-name="copyright" unicode="&#xa9;" horiz-adv-x="831" 
d="M414 -9q-82 0 -149.5 28t-115.5 78t-74 116.5t-26 143.5q0 81 28 148t78 116t116.5 75.5t144.5 26.5q81 0 148 -28t116 -78.5t75.5 -117t26.5 -143.5q0 -79 -27 -145.5t-76.5 -116t-117 -76.5t-147.5 -27zM414 30q72 0 131.5 25t103.5 70t67.5 104t23.5 128
q0 92 -41.5 166t-115 117.5t-168.5 43.5t-168.5 -43t-115 -117t-41.5 -167t41 -167t114 -117t169 -43zM433 138q-95 0 -148.5 56t-53.5 162q0 100 53.5 160t149.5 60q34 0 65 -7t59 -21l-19 -40q-48 24 -104 24q-73 0 -113.5 -46t-40.5 -129q0 -88 40.5 -131.5t115.5 -43.5
q26 0 52.5 5t55.5 16v-42q-25 -11 -53 -17t-59 -6z" />
    <glyph glyph-name="ordfeminine" unicode="&#xaa;" horiz-adv-x="275" 
d="M154 392q-34 0 -58.5 26t-24.5 85q0 53 16.5 103t49 83t79.5 33q31 0 46.5 -15.5t21.5 -36.5h4l15 46h32l-67 -318h-33l8 52h-3q-15 -26 -36 -42t-50 -16zM163 430q27 0 46.5 20t32 49.5t18.5 60t6 50.5q0 34 -12.5 54t-39.5 20q-30 0 -52.5 -27t-35 -68t-12.5 -83
q0 -76 49 -76z" />
    <glyph glyph-name="guillemotleft" unicode="&#xab;" horiz-adv-x="394" 
d="M122 70l-92 191l1 14l170 179l31 -25l-144 -165l73 -177zM286 70l-92 188l1 14l168 181l32 -24l-143 -168l72 -174z" />
    <glyph glyph-name="logicalnot" unicode="&#xac;" horiz-adv-x="461" 
d="M424 375v-252h-47v206h-329v46h376z" />
    <glyph glyph-name="uni00AD" unicode="&#xad;" horiz-adv-x="275" 
d="M23 245l9 51h217l-9 -51h-217z" />
    <glyph glyph-name="registered" unicode="&#xae;" horiz-adv-x="831" 
d="M414 -9q-82 0 -149.5 28t-115.5 78t-74 116.5t-26 143.5q0 81 28 148t78 116t116.5 75.5t144.5 26.5q81 0 148 -28t116 -78.5t75.5 -117t26.5 -143.5q0 -79 -27 -145.5t-76.5 -116t-117 -76.5t-147.5 -27zM414 30q72 0 131.5 25t103.5 70t67.5 104t23.5 128
q0 92 -41.5 166t-115 117.5t-168.5 43.5t-168.5 -43t-115 -117t-41.5 -167t41 -167t114 -117t169 -43zM289 143v429h120q69 0 108.5 -30t39.5 -94q0 -48 -23 -76t-60 -42l102 -187h-56l-92 176h-90v-176h-49zM337 359h68q44 0 73 21t29 67q0 43 -27 63t-74 20h-69v-171z" />
    <glyph glyph-name="overscore" unicode="&#xaf;" horiz-adv-x="393" 
d="M99 760l10 44h385l-11 -44h-384z" />
    <glyph glyph-name="degree" unicode="&#xb0;" horiz-adv-x="381" 
d="M191 456q-59 0 -97.5 36t-38.5 98t38.5 97.5t96.5 35.5t97 -36.5t39 -97.5t-38.5 -97t-96.5 -36zM191 494q42 0 67.5 26.5t25.5 69.5t-25.5 69t-68.5 26q-44 0 -68.5 -27t-24.5 -68q0 -44 26 -70t68 -26z" />
    <glyph glyph-name="plusminus" unicode="&#xb1;" horiz-adv-x="461" 
d="M264 382h169v-46h-169v-209h-47v209h-171v46h171v212h47v-212zM48 0v47h384v-47h-384z" />
    <glyph glyph-name="uni00B2" unicode="&#xb2;" horiz-adv-x="289" 
d="M49 416l7 37l123 128q48 49 79.5 90t31.5 86q0 27 -15 42.5t-42 15.5q-23 0 -43.5 -9.5t-40.5 -25.5l-19 33q22 19 50 30.5t61 11.5q46 0 70.5 -25.5t24.5 -66.5q0 -55 -35 -102.5t-86 -98.5l-103 -105h172l-9 -41h-226z" />
    <glyph glyph-name="uni00B3" unicode="&#xb3;" horiz-adv-x="289" 
d="M149 409q-29 0 -52 6t-40 15v46q19 -12 42 -19.5t51 -7.5q50 0 76.5 27.5t26.5 70.5q0 38 -21.5 55.5t-56.5 17.5h-33l8 38h32q52 0 80 29t28 67q0 28 -15 44t-44 16q-25 0 -45 -9t-40 -22l-19 33q22 16 49.5 27.5t61.5 11.5q49 0 73.5 -27t24.5 -66q0 -47 -26.5 -79
t-68.5 -43l-1 -2q26 -9 42.5 -31t16.5 -59q0 -59 -38.5 -99t-111.5 -40z" />
    <glyph glyph-name="acute" unicode="&#xb4;" horiz-adv-x="231" 
d="M114 606v9q34 35 67 77t52 74h63l-1 -8q-15 -20 -41 -49t-55 -57t-52 -46h-33z" />
    <glyph glyph-name="uni03BC" unicode="&#x3bc;" horiz-adv-x="443" 
d="M-40 -239l163 770h53l-72 -341q-5 -25 -8 -44.5t-3 -34.5q0 -34 16.5 -53.5t49.5 -19.5q52 0 92 52.5t63 163.5l60 277h52l-112 -531h-43l12 80h-3q-22 -39 -54 -64.5t-77 -25.5q-33 0 -51.5 15t-27.5 38h-2q-2 -19 -5.5 -41.5t-8.5 -44.5l-42 -196h-52z" />
    <glyph glyph-name="paragraph" unicode="&#xb6;" horiz-adv-x="498" 
d="M265 -127v488q-17 -7 -43 -7q-62 0 -94.5 53t-32.5 148q0 104 39 154.5t110 50.5h192v-887h-40v845h-91v-845h-40z" />
    <glyph glyph-name="periodcentered" unicode="&#xb7;" horiz-adv-x="202" 
d="M110 298q-33 0 -33 34q0 23 12.5 42.5t36.5 19.5q31 0 31 -35q0 -23 -12.5 -42t-34.5 -19z" />
    <glyph glyph-name="cedilla" unicode="&#xb8;" horiz-adv-x="201" 
d="M-17 -240q-18 0 -32 2t-25 5v38q8 -3 21.5 -5t31.5 -2q36 0 59 17.5t23 48.5q0 26 -19.5 38.5t-56.5 15.5l52 82h38l-38 -59q31 -6 50.5 -24.5t19.5 -50.5q0 -48 -35.5 -77t-88.5 -29z" />
    <glyph glyph-name="uni00B9" unicode="&#xb9;" horiz-adv-x="289" 
d="M160 416l67 312q3 18 7.5 34.5t8.5 31.5q-11 -9 -21 -16.5t-20 -14.5l-59 -39l-19 32l130 88h43l-92 -428h-45z" />
    <glyph glyph-name="ordmasculine" unicode="&#xba;" horiz-adv-x="281" 
d="M171 390q-45 0 -69 29.5t-24 82.5q0 37 9 75.5t27.5 71.5t46 53t65.5 20q44 0 67.5 -28t23.5 -83q0 -38 -9 -77t-27.5 -71.5t-46 -52.5t-63.5 -20zM175 429q25 0 43.5 17t31 44.5t18.5 58.5t6 60q0 75 -53 75q-33 0 -55 -29t-33.5 -70.5t-11.5 -80.5q0 -75 54 -75z" />
    <glyph glyph-name="guillemotright" unicode="&#xbb;" horiz-adv-x="395" 
d="M190 70l-32 26l144 164l-73 177l39 17l93 -191l-2 -14zM27 71l-32 25l143 167l-72 174l38 17l92 -188l-1 -14z" />
    <glyph glyph-name="onequarter" unicode="&#xbc;" horiz-adv-x="632" 
d="M31 0l540 714h52l-540 -714h-52zM135 286l67 312q3 18 7.5 34.5t8.5 31.5q-11 -9 -21 -16.5t-20 -14.5l-59 -39l-19 32l130 88h43l-92 -428h-45zM456 0l22 105h-157l6 35l220 291h46l-62 -287h51l-9 -39h-50l-23 -105h-44zM374 144h112l30 135q5 23 10 45t9 38
q-18 -29 -48 -68z" />
    <glyph glyph-name="onehalf" unicode="&#xbd;" horiz-adv-x="682" 
d="M28 0l540 714h52l-540 -714h-52zM135 286l67 312q3 18 7.5 34.5t8.5 31.5q-11 -9 -21 -16.5t-20 -14.5l-59 -39l-19 32l130 88h43l-92 -428h-45zM360 0l7 37l123 128q48 49 79.5 90t31.5 86q0 27 -15 42.5t-42 15.5q-23 0 -43.5 -9.5t-40.5 -25.5l-19 33q22 19 50 30.5
t61 11.5q46 0 70.5 -25.5t24.5 -66.5q0 -55 -35 -102.5t-86 -98.5l-103 -105h172l-9 -41h-226z" />
    <glyph glyph-name="threequarters" unicode="&#xbe;" horiz-adv-x="651" 
d="M123 279q-29 0 -52 6t-40 15v46q19 -12 42 -19.5t51 -7.5q50 0 76.5 27.5t26.5 70.5q0 38 -21.5 55.5t-56.5 17.5h-33l8 38h32q52 0 80 29t28 67q0 28 -15 44t-44 16q-25 0 -45 -9t-40 -22l-19 33q22 16 49.5 27.5t61.5 11.5q49 0 73.5 -27t24.5 -66q0 -47 -26.5 -79
t-68.5 -43l-1 -2q26 -9 42.5 -31t16.5 -59q0 -59 -38.5 -99t-111.5 -40zM58 0l540 714h52l-540 -714h-52zM474 0l22 105h-157l6 35l220 291h46l-62 -287h51l-9 -39h-50l-23 -105h-44zM392 144h112l30 135q5 23 10 45t9 38q-18 -29 -48 -68z" />
    <glyph glyph-name="questiondown" unicode="&#xbf;" horiz-adv-x="306" 
d="M232 343q-9 -50 -22 -84.5t-33.5 -64t-51.5 -63.5t-56 -63t-39.5 -60t-14.5 -72t21.5 -62.5t58.5 -21.5q29 0 54 9.5t48 22.5l17 -42q-30 -19 -62 -29t-65 -10q-59 0 -93 33t-34 92q0 67 34 117.5t88 104.5q32 34 52.5 60.5t32.5 57t20 75.5h45zM240 533q33 0 33 -34
q0 -23 -12 -42.5t-37 -19.5q-31 0 -31 35q0 23 12.5 42t34.5 19z" />
    <glyph glyph-name="Agrave" unicode="&#xc0;" horiz-adv-x="422" 
d="M-63 0l329 716h65l29 -716h-55l-9 253h-185l-114 -253h-60zM133 303h161l-6 259q-1 24 -1.5 48.5t-0.5 44.5h-2q-8 -20 -17.5 -43.5t-21.5 -50.5zM324 792q-15 18 -32 45t-32.5 55t-24.5 50v9h58q26 -78 63 -149v-10h-32z" />
    <glyph glyph-name="Aacute" unicode="&#xc1;" horiz-adv-x="422" 
d="M-63 0l329 716h65l29 -716h-55l-9 253h-185l-114 -253h-60zM133 303h161l-6 259q-1 24 -1.5 48.5t-0.5 44.5h-2q-8 -20 -17.5 -43.5t-21.5 -50.5zM274 790v9q34 35 67 77t52 74h63l-1 -8q-15 -20 -41 -49t-55 -57t-52 -46h-33z" />
    <glyph glyph-name="Acircumflex" unicode="&#xc2;" horiz-adv-x="422" 
d="M-63 0l329 716h65l29 -716h-55l-9 253h-185l-114 -253h-60zM133 303h161l-6 259q-1 24 -1.5 48.5t-0.5 44.5h-2q-8 -20 -17.5 -43.5t-21.5 -50.5zM183 789l1 9q31 31 67 73t58 78h47q6 -20 17 -49t23.5 -56.5t22.5 -45.5l-1 -9h-30q-34 45 -64 107q-25 -29 -53 -57
t-56 -50h-32z" />
    <glyph glyph-name="Atilde" unicode="&#xc3;" horiz-adv-x="422" 
d="M-63 0l329 716h65l29 -716h-55l-9 253h-185l-114 -253h-60zM133 303h161l-6 259q-1 24 -1.5 48.5t-0.5 44.5h-2q-8 -20 -17.5 -43.5t-21.5 -50.5zM168 793q21 110 94 110q21 0 36.5 -9.5t28.5 -22t25.5 -22t26.5 -9.5q19 0 31.5 14t21.5 50h37q-11 -57 -34 -83.5
t-58 -26.5q-20 0 -35.5 9.5t-28.5 22t-26 22t-28 9.5q-21 0 -33.5 -15.5t-20.5 -48.5h-37z" />
    <glyph glyph-name="Adieresis" unicode="&#xc4;" horiz-adv-x="422" 
d="M-63 0l329 716h65l29 -716h-55l-9 253h-185l-114 -253h-60zM133 303h161l-6 259q-1 24 -1.5 48.5t-0.5 44.5h-2q-8 -20 -17.5 -43.5t-21.5 -50.5zM382 822q-28 0 -28 30q0 19 10 36t30 17q27 0 27 -30q0 -20 -11 -36.5t-28 -16.5zM232 822q-28 0 -28 30q0 19 10 36t30 17
q27 0 27 -30q0 -20 -11 -36.5t-28 -16.5z" />
    <glyph glyph-name="Aring" unicode="&#xc5;" horiz-adv-x="422" 
d="M-63 0l329 716h65l29 -716h-55l-9 253h-185l-114 -253h-60zM133 303h161l-6 259q-1 24 -1.5 48.5t-0.5 44.5h-2q-8 -20 -17.5 -43.5t-21.5 -50.5zM316 777q-44 0 -70.5 26t-26.5 70q0 42 27 68.5t70 26.5q44 0 70.5 -26.5t26.5 -67.5q0 -43 -27 -70t-70 -27zM316 812
q28 0 44.5 17t16.5 44q0 26 -16.5 43t-44.5 17t-44 -17t-16 -43q0 -27 15.5 -44t44.5 -17z" />
    <glyph glyph-name="AE" unicode="&#xc6;" horiz-adv-x="600" 
d="M-65 0l370 714h338l-10 -50h-224l-57 -265h211l-11 -49h-210l-64 -300h224l-10 -50h-279l54 254h-143l-129 -254h-60zM150 304h128l76 360h-21z" />
    <glyph glyph-name="Ccedilla" unicode="&#xc7;" horiz-adv-x="430" 
d="M230 -10q-88 0 -134.5 62t-46.5 183q0 61 13 128.5t39.5 131.5t66 116t92 83t117.5 31q71 0 119 -33l-27 -46q-38 29 -93 29q-53 0 -96 -28.5t-75.5 -75.5t-54.5 -104.5t-33 -117t-11 -111.5q0 -198 134 -198q27 0 54 6t54 16v-50q-27 -10 -56 -16t-62 -6zM132 -240
q-18 0 -32 2t-25 5v38q8 -3 21.5 -5t31.5 -2q36 0 59 17.5t23 48.5q0 26 -19.5 38.5t-56.5 15.5l52 82h38l-38 -59q31 -6 50.5 -24.5t19.5 -50.5q0 -48 -35.5 -77t-88.5 -29z" />
    <glyph glyph-name="Egrave" unicode="&#xc8;" horiz-adv-x="404" 
d="M14 0l152 714h277l-10 -50h-223l-56 -265h208l-10 -49h-209l-64 -300h223l-10 -50h-278zM320 791q-15 18 -32 45t-32.5 55t-24.5 50v9h58q26 -78 63 -149v-10h-32z" />
    <glyph glyph-name="Eacute" unicode="&#xc9;" horiz-adv-x="404" 
d="M14 0l152 714h277l-10 -50h-223l-56 -265h208l-10 -49h-209l-64 -300h223l-10 -50h-278zM269 789v9q34 35 67 77t52 74h63l-1 -8q-15 -20 -41 -49t-55 -57t-52 -46h-33z" />
    <glyph glyph-name="Ecircumflex" unicode="&#xca;" horiz-adv-x="404" 
d="M14 0l152 714h277l-10 -50h-223l-56 -265h208l-10 -49h-209l-64 -300h223l-10 -50h-278zM192 776l1 9q31 31 67 73t58 78h47q6 -20 17 -49t23.5 -56.5t22.5 -45.5l-1 -9h-30q-34 45 -64 107q-25 -29 -53 -57t-56 -50h-32z" />
    <glyph glyph-name="Edieresis" unicode="&#xcb;" horiz-adv-x="404" 
d="M14 0l152 714h277l-10 -50h-223l-56 -265h208l-10 -49h-209l-64 -300h223l-10 -50h-278zM390 809q-28 0 -28 30q0 19 10 36t30 17q27 0 27 -30q0 -20 -11 -36.5t-28 -16.5zM240 809q-28 0 -28 30q0 19 10 36t30 17q27 0 27 -30q0 -20 -11 -36.5t-28 -16.5z" />
    <glyph glyph-name="Igrave" unicode="&#xcc;" horiz-adv-x="239" 
d="M-40 0l7 33l71 10l133 628l-66 10l6 33h192l-7 -33l-71 -10l-133 -628l66 -10l-6 -33h-192zM233 791q-15 18 -32 45t-32.5 55t-24.5 50v9h58q26 -78 63 -149v-10h-32z" />
    <glyph glyph-name="Iacute" unicode="&#xcd;" horiz-adv-x="239" 
d="M-40 0l7 33l71 10l133 628l-66 10l6 33h192l-7 -33l-71 -10l-133 -628l66 -10l-6 -33h-192zM182 789v9q34 35 67 77t52 74h63l-1 -8q-15 -20 -41 -49t-55 -57t-52 -46h-33z" />
    <glyph glyph-name="Icircumflex" unicode="&#xce;" horiz-adv-x="239" 
d="M-40 0l7 33l71 10l133 628l-66 10l6 33h192l-7 -33l-71 -10l-133 -628l66 -10l-6 -33h-192zM103 792l1 9q31 31 67 73t58 78h47q6 -20 17 -49t23.5 -56.5t22.5 -45.5l-1 -9h-30q-34 45 -64 107q-25 -29 -53 -57t-56 -50h-32z" />
    <glyph glyph-name="Idieresis" unicode="&#xcf;" horiz-adv-x="239" 
d="M-40 0l7 33l71 10l133 628l-66 10l6 33h192l-7 -33l-71 -10l-133 -628l66 -10l-6 -33h-192zM303 825q-28 0 -28 30q0 19 10 36t30 17q27 0 27 -30q0 -20 -11 -36.5t-28 -16.5zM153 825q-28 0 -28 30q0 19 10 36t30 17q27 0 27 -30q0 -20 -11 -36.5t-28 -16.5z" />
    <glyph glyph-name="Eth" unicode="&#xd0;" horiz-adv-x="510" 
d="M15 0l72 342h-59l10 47h59l69 325h114q98 0 152 -57t54 -175q0 -64 -12.5 -131.5t-39.5 -130t-68.5 -112.5t-99.5 -79t-133 -29h-118zM79 50h59q62 0 109.5 27t81.5 72.5t56 102t32.5 116t10.5 113.5q0 98 -40 140.5t-116 42.5h-62l-59 -275h118l-11 -47h-117z" />
    <glyph glyph-name="Ntilde" unicode="&#xd1;" horiz-adv-x="548" 
d="M14 0l152 714h61l151 -616h2q8 42 16 86t15 75l97 455h53l-152 -714h-60l-151 622h-3q-5 -38 -14.5 -84t-17.5 -85l-96 -453h-53zM232 780q21 110 94 110q21 0 36.5 -9.5t28.5 -22t25.5 -22t26.5 -9.5q19 0 31.5 14t21.5 50h37q-11 -57 -34 -83.5t-58 -26.5
q-20 0 -35.5 9.5t-28.5 22t-26 22t-28 9.5q-21 0 -33.5 -15.5t-20.5 -48.5h-37z" />
    <glyph glyph-name="Ograve" unicode="&#xd2;" horiz-adv-x="545" 
d="M224 -10q-89 0 -132.5 59t-43.5 168q0 63 12 132.5t35.5 136t59.5 120.5t84.5 86t109.5 32q83 0 128 -54t45 -164q0 -57 -10.5 -126t-33 -137.5t-57.5 -126t-84 -92t-113 -34.5zM227 40q49 0 87.5 31.5t67 83.5t47 114t27.5 124t9 113q0 169 -120 169q-50 0 -89.5 -32
t-68 -83.5t-47 -113t-27.5 -122t-9 -107.5q0 -177 123 -177zM383 791q-15 18 -32 45t-32.5 55t-24.5 50v9h58q26 -78 63 -149v-10h-32z" />
    <glyph glyph-name="Oacute" unicode="&#xd3;" horiz-adv-x="545" 
d="M224 -10q-89 0 -132.5 59t-43.5 168q0 63 12 132.5t35.5 136t59.5 120.5t84.5 86t109.5 32q83 0 128 -54t45 -164q0 -57 -10.5 -126t-33 -137.5t-57.5 -126t-84 -92t-113 -34.5zM227 40q49 0 87.5 31.5t67 83.5t47 114t27.5 124t9 113q0 169 -120 169q-50 0 -89.5 -32
t-68 -83.5t-47 -113t-27.5 -122t-9 -107.5q0 -177 123 -177zM332 789v9q34 35 67 77t52 74h63l-1 -8q-15 -20 -41 -49t-55 -57t-52 -46h-33z" />
    <glyph glyph-name="Ocircumflex" unicode="&#xd4;" horiz-adv-x="545" 
d="M224 -10q-89 0 -132.5 59t-43.5 168q0 63 12 132.5t35.5 136t59.5 120.5t84.5 86t109.5 32q83 0 128 -54t45 -164q0 -57 -10.5 -126t-33 -137.5t-57.5 -126t-84 -92t-113 -34.5zM227 40q49 0 87.5 31.5t67 83.5t47 114t27.5 124t9 113q0 169 -120 169q-50 0 -89.5 -32
t-68 -83.5t-47 -113t-27.5 -122t-9 -107.5q0 -177 123 -177zM240 776l1 9q31 31 67 73t58 78h47q6 -20 17 -49t23.5 -56.5t22.5 -45.5l-1 -9h-30q-34 45 -64 107q-25 -29 -53 -57t-56 -50h-32z" />
    <glyph glyph-name="Otilde" unicode="&#xd5;" horiz-adv-x="545" 
d="M224 -10q-89 0 -132.5 59t-43.5 168q0 63 12 132.5t35.5 136t59.5 120.5t84.5 86t109.5 32q83 0 128 -54t45 -164q0 -57 -10.5 -126t-33 -137.5t-57.5 -126t-84 -92t-113 -34.5zM227 40q49 0 87.5 31.5t67 83.5t47 114t27.5 124t9 113q0 169 -120 169q-50 0 -89.5 -32
t-68 -83.5t-47 -113t-27.5 -122t-9 -107.5q0 -177 123 -177zM224 780q21 110 94 110q21 0 36.5 -9.5t28.5 -22t25.5 -22t26.5 -9.5q19 0 31.5 14t21.5 50h37q-11 -57 -34 -83.5t-58 -26.5q-20 0 -35.5 9.5t-28.5 22t-26 22t-28 9.5q-21 0 -33.5 -15.5t-20.5 -48.5h-37z" />
    <glyph glyph-name="Odieresis" unicode="&#xd6;" horiz-adv-x="545" 
d="M224 -10q-89 0 -132.5 59t-43.5 168q0 63 12 132.5t35.5 136t59.5 120.5t84.5 86t109.5 32q83 0 128 -54t45 -164q0 -57 -10.5 -126t-33 -137.5t-57.5 -126t-84 -92t-113 -34.5zM227 40q49 0 87.5 31.5t67 83.5t47 114t27.5 124t9 113q0 169 -120 169q-50 0 -89.5 -32
t-68 -83.5t-47 -113t-27.5 -122t-9 -107.5q0 -177 123 -177zM443 809q-28 0 -28 30q0 19 10 36t30 17q27 0 27 -30q0 -20 -11 -36.5t-28 -16.5zM293 809q-28 0 -28 30q0 19 10 36t30 17q27 0 27 -30q0 -20 -11 -36.5t-28 -16.5z" />
    <glyph glyph-name="multiply" unicode="&#xd7;" horiz-adv-x="461" 
d="M393 539l33 -32l-154 -154l152 -153l-32 -32l-153 153l-152 -153l-32 32l153 153l-152 153l32 32l152 -153z" />
    <glyph glyph-name="Oslash" unicode="&#xd8;" horiz-adv-x="546" 
d="M35 -41l-34 23l71 104q-24 51 -24 131q0 63 12 132.5t35.5 136t59.5 120.5t84.5 86t109.5 32q84 0 126 -58l61 87l34 -23l-71 -102q23 -48 23 -122q0 -57 -10.5 -126t-33 -137.5t-57.5 -126t-84 -92t-113 -34.5q-84 0 -127 58zM114 147l328 470q-30 58 -97 58
q-50 0 -88.5 -31t-67 -81.5t-47 -110.5t-27.5 -119t-10 -106q0 -47 9 -80zM227 40q48 0 86 30.5t66.5 81t47 111t28 121.5t9.5 112q1 39 -8 69l-326 -468q28 -57 97 -57z" />
    <glyph glyph-name="Ugrave" unicode="&#xd9;" horiz-adv-x="519" 
d="M206 -10q-74 0 -116.5 40.5t-42.5 115.5q0 36 11 86l102 482h55l-103 -484q-4 -22 -6.5 -43t-2.5 -37q0 -54 28.5 -82t78.5 -28q71 0 109 49t60 147l103 478h54l-104 -483q-24 -113 -75.5 -177t-150.5 -64zM372 791q-15 18 -32 45t-32.5 55t-24.5 50v9h58q26 -78 63 -149
v-10h-32z" />
    <glyph glyph-name="Uacute" unicode="&#xda;" horiz-adv-x="519" 
d="M206 -10q-74 0 -116.5 40.5t-42.5 115.5q0 36 11 86l102 482h55l-103 -484q-4 -22 -6.5 -43t-2.5 -37q0 -54 28.5 -82t78.5 -28q71 0 109 49t60 147l103 478h54l-104 -483q-24 -113 -75.5 -177t-150.5 -64zM320 789v9q34 35 67 77t52 74h63l-1 -8q-15 -20 -41 -49
t-55 -57t-52 -46h-33z" />
    <glyph glyph-name="Ucircumflex" unicode="&#xdb;" horiz-adv-x="519" 
d="M206 -10q-74 0 -116.5 40.5t-42.5 115.5q0 36 11 86l102 482h55l-103 -484q-4 -22 -6.5 -43t-2.5 -37q0 -54 28.5 -82t78.5 -28q71 0 109 49t60 147l103 478h54l-104 -483q-24 -113 -75.5 -177t-150.5 -64zM235 776l1 9q31 31 67 73t58 78h47q6 -20 17 -49t23.5 -56.5
t22.5 -45.5l-1 -9h-30q-34 45 -64 107q-25 -29 -53 -57t-56 -50h-32z" />
    <glyph glyph-name="Udieresis" unicode="&#xdc;" horiz-adv-x="519" 
d="M206 -10q-74 0 -116.5 40.5t-42.5 115.5q0 36 11 86l102 482h55l-103 -484q-4 -22 -6.5 -43t-2.5 -37q0 -54 28.5 -82t78.5 -28q71 0 109 49t60 147l103 478h54l-104 -483q-24 -113 -75.5 -177t-150.5 -64zM433 809q-28 0 -28 30q0 19 10 36t30 17q27 0 27 -30
q0 -20 -11 -36.5t-28 -16.5zM283 809q-28 0 -28 30q0 19 10 36t30 17q27 0 27 -30q0 -20 -11 -36.5t-28 -16.5z" />
    <glyph glyph-name="Yacute" unicode="&#xdd;" horiz-adv-x="375" 
d="M96 0l58 274l-67 440h55l52 -370l208 370h60l-253 -439l-58 -275h-55zM249 789v9q34 35 67 77t52 74h63l-1 -8q-15 -20 -41 -49t-55 -57t-52 -46h-33z" />
    <glyph glyph-name="Thorn" unicode="&#xde;" horiz-adv-x="432" 
d="M14 0l152 714h54l-27 -129h53q86 0 129 -41.5t43 -115.5q0 -81 -31 -140.5t-88 -91.5t-136 -32h-60l-34 -164h-55zM114 213h52q93 0 144 56.5t51 153.5q0 55 -29.5 84t-93.5 29h-55z" />
    <glyph glyph-name="germandbls" unicode="&#xdf;" horiz-adv-x="426" 
d="M-88 -240q-30 0 -49 8v49q10 -4 21 -6.5t24 -2.5q34 0 51.5 28t28.5 83l142 669q20 89 60.5 133t111.5 44q57 0 88.5 -30.5t31.5 -79.5q0 -52 -23.5 -85.5t-59.5 -68.5q-30 -29 -47.5 -53.5t-17.5 -56.5q0 -25 13.5 -49t29.5 -50q19 -26 34.5 -58t15.5 -75
q0 -76 -43 -122.5t-119 -46.5q-31 0 -56 7t-41 17l3 53q44 -30 94 -30t78.5 32t28.5 86q0 32 -11.5 58t-30.5 54q-22 31 -36 59.5t-14 59.5q0 41 19 71.5t51 59.5q34 32 56 61t22 73q0 31 -19.5 49t-51.5 18q-47 0 -73.5 -33t-40.5 -99l-142 -670q-10 -46 -24.5 -81
t-39.5 -55t-65 -20z" />
    <glyph glyph-name="agrave" unicode="&#xe0;" horiz-adv-x="448" 
d="M148 -10q-55 0 -85 41.5t-30 118.5q0 48 9.5 102t28 105t46 92.5t64 66.5t81.5 25t70 -27t33 -66h3l24 83h43l-112 -531h-43l14 94h-3q-26 -44 -61.5 -74t-81.5 -30zM162 37q38 0 69 29t54 75.5t36 100.5q10 43 16 81t6 70q0 47 -20.5 74t-56.5 27q-42 0 -75 -33
t-56 -85.5t-35 -112t-12 -111.5q0 -58 19.5 -86.5t54.5 -28.5zM300 608q-15 18 -32 45t-32.5 55t-24.5 50v9h58q26 -78 63 -149v-10h-32z" />
    <glyph glyph-name="aacute" unicode="&#xe1;" horiz-adv-x="448" 
d="M148 -10q-55 0 -85 41.5t-30 118.5q0 48 9.5 102t28 105t46 92.5t64 66.5t81.5 25t70 -27t33 -66h3l24 83h43l-112 -531h-43l14 94h-3q-26 -44 -61.5 -74t-81.5 -30zM162 37q38 0 69 29t54 75.5t36 100.5q10 43 16 81t6 70q0 47 -20.5 74t-56.5 27q-42 0 -75 -33
t-56 -85.5t-35 -112t-12 -111.5q0 -58 19.5 -86.5t54.5 -28.5zM247 607v9q34 35 67 77t52 74h63l-1 -8q-15 -20 -41 -49t-55 -57t-52 -46h-33z" />
    <glyph glyph-name="acircumflex" unicode="&#xe2;" horiz-adv-x="448" 
d="M148 -10q-55 0 -85 41.5t-30 118.5q0 48 9.5 102t28 105t46 92.5t64 66.5t81.5 25t70 -27t33 -66h3l24 83h43l-112 -531h-43l14 94h-3q-26 -44 -61.5 -74t-81.5 -30zM162 37q38 0 69 29t54 75.5t36 100.5q10 43 16 81t6 70q0 47 -20.5 74t-56.5 27q-42 0 -75 -33
t-56 -85.5t-35 -112t-12 -111.5q0 -58 19.5 -86.5t54.5 -28.5zM171 606l1 9q31 31 67 73t58 78h47q6 -20 17 -49t23.5 -56.5t22.5 -45.5l-1 -9h-30q-34 45 -64 107q-25 -29 -53 -57t-56 -50h-32z" />
    <glyph glyph-name="atilde" unicode="&#xe3;" horiz-adv-x="448" 
d="M148 -10q-55 0 -85 41.5t-30 118.5q0 48 9.5 102t28 105t46 92.5t64 66.5t81.5 25t70 -27t33 -66h3l24 83h43l-112 -531h-43l14 94h-3q-26 -44 -61.5 -74t-81.5 -30zM162 37q38 0 69 29t54 75.5t36 100.5q10 43 16 81t6 70q0 47 -20.5 74t-56.5 27q-42 0 -75 -33
t-56 -85.5t-35 -112t-12 -111.5q0 -58 19.5 -86.5t54.5 -28.5zM154 610q21 110 94 110q21 0 36.5 -9.5t28.5 -22t25.5 -22t26.5 -9.5q19 0 31.5 14t21.5 50h37q-11 -57 -34 -83.5t-58 -26.5q-20 0 -35.5 9.5t-28.5 22t-26 22t-28 9.5q-21 0 -33.5 -15.5t-20.5 -48.5h-37z
" />
    <glyph glyph-name="adieresis" unicode="&#xe4;" horiz-adv-x="448" 
d="M148 -10q-55 0 -85 41.5t-30 118.5q0 48 9.5 102t28 105t46 92.5t64 66.5t81.5 25t70 -27t33 -66h3l24 83h43l-112 -531h-43l14 94h-3q-26 -44 -61.5 -74t-81.5 -30zM162 37q38 0 69 29t54 75.5t36 100.5q10 43 16 81t6 70q0 47 -20.5 74t-56.5 27q-42 0 -75 -33
t-56 -85.5t-35 -112t-12 -111.5q0 -58 19.5 -86.5t54.5 -28.5zM371 639q-28 0 -28 30q0 19 10 36t30 17q27 0 27 -30q0 -20 -11 -36.5t-28 -16.5zM221 639q-28 0 -28 30q0 19 10 36t30 17q27 0 27 -30q0 -20 -11 -36.5t-28 -16.5z" />
    <glyph glyph-name="aring" unicode="&#xe5;" horiz-adv-x="448" 
d="M148 -10q-55 0 -85 41.5t-30 118.5q0 48 9.5 102t28 105t46 92.5t64 66.5t81.5 25t70 -27t33 -66h3l24 83h43l-112 -531h-43l14 94h-3q-26 -44 -61.5 -74t-81.5 -30zM162 37q38 0 69 29t54 75.5t36 100.5q10 43 16 81t6 70q0 47 -20.5 74t-56.5 27q-42 0 -75 -33
t-56 -85.5t-35 -112t-12 -111.5q0 -58 19.5 -86.5t54.5 -28.5zM305 610q-44 0 -70.5 26t-26.5 70q0 42 27 68.5t70 26.5q44 0 70.5 -26.5t26.5 -67.5q0 -43 -27 -70t-70 -27zM305 645q28 0 44.5 17t16.5 44q0 26 -16.5 43t-44.5 17t-44 -17t-16 -43q0 -27 15.5 -44t44.5 -17
z" />
    <glyph glyph-name="ae" unicode="&#xe6;" horiz-adv-x="661" 
d="M143 -10q-52 0 -81 41t-29 118q0 66 15.5 135t45 127.5t71.5 94t95 35.5q43 0 66 -26.5t31 -64.5h3l22 81h39l-18 -83q25 40 60.5 66.5t80.5 26.5t73.5 -26.5t28.5 -78.5q0 -83 -68 -137t-199 -54h-13q-3 -17 -5 -37t-2 -41q0 -64 25 -97.5t79 -33.5q29 0 56 9t53 23
l-3 -49q-25 -13 -53 -21t-62 -8q-50 0 -82 25t-43 76l-19 -91h-39l16 92h-3q-26 -45 -60 -73.5t-81 -28.5zM374 290h11q103 0 156 40t53 102q0 29 -15 46t-44 17q-35 0 -66.5 -26.5t-56 -72.5t-38.5 -106zM160 37q37 0 66.5 28t51 74.5t34.5 101.5q10 43 16 81.5t6 71.5
q0 46 -18 73t-51 27q-40 0 -72.5 -32t-56 -83.5t-36 -111.5t-12.5 -115q0 -58 19 -86.5t53 -28.5z" />
    <glyph glyph-name="ccedilla" unicode="&#xe7;" horiz-adv-x="341" 
d="M176 -10q-68 0 -104.5 43t-36.5 129q0 62 14.5 128.5t44.5 123.5t74.5 92t104.5 35q25 0 48.5 -4.5t42.5 -14.5l-19 -46q-34 18 -72 18q-44 0 -78 -30t-57.5 -79t-36 -106.5t-12.5 -112.5q0 -129 96 -129q23 0 45 7t44 18v-48q-19 -10 -43.5 -17t-54.5 -7zM74 -240
q-18 0 -32 2t-25 5v38q8 -3 21.5 -5t31.5 -2q36 0 59 17.5t23 48.5q0 26 -19.5 38.5t-56.5 15.5l52 82h38l-38 -59q31 -6 50.5 -24.5t19.5 -50.5q0 -48 -35.5 -77t-88.5 -29z" />
    <glyph glyph-name="egrave" unicode="&#xe8;" horiz-adv-x="396" 
d="M180 -10q-67 0 -106.5 43t-39.5 129q0 76 18 144.5t49.5 121.5t74 83t92.5 30t78.5 -26.5t28.5 -79.5q0 -55 -30.5 -97.5t-90.5 -67.5t-147 -25h-12q-3 -17 -5 -37t-2 -41q0 -131 103 -131q30 0 55.5 8.5t51.5 22.5v-48q-23 -13 -52.5 -21t-65.5 -8zM103 290h11
q104 0 156.5 40t52.5 102q0 29 -15 46t-46 17q-34 0 -65 -26.5t-56 -72.5t-38 -106zM275 606q-15 18 -32 45t-32.5 55t-24.5 50v9h58q26 -78 63 -149v-10h-32z" />
    <glyph glyph-name="eacute" unicode="&#xe9;" horiz-adv-x="396" 
d="M180 -10q-67 0 -106.5 43t-39.5 129q0 76 18 144.5t49.5 121.5t74 83t92.5 30t78.5 -26.5t28.5 -79.5q0 -55 -30.5 -97.5t-90.5 -67.5t-147 -25h-12q-3 -17 -5 -37t-2 -41q0 -131 103 -131q30 0 55.5 8.5t51.5 22.5v-48q-23 -13 -52.5 -21t-65.5 -8zM103 290h11
q104 0 156.5 40t52.5 102q0 29 -15 46t-46 17q-34 0 -65 -26.5t-56 -72.5t-38 -106zM223 604v9q34 35 67 77t52 74h63l-1 -8q-15 -20 -41 -49t-55 -57t-52 -46h-33z" />
    <glyph glyph-name="ecircumflex" unicode="&#xea;" horiz-adv-x="396" 
d="M180 -10q-67 0 -106.5 43t-39.5 129q0 76 18 144.5t49.5 121.5t74 83t92.5 30t78.5 -26.5t28.5 -79.5q0 -55 -30.5 -97.5t-90.5 -67.5t-147 -25h-12q-3 -17 -5 -37t-2 -41q0 -131 103 -131q30 0 55.5 8.5t51.5 22.5v-48q-23 -13 -52.5 -21t-65.5 -8zM103 290h11
q104 0 156.5 40t52.5 102q0 29 -15 46t-46 17q-34 0 -65 -26.5t-56 -72.5t-38 -106zM155 606l1 9q31 31 67 73t58 78h47q6 -20 17 -49t23.5 -56.5t22.5 -45.5l-1 -9h-30q-34 45 -64 107q-25 -29 -53 -57t-56 -50h-32z" />
    <glyph glyph-name="edieresis" unicode="&#xeb;" horiz-adv-x="396" 
d="M180 -10q-67 0 -106.5 43t-39.5 129q0 76 18 144.5t49.5 121.5t74 83t92.5 30t78.5 -26.5t28.5 -79.5q0 -55 -30.5 -97.5t-90.5 -67.5t-147 -25h-12q-3 -17 -5 -37t-2 -41q0 -131 103 -131q30 0 55.5 8.5t51.5 22.5v-48q-23 -13 -52.5 -21t-65.5 -8zM103 290h11
q104 0 156.5 40t52.5 102q0 29 -15 46t-46 17q-34 0 -65 -26.5t-56 -72.5t-38 -106zM356 639q-28 0 -28 30q0 19 10 36t30 17q27 0 27 -30q0 -20 -11 -36.5t-28 -16.5zM206 639q-28 0 -28 30q0 19 10 36t30 17q27 0 27 -30q0 -20 -11 -36.5t-28 -16.5z" />
    <glyph glyph-name="igrave" unicode="&#xec;" horiz-adv-x="191" 
d="M11 0l113 531h53l-113 -531h-53zM169 608q-15 18 -32 45t-32.5 55t-24.5 50v9h58q26 -78 63 -149v-10h-32z" />
    <glyph glyph-name="iacute" unicode="&#xed;" horiz-adv-x="191" 
d="M11 0l113 531h53l-113 -531h-53zM117 607v9q34 35 67 77t52 74h63l-1 -8q-15 -20 -41 -49t-55 -57t-52 -46h-33z" />
    <glyph glyph-name="icircumflex" unicode="&#xee;" horiz-adv-x="191" 
d="M11 0l113 531h53l-113 -531h-53zM41 606l1 9q31 31 67 73t58 78h47q6 -20 17 -49t23.5 -56.5t22.5 -45.5l-1 -9h-30q-34 45 -64 107q-25 -29 -53 -57t-56 -50h-32z" />
    <glyph glyph-name="idieresis" unicode="&#xef;" horiz-adv-x="191" 
d="M11 0l113 531h53l-113 -531h-53zM240 639q-28 0 -28 30q0 19 10 36t30 17q27 0 27 -30q0 -20 -11 -36.5t-28 -16.5zM90 639q-28 0 -28 30q0 19 10 36t30 17q27 0 27 -30q0 -20 -11 -36.5t-28 -16.5z" />
    <glyph glyph-name="eth" unicode="&#xf0;" horiz-adv-x="434" 
d="M159 -10q-66 0 -102.5 44t-36.5 121q0 53 14 107.5t41 101.5t67.5 75.5t93.5 28.5q47 0 72 -27.5t34 -63.5h2q0 77 -16.5 143.5t-54.5 117.5l-117 -66l-18 33l112 64q-26 31 -77 63l28 35q49 -29 91 -74l114 65l20 -32l-110 -62q36 -52 56.5 -120.5t20.5 -149.5
q0 -48 -7.5 -103t-23.5 -108t-43 -97t-66.5 -70t-93.5 -26zM163 37q41 0 71.5 26t51 66.5t31 86t10.5 84.5q0 50 -21.5 85.5t-68.5 35.5q-40 0 -70.5 -24t-51 -63t-31 -85.5t-10.5 -91.5q0 -59 23.5 -89.5t65.5 -30.5z" />
    <glyph glyph-name="ntilde" unicode="&#xf1;" horiz-adv-x="439" 
d="M10 0l113 532h44l-14 -88h2q22 40 58.5 69t84.5 29q46 0 74.5 -26t28.5 -78q0 -21 -4.5 -49t-9.5 -53l-72 -336h-54l71 338q5 24 9.5 48t4.5 44q0 62 -63 62q-55 0 -96 -55.5t-64 -159.5l-58 -277h-55zM145 610q21 110 94 110q21 0 36.5 -9.5t28.5 -22t25.5 -22
t26.5 -9.5q19 0 31.5 14t21.5 50h37q-11 -57 -34 -83.5t-58 -26.5q-20 0 -35.5 9.5t-28.5 22t-26 22t-28 9.5q-21 0 -33.5 -15.5t-20.5 -48.5h-37z" />
    <glyph glyph-name="ograve" unicode="&#xf2;" horiz-adv-x="437" 
d="M172 -10q-65 0 -101.5 44t-36.5 126q0 44 8.5 95.5t26.5 101.5t46 92t66 67t87 25q64 0 99.5 -44t35.5 -126q0 -62 -14.5 -128.5t-43 -124t-72 -93t-101.5 -35.5zM176 38q42 0 74 31.5t54 82.5t33.5 109t11.5 112q0 55 -21.5 88t-64.5 33q-35 0 -62.5 -22t-48.5 -59
t-35.5 -81.5t-21.5 -89.5t-7 -83q0 -121 88 -121zM289 606q-15 18 -32 45t-32.5 55t-24.5 50v9h58q26 -78 63 -149v-10h-32z" />
    <glyph glyph-name="oacute" unicode="&#xf3;" horiz-adv-x="437" 
d="M172 -10q-65 0 -101.5 44t-36.5 126q0 44 8.5 95.5t26.5 101.5t46 92t66 67t87 25q64 0 99.5 -44t35.5 -126q0 -62 -14.5 -128.5t-43 -124t-72 -93t-101.5 -35.5zM176 38q42 0 74 31.5t54 82.5t33.5 109t11.5 112q0 55 -21.5 88t-64.5 33q-35 0 -62.5 -22t-48.5 -59
t-35.5 -81.5t-21.5 -89.5t-7 -83q0 -121 88 -121zM238 604v9q34 35 67 77t52 74h63l-1 -8q-15 -20 -41 -49t-55 -57t-52 -46h-33z" />
    <glyph glyph-name="ocircumflex" unicode="&#xf4;" horiz-adv-x="437" 
d="M172 -10q-65 0 -101.5 44t-36.5 126q0 44 8.5 95.5t26.5 101.5t46 92t66 67t87 25q64 0 99.5 -44t35.5 -126q0 -62 -14.5 -128.5t-43 -124t-72 -93t-101.5 -35.5zM176 38q42 0 74 31.5t54 82.5t33.5 109t11.5 112q0 55 -21.5 88t-64.5 33q-35 0 -62.5 -22t-48.5 -59
t-35.5 -81.5t-21.5 -89.5t-7 -83q0 -121 88 -121zM159 606l1 9q31 31 67 73t58 78h47q6 -20 17 -49t23.5 -56.5t22.5 -45.5l-1 -9h-30q-34 45 -64 107q-25 -29 -53 -57t-56 -50h-32z" />
    <glyph glyph-name="otilde" unicode="&#xf5;" horiz-adv-x="437" 
d="M172 -10q-65 0 -101.5 44t-36.5 126q0 44 8.5 95.5t26.5 101.5t46 92t66 67t87 25q64 0 99.5 -44t35.5 -126q0 -62 -14.5 -128.5t-43 -124t-72 -93t-101.5 -35.5zM176 38q42 0 74 31.5t54 82.5t33.5 109t11.5 112q0 55 -21.5 88t-64.5 33q-35 0 -62.5 -22t-48.5 -59
t-35.5 -81.5t-21.5 -89.5t-7 -83q0 -121 88 -121zM137 610q21 110 94 110q21 0 36.5 -9.5t28.5 -22t25.5 -22t26.5 -9.5q19 0 31.5 14t21.5 50h37q-11 -57 -34 -83.5t-58 -26.5q-20 0 -35.5 9.5t-28.5 22t-26 22t-28 9.5q-21 0 -33.5 -15.5t-20.5 -48.5h-37z" />
    <glyph glyph-name="odieresis" unicode="&#xf6;" horiz-adv-x="437" 
d="M172 -10q-65 0 -101.5 44t-36.5 126q0 44 8.5 95.5t26.5 101.5t46 92t66 67t87 25q64 0 99.5 -44t35.5 -126q0 -62 -14.5 -128.5t-43 -124t-72 -93t-101.5 -35.5zM176 38q42 0 74 31.5t54 82.5t33.5 109t11.5 112q0 55 -21.5 88t-64.5 33q-35 0 -62.5 -22t-48.5 -59
t-35.5 -81.5t-21.5 -89.5t-7 -83q0 -121 88 -121zM360 639q-28 0 -28 30q0 19 10 36t30 17q27 0 27 -30q0 -20 -11 -36.5t-28 -16.5zM210 639q-28 0 -28 30q0 19 10 36t30 17q27 0 27 -30q0 -20 -11 -36.5t-28 -16.5z" />
    <glyph glyph-name="divide" unicode="&#xf7;" horiz-adv-x="461" 
d="M240 481q-39 0 -39 48t39 48q38 0 38 -48t-38 -48zM46 329v47h387v-47h-387zM240 128q-20 0 -29.5 12.5t-9.5 34.5q0 49 39 49q38 0 38 -48t-38 -48z" />
    <glyph glyph-name="oslash" unicode="&#xf8;" horiz-adv-x="439" 
d="M32 -53l-33 22l57 86q-10 20 -16 46t-6 59q0 43 8.5 94t26.5 101.5t45.5 92.5t65.5 67.5t88 25.5q57 0 90 -36l49 74l33 -22l-57 -84q20 -40 20 -101q0 -46 -9 -98.5t-26.5 -102.5t-45 -91t-65 -65.5t-85.5 -24.5q-54 0 -90 33zM95 110l234 352q-22 33 -65 33
q-42 0 -74.5 -32t-55 -82.5t-34.5 -107.5t-13 -106q0 -35 8 -57zM176 36q41 0 73 30t54 79t34 105.5t13 109.5q0 34 -6 56l-233 -349q23 -31 65 -31z" />
    <glyph glyph-name="ugrave" unicode="&#xf9;" horiz-adv-x="440" 
d="M137 -10q-48 0 -75.5 26.5t-27.5 77.5q0 20 4.5 46.5t9.5 51.5l72 339h54l-73 -341q-5 -24 -8.5 -46t-3.5 -42q0 -64 63 -64q55 0 96.5 56t63.5 160l59 277h53l-112 -531h-43l13 87h-3q-22 -41 -58.5 -69t-83.5 -28zM294 606q-15 18 -32 45t-32.5 55t-24.5 50v9h58
q26 -78 63 -149v-10h-32z" />
    <glyph glyph-name="uacute" unicode="&#xfa;" horiz-adv-x="440" 
d="M137 -10q-48 0 -75.5 26.5t-27.5 77.5q0 20 4.5 46.5t9.5 51.5l72 339h54l-73 -341q-5 -24 -8.5 -46t-3.5 -42q0 -64 63 -64q55 0 96.5 56t63.5 160l59 277h53l-112 -531h-43l13 87h-3q-22 -41 -58.5 -69t-83.5 -28zM241 604v9q34 35 67 77t52 74h63l-1 -8
q-15 -20 -41 -49t-55 -57t-52 -46h-33z" />
    <glyph glyph-name="ucircumflex" unicode="&#xfb;" horiz-adv-x="440" 
d="M137 -10q-48 0 -75.5 26.5t-27.5 77.5q0 20 4.5 46.5t9.5 51.5l72 339h54l-73 -341q-5 -24 -8.5 -46t-3.5 -42q0 -64 63 -64q55 0 96.5 56t63.5 160l59 277h53l-112 -531h-43l13 87h-3q-22 -41 -58.5 -69t-83.5 -28zM165 606l1 9q31 31 67 73t58 78h47q6 -20 17 -49
t23.5 -56.5t22.5 -45.5l-1 -9h-30q-34 45 -64 107q-25 -29 -53 -57t-56 -50h-32z" />
    <glyph glyph-name="udieresis" unicode="&#xfc;" horiz-adv-x="440" 
d="M137 -10q-48 0 -75.5 26.5t-27.5 77.5q0 20 4.5 46.5t9.5 51.5l72 339h54l-73 -341q-5 -24 -8.5 -46t-3.5 -42q0 -64 63 -64q55 0 96.5 56t63.5 160l59 277h53l-112 -531h-43l13 87h-3q-22 -41 -58.5 -69t-83.5 -28zM360 639q-28 0 -28 30q0 19 10 36t30 17q27 0 27 -30
q0 -20 -11 -36.5t-28 -16.5zM210 639q-28 0 -28 30q0 19 10 36t30 17q27 0 27 -30q0 -20 -11 -36.5t-28 -16.5z" />
    <glyph glyph-name="yacute" unicode="&#xfd;" horiz-adv-x="353" 
d="M-52 -242q-17 0 -30 3t-22 7l5 48q10 -4 21 -7t25 -3q33 0 56 24t46 73l48 102l-32 526h54l15 -332q2 -30 3 -63t0 -59h3q10 25 23.5 57t25.5 57l159 340h56l-305 -642q-31 -65 -64.5 -98t-86.5 -33zM194 604v9q34 35 67 77t52 74h63l-1 -8q-15 -20 -41 -49t-55 -57
t-52 -46h-33z" />
    <glyph glyph-name="thorn" unicode="&#xfe;" horiz-adv-x="449" 
d="M-37 -232l209 992h53l-52 -245q-5 -21 -9.5 -40t-8.5 -35h3q26 44 61 72.5t82 28.5q55 0 85 -41t30 -118q0 -49 -9 -102.5t-27.5 -105t-46 -93t-64 -66.5t-82.5 -25q-45 0 -71 26t-35 64h-2q-3 -21 -8 -47t-9 -48l-46 -217h-53zM184 37q35 0 63 22.5t49.5 60t36 83
t22 91.5t7.5 86q0 58 -20 86.5t-56 28.5t-67.5 -28.5t-55 -74.5t-37.5 -100q-12 -45 -17 -86.5t-5 -67.5q0 -47 20.5 -74t59.5 -27z" />
    <glyph glyph-name="ydieresis" unicode="&#xff;" horiz-adv-x="353" 
d="M-52 -242q-17 0 -30 3t-22 7l5 48q10 -4 21 -7t25 -3q33 0 56 24t46 73l48 102l-32 526h54l15 -332q2 -30 3 -63t0 -59h3q10 25 23.5 57t25.5 57l159 340h56l-305 -642q-31 -65 -64.5 -98t-86.5 -33zM305 639q-28 0 -28 30q0 19 10 36t30 17q27 0 27 -30q0 -20 -11 -36.5
t-28 -16.5zM155 639q-28 0 -28 30q0 19 10 36t30 17q27 0 27 -30q0 -20 -11 -36.5t-28 -16.5z" />
    <glyph glyph-name="Amacron" unicode="&#x100;" horiz-adv-x="422" 
d="M-63 0l329 716h65l29 -716h-55l-9 253h-185l-114 -253h-60zM133 303h161l-6 259q-1 24 -1.5 48.5t-0.5 44.5h-2q-8 -20 -17.5 -43.5t-21.5 -50.5zM186 794l8 44h236l-10 -44h-234z" />
    <glyph glyph-name="amacron" unicode="&#x101;" horiz-adv-x="448" 
d="M148 -10q-55 0 -85 41.5t-30 118.5q0 48 9.5 102t28 105t46 92.5t64 66.5t81.5 25t70 -27t33 -66h3l24 83h43l-112 -531h-43l14 94h-3q-26 -44 -61.5 -74t-81.5 -30zM162 37q38 0 69 29t54 75.5t36 100.5q10 43 16 81t6 70q0 47 -20.5 74t-56.5 27q-42 0 -75 -33
t-56 -85.5t-35 -112t-12 -111.5q0 -58 19.5 -86.5t54.5 -28.5zM174 611l8 44h236l-10 -44h-234z" />
    <glyph glyph-name="Abreve" unicode="&#x102;" horiz-adv-x="422" 
d="M-63 0l329 716h65l29 -716h-55l-9 253h-185l-114 -253h-60zM133 303h161l-6 259q-1 24 -1.5 48.5t-0.5 44.5h-2q-8 -20 -17.5 -43.5t-21.5 -50.5zM309 790q-52 0 -76.5 26.5t-24.5 68.5q0 8 0.5 14t1.5 10h36q-1 -35 13 -55t52 -20t58.5 18t29.5 57h37q-11 -59 -42 -89
t-85 -30z" />
    <glyph glyph-name="abreve" unicode="&#x103;" horiz-adv-x="448" 
d="M148 -10q-55 0 -85 41.5t-30 118.5q0 48 9.5 102t28 105t46 92.5t64 66.5t81.5 25t70 -27t33 -66h3l24 83h43l-112 -531h-43l14 94h-3q-26 -44 -61.5 -74t-81.5 -30zM162 37q38 0 69 29t54 75.5t36 100.5q10 43 16 81t6 70q0 47 -20.5 74t-56.5 27q-42 0 -75 -33
t-56 -85.5t-35 -112t-12 -111.5q0 -58 19.5 -86.5t54.5 -28.5zM298 607q-52 0 -76.5 26.5t-24.5 68.5q0 8 0.5 14t1.5 10h36q-1 -35 13 -55t52 -20t58.5 18t29.5 57h37q-11 -59 -42 -89t-85 -30z" />
    <glyph glyph-name="Aogonek" unicode="&#x104;" horiz-adv-x="422" 
d="M-63 0l329 716h65l29 -716h-55l-9 253h-185l-114 -253h-60zM133 303h161l-6 259q-1 24 -1.5 48.5t-0.5 44.5h-2q-8 -20 -17.5 -43.5t-21.5 -50.5zM279 -219q-35 0 -54.5 19.5t-19.5 50.5q0 43 26.5 78t79.5 73l39 -2q-46 -38 -71.5 -70t-24.5 -69q0 -39 39 -39
q10 0 19.5 2t18.5 4l-5 -39q-21 -8 -47 -8z" />
    <glyph glyph-name="aogonek" unicode="&#x105;" horiz-adv-x="448" 
d="M148 -10q-55 0 -85 41.5t-30 118.5q0 48 9.5 102t28 105t46 92.5t64 66.5t81.5 25t70 -27t33 -66h3l24 83h43l-112 -531h-43l14 94h-3q-26 -44 -61.5 -74t-81.5 -30zM162 37q38 0 69 29t54 75.5t36 100.5q10 43 16 81t6 70q0 47 -20.5 74t-56.5 27q-42 0 -75 -33
t-56 -85.5t-35 -112t-12 -111.5q0 -58 19.5 -86.5t54.5 -28.5zM249 -219q-35 0 -54.5 19.5t-19.5 50.5q0 43 26.5 78t79.5 73l39 -2q-46 -38 -71.5 -70t-24.5 -69q0 -39 39 -39q10 0 19.5 2t18.5 4l-5 -39q-21 -8 -47 -8z" />
    <glyph glyph-name="Cacute" unicode="&#x106;" horiz-adv-x="430" 
d="M230 -10q-88 0 -134.5 62t-46.5 183q0 61 13 128.5t39.5 131.5t66 116t92 83t117.5 31q71 0 119 -33l-27 -46q-38 29 -93 29q-53 0 -96 -28.5t-75.5 -75.5t-54.5 -104.5t-33 -117t-11 -111.5q0 -198 134 -198q27 0 54 6t54 16v-50q-27 -10 -56 -16t-62 -6zM296 789v9
q34 35 67 77t52 74h63l-1 -8q-15 -20 -41 -49t-55 -57t-52 -46h-33z" />
    <glyph glyph-name="cacute" unicode="&#x107;" horiz-adv-x="341" 
d="M176 -10q-68 0 -104.5 43t-36.5 129q0 62 14.5 128.5t44.5 123.5t74.5 92t104.5 35q25 0 48.5 -4.5t42.5 -14.5l-19 -46q-34 18 -72 18q-44 0 -78 -30t-57.5 -79t-36 -106.5t-12.5 -112.5q0 -129 96 -129q23 0 45 7t44 18v-48q-19 -10 -43.5 -17t-54.5 -7zM200 607v9
q34 35 67 77t52 74h63l-1 -8q-15 -20 -41 -49t-55 -57t-52 -46h-33z" />
    <glyph glyph-name="Ccircumflex" unicode="&#x108;" horiz-adv-x="430" 
d="M230 -10q-88 0 -134.5 62t-46.5 183q0 61 13 128.5t39.5 131.5t66 116t92 83t117.5 31q71 0 119 -33l-27 -46q-38 29 -93 29q-53 0 -96 -28.5t-75.5 -75.5t-54.5 -104.5t-33 -117t-11 -111.5q0 -198 134 -198q27 0 54 6t54 16v-50q-27 -10 -56 -16t-62 -6zM248 776l1 9
q31 31 67 73t58 78h47q6 -20 17 -49t23.5 -56.5t22.5 -45.5l-1 -9h-30q-34 45 -64 107q-25 -29 -53 -57t-56 -50h-32z" />
    <glyph glyph-name="ccircumflex" unicode="&#x109;" horiz-adv-x="341" 
d="M176 -10q-68 0 -104.5 43t-36.5 129q0 62 14.5 128.5t44.5 123.5t74.5 92t104.5 35q25 0 48.5 -4.5t42.5 -14.5l-19 -46q-34 18 -72 18q-44 0 -78 -30t-57.5 -79t-36 -106.5t-12.5 -112.5q0 -129 96 -129q23 0 45 7t44 18v-48q-19 -10 -43.5 -17t-54.5 -7zM142 606l1 9
q31 31 67 73t58 78h47q6 -20 17 -49t23.5 -56.5t22.5 -45.5l-1 -9h-30q-34 45 -64 107q-25 -29 -53 -57t-56 -50h-32z" />
    <glyph glyph-name="Cdot" unicode="&#x10a;" horiz-adv-x="430" 
d="M230 -10q-88 0 -134.5 62t-46.5 183q0 61 13 128.5t39.5 131.5t66 116t92 83t117.5 31q71 0 119 -33l-27 -46q-38 29 -93 29q-53 0 -96 -28.5t-75.5 -75.5t-54.5 -104.5t-33 -117t-11 -111.5q0 -198 134 -198q27 0 54 6t54 16v-50q-27 -10 -56 -16t-62 -6zM398 811
q-30 0 -30 33q0 20 11 38t32 18q30 0 30 -33q0 -21 -11.5 -38.5t-31.5 -17.5z" />
    <glyph glyph-name="cdot" unicode="&#x10b;" horiz-adv-x="341" 
d="M176 -10q-68 0 -104.5 43t-36.5 129q0 62 14.5 128.5t44.5 123.5t74.5 92t104.5 35q25 0 48.5 -4.5t42.5 -14.5l-19 -46q-34 18 -72 18q-44 0 -78 -30t-57.5 -79t-36 -106.5t-12.5 -112.5q0 -129 96 -129q23 0 45 7t44 18v-48q-19 -10 -43.5 -17t-54.5 -7zM292 637
q-30 0 -30 33q0 20 11 38t32 18q30 0 30 -33q0 -21 -11.5 -38.5t-31.5 -17.5z" />
    <glyph glyph-name="Ccaron" unicode="&#x10c;" horiz-adv-x="430" 
d="M230 -10q-88 0 -134.5 62t-46.5 183q0 61 13 128.5t39.5 131.5t66 116t92 83t117.5 31q71 0 119 -33l-27 -46q-38 29 -93 29q-53 0 -96 -28.5t-75.5 -75.5t-54.5 -104.5t-33 -117t-11 -111.5q0 -198 134 -198q27 0 54 6t54 16v-50q-27 -10 -56 -16t-62 -6zM356 776
q-6 20 -17 49t-23.5 56.5t-22.5 44.5l1 10h30q15 -20 32 -48.5t32 -59.5q26 28 54 57t56 51h31l-1 -10q-18 -18 -42 -44.5t-46.5 -55t-35.5 -50.5h-48z" />
    <glyph glyph-name="ccaron" unicode="&#x10d;" horiz-adv-x="341" 
d="M176 -10q-68 0 -104.5 43t-36.5 129q0 62 14.5 128.5t44.5 123.5t74.5 92t104.5 35q25 0 48.5 -4.5t42.5 -14.5l-19 -46q-34 18 -72 18q-44 0 -78 -30t-57.5 -79t-36 -106.5t-12.5 -112.5q0 -129 96 -129q23 0 45 7t44 18v-48q-19 -10 -43.5 -17t-54.5 -7zM250 606
q-6 20 -17 49t-23.5 56.5t-22.5 44.5l1 10h30q15 -20 32 -48.5t32 -59.5q26 28 54 57t56 51h31l-1 -10q-18 -18 -42 -44.5t-46.5 -55t-35.5 -50.5h-48z" />
    <glyph glyph-name="Dcaron" unicode="&#x10e;" horiz-adv-x="508" 
d="M15 0l151 714h114q98 0 152 -57t54 -175q0 -64 -12.5 -131t-39.5 -130t-68.5 -112.5t-99.5 -79t-133 -29.5h-118zM79 50h59q61 0 108 26t81.5 70.5t56.5 100.5t33 116.5t11 117.5q0 98 -40 140.5t-116 42.5h-62zM307 776q-6 20 -17 49t-23.5 56.5t-22.5 44.5l1 10h30
q15 -20 32 -48.5t32 -59.5q26 28 54 57t56 51h31l-1 -10q-18 -18 -42 -44.5t-46.5 -55t-35.5 -50.5h-48z" />
    <glyph glyph-name="dcaron" unicode="&#x10f;" horiz-adv-x="481" 
d="M147 -10q-56 0 -85.5 41.5t-29.5 118.5q0 48 9 101.5t27.5 105t46 93t64 66.5t82.5 25q45 0 71.5 -25.5t34.5 -63.5h3q5 28 10 56.5t11 55.5l41 196h53l-160 -760h-44l14 94h-2q-28 -45 -63.5 -74.5t-82.5 -29.5zM162 37q35 0 64 26t51 68t37.5 90.5t23.5 94t8 78.5
q0 47 -21 73.5t-60 26.5q-34 0 -62 -22.5t-49.5 -59.5t-36.5 -82t-22.5 -91.5t-7.5 -87.5q0 -114 75 -114zM492 600v8q20 34 38.5 77t27.5 75h53v-9q-7 -20 -22 -48t-32 -55.5t-34 -47.5h-31z" />
    <glyph glyph-name="Dcroat" unicode="&#x110;" horiz-adv-x="510" 
d="M15 0l72 342h-59l10 47h59l69 325h114q98 0 152 -57t54 -175q0 -64 -12.5 -131.5t-39.5 -130t-68.5 -112.5t-99.5 -79t-133 -29h-118zM79 50h59q62 0 109.5 27t81.5 72.5t56 102t32.5 116t10.5 113.5q0 98 -40 140.5t-116 42.5h-62l-59 -275h118l-11 -47h-117z" />
    <glyph glyph-name="dcroat" unicode="&#x111;" horiz-adv-x="452" 
d="M148 -10q-54 0 -84.5 41.5t-30.5 118.5q0 48 9 101.5t27.5 105t46 93t64 66.5t81.5 25q46 0 72.5 -25.5t34.5 -62.5h3q5 24 9.5 50.5t9.5 52.5l14 66h-131l9 43h132l19 95h53l-20 -95h64l-9 -43h-64l-131 -622h-44l14 94h-2q-28 -45 -63 -74.5t-83 -29.5zM164 37
q35 0 64 26t51 68t37 90.5t22.5 94.5t7.5 78q0 47 -20.5 73.5t-59.5 26.5q-34 0 -62 -22.5t-49.5 -59.5t-36.5 -82t-22.5 -91.5t-7.5 -87.5q0 -58 20 -86t56 -28z" />
    <glyph glyph-name="Emacron" unicode="&#x112;" horiz-adv-x="404" 
d="M14 0l152 714h277l-10 -50h-223l-56 -265h208l-10 -49h-209l-64 -300h223l-10 -50h-278zM196 781l8 44h236l-10 -44h-234z" />
    <glyph glyph-name="emacron" unicode="&#x113;" horiz-adv-x="396" 
d="M180 -10q-67 0 -106.5 43t-39.5 129q0 76 18 144.5t49.5 121.5t74 83t92.5 30t78.5 -26.5t28.5 -79.5q0 -55 -30.5 -97.5t-90.5 -67.5t-147 -25h-12q-3 -17 -5 -37t-2 -41q0 -131 103 -131q30 0 55.5 8.5t51.5 22.5v-48q-23 -13 -52.5 -21t-65.5 -8zM103 290h11
q104 0 156.5 40t52.5 102q0 29 -15 46t-46 17q-34 0 -65 -26.5t-56 -72.5t-38 -106zM161 611l8 44h236l-10 -44h-234z" />
    <glyph glyph-name="Ebreve" unicode="&#x114;" horiz-adv-x="404" 
d="M14 0l152 714h277l-10 -50h-223l-56 -265h208l-10 -49h-209l-64 -300h223l-10 -50h-278zM316 777q-52 0 -76.5 26.5t-24.5 68.5q0 8 0.5 14t1.5 10h36q-1 -35 13 -55t52 -20t58.5 18t29.5 57h37q-11 -59 -42 -89t-85 -30z" />
    <glyph glyph-name="ebreve" unicode="&#x115;" horiz-adv-x="396" 
d="M180 -10q-67 0 -106.5 43t-39.5 129q0 76 18 144.5t49.5 121.5t74 83t92.5 30t78.5 -26.5t28.5 -79.5q0 -55 -30.5 -97.5t-90.5 -67.5t-147 -25h-12q-3 -17 -5 -37t-2 -41q0 -131 103 -131q30 0 55.5 8.5t51.5 22.5v-48q-23 -13 -52.5 -21t-65.5 -8zM103 290h11
q104 0 156.5 40t52.5 102q0 29 -15 46t-46 17q-34 0 -65 -26.5t-56 -72.5t-38 -106zM290 607q-52 0 -76.5 26.5t-24.5 68.5q0 8 0.5 14t1.5 10h36q-1 -35 13 -55t52 -20t58.5 18t29.5 57h37q-11 -59 -42 -89t-85 -30z" />
    <glyph glyph-name="Edotaccent" unicode="&#x116;" horiz-adv-x="404" 
d="M14 0l152 714h277l-10 -50h-223l-56 -265h208l-10 -49h-209l-64 -300h223l-10 -50h-278zM334 797q-30 0 -30 33q0 20 11 38t32 18q30 0 30 -33q0 -21 -11.5 -38.5t-31.5 -17.5z" />
    <glyph glyph-name="edotaccent" unicode="&#x117;" horiz-adv-x="396" 
d="M180 -10q-67 0 -106.5 43t-39.5 129q0 76 18 144.5t49.5 121.5t74 83t92.5 30t78.5 -26.5t28.5 -79.5q0 -55 -30.5 -97.5t-90.5 -67.5t-147 -25h-12q-3 -17 -5 -37t-2 -41q0 -131 103 -131q30 0 55.5 8.5t51.5 22.5v-48q-23 -13 -52.5 -21t-65.5 -8zM103 290h11
q104 0 156.5 40t52.5 102q0 29 -15 46t-46 17q-34 0 -65 -26.5t-56 -72.5t-38 -106zM304 637q-30 0 -30 33q0 20 11 38t32 18q30 0 30 -33q0 -21 -11.5 -38.5t-31.5 -17.5z" />
    <glyph glyph-name="Eogonek" unicode="&#x118;" horiz-adv-x="404" 
d="M14 0l152 714h277l-10 -50h-223l-56 -265h208l-10 -49h-209l-64 -300h223l-10 -50h-278zM186 -219q-35 0 -54.5 19.5t-19.5 50.5q0 43 26.5 78t79.5 73l39 -2q-46 -38 -71.5 -70t-24.5 -69q0 -39 39 -39q10 0 19.5 2t18.5 4l-5 -39q-21 -8 -47 -8z" />
    <glyph glyph-name="eogonek" unicode="&#x119;" horiz-adv-x="396" 
d="M179 -10q-67 0 -106.5 43t-39.5 129q0 76 18 144.5t49.5 121.5t74.5 83t92 30t78 -26.5t29 -79.5q0 -55 -30.5 -97.5t-90 -67.5t-147.5 -25h-12q-3 -17 -5 -37t-2 -41q0 -131 103 -131q30 0 55.5 8.5t51.5 22.5v-48q-9 -5 -20 -10q-38 -33 -61.5 -67t-23.5 -68
q0 -38 36 -38q9 0 18 1.5t18 3.5l-6 -38q-10 -5 -22 -6.5t-26 -1.5q-32 0 -50.5 19.5t-18.5 51.5q0 35 18.5 65.5t54.5 60.5q-17 -2 -35 -2zM102 290h11q103 0 156 40t53 102q0 29 -15 46t-46 17q-33 0 -64.5 -26.5t-56 -72.5t-38.5 -106z" />
    <glyph glyph-name="Ecaron" unicode="&#x11a;" horiz-adv-x="404" 
d="M14 0l152 714h277l-10 -50h-223l-56 -265h208l-10 -49h-209l-64 -300h223l-10 -50h-278zM286 776q-6 20 -17 49t-23.5 56.5t-22.5 44.5l1 10h30q15 -20 32 -48.5t32 -59.5q26 28 54 57t56 51h31l-1 -10q-18 -18 -42 -44.5t-46.5 -55t-35.5 -50.5h-48z" />
    <glyph glyph-name="ecaron" unicode="&#x11b;" horiz-adv-x="396" 
d="M180 -10q-67 0 -106.5 43t-39.5 129q0 76 18 144.5t49.5 121.5t74 83t92.5 30t78.5 -26.5t28.5 -79.5q0 -55 -30.5 -97.5t-90.5 -67.5t-147 -25h-12q-3 -17 -5 -37t-2 -41q0 -131 103 -131q30 0 55.5 8.5t51.5 22.5v-48q-23 -13 -52.5 -21t-65.5 -8zM103 290h11
q104 0 156.5 40t52.5 102q0 29 -15 46t-46 17q-34 0 -65 -26.5t-56 -72.5t-38 -106zM254 606q-6 20 -17 49t-23.5 56.5t-22.5 44.5l1 10h30q15 -20 32 -48.5t32 -59.5q26 28 54 57t56 51h31l-1 -10q-18 -18 -42 -44.5t-46.5 -55t-35.5 -50.5h-48z" />
    <glyph glyph-name="Gcircumflex" unicode="&#x11c;" horiz-adv-x="536" 
d="M255 -10q-101 0 -153.5 61.5t-52.5 178.5q0 100 24.5 189.5t69.5 158.5t107 108t138 39q49 0 87.5 -12t69.5 -31l-26 -47q-30 19 -63 29.5t-71 10.5q-63 0 -114.5 -36.5t-88.5 -99.5t-57 -142t-20 -164q0 -98 40 -145.5t116 -47.5q30 0 58 5t51 13l54 257h-116l11 49h171
l-74 -343q-37 -14 -77.5 -22.5t-83.5 -8.5zM270 776l1 9q31 31 67 73t58 78h47q6 -20 17 -49t23.5 -56.5t22.5 -45.5l-1 -9h-30q-34 45 -64 107q-25 -29 -53 -57t-56 -50h-32z" />
    <glyph glyph-name="gcircumflex" unicode="&#x11d;" horiz-adv-x="452" 
d="M112 -240q-36 0 -67 9t-51 20v53q20 -13 52.5 -24t65.5 -11q66 0 101 39.5t52 117.5l11 47q3 16 9 39.5t11 41.5h-3q-27 -45 -63 -73.5t-82 -28.5q-56 0 -85.5 41t-29.5 118q0 48 9.5 102t28 105t46 93t64.5 67t83 25t71.5 -26.5t33.5 -66.5h3l23 83h43l-120 -569
q-22 -101 -70.5 -151.5t-135.5 -50.5zM164 37q34 0 62 26t50.5 67.5t38 90t23.5 94.5t8 80q0 47 -21 73t-58 26q-35 0 -63 -22.5t-49.5 -59.5t-36.5 -82t-22.5 -91.5t-7.5 -86.5q0 -115 76 -115zM153 606l1 9q31 31 67 73t58 78h47q6 -20 17 -49t23.5 -56.5t22.5 -45.5
l-1 -9h-30q-34 45 -64 107q-25 -29 -53 -57t-56 -50h-32z" />
    <glyph glyph-name="Gbreve" unicode="&#x11e;" horiz-adv-x="536" 
d="M255 -10q-101 0 -153.5 61.5t-52.5 178.5q0 100 24.5 189.5t69.5 158.5t107 108t138 39q49 0 87.5 -12t69.5 -31l-26 -47q-30 19 -63 29.5t-71 10.5q-63 0 -114.5 -36.5t-88.5 -99.5t-57 -142t-20 -164q0 -98 40 -145.5t116 -47.5q30 0 58 5t51 13l54 257h-116l11 49h171
l-74 -343q-37 -14 -77.5 -22.5t-83.5 -8.5zM397 777q-52 0 -76.5 26.5t-24.5 68.5q0 8 0.5 14t1.5 10h36q-1 -35 13 -55t52 -20t58.5 18t29.5 57h37q-11 -59 -42 -89t-85 -30z" />
    <glyph glyph-name="gbreve" unicode="&#x11f;" horiz-adv-x="452" 
d="M112 -240q-36 0 -67 9t-51 20v53q20 -13 52.5 -24t65.5 -11q66 0 101 39.5t52 117.5l11 47q3 16 9 39.5t11 41.5h-3q-27 -45 -63 -73.5t-82 -28.5q-56 0 -85.5 41t-29.5 118q0 48 9.5 102t28 105t46 93t64.5 67t83 25t71.5 -26.5t33.5 -66.5h3l23 83h43l-120 -569
q-22 -101 -70.5 -151.5t-135.5 -50.5zM164 37q34 0 62 26t50.5 67.5t38 90t23.5 94.5t8 80q0 47 -21 73t-58 26q-35 0 -63 -22.5t-49.5 -59.5t-36.5 -82t-22.5 -91.5t-7.5 -86.5q0 -115 76 -115zM279 607q-52 0 -76.5 26.5t-24.5 68.5q0 8 0.5 14t1.5 10h36q-1 -35 13 -55
t52 -20t58.5 18t29.5 57h37q-11 -59 -42 -89t-85 -30z" />
    <glyph glyph-name="Gdot" unicode="&#x120;" horiz-adv-x="536" 
d="M255 -10q-101 0 -153.5 61.5t-52.5 178.5q0 100 24.5 189.5t69.5 158.5t107 108t138 39q49 0 87.5 -12t69.5 -31l-26 -47q-30 19 -63 29.5t-71 10.5q-63 0 -114.5 -36.5t-88.5 -99.5t-57 -142t-20 -164q0 -98 40 -145.5t116 -47.5q30 0 58 5t51 13l54 257h-116l11 49h171
l-74 -343q-37 -14 -77.5 -22.5t-83.5 -8.5zM418 807q-30 0 -30 33q0 20 11 38t32 18q30 0 30 -33q0 -21 -11.5 -38.5t-31.5 -17.5z" />
    <glyph glyph-name="gdot" unicode="&#x121;" horiz-adv-x="452" 
d="M112 -240q-36 0 -67 9t-51 20v53q20 -13 52.5 -24t65.5 -11q66 0 101 39.5t52 117.5l11 47q3 16 9 39.5t11 41.5h-3q-27 -45 -63 -73.5t-82 -28.5q-56 0 -85.5 41t-29.5 118q0 48 9.5 102t28 105t46 93t64.5 67t83 25t71.5 -26.5t33.5 -66.5h3l23 83h43l-120 -569
q-22 -101 -70.5 -151.5t-135.5 -50.5zM164 37q34 0 62 26t50.5 67.5t38 90t23.5 94.5t8 80q0 47 -21 73t-58 26q-35 0 -63 -22.5t-49.5 -59.5t-36.5 -82t-22.5 -91.5t-7.5 -86.5q0 -115 76 -115zM294 637q-30 0 -30 33q0 20 11 38t32 18q30 0 30 -33q0 -21 -11.5 -38.5
t-31.5 -17.5z" />
    <glyph glyph-name="uni0122" unicode="&#x122;" horiz-adv-x="536" 
d="M255 -10q-101 0 -153.5 61.5t-52.5 178.5q0 100 24.5 189.5t69.5 158.5t107 108t138 39q49 0 87.5 -12t69.5 -31l-26 -47q-30 19 -63 29.5t-71 10.5q-63 0 -114.5 -36.5t-88.5 -99.5t-57 -142t-20 -164q0 -98 40 -145.5t116 -47.5q30 0 58 5t51 13l54 257h-116l11 49h171
l-74 -343q-37 -14 -77.5 -22.5t-83.5 -8.5zM130 -221v13q13 16 29 42t29.5 54t21.5 51h51v-10q-7 -21 -24 -49t-38 -55t-40 -46h-29z" />
    <glyph glyph-name="uni0123" unicode="&#x123;" horiz-adv-x="452" 
d="M112 -240q-36 0 -67 9t-51 20v53q20 -13 52.5 -24t65.5 -11q66 0 101 39.5t52 117.5l11 47q3 16 9 39.5t11 41.5h-3q-27 -45 -63 -73.5t-82 -28.5q-56 0 -85.5 41t-29.5 118q0 48 9.5 102t28 105t46 93t64.5 67t83 25t71.5 -26.5t33.5 -66.5h3l23 83h43l-120 -569
q-22 -101 -70.5 -151.5t-135.5 -50.5zM164 37q34 0 62 26t50.5 67.5t38 90t23.5 94.5t8 80q0 47 -21 73t-58 26q-35 0 -63 -22.5t-49.5 -59.5t-36.5 -82t-22.5 -91.5t-7.5 -86.5q0 -115 76 -115zM250 606v10q8 21 25 49t37.5 55.5t39.5 45.5h28v-13q-12 -15 -27.5 -41.5
t-29.5 -55t-21 -50.5h-52z" />
    <glyph glyph-name="Hcircumflex" unicode="&#x124;" horiz-adv-x="527" 
d="M14 0l152 714h54l-66 -315h264l67 315h55l-152 -714h-54l73 349h-264l-74 -349h-55zM238 776l1 9q31 31 67 73t58 78h47q6 -20 17 -49t23.5 -56.5t22.5 -45.5l-1 -9h-30q-34 45 -64 107q-25 -29 -53 -57t-56 -50h-32z" />
    <glyph glyph-name="hcircumflex" unicode="&#x125;" horiz-adv-x="439" 
d="M11 0l161 760h54l-47 -213q-5 -25 -11.5 -51t-13.5 -52h3q22 41 58 69t85 28q46 0 73.5 -26t27.5 -78q0 -20 -5 -48.5t-10 -54.5l-71 -334h-53l71 335q5 25 9.5 49.5t4.5 44.5q0 64 -64 64q-54 0 -95.5 -53.5t-63.5 -159.5l-59 -280h-54zM92 831l1 9q31 31 67 73t58 78
h47q6 -20 17 -49t23.5 -56.5t22.5 -45.5l-1 -9h-30q-34 45 -64 107q-25 -29 -53 -57t-56 -50h-32z" />
    <glyph glyph-name="Hbar" unicode="&#x126;" horiz-adv-x="523" 
d="M14 0l114 536h-77l9 45h78l28 133h54l-28 -133h265l28 133h55l-28 -133h70l-10 -45h-70l-114 -536h-55l74 349h-264l-74 -349h-55zM153 398h265l29 138h-264z" />
    <glyph glyph-name="hbar" unicode="&#x127;" horiz-adv-x="441" 
d="M11 0l133 622h-66l9 43h65l20 95h54l-21 -95h129l-9 -43h-129q-16 -74 -26 -115t-16 -66h2q22 41 58 69t84 28t75 -26.5t27 -78.5q0 -20 -5 -48.5t-10 -54.5l-70 -330h-53l70 331q6 25 10 49.5t4 44.5q0 64 -63 64q-55 0 -96.5 -54t-63.5 -159l-58 -276h-54z" />
    <glyph glyph-name="Itilde" unicode="&#x128;" horiz-adv-x="239" 
d="M-40 0l7 33l71 10l133 628l-66 10l6 33h192l-7 -33l-71 -10l-133 -628l66 -10l-6 -33h-192zM89 796q21 110 94 110q21 0 36.5 -9.5t28.5 -22t25.5 -22t26.5 -9.5q19 0 31.5 14t21.5 50h37q-11 -57 -34 -83.5t-58 -26.5q-20 0 -35.5 9.5t-28.5 22t-26 22t-28 9.5
q-21 0 -33.5 -15.5t-20.5 -48.5h-37z" />
    <glyph glyph-name="itilde" unicode="&#x129;" horiz-adv-x="191" 
d="M11 0l113 531h53l-113 -531h-53zM25 610q21 110 94 110q21 0 36.5 -9.5t28.5 -22t25.5 -22t26.5 -9.5q19 0 31.5 14t21.5 50h37q-11 -57 -34 -83.5t-58 -26.5q-20 0 -35.5 9.5t-28.5 22t-26 22t-28 9.5q-21 0 -33.5 -15.5t-20.5 -48.5h-37z" />
    <glyph glyph-name="Imacron" unicode="&#x12a;" horiz-adv-x="239" 
d="M-40 0l7 33l71 10l133 628l-66 10l6 33h192l-7 -33l-71 -10l-133 -628l66 -10l-6 -33h-192zM106 797l8 44h236l-10 -44h-234z" />
    <glyph glyph-name="imacron" unicode="&#x12b;" horiz-adv-x="191" 
d="M11 0l113 531h53l-113 -531h-53zM45 611l8 44h236l-10 -44h-234z" />
    <glyph glyph-name="Ibreve" unicode="&#x12c;" horiz-adv-x="239" 
d="M-40 0l7 33l71 10l133 628l-66 10l6 33h192l-7 -33l-71 -10l-133 -628l66 -10l-6 -33h-192zM230 793q-52 0 -76.5 26.5t-24.5 68.5q0 8 0.5 14t1.5 10h36q-1 -35 13 -55t52 -20t58.5 18t29.5 57h37q-11 -59 -42 -89t-85 -30z" />
    <glyph glyph-name="ibreve" unicode="&#x12d;" horiz-adv-x="191" 
d="M11 0l113 531h53l-113 -531h-53zM169 607q-52 0 -76.5 26.5t-24.5 68.5q0 8 0.5 14t1.5 10h36q-1 -35 13 -55t52 -20t58.5 18t29.5 57h37q-11 -59 -42 -89t-85 -30z" />
    <glyph glyph-name="Iogonek" unicode="&#x12e;" horiz-adv-x="239" 
d="M-40 0l7 33l71 10l133 628l-66 10l6 33h192l-7 -33l-71 -10l-133 -628l66 -10l-6 -33h-192zM46 -219q-35 0 -54.5 19.5t-19.5 50.5q0 43 26.5 78t79.5 73l39 -2q-46 -38 -71.5 -70t-24.5 -69q0 -39 39 -39q10 0 19.5 2t18.5 4l-5 -39q-21 -8 -47 -8z" />
    <glyph glyph-name="iogonek" unicode="&#x12f;" horiz-adv-x="191" 
d="M176 637q-30 0 -30 32q0 20 11 38.5t33 18.5q29 0 29 -32q0 -22 -11.5 -39.5t-31.5 -17.5zM11 0l113 531h53l-113 -531h-53zM-8 -219q-35 0 -54.5 19.5t-19.5 50.5q0 43 26.5 78t79.5 73l39 -2q-46 -38 -71.5 -70t-24.5 -69q0 -39 39 -39q10 0 19.5 2t18.5 4l-5 -39
q-21 -8 -47 -8z" />
    <glyph glyph-name="Idotaccent" unicode="&#x130;" horiz-adv-x="239" 
d="M-40 0l7 33l71 10l133 628l-66 10l6 33h192l-7 -33l-71 -10l-133 -628l66 -10l-6 -33h-192zM241 823q-30 0 -30 33q0 20 11 38t32 18q30 0 30 -33q0 -21 -11.5 -38.5t-31.5 -17.5z" />
    <glyph glyph-name="IJ" unicode="&#x132;" horiz-adv-x="453" 
d="M-40 0l7 33l71 10l133 628l-66 10l6 33h192l-7 -33l-71 -10l-133 -628l66 -10l-6 -33h-192zM168 -182q-20 0 -37 3.5t-28 8.5l10 49q25 -11 54 -11q40 0 63 30t36 92l154 724h54l-155 -734q-18 -84 -54.5 -123t-96.5 -39z" />
    <glyph glyph-name="ij" unicode="&#x133;" horiz-adv-x="380" 
d="M176 637q-30 0 -30 32q0 20 11 38.5t33 18.5q29 0 29 -32q0 -22 -11.5 -39.5t-31.5 -17.5zM11 0l113 531h53l-113 -531h-53zM369 637q-30 0 -30 32q0 20 10.5 38.5t32.5 18.5q29 0 29 -32q0 -22 -11.5 -39.5t-30.5 -17.5zM106 -240q-14 0 -26.5 2t-21.5 5v49q19 -8 44 -8
q37 0 55.5 29t33.5 102l125 592h53l-127 -596q-18 -85 -45.5 -130t-90.5 -45z" />
    <glyph glyph-name="Jcircumflex" unicode="&#x134;" horiz-adv-x="200" 
d="M-85 -182q-20 0 -37 3.5t-28 8.5l10 49q25 -11 54 -11q40 0 63 30t36 92l154 724h54l-155 -734q-18 -84 -54.5 -123t-96.5 -39zM81 776l1 9q31 31 67 73t58 78h47q6 -20 17 -49t23.5 -56.5t22.5 -45.5l-1 -9h-30q-34 45 -64 107q-25 -29 -53 -57t-56 -50h-32z" />
    <glyph glyph-name="jcircumflex" unicode="&#x135;" horiz-adv-x="191" 
d="M-84 -240q-14 0 -26.5 2t-21.5 5v49q19 -8 44 -8q37 0 55.5 29t33.5 102l125 592h53l-127 -596q-18 -85 -45.5 -130t-90.5 -45zM41 606l1 9q31 31 67 73t58 78h47q6 -20 17 -49t23.5 -56.5t22.5 -45.5l-1 -9h-30q-34 45 -64 107q-25 -29 -53 -57t-56 -50h-32z" />
    <glyph glyph-name="uni0136" unicode="&#x136;" horiz-adv-x="429" 
d="M14 0l152 714h54l-79 -373l61 81l243 292h63l-258 -316l116 -398h-59l-102 357l-77 -77l-59 -280h-55zM69 -221v13q13 16 29 42t29.5 54t21.5 51h51v-10q-7 -21 -24 -49t-38 -55t-40 -46h-29z" />
    <glyph glyph-name="uni0137" unicode="&#x137;" horiz-adv-x="370" 
d="M11 0l161 760h54l-80 -370q-8 -39 -16 -71.5t-16 -64.5h2l232 277h60l-181 -216l83 -315h-57l-70 273l-80 -86l-39 -187h-53zM41 -221v13q13 16 29 42t29.5 54t21.5 51h51v-10q-7 -21 -24 -49t-38 -55t-40 -46h-29z" />
    <glyph glyph-name="kgreenlandic" unicode="&#x138;" horiz-adv-x="367" 
d="M11 0l114 531h53l-34 -151q-7 -32 -14.5 -63t-15.5 -63h2l232 278h60l-181 -217l83 -315h-57l-70 273l-80 -86l-39 -187h-53z" />
    <glyph glyph-name="Lacute" unicode="&#x139;" horiz-adv-x="369" 
d="M14 0l152 714h54l-141 -664h217l-9 -50h-273zM217 789v9q34 35 67 77t52 74h63l-1 -8q-15 -20 -41 -49t-55 -57t-52 -46h-33z" />
    <glyph glyph-name="lacute" unicode="&#x13a;" horiz-adv-x="188" 
d="M11 0l161 760h54l-162 -760h-53zM167 835v9q34 35 67 77t52 74h63l-1 -8q-15 -20 -41 -49t-55 -57t-52 -46h-33z" />
    <glyph glyph-name="uni013B" unicode="&#x13b;" horiz-adv-x="369" 
d="M14 0l152 714h54l-141 -664h217l-9 -50h-273zM44 -221v13q13 16 29 42t29.5 54t21.5 51h51v-10q-7 -21 -24 -49t-38 -55t-40 -46h-29z" />
    <glyph glyph-name="uni013C" unicode="&#x13c;" horiz-adv-x="188" 
d="M11 0l161 760h54l-162 -760h-53zM-59 -221v13q13 16 29 42t29.5 54t21.5 51h51v-10q-7 -21 -24 -49t-38 -55t-40 -46h-29z" />
    <glyph glyph-name="Lcaron" unicode="&#x13d;" horiz-adv-x="369" 
d="M14 0l152 714h54l-141 -664h217l-9 -50h-273zM282 552v8q20 34 38.5 77t27.5 75h53v-9q-7 -20 -22 -48t-32 -55.5t-34 -47.5h-31z" />
    <glyph glyph-name="lcaron" unicode="&#x13e;" horiz-adv-x="221" 
d="M11 0l161 760h54l-162 -760h-53zM231 600v8q20 34 38.5 77t27.5 75h53v-9q-7 -20 -22 -48t-32 -55.5t-34 -47.5h-31z" />
    <glyph glyph-name="Ldot" unicode="&#x13f;" horiz-adv-x="369" 
d="M14 0l152 714h54l-141 -664h217l-9 -50h-273zM288 323q-30 0 -30 33q0 20 11 38t32 18q30 0 30 -33q0 -21 -11.5 -38.5t-31.5 -17.5z" />
    <glyph glyph-name="ldot" unicode="&#x140;" horiz-adv-x="263" 
d="M11 0l161 760h54l-162 -760h-53zM237 298q-30 0 -30 33q0 20 11 38t32 18q30 0 30 -33q0 -21 -11.5 -38.5t-31.5 -17.5z" />
    <glyph glyph-name="Lslash" unicode="&#x141;" horiz-adv-x="367" 
d="M17 0l61 289l-70 -39l-20 38l102 59l78 367h55l-70 -328l113 64l21 -37l-147 -86l-58 -277h218l-10 -50h-273z" />
    <glyph glyph-name="lslash" unicode="&#x142;" horiz-adv-x="198" 
d="M13 0l71 330l-68 -39l-17 38l96 56l80 375h53l-73 -344l75 44l17 -38l-103 -60l-78 -362h-53z" />
    <glyph glyph-name="Nacute" unicode="&#x143;" horiz-adv-x="548" 
d="M14 0l152 714h61l151 -616h2q8 42 16 86t15 75l97 455h53l-152 -714h-60l-151 622h-3q-5 -38 -14.5 -84t-17.5 -85l-96 -453h-53zM338 789v9q34 35 67 77t52 74h63l-1 -8q-15 -20 -41 -49t-55 -57t-52 -46h-33z" />
    <glyph glyph-name="nacute" unicode="&#x144;" horiz-adv-x="439" 
d="M10 0l113 532h44l-14 -88h2q22 40 58.5 69t84.5 29q46 0 74.5 -26t28.5 -78q0 -21 -4.5 -49t-9.5 -53l-72 -336h-54l71 338q5 24 9.5 48t4.5 44q0 62 -63 62q-55 0 -96 -55.5t-64 -159.5l-58 -277h-55zM242 605v9q34 35 67 77t52 74h63l-1 -8q-15 -20 -41 -49t-55 -57
t-52 -46h-33z" />
    <glyph glyph-name="uni0145" unicode="&#x145;" horiz-adv-x="548" 
d="M14 0l152 714h61l151 -616h2q8 42 16 86t15 75l97 455h53l-152 -714h-60l-151 622h-3q-5 -38 -14.5 -84t-17.5 -85l-96 -453h-53zM120 -221v13q13 16 29 42t29.5 54t21.5 51h51v-10q-7 -21 -24 -49t-38 -55t-40 -46h-29z" />
    <glyph glyph-name="uni0146" unicode="&#x146;" horiz-adv-x="439" 
d="M10 0l113 532h44l-14 -88h2q22 40 58.5 69t84.5 29q46 0 74.5 -26t28.5 -78q0 -21 -4.5 -49t-9.5 -53l-72 -336h-54l71 338q5 24 9.5 48t4.5 44q0 62 -63 62q-55 0 -96 -55.5t-64 -159.5l-58 -277h-55zM67 -221v13q13 16 29 42t29.5 54t21.5 51h51v-10q-7 -21 -24 -49
t-38 -55t-40 -46h-29z" />
    <glyph glyph-name="Ncaron" unicode="&#x147;" horiz-adv-x="548" 
d="M14 0l152 714h61l151 -616h2q8 42 16 86t15 75l97 455h53l-152 -714h-60l-151 622h-3q-5 -38 -14.5 -84t-17.5 -85l-96 -453h-53zM341 776q-6 20 -17 49t-23.5 56.5t-22.5 44.5l1 10h30q15 -20 32 -48.5t32 -59.5q26 28 54 57t56 51h31l-1 -10q-18 -18 -42 -44.5
t-46.5 -55t-35.5 -50.5h-48z" />
    <glyph glyph-name="ncaron" unicode="&#x148;" horiz-adv-x="439" 
d="M10 0l113 532h44l-14 -88h2q22 40 58.5 69t84.5 29q46 0 74.5 -26t28.5 -78q0 -21 -4.5 -49t-9.5 -53l-72 -336h-54l71 338q5 24 9.5 48t4.5 44q0 62 -63 62q-55 0 -96 -55.5t-64 -159.5l-58 -277h-55zM257 606q-6 20 -17 49t-23.5 56.5t-22.5 44.5l1 10h30
q15 -20 32 -48.5t32 -59.5q26 28 54 57t56 51h31l-1 -10q-18 -18 -42 -44.5t-46.5 -55t-35.5 -50.5h-48z" />
    <glyph glyph-name="napostrophe" unicode="&#x149;" horiz-adv-x="474" 
d="M45 0l113 532h44l-14 -88h2q22 40 58.5 69t84.5 29q46 0 74.5 -26t28.5 -78q0 -21 -4.5 -49t-9.5 -53l-72 -336h-54l71 338q5 24 9.5 48t4.5 44q0 62 -63 62q-55 0 -96 -55.5t-64 -159.5l-58 -277h-55zM34 478q29 55 55 118t42 118h53l5 -11q-20 -54 -50.5 -114
t-63.5 -111h-41z" />
    <glyph glyph-name="Eng" unicode="&#x14a;" horiz-adv-x="546" 
d="M252 -182q-37 0 -61 13l9 49q25 -11 54 -11q41 0 64 31.5t35 94.5l-154 630h-3q-9 -60 -27 -141l-102 -484h-53l152 714h62l150 -610h3q6 32 12.5 68t14.5 71l99 471h54l-152 -719q-19 -87 -53.5 -132t-103.5 -45z" />
    <glyph glyph-name="eng" unicode="&#x14b;" horiz-adv-x="438" 
d="M163 -240q-15 0 -26.5 2t-20.5 5v49q21 -8 44 -8q35 0 54 28.5t35 102.5l84 398q5 25 9.5 49t4.5 44q0 63 -64 63q-55 0 -96.5 -55.5t-63.5 -158.5l-59 -279h-53l112 531h44l-14 -88h2q22 41 58.5 69.5t84.5 28.5q46 0 74.5 -25.5t28.5 -77.5q0 -21 -5 -48.5t-10 -53.5
l-85 -402q-20 -92 -48.5 -133t-89.5 -41z" />
    <glyph glyph-name="Omacron" unicode="&#x14c;" horiz-adv-x="545" 
d="M224 -10q-89 0 -132.5 59t-43.5 168q0 63 12 132.5t35.5 136t59.5 120.5t84.5 86t109.5 32q83 0 128 -54t45 -164q0 -57 -10.5 -126t-33 -137.5t-57.5 -126t-84 -92t-113 -34.5zM227 40q49 0 87.5 31.5t67 83.5t47 114t27.5 124t9 113q0 169 -120 169q-50 0 -89.5 -32
t-68 -83.5t-47 -113t-27.5 -122t-9 -107.5q0 -177 123 -177zM247 781l8 44h236l-10 -44h-234z" />
    <glyph glyph-name="omacron" unicode="&#x14d;" horiz-adv-x="437" 
d="M172 -10q-65 0 -101.5 44t-36.5 126q0 44 8.5 95.5t26.5 101.5t46 92t66 67t87 25q64 0 99.5 -44t35.5 -126q0 -62 -14.5 -128.5t-43 -124t-72 -93t-101.5 -35.5zM176 38q42 0 74 31.5t54 82.5t33.5 109t11.5 112q0 55 -21.5 88t-64.5 33q-35 0 -62.5 -22t-48.5 -59
t-35.5 -81.5t-21.5 -89.5t-7 -83q0 -121 88 -121zM162 611l8 44h236l-10 -44h-234z" />
    <glyph glyph-name="Obreve" unicode="&#x14e;" horiz-adv-x="545" 
d="M224 -10q-89 0 -132.5 59t-43.5 168q0 63 12 132.5t35.5 136t59.5 120.5t84.5 86t109.5 32q83 0 128 -54t45 -164q0 -57 -10.5 -126t-33 -137.5t-57.5 -126t-84 -92t-113 -34.5zM227 40q49 0 87.5 31.5t67 83.5t47 114t27.5 124t9 113q0 169 -120 169q-50 0 -89.5 -32
t-68 -83.5t-47 -113t-27.5 -122t-9 -107.5q0 -177 123 -177zM369 777q-52 0 -76.5 26.5t-24.5 68.5q0 8 0.5 14t1.5 10h36q-1 -35 13 -55t52 -20t58.5 18t29.5 57h37q-11 -59 -42 -89t-85 -30z" />
    <glyph glyph-name="obreve" unicode="&#x14f;" horiz-adv-x="437" 
d="M172 -10q-65 0 -101.5 44t-36.5 126q0 44 8.5 95.5t26.5 101.5t46 92t66 67t87 25q64 0 99.5 -44t35.5 -126q0 -62 -14.5 -128.5t-43 -124t-72 -93t-101.5 -35.5zM176 38q42 0 74 31.5t54 82.5t33.5 109t11.5 112q0 55 -21.5 88t-64.5 33q-35 0 -62.5 -22t-48.5 -59
t-35.5 -81.5t-21.5 -89.5t-7 -83q0 -121 88 -121zM289 607q-52 0 -76.5 26.5t-24.5 68.5q0 8 0.5 14t1.5 10h36q-1 -35 13 -55t52 -20t58.5 18t29.5 57h37q-11 -59 -42 -89t-85 -30z" />
    <glyph glyph-name="Ohungarumlaut" unicode="&#x150;" horiz-adv-x="545" 
d="M224 -10q-89 0 -132.5 59t-43.5 168q0 63 12 132.5t35.5 136t59.5 120.5t84.5 86t109.5 32q83 0 128 -54t45 -164q0 -57 -10.5 -126t-33 -137.5t-57.5 -126t-84 -92t-113 -34.5zM227 40q49 0 87.5 31.5t67 83.5t47 114t27.5 124t9 113q0 169 -120 169q-50 0 -89.5 -32
t-68 -83.5t-47 -113t-27.5 -122t-9 -107.5q0 -177 123 -177zM406 776v9q34 37 67 79t50 72h59v-8q-14 -21 -40 -49.5t-55 -56.5t-53 -46h-28zM258 776v9q35 37 67.5 79t50.5 72h58v-8q-14 -21 -40 -49.5t-55 -56t-53 -46.5h-28z" />
    <glyph glyph-name="ohungarumlaut" unicode="&#x151;" horiz-adv-x="437" 
d="M172 -10q-65 0 -101.5 44t-36.5 126q0 44 8.5 95.5t26.5 101.5t46 92t66 67t87 25q64 0 99.5 -44t35.5 -126q0 -62 -14.5 -128.5t-43 -124t-72 -93t-101.5 -35.5zM176 38q42 0 74 31.5t54 82.5t33.5 109t11.5 112q0 55 -21.5 88t-64.5 33q-35 0 -62.5 -22t-48.5 -59
t-35.5 -81.5t-21.5 -89.5t-7 -83q0 -121 88 -121zM332 606v9q34 37 67 79t50 72h59v-8q-14 -21 -40 -49.5t-55 -56.5t-53 -46h-28zM184 606v9q35 37 67.5 79t50.5 72h58v-8q-14 -21 -40 -49.5t-55 -56t-53 -46.5h-28z" />
    <glyph glyph-name="OE" unicode="&#x152;" horiz-adv-x="642" 
d="M228 -4q-92 0 -136 59t-44 161q0 61 11 130t33.5 135t58 120t84.5 86t113 32q46 0 78 -5h263l-10 -50h-225l-56 -265h210l-10 -49h-211l-64 -300h225l-11 -50h-254q-10 -2 -23.5 -3t-31.5 -1zM235 45q10 0 18.5 1.5t15.5 2.5l131 616q-10 1 -24 3t-31 2q-49 0 -88 -29
t-67.5 -77.5t-47.5 -108t-28 -121t-9 -115.5q0 -85 31.5 -129.5t98.5 -44.5z" />
    <glyph glyph-name="oe" unicode="&#x153;" horiz-adv-x="686" 
d="M168 -10q-63 0 -98.5 44t-35.5 130q0 41 8.5 91.5t26 100.5t44.5 92t65 67.5t87 25.5q58 0 87 -35.5t34 -100.5q31 62 76 99t98 37q47 0 76 -26.5t29 -78.5q0 -82 -68 -136.5t-199 -54.5h-13q-3 -18 -5 -38t-2 -40q0 -131 105 -131q29 0 55 9t51 23l1 -48
q-25 -14 -54.5 -22t-64.5 -8q-56 0 -91 32.5t-43 100.5q-27 -59 -69 -96t-100 -37zM393 290h11q104 0 156.5 41t52.5 103q0 28 -14.5 44.5t-43.5 16.5q-37 0 -69 -27.5t-56.5 -74t-36.5 -103.5zM175 37q42 0 74 32.5t53.5 83.5t32.5 110t11 111q0 57 -21 88.5t-64 31.5
q-42 0 -74.5 -32.5t-54.5 -84t-33 -109t-11 -106.5q0 -125 87 -125z" />
    <glyph glyph-name="Racute" unicode="&#x154;" horiz-adv-x="442" 
d="M15 0l151 714h109q81 0 125 -40t44 -117q0 -88 -41 -153.5t-121 -83.5l77 -320h-59l-70 309h-95l-66 -309h-54zM145 357h75q57 0 94.5 27.5t55.5 72t18 95.5q0 58 -30.5 85.5t-91.5 27.5h-56zM283 789v9q34 35 67 77t52 74h63l-1 -8q-15 -20 -41 -49t-55 -57t-52 -46h-33
z" />
    <glyph glyph-name="racute" unicode="&#x155;" horiz-adv-x="293" 
d="M11 0l112 531h43l-16 -97h3q23 46 57 76.5t80 30.5q12 0 23 -2t20 -4l-14 -53q-17 6 -38 6q-43 0 -74.5 -32.5t-53 -82t-31.5 -100.5l-58 -273h-53zM175 604v9q34 35 67 77t52 74h63l-1 -8q-15 -20 -41 -49t-55 -57t-52 -46h-33z" />
    <glyph glyph-name="uni0156" unicode="&#x156;" horiz-adv-x="442" 
d="M15 0l151 714h109q81 0 125 -40t44 -117q0 -88 -41 -153.5t-121 -83.5l77 -320h-59l-70 309h-95l-66 -309h-54zM145 357h75q57 0 94.5 27.5t55.5 72t18 95.5q0 58 -30.5 85.5t-91.5 27.5h-56zM73 -221v13q13 16 29 42t29.5 54t21.5 51h51v-10q-7 -21 -24 -49t-38 -55
t-40 -46h-29z" />
    <glyph glyph-name="uni0157" unicode="&#x157;" horiz-adv-x="293" 
d="M11 0l112 531h43l-16 -97h3q23 46 57 76.5t80 30.5q12 0 23 -2t20 -4l-14 -53q-17 6 -38 6q-43 0 -74.5 -32.5t-53 -82t-31.5 -100.5l-58 -273h-53zM-28 -221v13q13 16 29 42t29.5 54t21.5 51h51v-10q-7 -21 -24 -49t-38 -55t-40 -46h-29z" />
    <glyph glyph-name="Rcaron" unicode="&#x158;" horiz-adv-x="442" 
d="M15 0l151 714h109q81 0 125 -40t44 -117q0 -88 -41 -153.5t-121 -83.5l77 -320h-59l-70 309h-95l-66 -309h-54zM145 357h75q57 0 94.5 27.5t55.5 72t18 95.5q0 58 -30.5 85.5t-91.5 27.5h-56zM288 776q-6 20 -17 49t-23.5 56.5t-22.5 44.5l1 10h30q15 -20 32 -48.5
t32 -59.5q26 28 54 57t56 51h31l-1 -10q-18 -18 -42 -44.5t-46.5 -55t-35.5 -50.5h-48z" />
    <glyph glyph-name="rcaron" unicode="&#x159;" horiz-adv-x="293" 
d="M11 0l112 531h43l-16 -97h3q23 46 57 76.5t80 30.5q12 0 23 -2t20 -4l-14 -53q-17 6 -38 6q-43 0 -74.5 -32.5t-53 -82t-31.5 -100.5l-58 -273h-53zM210 606q-6 20 -17 49t-23.5 56.5t-22.5 44.5l1 10h30q15 -20 32 -48.5t32 -59.5q26 28 54 57t56 51h31l-1 -10
q-18 -18 -42 -44.5t-46.5 -55t-35.5 -50.5h-48z" />
    <glyph glyph-name="Sacute" unicode="&#x15a;" horiz-adv-x="401" 
d="M129 -10q-47 0 -81.5 9t-59.5 22l3 57q27 -16 62 -26.5t77 -10.5q64 0 109 37.5t45 111.5q0 46 -23 79t-74 78q-43 38 -71.5 78t-28.5 103q0 64 26.5 107.5t72.5 66t102 22.5q43 0 78.5 -10.5t60.5 -25.5l-25 -49q-24 14 -53 24t-63 10q-58 0 -100 -35t-42 -105
q0 -33 11 -58t32 -48t51 -50q46 -40 74.5 -80.5t28.5 -102.5q0 -97 -59 -150.5t-153 -53.5zM258 789v9q34 35 67 77t52 74h63l-1 -8q-15 -20 -41 -49t-55 -57t-52 -46h-33z" />
    <glyph glyph-name="sacute" unicode="&#x15b;" horiz-adv-x="335" 
d="M109 -10q-38 0 -68 8t-48 19v55q19 -14 49.5 -24.5t63.5 -10.5q55 0 82 27.5t27 76.5q0 35 -17.5 58.5t-55.5 57.5q-36 31 -58.5 63t-22.5 79q0 62 41.5 102t110.5 40q40 0 70.5 -9.5t52.5 -22.5l-23 -44q-19 12 -44 21t-56 9q-44 0 -70.5 -24.5t-26.5 -65.5
q0 -33 16 -56.5t50 -53.5q27 -25 46.5 -46t30.5 -45t11 -59q0 -72 -42 -113.5t-119 -41.5zM185 604v9q34 35 67 77t52 74h63l-1 -8q-15 -20 -41 -49t-55 -57t-52 -46h-33z" />
    <glyph glyph-name="Scircumflex" unicode="&#x15c;" horiz-adv-x="401" 
d="M129 -10q-47 0 -81.5 9t-59.5 22l3 57q27 -16 62 -26.5t77 -10.5q64 0 109 37.5t45 111.5q0 46 -23 79t-74 78q-43 38 -71.5 78t-28.5 103q0 64 26.5 107.5t72.5 66t102 22.5q43 0 78.5 -10.5t60.5 -25.5l-25 -49q-24 14 -53 24t-63 10q-58 0 -100 -35t-42 -105
q0 -33 11 -58t32 -48t51 -50q46 -40 74.5 -80.5t28.5 -102.5q0 -97 -59 -150.5t-153 -53.5zM173 776l1 9q31 31 67 73t58 78h47q6 -20 17 -49t23.5 -56.5t22.5 -45.5l-1 -9h-30q-34 45 -64 107q-25 -29 -53 -57t-56 -50h-32z" />
    <glyph glyph-name="scircumflex" unicode="&#x15d;" horiz-adv-x="335" 
d="M109 -10q-38 0 -68 8t-48 19v55q19 -14 49.5 -24.5t63.5 -10.5q55 0 82 27.5t27 76.5q0 35 -17.5 58.5t-55.5 57.5q-36 31 -58.5 63t-22.5 79q0 62 41.5 102t110.5 40q40 0 70.5 -9.5t52.5 -22.5l-23 -44q-19 12 -44 21t-56 9q-44 0 -70.5 -24.5t-26.5 -65.5
q0 -33 16 -56.5t50 -53.5q27 -25 46.5 -46t30.5 -45t11 -59q0 -72 -42 -113.5t-119 -41.5zM108 606l1 9q31 31 67 73t58 78h47q6 -20 17 -49t23.5 -56.5t22.5 -45.5l-1 -9h-30q-34 45 -64 107q-25 -29 -53 -57t-56 -50h-32z" />
    <glyph glyph-name="Scedilla" unicode="&#x15e;" horiz-adv-x="401" 
d="M129 -10q-47 0 -81.5 9t-59.5 22l3 57q27 -16 62 -26.5t77 -10.5q64 0 109 37.5t45 111.5q0 46 -23 79t-74 78q-43 38 -71.5 78t-28.5 103q0 64 26.5 107.5t72.5 66t102 22.5q43 0 78.5 -10.5t60.5 -25.5l-25 -49q-24 14 -53 24t-63 10q-58 0 -100 -35t-42 -105
q0 -33 11 -58t32 -48t51 -50q46 -40 74.5 -80.5t28.5 -102.5q0 -97 -59 -150.5t-153 -53.5zM60 -240q-18 0 -32 2t-25 5v38q8 -3 21.5 -5t31.5 -2q36 0 59 17.5t23 48.5q0 26 -19.5 38.5t-56.5 15.5l52 82h38l-38 -59q31 -6 50.5 -24.5t19.5 -50.5q0 -48 -35.5 -77
t-88.5 -29z" />
    <glyph glyph-name="scedilla" unicode="&#x15f;" horiz-adv-x="335" 
d="M109 -10q-38 0 -68 8t-48 19v55q19 -14 49.5 -24.5t63.5 -10.5q55 0 82 27.5t27 76.5q0 35 -17.5 58.5t-55.5 57.5q-36 31 -58.5 63t-22.5 79q0 62 41.5 102t110.5 40q40 0 70.5 -9.5t52.5 -22.5l-23 -44q-19 12 -44 21t-56 9q-44 0 -70.5 -24.5t-26.5 -65.5
q0 -33 16 -56.5t50 -53.5q27 -25 46.5 -46t30.5 -45t11 -59q0 -72 -42 -113.5t-119 -41.5zM30 -240q-18 0 -32 2t-25 5v38q8 -3 21.5 -5t31.5 -2q36 0 59 17.5t23 48.5q0 26 -19.5 38.5t-56.5 15.5l52 82h38l-38 -59q31 -6 50.5 -24.5t19.5 -50.5q0 -48 -35.5 -77t-88.5 -29
z" />
    <glyph glyph-name="Scaron" unicode="&#x160;" horiz-adv-x="401" 
d="M129 -10q-47 0 -81.5 9t-59.5 22l3 57q27 -16 62 -26.5t77 -10.5q64 0 109 37.5t45 111.5q0 46 -23 79t-74 78q-43 38 -71.5 78t-28.5 103q0 64 26.5 107.5t72.5 66t102 22.5q43 0 78.5 -10.5t60.5 -25.5l-25 -49q-24 14 -53 24t-63 10q-58 0 -100 -35t-42 -105
q0 -33 11 -58t32 -48t51 -50q46 -40 74.5 -80.5t28.5 -102.5q0 -97 -59 -150.5t-153 -53.5zM275 776q-6 20 -17 49t-23.5 56.5t-22.5 44.5l1 10h30q15 -20 32 -48.5t32 -59.5q26 28 54 57t56 51h31l-1 -10q-18 -18 -42 -44.5t-46.5 -55t-35.5 -50.5h-48z" />
    <glyph glyph-name="scaron" unicode="&#x161;" horiz-adv-x="335" 
d="M109 -10q-38 0 -68 8t-48 19v55q19 -14 49.5 -24.5t63.5 -10.5q55 0 82 27.5t27 76.5q0 35 -17.5 58.5t-55.5 57.5q-36 31 -58.5 63t-22.5 79q0 62 41.5 102t110.5 40q40 0 70.5 -9.5t52.5 -22.5l-23 -44q-19 12 -44 21t-56 9q-44 0 -70.5 -24.5t-26.5 -65.5
q0 -33 16 -56.5t50 -53.5q27 -25 46.5 -46t30.5 -45t11 -59q0 -72 -42 -113.5t-119 -41.5zM206 606q-6 20 -17 49t-23.5 56.5t-22.5 44.5l1 10h30q15 -20 32 -48.5t32 -59.5q26 28 54 57t56 51h31l-1 -10q-18 -18 -42 -44.5t-46.5 -55t-35.5 -50.5h-48z" />
    <glyph glyph-name="uni021A" unicode="&#x21a;" horiz-adv-x="371" 
d="M94 0l142 664h-151l11 50h356l-11 -50h-151l-141 -664h-55zM32 -221v13q13 16 29 42t29.5 54t21.5 51h51v-10q-7 -21 -24 -49t-38 -55t-40 -46h-29z" />
    <glyph glyph-name="uni021B" unicode="&#x21b;" horiz-adv-x="243" 
d="M111 -10q-81 0 -81 85q0 14 2.5 33.5t7.5 40.5l71 337h-57l7 32l61 15l41 124h38l-27 -126h94l-10 -45h-93l-72 -339q-5 -19 -7.5 -35.5t-2.5 -29.5q0 -21 9.5 -33t32.5 -12q13 0 26 2.5t24 7.5v-45q-13 -5 -30 -8.5t-34 -3.5zM-24 -221v13q13 16 29 42t29.5 54t21.5 51
h51v-10q-7 -21 -24 -49t-38 -55t-40 -46h-29z" />
    <glyph glyph-name="Tcaron" unicode="&#x164;" horiz-adv-x="371" 
d="M94 0l142 664h-151l11 50h356l-11 -50h-151l-141 -664h-55zM256 776q-6 20 -17 49t-23.5 56.5t-22.5 44.5l1 10h30q15 -20 32 -48.5t32 -59.5q26 28 54 57t56 51h31l-1 -10q-18 -18 -42 -44.5t-46.5 -55t-35.5 -50.5h-48z" />
    <glyph glyph-name="tcaron" unicode="&#x165;" horiz-adv-x="240" 
d="M111 -10q-81 0 -81 85q0 14 2.5 33.5t7.5 40.5l71 337h-57l7 32l61 15l41 124h38l-27 -126h94l-10 -45h-93l-72 -339q-5 -19 -7.5 -35.5t-2.5 -29.5q0 -21 9.5 -33t32.5 -12q13 0 26 2.5t24 7.5v-45q-13 -5 -30 -8.5t-34 -3.5zM235 593v8q20 34 38.5 77t27.5 75h53v-9
q-7 -20 -22 -48t-32 -55.5t-34 -47.5h-31z" />
    <glyph glyph-name="Tbar" unicode="&#x166;" horiz-adv-x="369" 
d="M94 0l74 346h-111l9 45h111l59 273h-151l11 50h356l-11 -50h-151l-58 -273h115l-9 -45h-116l-73 -346h-55z" />
    <glyph glyph-name="tbar" unicode="&#x167;" horiz-adv-x="238" 
d="M111 -10q-82 0 -82 85q0 13 2.5 32t7.5 40l29 135h-58l10 44h57l34 160h-57l7 32l61 15l41 124h38l-27 -126h94l-10 -45h-94l-34 -160h94l-9 -44h-94l-29 -135q-4 -19 -6.5 -35t-2.5 -29q0 -46 43 -46q13 0 25 2.5t24 7.5v-45q-13 -5 -30 -8.5t-34 -3.5z" />
    <glyph glyph-name="Utilde" unicode="&#x168;" horiz-adv-x="519" 
d="M206 -10q-74 0 -116.5 40.5t-42.5 115.5q0 36 11 86l102 482h55l-103 -484q-4 -22 -6.5 -43t-2.5 -37q0 -54 28.5 -82t78.5 -28q71 0 109 49t60 147l103 478h54l-104 -483q-24 -113 -75.5 -177t-150.5 -64zM219 780q21 110 94 110q21 0 36.5 -9.5t28.5 -22t25.5 -22
t26.5 -9.5q19 0 31.5 14t21.5 50h37q-11 -57 -34 -83.5t-58 -26.5q-20 0 -35.5 9.5t-28.5 22t-26 22t-28 9.5q-21 0 -33.5 -15.5t-20.5 -48.5h-37z" />
    <glyph glyph-name="utilde" unicode="&#x169;" horiz-adv-x="440" 
d="M137 -10q-48 0 -75.5 26.5t-27.5 77.5q0 20 4.5 46.5t9.5 51.5l72 339h54l-73 -341q-5 -24 -8.5 -46t-3.5 -42q0 -64 63 -64q55 0 96.5 56t63.5 160l59 277h53l-112 -531h-43l13 87h-3q-22 -41 -58.5 -69t-83.5 -28zM150 610q21 110 94 110q21 0 36.5 -9.5t28.5 -22
t25.5 -22t26.5 -9.5q19 0 31.5 14t21.5 50h37q-11 -57 -34 -83.5t-58 -26.5q-20 0 -35.5 9.5t-28.5 22t-26 22t-28 9.5q-21 0 -33.5 -15.5t-20.5 -48.5h-37z" />
    <glyph glyph-name="Umacron" unicode="&#x16a;" horiz-adv-x="519" 
d="M206 -10q-74 0 -116.5 40.5t-42.5 115.5q0 36 11 86l102 482h55l-103 -484q-4 -22 -6.5 -43t-2.5 -37q0 -54 28.5 -82t78.5 -28q71 0 109 49t60 147l103 478h54l-104 -483q-24 -113 -75.5 -177t-150.5 -64zM240 781l8 44h236l-10 -44h-234z" />
    <glyph glyph-name="umacron" unicode="&#x16b;" horiz-adv-x="440" 
d="M137 -10q-48 0 -75.5 26.5t-27.5 77.5q0 20 4.5 46.5t9.5 51.5l72 339h54l-73 -341q-5 -24 -8.5 -46t-3.5 -42q0 -64 63 -64q55 0 96.5 56t63.5 160l59 277h53l-112 -531h-43l13 87h-3q-22 -41 -58.5 -69t-83.5 -28zM168 611l8 44h236l-10 -44h-234z" />
    <glyph glyph-name="Ubreve" unicode="&#x16c;" horiz-adv-x="519" 
d="M206 -10q-74 0 -116.5 40.5t-42.5 115.5q0 36 11 86l102 482h55l-103 -484q-4 -22 -6.5 -43t-2.5 -37q0 -54 28.5 -82t78.5 -28q71 0 109 49t60 147l103 478h54l-104 -483q-24 -113 -75.5 -177t-150.5 -64zM358 777q-52 0 -76.5 26.5t-24.5 68.5q0 8 0.5 14t1.5 10h36
q-1 -35 13 -55t52 -20t58.5 18t29.5 57h37q-11 -59 -42 -89t-85 -30z" />
    <glyph glyph-name="ubreve" unicode="&#x16d;" horiz-adv-x="440" 
d="M137 -10q-48 0 -75.5 26.5t-27.5 77.5q0 20 4.5 46.5t9.5 51.5l72 339h54l-73 -341q-5 -24 -8.5 -46t-3.5 -42q0 -64 63 -64q55 0 96.5 56t63.5 160l59 277h53l-112 -531h-43l13 87h-3q-22 -41 -58.5 -69t-83.5 -28zM288 607q-52 0 -76.5 26.5t-24.5 68.5q0 8 0.5 14
t1.5 10h36q-1 -35 13 -55t52 -20t58.5 18t29.5 57h37q-11 -59 -42 -89t-85 -30z" />
    <glyph glyph-name="Uring" unicode="&#x16e;" horiz-adv-x="519" 
d="M206 -10q-74 0 -116.5 40.5t-42.5 115.5q0 36 11 86l102 482h55l-103 -484q-4 -22 -6.5 -43t-2.5 -37q0 -54 28.5 -82t78.5 -28q71 0 109 49t60 147l103 478h54l-104 -483q-24 -113 -75.5 -177t-150.5 -64zM367 780q-44 0 -70.5 26t-26.5 70q0 42 27 68.5t70 26.5
q44 0 70.5 -26.5t26.5 -67.5q0 -43 -27 -70t-70 -27zM367 815q28 0 44.5 17t16.5 44q0 26 -16.5 43t-44.5 17t-44 -17t-16 -43q0 -27 15.5 -44t44.5 -17z" />
    <glyph glyph-name="uring" unicode="&#x16f;" horiz-adv-x="440" 
d="M137 -10q-48 0 -75.5 26.5t-27.5 77.5q0 20 4.5 46.5t9.5 51.5l72 339h54l-73 -341q-5 -24 -8.5 -46t-3.5 -42q0 -64 63 -64q55 0 96.5 56t63.5 160l59 277h53l-112 -531h-43l13 87h-3q-22 -41 -58.5 -69t-83.5 -28zM296 610q-44 0 -70.5 26t-26.5 70q0 42 27 68.5
t70 26.5q44 0 70.5 -26.5t26.5 -67.5q0 -43 -27 -70t-70 -27zM296 645q28 0 44.5 17t16.5 44q0 26 -16.5 43t-44.5 17t-44 -17t-16 -43q0 -27 15.5 -44t44.5 -17z" />
    <glyph glyph-name="Uhungarumlaut" unicode="&#x170;" horiz-adv-x="519" 
d="M206 -10q-74 0 -116.5 40.5t-42.5 115.5q0 36 11 86l102 482h55l-103 -484q-4 -22 -6.5 -43t-2.5 -37q0 -54 28.5 -82t78.5 -28q71 0 109 49t60 147l103 478h54l-104 -483q-24 -113 -75.5 -177t-150.5 -64zM404 776v9q34 37 67 79t50 72h59v-8q-14 -21 -40 -49.5
t-55 -56.5t-53 -46h-28zM256 776v9q35 37 67.5 79t50.5 72h58v-8q-14 -21 -40 -49.5t-55 -56t-53 -46.5h-28z" />
    <glyph glyph-name="uhungarumlaut" unicode="&#x171;" horiz-adv-x="440" 
d="M137 -10q-48 0 -75.5 26.5t-27.5 77.5q0 20 4.5 46.5t9.5 51.5l72 339h54l-73 -341q-5 -24 -8.5 -46t-3.5 -42q0 -64 63 -64q55 0 96.5 56t63.5 160l59 277h53l-112 -531h-43l13 87h-3q-22 -41 -58.5 -69t-83.5 -28zM333 606v9q34 37 67 79t50 72h59v-8
q-14 -21 -40 -49.5t-55 -56.5t-53 -46h-28zM185 606v9q35 37 67.5 79t50.5 72h58v-8q-14 -21 -40 -49.5t-55 -56t-53 -46.5h-28z" />
    <glyph glyph-name="Uogonek" unicode="&#x172;" horiz-adv-x="519" 
d="M206 -10q-74 0 -116.5 40.5t-42.5 115.5q0 36 11 86l102 482h55l-103 -484q-4 -22 -6.5 -43t-2.5 -37q0 -54 28.5 -82t78.5 -28q71 0 109 49t60 147l103 478h54l-104 -483q-24 -113 -75.5 -177t-150.5 -64zM191 -219q-35 0 -54.5 19.5t-19.5 50.5q0 43 26.5 78t79.5 73
l39 -2q-46 -38 -71.5 -70t-24.5 -69q0 -39 39 -39q10 0 19.5 2t18.5 4l-5 -39q-21 -8 -47 -8z" />
    <glyph glyph-name="uogonek" unicode="&#x173;" horiz-adv-x="440" 
d="M137 -10q-48 0 -75.5 26.5t-27.5 77.5q0 20 4.5 46.5t9.5 51.5l72 339h54l-73 -341q-5 -24 -8.5 -46t-3.5 -42q0 -64 63 -64q55 0 96.5 56t63.5 160l59 277h53l-112 -531h-43l13 87h-3q-22 -41 -58.5 -69t-83.5 -28zM241 -219q-35 0 -54.5 19.5t-19.5 50.5q0 43 26.5 78
t79.5 73l39 -2q-46 -38 -71.5 -70t-24.5 -69q0 -39 39 -39q10 0 19.5 2t18.5 4l-5 -39q-21 -8 -47 -8z" />
    <glyph glyph-name="Wcircumflex" unicode="&#x174;" horiz-adv-x="690" 
d="M95 0v714h53l-2 -504q0 -39 -1 -71.5t-3 -58.5h3q12 33 25.5 68t26.5 67l208 499h52l-3 -487q-1 -41 -1.5 -78t-2.5 -71h2q13 36 26.5 71t29.5 77l200 488h58l-298 -714h-63l4 511q0 51 3 103h-3q-7 -23 -16 -46.5t-20 -48.5l-215 -519h-63zM313 776l1 9q31 31 67 73
t58 78h47q6 -20 17 -49t23.5 -56.5t22.5 -45.5l-1 -9h-30q-34 45 -64 107q-25 -29 -53 -57t-56 -50h-32z" />
    <glyph glyph-name="wcircumflex" unicode="&#x175;" horiz-adv-x="557" 
d="M64 0l-3 531h51v-335q1 -34 -0.5 -64t-2.5 -56h3q8 25 20.5 56.5t24.5 59.5l146 339h57l3 -334q1 -28 0 -60.5t-3 -61.5h3q10 29 22 60t26 68l135 328h54l-223 -531h-60l-1 355q-1 25 -0.5 50.5t2.5 53.5h-2q-8 -25 -17 -47.5t-21 -48.5l-154 -363h-60zM218 606l1 9
q31 31 67 73t58 78h47q6 -20 17 -49t23.5 -56.5t22.5 -45.5l-1 -9h-30q-34 45 -64 107q-25 -29 -53 -57t-56 -50h-32z" />
    <glyph glyph-name="Ycircumflex" unicode="&#x176;" horiz-adv-x="375" 
d="M96 0l58 274l-67 440h55l52 -370l208 370h60l-253 -439l-58 -275h-55zM161 776l1 9q31 31 67 73t58 78h47q6 -20 17 -49t23.5 -56.5t22.5 -45.5l-1 -9h-30q-34 45 -64 107q-25 -29 -53 -57t-56 -50h-32z" />
    <glyph glyph-name="ycircumflex" unicode="&#x177;" horiz-adv-x="353" 
d="M-52 -242q-17 0 -30 3t-22 7l5 48q10 -4 21 -7t25 -3q33 0 56 24t46 73l48 102l-32 526h54l15 -332q2 -30 3 -63t0 -59h3q10 25 23.5 57t25.5 57l159 340h56l-305 -642q-31 -65 -64.5 -98t-86.5 -33zM118 606l1 9q31 31 67 73t58 78h47q6 -20 17 -49t23.5 -56.5
t22.5 -45.5l-1 -9h-30q-34 45 -64 107q-25 -29 -53 -57t-56 -50h-32z" />
    <glyph glyph-name="Ydieresis" unicode="&#x178;" horiz-adv-x="375" 
d="M96 0l58 274l-67 440h55l52 -370l208 370h60l-253 -439l-58 -275h-55zM358 809q-28 0 -28 30q0 19 10 36t30 17q27 0 27 -30q0 -20 -11 -36.5t-28 -16.5zM208 809q-28 0 -28 30q0 19 10 36t30 17q27 0 27 -30q0 -20 -11 -36.5t-28 -16.5z" />
    <glyph glyph-name="Zacute" unicode="&#x179;" horiz-adv-x="384" 
d="M-32 0l9 43l387 621h-245l11 50h308l-9 -44l-387 -620h263l-10 -50h-327zM252 789v9q34 35 67 77t52 74h63l-1 -8q-15 -20 -41 -49t-55 -57t-52 -46h-33z" />
    <glyph glyph-name="zacute" unicode="&#x17a;" horiz-adv-x="312" 
d="M-28 0l7 38l284 448h-175l9 45h235l-8 -40l-282 -445h194l-9 -46h-255zM177 604v9q34 35 67 77t52 74h63l-1 -8q-15 -20 -41 -49t-55 -57t-52 -46h-33z" />
    <glyph glyph-name="Zdotaccent" unicode="&#x17b;" horiz-adv-x="384" 
d="M-32 0l9 43l387 621h-245l11 50h308l-9 -44l-387 -620h263l-10 -50h-327zM295 807q-30 0 -30 33q0 20 11 38t32 18q30 0 30 -33q0 -21 -11.5 -38.5t-31.5 -17.5z" />
    <glyph glyph-name="zdotaccent" unicode="&#x17c;" horiz-adv-x="312" 
d="M-28 0l7 38l284 448h-175l9 45h235l-8 -40l-282 -445h194l-9 -46h-255zM236 637q-30 0 -30 33q0 20 11 38t32 18q30 0 30 -33q0 -21 -11.5 -38.5t-31.5 -17.5z" />
    <glyph glyph-name="Zcaron" unicode="&#x17d;" horiz-adv-x="384" 
d="M-32 0l9 43l387 621h-245l11 50h308l-9 -44l-387 -620h263l-10 -50h-327zM267 776q-6 20 -17 49t-23.5 56.5t-22.5 44.5l1 10h30q15 -20 32 -48.5t32 -59.5q26 28 54 57t56 51h31l-1 -10q-18 -18 -42 -44.5t-46.5 -55t-35.5 -50.5h-48z" />
    <glyph glyph-name="zcaron" unicode="&#x17e;" horiz-adv-x="312" 
d="M-28 0l7 38l284 448h-175l9 45h235l-8 -40l-282 -445h194l-9 -46h-255zM201 606q-6 20 -17 49t-23.5 56.5t-22.5 44.5l1 10h30q15 -20 32 -48.5t32 -59.5q26 28 54 57t56 51h31l-1 -10q-18 -18 -42 -44.5t-46.5 -55t-35.5 -50.5h-48z" />
    <glyph glyph-name="longs" unicode="&#x17f;" horiz-adv-x="203" 
d="M-88 -240q-29 0 -48 8v48q19 -8 44 -8q37 0 54.5 29t28.5 84l147 690q16 74 47 114t92 40q19 0 37.5 -4.5t29.5 -9.5l-18 -44q-10 5 -22.5 8t-25.5 3q-40 0 -58.5 -32t-29.5 -84l-147 -686q-10 -46 -25 -81t-40.5 -55t-65.5 -20z" />
    <glyph glyph-name="florin" unicode="&#x192;" horiz-adv-x="421" 
d="M19 -240q-17 0 -29 2.5t-22 6.5v48q11 -5 23.5 -7.5t25.5 -2.5q34 0 51.5 28t29.5 82l105 495h-80l7 31l83 16l23 106q18 85 50 121.5t91 36.5q18 0 36 -4.5t32 -10.5l-19 -44q-11 5 -23.5 8.5t-26.5 3.5q-38 0 -57 -29t-31 -88l-22 -101h95l-10 -46h-94l-107 -497
q-16 -75 -44.5 -115t-86.5 -40z" />
    <glyph glyph-name="Aringacute" unicode="&#x1fa;" horiz-adv-x="422" 
d="M269 813v8q31 31 62 69t51 69h66v-8q-16 -19 -40.5 -45t-52 -51t-51.5 -42h-35zM-62 0l293 616q-42 21 -42 75q0 43 26.5 69.5t71.5 26.5q43 0 69.5 -26.5t27.5 -67.5q0 -34 -17 -56.5t-45 -30.5l39 -606h-55l-15 238h-181l-113 -238h-59zM286 632q27 0 43.5 16.5
t16.5 42.5t-16 43.5t-44 17.5q-27 0 -43 -17.5t-16 -43.5t15 -42.5t44 -16.5zM132 288h158l-11 225q-1 20 -2.5 40.5t-1.5 37.5h-6q-6 -17 -14.5 -37t-18.5 -41z" />
    <glyph glyph-name="aringacute" unicode="&#x1fb;" horiz-adv-x="449" 
d="M288 810v8q26 28 55 63t51 72h73v-8q-15 -18 -38.5 -42t-52 -48.5t-55.5 -44.5h-33zM296 582q-43 0 -70 25.5t-27 69.5q0 43 26.5 69t70.5 26q43 0 70.5 -26t27.5 -67q0 -45 -27 -71t-71 -26zM297 617q26 0 43 16.5t17 43.5t-17 44t-43 17q-28 0 -44 -17t-16 -44
q0 -60 60 -60zM150 -10q-57 0 -86.5 39.5t-29.5 113.5q0 48 9 102.5t27.5 106.5t46 95t64.5 68.5t84 25.5q41 0 66 -23.5t36 -61.5h3l22 75h44l-113 -531h-43l13 89h-3q-28 -43 -64 -71t-76 -28zM160 38q38 0 69.5 28.5t55 75t37.5 100.5q22 84 22 151q0 47 -21 73.5
t-57 26.5q-42 0 -74.5 -33.5t-55.5 -87t-35 -115t-12 -116.5q0 -51 16.5 -77t54.5 -26z" />
    <glyph glyph-name="AEacute" unicode="&#x1fc;" horiz-adv-x="600" 
d="M-65 0l370 714h338l-10 -50h-224l-57 -265h211l-11 -49h-210l-64 -300h224l-10 -50h-279l54 254h-143l-129 -254h-60zM150 304h128l76 360h-21zM365 789v9q34 35 67 77t52 74h63l-1 -8q-15 -20 -41 -49t-55 -57t-52 -46h-33z" />
    <glyph glyph-name="aeacute" unicode="&#x1fd;" horiz-adv-x="661" 
d="M143 -10q-52 0 -81 41t-29 118q0 66 15.5 135t45 127.5t71.5 94t95 35.5q43 0 66 -26.5t31 -64.5h3l22 81h39l-18 -83q25 40 60.5 66.5t80.5 26.5t73.5 -26.5t28.5 -78.5q0 -83 -68 -137t-199 -54h-13q-3 -17 -5 -37t-2 -41q0 -64 25 -97.5t79 -33.5q29 0 56 9t53 23
l-3 -49q-25 -13 -53 -21t-62 -8q-50 0 -82 25t-43 76l-19 -91h-39l16 92h-3q-26 -45 -60 -73.5t-81 -28.5zM374 290h11q103 0 156 40t53 102q0 29 -15 46t-44 17q-35 0 -66.5 -26.5t-56 -72.5t-38.5 -106zM160 37q37 0 66.5 28t51 74.5t34.5 101.5q10 43 16 81.5t6 71.5
q0 46 -18 73t-51 27q-40 0 -72.5 -32t-56 -83.5t-36 -111.5t-12.5 -115q0 -58 19 -86.5t53 -28.5zM354 604v9q34 35 67 77t52 74h63l-1 -8q-15 -20 -41 -49t-55 -57t-52 -46h-33z" />
    <glyph glyph-name="Oslashacute" unicode="&#x1fe;" horiz-adv-x="546" 
d="M35 -41l-34 23l71 104q-24 51 -24 131q0 63 12 132.5t35.5 136t59.5 120.5t84.5 86t109.5 32q84 0 126 -58l61 87l34 -23l-71 -102q23 -48 23 -122q0 -57 -10.5 -126t-33 -137.5t-57.5 -126t-84 -92t-113 -34.5q-84 0 -127 58zM114 147l328 470q-30 58 -97 58
q-50 0 -88.5 -31t-67 -81.5t-47 -110.5t-27.5 -119t-10 -106q0 -47 9 -80zM227 40q48 0 86 30.5t66.5 81t47 111t28 121.5t9.5 112q1 39 -8 69l-326 -468q28 -57 97 -57zM336 788v9q34 35 67 77t52 74h63l-1 -8q-15 -20 -41 -49t-55 -57t-52 -46h-33z" />
    <glyph glyph-name="oslashacute" unicode="&#x1ff;" horiz-adv-x="439" 
d="M32 -53l-33 22l57 86q-10 20 -16 46t-6 59q0 43 8.5 94t26.5 101.5t45.5 92.5t65.5 67.5t88 25.5q57 0 90 -36l49 74l33 -22l-57 -84q20 -40 20 -101q0 -46 -9 -98.5t-26.5 -102.5t-45 -91t-65 -65.5t-85.5 -24.5q-54 0 -90 33zM95 110l234 352q-22 33 -65 33
q-42 0 -74.5 -32t-55 -82.5t-34.5 -107.5t-13 -106q0 -35 8 -57zM176 36q41 0 73 30t54 79t34 105.5t13 109.5q0 34 -6 56l-233 -349q23 -31 65 -31zM245 604v9q34 35 67 77t52 74h63l-1 -8q-15 -20 -41 -49t-55 -57t-52 -46h-33z" />
    <glyph glyph-name="uni0218" unicode="&#x218;" horiz-adv-x="401" 
d="M129 -10q-47 0 -81.5 9t-59.5 22l3 57q27 -16 62 -26.5t77 -10.5q64 0 109 37.5t45 111.5q0 46 -23 79t-74 78q-43 38 -71.5 78t-28.5 103q0 64 26.5 107.5t72.5 66t102 22.5q43 0 78.5 -10.5t60.5 -25.5l-25 -49q-24 14 -53 24t-63 10q-58 0 -100 -35t-42 -105
q0 -33 11 -58t32 -48t51 -50q46 -40 74.5 -80.5t28.5 -102.5q0 -97 -59 -150.5t-153 -53.5zM49 -221v13q13 16 29 42t29.5 54t21.5 51h51v-10q-7 -21 -24 -49t-38 -55t-40 -46h-29z" />
    <glyph glyph-name="uni0219" unicode="&#x219;" horiz-adv-x="335" 
d="M109 -10q-38 0 -68 8t-48 19v55q19 -14 49.5 -24.5t63.5 -10.5q55 0 82 27.5t27 76.5q0 35 -17.5 58.5t-55.5 57.5q-36 31 -58.5 63t-22.5 79q0 62 41.5 102t110.5 40q40 0 70.5 -9.5t52.5 -22.5l-23 -44q-19 12 -44 21t-56 9q-44 0 -70.5 -24.5t-26.5 -65.5
q0 -33 16 -56.5t50 -53.5q27 -25 46.5 -46t30.5 -45t11 -59q0 -72 -42 -113.5t-119 -41.5zM15 -221v13q13 16 29 42t29.5 54t21.5 51h51v-10q-7 -21 -24 -49t-38 -55t-40 -46h-29z" />
    <glyph glyph-name="circumflex" unicode="&#x2c6;" horiz-adv-x="315" 
d="M113 606l1 9q31 31 67 73t58 78h47q6 -20 17 -49t23.5 -56.5t22.5 -45.5l-1 -9h-30q-34 45 -64 107q-25 -29 -53 -57t-56 -50h-32z" />
    <glyph glyph-name="caron" unicode="&#x2c7;" horiz-adv-x="316" 
d="M208 606q-6 20 -17 49t-23.5 56.5t-22.5 44.5l1 10h30q15 -20 32 -48.5t32 -59.5q26 28 54 57t56 51h31l-1 -10q-18 -18 -42 -44.5t-46.5 -55t-35.5 -50.5h-48z" />
    <glyph glyph-name="macron" unicode="&#x2c9;" horiz-adv-x="316" 
d="M114 611l8 44h236l-10 -44h-234z" />
    <glyph glyph-name="breve" unicode="&#x2d8;" horiz-adv-x="306" 
d="M237 607q-52 0 -76.5 26.5t-24.5 68.5q0 8 0.5 14t1.5 10h36q-1 -35 13 -55t52 -20t58.5 18t29.5 57h37q-11 -59 -42 -89t-85 -30z" />
    <glyph glyph-name="dotaccent" unicode="&#x2d9;" horiz-adv-x="152" 
d="M158 637q-30 0 -30 33q0 20 11 38t32 18q30 0 30 -33q0 -21 -11.5 -38.5t-31.5 -17.5z" />
    <glyph glyph-name="ring" unicode="&#x2da;" horiz-adv-x="279" 
d="M233 610q-44 0 -70.5 26t-26.5 70q0 42 27 68.5t70 26.5q44 0 70.5 -26.5t26.5 -67.5q0 -43 -27 -70t-70 -27zM233 645q28 0 44.5 17t16.5 44q0 26 -16.5 43t-44.5 17t-44 -17t-16 -43q0 -27 15.5 -44t44.5 -17z" />
    <glyph glyph-name="ogonek" unicode="&#x2db;" horiz-adv-x="217" 
d="M29 -219q-35 0 -54.5 19.5t-19.5 50.5q0 43 26.5 78t79.5 73l39 -2q-46 -38 -71.5 -70t-24.5 -69q0 -39 39 -39q10 0 19.5 2t18.5 4l-5 -39q-21 -8 -47 -8z" />
    <glyph glyph-name="tilde" unicode="&#x2dc;" horiz-adv-x="359" 
d="M114 610q21 110 94 110q21 0 36.5 -9.5t28.5 -22t25.5 -22t26.5 -9.5q19 0 31.5 14t21.5 50h37q-11 -57 -34 -83.5t-58 -26.5q-20 0 -35.5 9.5t-28.5 22t-26 22t-28 9.5q-21 0 -33.5 -15.5t-20.5 -48.5h-37z" />
    <glyph glyph-name="hungarumlaut" unicode="&#x2dd;" horiz-adv-x="373" 
d="M262 606v9q34 37 67 79t50 72h59v-8q-14 -21 -40 -49.5t-55 -56.5t-53 -46h-28zM114 606v9q35 37 67.5 79t50.5 72h58v-8q-14 -21 -40 -49.5t-55 -56t-53 -46.5h-28z" />
    <glyph glyph-name="tonos" unicode="&#x384;" horiz-adv-x="525" 
d="M269 606l1 10q13 22 29.5 54t31.5 64.5t24 56.5h59l-2 -10q-7 -14 -21 -37.5t-31 -50t-32.5 -50t-26.5 -37.5h-32z" />
    <glyph glyph-name="dieresistonos" unicode="&#x385;" horiz-adv-x="484" 
d="M267 677v9q11 20 24.5 47.5t26 56t18.5 48.5h54v-10q-9 -19 -26 -48t-36 -57.5t-34 -45.5h-27zM194 639q-27 0 -27 31q0 18 10 35t29 17q26 0 26 -30q0 -20 -10.5 -36.5t-27.5 -16.5zM377 639q-27 0 -27 31q0 18 10 35t29 17q27 0 27 -30q0 -20 -11 -36.5t-28 -16.5z" />
    <glyph glyph-name="Alphatonos" unicode="&#x386;" horiz-adv-x="423" 
d="M-62 0l329 716h65l29 -716h-55l-9 253h-185l-114 -253h-60zM134 303h161l-6 259q-1 24 -1.5 48.5t-0.5 44.5h-2q-8 -20 -17.5 -43.5t-21.5 -50.5zM45 529l1 10q13 22 29.5 54t31.5 64.5t24 56.5h59l-2 -10q-7 -14 -21 -37.5t-31 -50t-32.5 -50t-26.5 -37.5h-32z" />
    <glyph glyph-name="anoteleia" unicode="&#x387;" horiz-adv-x="204" 
d="M106 302q-33 0 -33 34q0 23 12.5 42.5t36.5 19.5q31 0 31 -35q0 -23 -12.5 -42t-34.5 -19z" />
    <glyph glyph-name="Epsilontonos" unicode="&#x388;" horiz-adv-x="475" 
d="M85 0l152 714h277l-10 -50h-223l-56 -265h208l-10 -49h-209l-64 -300h223l-10 -50h-278zM41 529l1 10q13 22 29.5 54t31.5 64.5t24 56.5h59l-2 -10q-7 -14 -21 -37.5t-31 -50t-32.5 -50t-26.5 -37.5h-32z" />
    <glyph glyph-name="Etatonos" unicode="&#x389;" horiz-adv-x="596" 
d="M83 0l152 714h54l-66 -315h264l67 315h55l-152 -714h-54l73 349h-264l-74 -349h-55zM40 529l1 10q13 22 29.5 54t31.5 64.5t24 56.5h59l-2 -10q-7 -14 -21 -37.5t-31 -50t-32.5 -50t-26.5 -37.5h-32z" />
    <glyph glyph-name="Iotatonos" unicode="&#x38a;" horiz-adv-x="358" 
d="M78 0l7 33l71 10l133 628l-66 10l6 33h192l-7 -33l-71 -10l-133 -628l66 -10l-6 -33h-192zM40 529l1 10q13 22 29.5 54t31.5 64.5t24 56.5h59l-2 -10q-7 -14 -21 -37.5t-31 -50t-32.5 -50t-26.5 -37.5h-32z" />
    <glyph glyph-name="Omicrontonos" unicode="&#x38c;" horiz-adv-x="578" 
d="M258 -10q-89 0 -132.5 59t-43.5 168q0 63 12 132.5t35.5 136t59.5 120.5t84.5 86t109.5 32q83 0 128 -54t45 -164q0 -57 -10.5 -126t-33 -137.5t-57.5 -126t-84 -92t-113 -34.5zM261 40q49 0 87.5 31.5t67 83.5t47 114t27.5 124t9 113q0 169 -120 169q-50 0 -89.5 -32
t-68 -83.5t-47 -113t-27.5 -122t-9 -107.5q0 -177 123 -177zM40 529l1 10q13 22 29.5 54t31.5 64.5t24 56.5h59l-2 -10q-7 -14 -21 -37.5t-31 -50t-32.5 -50t-26.5 -37.5h-32z" />
    <glyph glyph-name="Upsilontonos" unicode="&#x38e;" horiz-adv-x="495" 
d="M216 0l58 274l-67 440h55l52 -370l208 370h60l-253 -439l-58 -275h-55zM31 529l1 10q13 22 29.5 54t31.5 64.5t24 56.5h59l-2 -10q-7 -14 -21 -37.5t-31 -50t-32.5 -50t-26.5 -37.5h-32z" />
    <glyph glyph-name="Omegatonos" unicode="&#x38f;" horiz-adv-x="598" 
d="M41 529l1 10q13 22 29.5 54t31.5 64.5t24 56.5h59l-2 -10q-7 -14 -21 -37.5t-31 -50t-32.5 -50t-26.5 -37.5h-32zM11 0l10 50h144q-31 34 -51.5 92t-20.5 134q0 60 11.5 122.5t35.5 121t59.5 104.5t83.5 73t108 27q91 0 136 -56t45 -155t-26 -189t-72 -160.5t-107 -113.5
h146l-11 -50h-209l9 46q64 42 112 114.5t74.5 162t26.5 185.5q0 81 -32 124t-96 43q-50 0 -88.5 -26.5t-67 -70.5t-47 -97.5t-27.5 -108.5t-9 -103q0 -74 18.5 -128.5t53.5 -94.5l-10 -46h-199z" />
    <glyph glyph-name="iotadieresistonos" unicode="&#x390;" horiz-adv-x="233" 
d="M108 -10q-38 0 -59 20t-21 60q0 12 2.5 27.5t6.5 34.5l85 399h54l-86 -401q-4 -16 -6 -28t-2 -23q0 -42 38 -42q12 0 23.5 2.5t23.5 6.5v-44q-26 -12 -59 -12zM153 677v9q11 20 24.5 47.5t26 56t18.5 48.5h54v-10q-9 -19 -26 -48t-36 -57.5t-34 -45.5h-27zM80 639
q-27 0 -27 31q0 18 10 35t29 17q26 0 26 -30q0 -20 -10.5 -36.5t-27.5 -16.5zM263 639q-27 0 -27 31q0 18 10 35t29 17q27 0 27 -30q0 -20 -11 -36.5t-28 -16.5z" />
    <glyph glyph-name="Alpha" unicode="&#x391;" horiz-adv-x="422" 
d="M-63 0l329 716h65l29 -716h-55l-9 253h-185l-114 -253h-60zM133 303h161l-6 259q-1 24 -1.5 48.5t-0.5 44.5h-2q-8 -20 -17.5 -43.5t-21.5 -50.5z" />
    <glyph glyph-name="Beta" unicode="&#x392;" horiz-adv-x="461" 
d="M15 0l151 714h133q77 0 119.5 -36t42.5 -104q0 -70 -36.5 -127t-110.5 -73v-2q43 -11 67.5 -47t24.5 -89q0 -69 -28 -122.5t-80.5 -83.5t-127.5 -30h-155zM154 398h85q53 0 90 23t55.5 61t18.5 85q0 48 -27.5 73t-86.5 25h-79zM80 49h92q60 0 99 25t58.5 67t19.5 94
q0 59 -32 87.5t-89 28.5h-84z" />
    <glyph glyph-name="Gamma" unicode="&#x393;" horiz-adv-x="351" 
d="M14 0l152 714h265l-10 -50h-211l-141 -664h-55z" />
    <glyph glyph-name="Epsilon" unicode="&#x395;" horiz-adv-x="404" 
d="M14 0l152 714h277l-10 -50h-223l-56 -265h208l-10 -49h-209l-64 -300h223l-10 -50h-278z" />
    <glyph glyph-name="Zeta" unicode="&#x396;" horiz-adv-x="384" 
d="M-32 0l9 43l387 621h-245l11 50h308l-9 -44l-387 -620h263l-10 -50h-327z" />
    <glyph glyph-name="Eta" unicode="&#x397;" horiz-adv-x="527" 
d="M14 0l152 714h54l-66 -315h264l67 315h55l-152 -714h-54l73 349h-264l-74 -349h-55z" />
    <glyph glyph-name="Theta" unicode="&#x398;" horiz-adv-x="557" 
d="M225 -10q-90 0 -133.5 59t-43.5 168q0 59 11.5 128t35 136t60 122t85.5 88t112 33q82 0 128 -53.5t46 -164.5q0 -61 -11 -131.5t-34.5 -138.5t-59 -123.5t-84.5 -89t-112 -33.5zM229 40q50 0 89 32t67.5 84.5t47.5 115t28 124t9 110.5q0 169 -122 169q-51 0 -90.5 -32
t-68.5 -84t-48 -113t-28 -121t-9 -107q0 -178 125 -178zM199 343l10 49h167l-11 -49h-166z" />
    <glyph glyph-name="Iota" unicode="&#x399;" horiz-adv-x="239" 
d="M-40 0l7 33l71 10l133 628l-66 10l6 33h192l-7 -33l-71 -10l-133 -628l66 -10l-6 -33h-192z" />
    <glyph glyph-name="Kappa" unicode="&#x39a;" horiz-adv-x="429" 
d="M14 0l152 714h54l-79 -373l61 81l243 292h63l-258 -316l116 -398h-59l-102 357l-77 -77l-59 -280h-55z" />
    <glyph glyph-name="Lambda" unicode="&#x39b;" horiz-adv-x="421" 
d="M-64 0l334 715h63l31 -715h-55l-19 530q-2 28 -2.5 58t0.5 59q-11 -30 -25.5 -62.5t-31.5 -72.5l-236 -512h-59z" />
    <glyph glyph-name="Mu" unicode="&#x39c;" horiz-adv-x="679" 
d="M14 0l152 714h77l48 -631h3l314 631h83l-151 -714h-54l111 524q12 54 25 106h-2l-316 -630h-56l-49 630h-2q-5 -29 -10 -55.5t-10 -55.5l-110 -519h-53z" />
    <glyph glyph-name="Nu" unicode="&#x39d;" horiz-adv-x="548" 
d="M14 0l152 714h61l151 -616h2q8 42 16 86t15 75l97 455h53l-152 -714h-60l-151 622h-3q-5 -38 -14.5 -84t-17.5 -85l-96 -453h-53z" />
    <glyph glyph-name="Xi" unicode="&#x39e;" horiz-adv-x="400" 
d="M135 664l11 50h297l-10 -50h-298zM92 350l10 49h250l-11 -49h-249zM-14 0l11 50h311l-11 -50h-311z" />
    <glyph glyph-name="Omicron" unicode="&#x39f;" horiz-adv-x="545" 
d="M224 -10q-89 0 -132.5 59t-43.5 168q0 63 12 132.5t35.5 136t59.5 120.5t84.5 86t109.5 32q83 0 128 -54t45 -164q0 -57 -10.5 -126t-33 -137.5t-57.5 -126t-84 -92t-113 -34.5zM227 40q49 0 87.5 31.5t67 83.5t47 114t27.5 124t9 113q0 169 -120 169q-50 0 -89.5 -32
t-68 -83.5t-47 -113t-27.5 -122t-9 -107.5q0 -177 123 -177z" />
    <glyph glyph-name="Pi" unicode="&#x3a0;" horiz-adv-x="520" 
d="M14 0l152 714h369l-151 -714h-55l141 664h-260l-141 -664h-55z" />
    <glyph glyph-name="Rho" unicode="&#x3a1;" horiz-adv-x="433" 
d="M15 0l151 714h108q86 0 128.5 -42.5t42.5 -117.5q0 -77 -29 -136t-85 -92.5t-137 -33.5h-63l-62 -292h-54zM141 341h55q97 0 144.5 58.5t47.5 150.5q0 115 -122 115h-56z" />
    <glyph glyph-name="Sigma" unicode="&#x3a3;" horiz-adv-x="394" 
d="M-31 0l9 45l242 326l-104 297l9 46h313l-10 -50h-254l105 -297l-236 -317h271l-10 -50h-335z" />
    <glyph glyph-name="Tau" unicode="&#x3a4;" horiz-adv-x="371" 
d="M94 0l142 664h-151l11 50h356l-11 -50h-151l-141 -664h-55z" />
    <glyph glyph-name="Upsilon" unicode="&#x3a5;" horiz-adv-x="375" 
d="M96 0l58 274l-67 440h55l52 -370l208 370h60l-253 -439l-58 -275h-55z" />
    <glyph glyph-name="Phi" unicode="&#x3a6;" horiz-adv-x="596" 
d="M201 -10l24 110q-79 8 -126 57t-47 145q0 99 34.5 173.5t98.5 116.5t154 44l18 88h54l-18 -88q78 -6 126 -53.5t48 -141.5q0 -98 -34.5 -174.5t-99.5 -120.5t-154 -46l-24 -110h-54zM235 149l94 439q-58 -2 -99.5 -26.5t-68.5 -65.5t-40 -91t-13 -102q0 -76 35 -112.5
t92 -41.5zM289 148q71 2 121 43t75.5 106t25.5 142q0 75 -35 110.5t-93 38.5z" />
    <glyph glyph-name="Chi" unicode="&#x3a7;" horiz-adv-x="388" 
d="M-58 0l241 377l-70 337h56l55 -290l179 290h59l-217 -345l72 -369h-57l-57 320l-202 -320h-59z" />
    <glyph glyph-name="Psi" unicode="&#x3a8;" horiz-adv-x="584" 
d="M199 0l46 220h-2q-70 2 -115 39t-45 118q0 25 3.5 53.5t10.5 61.5l47 222h55l-48 -224q-7 -34 -10.5 -61t-3.5 -48q0 -64 34 -87.5t81 -23.5h4l94 444h54l-94 -445h3q61 1 98 25t58 68t33 104l52 248h56l-54 -257q-16 -71 -44 -124.5t-78 -83t-130 -29.5h-4l-46 -220h-55
z" />
    <glyph glyph-name="Iotadieresis" unicode="&#x3aa;" horiz-adv-x="239" 
d="M-40 0l7 33l71 10l133 628l-66 10l6 33h192l-7 -33l-71 -10l-133 -628l66 -10l-6 -33h-192zM303 825q-28 0 -28 30q0 19 10 36t30 17q27 0 27 -30q0 -20 -11 -36.5t-28 -16.5zM153 825q-28 0 -28 30q0 19 10 36t30 17q27 0 27 -30q0 -20 -11 -36.5t-28 -16.5z" />
    <glyph glyph-name="Upsilondieresis" unicode="&#x3ab;" horiz-adv-x="375" 
d="M96 0l58 274l-67 440h55l52 -370l208 370h60l-253 -439l-58 -275h-55zM358 809q-28 0 -28 30q0 19 10 36t30 17q27 0 27 -30q0 -20 -11 -36.5t-28 -16.5zM208 809q-28 0 -28 30q0 19 10 36t30 17q27 0 27 -30q0 -20 -11 -36.5t-28 -16.5z" />
    <glyph glyph-name="alphatonos" unicode="&#x3ac;" horiz-adv-x="455" 
d="M149 -10q-53 0 -83.5 41.5t-30.5 118.5q0 51 9.5 105.5t28.5 105.5t46.5 91.5t63.5 64.5t80 24q46 0 72.5 -26.5t35.5 -67.5h2q7 21 18 45t22 39h44q-32 -59 -58 -182l-43 -200q-5 -25 -8 -44t-3 -35q0 -33 27 -33q12 0 27 5v-42q-17 -10 -41 -10q-42 0 -55.5 28t-6.5 72
h-3q-26 -43 -60.5 -71.5t-83.5 -28.5zM164 37q38 0 69 29t53 75t35 97q11 44 17 83.5t6 71.5q0 48 -20.5 74.5t-57.5 26.5q-34 0 -62 -22.5t-49 -60t-35.5 -83t-22 -91t-7.5 -84.5q0 -116 74 -116zM262 606l1 10q13 22 29.5 54t31.5 64.5t24 56.5h59l-2 -10
q-7 -14 -21 -37.5t-31 -50t-32.5 -50t-26.5 -37.5h-32z" />
    <glyph glyph-name="epsilontonos" unicode="&#x3ad;" horiz-adv-x="334" 
d="M144 -10q-68 0 -101 35.5t-33 92.5q0 69 35 112.5t92 53.5l1 3q-26 12 -40.5 38.5t-14.5 60.5q0 69 44.5 112t114.5 43q34 0 61 -8t49 -22l-25 -42q-16 11 -37.5 18t-47.5 7q-48 0 -77.5 -29.5t-29.5 -80.5q0 -38 19.5 -59.5t62.5 -21.5h33l-10 -45h-39q-68 0 -102.5 -39
t-34.5 -94q0 -42 22 -65t67 -23q30 0 55.5 7.5t51.5 21.5v-48q-21 -11 -51 -19.5t-65 -8.5zM222 606l1 10q13 22 29.5 54t31.5 64.5t24 56.5h59l-2 -10q-7 -14 -21 -37.5t-31 -50t-32.5 -50t-26.5 -37.5h-32z" />
    <glyph glyph-name="etatonos" unicode="&#x3ae;" horiz-adv-x="440" 
d="M210 -240l123 577q5 25 9.5 49t4.5 44q0 63 -64 63q-55 0 -96.5 -56t-63.5 -160l-59 -277h-53l112 531h44l-14 -88h2q22 41 58.5 69.5t84.5 28.5q46 0 74.5 -25.5t28.5 -77.5q0 -21 -5 -49t-10 -53l-123 -576h-53zM268 606l1 10q13 22 29.5 54t31.5 64.5t24 56.5h59
l-2 -10q-7 -14 -21 -37.5t-31 -50t-32.5 -50t-26.5 -37.5h-32z" />
    <glyph glyph-name="iotatonos" unicode="&#x3af;" horiz-adv-x="229" 
d="M108 -10q-38 0 -59 20t-21 60q0 12 2.5 27.5t6.5 34.5l85 399h54l-86 -401q-4 -16 -6 -28t-2 -23q0 -42 38 -42q12 0 23.5 2.5t23.5 6.5v-44q-26 -12 -59 -12zM141 606l1 10q13 22 29.5 54t31.5 64.5t24 56.5h59l-2 -10q-7 -14 -21 -37.5t-31 -50t-32.5 -50t-26.5 -37.5
h-32z" />
    <glyph glyph-name="upsilondieresistonos" unicode="&#x3b0;" horiz-adv-x="440" 
d="M162 -10q-60 0 -92 33t-32 93q0 23 4.5 52t11.5 64l65 299h53l-65 -302q-7 -32 -11 -59.5t-4 -49.5q0 -41 20 -62t55 -21q45 0 77.5 33t53.5 87t33 119.5t17.5 132t5.5 122.5h52q0 -71 -7 -146.5t-22.5 -146t-43 -126.5t-70 -89t-101.5 -33zM264 677v9q11 20 24.5 47.5
t26 56t18.5 48.5h54v-10q-9 -19 -26 -48t-36 -57.5t-34 -45.5h-27zM191 639q-27 0 -27 31q0 18 10 35t29 17q26 0 26 -30q0 -20 -10.5 -36.5t-27.5 -16.5zM374 639q-27 0 -27 31q0 18 10 35t29 17q27 0 27 -30q0 -20 -11 -36.5t-28 -16.5z" />
    <glyph glyph-name="alpha" unicode="&#x3b1;" horiz-adv-x="455" 
d="M149 -10q-53 0 -83.5 41.5t-30.5 118.5q0 51 9.5 105.5t28.5 105.5t46.5 91.5t63.5 64.5t80 24q46 0 72.5 -26.5t35.5 -67.5h2q7 21 18 45t22 39h44q-32 -59 -58 -182l-43 -200q-5 -25 -8 -44t-3 -35q0 -33 27 -33q12 0 27 5v-42q-17 -10 -41 -10q-42 0 -55.5 28t-6.5 72
h-3q-26 -43 -60.5 -71.5t-83.5 -28.5zM164 37q38 0 69 29t53 75t35 97q11 44 17 83.5t6 71.5q0 48 -20.5 74.5t-57.5 26.5q-34 0 -62 -22.5t-49 -60t-35.5 -83t-22 -91t-7.5 -84.5q0 -116 74 -116z" />
    <glyph glyph-name="beta" unicode="&#x3b2;" horiz-adv-x="451" 
d="M-41 -239l174 817q13 57 34 99t57 65t93 23q61 0 98 -37t37 -104q0 -56 -17 -103.5t-50 -79t-83 -41.5q43 -10 70 -51t27 -102q0 -47 -12.5 -93t-38 -83t-64.5 -59t-92 -22q-38 0 -69.5 13t-51.5 30l-60 -272h-52zM189 38q55 0 89 31.5t50.5 79t16.5 96.5
q0 62 -28.5 96.5t-80.5 34.5h-24l11 47h22q51 0 84.5 28.5t50 73.5t16.5 95q0 46 -22 72t-64 26q-54 0 -82 -37.5t-42 -103.5l-105 -496q19 -19 48 -31t60 -12z" />
    <glyph glyph-name="gamma" unicode="&#x3b3;" horiz-adv-x="343" 
d="M4 -240q11 59 32 120t46 119l-26 532h53l14 -331q1 -28 1.5 -62.5t-0.5 -65.5h2q14 35 28.5 71t32.5 75l144 313h57l-233 -496q-37 -79 -61 -149.5t-36 -125.5h-54z" />
    <glyph glyph-name="delta" unicode="&#x3b4;" horiz-adv-x="445" 
d="M179 -10q-70 0 -110 44t-40 120q0 108 58.5 189t161.5 120q-29 35 -48 70.5t-19 81.5q0 67 43 107t115 40q44 0 76.5 -12.5t53.5 -27.5l-27 -42q-21 14 -46.5 24.5t-59.5 10.5q-48 0 -75 -26t-27 -72q0 -41 20.5 -72t52.5 -69q40 -49 62 -99.5t22 -118.5
q0 -70 -23.5 -131t-71 -99t-118.5 -38zM184 37q40 0 69 20.5t47.5 53.5t27.5 71.5t9 74.5q0 55 -16 97.5t-46 77.5q-86 -34 -138.5 -107t-52.5 -167q0 -58 27 -89.5t73 -31.5z" />
    <glyph glyph-name="epsilon" unicode="&#x3b5;" horiz-adv-x="334" 
d="M144 -10q-68 0 -101 35.5t-33 92.5q0 69 35 112.5t92 53.5l1 3q-26 12 -40.5 38.5t-14.5 60.5q0 69 44.5 112t114.5 43q34 0 61 -8t49 -22l-25 -42q-16 11 -37.5 18t-47.5 7q-48 0 -77.5 -29.5t-29.5 -80.5q0 -38 19.5 -59.5t62.5 -21.5h33l-10 -45h-39q-68 0 -102.5 -39
t-34.5 -94q0 -42 22 -65t67 -23q30 0 55.5 7.5t51.5 21.5v-48q-21 -11 -51 -19.5t-65 -8.5z" />
    <glyph glyph-name="zeta" unicode="&#x3b6;" horiz-adv-x="327" 
d="M100 -203q32 32 57.5 69t25.5 72q0 24 -16.5 40t-46.5 33q-46 26 -71 58.5t-25 95.5q0 90 41 181t112.5 183.5t163.5 186.5q-19 -2 -39 -2.5t-46 -0.5h-97l10 47h246l-9 -42q-89 -92 -163.5 -184.5t-119 -183t-44.5 -174.5q0 -49 21 -75.5t62 -51.5q34 -19 55.5 -41
t21.5 -59q0 -43 -24 -82t-55 -70h-60z" />
    <glyph glyph-name="eta" unicode="&#x3b7;" horiz-adv-x="440" 
d="M210 -240l123 577q5 25 9.5 49t4.5 44q0 63 -64 63q-55 0 -96.5 -56t-63.5 -160l-59 -277h-53l112 531h44l-14 -88h2q22 41 58.5 69.5t84.5 28.5q46 0 74.5 -25.5t28.5 -77.5q0 -21 -5 -49t-10 -53l-123 -576h-53z" />
    <glyph glyph-name="theta" unicode="&#x3b8;" horiz-adv-x="437" 
d="M162 -11q-62 0 -93.5 46t-31.5 144q0 46 7 105.5t21 123.5q16 74 39 139t53.5 115.5t69 79t86.5 28.5q60 0 91.5 -43t31.5 -139q0 -56 -11 -130.5t-30 -144.5q-23 -93 -56 -166.5t-77 -115.5t-100 -42zM121 415h243q9 52 14 97.5t5 79.5q0 70 -18.5 101t-55.5 31
q-43 0 -78 -40.5t-62.5 -110t-47.5 -158.5zM165 36q44 0 79.5 44t63 119t47.5 169h-244q-11 -58 -16.5 -107t-5.5 -83q0 -77 19.5 -109.5t56.5 -32.5z" />
    <glyph glyph-name="iota" unicode="&#x3b9;" horiz-adv-x="229" 
d="M108 -10q-38 0 -59 20t-21 60q0 12 2.5 27.5t6.5 34.5l85 399h54l-86 -401q-4 -16 -6 -28t-2 -23q0 -42 38 -42q12 0 23.5 2.5t23.5 6.5v-44q-26 -12 -59 -12z" />
    <glyph glyph-name="kappa" unicode="&#x3ba;" horiz-adv-x="367" 
d="M11 0l114 531h53l-34 -151q-7 -32 -14.5 -63t-15.5 -63h2l232 278h60l-181 -217l83 -315h-57l-70 273l-80 -86l-39 -187h-53z" />
    <glyph glyph-name="lambda" unicode="&#x3bb;" horiz-adv-x="367" 
d="M294 -10q-37 0 -53.5 23t-17.5 73l-7 266q-1 26 -1.5 49t0.5 49q-8 -20 -16.5 -40t-17.5 -39l-175 -371h-56l258 534l-2 115q-2 37 -12.5 53.5t-35.5 16.5q-18 0 -33 -5l-3 46q8 2 21 4t26 2q47 0 67 -28t22 -85l16 -558q1 -31 8 -44t23 -13q14 0 27 5v-46q-16 -7 -38 -7
z" />
    <glyph glyph-name="nu" unicode="&#x3bd;" horiz-adv-x="372" 
d="M78 0l-16 531h53l11 -362v-108q77 89 132.5 211t84.5 259h53q-30 -150 -93.5 -284t-167.5 -247h-57z" />
    <glyph glyph-name="xi" unicode="&#x3be;" horiz-adv-x="334" 
d="M100 -203q33 35 58 72t25 71q0 24 -15.5 39.5t-47.5 31.5q-47 25 -73 59t-26 99q0 59 20.5 108t59.5 82.5t92 44.5v2q-74 30 -74 113q0 46 19.5 86.5t53.5 69.5t79 42q-19 -2 -36 -3t-37 -1h-46l10 47h240l-10 -44h-14q-55 0 -101.5 -26.5t-75 -71t-28.5 -96.5
q0 -97 108 -97h34l-9 -47h-39q-57 0 -99.5 -25.5t-66.5 -71t-24 -105.5q0 -51 20 -76t63 -49q34 -18 56 -39.5t22 -61.5q0 -41 -23 -80t-55 -73h-60z" />
    <glyph glyph-name="omicron" unicode="&#x3bf;" horiz-adv-x="437" 
d="M172 -10q-65 0 -101.5 44t-36.5 126q0 44 8.5 95.5t26.5 101.5t46 92t66 67t87 25q64 0 99.5 -44t35.5 -126q0 -62 -14.5 -128.5t-43 -124t-72 -93t-101.5 -35.5zM176 38q42 0 74 31.5t54 82.5t33.5 109t11.5 112q0 55 -21.5 88t-64.5 33q-35 0 -62.5 -22t-48.5 -59
t-35.5 -81.5t-21.5 -89.5t-7 -83q0 -121 88 -121z" />
    <glyph glyph-name="pi" unicode="&#x3c0;" horiz-adv-x="451" 
d="M326 -6q-32 0 -51 17.5t-19 53.5q0 25 8 63l76 356h-159l-105 -484h-53l105 484h-80l6 27l59 20h365l-9 -47h-76l-77 -359q-6 -30 -6 -51q0 -33 32 -33q10 0 18.5 2.5t14.5 4.5v-45q-10 -4 -22.5 -6.5t-26.5 -2.5z" />
    <glyph glyph-name="rho" unicode="&#x3c1;" horiz-adv-x="444" 
d="M-39 -239l116 553q23 110 67 168.5t129 58.5q67 0 103 -44.5t36 -127.5q0 -43 -8.5 -94t-26 -101.5t-44.5 -92t-64.5 -66.5t-85.5 -25q-39 0 -67 14t-46 34q-3 -20 -7.5 -40t-8.5 -43l-40 -194h-53zM178 37q37 0 65.5 22t50 58t35.5 80t21 88.5t7 82.5q0 126 -89 126
q-58 0 -89 -48.5t-51 -145.5l-45 -216q14 -20 38.5 -33.5t56.5 -13.5z" />
    <glyph glyph-name="sigma1" unicode="&#x3c2;" horiz-adv-x="335" 
d="M110 -204q34 36 58 72t24 69q0 24 -15 40.5t-46 33.5q-47 27 -72.5 64.5t-25.5 111.5q0 58 15 120t45.5 115t75 86t103.5 33q54 0 92 -19l-19 -46q-15 8 -33.5 13t-39.5 5q-45 0 -79 -30.5t-57.5 -78.5t-35.5 -99.5t-12 -93.5q0 -57 20 -87t61 -54q34 -19 56 -42t22 -63
t-22.5 -78.5t-54.5 -71.5h-60z" />
    <glyph glyph-name="sigma" unicode="&#x3c3;" horiz-adv-x="445" 
d="M174 -10q-66 0 -102.5 45t-36.5 130q0 63 15 127.5t47 118.5t82 87t119 33h179l-10 -47h-95q8 -24 14.5 -55t6.5 -68q0 -59 -12 -124t-38.5 -121t-68 -91t-100.5 -35zM179 37q43 0 74 31.5t50 82t28 109.5t9 114q0 66 -14 110h-32q-53 0 -92 -28.5t-64 -75.5t-37 -103
t-12 -111q0 -129 90 -129z" />
    <glyph glyph-name="tau" unicode="&#x3c4;" horiz-adv-x="297" 
d="M157 -11q-43 0 -67.5 22t-24.5 68q0 14 2.5 34t8.5 44l70 327h-106l6 26l56 21h234l-10 -47h-127l-71 -332q-4 -20 -6.5 -35t-2.5 -29q0 -51 51 -51q14 0 26.5 2.5t24.5 6.5v-45q-13 -5 -30 -8.5t-34 -3.5z" />
    <glyph glyph-name="upsilon" unicode="&#x3c5;" horiz-adv-x="440" 
d="M162 -10q-60 0 -92 33t-32 93q0 23 4.5 52t11.5 64l65 299h53l-65 -302q-7 -32 -11 -59.5t-4 -49.5q0 -41 20 -62t55 -21q45 0 77.5 33t53.5 87t33 119.5t17.5 132t5.5 122.5h52q0 -71 -7 -146.5t-22.5 -146t-43 -126.5t-70 -89t-101.5 -33z" />
    <glyph glyph-name="phi" unicode="&#x3c6;" horiz-adv-x="540" 
d="M132 -239l48 229q-64 8 -104 56t-40 137q0 104 40 194.5t112 160.5l36 -31q-61 -61 -97.5 -141t-36.5 -182q0 -70 27.5 -105.5t72.5 -41.5l76 359q15 70 44.5 108.5t84.5 38.5q54 0 82 -40.5t28 -114.5q0 -65 -16 -134t-49 -128t-84.5 -96.5t-123.5 -40.5l-47 -228h-53z
M243 36q57 4 96.5 40t64 89.5t36 112t11.5 109.5q0 108 -59 108q-28 0 -45 -24t-29 -80z" />
    <glyph glyph-name="chi" unicode="&#x3c7;" horiz-adv-x="365" 
d="M-112 -240l241 411l-12 260q-1 31 -9 45t-26 14q-16 0 -28 -6l-1 46q19 7 44 7q37 0 53 -24.5t18 -68.5l8 -207l164 294h58l-215 -373l11 -284q2 -34 10.5 -50.5t28.5 -16.5q8 0 15.5 2t13.5 4v-45q-21 -8 -44 -8q-39 0 -55.5 26t-19.5 78l-7 229l-189 -333h-59z" />
    <glyph glyph-name="psi" unicode="&#x3c8;" horiz-adv-x="524" 
d="M126 -240l50 231q-67 6 -102.5 45.5t-35.5 108.5q0 26 4 54.5t10 60.5l59 271h53l-59 -274q-6 -29 -10.5 -56t-4.5 -53q0 -101 95 -110l154 724h52l-153 -723q51 1 86.5 32t59 82t37 115t19.5 132t7 131h53q-1 -73 -8.5 -149t-25 -145.5t-47.5 -124.5t-77 -88t-114 -34
l-50 -230h-52z" />
    <glyph glyph-name="omega" unicode="&#x3c9;" horiz-adv-x="527" 
d="M118 -10q-44 0 -69.5 34.5t-25.5 102.5q0 65 16 136t44.5 139.5t63.5 128.5h55q-36 -61 -64 -130.5t-44.5 -139t-16.5 -133.5q0 -49 14.5 -69t38.5 -20q35 0 56.5 38t37.5 121l29 137h53l-29 -135q-14 -69 -14 -101q0 -60 44 -60q29 0 51 25t38.5 66.5t27 91t15.5 99.5
t5 91q0 33 -2 64.5t-5 54.5h52q8 -48 8 -120q0 -47 -6 -103.5t-19.5 -112.5t-36 -102.5t-55 -74.5t-75.5 -28q-38 0 -58.5 22t-22.5 57q-16 -37 -41.5 -58t-64.5 -21z" />
    <glyph glyph-name="iotadieresis" unicode="&#x3ca;" horiz-adv-x="229" 
d="M108 -10q-38 0 -59 20t-21 60q0 12 2.5 27.5t6.5 34.5l85 399h54l-86 -401q-4 -16 -6 -28t-2 -23q0 -42 38 -42q12 0 23.5 2.5t23.5 6.5v-44q-26 -12 -59 -12zM242 639q-28 0 -28 30q0 19 10 36t30 17q27 0 27 -30q0 -20 -11 -36.5t-28 -16.5zM92 639q-28 0 -28 30
q0 19 10 36t30 17q27 0 27 -30q0 -20 -11 -36.5t-28 -16.5z" />
    <glyph glyph-name="upsilondieresis" unicode="&#x3cb;" horiz-adv-x="440" 
d="M162 -10q-60 0 -92 33t-32 93q0 23 4.5 52t11.5 64l65 299h53l-65 -302q-7 -32 -11 -59.5t-4 -49.5q0 -41 20 -62t55 -21q45 0 77.5 33t53.5 87t33 119.5t17.5 132t5.5 122.5h52q0 -71 -7 -146.5t-22.5 -146t-43 -126.5t-70 -89t-101.5 -33zM355 639q-28 0 -28 30
q0 19 10 36t30 17q27 0 27 -30q0 -20 -11 -36.5t-28 -16.5zM205 639q-28 0 -28 30q0 19 10 36t30 17q27 0 27 -30q0 -20 -11 -36.5t-28 -16.5z" />
    <glyph glyph-name="omicrontonos" unicode="&#x3cc;" horiz-adv-x="437" 
d="M172 -10q-65 0 -101.5 44t-36.5 126q0 44 8.5 95.5t26.5 101.5t46 92t66 67t87 25q64 0 99.5 -44t35.5 -126q0 -62 -14.5 -128.5t-43 -124t-72 -93t-101.5 -35.5zM176 38q42 0 74 31.5t54 82.5t33.5 109t11.5 112q0 55 -21.5 88t-64.5 33q-35 0 -62.5 -22t-48.5 -59
t-35.5 -81.5t-21.5 -89.5t-7 -83q0 -121 88 -121zM240 606l1 10q13 22 29.5 54t31.5 64.5t24 56.5h59l-2 -10q-7 -14 -21 -37.5t-31 -50t-32.5 -50t-26.5 -37.5h-32z" />
    <glyph glyph-name="upsilontonos" unicode="&#x3cd;" horiz-adv-x="440" 
d="M162 -10q-60 0 -92 33t-32 93q0 23 4.5 52t11.5 64l65 299h53l-65 -302q-7 -32 -11 -59.5t-4 -49.5q0 -41 20 -62t55 -21q45 0 77.5 33t53.5 87t33 119.5t17.5 132t5.5 122.5h52q0 -71 -7 -146.5t-22.5 -146t-43 -126.5t-70 -89t-101.5 -33zM249 606l1 10q13 22 29.5 54
t31.5 64.5t24 56.5h59l-2 -10q-7 -14 -21 -37.5t-31 -50t-32.5 -50t-26.5 -37.5h-32z" />
    <glyph glyph-name="omegatonos" unicode="&#x3ce;" horiz-adv-x="527" 
d="M118 -10q-44 0 -69.5 34.5t-25.5 102.5q0 65 16 136t44.5 139.5t63.5 128.5h55q-36 -61 -64 -130.5t-44.5 -139t-16.5 -133.5q0 -49 14.5 -69t38.5 -20q35 0 56.5 38t37.5 121l29 137h53l-29 -135q-14 -69 -14 -101q0 -60 44 -60q29 0 51 25t38.5 66.5t27 91t15.5 99.5
t5 91q0 33 -2 64.5t-5 54.5h52q8 -48 8 -120q0 -47 -6 -103.5t-19.5 -112.5t-36 -102.5t-55 -74.5t-75.5 -28q-38 0 -58.5 22t-22.5 57q-16 -37 -41.5 -58t-64.5 -21zM294 606l1 10q13 22 29.5 54t31.5 64.5t24 56.5h59l-2 -10q-7 -14 -21 -37.5t-31 -50t-32.5 -50
t-26.5 -37.5h-32z" />
    <glyph glyph-name="afii10023" unicode="&#x401;" horiz-adv-x="404" 
d="M14 0l152 714h277l-10 -50h-223l-56 -265h208l-10 -49h-209l-64 -300h223l-10 -50h-278zM392 809q-28 0 -28 30q0 19 10 36t30 17q27 0 27 -30q0 -20 -11 -36.5t-28 -16.5zM242 809q-28 0 -28 30q0 19 10 36t30 17q27 0 27 -30q0 -20 -11 -36.5t-28 -16.5z" />
    <glyph glyph-name="afii10051" unicode="&#x402;" horiz-adv-x="488" 
d="M258 -10q-18 0 -34.5 3t-27.5 8l7 49q22 -10 52 -10q46 0 66.5 31t29.5 75l24 109q2 14 4.5 28.5t2.5 28.5q0 33 -20 50t-68 17h-94l-81 -379h-54l141 664h-118l11 50h327l-11 -50h-154l-50 -235h91q69 0 101.5 -28t32.5 -82q0 -30 -8 -67l-24 -117q-14 -67 -47.5 -106
t-98.5 -39z" />
    <glyph glyph-name="afii10052" unicode="&#x403;" horiz-adv-x="351" 
d="M14 0l152 714h265l-10 -50h-211l-141 -664h-55zM247 789v9q34 35 67 77t52 74h63l-1 -8q-15 -20 -41 -49t-55 -57t-52 -46h-33z" />
    <glyph glyph-name="afii10053" unicode="&#x404;" horiz-adv-x="445" 
d="M232 -10q-91 0 -137 62.5t-46 183.5q0 63 13.5 131t40.5 132t66.5 115t92 81t117.5 30q38 0 67.5 -8.5t52.5 -24.5l-28 -46q-38 29 -92 29q-49 0 -90 -23t-72.5 -62.5t-54 -89t-35.5 -102.5h239l-10 -49h-240q-5 -29 -7.5 -57t-2.5 -54q0 -98 33 -148t102 -50
q28 0 55.5 6t54.5 17v-50q-27 -11 -57 -17t-62 -6z" />
    <glyph glyph-name="afii10054" unicode="&#x405;" horiz-adv-x="401" 
d="M129 -10q-47 0 -81.5 9t-59.5 22l3 57q27 -16 62 -26.5t77 -10.5q64 0 109 37.5t45 111.5q0 46 -23 79t-74 78q-43 38 -71.5 78t-28.5 103q0 64 26.5 107.5t72.5 66t102 22.5q43 0 78.5 -10.5t60.5 -25.5l-25 -49q-24 14 -53 24t-63 10q-58 0 -100 -35t-42 -105
q0 -33 11 -58t32 -48t51 -50q46 -40 74.5 -80.5t28.5 -102.5q0 -97 -59 -150.5t-153 -53.5z" />
    <glyph glyph-name="afii10055" unicode="&#x406;" horiz-adv-x="239" 
d="M-40 0l7 33l71 10l133 628l-66 10l6 33h192l-7 -33l-71 -10l-133 -628l66 -10l-6 -33h-192z" />
    <glyph glyph-name="afii10056" unicode="&#x407;" horiz-adv-x="239" 
d="M-40 0l7 33l71 10l133 628l-66 10l6 33h192l-7 -33l-71 -10l-133 -628l66 -10l-6 -33h-192zM303 825q-28 0 -28 30q0 19 10 36t30 17q27 0 27 -30q0 -20 -11 -36.5t-28 -16.5zM153 825q-28 0 -28 30q0 19 10 36t30 17q27 0 27 -30q0 -20 -11 -36.5t-28 -16.5z" />
    <glyph glyph-name="afii10057" unicode="&#x408;" horiz-adv-x="200" 
d="M-85 -182q-20 0 -37 3.5t-28 8.5l10 49q25 -11 54 -11q40 0 63 30t36 92l154 724h54l-155 -734q-18 -84 -54.5 -123t-96.5 -39z" />
    <glyph glyph-name="afii10058" unicode="&#x409;" horiz-adv-x="710" 
d="M-2 -7q-14 0 -25.5 2t-19.5 5v50q8 -3 18.5 -5.5t21.5 -2.5q34 0 56.5 28t47.5 95q17 44 37 106t42.5 135.5t46 152.5t45.5 155h236l-66 -314h47q88 0 130 -40t42 -115q0 -65 -24.5 -120.5t-76.5 -90t-134 -34.5h-123l140 663h-133q-19 -67 -40.5 -140t-43 -144
t-41.5 -131t-35 -100q-28 -77 -60 -116t-88 -39zM363 49h64q62 0 100.5 26.5t56 70.5t17.5 95q0 59 -32 85t-91 26h-50z" />
    <glyph glyph-name="afii10059" unicode="&#x40a;" horiz-adv-x="692" 
d="M15 0l151 714h54l-66 -313h214l67 313h54l-65 -313h38q88 0 132 -42t44 -118q0 -114 -63.5 -177.5t-172.5 -63.5h-117l73 351h-214l-75 -351h-54zM349 49h62q80 0 125 49.5t45 140.5q0 59 -32.5 85.5t-95.5 26.5h-39z" />
    <glyph glyph-name="afii10060" unicode="&#x40b;" horiz-adv-x="494" 
d="M67 0l141 664h-118l10 50h328l-11 -50h-155l-50 -235h92q68 0 100 -28.5t32 -81.5q0 -17 -2.5 -34t-5.5 -34l-54 -251h-54l54 254q4 15 5.5 30t1.5 28q0 34 -20.5 50.5t-66.5 16.5h-92l-81 -379h-54z" />
    <glyph glyph-name="afii10061" unicode="&#x40c;" horiz-adv-x="420" 
d="M15 0l151 714h54l-73 -345l289 345h64l-297 -350l159 -364h-60l-156 363l-77 -363h-54zM278 789v9q34 35 67 77t52 74h63l-1 -8q-15 -20 -41 -49t-55 -57t-52 -46h-33z" />
    <glyph glyph-name="afii10062" unicode="&#x40e;" horiz-adv-x="384" 
d="M19 -9q-17 0 -31 3.5t-23 7.5v51q21 -12 51 -12q26 0 46.5 14t42.5 49.5t53 100.5l-69 509h55l44 -344q4 -26 7 -54t4 -49q9 22 20.5 47.5t23.5 49.5l177 350h59l-290 -567q-40 -79 -77.5 -117.5t-92.5 -38.5zM298 789q-56 0 -85 27t-29 75q0 8 0.5 17.5t2.5 17.5h47
q-1 -8 -2.5 -16.5t-1.5 -16.5q0 -64 71 -64q44 0 67.5 25.5t32.5 71.5h49q-13 -67 -50 -102t-102 -35z" />
    <glyph glyph-name="afii10145" unicode="&#x40f;" horiz-adv-x="520" 
d="M136 -180l38 180h-159l152 714h55l-142 -664h259l142 664h54l-152 -714h-155l-38 -180h-54z" />
    <glyph glyph-name="afii10017" unicode="&#x410;" horiz-adv-x="422" 
d="M-63 0l329 716h65l29 -716h-55l-9 253h-185l-114 -253h-60zM133 303h161l-6 259q-1 24 -1.5 48.5t-0.5 44.5h-2q-8 -20 -17.5 -43.5t-21.5 -50.5z" />
    <glyph glyph-name="afii10018" unicode="&#x411;" horiz-adv-x="437" 
d="M14 0l151 714h287l-10 -51h-233l-55 -263h57q89 0 131.5 -41t42.5 -118q0 -114 -63.5 -177.5t-172.5 -63.5h-135zM79 49h80q79 0 124.5 49.5t45.5 140.5q0 59 -33.5 86t-95.5 27h-57z" />
    <glyph glyph-name="afii10019" unicode="&#x412;" horiz-adv-x="461" 
d="M15 0l151 714h133q77 0 119.5 -36t42.5 -104q0 -70 -36.5 -127t-110.5 -73v-2q43 -11 67.5 -47t24.5 -89q0 -69 -28 -122.5t-80.5 -83.5t-127.5 -30h-155zM154 398h85q53 0 90 23t55.5 61t18.5 85q0 48 -27.5 73t-86.5 25h-79zM80 49h92q60 0 99 25t58.5 67t19.5 94
q0 59 -32 87.5t-89 28.5h-84z" />
    <glyph glyph-name="afii10020" unicode="&#x413;" horiz-adv-x="351" 
d="M14 0l152 714h265l-10 -50h-211l-141 -664h-55z" />
    <glyph glyph-name="afii10021" unicode="&#x414;" horiz-adv-x="487" 
d="M-87 -181l49 231h43q53 85 103 194t91.5 229.5t68.5 240.5h230l-142 -664h63l-49 -231h-53l38 181h-351l-38 -181h-53zM65 50h236l132 614h-125q-19 -81 -46.5 -165.5t-60 -166t-67 -154t-69.5 -128.5z" />
    <glyph glyph-name="afii10022" unicode="&#x415;" horiz-adv-x="404" 
d="M14 0l152 714h277l-10 -50h-223l-56 -265h208l-10 -49h-209l-64 -300h223l-10 -50h-278z" />
    <glyph glyph-name="afii10024" unicode="&#x416;" horiz-adv-x="578" 
d="M-59 0l282 372l-126 342h57l124 -344l73 344h53l-72 -344l264 344h62l-273 -350l128 -364h-59l-124 364l-77 -364h-53l76 363l-271 -363h-64z" />
    <glyph glyph-name="afii10025" unicode="&#x417;" horiz-adv-x="412" 
d="M120 -10q-46 0 -80 8t-59 21v58q25 -17 60.5 -28t77.5 -11q61 0 100.5 25.5t58.5 67t19 90.5q0 67 -34.5 96t-95.5 29h-66l10 49h68q57 0 98 23.5t62.5 64.5t21.5 91q0 47 -26 74t-76 27q-42 0 -73.5 -14.5t-59.5 -34.5l-23 41q34 25 73.5 41t91.5 16q72 0 110.5 -39.5
t38.5 -104.5q0 -54 -20.5 -97.5t-57 -73t-83.5 -38.5v-2q42 -11 70 -47t28 -100t-26.5 -116.5t-79 -84t-128.5 -31.5z" />
    <glyph glyph-name="afii10026" unicode="&#x418;" horiz-adv-x="546" 
d="M14 0l152 714h53l-91 -428q-10 -49 -20 -94.5t-21 -88.5h2l410 611h62l-151 -714h-53l87 413q13 56 24 107.5t22 91.5h-3l-409 -612h-64z" />
    <glyph glyph-name="afii10027" unicode="&#x419;" horiz-adv-x="546" 
d="M14 0l152 714h53l-91 -428q-10 -49 -20 -94.5t-21 -88.5h2l410 611h62l-151 -714h-53l87 413q13 56 24 107.5t22 91.5h-3l-409 -612h-64zM381 789q-56 0 -85 27t-29 75q0 8 0.5 17.5t2.5 17.5h47q-1 -8 -2.5 -16.5t-1.5 -16.5q0 -64 71 -64q44 0 67.5 25.5t32.5 71.5h49
q-13 -67 -50 -102t-102 -35z" />
    <glyph glyph-name="afii10028" unicode="&#x41a;" horiz-adv-x="420" 
d="M15 0l151 714h54l-73 -345l289 345h64l-297 -350l159 -364h-60l-156 363l-77 -363h-54z" />
    <glyph glyph-name="afii10029" unicode="&#x41b;" horiz-adv-x="499" 
d="M1 -7q-14 0 -26 2t-20 5v50q8 -3 18.5 -5.5t22.5 -2.5q32 0 54.5 26t42.5 82q18 46 39.5 111.5t45 142t47 156.5t45.5 154h256l-152 -714h-55l142 663h-154q-18 -65 -40 -139.5t-44.5 -148.5t-43.5 -138t-38 -107q-25 -64 -55.5 -100.5t-84.5 -36.5z" />
    <glyph glyph-name="afii10030" unicode="&#x41c;" horiz-adv-x="679" 
d="M14 0l152 714h77l48 -631h3l314 631h83l-151 -714h-54l111 524q12 54 25 106h-2l-316 -630h-56l-49 630h-2q-5 -29 -10 -55.5t-10 -55.5l-110 -519h-53z" />
    <glyph glyph-name="afii10031" unicode="&#x41d;" horiz-adv-x="527" 
d="M14 0l152 714h54l-66 -315h264l67 315h55l-152 -714h-54l73 349h-264l-74 -349h-55z" />
    <glyph glyph-name="afii10032" unicode="&#x41e;" horiz-adv-x="545" 
d="M224 -10q-89 0 -132.5 59t-43.5 168q0 63 12 132.5t35.5 136t59.5 120.5t84.5 86t109.5 32q83 0 128 -54t45 -164q0 -57 -10.5 -126t-33 -137.5t-57.5 -126t-84 -92t-113 -34.5zM227 40q49 0 87.5 31.5t67 83.5t47 114t27.5 124t9 113q0 169 -120 169q-50 0 -89.5 -32
t-68 -83.5t-47 -113t-27.5 -122t-9 -107.5q0 -177 123 -177z" />
    <glyph glyph-name="afii10033" unicode="&#x41f;" horiz-adv-x="520" 
d="M14 0l152 714h369l-151 -714h-55l141 664h-260l-141 -664h-55z" />
    <glyph glyph-name="afii10034" unicode="&#x420;" horiz-adv-x="433" 
d="M15 0l151 714h108q86 0 128.5 -42.5t42.5 -117.5q0 -77 -29 -136t-85 -92.5t-137 -33.5h-63l-62 -292h-54zM141 341h55q97 0 144.5 58.5t47.5 150.5q0 115 -122 115h-56z" />
    <glyph glyph-name="afii10035" unicode="&#x421;" horiz-adv-x="430" 
d="M230 -10q-88 0 -134.5 62t-46.5 183q0 61 13 128.5t39.5 131.5t66 116t92 83t117.5 31q71 0 119 -33l-27 -46q-38 29 -93 29q-53 0 -96 -28.5t-75.5 -75.5t-54.5 -104.5t-33 -117t-11 -111.5q0 -198 134 -198q27 0 54 6t54 16v-50q-27 -10 -56 -16t-62 -6z" />
    <glyph glyph-name="afii10036" unicode="&#x422;" horiz-adv-x="371" 
d="M94 0l142 664h-151l11 50h356l-11 -50h-151l-141 -664h-55z" />
    <glyph glyph-name="afii10037" unicode="&#x423;" horiz-adv-x="384" 
d="M19 -9q-17 0 -31 3.5t-23 7.5v51q21 -12 51 -12q26 0 46.5 14t42.5 49.5t53 100.5l-69 509h55l44 -344q4 -26 7 -54t4 -49q9 22 20.5 47.5t23.5 49.5l177 350h59l-290 -567q-40 -79 -77.5 -117.5t-92.5 -38.5z" />
    <glyph glyph-name="afii10038" unicode="&#x424;" horiz-adv-x="596" 
d="M201 -10l24 110q-79 8 -126 57t-47 145q0 99 34.5 173.5t98.5 116.5t154 44l18 88h54l-18 -88q78 -6 126 -53.5t48 -141.5q0 -98 -34.5 -174.5t-99.5 -120.5t-154 -46l-24 -110h-54zM235 149l94 439q-58 -2 -99.5 -26.5t-68.5 -65.5t-40 -91t-13 -102q0 -76 35 -112.5
t92 -41.5zM289 148q71 2 121 43t75.5 106t25.5 142q0 75 -35 110.5t-93 38.5z" />
    <glyph glyph-name="afii10039" unicode="&#x425;" horiz-adv-x="388" 
d="M-58 0l241 377l-70 337h56l55 -290l179 290h59l-217 -345l72 -369h-57l-57 320l-202 -320h-59z" />
    <glyph glyph-name="afii10040" unicode="&#x426;" horiz-adv-x="528" 
d="M352 -181l39 181h-373l152 714h54l-141 -664h256l141 664h54l-141 -664h63l-51 -231h-53z" />
    <glyph glyph-name="afii10041" unicode="&#x427;" horiz-adv-x="498" 
d="M300 0l64 304q-32 -18 -71.5 -31.5t-79.5 -13.5q-62 0 -94 31.5t-32 86.5q0 34 9 73l56 264h55l-56 -261q-5 -20 -7 -35t-2 -29q0 -80 86 -80q38 0 75.5 12.5t70.5 30.5l76 362h55l-151 -714h-54z" />
    <glyph glyph-name="afii10042" unicode="&#x428;" horiz-adv-x="724" 
d="M14 0l152 714h55l-142 -664h208l142 664h54l-141 -664h209l141 664h54l-151 -714h-581z" />
    <glyph glyph-name="afii10043" unicode="&#x429;" horiz-adv-x="739" 
d="M565 -181l39 181h-590l152 714h55l-142 -664h209l141 664h55l-142 -664h209l142 664h54l-141 -664h62l-50 -231h-53z" />
    <glyph glyph-name="afii10044" unicode="&#x42a;" horiz-adv-x="499" 
d="M76 0l140 662h-140l12 52h194l-67 -314h56q88 0 131 -41t43 -118q0 -113 -63 -177t-168 -64h-138zM141 49h77q81 0 126 49.5t45 140.5q0 59 -32.5 86t-90.5 27h-60z" />
    <glyph glyph-name="afii10045" unicode="&#x42b;" horiz-adv-x="628" 
d="M15 0l150 714h55l-66 -314h58q88 0 130 -40t42 -116q0 -64 -25 -119.5t-77 -90t-133 -34.5h-134zM432 0l152 714h54l-152 -714h-54zM79 49h75q62 0 100.5 26.5t56 70.5t17.5 95q0 59 -32 85t-93 26h-59z" />
    <glyph glyph-name="afii10046" unicode="&#x42c;" horiz-adv-x="438" 
d="M15 0l150 714h55l-66 -314h60q87 0 129 -40t42 -116q0 -64 -25 -119.5t-76.5 -90t-133.5 -34.5h-135zM79 49h76q62 0 100.5 26.5t56 70.5t17.5 95q0 59 -32 85t-91 26h-62z" />
    <glyph glyph-name="afii10047" unicode="&#x42d;" horiz-adv-x="447" 
d="M104 -10q-37 0 -65 6.5t-53 18.5v53q27 -13 56 -20.5t63 -7.5q97 0 159 80.5t86 227.5h-242l10 49h239q2 23 3.5 46.5t1.5 46.5q0 89 -33 137t-98 48q-30 0 -58 -7.5t-54 -20.5l-17 45q28 14 62 23.5t74 9.5q88 0 134 -60.5t46 -173.5q0 -70 -11 -141t-34 -135.5
t-60 -115t-89 -80t-120 -29.5z" />
    <glyph glyph-name="afii10048" unicode="&#x42e;" horiz-adv-x="712" 
d="M411 -10q-82 0 -120 55t-38 157q0 29 4 67t12 80h-126l-74 -349h-55l152 714h54l-66 -315h124q14 63 36.5 121t55 104t74.5 73t95 27q73 0 113 -50t40 -153q0 -56 -10.5 -126.5t-32.5 -141.5t-55.5 -130.5t-79 -96t-103.5 -36.5zM413 40q37 0 68 25t55.5 66.5t43 93.5
t31 106t18.5 104t6 87q0 153 -103 153q-44 0 -79.5 -34t-62.5 -88.5t-45 -118.5t-27 -125t-9 -107q0 -162 104 -162z" />
    <glyph glyph-name="afii10049" unicode="&#x42f;" horiz-adv-x="445" 
d="M-45 0l228 325q-41 14 -66 51t-25 97q0 67 27 121.5t79.5 87t130.5 32.5h128l-152 -714h-54l66 310h-83l-214 -310h-65zM261 358h66l65 307h-67q-59 0 -98.5 -25.5t-59 -68.5t-19.5 -94q0 -57 29.5 -88t83.5 -31z" />
    <glyph glyph-name="afii10065" unicode="&#x430;" horiz-adv-x="448" 
d="M148 -10q-55 0 -85 41.5t-30 118.5q0 48 9.5 102t28 105t46 92.5t64 66.5t81.5 25t70 -27t33 -66h3l24 83h43l-112 -531h-43l14 94h-3q-26 -44 -61.5 -74t-81.5 -30zM162 37q38 0 69 29t54 75.5t36 100.5q10 43 16 81t6 70q0 47 -20.5 74t-56.5 27q-42 0 -75 -33
t-56 -85.5t-35 -112t-12 -111.5q0 -58 19.5 -86.5t54.5 -28.5z" />
    <glyph glyph-name="afii10066" unicode="&#x431;" horiz-adv-x="428" 
d="M165 -10q-64 0 -98.5 43t-34.5 132q0 49 8.5 113.5t27 133t46.5 131t67 110t90 67.5q34 16 87 27t111 17l2 -48q-54 -6 -101 -15t-83 -26q-56 -25 -95.5 -93.5t-67.5 -164.5l3 -1q24 33 59.5 55t77.5 22q62 0 91.5 -42.5t29.5 -118.5q0 -56 -13 -116t-40 -111.5
t-68.5 -83t-98.5 -31.5zM169 37q41 0 71.5 29t50.5 74.5t29.5 95.5t9.5 93q0 53 -18.5 85t-60.5 32q-41 0 -77.5 -27t-64.5 -77q-10 -45 -16.5 -90.5t-6.5 -87.5q0 -61 20.5 -94t62.5 -33z" />
    <glyph glyph-name="afii10067" unicode="&#x432;" horiz-adv-x="434" 
d="M187 -10q-153 0 -153 179q0 47 9 98.5t27.5 100t47.5 88t69 62.5t92 23q61 0 93.5 -30.5t32.5 -83.5q0 -63 -37 -102.5t-94 -49.5v-2q39 -8 62 -36.5t23 -78.5q0 -42 -18 -80.5t-56 -63t-98 -24.5zM103 296h90q65 0 111 31t46 96q0 33 -18 53t-58 20q-60 0 -104 -52
t-67 -148zM192 35q40 0 65 17.5t37.5 45.5t12.5 59q0 43 -25.5 68.5t-82.5 25.5h-104q-2 -14 -4.5 -35t-2.5 -46q0 -74 27.5 -104.5t76.5 -30.5z" />
    <glyph glyph-name="afii10068" unicode="&#x433;" horiz-adv-x="335" 
d="M133 -10q-58 0 -93.5 29t-35.5 88q0 71 40.5 113.5t104.5 74.5q55 29 88.5 58t33.5 78q0 63 -69 63q-30 0 -55 -9t-47 -21l-16 43q27 15 58.5 24t66.5 9q54 0 85.5 -27t31.5 -79q0 -44 -19 -75.5t-51 -55t-71 -43.5q-66 -35 -96 -67t-30 -83q0 -36 21.5 -54.5t60.5 -18.5
q33 0 60.5 10t50.5 23v-50q-25 -13 -54.5 -21.5t-64.5 -8.5z" />
    <glyph glyph-name="afii10069" unicode="&#x434;" horiz-adv-x="440" 
d="M171 -10q-68 0 -102 44.5t-34 125.5q0 42 7.5 90.5t24 94.5t42 84t60.5 61t81 23q44 0 69.5 -19.5t39.5 -45.5h2q1 14 1.5 29.5t0.5 29.5q0 106 -28 160.5t-89 54.5q-22 0 -44 -6t-40 -16l-14 44q22 11 49 18t56 7q85 0 124.5 -69t39.5 -195q0 -59 -7 -128.5t-24 -137.5
t-45 -124.5t-70 -90.5t-100 -34zM174 37q40 0 71.5 29.5t53.5 80t35.5 112t19.5 126.5q-14 37 -39 60t-62 23q-41 0 -71.5 -29.5t-51 -76.5t-31 -100t-10.5 -101q0 -64 21 -94t64 -30z" />
    <glyph glyph-name="afii10070" unicode="&#x435;" horiz-adv-x="396" 
d="M180 -10q-67 0 -106.5 43t-39.5 129q0 76 18 144.5t49.5 121.5t74 83t92.5 30t78.5 -26.5t28.5 -79.5q0 -55 -30.5 -97.5t-90.5 -67.5t-147 -25h-12q-3 -17 -5 -37t-2 -41q0 -131 103 -131q30 0 55.5 8.5t51.5 22.5v-48q-23 -13 -52.5 -21t-65.5 -8zM103 290h11
q104 0 156.5 40t52.5 102q0 29 -15 46t-46 17q-34 0 -65 -26.5t-56 -72.5t-38 -106z" />
    <glyph glyph-name="afii10072" unicode="&#x436;" horiz-adv-x="614" 
d="M-3 -9q-11 0 -21 1t-19 4l10 47q7 -2 14.5 -3.5t17.5 -1.5q35 0 62.5 22.5t48 59.5t33.5 82t19.5 89.5t6.5 82.5q0 120 -80 120q-7 0 -14 -1t-14 -3v47q7 1 16.5 2.5t19.5 1.5q61 0 93 -40.5t32 -123.5q0 -41 -6 -84h71l51 238h51l-51 -238h69q10 46 27.5 90t43 79.5
t60.5 57t80 21.5q9 0 18.5 -1.5t18.5 -2.5l-11 -47q-12 3 -29 3q-35 0 -62 -22.5t-47.5 -60t-34.5 -82t-20.5 -89.5t-6.5 -82q0 -119 82 -119q16 0 30 3v-46q-8 -1 -18 -2.5t-20 -1.5q-62 0 -94.5 40t-32.5 123q0 20 2 44t6 50h-71l-52 -248h-52l53 248h-68
q-15 -70 -43 -128t-70 -93.5t-99 -35.5z" />
    <glyph glyph-name="afii10073" unicode="&#x437;" horiz-adv-x="332" 
d="M94 -10q-36 0 -64.5 8t-47.5 20v54q22 -16 50 -26t61 -10q60 0 91.5 38t31.5 96q0 88 -89 88h-43l11 45h37q52 0 86.5 33.5t34.5 85.5q0 73 -72 73q-25 0 -46 -6.5t-43 -18.5l-16 42q26 14 53.5 21.5t60.5 7.5q56 0 86 -29.5t30 -82.5q0 -55 -29.5 -95t-77.5 -51v-3
q32 -10 51.5 -37.5t19.5 -72.5q0 -50 -20 -91t-59 -65t-97 -24z" />
    <glyph glyph-name="afii10074" unicode="&#x438;" horiz-adv-x="440" 
d="M137 -10q-48 0 -75.5 26.5t-27.5 77.5q0 20 4.5 46.5t9.5 51.5l72 339h54l-73 -341q-5 -24 -8.5 -46t-3.5 -42q0 -64 63 -64q55 0 96.5 56t63.5 160l59 277h53l-112 -531h-43l13 87h-3q-22 -41 -58.5 -69t-83.5 -28z" />
    <glyph glyph-name="afii10075" unicode="&#x439;" horiz-adv-x="440" 
d="M137 -10q-48 0 -75.5 26.5t-27.5 77.5q0 20 4.5 46.5t9.5 51.5l72 339h54l-73 -341q-5 -24 -8.5 -46t-3.5 -42q0 -64 63 -64q55 0 96.5 56t63.5 160l59 277h53l-112 -531h-43l13 87h-3q-22 -41 -58.5 -69t-83.5 -28zM285 604q-56 0 -85 27t-29 75q0 8 0.5 17.5t2.5 17.5
h47q-1 -8 -2.5 -16.5t-1.5 -16.5q0 -64 71 -64q44 0 67.5 25.5t32.5 71.5h49q-13 -67 -50 -102t-102 -35z" />
    <glyph glyph-name="afii10076" unicode="&#x43a;" horiz-adv-x="358" 
d="M12 0l113 531h52l-54 -251l218 251h63l-225 -256l123 -275h-59l-121 274l-57 -274h-53z" />
    <glyph glyph-name="afii10077" unicode="&#x43b;" horiz-adv-x="404" 
d="M-14 -5q-19 0 -32 5v48q12 -5 27 -5q26 1 46 18.5t37.5 65t38.5 135.5q22 94 47 154t64.5 89t102.5 29q24 0 46 -2.5t42 -6.5l-111 -525h-53l102 483q-13 3 -35 3q-42 0 -68.5 -23t-46.5 -74.5t-41 -137.5q-23 -95 -44.5 -151t-50 -80.5t-71.5 -24.5z" />
    <glyph glyph-name="afii10078" unicode="&#x43c;" horiz-adv-x="531" 
d="M11 0l114 531h70l25 -453h2l220 453h74l-113 -531h-51l70 326q13 60 27 118h-2l-218 -444h-46l-29 444h-1q-5 -27 -9.5 -52.5t-11.5 -55.5l-71 -336h-50z" />
    <glyph glyph-name="afii10079" unicode="&#x43d;" horiz-adv-x="449" 
d="M11 0l113 531h53l-48 -231h202l49 231h53l-113 -531h-53l54 253h-202l-54 -253h-54z" />
    <glyph glyph-name="afii10080" unicode="&#x43e;" horiz-adv-x="437" 
d="M172 -10q-65 0 -101.5 44t-36.5 126q0 44 8.5 95.5t26.5 101.5t46 92t66 67t87 25q64 0 99.5 -44t35.5 -126q0 -62 -14.5 -128.5t-43 -124t-72 -93t-101.5 -35.5zM176 38q42 0 74 31.5t54 82.5t33.5 109t11.5 112q0 55 -21.5 88t-64.5 33q-35 0 -62.5 -22t-48.5 -59
t-35.5 -81.5t-21.5 -89.5t-7 -83q0 -121 88 -121z" />
    <glyph glyph-name="afii10081" unicode="&#x43f;" horiz-adv-x="439" 
d="M10 0l113 532h44l-14 -88h2q22 40 58.5 69t84.5 29q46 0 74.5 -26t28.5 -78q0 -21 -4.5 -49t-9.5 -53l-72 -336h-54l71 338q5 24 9.5 48t4.5 44q0 62 -63 62q-55 0 -96 -55.5t-64 -159.5l-58 -277h-55z" />
    <glyph glyph-name="afii10082" unicode="&#x440;" horiz-adv-x="449" 
d="M-37 -232l161 763h44l-15 -95h3q27 46 62.5 75.5t82.5 29.5q54 0 84.5 -41t30.5 -118q0 -49 -9 -102.5t-27.5 -105t-46 -93t-64 -66.5t-82.5 -25q-45 0 -71 26t-34 63h-3q-4 -25 -9 -53t-10 -52l-44 -206h-53zM184 37q42 0 75.5 33.5t56 86t34.5 112t12 111.5
q0 58 -20 86.5t-56 28.5q-34 0 -63 -25.5t-51 -67t-37 -90t-23 -94.5t-8 -80q0 -47 21 -74t59 -27z" />
    <glyph glyph-name="afii10083" unicode="&#x441;" horiz-adv-x="341" 
d="M176 -10q-68 0 -104.5 43t-36.5 129q0 62 14.5 128.5t44.5 123.5t74.5 92t104.5 35q25 0 48.5 -4.5t42.5 -14.5l-19 -46q-34 18 -72 18q-44 0 -78 -30t-57.5 -79t-36 -106.5t-12.5 -112.5q0 -129 96 -129q23 0 45 7t44 18v-48q-19 -10 -43.5 -17t-54.5 -7z" />
    <glyph glyph-name="afii10084" unicode="&#x442;" horiz-adv-x="663" 
d="M11 0l112 531h44l-14 -85h3q22 40 55.5 67.5t79.5 27.5q44 0 67.5 -23t27.5 -66h2q22 38 56 63.5t81 25.5q46 0 73.5 -26t27.5 -78q0 -16 -3 -35t-7 -36l-77 -366h-53l77 363q4 19 6 35.5t2 28.5q0 66 -63 66q-34 0 -61 -21.5t-45.5 -58.5t-27.5 -81l-72 -332h-53l79 370
q4 16 5.5 31.5t1.5 26.5q0 31 -15 48t-45 17q-39 0 -68.5 -28.5t-50 -76.5t-32.5 -108l-60 -280h-53z" />
    <glyph glyph-name="afii10085" unicode="&#x443;" horiz-adv-x="353" 
d="M-52 -242q-17 0 -30 3t-22 7l5 48q10 -4 21 -7t25 -3q33 0 56 24t46 73l48 102l-32 526h54l15 -332q2 -30 3 -63t0 -59h3q10 25 23.5 57t25.5 57l159 340h56l-305 -642q-31 -65 -64.5 -98t-86.5 -33z" />
    <glyph glyph-name="afii10086" unicode="&#x444;" horiz-adv-x="505" 
d="M120 -240l49 231q-64 7 -101.5 55.5t-37.5 135.5q0 57 14 119t44.5 115.5t79 87.5t116.5 36l46 220h52l-46 -220q64 -8 101 -53.5t37 -134.5q0 -56 -14.5 -118t-45.5 -117t-79.5 -90t-115.5 -37l-48 -230h-51zM178 38l97 455q-51 -3 -87 -32.5t-59 -76t-34 -99.5
t-11 -102q0 -67 26.5 -103.5t67.5 -41.5zM230 38q41 2 72.5 24t54 56.5t36.5 75.5t20.5 82t6.5 75q0 68 -25 102.5t-69 39.5z" />
    <glyph glyph-name="afii10087" unicode="&#x445;" horiz-adv-x="360" 
d="M-42 0l191 276l-70 255h55l55 -213l143 213h60l-182 -261l76 -270h-55l-60 227l-153 -227h-60z" />
    <glyph glyph-name="afii10088" unicode="&#x446;" horiz-adv-x="458" 
d="M288 -181l40 180q-28 4 -37.5 25.5t-6.5 62.5h-3q-23 -41 -60 -69t-85 -28q-47 0 -74.5 26t-27.5 78q0 20 4.5 47t9.5 52l72 338h54l-73 -341q-5 -24 -8.5 -46t-3.5 -40q0 -66 62 -66q55 0 97 56t64 160l59 277h53l-78 -367q-6 -29 -9.5 -50.5t-3.5 -37.5q0 -33 33 -33
q6 0 11.5 1.5t12.5 2.5l-49 -228h-53z" />
    <glyph glyph-name="afii10089" unicode="&#x447;" horiz-adv-x="433" 
d="M248 0l40 188q4 21 9.5 42.5t11.5 40.5h-3q-21 -37 -57.5 -62.5t-82.5 -25.5t-72 26.5t-26 75.5q0 23 4.5 51t10.5 57l30 138h53l-31 -143q-5 -27 -9 -50t-4 -45q0 -62 60 -62q57 0 96.5 50.5t61.5 154.5l21 95h53l-113 -531h-53z" />
    <glyph glyph-name="afii10090" unicode="&#x448;" horiz-adv-x="660" 
d="M133 -10q-46 0 -73 27t-27 78q0 17 2.5 37t6.5 39l77 360h54l-77 -358q-9 -45 -9 -68q0 -67 63 -67q35 0 62 23.5t46 62t29 85.5l69 322h54l-80 -369q-4 -16 -5.5 -31t-1.5 -26q0 -67 61 -67q38 0 67 28.5t49 77t33 108.5l60 279h53l-113 -531h-43l12 82h-2
q-22 -39 -54.5 -65.5t-77.5 -26.5q-46 0 -68.5 25t-26.5 64h-3q-21 -37 -55.5 -63t-81.5 -26z" />
    <glyph glyph-name="afii10091" unicode="&#x449;" horiz-adv-x="679" 
d="M510 -181l39 180q-28 4 -38 24.5t-7 60.5h-2q-22 -41 -56 -67.5t-78 -26.5t-68 24t-27 65h-3q-22 -37 -56 -63t-81 -26q-46 0 -73 27t-27 78q0 17 2.5 37t6.5 39l77 360h54l-77 -359q-9 -44 -9 -67q0 -67 63 -67q35 0 62 23.5t46 62t29 85.5l69 322h54l-80 -369
q-4 -16 -5.5 -31t-1.5 -26q0 -67 61 -67q38 0 67 28.5t49 77t33 108.5l60 279h53l-80 -378q-5 -25 -8 -44t-3 -33q0 -33 32 -33q6 0 12 1.5t13 2.5l-50 -228h-52z" />
    <glyph glyph-name="afii10092" unicode="&#x44a;" horiz-adv-x="450" 
d="M222 -10q-64 0 -94.5 32.5t-30.5 89.5q0 23 4.5 47.5t8.5 46.5l60 277h-123l10 48h175l-51 -241q14 3 35 6t43 3q68 0 101.5 -33.5t33.5 -94.5q0 -47 -19.5 -88.5t-57.5 -67t-95 -25.5zM227 35q39 0 64 20t37 50.5t12 61.5q0 43 -22 65t-69 22q-20 0 -40 -3t-37 -7
q-12 -52 -17 -81t-5 -48q0 -37 18 -58.5t59 -21.5z" />
    <glyph glyph-name="afii10093" unicode="&#x44b;" horiz-adv-x="555" 
d="M165 -10q-62 0 -93.5 32t-31.5 90q0 21 3 44t8 44l71 331h54l-52 -241q14 3 35 6t43 3q69 0 101.5 -34t32.5 -94q0 -47 -19 -88t-57 -67t-95 -26zM372 0l113 531h53l-113 -531h-53zM170 35q38 0 63 20t37 50.5t12 61.5q0 43 -21.5 65t-68.5 22q-21 0 -40.5 -3t-36.5 -7
q-12 -53 -17 -81.5t-5 -47.5q0 -37 18.5 -58.5t58.5 -21.5z" />
    <glyph glyph-name="afii10094" unicode="&#x44c;" horiz-adv-x="396" 
d="M167 -10q-64 0 -95.5 32t-31.5 90q0 21 4 44.5t8 44.5l71 330h53l-52 -242q15 4 36.5 7t44.5 3q70 0 103 -34.5t33 -93.5q0 -47 -20 -88.5t-58.5 -67t-95.5 -25.5zM172 35q39 0 64.5 19.5t37.5 50t12 62.5q0 43 -21.5 65t-69.5 22q-22 0 -42.5 -3t-37.5 -7
q-12 -52 -17 -81t-5 -48q0 -37 19 -58.5t60 -21.5z" />
    <glyph glyph-name="afii10095" unicode="&#x44d;" horiz-adv-x="350" 
d="M75 -10q-29 0 -52.5 5t-40.5 12v51q20 -10 43 -15.5t48 -5.5q48 0 83 29t58.5 78t34.5 109h-166l10 45h163q2 15 3.5 33t1.5 37q0 127 -97 127q-24 0 -44.5 -6t-37.5 -15l-13 43q21 11 48 17.5t55 6.5q73 0 108 -45t35 -123q0 -48 -8 -100.5t-25.5 -103t-46 -91
t-68 -64.5t-92.5 -24z" />
    <glyph glyph-name="afii10096" unicode="&#x44e;" horiz-adv-x="602" 
d="M347 -10q-62 0 -95 42.5t-33 125.5q0 42 8 95h-108l-55 -253h-53l113 531h53l-48 -231h107q16 68 44.5 122.5t69 86.5t91.5 32q61 0 93 -43t32 -126q0 -47 -8.5 -100t-26 -103t-44 -90.5t-61.5 -64.5t-79 -24zM351 37q38 0 68 32.5t51 84t32 110t11 110.5q0 120 -76 120
q-32 0 -57.5 -22.5t-45.5 -59.5t-34 -81.5t-21 -90t-7 -83.5q0 -120 79 -120z" />
    <glyph glyph-name="afii10097" unicode="&#x44f;" horiz-adv-x="401" 
d="M-12 -4q-10 0 -17.5 2t-12.5 3v44q8 -3 22 -3q20 0 35.5 17t33.5 66q23 59 43 87t52 37q-40 11 -59 39t-19 71q0 49 21.5 88t62 61.5t96.5 22.5h138l-113 -531h-53l50 232h-42q-34 0 -54.5 -10t-36 -35t-34.5 -72q-24 -61 -47 -90t-66 -29zM218 276h59l45 211h-80
q-61 0 -91.5 -38.5t-30.5 -89.5q0 -43 25.5 -63t72.5 -20z" />
    <glyph glyph-name="afii10071" unicode="&#x451;" horiz-adv-x="396" 
d="M180 -10q-67 0 -106.5 43t-39.5 129q0 76 18 144.5t49.5 121.5t74 83t92.5 30t78.5 -26.5t28.5 -79.5q0 -55 -30.5 -97.5t-90.5 -67.5t-147 -25h-12q-3 -17 -5 -37t-2 -41q0 -131 103 -131q30 0 55.5 8.5t51.5 22.5v-48q-23 -13 -52.5 -21t-65.5 -8zM103 290h11
q104 0 156.5 40t52.5 102q0 29 -15 46t-46 17q-34 0 -65 -26.5t-56 -72.5t-38 -106zM356 639q-28 0 -28 30q0 19 10 36t30 17q27 0 27 -30q0 -20 -11 -36.5t-28 -16.5zM206 639q-28 0 -28 30q0 19 10 36t30 17q27 0 27 -30q0 -20 -11 -36.5t-28 -16.5z" />
    <glyph glyph-name="afii10099" unicode="&#x452;" horiz-adv-x="440" 
d="M164 -239q-14 0 -26 2t-21 5v49q17 -7 44 -7q36 0 55.5 31t32.5 99l85 401q4 22 8 43t4 39q0 65 -63 65q-55 0 -96.5 -54t-63.5 -160l-58 -274h-54l132 621h-63l9 43h63l20 96h54l-21 -96h131l-9 -43h-131l-17 -76q-5 -28 -12 -54.5t-14 -51.5h3q22 41 58 69t84 28
t75 -26.5t27 -77.5q0 -20 -4 -45t-9 -49l-85 -402q-19 -87 -47.5 -131t-90.5 -44z" />
    <glyph glyph-name="afii10100" unicode="&#x453;" horiz-adv-x="335" 
d="M133 -10q-58 0 -93.5 29t-35.5 88q0 71 40.5 113.5t104.5 74.5q55 29 88.5 58t33.5 78q0 63 -69 63q-30 0 -55 -9t-47 -21l-16 43q27 15 58.5 24t66.5 9q54 0 85.5 -27t31.5 -79q0 -44 -19 -75.5t-51 -55t-71 -43.5q-66 -35 -96 -67t-30 -83q0 -36 21.5 -54.5t60.5 -18.5
q33 0 60.5 10t50.5 23v-50q-25 -13 -54.5 -21.5t-64.5 -8.5zM192 604v9q34 35 67 77t52 74h63l-1 -8q-15 -20 -41 -49t-55 -57t-52 -46h-33z" />
    <glyph glyph-name="afii10101" unicode="&#x454;" horiz-adv-x="350" 
d="M176 -10q-68 0 -104.5 43t-36.5 129q0 48 9 100.5t27.5 102t47 89.5t67 63.5t87.5 23.5q26 0 49.5 -4.5t42.5 -14.5l-19 -45q-32 17 -73 17t-74.5 -27t-57 -71t-35.5 -97h165l-11 -46h-164q-4 -22 -5.5 -44t-1.5 -44q0 -128 95 -128q46 0 91 24v-47q-19 -10 -45 -17
t-54 -7z" />
    <glyph glyph-name="afii10102" unicode="&#x455;" horiz-adv-x="335" 
d="M109 -10q-38 0 -68 8t-48 19v55q19 -14 49.5 -24.5t63.5 -10.5q55 0 82 27.5t27 76.5q0 35 -17.5 58.5t-55.5 57.5q-36 31 -58.5 63t-22.5 79q0 62 41.5 102t110.5 40q40 0 70.5 -9.5t52.5 -22.5l-23 -44q-19 12 -44 21t-56 9q-44 0 -70.5 -24.5t-26.5 -65.5
q0 -33 16 -56.5t50 -53.5q27 -25 46.5 -46t30.5 -45t11 -59q0 -72 -42 -113.5t-119 -41.5z" />
    <glyph glyph-name="afii10103" unicode="&#x456;" horiz-adv-x="191" 
d="M176 637q-30 0 -30 32q0 20 11 38.5t33 18.5q29 0 29 -32q0 -22 -11.5 -39.5t-31.5 -17.5zM11 0l113 531h53l-113 -531h-53z" />
    <glyph glyph-name="afii10104" unicode="&#x457;" horiz-adv-x="191" 
d="M11 0l113 531h53l-113 -531h-53zM248 639q-28 0 -28 30q0 19 10 36t30 17q27 0 27 -30q0 -20 -11 -36.5t-28 -16.5zM98 639q-28 0 -28 30q0 19 10 36t30 17q27 0 27 -30q0 -20 -11 -36.5t-28 -16.5z" />
    <glyph glyph-name="afii10105" unicode="&#x458;" horiz-adv-x="194" 
d="M179 637q-30 0 -30 32q0 20 10.5 38.5t32.5 18.5q29 0 29 -32q0 -22 -11.5 -39.5t-30.5 -17.5zM-84 -240q-14 0 -26.5 2t-21.5 5v49q19 -8 44 -8q37 0 55.5 29t33.5 102l125 592h53l-127 -596q-18 -85 -45.5 -130t-90.5 -45z" />
    <glyph glyph-name="afii10106" unicode="&#x459;" horiz-adv-x="614" 
d="M386 -10q-64 0 -94 32t-30 90q0 22 3 45t8 43l60 284q-5 1 -13 1.5t-16 0.5q-40 0 -66.5 -24.5t-46 -76t-39.5 -133.5q-22 -94 -43.5 -150t-50 -81.5t-72.5 -25.5q-19 0 -32 5v48q10 -5 27 -5q26 1 45.5 19t37 64.5t38.5 132.5q22 93 47 154t63 91t101 30q23 0 44.5 -2.5
t38.5 -6.5l-50 -235q14 3 34.5 6t42.5 3q68 0 101.5 -33.5t33.5 -94.5q0 -47 -19 -88t-57.5 -67t-95.5 -26zM390 35q40 0 65 20.5t37 50.5t12 61q0 43 -22 65t-69 22q-20 0 -39.5 -3t-37.5 -7q-12 -54 -16.5 -82t-4.5 -47q0 -80 75 -80z" />
    <glyph glyph-name="afii10107" unicode="&#x45a;" horiz-adv-x="621" 
d="M394 -10q-64 0 -94.5 32.5t-30.5 89.5q0 23 5 54t18 88h-173l-54 -254h-54l114 531h53l-49 -230h173l50 230h53l-52 -241q14 4 35 6.5t43 2.5q68 0 101 -33.5t33 -94.5q0 -47 -19 -88t-57 -67t-95 -26zM399 35q39 0 64 20t36.5 50.5t11.5 61.5q0 43 -21.5 65t-68.5 22
q-20 0 -40 -2.5t-37 -6.5q-12 -53 -17 -82t-5 -48q0 -80 77 -80z" />
    <glyph glyph-name="afii10108" unicode="&#x45b;" horiz-adv-x="441" 
d="M11 0l133 622h-66l9 43h65l20 95h54l-21 -95h129l-9 -43h-129q-16 -74 -26 -115t-16 -66h2q22 41 58 69t84 28t75 -26.5t27 -78.5q0 -20 -5 -48.5t-10 -54.5l-70 -330h-53l70 331q6 25 10 49.5t4 44.5q0 64 -63 64q-55 0 -96.5 -54t-63.5 -159l-58 -276h-54z" />
    <glyph glyph-name="afii10109" unicode="&#x45c;" horiz-adv-x="355" 
d="M12 0l113 531h52l-54 -251l218 251h63l-225 -256l123 -275h-59l-121 274l-57 -274h-53zM209 604v9q34 35 67 77t52 74h63l-1 -8q-15 -20 -41 -49t-55 -57t-52 -46h-33z" />
    <glyph glyph-name="afii10110" unicode="&#x45e;" horiz-adv-x="353" 
d="M-52 -242q-17 0 -30 3t-22 7l5 48q10 -4 21 -7t25 -3q33 0 56 24t46 73l48 102l-32 526h54l15 -332q2 -30 3 -63t0 -59h3q10 25 23.5 57t25.5 57l159 340h56l-305 -642q-31 -65 -64.5 -98t-86.5 -33zM245 604q-56 0 -85 27t-29 75q0 8 0.5 17.5t2.5 17.5h47
q-1 -8 -2.5 -16.5t-1.5 -16.5q0 -64 71 -64q44 0 67.5 25.5t32.5 71.5h49q-13 -67 -50 -102t-102 -35z" />
    <glyph glyph-name="afii10193" unicode="&#x45f;" horiz-adv-x="440" 
d="M137 -10q-48 0 -75.5 26.5t-27.5 77.5q0 20 4.5 46.5t9.5 51.5l72 339h54l-73 -341q-5 -24 -8.5 -46t-3.5 -42q0 -64 63 -64q55 0 96.5 56t63.5 160l59 277h53l-112 -531h-43l13 87h-3q-22 -41 -58.5 -69t-83.5 -28zM88 -234l49 180l42 18h11l-50 -198h-52z" />
    <glyph glyph-name="afii10050" unicode="&#x490;" horiz-adv-x="358" 
d="M14 0l152 714h208l31 146h53l-42 -196h-206l-141 -664h-55z" />
    <glyph glyph-name="afii10098" unicode="&#x491;" horiz-adv-x="300" 
d="M6 0l113 531h156l33 159h52l-42 -205h-156l-103 -485h-53z" />
    <glyph glyph-name="Wgrave" unicode="&#x1e80;" horiz-adv-x="690" 
d="M95 0v714h53l-2 -504q0 -39 -1 -71.5t-3 -58.5h3q12 33 25.5 68t26.5 67l208 499h52l-3 -487q-1 -41 -1.5 -78t-2.5 -71h2q13 36 26.5 71t29.5 77l200 488h58l-298 -714h-63l4 511q0 51 3 103h-3q-7 -23 -16 -46.5t-20 -48.5l-215 -519h-63zM457 791q-15 18 -32 45
t-32.5 55t-24.5 50v9h58q26 -78 63 -149v-10h-32z" />
    <glyph glyph-name="wgrave" unicode="&#x1e81;" horiz-adv-x="557" 
d="M64 0l-3 531h51v-335q1 -34 -0.5 -64t-2.5 -56h3q8 25 20.5 56.5t24.5 59.5l146 339h57l3 -334q1 -28 0 -60.5t-3 -61.5h3q10 29 22 60t26 68l135 328h54l-223 -531h-60l-1 355q-1 25 -0.5 50.5t2.5 53.5h-2q-8 -25 -17 -47.5t-21 -48.5l-154 -363h-60zM347 606
q-15 18 -32 45t-32.5 55t-24.5 50v9h58q26 -78 63 -149v-10h-32z" />
    <glyph glyph-name="Wacute" unicode="&#x1e82;" horiz-adv-x="690" 
d="M95 0v714h53l-2 -504q0 -39 -1 -71.5t-3 -58.5h3q12 33 25.5 68t26.5 67l208 499h52l-3 -487q-1 -41 -1.5 -78t-2.5 -71h2q13 36 26.5 71t29.5 77l200 488h58l-298 -714h-63l4 511q0 51 3 103h-3q-7 -23 -16 -46.5t-20 -48.5l-215 -519h-63zM409 789v9q34 35 67 77t52 74
h63l-1 -8q-15 -20 -41 -49t-55 -57t-52 -46h-33z" />
    <glyph glyph-name="wacute" unicode="&#x1e83;" horiz-adv-x="557" 
d="M64 0l-3 531h51v-335q1 -34 -0.5 -64t-2.5 -56h3q8 25 20.5 56.5t24.5 59.5l146 339h57l3 -334q1 -28 0 -60.5t-3 -61.5h3q10 29 22 60t26 68l135 328h54l-223 -531h-60l-1 355q-1 25 -0.5 50.5t2.5 53.5h-2q-8 -25 -17 -47.5t-21 -48.5l-154 -363h-60zM300 604v9
q34 35 67 77t52 74h63l-1 -8q-15 -20 -41 -49t-55 -57t-52 -46h-33z" />
    <glyph glyph-name="Wdieresis" unicode="&#x1e84;" horiz-adv-x="690" 
d="M95 0v714h53l-2 -504q0 -39 -1 -71.5t-3 -58.5h3q12 33 25.5 68t26.5 67l208 499h52l-3 -487q-1 -41 -1.5 -78t-2.5 -71h2q13 36 26.5 71t29.5 77l200 488h58l-298 -714h-63l4 511q0 51 3 103h-3q-7 -23 -16 -46.5t-20 -48.5l-215 -519h-63zM511 809q-28 0 -28 30
q0 19 10 36t30 17q27 0 27 -30q0 -20 -11 -36.5t-28 -16.5zM361 809q-28 0 -28 30q0 19 10 36t30 17q27 0 27 -30q0 -20 -11 -36.5t-28 -16.5z" />
    <glyph glyph-name="wdieresis" unicode="&#x1e85;" horiz-adv-x="557" 
d="M64 0l-3 531h51v-335q1 -34 -0.5 -64t-2.5 -56h3q8 25 20.5 56.5t24.5 59.5l146 339h57l3 -334q1 -28 0 -60.5t-3 -61.5h3q10 29 22 60t26 68l135 328h54l-223 -531h-60l-1 355q-1 25 -0.5 50.5t2.5 53.5h-2q-8 -25 -17 -47.5t-21 -48.5l-154 -363h-60zM414 639
q-28 0 -28 30q0 19 10 36t30 17q27 0 27 -30q0 -20 -11 -36.5t-28 -16.5zM264 639q-28 0 -28 30q0 19 10 36t30 17q27 0 27 -30q0 -20 -11 -36.5t-28 -16.5z" />
    <glyph glyph-name="Ygrave" unicode="&#x1ef2;" horiz-adv-x="375" 
d="M96 0l58 274l-67 440h55l52 -370l208 370h60l-253 -439l-58 -275h-55zM298 791q-15 18 -32 45t-32.5 55t-24.5 50v9h58q26 -78 63 -149v-10h-32z" />
    <glyph glyph-name="ygrave" unicode="&#x1ef3;" horiz-adv-x="353" 
d="M-52 -242q-17 0 -30 3t-22 7l5 48q10 -4 21 -7t25 -3q33 0 56 24t46 73l48 102l-32 526h54l15 -332q2 -30 3 -63t0 -59h3q10 25 23.5 57t25.5 57l159 340h56l-305 -642q-31 -65 -64.5 -98t-86.5 -33zM247 606q-15 18 -32 45t-32.5 55t-24.5 50v9h58q26 -78 63 -149v-10
h-32z" />
    <glyph glyph-name="endash" unicode="&#x2013;" horiz-adv-x="459" 
d="M30 246l10 47h386l-10 -47h-386z" />
    <glyph glyph-name="emdash" unicode="&#x2014;" horiz-adv-x="918" 
d="M30 246l10 47h844l-9 -47h-845z" />
    <glyph glyph-name="afii00208" unicode="&#x2015;" horiz-adv-x="921" 
d="M30 246l10 47h844l-9 -47h-845z" />
    <glyph glyph-name="underscoredbl" unicode="&#x2017;" horiz-adv-x="376" 
d="M-76 -116l9 39h379l-9 -39h-379zM-99 -228l9 39h379l-9 -39h-379z" />
    <glyph glyph-name="quoteleft" unicode="&#x2018;" horiz-adv-x="145" 
d="M67 478l-4 12q21 54 51 114t62 110h42q-18 -33 -37 -75t-35 -84.5t-26 -76.5h-53z" />
    <glyph glyph-name="quoteright" unicode="&#x2019;" horiz-adv-x="145" 
d="M57 478q29 55 55 118t42 118h53l5 -11q-20 -54 -50.5 -114t-63.5 -111h-41z" />
    <glyph glyph-name="quotesinglbase" unicode="&#x201a;" horiz-adv-x="197" 
d="M-43 -129q18 33 36.5 74.5t34.5 83.5t26 77h54l4 -10q-20 -55 -50 -115t-64 -110h-41z" />
    <glyph glyph-name="quotereversed" unicode="&#x201b;" horiz-adv-x="147" 
d="M122 478q-12 53 -20 114t-9 112l8 10h52q-5 -55 -1 -120.5t10 -115.5h-40z" />
    <glyph glyph-name="quotedblleft" unicode="&#x201c;" horiz-adv-x="283" 
d="M205 478l-4 12q21 55 51 114.5t63 109.5h41q-18 -34 -37 -75.5t-34.5 -83t-25.5 -77.5h-54zM68 478l-4 12q21 55 51 115t62 109h41q-18 -33 -36.5 -75t-34.5 -84.5t-26 -76.5h-53z" />
    <glyph glyph-name="quotedblright" unicode="&#x201d;" horiz-adv-x="283" 
d="M192 478q29 54 55.5 117t42.5 119h53l4 -11q-20 -54 -50 -114t-64 -111h-41zM55 478q29 54 55 117t42 119h53l4 -11q-20 -54 -50 -114t-63 -111h-41z" />
    <glyph glyph-name="quotedblbase" unicode="&#x201e;" horiz-adv-x="305" 
d="M76 -130q18 34 36.5 75t34.5 83t26 78h54l4 -11q-20 -54 -50 -114t-64 -111h-41zM-61 -130q29 53 55 117.5t42 118.5h53l4 -11q-20 -54 -50 -114t-63 -111h-41z" />
    <glyph glyph-name="dagger" unicode="&#x2020;" horiz-adv-x="412" 
d="M107 0l121 518l-133 -7l11 49l130 -7l33 207h57l-54 -207l138 7l-11 -49l-134 7l-101 -518h-57z" />
    <glyph glyph-name="daggerdbl" unicode="&#x2021;" horiz-adv-x="412" 
d="M107 0l53 198l-137 -8l11 49l133 -6l25 149l39 145l-135 -7l11 50l131 -8l32 198h57l-53 -198l138 8l-10 -50l-136 7l-23 -145l-40 -149l137 6l-11 -49l-133 8l-32 -198h-57z" />
    <glyph glyph-name="bullet" unicode="&#x2022;" horiz-adv-x="351" 
d="M188 252q-46 0 -72.5 28t-26.5 82q0 56 26.5 86t75.5 30q47 0 73 -27.5t26 -82.5t-27 -85.5t-75 -30.5z" />
    <glyph glyph-name="ellipsis" unicode="&#x2026;" horiz-adv-x="609" 
d="M50 -6q-33 0 -33 34q0 23 12.5 42.5t36.5 19.5q31 0 31 -35q0 -23 -12.5 -42t-34.5 -19zM255 -6q-33 0 -33 34q0 23 12.5 42.5t36.5 19.5q31 0 31 -35q0 -23 -12.5 -42t-34.5 -19zM459 -6q-33 0 -33 34q0 23 12.5 42.5t36.5 19.5q31 0 31 -35q0 -23 -12.5 -42t-34.5 -19z
" />
    <glyph glyph-name="perthousand" unicode="&#x2030;" horiz-adv-x="900" 
d="M141 276q-39 0 -61 28.5t-22 89.5q0 34 6 77.5t19 87.5t32.5 81.5t47 60.5t63.5 23q39 0 60.5 -27.5t21.5 -85.5q0 -31 -6 -74.5t-18.5 -88.5t-32 -84.5t-47 -63.5t-63.5 -24zM93 0l412 714h48l-411 -714h-49zM146 319q23 0 42 22t33 57.5t23.5 75.5t14 76t4.5 59
q0 39 -10.5 55.5t-31.5 16.5q-23 0 -41.5 -20.5t-33 -54t-24 -72t-14.5 -75.5t-5 -63q0 -42 11.5 -59.5t31.5 -17.5zM421 -11q-39 0 -61 28.5t-22 90.5q0 35 6 78.5t19 87.5t33 81t47.5 59.5t62.5 22.5q40 0 61.5 -27.5t21.5 -85.5q0 -32 -6 -75t-18.5 -88.5t-32.5 -84.5
t-47.5 -63t-63.5 -24zM692 -11q-39 0 -61 28.5t-22 90.5q0 35 6 78.5t19 87.5t33 81t47.5 59.5t62.5 22.5q40 0 61.5 -27.5t21.5 -85.5q0 -32 -6 -75t-19 -88.5t-32.5 -84.5t-47 -63t-63.5 -24zM426 32q23 0 42 22t33 57.5t23.5 75.5t14 76t4.5 59q0 40 -11 56.5t-31 16.5
q-23 0 -42 -21t-33 -54.5t-23.5 -72t-14.5 -75t-5 -62.5q0 -42 11.5 -60t31.5 -18zM697 32q23 0 42 22t33 57.5t23.5 75.5t14 76t4.5 59q0 40 -11 56.5t-31 16.5q-23 0 -41.5 -21t-33 -54.5t-23.5 -72t-14 -75t-5 -62.5q0 -42 11 -60t31 -18z" />
    <glyph glyph-name="minute" unicode="&#x2032;" horiz-adv-x="183" 
d="M78 502l93 212h58l-113 -212h-38z" />
    <glyph glyph-name="second" unicode="&#x2033;" horiz-adv-x="328" 
d="M224 502l93 212h58l-113 -212h-38zM81 502l93 212h58l-113 -212h-38z" />
    <glyph glyph-name="guilsinglleft" unicode="&#x2039;" horiz-adv-x="234" 
d="M122 70l-92 191l1 13l170 180l31 -25l-144 -166l73 -176z" />
    <glyph glyph-name="guilsinglright" unicode="&#x203a;" horiz-adv-x="234" 
d="M28 70l-32 26l144 165l-73 176l39 17l93 -191l-2 -13z" />
    <glyph glyph-name="exclamdbl" unicode="&#x203c;" horiz-adv-x="405" 
d="M251 184l107 530h62l-125 -530h-44zM235 -6q-32 0 -32 34q0 23 12 42.5t37 19.5q30 0 30 -35q0 -23 -12 -42t-35 -19zM61 184l107 530h62l-125 -530h-44zM45 -6q-32 0 -32 34q0 23 12 42.5t37 19.5q30 0 30 -35q0 -23 -12 -42t-35 -19z" />
    <glyph glyph-name="fraction" unicode="&#x2044;" horiz-adv-x="121" 
d="M-231 0l540 714h52l-540 -714h-52z" />
    <glyph glyph-name="nsuperior" unicode="&#x207f;" horiz-adv-x="285" 
d="M59.5 287l73.4531 319.188h28.6006l-9.09961 -52.7988h1.2998q14.3008 24 38.0264 41.3984q23.7256 17.3994 54.9268 17.3994q29.9014 0 48.4268 -15.5986q18.5264 -15.5996 18.5264 -46.7988q0 -12.5996 -2.92578 -29.3984q-2.9248 -16.7998 -6.1748 -31.7988
l-46.8018 -201.592h-35.1016l46.1523 202.792q3.25 14.3994 6.1748 28.7988t2.9248 26.3984q0 37.1982 -40.9512 37.1982q-35.752 0 -62.4023 -33.2979q-26.6514 -33.2988 -41.6016 -95.6963l-37.7012 -166.193h-35.752z" />
    <glyph glyph-name="franc" unicode="&#x20a3;" horiz-adv-x="421" 
d="M52 0l30 144h-73l10 44h73l111 526h268l-10 -50h-214l-63 -294h200l-10 -49h-200l-29 -133h116l-10 -44h-115l-30 -144h-54z" />
    <glyph glyph-name="afii08941" unicode="&#x20a4;" horiz-adv-x="421" 
d="M-24 0l10 45q50 15 75 56.5t43 129.5h-79l9 42h80l22 109h-80l10 42h79l28 132q17 80 55.5 124t113.5 44q38 0 67.5 -11t51.5 -28l-26 -43q-18 14 -41.5 23.5t-53.5 9.5q-52 0 -77 -33.5t-38 -92.5l-26 -125h132l-9 -42h-132l-23 -109h132l-9 -42h-132
q-18 -83 -38.5 -122.5t-56.5 -58.5h275l-10 -50h-352z" />
    <glyph glyph-name="peseta" unicode="&#x20a7;" horiz-adv-x="562" 
d="M8 0l152 714h64q84 0 126.5 -42t42.5 -116q0 -70 -25 -130t-79.5 -97t-140.5 -37h-25l-62 -292h-53zM134 341h19q69 0 109.5 29.5t58 77t17.5 102.5q0 54 -28.5 84.5t-91.5 30.5h-16zM444 -10q-38 0 -56 22t-18 60q0 34 12 85l43 203h-54l7 30l57 17l41 124h36l-27 -126
h82l-9 -45h-81l-45 -208q-4 -22 -7 -39.5t-3 -30.5q0 -44 38 -44q14 0 24.5 2.5t20.5 6.5v-44q-28 -13 -61 -13z" />
    <glyph glyph-name="Euro" unicode="&#x20ac;" horiz-adv-x="421" 
d="M234 -10q-62 0 -97.5 31t-50 89t-14.5 140h-64l8 41h59q1 25 6.5 61t10.5 59h-54l9 41h56q22 80 58.5 141.5t87.5 96.5t119 35q36 0 63 -9t48 -24l-28 -45q-33 28 -86 28q-77 0 -128 -62t-79 -161h184l-8 -41h-188q-5 -23 -10 -59t-7 -61h164l-9 -41h-158
q0 -100 23 -155.5t93 -55.5q24 0 46 5.5t45 16.5l7 -48q-22 -11 -49.5 -17t-56.5 -6z" />
    <glyph glyph-name="afii61248" unicode="&#x2105;" horiz-adv-x="586" 
d="M192 387q-44 0 -69 28t-25 84q0 35 9 73.5t28.5 72t49 54.5t70.5 21q19 0 35 -4t30 -11l-18 -39q-22 14 -50 14q-27 0 -47 -17t-33.5 -44t-20 -58.5t-6.5 -60.5q0 -73 56 -73q17 0 31.5 4.5t28.5 11.5l-4 -40q-13 -7 -29 -11.5t-36 -4.5zM66 0l417 714h47l-416 -714h-48z
M372 -6q-44 0 -66.5 28.5t-22.5 78.5q0 35 8.5 74.5t26 74t45 56t65.5 21.5q43 0 66.5 -27.5t23.5 -79.5q0 -39 -9 -78.5t-26.5 -73t-45 -54t-65.5 -20.5zM376 34q25 0 43.5 19t30 48t17.5 61t6 59q0 31 -11.5 49t-37.5 18q-25 0 -43 -19.5t-30 -49t-17.5 -61t-5.5 -56.5
q0 -68 48 -68z" />
    <glyph glyph-name="afii61289" unicode="&#x2113;" horiz-adv-x="407" 
d="M224 -9q-62 0 -89 42t-27 126v129q-19 -8 -39 -15t-37 -11v44q19 5 38.5 12t37.5 15v233q0 82 27 120t80 38t80.5 -38t27.5 -107q0 -91 -42 -160.5t-122 -111.5v-151q0 -61 16 -90.5t53 -29.5q38 0 56 26.5t20 87.5h44q-2 -80 -31.5 -119.5t-92.5 -39.5zM159 354
q116 72 116 224q0 103 -59 103q-30 0 -43.5 -24.5t-13.5 -79.5v-223z" />
    <glyph glyph-name="afii61352" unicode="&#x2116;" horiz-adv-x="750" 
d="M13 0l151 714h66l101 -613q9 64 21 116l105 497h51l-150 -714h-62l-104 624q-3 -26 -8.5 -55t-10.5 -54l-109 -515h-51zM570 134q-46 0 -70.5 29t-24.5 82q0 36 9 74.5t27 71.5t45.5 53.5t65.5 20.5q47 0 71.5 -29.5t24.5 -81.5q0 -33 -8.5 -71.5t-26 -72t-45.5 -55
t-68 -21.5zM573 174q27 0 46.5 18t31.5 46.5t17.5 59t5.5 56.5q0 34 -13.5 52.5t-41.5 18.5q-25 0 -44 -17.5t-31 -45.5t-18 -58.5t-6 -57.5q0 -72 53 -72zM443 0l8 43h189l-8 -43h-189z" />
    <glyph glyph-name="trademark" unicode="&#x2122;" horiz-adv-x="639" 
d="M271 362v352h59l95 -294l97 294h56v-352h-40v194q0 24 0.5 49t1.5 49h-3l-98 -292h-34l-95 294h-3q1 -24 1.5 -48t0.5 -47v-199h-38zM101 362v314h-95v38h230v-38h-95v-314h-40z" />
    <glyph glyph-name="uni03A9" unicode="&#x3a9;" horiz-adv-x="558" 
d="M-28 0l10 50h144q-31 34 -51.5 92t-20.5 134q0 60 11.5 122.5t35.5 121t59.5 104.5t83.5 73t108 27q91 0 136 -56t45 -155t-26 -189t-72 -160.5t-107 -113.5h146l-11 -50h-209l9 46q64 42 112 114.5t74.5 162t26.5 185.5q0 81 -32 124t-96 43q-50 0 -88.5 -26.5
t-67 -70.5t-47 -97.5t-27.5 -108.5t-9 -103q0 -74 18.5 -128.5t53.5 -94.5l-10 -46h-199z" />
    <glyph glyph-name="estimated" unicode="&#x212e;" horiz-adv-x="576" 
d="M286 -17q-78 0 -131.5 38.5t-81.5 101.5t-28 136q0 84 31.5 146t86.5 96t123 34q68 1 123 -34t86.5 -97.5t30.5 -144.5h-375v-174q22 -25 59.5 -42.5t75.5 -17.5q66 0 106 28.5t73 85.5l33 -20q-38 -65 -85.5 -100.5t-126.5 -35.5zM151 301h270v135q-21 24 -57 41t-79 17
q-42 0 -75.5 -15t-58.5 -42v-136z" />
    <glyph glyph-name="oneeighth" unicode="&#x215b;" horiz-adv-x="657" 
d="M26 0l540 714h52l-540 -714h-52zM135 286l67 312q3 18 7.5 34.5t8.5 31.5q-11 -9 -21 -16.5t-20 -14.5l-59 -39l-19 32l130 88h43l-92 -428h-45zM462 -10q-50 0 -79.5 27t-29.5 74q0 51 29 82t81 51q-24 20 -36.5 43t-12.5 54q0 47 31.5 80.5t90.5 33.5q47 0 72.5 -25.5
t25.5 -66.5q0 -45 -27 -74t-71 -47q25 -18 42 -43t17 -63q0 -54 -34.5 -90t-98.5 -36zM505 242q38 14 61.5 36.5t23.5 60.5q0 26 -15.5 41.5t-43.5 15.5q-37 0 -55 -22t-18 -52q0 -28 12.5 -46t34.5 -34zM465 29q41 0 63 24.5t22 62.5q0 30 -16.5 51.5t-39.5 35.5
q-42 -15 -69 -40t-27 -67q0 -30 18 -48.5t49 -18.5z" />
    <glyph glyph-name="threeeighths" unicode="&#x215c;" horiz-adv-x="684" 
d="M123 279q-29 0 -52 6t-40 15v46q19 -12 42 -19.5t51 -7.5q50 0 76.5 27.5t26.5 70.5q0 38 -21.5 55.5t-56.5 17.5h-33l8 38h32q52 0 80 29t28 67q0 28 -15 44t-44 16q-25 0 -45 -9t-40 -22l-19 33q22 16 49.5 27.5t61.5 11.5q49 0 73.5 -27t24.5 -66q0 -47 -26.5 -79
t-68.5 -43l-1 -2q26 -9 42.5 -31t16.5 -59q0 -59 -38.5 -99t-111.5 -40zM56 0l540 714h52l-540 -714h-52zM489 -11q-50 0 -79.5 27t-29.5 74q0 51 29 82t81 51q-24 20 -36.5 43t-12.5 54q0 47 31.5 80.5t90.5 33.5q47 0 72.5 -25.5t25.5 -66.5q0 -45 -27 -74t-71 -47
q25 -18 42 -43t17 -63q0 -54 -34.5 -90t-98.5 -36zM532 241q38 14 61.5 36.5t23.5 60.5q0 26 -15.5 41.5t-43.5 15.5q-37 0 -55 -22t-18 -52q0 -28 12.5 -46t34.5 -34zM492 28q41 0 63 24.5t22 62.5q0 30 -16.5 51.5t-39.5 35.5q-42 -15 -69 -40t-27 -67q0 -30 18 -48.5
t49 -18.5z" />
    <glyph glyph-name="fiveeighths" unicode="&#x215d;" horiz-adv-x="678" 
d="M50 0l540 714h52l-540 -714h-52zM125 277q-50 0 -82 19l2 44q16 -11 37 -17t44 -6q37 0 61 18t35.5 46t11.5 58q0 70 -69 70q-14 0 -29.5 -3t-26.5 -7l-20 18l59 196h168l-9 -41h-131l-39 -130q9 2 20.5 4t24.5 2q46 0 72 -27.5t26 -77.5q0 -40 -16.5 -78t-50.5 -63
t-88 -25zM483 -11q-50 0 -79.5 27t-29.5 74q0 51 29 82t81 51q-24 20 -36.5 43t-12.5 54q0 47 31.5 80.5t90.5 33.5q47 0 72.5 -25.5t25.5 -66.5q0 -45 -27 -74t-71 -47q25 -18 42 -43t17 -63q0 -54 -34.5 -90t-98.5 -36zM526 241q38 14 61.5 36.5t23.5 60.5
q0 26 -15.5 41.5t-43.5 15.5q-37 0 -55 -22t-18 -52q0 -28 12.5 -46t34.5 -34zM486 28q41 0 63 24.5t22 62.5q0 30 -16.5 51.5t-39.5 35.5q-42 -15 -69 -40t-27 -67q0 -30 18 -48.5t49 -18.5z" />
    <glyph glyph-name="seveneighths" unicode="&#x215e;" horiz-adv-x="640" 
d="M9 0l540 714h52l-540 -714h-52zM445 -10q-50 0 -79.5 27t-29.5 74q0 51 29 82t81 51q-24 20 -36.5 43t-12.5 54q0 47 31.5 80.5t90.5 33.5q47 0 72.5 -25.5t25.5 -66.5q0 -45 -27 -74t-71 -47q25 -18 42 -43t17 -63q0 -54 -34.5 -90t-98.5 -36zM488 242q38 14 61.5 36.5
t23.5 60.5q0 26 -15.5 41.5t-43.5 15.5q-37 0 -55 -22t-18 -52q0 -28 12.5 -46t34.5 -34zM448 29q41 0 63 24.5t22 62.5q0 30 -16.5 51.5t-39.5 35.5q-42 -15 -69 -40t-27 -67q0 -30 18 -48.5t49 -18.5zM71 286l207 387h-171l9 41h219l-7 -35l-207 -393h-50z" />
    <glyph glyph-name="uni0394" unicode="&#x394;" horiz-adv-x="419" 
d="M-42 0l4 41l314 674h65l29 -675l-8 -40h-404zM24 51h291l-13 465q-6 75 -6 140q-13 -31 -29.5 -69t-35.5 -78z" />
    <glyph glyph-name="cyrillicbreve" horiz-adv-x="528" 
d="M313 607q-56 0 -85 27t-29 75q0 8 0.5 17.5t2.5 17.5h47q-1 -8 -2.5 -16.5t-1.5 -16.5q0 -64 71 -64q44 0 67.5 25.5t32.5 71.5h49q-13 -67 -50 -102t-102 -35z" />
    <glyph glyph-name="caroncommaaccent" horiz-adv-x="459" 
d="M222 600v8q20 34 38.5 77t27.5 75h53v-9q-7 -20 -22 -48t-32 -55.5t-34 -47.5h-31z" />
    <glyph glyph-name="commaaccentrotate" horiz-adv-x="453" 
d="M220 606v10q8 21 25 49t37.5 55.5t39.5 45.5h28v-13q-12 -15 -27.5 -41.5t-29.5 -55t-21 -50.5h-52z" />
    <glyph glyph-name="uni2074" unicode="&#x2074;" horiz-adv-x="289" 
d="M195 416l22 105h-157l6 35l220 291h46l-62 -287h51l-9 -39h-50l-23 -105h-44zM113 560h112l30 135q5 23 10 45t9 38q-18 -29 -48 -68z" />
    <glyph glyph-name="uni2075" unicode="&#x2075;" horiz-adv-x="289" 
d="M150 408q-50 0 -82 19l2 44q16 -11 37 -17t44 -6q37 0 61 18t35.5 46t11.5 58q0 70 -69 70q-14 0 -29.5 -3t-26.5 -7l-20 18l59 196h168l-9 -41h-131l-39 -130q9 2 20.5 4t24.5 2q46 0 72 -27.5t26 -77.5q0 -40 -16.5 -78t-50.5 -63t-88 -25z" />
    <glyph glyph-name="uni2077" unicode="&#x2077;" horiz-adv-x="289" 
d="M96 416l207 387h-171l9 41h219l-7 -35l-207 -393h-50z" />
    <glyph glyph-name="uni2078" unicode="&#x2078;" horiz-adv-x="289" 
d="M177 408q-50 0 -79.5 27t-29.5 74q0 51 29 82t81 51q-24 20 -36.5 43t-12.5 54q0 47 31.5 80.5t90.5 33.5q47 0 72.5 -25.5t25.5 -66.5q0 -45 -27 -74t-71 -47q25 -18 42 -43t17 -63q0 -54 -34.5 -90t-98.5 -36zM220 660q38 14 61.5 36.5t23.5 60.5q0 26 -15.5 41.5
t-43.5 15.5q-37 0 -55 -22t-18 -52q0 -28 12.5 -46t34.5 -34zM180 447q41 0 63 24.5t22 62.5q0 30 -16.5 51.5t-39.5 35.5q-42 -15 -69 -40t-27 -67q0 -30 18 -48.5t49 -18.5z" />
    <glyph glyph-name="uni2000" unicode="&#x2000;" horiz-adv-x="500" 
 />
    <glyph glyph-name="uni2001" unicode="&#x2001;" horiz-adv-x="1000" 
 />
    <glyph glyph-name="uni2002" unicode="&#x2002;" horiz-adv-x="500" 
 />
    <glyph glyph-name="uni2003" unicode="&#x2003;" horiz-adv-x="1000" 
 />
    <glyph glyph-name="uni2004" unicode="&#x2004;" horiz-adv-x="333" 
 />
    <glyph glyph-name="uni2005" unicode="&#x2005;" horiz-adv-x="250" 
 />
    <glyph glyph-name="uni2006" unicode="&#x2006;" horiz-adv-x="167" 
 />
    <glyph glyph-name="uni2007" unicode="&#x2007;" horiz-adv-x="422" 
 />
    <glyph glyph-name="uni2008" unicode="&#x2008;" horiz-adv-x="194" 
 />
    <glyph glyph-name="uni2009" unicode="&#x2009;" horiz-adv-x="186" 
 />
    <glyph glyph-name="uni200A" unicode="&#x200a;" horiz-adv-x="100" 
 />
    <glyph glyph-name="uni200B" unicode="&#x200b;" 
 />
    <glyph glyph-name="uniFEFF" unicode="&#xfeff;" horiz-adv-x="139" 
 />
    <glyph glyph-name="uniFFFC" unicode="&#xfffc;" horiz-adv-x="1000" 
d="M917 594v94h-95v52h146v-146h-51zM631 688v52h131v-52h-131zM440 688v52h131v-52h-131zM42 594v146h146v-52h-94v-94h-52zM249 688v52h130v-52h-130zM917 403v130h51v-130h-51zM42 403v130h52v-130h-52zM294 161q-64 0 -95.5 39.5t-31.5 106.5t31.5 106.5t95.5 39.5
t95.5 -39.5t31.5 -106.5t-31.5 -106.5t-95.5 -39.5zM728 162q-23 0 -38 5v47q15 -3 32 -3q20 0 31.5 9t11.5 34v195h59v-193q0 -48 -26.5 -71t-69.5 -23zM464 165v284h83q53 0 80 -16t27 -56q0 -51 -44 -59v-6q22 -4 37 -18.5t15 -46.5q0 -38 -26.5 -60t-71.5 -22h-100z
M294 210q34 0 50.5 25.5t16.5 71.5t-16.5 71.5t-50.5 25.5t-50.5 -25.5t-16.5 -71.5t16.5 -71.5t50.5 -25.5zM522 336h33q23 0 32 8t9 25q0 32 -44 32h-30v-65zM42 211v131h52v-131h-52zM917 211v131h51v-131h-51zM522 213h37q24 0 33.5 10.5t9.5 29.5q0 17 -10 27t-35 10
h-35v-77zM917 20v130h51v-130h-51zM42 20v130h52v-130h-52zM822 -186v51h95v95h51v-146h-146zM42 -186v146h52v-95h94v-51h-146zM631 -186v51h131v-51h-131zM440 -186v51h131v-51h-131zM249 -186v51h130v-51h-130z" />
    <glyph glyph-name="uniFFFD" unicode="&#xfffd;" horiz-adv-x="1000" 
d="M499 -156l-458 458l458 458l459 -458zM428 179h103v23q0 25 10 39.5t43 40.5q43 34 64.5 65t21.5 80q0 67 -46 104t-126 37q-42 0 -86 -14t-78 -34l40 -87q33 17 64 28t58 11q31 0 46 -14t15 -37q0 -29 -13 -46t-46 -43q-38 -30 -54 -57.5t-16 -66.5v-29zM484 -21
q27 0 47.5 15.5t20.5 50.5q0 37 -20.5 52t-47.5 15q-29 0 -49 -15t-20 -52q0 -35 20 -50.5t49 -15.5z" />
    <glyph glyph-name="uni01F0" unicode="&#x1f0;" horiz-adv-x="191" 
d="M-84 -240q-14 0 -26.5 2t-21.5 5v49q19 -8 44 -8q37 0 55.5 29t33.5 102l125 592h53l-127 -596q-18 -85 -45.5 -130t-90.5 -45zM139 606q-6 20 -17 49t-23.5 56.5t-22.5 44.5l1 10h30q15 -20 32 -48.5t32 -59.5q26 28 54 57t56 51h31l-1 -10q-18 -18 -42 -44.5t-46.5 -55
t-35.5 -50.5h-48z" />
    <glyph glyph-name="uni02BC" unicode="&#x2bc;" horiz-adv-x="147" 
d="M57 478q29 55 55 118t42 118h53l5 -11q-20 -54 -50.5 -114t-63.5 -111h-41z" />
    <glyph glyph-name="uni03D1" unicode="&#x3d1;" horiz-adv-x="460" 
d="M142 -10q-53 0 -84 28t-31 86q0 38 9.5 73.5t22.5 72.5q11 30 19 56t8 46q0 32 -26 32q-10 0 -21 -4t-19 -8l1 46q11 5 25.5 9t31.5 4q28 0 45.5 -17.5t17.5 -50.5q0 -25 -9.5 -55t-22.5 -64q-12 -35 -20 -69t-8 -66q0 -73 66 -73q54 0 94.5 51t68.5 138t45 197
q-95 0 -151.5 43t-56.5 131q0 47 17 86.5t49.5 63.5t78.5 24q65 0 97.5 -47.5t32.5 -147.5q0 -55 -6 -107h63l-9 -47h-61q-19 -123 -52.5 -220.5t-86 -154t-128.5 -56.5zM362 468q3 27 5 53.5t2 51.5q0 151 -78 151q-43 0 -66.5 -37.5t-23.5 -88.5q0 -71 44 -100.5
t117 -29.5z" />
    <glyph glyph-name="uni03D2" unicode="&#x3d2;" horiz-adv-x="362" 
d="M93 0l58 274l-65 440h56l49 -370q41 87 84 169.5t74 137.5q21 35 40.5 52t51.5 17q21 0 35 -7l-8 -46q-5 1 -10.5 2.5t-12.5 1.5q-17 0 -31 -12.5t-33 -44.5q-34 -64 -80.5 -154.5t-95.5 -188.5l-57 -271h-55z" />
    <glyph glyph-name="uni03D6" unicode="&#x3d6;" horiz-adv-x="544" 
d="M127 -10q-43 0 -69.5 33.5t-26.5 104.5q0 58 14 120.5t38.5 123t54.5 112.5h-91l5 26l61 21h471l-10 -47h-85q3 -20 6 -45t3 -54q0 -46 -6.5 -99t-20 -105.5t-35.5 -95.5t-53 -69t-72 -26q-37 0 -57 21.5t-22 59.5q-16 -37 -40 -59t-65 -22zM138 39q39 0 58 42.5
t35 116.5l25 119h52l-23 -116q-8 -36 -11.5 -59.5t-3.5 -44.5q0 -58 44 -58q26 0 47 23t36.5 61t26 83.5t15.5 92.5t5 87q0 27 -2.5 52.5t-5.5 45.5h-242q-47 -81 -77.5 -175.5t-30.5 -180.5q0 -47 14 -68t38 -21z" />
    <glyph glyph-name="uni1E3E" unicode="&#x1e3e;" horiz-adv-x="679" 
d="M14 0l152 714h77l48 -631h3l314 631h83l-151 -714h-54l111 524q12 54 25 106h-2l-316 -630h-56l-49 630h-2q-5 -29 -10 -55.5t-10 -55.5l-110 -519h-53zM400 789v9q34 35 67 77t52 74h63l-1 -8q-15 -20 -41 -49t-55 -57t-52 -46h-33z" />
    <glyph glyph-name="uni1E3F" unicode="&#x1e3f;" horiz-adv-x="663" 
d="M11 0l112 531h44l-14 -85h3q22 40 55.5 67.5t79.5 27.5q44 0 67.5 -23t27.5 -66h2q22 38 56 63.5t81 25.5q46 0 73.5 -26t27.5 -78q0 -16 -3 -35t-7 -36l-77 -366h-53l77 363q4 19 6 35.5t2 28.5q0 66 -63 66q-34 0 -61 -21.5t-45.5 -58.5t-27.5 -81l-72 -332h-53l79 370
q4 16 5.5 31.5t1.5 26.5q0 31 -15 48t-45 17q-39 0 -68.5 -28.5t-50 -76.5t-32.5 -108l-60 -280h-53zM360 604v9q34 35 67 77t52 74h63l-1 -8q-15 -20 -41 -49t-55 -57t-52 -46h-33z" />
    <glyph glyph-name="uni1E00" unicode="&#x1e00;" horiz-adv-x="422" 
d="M-63 0l329 716h65l29 -716h-55l-9 253h-185l-114 -253h-60zM133 303h161l-6 259q-1 24 -1.5 48.5t-0.5 44.5h-2q-8 -20 -17.5 -43.5t-21.5 -50.5zM118 -251q-44 0 -70 25.5t-26 68.5q0 42 26 68t70 26q42 0 69 -26.5t27 -66.5q0 -42 -26.5 -68.5t-69.5 -26.5zM117 -216
q28 0 43.5 16.5t15.5 42.5t-15.5 43t-43.5 17t-43.5 -17.5t-15.5 -42.5q0 -26 15 -42.5t44 -16.5z" />
    <glyph glyph-name="uni1E01" unicode="&#x1e01;" horiz-adv-x="448" 
d="M148 -10q-55 0 -85 41.5t-30 118.5q0 48 9.5 102t28 105t46 92.5t64 66.5t81.5 25t70 -27t33 -66h3l24 83h43l-112 -531h-43l14 94h-3q-26 -44 -61.5 -74t-81.5 -30zM162 37q38 0 69 29t54 75.5t36 100.5q10 43 16 81t6 70q0 47 -20.5 74t-56.5 27q-42 0 -75 -33
t-56 -85.5t-35 -112t-12 -111.5q0 -58 19.5 -86.5t54.5 -28.5zM133 -251q-44 0 -70 25.5t-26 68.5q0 42 26 68t70 26q42 0 69 -26.5t27 -66.5q0 -42 -26.5 -68.5t-69.5 -26.5zM132 -216q28 0 43.5 16.5t15.5 42.5t-15.5 43t-43.5 17t-43.5 -17.5t-15.5 -42.5q0 -26 15 -42.5
t44 -16.5z" />
    <glyph glyph-name="uni02F3" unicode="&#x2f3;" horiz-adv-x="312" 
d="M74 -251q-44 0 -70 25.5t-26 68.5q0 42 26 68t70 26q42 0 69 -26.5t27 -66.5q0 -42 -26.5 -68.5t-69.5 -26.5zM73 -216q28 0 43.5 16.5t15.5 42.5t-15.5 43t-43.5 17t-43.5 -17.5t-15.5 -42.5q0 -26 15 -42.5t44 -16.5z" />
    <glyph glyph-name="Ohorn" unicode="&#x1a0;" horiz-adv-x="546" 
d="M224 -10q-89 0 -132.5 59t-43.5 168q0 63 12 133t36 136.5t60 120t84 85.5t109 32q58 0 97 -27t57 -82q38 13 60.5 48t33.5 97h49l4 -9q-14 -72 -46.5 -114.5t-89.5 -61.5q4 -16 6 -32.5t2 -36.5q0 -61 -11 -131.5t-34 -138.5t-58.5 -123.5t-84 -89t-110.5 -33.5zM227 40
q49 0 87.5 31.5t67 83.5t47 114t27.5 124t9 113q0 169 -120 169q-49 0 -87.5 -31t-67.5 -81.5t-48 -111.5t-28.5 -122t-9.5 -112q0 -177 123 -177z" />
    <glyph glyph-name="ohorn" unicode="&#x1a1;" horiz-adv-x="443" 
d="M170 -10q-65 0 -101.5 44t-36.5 126q0 47 9.5 99.5t28 102.5t46.5 90.5t65.5 64.5t84.5 24q87 0 119 -81q37 13 58 48.5t32 96.5h48l4 -9q-13 -71 -44.5 -113.5t-86.5 -58.5q6 -27 6 -53q0 -63 -14.5 -129.5t-44 -123.5t-73 -92.5t-100.5 -35.5zM175 37q41 0 73 32
t54 83.5t33.5 110t11.5 111.5q0 56 -21 88t-65 32q-34 0 -61.5 -22t-48.5 -59t-35.5 -81.5t-22 -90t-7.5 -84.5q0 -120 89 -120z" />
    <glyph glyph-name="Uhorn" unicode="&#x1af;" horiz-adv-x="546" 
d="M206 -10q-74 0 -116.5 40.5t-42.5 115.5q0 37 11 86l102 482h55l-103 -484q-9 -44 -9 -79q0 -55 28 -83t79 -28q71 0 109 49t60 147l103 478h54l-22 -103q40 9 64 45t36 104h49l4 -9q-31 -160 -162 -182l-73 -338q-24 -113 -75.5 -177t-150.5 -64z" />
    <glyph glyph-name="uhorn" unicode="&#x1b0;" horiz-adv-x="474" 
d="M135 -10q-47 0 -74 26.5t-27 78.5q0 20 4 46.5t10 51.5l72 338h53l-73 -341q-4 -24 -8 -46t-4 -40q0 -66 62 -66q56 0 97.5 56t63.5 160l59 277h53l-15 -73q39 8 63 43.5t35 103.5h49l4 -9q-15 -79 -54 -124.5t-106 -55.5l-88 -416h-43l12 87h-2q-22 -41 -58.5 -69
t-84.5 -28z" />
    <glyph glyph-name="hook" 
d="M-274 590l16 86q85 5 85 62q0 41 -50 41q-16 0 -27.5 -2t-19.5 -4v37q11 4 25 6t31 2q40 0 64 -20t24 -55q0 -41 -27 -64.5t-71 -28.5l-14 -60h-36z" />
    <glyph glyph-name="uni0400" unicode="&#x400;" horiz-adv-x="404" 
d="M14 0l152 714h277l-10 -50h-223l-56 -265h208l-10 -49h-209l-64 -300h223l-10 -50h-278zM321 791q-15 18 -32 45t-32.5 55t-24.5 50v9h58q26 -78 63 -149v-10h-32z" />
    <glyph glyph-name="uni040D" unicode="&#x40d;" horiz-adv-x="546" 
d="M14 0l152 714h53l-91 -428q-10 -49 -20 -94.5t-21 -88.5h2l410 611h62l-151 -714h-53l87 413q13 56 24 107.5t22 91.5h-3l-409 -612h-64zM385 791q-15 18 -32 45t-32.5 55t-24.5 50v9h58q26 -78 63 -149v-10h-32z" />
    <glyph glyph-name="uni0450" unicode="&#x450;" horiz-adv-x="396" 
d="M180 -10q-67 0 -106.5 43t-39.5 129q0 76 18 144.5t49.5 121.5t74 83t92.5 30t78.5 -26.5t28.5 -79.5q0 -55 -30.5 -97.5t-90.5 -67.5t-147 -25h-12q-3 -17 -5 -37t-2 -41q0 -131 103 -131q30 0 55.5 8.5t51.5 22.5v-48q-23 -13 -52.5 -21t-65.5 -8zM103 290h11
q104 0 156.5 40t52.5 102q0 29 -15 46t-46 17q-34 0 -65 -26.5t-56 -72.5t-38 -106zM276 606q-15 18 -32 45t-32.5 55t-24.5 50v9h58q26 -78 63 -149v-10h-32z" />
    <glyph glyph-name="uni045D" unicode="&#x45d;" horiz-adv-x="440" 
d="M137 -10q-48 0 -75.5 26.5t-27.5 77.5q0 20 4.5 46.5t9.5 51.5l72 339h54l-73 -341q-5 -24 -8.5 -46t-3.5 -42q0 -64 63 -64q55 0 96.5 56t63.5 160l59 277h53l-112 -531h-43l13 87h-3q-22 -41 -58.5 -69t-83.5 -28zM292 606q-15 18 -32 45t-32.5 55t-24.5 50v9h58
q26 -78 63 -149v-10h-32z" />
    <glyph glyph-name="uni0460" unicode="&#x460;" horiz-adv-x="711" 
d="M130 -2q-44 188 -48.5 366t33.5 350h55q-25 -109 -31.5 -220t1.5 -216.5t27 -199.5h3q12 31 27 66.5t35 75.5l137 285q4 54 11 108.5t16 100.5h52q-30 -160 -28 -325t26 -312h3q95 144 161 305.5t100 331.5h57q-38 -186 -113.5 -365t-195.5 -351h-50q-21 99 -31 201.5
t-10 190.5l-184 -392h-53z" />
    <glyph glyph-name="uni0461" unicode="&#x461;" horiz-adv-x="600" 
d="M95 0q-34 131 -39.5 266.5t19.5 264.5h54q-25 -121 -23 -241t26 -226h2q12 23 26 45.5t27 44.5l103 171q2 53 7.5 106t14.5 100h53q-23 -119 -23 -239t20 -229h2q151 194 212 468h54q-34 -152 -96 -283.5t-163 -247.5h-47q-14 58 -22 123t-9 126l-150 -249h-48z" />
    <glyph glyph-name="uni0462" unicode="&#x462;" horiz-adv-x="467" 
d="M46 0l117 557h-102l9 46h103l31 145h54l-30 -145h139l-10 -46h-139l-33 -157h61q86 0 127 -41.5t41 -114.5q0 -62 -23.5 -118t-75 -91t-135.5 -35h-134zM111 49h73q63 0 101 27t55.5 71t17.5 94q0 56 -30.5 82.5t-92.5 26.5h-60z" />
    <glyph glyph-name="uni0463" unicode="&#x463;" horiz-adv-x="406" 
d="M178 -10q-64 0 -96 32t-32 90q0 21 3.5 43.5t7.5 42.5l63 289h-79l9 44h79l25 114h53l-25 -114h97l-10 -44h-96l-43 -197q14 3 36 6t45 3q69 0 102 -34t33 -94q0 -46 -19.5 -87.5t-58 -67.5t-94.5 -26zM182 35q40 0 65 20.5t37 50.5t12 61q0 87 -90 87q-22 0 -42.5 -3
t-38.5 -7q-12 -50 -17 -79t-5 -49q0 -38 19.5 -59.5t59.5 -21.5z" />
    <glyph glyph-name="uni0464" unicode="&#x464;" horiz-adv-x="644" 
d="M434 -10q-87 0 -133.5 61.5t-46.5 184.5q0 26 3 55t8 59h-122l-74 -350h-55l152 714h54l-67 -315h122q15 63 42.5 121.5t66 104.5t88.5 73t110 27q38 0 66.5 -8.5t52.5 -24.5l-28 -46q-38 29 -94 29q-63 0 -112 -39t-83.5 -102.5t-52.5 -134.5h237l-11 -49h-237
q-5 -29 -7.5 -57.5t-2.5 -54.5q0 -101 34 -149.5t99 -48.5q28 0 55 6t53 17l2 -50q-27 -11 -56 -17t-63 -6z" />
    <glyph glyph-name="uni0465" unicode="&#x465;" horiz-adv-x="521" 
d="M354 -10q-67 0 -103 42.5t-36 128.5q0 23 1.5 46t5.5 47h-103l-54 -254h-54l113 531h53l-48 -231h102q15 64 44.5 119t73.5 88.5t102 33.5q25 0 48.5 -4.5t41.5 -14.5l-19 -45q-31 17 -72 17q-40 0 -73 -26.5t-56 -71t-35 -96.5h163l-9 -46h-164q-4 -22 -6 -45t-2 -45
q0 -127 94 -127q24 0 46.5 6.5t42.5 17.5v-47q-18 -10 -43.5 -17t-53.5 -7z" />
    <glyph glyph-name="uni0466" unicode="&#x466;" horiz-adv-x="456" 
d="M-63 0l348 716h61l49 -716h-55l-22 349h-51l-73 -349h-52l74 349h-54l-168 -349h-57zM185 398h129l-8 180q0 14 -1 36t-2 40q-7 -20 -14.5 -36t-19.5 -41z" />
    <glyph glyph-name="uni0467" unicode="&#x467;" horiz-adv-x="395" 
d="M-50 0l275 531h58l49 -531h-53l-21 250h-38l-53 -250h-50l54 250h-40l-126 -250h-55zM155 297h99q-5 83 -8 122t-3 59q-9 -20 -19.5 -42t-26.5 -54.5t-42 -84.5z" />
    <glyph glyph-name="uni0468" unicode="&#x468;" horiz-adv-x="651" 
d="M14 0l152 714h54l-66 -313h173l153 315h61l48 -716h-55l-22 349h-50l-73 -349h-52l73 349h-54l-167 -349h-57l170 352h-159l-74 -352h-55zM380 398h129l-8 180q-1 23 -2 41t-1 36q-7 -18 -14.5 -35.5t-18.5 -38.5z" />
    <glyph glyph-name="uni0469" unicode="&#x469;" horiz-adv-x="549" 
d="M11 0l113 531h54l-49 -229h139l117 229h58l49 -531h-52l-21 250h-38l-53 -250h-50l54 250h-40l-127 -250h-53l131 255h-124l-54 -255h-54zM316 297h99l-13 176z" />
    <glyph glyph-name="uni046A" unicode="&#x46a;" horiz-adv-x="511" 
d="M-51 0l105 247q22 51 43.5 85.5t53 53t80.5 20.5l-91 267l8 41h396l-9 -41l-205 -267q65 -7 87 -47t23 -116l3 -243h-55l-2 242q-1 63 -18 91t-65 28h-6l-76 -361h-53l77 361h-7q-35 0 -57.5 -12.5t-38.5 -38.5t-33 -66l-104 -244h-56zM281 414l188 252h-271z" />
    <glyph glyph-name="uni046B" unicode="&#x46b;" horiz-adv-x="481" 
d="M-50 0l93 195q27 56 60 82.5t94 31.5l-87 187l8 35h348l-7 -35l-163 -187q56 -7 77 -40.5t26 -96.5l14 -172h-52l-13 171q-4 59 -22.5 78t-63.5 19l-57 -268h-49l56 268q-47 0 -71.5 -16.5t-45.5 -60.5l-91 -191h-54zM247 314l144 173h-223z" />
    <glyph glyph-name="uni046C" unicode="&#x46c;" horiz-adv-x="717" 
d="M14 0l152 714h54l-65 -306h278l-90 265l9 41h395l-9 -41l-205 -268q65 -7 87 -46.5t23 -116.5l3 -242h-56l-1 238q-1 68 -18.5 94.5t-65.5 26.5h-5l-76 -359h-53l76 359h-7q-35 0 -57 -11.5t-39 -39.5t-38 -77l-98 -231h-56l105 247q20 47 35.5 71t37.5 40h-185l-76 -358
h-55zM483 413l188 253h-271z" />
    <glyph glyph-name="uni046D" unicode="&#x46d;" horiz-adv-x="652" 
d="M11 0l113 531h54l-47 -220h240l-85 185l8 35h348l-7 -35l-163 -189q53 -7 75.5 -38.5t27.5 -97.5l14 -171h-53l-12 172q-4 57 -23 75.5t-64 18.5l-56 -266h-50l56 266q-32 0 -52.5 -6.5t-35.5 -24t-31 -49.5l-88 -186h-54l90 189q26 54 55 75h-150l-56 -264h-54zM421 312
l145 175h-223z" />
    <glyph glyph-name="uni046E" unicode="&#x46e;" horiz-adv-x="406" 
d="M239 -190q-11 5 -26.5 8t-37.5 3q-27 0 -57.5 -3.5t-58.5 -3.5q-54 0 -81.5 26t-27.5 70q0 63 42.5 91.5t126.5 42.5q85 14 129 53.5t44 122.5q0 67 -34.5 96.5t-98.5 29.5h-63l10 49h64q54 0 95.5 23.5t64.5 64t23 92.5q0 48 -26 74t-75 26q-40 0 -71 -13.5t-57 -33.5
l-24 41q26 20 58 34t73 18q-11 33 -25 63t-27 53l1 8h37q11 -17 26 -43.5t28 -60.5q26 49 51.5 76.5t55.5 27.5q9 0 15.5 -1.5t11.5 -3.5v-40q-5 2 -10.5 3t-11.5 1q-21 0 -39.5 -23t-40.5 -63q48 -9 76.5 -44t28.5 -93q0 -52 -19.5 -96t-55 -73.5t-85.5 -39.5l-1 -3
q42 -10 72 -46t29 -102q-1 -103 -54.5 -156t-160.5 -69q-67 -10 -97.5 -26t-30.5 -56q0 -24 15 -38t47 -14q26 0 54.5 4t57.5 4q22 0 35.5 -2.5t24.5 -6.5v-51z" />
    <glyph glyph-name="uni046F" unicode="&#x46f;" horiz-adv-x="327" 
d="M204 -169q-10 5 -24.5 7.5t-34.5 2.5q-21 0 -45.5 -2.5t-50.5 -2.5q-49 0 -75.5 23.5t-26.5 65.5q0 54 36 79t97 36q68 14 102.5 41.5t34.5 90.5q0 43 -23.5 64.5t-65.5 21.5h-43l10 45h38q52 0 86 33.5t34 85.5q0 72 -71 72q-26 0 -46.5 -6.5t-42.5 -17.5l-16 42
q19 10 40 17.5t44 9.5q-18 58 -45 111v9h37q13 -19 25.5 -48t22.5 -60q28 52 55.5 80t58.5 28q16 0 26 -5v-39q-10 4 -21 4q-37 0 -83 -84q70 -23 70 -106q0 -55 -29.5 -95t-77.5 -51l-1 -3q32 -9 51.5 -36.5t19.5 -71.5q0 -58 -22.5 -93.5t-63 -54t-94.5 -28.5
q-44 -8 -68 -22.5t-24 -44.5q0 -46 56 -46q25 0 48.5 2.5t43.5 2.5q37 0 58 -9v-48z" />
    <glyph glyph-name="uni0470" unicode="&#x470;" horiz-adv-x="584" 
d="M199 0l46 220h-2q-70 2 -115 39t-45 118q0 25 3.5 53.5t10.5 61.5l47 222h55l-48 -224q-7 -34 -10.5 -61t-3.5 -48q0 -64 34 -87.5t81 -23.5h4l94 444h54l-94 -445h3q61 1 98 25t58 68t33 104l52 248h56l-54 -257q-16 -71 -44 -124.5t-78 -83t-130 -29.5h-4l-46 -220h-55
z" />
    <glyph glyph-name="uni0471" unicode="&#x471;" horiz-adv-x="524" 
d="M126 -240l50 231q-67 6 -102.5 45.5t-35.5 108.5q0 26 4 54.5t10 60.5l59 271h53l-59 -274q-6 -29 -10.5 -56t-4.5 -53q0 -101 95 -110l154 724h52l-153 -723q51 1 86.5 32t59 82t37 115t19.5 132t7 131h53q-1 -73 -8.5 -149t-25 -145.5t-47.5 -124.5t-77 -88t-114 -34
l-50 -230h-52z" />
    <glyph glyph-name="uni0472" unicode="&#x472;" horiz-adv-x="545" 
d="M222 -10q-89 0 -132.5 59t-43.5 168q0 63 12 133t36 136.5t60 120t84.5 85.5t109.5 32q83 0 128.5 -54t45.5 -164q0 -60 -11 -130t-34 -138t-58.5 -124.5t-84.5 -90t-112 -33.5zM123 388h332q5 32 8 62t3 56q0 169 -121 169q-45 0 -81 -24.5t-63.5 -65.5t-46.5 -92
t-31 -105zM226 40q46 0 82 26t63 69t45.5 96.5t29.5 108.5h-333q-5 -34 -8 -65.5t-3 -57.5q0 -177 124 -177z" />
    </font>
</defs>
</svg>
