<?xml version="1.0" standalone="no"?>
<!DOCTYPE svg PUBLIC "-//W3C//DTD SVG 1.1//EN" "http://www.w3.org/Graphics/SVG/1.1/DTD/svg11.dtd" >
<svg>
<metadata>
Created by FontForge 20120731 at Thu Nov  8 00:23:33 2018
 By Salim,,,
Copyright 2015 Google Inc. All Rights Reserved.
</metadata>
<defs>
<font id="NotoSans-Condensed" horiz-adv-x="0" >
  <font-face 
    font-family="Noto Sans Cond"
    font-weight="400"
    font-stretch="condensed"
    units-per-em="1000"
    panose-1="2 11 5 6 4 5 4 2 2 4"
    ascent="800"
    descent="-200"
    x-height="537"
    cap-height="714"
    bbox="-564 -389 2802 1061"
    underline-thickness="50"
    underline-position="-75"
    unicode-range="U+000D-FFFD"
  />
<missing-glyph horiz-adv-x="596" 
d="M88 0v714h411v-714h-411zM139 51h309v612h-309v-612z" />
    <glyph glyph-name=".notdef" horiz-adv-x="596" 
d="M88 0v714h411v-714h-411zM139 51h309v612h-309v-612z" />
    <glyph glyph-name="NULL" 
 />
    <glyph glyph-name="NULL" 
 />
    <glyph glyph-name="CR" unicode="&#xd;" horiz-adv-x="208" 
 />
    <glyph glyph-name="space" unicode=" " horiz-adv-x="208" 
 />
    <glyph glyph-name="exclam" unicode="!" horiz-adv-x="245" 
d="M152 201h-59l-21 513h101zM66 55q0 65 57 65q25 0 40.5 -15t15.5 -50q0 -34 -16.5 -49.5t-39.5 -15.5q-26 0 -41.5 16t-15.5 49z" />
    <glyph glyph-name="quotedbl" unicode="&#x22;" horiz-adv-x="388" 
d="M154 714l-17 -258h-59l-18 258h94zM328 714l-17 -258h-59l-18 258h94z" />
    <glyph glyph-name="numbersign" unicode="#" horiz-adv-x="516" 
d="M391 445l-23 -165h102v-65h-112l-31 -215h-65l31 215h-112l-30 -215h-64l30 215h-96v65h105l24 165h-102v65h111l29 204h66l-30 -204h112l30 204h63l-29 -204h96v-65h-105zM191 280h111l24 165h-112z" />
    <glyph glyph-name="dollar" unicode="$" horiz-adv-x="472" 
d="M209 -58v109q-48 1 -90.5 10t-71.5 23v80q30 -16 73.5 -28t88.5 -14v211q-86 31 -124 70t-38 107q0 70 44.5 113.5t117.5 50.5v86h53v-84q84 -4 150 -36l-24 -68q-55 26 -126 32v-211q83 -31 124.5 -67.5t41.5 -104.5q0 -66 -43 -110.5t-123 -55.5v-113h-53zM209 414v188
q-43 -5 -64.5 -29t-21.5 -59q0 -40 18.5 -61t67.5 -39zM262 126q46 8 68 32t22 58q0 36 -20 57.5t-70 39.5v-187z" />
    <glyph glyph-name="percent" unicode="%" horiz-adv-x="714" 
d="M168 724q61 0 94 -58t33 -165t-32.5 -166t-94.5 -59q-61 0 -93 59t-32 166t31 165t94 58zM538 714l-294 -714h-69l294 714h69zM167 663q-30 0 -42.5 -40.5t-12.5 -121.5q0 -82 12.5 -122.5t43.5 -40.5q57 0 57 163q0 162 -58 162zM545 439q61 0 94 -58.5t33 -164.5
q0 -108 -32.5 -166.5t-94.5 -58.5q-61 0 -93 59.5t-32 165.5q0 109 31.5 166t93.5 57zM544 378q-29 0 -42 -40.5t-13 -121.5q0 -82 13 -123t43 -41q57 0 57 164q0 162 -58 162z" />
    <glyph glyph-name="ampersand" unicode="&#x26;" horiz-adv-x="554" 
d="M235 724q65 0 101 -39.5t36 -111.5q0 -61 -27 -107t-77 -87l128 -175q16 28 26 63.5t15 77.5h85q-8 -54 -26.5 -110t-47.5 -99l106 -136h-104l-56 76q-38 -40 -81 -63t-104 -23q-85 0 -129 53t-44 139q0 68 31 116t93 92q-32 46 -49.5 88t-17.5 97q0 70 38.5 109.5
t103.5 39.5zM233 656q-27 0 -43 -21t-16 -61q0 -34 13 -71.5t37 -68.5q38 29 53.5 63.5t15.5 76.5q0 82 -60 82zM203 335q-42 -32 -61.5 -65.5t-19.5 -83.5q0 -56 26 -88t70 -32q40 0 72 19t57 53z" />
    <glyph glyph-name="quotesingle" unicode="'" horiz-adv-x="213" 
d="M154 714l-17 -258h-59l-18 258h94z" />
    <glyph glyph-name="parenleft" unicode="(" horiz-adv-x="294" 
d="M46 276q0 125 37 239.5t107 202.5h74q-66 -97 -100 -209.5t-34 -231.5q0 -117 34 -229.5t99 -205.5h-73q-72 86 -108 198t-36 236z" />
    <glyph glyph-name="parenright" unicode=")" horiz-adv-x="294" 
d="M247 276q0 -123 -36 -235.5t-107 -198.5h-74q65 94 99 206.5t34 228.5q0 120 -34 232.5t-100 208.5h75q71 -88 107 -203.5t36 -238.5z" />
    <glyph glyph-name="asterisk" unicode="*" horiz-adv-x="443" 
d="M265 761l-16 -149l141 42l15 -83l-138 -11l95 -125l-74 -42l-67 137l-66 -137l-73 42l92 125l-136 11l15 82l140 -41l-16 149h88z" />
    <glyph glyph-name="plus" unicode="+" horiz-adv-x="473" 
d="M271 387h164v-69h-164v-201h-70v201h-165v69h165v203h70v-203z" />
    <glyph glyph-name="comma" unicode="," horiz-adv-x="239" 
d="M172 115l7 -11q-29 -123 -79 -235h-62q15 59 27.5 125.5t18.5 120.5h88z" />
    <glyph glyph-name="hyphen" unicode="-" horiz-adv-x="288" 
d="M31 229v80h227v-80h-227z" />
    <glyph glyph-name="period" unicode="." horiz-adv-x="239" 
d="M63 55q0 33 15 49t41 16q25 0 41 -15t16 -50q0 -34 -16 -49.5t-41 -15.5t-40.5 16t-15.5 49z" />
    <glyph glyph-name="slash" unicode="/" horiz-adv-x="371" 
d="M359 716l-263 -718h-80l264 718h79z" />
    <glyph glyph-name="zero" unicode="0" horiz-adv-x="472" 
d="M428 357q0 -173 -45 -270t-148 -97q-62 0 -105 35.5t-65 116t-22 215.5q0 182 46.5 274.5t145.5 92.5q97 0 145 -93t48 -274zM129 357q0 -147 24.5 -219t81.5 -72t82 72.5t25 218.5t-25 219t-82 73t-81.5 -72.5t-24.5 -219.5z" />
    <glyph glyph-name="one" unicode="1" horiz-adv-x="472" 
d="M312 0h-84v486q0 36 1 67.5t3 63.5q-9 -11 -20.5 -23t-28.5 -28l-66 -60l-47 53l170 155h72v-714z" />
    <glyph glyph-name="two" unicode="2" horiz-adv-x="472" 
d="M423 0h-385v65l154 202q46 59 74 102.5t40.5 83t12.5 85.5q0 51 -27 81t-76 30q-38 0 -67.5 -13.5t-60.5 -41.5l-45 58q40 36 82 54t95 18q86 0 135.5 -50t49.5 -132q0 -57 -16 -104.5t-47 -94.5t-76 -103l-127 -160v-4h284v-76z" />
    <glyph glyph-name="three" unicode="3" horiz-adv-x="472" 
d="M406 549q0 -65 -33 -110t-94 -64v-4q70 -13 106 -58t36 -115q0 -93 -56 -150.5t-163 -57.5q-48 0 -87 7.5t-75 24.5v83q75 -42 156 -42q71 0 104 38t33 101q0 130 -162 130h-46v73h49q70 0 108.5 37.5t38.5 98.5q0 53 -27.5 81.5t-77.5 28.5q-42 0 -73 -14.5t-63 -39.5
l-41 59q39 34 84 51t100 17q88 0 135.5 -48t47.5 -127z" />
    <glyph glyph-name="four" unicode="4" horiz-adv-x="472" 
d="M456 157h-83v-157h-83v157h-272v70l266 492h89v-489h83v-73zM290 230v258q0 32 1 67t3 60h-4q-8 -22 -17.5 -43.5t-18.5 -40.5l-158 -301h194z" />
    <glyph glyph-name="five" unicode="5" horiz-adv-x="472" 
d="M230 439q90 0 142 -57.5t52 -152.5q0 -108 -58 -173.5t-166 -65.5q-92 0 -147 33v83q31 -20 69 -31t74 -11q69 0 105.5 45t36.5 116q0 70 -35 106t-102 36q-25 0 -52 -4.5t-50 -11.5l-37 31l23 332h297v-77h-225l-15 -208q20 4 42.5 7t45.5 3z" />
    <glyph glyph-name="six" unicode="6" horiz-adv-x="472" 
d="M47 304q0 124 24 218.5t81.5 148t155.5 53.5q21 0 41.5 -3t37.5 -7v-75q-33 12 -76 12q-92 0 -134.5 -75t-46.5 -207h4q19 37 51 59t78 22q54 0 91 -28.5t56 -79t19 -115.5q0 -69 -21.5 -122.5t-62.5 -84t-101 -30.5q-90 0 -143.5 80t-53.5 234zM243 65q47 0 74.5 39.5
t27.5 121.5q0 74 -25.5 113t-75.5 39q-35 0 -59.5 -18t-37.5 -47t-13 -60q0 -42 11 -85.5t35 -73t63 -29.5z" />
    <glyph glyph-name="seven" unicode="7" horiz-adv-x="472" 
d="M106 0l239 636h-310v78h397v-64l-236 -650h-90z" />
    <glyph glyph-name="eight" unicode="8" horiz-adv-x="472" 
d="M237 724q82 0 130.5 -45t48.5 -123q0 -61 -31.5 -105.5t-87.5 -76.5q59 -36 98 -80t39 -112q0 -86 -53 -139t-141 -53q-97 0 -149.5 51t-52.5 137q0 66 33.5 113t93.5 81q-52 37 -80 81.5t-28 101.5q0 79 50 124t130 45zM235 654q-43 0 -69 -27.5t-26 -75.5
q0 -49 25.5 -80t70.5 -58q47 27 71.5 59t24.5 79q0 48 -26 75.5t-71 27.5zM122 178q0 -51 29 -84.5t85 -33.5t85 34t29 88q0 42 -26.5 76.5t-78.5 64.5l-19 12q-55 -31 -79.5 -68t-24.5 -89z" />
    <glyph glyph-name="nine" unicode="9" horiz-adv-x="472" 
d="M423 415q0 -125 -25 -220.5t-82.5 -150t-155.5 -54.5q-19 0 -42.5 3t-38.5 7v76q17 -6 37 -9.5t42 -3.5q51 0 85 23t54.5 62.5t30.5 90t12 105.5h-5q-18 -36 -50.5 -58t-78.5 -22q-54 0 -91 28.5t-55.5 79t-18.5 114.5q0 69 21.5 122.5t63.5 84.5t104 31q88 0 140.5 -79
t52.5 -230zM229 649q-49 0 -76 -39.5t-27 -121.5q0 -74 25 -113t75 -39q36 0 61 19t37.5 49t12.5 63q0 27 -5.5 58.5t-18 59.5t-33 46t-51.5 18z" />
    <glyph glyph-name="colon" unicode=":" horiz-adv-x="240" 
d="M64 478q0 65 56 65q26 0 41 -16t15 -49q0 -34 -16 -50t-40 -16q-26 0 -41 16t-15 50zM64 55q0 65 56 65q25 0 40.5 -15t15.5 -50q0 -34 -16 -49.5t-40 -15.5q-26 0 -41 16t-15 49z" />
    <glyph glyph-name="semicolon" unicode=";" horiz-adv-x="240" 
d="M63 478q0 33 15 49t41 16t41.5 -16t15.5 -49q0 -34 -16.5 -50t-40.5 -16q-26 0 -41 16t-15 50zM170 115l7 -11q-29 -123 -79 -235h-64q16 60 28.5 126t19.5 120h88z" />
    <glyph glyph-name="less" unicode="&#x3c;" horiz-adv-x="473" 
d="M436 127l-401 202v49l401 209v-78l-308 -155l308 -149v-78z" />
    <glyph glyph-name="equal" unicode="=" horiz-adv-x="473" 
d="M38 422v69h395v-69h-395zM38 213v69h395v-69h-395z" />
    <glyph glyph-name="greater" unicode="&#x3e;" horiz-adv-x="473" 
d="M36 205l308 149l-308 155v78l401 -209v-49l-401 -202v78z" />
    <glyph glyph-name="question" unicode="?" horiz-adv-x="353" 
d="M111 201v28q0 53 13 89.5t49 76.5q42 47 58.5 80t16.5 76q0 48 -23 73t-65 25q-34 0 -61.5 -10.5t-55.5 -27.5l-31 66q34 23 71.5 35t80.5 12q80 0 123 -44t43 -123q0 -43 -10.5 -75t-31 -60.5t-50.5 -63.5q-24 -27 -37.5 -48t-18.5 -41.5t-5 -48.5v-19h-66zM90 55
q0 33 15 49t41 16q25 0 40.5 -15t15.5 -50q0 -34 -16 -49.5t-40 -15.5q-26 0 -41 16t-15 49z" />
    <glyph glyph-name="at" unicode="@" horiz-adv-x="725" 
d="M676 360q0 -111 -36 -179.5t-103 -68.5q-41 0 -63.5 24.5t-27.5 65.5h-5q-13 -44 -38 -67t-63 -23q-58 0 -90.5 48t-32.5 134q0 108 44 169t124 61q30 0 60.5 -5.5t53.5 -14.5l-9 -207q0 -16 -0.5 -28.5t-0.5 -20.5q0 -42 13.5 -58.5t35.5 -16.5q34 0 52.5 48.5
t18.5 140.5q0 90 -28.5 156.5t-78.5 103t-117 36.5q-69 0 -119.5 -31.5t-83 -84t-48 -118t-15.5 -133.5q0 -91 25.5 -162.5t77.5 -112.5t132 -41q44 0 87 11.5t75 27.5v-64q-35 -17 -74.5 -26.5t-89.5 -9.5q-144 0 -222.5 97t-78.5 274q0 130 41 228t116.5 152t176.5 53
q89 0 154.5 -47t101 -128t35.5 -183zM288 292q0 -119 63 -119q32 0 48 39.5t20 119.5l7 128q-18 6 -45 6q-47 0 -70 -47t-23 -127z" />
    <glyph glyph-name="A" unicode="A" horiz-adv-x="507" 
d="M416 0l-62 222h-202l-62 -222h-90l205 715h95l206 -715h-90zM335 301l-61 229q-5 22 -12 52t-10 52q-10 -54 -22 -104l-60 -229h165z" />
    <glyph glyph-name="B" unicode="B" horiz-adv-x="529" 
d="M80 714h172q106 0 161 -42t55 -132q0 -67 -28.5 -108.5t-83.5 -53.5v-4q62 -14 95.5 -54t33.5 -116q0 -94 -53 -149t-148 -55h-204v714zM166 409h91q67 0 95 30.5t28 92.5q0 108 -128 108h-86v-231zM166 336v-262h106q64 0 94 35t30 100q0 61 -33 94t-100 33h-97z" />
    <glyph glyph-name="C" unicode="C" horiz-adv-x="502" 
d="M325 648q-61 0 -101.5 -39t-60.5 -105t-20 -147q0 -135 48.5 -212.5t136.5 -77.5q35 0 66.5 7.5t60.5 19.5v-76q-29 -14 -62 -21t-75 -7q-84 0 -143 44.5t-90.5 127t-31.5 196.5q0 104 30 187t90.5 131.5t150.5 48.5q84 0 152 -38l-32 -73q-26 15 -55.5 24.5t-63.5 9.5z
" />
    <glyph glyph-name="D" unicode="D" horiz-adv-x="580" 
d="M528 365q0 -181 -74 -273t-213 -92h-161v714h171q132 0 204.5 -89t72.5 -260zM438 362q0 140 -49.5 208t-143.5 68h-79v-562h69q103 0 153 72t50 214z" />
    <glyph glyph-name="E" unicode="E" horiz-adv-x="448" 
d="M399 0h-319v714h319v-76h-233v-227h219v-76h-219v-258h233v-77z" />
    <glyph glyph-name="F" unicode="F" horiz-adv-x="422" 
d="M166 0h-86v714h319v-76h-233v-257h219v-77h-219v-304z" />
    <glyph glyph-name="G" unicode="G" horiz-adv-x="600" 
d="M338 377h202v-351q-96 -36 -206 -36q-94 0 -156.5 47t-93.5 130t-31 191t34 190.5t100.5 129t165.5 46.5q49 0 94 -11.5t84 -33.5l-31 -73q-34 20 -71.5 31t-75.5 11q-101 0 -155.5 -76t-54.5 -215q0 -83 20.5 -149t65 -103.5t116.5 -37.5q65 0 111 15v218h-118v77z" />
    <glyph glyph-name="H" unicode="H" horiz-adv-x="595" 
d="M516 0h-86v334h-264v-334h-86v714h86v-303h264v303h86v-714z" />
    <glyph glyph-name="I" unicode="I" horiz-adv-x="300" 
d="M263 0h-227v49l70 18v580l-70 18v49h227v-49l-71 -18v-580l71 -18v-49z" />
    <glyph glyph-name="J" unicode="J" horiz-adv-x="239" 
d="M10 -192q-40 0 -68 12v75q14 -5 29 -7.5t32 -2.5q35 0 54.5 26.5t19.5 93.5v709h85v-711q0 -105 -40 -150t-112 -45z" />
    <glyph glyph-name="K" unicode="K" horiz-adv-x="499" 
d="M501 0h-97l-180 333l-58 -61v-272h-86v714h86v-356q14 20 32.5 48t42.5 65l156 243h95l-209 -314z" />
    <glyph glyph-name="L" unicode="L" horiz-adv-x="417" 
d="M80 0v714h86v-637h232v-77h-318z" />
    <glyph glyph-name="M" unicode="M" horiz-adv-x="775" 
d="M348 0l-189 607h-4q3 -44 4.5 -84.5t1.5 -72.5v-450h-81v714h123l183 -584h3l183 584h124v-714h-84v451q0 31 1.5 71.5t3.5 84.5h-4l-190 -607h-75z" />
    <glyph glyph-name="N" unicode="N" horiz-adv-x="626" 
d="M547 0h-103l-286 585h-4q3 -39 5 -80t2 -79v-426h-81v714h103l285 -578h3q-2 38 -3.5 80.5t-1.5 77.5v420h81v-714z" />
    <glyph glyph-name="O" unicode="O" horiz-adv-x="619" 
d="M567 358q0 -105 -27 -188.5t-84 -131.5t-146 -48q-91 0 -147.5 49t-83 132.5t-26.5 187.5q0 178 64.5 271.5t193.5 93.5q89 0 145.5 -48t83.5 -130.5t27 -187.5zM143 358q0 -141 41.5 -216t125.5 -75q83 0 124.5 74.5t41.5 216.5t-41 215.5t-124 73.5q-85 0 -126.5 -74
t-41.5 -215z" />
    <glyph glyph-name="P" unicode="P" horiz-adv-x="492" 
d="M229 714q116 0 171 -53t55 -158q0 -103 -55.5 -164t-176.5 -61h-57v-278h-86v714h149zM225 639h-59v-286h48q80 0 116 34.5t36 113.5q0 73 -34 105.5t-107 32.5z" />
    <glyph glyph-name="Q" unicode="Q" horiz-adv-x="619" 
d="M567 358q0 -135 -40 -224t-115 -123l128 -181h-108l-104 162q-10 -2 -21 -2q-90 0 -146 49.5t-82 133t-26 186.5q0 178 64.5 271.5t193.5 93.5q124 0 190 -94.5t66 -271.5zM143 358q0 -141 41.5 -216t125.5 -75q83 0 124.5 74.5t41.5 216.5t-41 215.5t-124 73.5
q-85 0 -126.5 -74t-41.5 -215z" />
    <glyph glyph-name="R" unicode="R" horiz-adv-x="509" 
d="M228 714q117 0 172 -50.5t55 -151.5q0 -75 -31 -121.5t-88 -70.5l160 -320h-97l-141 298h-92v-298h-86v714h148zM227 637h-61v-267h68q133 0 133 138q0 69 -34 99t-106 30z" />
    <glyph glyph-name="S" unicode="S" horiz-adv-x="454" 
d="M413 194q0 -61 -25.5 -107t-72.5 -71.5t-110 -25.5q-97 0 -163 32v87q34 -19 78 -29.5t84 -10.5q59 0 91 33.5t32 83.5q0 35 -12 59t-40 44t-76 42q-48 23 -82 49.5t-51.5 64t-17.5 93.5t24.5 98t69 65t102.5 23q46 0 87 -10.5t73 -25.5l-28 -78q-32 16 -65.5 25.5
t-65.5 9.5q-53 0 -81.5 -29.5t-28.5 -75.5q0 -36 11.5 -59.5t38.5 -43t74 -41.5q77 -36 115.5 -82t38.5 -120z" />
    <glyph glyph-name="T" unicode="T" horiz-adv-x="434" 
d="M259 0h-85v637h-164v77h412v-77h-163v-637z" />
    <glyph glyph-name="U" unicode="U" horiz-adv-x="585" 
d="M510 714v-482q0 -118 -54 -180t-164 -62q-106 0 -162 61.5t-56 180.5v482h86v-483q0 -84 34 -124t100 -40q67 0 98.5 41t31.5 124v482h86z" />
    <glyph glyph-name="V" unicode="V" horiz-adv-x="489" 
d="M489 714l-198 -714h-95l-196 714h90l124 -476q9 -35 16.5 -71.5t12.5 -70.5q5 34 13 70.5t18 73.5l125 474h90z" />
    <glyph glyph-name="W" unicode="W" horiz-adv-x="782" 
d="M776 714l-159 -714h-97l-106 459q-6 25 -12.5 62.5t-11.5 77.5q-3 -26 -9 -64.5t-15 -75.5l-103 -459h-96l-161 714h88l94 -437q10 -52 17.5 -97.5t11.5 -79.5q6 42 14.5 88.5t17.5 88.5l100 437h83l101 -438q9 -40 17 -85t14 -91q5 45 13 90.5t17 86.5l95 437h87z" />
    <glyph glyph-name="X" unicode="X" horiz-adv-x="456" 
d="M450 0h-93l-127 297l-134 -297h-90l177 373l-160 341h91l118 -271l118 271h90l-160 -345z" />
    <glyph glyph-name="Y" unicode="Y" horiz-adv-x="444" 
d="M223 374l131 340h90l-179 -436v-278h-86v275l-179 439h91z" />
    <glyph glyph-name="Z" unicode="Z" horiz-adv-x="424" 
d="M399 0h-369v66l265 571h-259v77h355v-67l-266 -570h274v-77z" />
    <glyph glyph-name="bracketleft" unicode="[" horiz-adv-x="317" 
d="M288 -160h-214v878h214v-69h-134v-740h134v-69z" />
    <glyph glyph-name="backslash" unicode="\" horiz-adv-x="371" 
d="M95 716l264 -718h-80l-263 718h79z" />
    <glyph glyph-name="bracketright" unicode="]" horiz-adv-x="317" 
d="M29 -91h134v740h-134v69h214v-878h-214v69z" />
    <glyph glyph-name="asciicircum" unicode="^" horiz-adv-x="481" 
d="M22 312l191 403h49l198 -403h-79l-143 302l-138 -302h-78z" />
    <glyph glyph-name="underscore" unicode="_" horiz-adv-x="439" 
d="M441 -148h-443v63h443v-63z" />
    <glyph glyph-name="grave" unicode="`" horiz-adv-x="270" 
d="M139 766q11 -23 27 -50.5t33 -53.5t31 -45v-11h-54q-20 18 -47.5 45.5t-52 56t-36.5 49.5v9h99z" />
    <glyph glyph-name="a" unicode="a" horiz-adv-x="460" 
d="M236 546q82 0 118.5 -46.5t36.5 -136.5v-363h-63l-13 75h-3q-25 -43 -57.5 -64t-82.5 -21q-65 0 -99.5 45.5t-34.5 114.5q0 80 51 123.5t150 47.5l70 3v34q0 64 -20.5 92t-63.5 28q-29 0 -57.5 -9.5t-58.5 -25.5l-26 62q32 19 71 30t82 11zM309 265l-57 -3
q-69 -3 -99 -31t-30 -80q0 -48 20.5 -70.5t54.5 -22.5q50 0 80.5 40t30.5 115v52z" />
    <glyph glyph-name="b" unicode="b" horiz-adv-x="508" 
d="M154 760v-207q0 -22 -1 -44.5t-3 -42.5h5q22 38 54.5 59t76.5 21q84 0 130.5 -70t46.5 -207q0 -136 -46 -207.5t-128 -71.5q-46 0 -78.5 20t-55.5 58h-6l-13 -68h-65v760h83zM269 474q-45 0 -70 -25t-35 -70t-10 -105v-14q0 -100 27.5 -149.5t89.5 -49.5q106 0 106 209
q0 101 -26 152.5t-82 51.5z" />
    <glyph glyph-name="c" unicode="c" horiz-adv-x="387" 
d="M245 -10q-95 0 -146.5 68t-51.5 207q0 137 52 209.5t149 72.5q34 0 63 -7.5t51 -19.5l-25 -68q-20 9 -42.5 15t-42.5 6q-120 0 -120 -207q0 -204 119 -204q28 0 54 7.5t50 19.5v-71q-23 -14 -52 -21t-58 -7z" />
    <glyph glyph-name="d" unicode="d" horiz-adv-x="508" 
d="M222 -10q-84 0 -130 71t-46 207q0 135 46 207t128 72q44 0 78 -21t56 -58h4q-2 20 -3 39.5t-1 35.5v217h84v-760h-67l-12 69h-5q-22 -37 -54 -58t-78 -21zM239 60q60 0 88 46.5t28 139.5v26q0 102 -27 152t-90 50q-55 0 -81 -54t-26 -153q0 -101 26.5 -154t81.5 -53z" />
    <glyph glyph-name="e" unicode="e" horiz-adv-x="462" 
d="M238 546q59 0 99 -31t60.5 -85t20.5 -122v-56h-288q3 -191 134 -191q69 0 133 37v-74q-32 -17 -65.5 -25.5t-74.5 -8.5q-71 0 -117.5 35t-69.5 97t-23 143q0 135 49.5 208t141.5 73zM238 478q-98 0 -107 -160h207q-1 67 -25 113.5t-75 46.5z" />
    <glyph glyph-name="f" unicode="f" horiz-adv-x="280" 
d="M268 469h-100v-469h-84v469h-73v42l73 29v31q0 96 32 145t106 49q25 0 46 -4.5t41 -12.5l-21 -66q-15 4 -29.5 8t-29.5 4q-34 0 -47.5 -27t-13.5 -94v-36h100v-68z" />
    <glyph glyph-name="g" unicode="g" horiz-adv-x="508" 
d="M222 547q42 0 75 -19.5t57 -61.5h5l10 71h69v-544q0 -113 -51.5 -173t-162.5 -60q-86 0 -147 32v78q71 -38 147 -38q64 0 97.5 35t33.5 111v17q0 15 0.5 37t2.5 42h-4q-46 -84 -134 -84q-82 0 -128 71t-46 205q0 136 47 208.5t129 72.5zM237 474q-53 0 -79.5 -53.5
t-26.5 -155.5q0 -104 27 -154t82 -50q115 0 115 184v24q0 107 -28.5 156t-89.5 49z" />
    <glyph glyph-name="h" unicode="h" horiz-adv-x="505" 
d="M154 760v-217q0 -45 -6 -79h6q19 40 54 61t77 21q77 0 114 -46.5t37 -139.5v-360h-83v346q0 67 -19.5 97t-63.5 30q-63 0 -89.5 -48t-26.5 -147v-278h-83v760h83z" />
    <glyph glyph-name="i" unicode="i" horiz-adv-x="225" 
d="M114 738q47 0 47 -57q0 -28 -12.5 -42.5t-34.5 -14.5t-35.5 14.5t-13.5 42.5q0 29 13.5 43t35.5 14zM154 537v-537h-83v537h83z" />
    <glyph glyph-name="j" unicode="j" horiz-adv-x="225" 
d="M65 681q0 29 13.5 43t35.5 14q47 0 47 -57q0 -28 -12.5 -42.5t-34.5 -14.5t-35.5 14.5t-13.5 42.5zM32 -240q-18 0 -32 3t-26 7v72q22 -9 45 -9q25 0 38.5 19.5t13.5 64.5v620h83v-618q0 -158 -122 -159z" />
    <glyph glyph-name="k" unicode="k" horiz-adv-x="440" 
d="M154 760v-383q0 -24 -1.5 -50.5t-3.5 -50.5h4q8 15 20.5 34t22.5 33l135 194h92l-156 -214l167 -323h-93l-130 260l-57 -62v-198h-83v760h83z" />
    <glyph glyph-name="l" unicode="l" horiz-adv-x="224" 
d="M154 0h-83v760h83v-760z" />
    <glyph glyph-name="m" unicode="m" horiz-adv-x="758" 
d="M547 547q73 0 108 -46.5t35 -143.5v-357h-83v345q0 67 -20.5 98t-60.5 31q-57 0 -81 -45.5t-24 -132.5v-296h-82v347q0 67 -19.5 97t-60.5 30q-62 0 -83.5 -53t-21.5 -141v-280h-83v537h67l10 -73h5q19 41 52 62t76 21q50 0 81.5 -23.5t43.5 -63.5h6q41 87 135 87z" />
    <glyph glyph-name="n" unicode="n" horiz-adv-x="505" 
d="M286 547q74 0 112 -45.5t38 -141.5v-360h-83v346q0 64 -19.5 96t-63.5 32q-64 0 -90 -47t-26 -148v-279h-83v537h67l10 -73h5q20 40 55.5 61.5t77.5 21.5z" />
    <glyph glyph-name="o" unicode="o" horiz-adv-x="493" 
d="M447 269q0 -127 -51 -203t-151 -76q-95 0 -147 75.5t-52 203.5q0 133 50.5 205.5t150.5 72.5q93 0 146.5 -71t53.5 -207zM131 269q0 -101 28 -154t88 -53q59 0 87.5 53t28.5 154t-28.5 153.5t-87.5 52.5q-61 0 -88.5 -52.5t-27.5 -153.5z" />
    <glyph glyph-name="p" unicode="p" horiz-adv-x="508" 
d="M286 547q84 0 130.5 -69.5t46.5 -208.5q0 -134 -46 -206.5t-128 -72.5q-46 0 -80.5 22t-54.5 59h-4q2 -20 3 -40.5t1 -36.5v-234h-83v777h68l10 -73h5q22 40 54.5 61.5t77.5 21.5zM269 476q-60 0 -87 -47t-28 -144v-19q0 -104 27 -154t89 -50q54 0 80.5 53t26.5 154
q0 100 -25.5 153.5t-82.5 53.5z" />
    <glyph glyph-name="q" unicode="q" horiz-adv-x="508" 
d="M354 -240v224q0 17 1.5 40.5t3.5 49.5h-5q-22 -40 -55 -62t-80 -22q-80 0 -126.5 70t-46.5 206q0 140 47.5 210.5t128.5 70.5q46 0 78 -20.5t54 -61.5h5l10 72h69v-777h-84zM240 62q58 0 86 46t29 138v23q0 105 -27.5 155t-89.5 50q-55 0 -81 -54t-26 -155
q0 -203 109 -203z" />
    <glyph glyph-name="r" unicode="r" horiz-adv-x="337" 
d="M275 547q12 0 25 -1.5t26 -5.5l-12 -83q-10 4 -21.5 5.5t-23.5 1.5q-33 0 -59 -23.5t-41 -64.5t-15 -94v-282h-83v537h66l10 -94h5q20 46 50.5 75t72.5 29z" />
    <glyph glyph-name="s" unicode="s" horiz-adv-x="381" 
d="M345 145q0 -75 -45.5 -115t-125.5 -40q-43 0 -76.5 9t-58.5 22v83q25 -17 61 -29.5t73 -12.5q45 0 68 21t23 58q0 31 -21 53t-76 49q-59 30 -94 64.5t-35 97.5q0 65 46 103.5t120 38.5q38 0 72 -9.5t65 -26.5l-30 -66q-25 14 -52 23t-56 9q-40 0 -62.5 -18.5t-22.5 -50.5
t22.5 -52t78.5 -49q58 -31 92 -65.5t34 -96.5z" />
    <glyph glyph-name="t" unicode="t" horiz-adv-x="290" 
d="M217 62q29 0 56 10v-66q-32 -16 -79 -16q-56 0 -88 35t-32 115v329h-57v43l61 26l26 120h54v-121h109v-68h-109v-321q0 -44 14 -65t45 -21z" />
    <glyph glyph-name="u" unicode="u" horiz-adv-x="505" 
d="M434 537v-537h-68l-10 72h-5q-20 -40 -55 -61t-77 -21q-80 0 -115.5 51.5t-35.5 144.5v351h83v-338q0 -70 20 -103t62 -33q66 0 91.5 47.5t25.5 142.5v284h84z" />
    <glyph glyph-name="v" unicode="v" horiz-adv-x="411" 
d="M158 0l-155 537h86l85 -318q8 -31 16 -65.5t13 -65.5h4q2 20 10 51.5t17 64.5l88 333h87l-157 -537h-94z" />
    <glyph glyph-name="w" unicode="w" horiz-adv-x="659" 
d="M426 0l-71 318q-7 33 -13.5 66.5t-10.5 59.5h-3q-4 -28 -10 -61t-14 -65l-75 -318h-95l-124 537h84l60 -273q8 -42 16.5 -86t13.5 -82h3q5 32 12 74.5t18 85.5l67 281h92l66 -282q8 -29 16 -71t14 -88h3q2 21 8.5 55t14.5 73l69 313h83l-128 -537h-96z" />
    <glyph glyph-name="x" unicode="x" horiz-adv-x="420" 
d="M162 276l-138 261h90l97 -197l98 197h90l-140 -264l146 -273h-90l-105 209l-106 -209h-89z" />
    <glyph glyph-name="y" unicode="y" horiz-adv-x="412" 
d="M3 537h87l86 -305q9 -32 17 -64.5t13 -64.5h4q4 27 12 60.5t18 69.5l83 304h86l-180 -616q-24 -80 -60.5 -120.5t-98.5 -40.5q-16 0 -30 2t-27 6v71q10 -2 22 -4t23 -2q34 0 53.5 23.5t35.5 76.5l20 69z" />
    <glyph glyph-name="z" unicode="z" horiz-adv-x="353" 
d="M327 0h-298v56l199 412h-187v69h279v-61l-198 -407h205v-69z" />
    <glyph glyph-name="braceleft" unicode="{" horiz-adv-x="367" 
d="M328 -160q-91 2 -137.5 40.5t-46.5 119.5v149q0 49 -24 73t-83 24v65q54 0 80.5 21t26.5 75v150q0 157 184 159v-68q-50 -2 -76 -23t-26 -72v-148q0 -55 -23 -85t-75 -39v-5q53 -10 75.5 -41t22.5 -83v-149q0 -49 25 -71.5t77 -23.5v-68z" />
    <glyph glyph-name="bar" unicode="|" horiz-adv-x="449" 
d="M187 762h75v-1000h-75v1000z" />
    <glyph glyph-name="braceright" unicode="}" horiz-adv-x="367" 
d="M38 -160v68q52 1 77.5 23.5t25.5 71.5v149q0 53 23 83.5t75 40.5v4q-52 10 -75 40t-23 84v149q0 51 -26.5 72.5t-76.5 22.5v68q91 -2 137.5 -40.5t46.5 -118.5v-149q0 -50 24 -73.5t84 -23.5v-65q-57 -1 -82.5 -23t-25.5 -74v-150q0 -158 -184 -159z" />
    <glyph glyph-name="asciitilde" unicode="~" horiz-adv-x="473" 
d="M224 320q-52 27 -89 27q-24 0 -50.5 -16t-49.5 -43v77q43 52 104 52q28 0 52.5 -8t56.5 -23q54 -27 90 -27q26 0 52 16.5t48 41.5v-77q-44 -50 -104 -50q-30 0 -53.5 7t-56.5 23z" />
    <glyph glyph-name="uni00A0" unicode="&#xa0;" horiz-adv-x="208" 
 />
    <glyph glyph-name="exclamdown" unicode="&#xa1;" horiz-adv-x="245" 
d="M180 477q0 -35 -16 -50t-40 -15q-57 0 -57 65t57 65q23 0 39.5 -15.5t16.5 -49.5zM92 330h60l20 -516h-101z" />
    <glyph glyph-name="cent" unicode="&#xa2;" horiz-adv-x="472" 
d="M296 724v-80q59 -5 99 -26l-25 -70q-44 22 -85 22q-62 0 -91.5 -51t-29.5 -155q0 -105 29.5 -154.5t89.5 -49.5q28 0 53.5 7.5t51.5 20.5v-72q-37 -22 -93 -28v-98h-57v100q-159 23 -159 273q0 125 41 195t118 83v83h58z" />
    <glyph glyph-name="sterling" unicode="&#xa3;" horiz-adv-x="472" 
d="M283 724q41 0 76 -11t65 -31l-31 -67q-27 17 -53 25.5t-54 8.5q-43 0 -63 -27.5t-20 -88.5v-143h147v-66h-147v-111q0 -52 -17 -84.5t-46 -51.5h294v-77h-394v71q37 15 57.5 49t20.5 92v112h-80v66h80v145q0 93 43 141t122 48z" />
    <glyph glyph-name="currency" unicode="&#xa4;" horiz-adv-x="557" 
d="M84 353q0 61 37 112l-65 67l44 42l64 -65q50 38 114 38q65 0 112 -37l66 64l44 -42l-64 -66q36 -50 36 -113q0 -62 -36 -114l64 -65l-43 -43l-67 65q-49 -37 -112 -37q-65 0 -114 37l-64 -64l-44 43l65 65q-37 51 -37 113zM144 353q0 -37 18 -67.5t48 -48.5t68 -18
q39 0 69.5 18.5t48 48.5t17.5 67q1 37 -17.5 67.5t-49.5 49t-68 18.5q-36 0 -66.5 -18t-49 -49t-18.5 -68z" />
    <glyph glyph-name="yen" unicode="&#xa5;" horiz-adv-x="472" 
d="M235 374l117 340h88l-144 -378h105v-61h-124v-85h124v-60h-124v-130h-85v130h-123v60h123v85h-123v61h103l-143 378h88z" />
    <glyph glyph-name="brokenbar" unicode="&#xa6;" horiz-adv-x="449" 
d="M187 759h75v-388h-75v388zM187 150h75v-388h-75v388z" />
    <glyph glyph-name="section" unicode="&#xa7;" horiz-adv-x="413" 
d="M47 404q0 42 21 71.5t54 45.5q-67 44 -67 111q0 62 45 96t117 34q41 0 71.5 -8t62.5 -24l-26 -61q-29 15 -54 22.5t-55 7.5q-43 0 -64 -17.5t-21 -45.5q0 -32 23 -51t74 -43q64 -29 98 -62.5t34 -88.5q0 -41 -18 -72.5t-46 -48.5q62 -46 62 -110q0 -66 -47.5 -104
t-128.5 -38q-83 0 -136 32v73q26 -18 63.5 -30t72.5 -12q50 0 75 21.5t25 52.5q0 22 -9.5 37t-33 29.5t-65.5 36.5q-65 32 -96 63.5t-31 82.5zM119 414q0 -32 23.5 -54t69.5 -44l32 -15q20 12 32.5 31.5t12.5 47.5q0 23 -9 40t-33.5 33.5t-70.5 37.5q-26 -8 -41.5 -29
t-15.5 -48z" />
    <glyph glyph-name="dieresis" unicode="&#xa8;" horiz-adv-x="541" 
d="M141 672q0 26 12.5 38t31.5 12q18 0 30.5 -12t12.5 -38t-12.5 -39t-30.5 -13q-19 0 -31.5 13t-12.5 39zM311 672q0 26 13 38t31 12t31 -12t13 -38t-13 -39t-31 -13q-19 0 -31.5 13t-12.5 39z" />
    <glyph glyph-name="copyright" unicode="&#xa9;" horiz-adv-x="831" 
d="M415 -10q-83 0 -150.5 28.5t-116 79t-74.5 117t-26 142.5q0 81 28 148.5t78 116.5t117 75.5t144 26.5q80 0 147 -28t116.5 -77.5t76.5 -116.5t27 -145q0 -80 -27.5 -147t-76.5 -116.5t-116.5 -76.5t-146.5 -27zM415 43q91 0 160.5 41.5t109.5 112.5t40 160t-40 160.5
t-110.5 112.5t-159.5 41q-91 0 -161.5 -41.5t-110 -112.5t-39.5 -160q0 -91 41 -162t111 -111.5t159 -40.5zM430 134q-96 0 -147 58.5t-51 163.5q0 100 53.5 161.5t148.5 61.5q32 0 64 -7t61 -21l-27 -58q-26 13 -50 18.5t-46 5.5q-61 0 -95.5 -42t-34.5 -117
q0 -162 128 -162q52 0 106 24v-62q-51 -24 -110 -24z" />
    <glyph glyph-name="ordfeminine" unicode="&#xaa;" horiz-adv-x="318" 
d="M160 722q109 0 109 -113v-221h-44l-12 47q-18 -25 -42 -39t-56 -14q-40 0 -63.5 27t-23.5 72q0 50 33.5 74.5t99.5 28.5l46 3v25q0 32 -14 45.5t-40 13.5q-21 0 -41.5 -6.5t-40.5 -16.5l-20 46q25 14 52 21t57 7zM207 544l-36 -3q-44 -2 -62.5 -16.5t-18.5 -43.5
q0 -48 45 -48q35 0 53.5 23.5t18.5 63.5v24z" />
    <glyph glyph-name="guillemotleft" unicode="&#xab;" horiz-adv-x="475" 
d="M36 271l152 196l58 -31l-116 -172l116 -170l-58 -33l-152 196v14zM228 271l153 196l57 -31l-115 -172l115 -170l-57 -33l-153 196v14z" />
    <glyph glyph-name="logicalnot" unicode="&#xac;" horiz-adv-x="473" 
d="M430 387v-265h-70v196h-324v69h394z" />
    <glyph glyph-name="uni00AD" unicode="&#xad;" horiz-adv-x="288" 
d="M31 229v80h227v-80h-227z" />
    <glyph glyph-name="registered" unicode="&#xae;" horiz-adv-x="831" 
d="M415 -10q-83 0 -150.5 28.5t-116 79t-74.5 117t-26 142.5q0 81 28 148.5t78 116.5t117 75.5t144 26.5q80 0 147 -28t116.5 -77.5t76.5 -116.5t27 -145q0 -80 -27.5 -147t-76.5 -116.5t-116.5 -76.5t-146.5 -27zM415 43q91 0 160.5 41.5t109.5 112.5t40 160t-40 160.5
t-110.5 112.5t-159.5 41q-91 0 -161.5 -41.5t-110 -112.5t-39.5 -160q0 -91 41 -162t111 -111.5t159 -40.5zM282 143v431h120q157 0 157 -127q0 -43 -19.5 -71.5t-53.5 -44.5l102 -188h-81l-87 171h-66v-171h-72zM354 370h45q39 0 62 19t23 56q0 69 -86 69h-44v-144z" />
    <glyph glyph-name="overscore" unicode="&#xaf;" horiz-adv-x="455" 
d="M458 760h-462v65h462v-65z" />
    <glyph glyph-name="degree" unicode="&#xb0;" horiz-adv-x="384" 
d="M192 444q-64 0 -104 38t-40 101q0 65 40.5 102.5t103.5 37.5q62 0 103 -38t41 -102t-41 -101.5t-103 -37.5zM193 498q39 0 61 23.5t22 61.5q0 39 -22 63t-61 24q-42 0 -63.5 -25t-21.5 -62q0 -39 22.5 -62t62.5 -23z" />
    <glyph glyph-name="plusminus" unicode="&#xb1;" horiz-adv-x="473" 
d="M271 401h164v-69h-164v-201h-70v201h-165v69h165v203h70v-203zM36 0v69h400v-69h-400z" />
    <glyph glyph-name="uni00B2" unicode="&#xb2;" horiz-adv-x="325" 
d="M282 415h-257v56l97 109q31 35 49.5 60t27 46.5t8.5 47.5q0 28 -16.5 44t-44.5 16q-43 0 -86 -41l-34 44q24 26 55 41t69 15q60 0 93 -31.5t33 -83.5q0 -35 -12.5 -64t-38 -60.5t-63.5 -73.5l-59 -66h179v-59z" />
    <glyph glyph-name="uni00B3" unicode="&#xb3;" horiz-adv-x="325" 
d="M148 853q60 0 93 -30t33 -80q0 -37 -18 -63t-50 -38v-4q81 -22 81 -106q0 -57 -40.5 -91t-110.5 -34q-61 0 -111 25v65q52 -31 111 -31q44 0 64 19t20 50q0 74 -94 74h-41v55h39q42 0 63.5 19.5t21.5 51.5q0 29 -18 44.5t-47 15.5q-24 0 -45 -9.5t-43 -26.5l-34 46
q28 23 58.5 35.5t67.5 12.5z" />
    <glyph glyph-name="acute" unicode="&#xb4;" horiz-adv-x="270" 
d="M230 766v-9q-12 -21 -36 -49.5t-51 -56t-49 -45.5h-54v11q26 37 50 76t41 73h99z" />
    <glyph glyph-name="uni00B5" unicode="&#xb5;" horiz-adv-x="508" 
d="M436 537v-537h-66l-11 73h-5q-18 -40 -48.5 -61.5t-68.5 -21.5q-56 0 -84 48h-3q2 -25 3 -51.5t1 -52.5v-174h-83v777h83v-344q0 -130 82 -130q66 0 91.5 49.5t25.5 144.5v280h83z" />
    <glyph glyph-name="paragraph" unicode="&#xb6;" horiz-adv-x="535" 
d="M445 -127h-58v830h-76v-830h-58v400q-21 -9 -48 -9q-71 0 -108.5 59t-37.5 186q0 130 41.5 190.5t123.5 60.5h221v-887z" />
    <glyph glyph-name="periodcentered" unicode="&#xb7;" horiz-adv-x="239" 
d="M63 353q0 33 15 49t41 16q25 0 41 -15t16 -50q0 -34 -16 -49.5t-41 -15.5t-40.5 16t-15.5 49z" />
    <glyph glyph-name="cedilla" unicode="&#xb8;" horiz-adv-x="209" 
d="M192 -138q0 -50 -33 -76t-94 -26q-35 0 -54 6v54q19 -6 46 -6q67 0 67 48q0 26 -22 39t-59 18l37 81h51l-23 -51q39 -8 61.5 -30t22.5 -57z" />
    <glyph glyph-name="uni00B9" unicode="&#xb9;" horiz-adv-x="325" 
d="M224 843v-428h-67v267q0 23 1 45.5t3 44.5q-8 -8 -16.5 -15.5t-15.5 -12.5l-57 -42l-34 46l126 95h60z" />
    <glyph glyph-name="ordmasculine" unicode="&#xba;" horiz-adv-x="333" 
d="M302 553q0 -82 -35.5 -126.5t-99.5 -44.5t-100 44.5t-36 126.5q0 81 36 125t100 44q62 0 98.5 -43t36.5 -126zM95 553q0 -61 17 -89.5t54 -28.5q38 0 55 28.5t17 89.5q0 60 -17 88t-55 28q-34 0 -52.5 -28t-18.5 -88z" />
    <glyph glyph-name="guillemotright" unicode="&#xbb;" horiz-adv-x="475" 
d="M439 257l-153 -196l-57 33l115 170l-115 172l57 31l153 -196v-14zM247 257l-153 -196l-57 33l115 170l-115 172l57 31l153 -196v-14z" />
    <glyph glyph-name="onequarter" unicode="&#xbc;" horiz-adv-x="723" 
d="M146 0l387 714h71l-388 -714h-70zM148 286v267q0 23 1 45t3 45q-8 -7 -16 -14.5t-16 -13.5l-57 -42l-34 45l126 96h60v-428h-67zM588 0v93h-172v49l171 288h68v-280h54v-57h-54v-93h-67zM481 150h107v113v46.5t2 38.5q-3 -10 -11.5 -26t-17.5 -32z" />
    <glyph glyph-name="onehalf" unicode="&#xbd;" horiz-adv-x="751" 
d="M128 0l386 714h72l-388 -714h-70zM145 286v267q0 23 1 45t3 45q-9 -7 -17 -14.5t-15 -13.5l-57 -42l-34 45l125 96h61v-428h-67zM452 0v56l96 108q32 35 51 60t27.5 46.5t8.5 47.5q0 28 -17 44.5t-46 16.5q-43 0 -85 -42l-34 45q24 26 55 41t69 15q59 0 92.5 -31.5
t33.5 -84.5q0 -35 -12 -63.5t-34.5 -56.5t-54.5 -63l-73 -80h179v-59h-256z" />
    <glyph glyph-name="threequarters" unicode="&#xbe;" horiz-adv-x="744" 
d="M136 278q-63 0 -112 26v64q54 -31 112 -31q44 0 63.5 18.5t19.5 50.5q0 74 -94 74h-41v55h40q42 0 63 19.5t21 51.5q0 29 -17.5 44.5t-47.5 15.5q-24 0 -45 -9.5t-43 -27.5l-33 46q28 24 58 36.5t67 12.5q60 0 93.5 -30t33.5 -80q0 -38 -19 -63.5t-50 -38.5v-3
q82 -22 82 -106q0 -57 -40.5 -91t-110.5 -34zM168 0l387 714h71l-387 -714h-71zM609 0v93h-172v49l171 288h67v-280h54v-57h-54v-93h-66zM501 150h108v113q0 24 0.5 46.5t1.5 38.5q-4 -10 -12.5 -26t-17.5 -32z" />
    <glyph glyph-name="questiondown" unicode="&#xbf;" horiz-adv-x="353" 
d="M241 330v-28q0 -53 -13 -89.5t-49 -76.5q-42 -47 -58.5 -80t-16.5 -76q0 -48 23 -73t65 -25q34 0 61.5 10.5t55.5 27.5l31 -66q-34 -23 -71.5 -35t-80.5 -12q-80 0 -123 44t-43 123q0 43 10.5 75t31 60.5t50.5 63.5q24 27 37.5 48t18.5 41.5t5 48.5v19h66zM262 476
q0 -33 -15 -49t-41 -16q-25 0 -40.5 15t-15.5 50q0 34 16 49.5t40 15.5q26 0 41 -16t15 -49z" />
    <glyph glyph-name="Agrave" unicode="&#xc0;" horiz-adv-x="507" 
d="M416 0l-62 222h-202l-62 -222h-90l205 715h95l206 -715h-90zM335 301l-61 229q-5 22 -12 52t-10 52q-10 -54 -22 -104l-60 -229h165zM205 934q11 -23 27 -50.5t33 -53.5t31 -45v-11h-54q-20 18 -47.5 45.5t-52 56t-36.5 49.5v9h99z" />
    <glyph glyph-name="Aacute" unicode="&#xc1;" horiz-adv-x="507" 
d="M416 0l-62 222h-202l-62 -222h-90l205 715h95l206 -715h-90zM335 301l-61 229q-5 22 -12 52t-10 52q-10 -54 -22 -104l-60 -229h165zM411 934v-9q-12 -21 -36 -49.5t-51 -56t-49 -45.5h-54v11q26 37 50 76t41 73h99z" />
    <glyph glyph-name="Acircumflex" unicode="&#xc2;" horiz-adv-x="507" 
d="M416 0l-62 222h-202l-62 -222h-90l205 715h95l206 -715h-90zM335 301l-61 229q-5 22 -12 52t-10 52q-10 -54 -22 -104l-60 -229h165zM292 934q16 -34 46.5 -76t56.5 -74v-10h-50q-23 18 -46 42.5t-47 50.5q-25 -26 -48.5 -51t-43.5 -42h-50v10q27 34 56 75.5t45 74.5h81z
" />
    <glyph glyph-name="Atilde" unicode="&#xc3;" horiz-adv-x="507" 
d="M416 0l-62 222h-202l-62 -222h-90l205 715h95l206 -715h-90zM335 301l-61 229q-5 22 -12 52t-10 52q-10 -54 -22 -104l-60 -229h165zM95 773q5 51 26.5 87.5t64.5 36.5q26 0 49.5 -14.5t44.5 -28.5t41 -14q17 0 26 15.5t15 42.5h50q-5 -59 -28.5 -91.5t-61.5 -32.5
q-25 0 -49 14.5t-46 29t-39 14.5q-32 0 -43 -59h-50z" />
    <glyph glyph-name="Adieresis" unicode="&#xc4;" horiz-adv-x="507" 
d="M416 0l-62 222h-202l-62 -222h-90l205 715h95l206 -715h-90zM335 301l-61 229q-5 22 -12 52t-10 52q-10 -54 -22 -104l-60 -229h165zM123 840q0 26 12.5 38t31.5 12q18 0 30.5 -12t12.5 -38t-12.5 -39t-30.5 -13q-19 0 -31.5 13t-12.5 39zM293 840q0 26 13 38t31 12
t31 -12t13 -38t-13 -39t-31 -13q-19 0 -31.5 13t-12.5 39z" />
    <glyph glyph-name="Aring" unicode="&#xc5;" horiz-adv-x="507" 
d="M416 0l-62 222h-202l-62 -222h-90l205 715h95l206 -715h-90zM335 301l-61 229q-5 22 -12 52t-10 52q-10 -54 -22 -104l-60 -229h165zM252 668q-49 0 -77.5 28t-28.5 74t28.5 74t77.5 28q46 0 76.5 -27t30.5 -73q0 -48 -29.5 -76t-77.5 -28zM253 717q23 0 38.5 14.5
t15.5 38.5t-14.5 39t-39.5 15q-24 0 -39.5 -15t-15.5 -39t14 -38.5t41 -14.5z" />
    <glyph glyph-name="AE" unicode="&#xc6;" horiz-adv-x="696" 
d="M645 0h-310v222h-168l-77 -222h-92l252 714h395v-77h-224v-226h209v-76h-209v-258h224v-77zM192 301h144v335h-30z" />
    <glyph glyph-name="Ccedilla" unicode="&#xc7;" horiz-adv-x="502" 
d="M325 648q-61 0 -101.5 -39t-60.5 -105t-20 -147q0 -135 48.5 -212.5t136.5 -77.5q35 0 66.5 7.5t60.5 19.5v-76q-29 -14 -62 -21t-75 -7q-84 0 -143 44.5t-90.5 127t-31.5 196.5q0 104 30 187t90.5 131.5t150.5 48.5q84 0 152 -38l-32 -73q-26 15 -55.5 24.5t-63.5 9.5z
M389 -138q0 -50 -33 -76t-94 -26q-35 0 -54 6v54q19 -6 46 -6q67 0 67 48q0 26 -22 39t-59 18l37 81h51l-23 -51q39 -8 61.5 -30t22.5 -57z" />
    <glyph glyph-name="Egrave" unicode="&#xc8;" horiz-adv-x="448" 
d="M399 0h-319v714h319v-76h-233v-227h219v-76h-219v-258h233v-77zM202 934q11 -23 27 -50.5t33 -53.5t31 -45v-11h-54q-20 18 -47.5 45.5t-52 56t-36.5 49.5v9h99z" />
    <glyph glyph-name="Eacute" unicode="&#xc9;" horiz-adv-x="448" 
d="M399 0h-319v714h319v-76h-233v-227h219v-76h-219v-258h233v-77zM391 934v-9q-12 -21 -36 -49.5t-51 -56t-49 -45.5h-54v11q26 37 50 76t41 73h99z" />
    <glyph glyph-name="Ecircumflex" unicode="&#xca;" horiz-adv-x="448" 
d="M399 0h-319v714h319v-76h-233v-227h219v-76h-219v-258h233v-77zM282 934q16 -34 46.5 -76t56.5 -74v-10h-50q-23 18 -46 42.5t-47 50.5q-25 -26 -48.5 -51t-43.5 -42h-50v10q27 34 56 75.5t45 74.5h81z" />
    <glyph glyph-name="Edieresis" unicode="&#xcb;" horiz-adv-x="448" 
d="M399 0h-319v714h319v-76h-233v-227h219v-76h-219v-258h233v-77zM110 840q0 26 12.5 38t31.5 12q18 0 30.5 -12t12.5 -38t-12.5 -39t-30.5 -13q-19 0 -31.5 13t-12.5 39zM280 840q0 26 13 38t31 12t31 -12t13 -38t-13 -39t-31 -13q-19 0 -31.5 13t-12.5 39z" />
    <glyph glyph-name="Igrave" unicode="&#xcc;" horiz-adv-x="300" 
d="M263 0h-227v49l70 18v580l-70 18v49h227v-49l-71 -18v-580l71 -18v-49zM109 934q11 -23 27 -50.5t33 -53.5t31 -45v-11h-54q-20 18 -47.5 45.5t-52 56t-36.5 49.5v9h99z" />
    <glyph glyph-name="Iacute" unicode="&#xcd;" horiz-adv-x="300" 
d="M263 0h-227v49l70 18v580l-70 18v49h227v-49l-71 -18v-580l71 -18v-49zM309 934v-9q-12 -21 -36 -49.5t-51 -56t-49 -45.5h-54v11q26 37 50 76t41 73h99z" />
    <glyph glyph-name="Icircumflex" unicode="&#xce;" horiz-adv-x="300" 
d="M263 0h-227v49l70 18v580l-70 18v49h227v-49l-71 -18v-580l71 -18v-49zM191 934q16 -34 46.5 -76t56.5 -74v-10h-50q-23 18 -46 42.5t-47 50.5q-25 -26 -48.5 -51t-43.5 -42h-50v10q27 34 56 75.5t45 74.5h81z" />
    <glyph glyph-name="Idieresis" unicode="&#xcf;" horiz-adv-x="300" 
d="M263 0h-227v49l70 18v580l-70 18v49h227v-49l-71 -18v-580l71 -18v-49zM20 840q0 26 12.5 38t31.5 12q18 0 30.5 -12t12.5 -38t-12.5 -39t-30.5 -13q-19 0 -31.5 13t-12.5 39zM190 840q0 26 13 38t31 12t31 -12t13 -38t-13 -39t-31 -13q-19 0 -31.5 13t-12.5 39z" />
    <glyph glyph-name="Eth" unicode="&#xd0;" horiz-adv-x="580" 
d="M250 714q132 0 204.5 -89t72.5 -260q0 -181 -74 -273t-213 -92h-158v327h-58v71h58v316h168zM245 638h-77v-240h121v-71h-121v-251h67q103 0 153 72t50 214q0 140 -49.5 208t-143.5 68z" />
    <glyph glyph-name="Ntilde" unicode="&#xd1;" horiz-adv-x="626" 
d="M547 0h-103l-286 585h-4q3 -39 5 -80t2 -79v-426h-81v714h103l285 -578h3q-2 38 -3.5 80.5t-1.5 77.5v420h81v-714zM158 773q5 51 26.5 87.5t64.5 36.5q26 0 49.5 -14.5t44.5 -28.5t41 -14q17 0 26 15.5t15 42.5h50q-5 -59 -28.5 -91.5t-61.5 -32.5q-25 0 -49 14.5
t-46 29t-39 14.5q-32 0 -43 -59h-50z" />
    <glyph glyph-name="Ograve" unicode="&#xd2;" horiz-adv-x="619" 
d="M567 358q0 -105 -27 -188.5t-84 -131.5t-146 -48q-91 0 -147.5 49t-83 132.5t-26.5 187.5q0 178 64.5 271.5t193.5 93.5q89 0 145.5 -48t83.5 -130.5t27 -187.5zM143 358q0 -141 41.5 -216t125.5 -75q83 0 124.5 74.5t41.5 216.5t-41 215.5t-124 73.5q-85 0 -126.5 -74
t-41.5 -215zM265 934q11 -23 27 -50.5t33 -53.5t31 -45v-11h-54q-20 18 -47.5 45.5t-52 56t-36.5 49.5v9h99z" />
    <glyph glyph-name="Oacute" unicode="&#xd3;" horiz-adv-x="619" 
d="M567 358q0 -105 -27 -188.5t-84 -131.5t-146 -48q-91 0 -147.5 49t-83 132.5t-26.5 187.5q0 178 64.5 271.5t193.5 93.5q89 0 145.5 -48t83.5 -130.5t27 -187.5zM143 358q0 -141 41.5 -216t125.5 -75q83 0 124.5 74.5t41.5 216.5t-41 215.5t-124 73.5q-85 0 -126.5 -74
t-41.5 -215zM466 934v-9q-12 -21 -36 -49.5t-51 -56t-49 -45.5h-54v11q26 37 50 76t41 73h99z" />
    <glyph glyph-name="Ocircumflex" unicode="&#xd4;" horiz-adv-x="619" 
d="M567 358q0 -105 -27 -188.5t-84 -131.5t-146 -48q-91 0 -147.5 49t-83 132.5t-26.5 187.5q0 178 64.5 271.5t193.5 93.5q89 0 145.5 -48t83.5 -130.5t27 -187.5zM143 358q0 -141 41.5 -216t125.5 -75q83 0 124.5 74.5t41.5 216.5t-41 215.5t-124 73.5q-85 0 -126.5 -74
t-41.5 -215zM350 934q16 -34 46.5 -76t56.5 -74v-10h-50q-23 18 -46 42.5t-47 50.5q-25 -26 -48.5 -51t-43.5 -42h-50v10q27 34 56 75.5t45 74.5h81z" />
    <glyph glyph-name="Otilde" unicode="&#xd5;" horiz-adv-x="619" 
d="M567 358q0 -105 -27 -188.5t-84 -131.5t-146 -48q-91 0 -147.5 49t-83 132.5t-26.5 187.5q0 178 64.5 271.5t193.5 93.5q89 0 145.5 -48t83.5 -130.5t27 -187.5zM143 358q0 -141 41.5 -216t125.5 -75q83 0 124.5 74.5t41.5 216.5t-41 215.5t-124 73.5q-85 0 -126.5 -74
t-41.5 -215zM154 773q5 51 26.5 87.5t64.5 36.5q26 0 49.5 -14.5t44.5 -28.5t41 -14q17 0 26 15.5t15 42.5h50q-5 -59 -28.5 -91.5t-61.5 -32.5q-25 0 -49 14.5t-46 29t-39 14.5q-32 0 -43 -59h-50z" />
    <glyph glyph-name="Odieresis" unicode="&#xd6;" horiz-adv-x="619" 
d="M567 358q0 -105 -27 -188.5t-84 -131.5t-146 -48q-91 0 -147.5 49t-83 132.5t-26.5 187.5q0 178 64.5 271.5t193.5 93.5q89 0 145.5 -48t83.5 -130.5t27 -187.5zM143 358q0 -141 41.5 -216t125.5 -75q83 0 124.5 74.5t41.5 216.5t-41 215.5t-124 73.5q-85 0 -126.5 -74
t-41.5 -215zM183 840q0 26 12.5 38t31.5 12q18 0 30.5 -12t12.5 -38t-12.5 -39t-30.5 -13q-19 0 -31.5 13t-12.5 39zM353 840q0 26 13 38t31 12t31 -12t13 -38t-13 -39t-31 -13q-19 0 -31.5 13t-12.5 39z" />
    <glyph glyph-name="multiply" unicode="&#xd7;" horiz-adv-x="473" 
d="M382 548l49 -47l-147 -148l145 -146l-47 -48l-147 145l-145 -145l-48 48l145 146l-145 145l47 49l146 -146z" />
    <glyph glyph-name="Oslash" unicode="&#xd8;" horiz-adv-x="619" 
d="M567 358q0 -175 -65.5 -271.5t-191.5 -96.5q-85 0 -142 46l-44 -79l-54 28l52 97q-35 50 -52 119t-17 158q0 178 64.5 271.5t193.5 93.5q84 0 143 -50l44 78l54 -30l-53 -95q68 -95 68 -269zM142 358q0 -118 30 -187l243 429q-38 48 -104 48q-85 0 -127 -74.5t-42 -215.5
zM477 358q0 54 -7 99t-21 80l-242 -427q39 -44 103 -44q85 0 126 75t41 217z" />
    <glyph glyph-name="Ugrave" unicode="&#xd9;" horiz-adv-x="585" 
d="M510 714v-482q0 -118 -54 -180t-164 -62q-106 0 -162 61.5t-56 180.5v482h86v-483q0 -84 34 -124t100 -40q67 0 98.5 41t31.5 124v482h86zM252 934q11 -23 27 -50.5t33 -53.5t31 -45v-11h-54q-20 18 -47.5 45.5t-52 56t-36.5 49.5v9h99z" />
    <glyph glyph-name="Uacute" unicode="&#xda;" horiz-adv-x="585" 
d="M510 714v-482q0 -118 -54 -180t-164 -62q-106 0 -162 61.5t-56 180.5v482h86v-483q0 -84 34 -124t100 -40q67 0 98.5 41t31.5 124v482h86zM447 934v-9q-12 -21 -36 -49.5t-51 -56t-49 -45.5h-54v11q26 37 50 76t41 73h99z" />
    <glyph glyph-name="Ucircumflex" unicode="&#xdb;" horiz-adv-x="585" 
d="M510 714v-482q0 -118 -54 -180t-164 -62q-106 0 -162 61.5t-56 180.5v482h86v-483q0 -84 34 -124t100 -40q67 0 98.5 41t31.5 124v482h86zM333 934q16 -34 46.5 -76t56.5 -74v-10h-50q-23 18 -46 42.5t-47 50.5q-25 -26 -48.5 -51t-43.5 -42h-50v10q27 34 56 75.5
t45 74.5h81z" />
    <glyph glyph-name="Udieresis" unicode="&#xdc;" horiz-adv-x="585" 
d="M510 714v-482q0 -118 -54 -180t-164 -62q-106 0 -162 61.5t-56 180.5v482h86v-483q0 -84 34 -124t100 -40q67 0 98.5 41t31.5 124v482h86zM164 840q0 26 12.5 38t31.5 12q18 0 30.5 -12t12.5 -38t-12.5 -39t-30.5 -13q-19 0 -31.5 13t-12.5 39zM334 840q0 26 13 38t31 12
t31 -12t13 -38t-13 -39t-31 -13q-19 0 -31.5 13t-12.5 39z" />
    <glyph glyph-name="Yacute" unicode="&#xdd;" horiz-adv-x="444" 
d="M223 374l131 340h90l-179 -436v-278h-86v275l-179 439h91zM379 934v-9q-12 -21 -36 -49.5t-51 -56t-49 -45.5h-54v11q26 37 50 76t41 73h99z" />
    <glyph glyph-name="Thorn" unicode="&#xde;" horiz-adv-x="487" 
d="M452 383q0 -69 -23 -120.5t-73.5 -80t-132.5 -28.5h-57v-154h-86v714h86v-124h62q117 0 170.5 -52.5t53.5 -154.5zM166 230h49q81 0 115.5 35.5t34.5 112.5q0 70 -33.5 103t-106.5 33h-59v-284z" />
    <glyph glyph-name="germandbls" unicode="&#xdf;" horiz-adv-x="509" 
d="M422 616q0 -39 -16 -67t-37 -49.5t-37 -42t-16 -44.5t14 -44t50 -51q33 -30 53.5 -55t30.5 -51t10 -60q0 -79 -42 -120.5t-115 -41.5q-31 0 -60 7t-52 22v79q22 -14 48.5 -25t58.5 -11q40 0 59.5 22.5t19.5 61.5q0 33 -16.5 58.5t-56.5 59.5q-49 43 -66.5 76.5
t-17.5 67.5q0 36 15.5 60t36.5 44t36.5 43.5t15.5 57.5q0 40 -23 60t-64 20q-43 0 -70 -28.5t-27 -89.5v-575h-83v576q0 93 49.5 141t132.5 48q78 0 123.5 -38t45.5 -111z" />
    <glyph glyph-name="agrave" unicode="&#xe0;" horiz-adv-x="460" 
d="M236 546q82 0 118.5 -46.5t36.5 -136.5v-363h-63l-13 75h-3q-25 -43 -57.5 -64t-82.5 -21q-65 0 -99.5 45.5t-34.5 114.5q0 80 51 123.5t150 47.5l70 3v34q0 64 -20.5 92t-63.5 28q-29 0 -57.5 -9.5t-58.5 -25.5l-26 62q32 19 71 30t82 11zM309 265l-57 -3
q-69 -3 -99 -31t-30 -80q0 -48 20.5 -70.5t54.5 -22.5q50 0 80.5 40t30.5 115v52zM208 766q11 -23 27 -50.5t33 -53.5t31 -45v-11h-54q-20 18 -47.5 45.5t-52 56t-36.5 49.5v9h99z" />
    <glyph glyph-name="aacute" unicode="&#xe1;" horiz-adv-x="460" 
d="M236 546q82 0 118.5 -46.5t36.5 -136.5v-363h-63l-13 75h-3q-25 -43 -57.5 -64t-82.5 -21q-65 0 -99.5 45.5t-34.5 114.5q0 80 51 123.5t150 47.5l70 3v34q0 64 -20.5 92t-63.5 28q-29 0 -57.5 -9.5t-58.5 -25.5l-26 62q32 19 71 30t82 11zM309 265l-57 -3
q-69 -3 -99 -31t-30 -80q0 -48 20.5 -70.5t54.5 -22.5q50 0 80.5 40t30.5 115v52zM371 766v-9q-12 -21 -36 -49.5t-51 -56t-49 -45.5h-54v11q26 37 50 76t41 73h99z" />
    <glyph glyph-name="acircumflex" unicode="&#xe2;" horiz-adv-x="460" 
d="M236 546q82 0 118.5 -46.5t36.5 -136.5v-363h-63l-13 75h-3q-25 -43 -57.5 -64t-82.5 -21q-65 0 -99.5 45.5t-34.5 114.5q0 80 51 123.5t150 47.5l70 3v34q0 64 -20.5 92t-63.5 28q-29 0 -57.5 -9.5t-58.5 -25.5l-26 62q32 19 71 30t82 11zM309 265l-57 -3
q-69 -3 -99 -31t-30 -80q0 -48 20.5 -70.5t54.5 -22.5q50 0 80.5 40t30.5 115v52zM274 766q16 -34 46.5 -76t56.5 -74v-10h-50q-23 18 -46 42.5t-47 50.5q-25 -26 -48.5 -51t-43.5 -42h-50v10q27 34 56 75.5t45 74.5h81z" />
    <glyph glyph-name="atilde" unicode="&#xe3;" horiz-adv-x="460" 
d="M236 546q82 0 118.5 -46.5t36.5 -136.5v-363h-63l-13 75h-3q-25 -43 -57.5 -64t-82.5 -21q-65 0 -99.5 45.5t-34.5 114.5q0 80 51 123.5t150 47.5l70 3v34q0 64 -20.5 92t-63.5 28q-29 0 -57.5 -9.5t-58.5 -25.5l-26 62q32 19 71 30t82 11zM309 265l-57 -3
q-69 -3 -99 -31t-30 -80q0 -48 20.5 -70.5t54.5 -22.5q50 0 80.5 40t30.5 115v52zM75 605q5 51 26.5 87.5t64.5 36.5q26 0 49.5 -14.5t44.5 -28.5t41 -14q17 0 26 15.5t15 42.5h50q-5 -59 -28.5 -91.5t-61.5 -32.5q-25 0 -49 14.5t-46 29t-39 14.5q-32 0 -43 -59h-50z" />
    <glyph glyph-name="adieresis" unicode="&#xe4;" horiz-adv-x="460" 
d="M236 546q82 0 118.5 -46.5t36.5 -136.5v-363h-63l-13 75h-3q-25 -43 -57.5 -64t-82.5 -21q-65 0 -99.5 45.5t-34.5 114.5q0 80 51 123.5t150 47.5l70 3v34q0 64 -20.5 92t-63.5 28q-29 0 -57.5 -9.5t-58.5 -25.5l-26 62q32 19 71 30t82 11zM309 265l-57 -3
q-69 -3 -99 -31t-30 -80q0 -48 20.5 -70.5t54.5 -22.5q50 0 80.5 40t30.5 115v52zM105 672q0 26 12.5 38t31.5 12q18 0 30.5 -12t12.5 -38t-12.5 -39t-30.5 -13q-19 0 -31.5 13t-12.5 39zM275 672q0 26 13 38t31 12t31 -12t13 -38t-13 -39t-31 -13q-19 0 -31.5 13t-12.5 39z
" />
    <glyph glyph-name="aring" unicode="&#xe5;" horiz-adv-x="460" 
d="M236 546q82 0 118.5 -46.5t36.5 -136.5v-363h-63l-13 75h-3q-25 -43 -57.5 -64t-82.5 -21q-65 0 -99.5 45.5t-34.5 114.5q0 80 51 123.5t150 47.5l70 3v34q0 64 -20.5 92t-63.5 28q-29 0 -57.5 -9.5t-58.5 -25.5l-26 62q32 19 71 30t82 11zM309 265l-57 -3
q-69 -3 -99 -31t-30 -80q0 -48 20.5 -70.5t54.5 -22.5q50 0 80.5 40t30.5 115v52zM234 608q-49 0 -77.5 28t-28.5 74t28.5 74t77.5 28q46 0 76.5 -27t30.5 -73q0 -48 -29.5 -76t-77.5 -28zM235 657q23 0 38.5 14.5t15.5 38.5t-14.5 39t-39.5 15q-24 0 -39.5 -15t-15.5 -39
t14 -38.5t41 -14.5z" />
    <glyph glyph-name="ae" unicode="&#xe6;" horiz-adv-x="713" 
d="M492 546q58 0 97 -31t59 -85t20 -122v-55h-281q4 -193 128 -193q67 0 132 36v-72q-31 -17 -64 -25.5t-74 -8.5q-57 0 -102 28t-69 82q-28 -56 -66.5 -83t-95.5 -27q-68 0 -103 45.5t-35 114.5q0 80 50 123.5t147 47.5l69 3v35q0 61 -21 90t-63 29q-27 0 -56.5 -9
t-58.5 -26l-27 62q30 18 68 29.5t81 11.5q97 0 129 -76q46 76 136 76zM491 478q-95 0 -102 -160h199q0 69 -23.5 114.5t-73.5 45.5zM304 265l-56 -3q-66 -3 -95.5 -30.5t-29.5 -80.5q0 -48 19.5 -70.5t53.5 -22.5q49 0 78.5 40t29.5 115v52z" />
    <glyph glyph-name="ccedilla" unicode="&#xe7;" horiz-adv-x="387" 
d="M245 -10q-95 0 -146.5 68t-51.5 207q0 137 52 209.5t149 72.5q34 0 63 -7.5t51 -19.5l-25 -68q-20 9 -42.5 15t-42.5 6q-120 0 -120 -207q0 -204 119 -204q28 0 54 7.5t50 19.5v-71q-23 -14 -52 -21t-58 -7zM327 -138q0 -50 -33 -76t-94 -26q-35 0 -54 6v54q19 -6 46 -6
q67 0 67 48q0 26 -22 39t-59 18l37 81h51l-23 -51q39 -8 61.5 -30t22.5 -57z" />
    <glyph glyph-name="egrave" unicode="&#xe8;" horiz-adv-x="462" 
d="M238 546q59 0 99 -31t60.5 -85t20.5 -122v-56h-288q3 -191 134 -191q69 0 133 37v-74q-32 -17 -65.5 -25.5t-74.5 -8.5q-71 0 -117.5 35t-69.5 97t-23 143q0 135 49.5 208t141.5 73zM238 478q-98 0 -107 -160h207q-1 67 -25 113.5t-75 46.5zM208 766q11 -23 27 -50.5
t33 -53.5t31 -45v-11h-54q-20 18 -47.5 45.5t-52 56t-36.5 49.5v9h99z" />
    <glyph glyph-name="eacute" unicode="&#xe9;" horiz-adv-x="462" 
d="M238 546q59 0 99 -31t60.5 -85t20.5 -122v-56h-288q3 -191 134 -191q69 0 133 37v-74q-32 -17 -65.5 -25.5t-74.5 -8.5q-71 0 -117.5 35t-69.5 97t-23 143q0 135 49.5 208t141.5 73zM238 478q-98 0 -107 -160h207q-1 67 -25 113.5t-75 46.5zM371 766v-9
q-12 -21 -36 -49.5t-51 -56t-49 -45.5h-54v11q26 37 50 76t41 73h99z" />
    <glyph glyph-name="ecircumflex" unicode="&#xea;" horiz-adv-x="462" 
d="M238 546q59 0 99 -31t60.5 -85t20.5 -122v-56h-288q3 -191 134 -191q69 0 133 37v-74q-32 -17 -65.5 -25.5t-74.5 -8.5q-71 0 -117.5 35t-69.5 97t-23 143q0 135 49.5 208t141.5 73zM238 478q-98 0 -107 -160h207q-1 67 -25 113.5t-75 46.5zM274 766q16 -34 46.5 -76
t56.5 -74v-10h-50q-23 18 -46 42.5t-47 50.5q-25 -26 -48.5 -51t-43.5 -42h-50v10q27 34 56 75.5t45 74.5h81z" />
    <glyph glyph-name="edieresis" unicode="&#xeb;" horiz-adv-x="462" 
d="M238 546q59 0 99 -31t60.5 -85t20.5 -122v-56h-288q3 -191 134 -191q69 0 133 37v-74q-32 -17 -65.5 -25.5t-74.5 -8.5q-71 0 -117.5 35t-69.5 97t-23 143q0 135 49.5 208t141.5 73zM238 478q-98 0 -107 -160h207q-1 67 -25 113.5t-75 46.5zM105 672q0 26 12.5 38
t31.5 12q18 0 30.5 -12t12.5 -38t-12.5 -39t-30.5 -13q-19 0 -31.5 13t-12.5 39zM275 672q0 26 13 38t31 12t31 -12t13 -38t-13 -39t-31 -13q-19 0 -31.5 13t-12.5 39z" />
    <glyph glyph-name="igrave" unicode="&#xec;" horiz-adv-x="225" 
d="M154 0h-83v537h83v-537zM87 766q11 -23 27 -50.5t33 -53.5t31 -45v-11h-54q-20 18 -47.5 45.5t-52 56t-36.5 49.5v9h99z" />
    <glyph glyph-name="iacute" unicode="&#xed;" horiz-adv-x="225" 
d="M154 0h-83v537h83v-537zM249 766v-9q-12 -21 -36 -49.5t-51 -56t-49 -45.5h-54v11q26 37 50 76t41 73h99z" />
    <glyph glyph-name="icircumflex" unicode="&#xee;" horiz-adv-x="225" 
d="M154 0h-83v537h83v-537zM152 766q16 -34 46.5 -76t56.5 -74v-10h-50q-23 18 -46 42.5t-47 50.5q-25 -26 -48.5 -51t-43.5 -42h-50v10q27 34 56 75.5t45 74.5h81z" />
    <glyph glyph-name="idieresis" unicode="&#xef;" horiz-adv-x="225" 
d="M154 0h-83v537h83v-537zM-17 672q0 26 12.5 38t31.5 12q18 0 30.5 -12t12.5 -38t-12.5 -39t-30.5 -13q-19 0 -31.5 13t-12.5 39zM153 672q0 26 13 38t31 12t31 -12t13 -38t-13 -39t-31 -13q-19 0 -31.5 13t-12.5 39z" />
    <glyph glyph-name="eth" unicode="&#xf0;" horiz-adv-x="494" 
d="M176 763q22 -12 45 -27t45 -32l92 57l34 -47l-84 -51q67 -72 104 -170.5t37 -228.5q0 -135 -52.5 -204.5t-150.5 -69.5q-62 0 -107 32t-69 87t-24 124q0 115 51 178t136 63q77 0 114 -49l3 1q-12 56 -38.5 104.5t-63.5 90.5l-93 -58l-33 48l84 52q-16 14 -33 26t-33 23z
M248 403q-59 0 -88.5 -44t-29.5 -129q0 -72 28 -120.5t90 -48.5t89.5 45.5t27.5 135.5q0 44 -13 80.5t-38.5 58.5t-65.5 22z" />
    <glyph glyph-name="ntilde" unicode="&#xf1;" horiz-adv-x="505" 
d="M286 547q74 0 112 -45.5t38 -141.5v-360h-83v346q0 64 -19.5 96t-63.5 32q-64 0 -90 -47t-26 -148v-279h-83v537h67l10 -73h5q20 40 55.5 61.5t77.5 21.5zM99 605q5 51 26.5 87.5t64.5 36.5q26 0 49.5 -14.5t44.5 -28.5t41 -14q17 0 26 15.5t15 42.5h50
q-5 -59 -28.5 -91.5t-61.5 -32.5q-25 0 -49 14.5t-46 29t-39 14.5q-32 0 -43 -59h-50z" />
    <glyph glyph-name="ograve" unicode="&#xf2;" horiz-adv-x="493" 
d="M447 269q0 -127 -51 -203t-151 -76q-95 0 -147 75.5t-52 203.5q0 133 50.5 205.5t150.5 72.5q93 0 146.5 -71t53.5 -207zM131 269q0 -101 28 -154t88 -53q59 0 87.5 53t28.5 154t-28.5 153.5t-87.5 52.5q-61 0 -88.5 -52.5t-27.5 -153.5zM221 766q11 -23 27 -50.5
t33 -53.5t31 -45v-11h-54q-20 18 -47.5 45.5t-52 56t-36.5 49.5v9h99z" />
    <glyph glyph-name="oacute" unicode="&#xf3;" horiz-adv-x="493" 
d="M447 269q0 -127 -51 -203t-151 -76q-95 0 -147 75.5t-52 203.5q0 133 50.5 205.5t150.5 72.5q93 0 146.5 -71t53.5 -207zM131 269q0 -101 28 -154t88 -53q59 0 87.5 53t28.5 154t-28.5 153.5t-87.5 52.5q-61 0 -88.5 -52.5t-27.5 -153.5zM383 766v-9q-12 -21 -36 -49.5
t-51 -56t-49 -45.5h-54v11q26 37 50 76t41 73h99z" />
    <glyph glyph-name="ocircumflex" unicode="&#xf4;" horiz-adv-x="493" 
d="M447 269q0 -127 -51 -203t-151 -76q-95 0 -147 75.5t-52 203.5q0 133 50.5 205.5t150.5 72.5q93 0 146.5 -71t53.5 -207zM131 269q0 -101 28 -154t88 -53q59 0 87.5 53t28.5 154t-28.5 153.5t-87.5 52.5q-61 0 -88.5 -52.5t-27.5 -153.5zM286 766q16 -34 46.5 -76
t56.5 -74v-10h-50q-23 18 -46 42.5t-47 50.5q-25 -26 -48.5 -51t-43.5 -42h-50v10q27 34 56 75.5t45 74.5h81z" />
    <glyph glyph-name="otilde" unicode="&#xf5;" horiz-adv-x="493" 
d="M447 269q0 -127 -51 -203t-151 -76q-95 0 -147 75.5t-52 203.5q0 133 50.5 205.5t150.5 72.5q93 0 146.5 -71t53.5 -207zM131 269q0 -101 28 -154t88 -53q59 0 87.5 53t28.5 154t-28.5 153.5t-87.5 52.5q-61 0 -88.5 -52.5t-27.5 -153.5zM88 605q5 51 26.5 87.5
t64.5 36.5q26 0 49.5 -14.5t44.5 -28.5t41 -14q17 0 26 15.5t15 42.5h50q-5 -59 -28.5 -91.5t-61.5 -32.5q-25 0 -49 14.5t-46 29t-39 14.5q-32 0 -43 -59h-50z" />
    <glyph glyph-name="odieresis" unicode="&#xf6;" horiz-adv-x="493" 
d="M447 269q0 -127 -51 -203t-151 -76q-95 0 -147 75.5t-52 203.5q0 133 50.5 205.5t150.5 72.5q93 0 146.5 -71t53.5 -207zM131 269q0 -101 28 -154t88 -53q59 0 87.5 53t28.5 154t-28.5 153.5t-87.5 52.5q-61 0 -88.5 -52.5t-27.5 -153.5zM117 672q0 26 12.5 38t31.5 12
q18 0 30.5 -12t12.5 -38t-12.5 -39t-30.5 -13q-19 0 -31.5 13t-12.5 39zM287 672q0 26 13 38t31 12t31 -12t13 -38t-13 -39t-31 -13q-19 0 -31.5 13t-12.5 39z" />
    <glyph glyph-name="divide" unicode="&#xf7;" horiz-adv-x="473" 
d="M237 467q-25 0 -39 15.5t-14 46.5t14 46t39 15q23 0 37 -15t14 -46q0 -32 -14.5 -47t-36.5 -15zM36 318v69h399v-69h-399zM237 115q-25 0 -39 15t-14 46q0 32 14 47t39 15q23 0 37 -15t14 -47t-14.5 -46.5t-36.5 -14.5z" />
    <glyph glyph-name="oslash" unicode="&#xf8;" horiz-adv-x="493" 
d="M447 269q0 -133 -53.5 -206t-149.5 -73q-59 0 -101 30l-40 -76l-52 28l49 90q-55 74 -55 207q0 136 52.5 207t149.5 71q61 0 104 -36l38 69l52 -28l-45 -84q51 -74 51 -199zM129 269q0 -78 17 -126l171 303q-27 30 -71 30q-62 0 -89.5 -52.5t-27.5 -154.5zM364 269
q0 36 -4 65.5t-11 51.5l-170 -301q25 -25 67 -25q61 0 89.5 53.5t28.5 155.5z" />
    <glyph glyph-name="ugrave" unicode="&#xf9;" horiz-adv-x="505" 
d="M434 537v-537h-68l-10 72h-5q-20 -40 -55 -61t-77 -21q-80 0 -115.5 51.5t-35.5 144.5v351h83v-338q0 -70 20 -103t62 -33q66 0 91.5 47.5t25.5 142.5v284h84zM227 766q11 -23 27 -50.5t33 -53.5t31 -45v-11h-54q-20 18 -47.5 45.5t-52 56t-36.5 49.5v9h99z" />
    <glyph glyph-name="uacute" unicode="&#xfa;" horiz-adv-x="505" 
d="M434 537v-537h-68l-10 72h-5q-20 -40 -55 -61t-77 -21q-80 0 -115.5 51.5t-35.5 144.5v351h83v-338q0 -70 20 -103t62 -33q66 0 91.5 47.5t25.5 142.5v284h84zM390 766v-9q-12 -21 -36 -49.5t-51 -56t-49 -45.5h-54v11q26 37 50 76t41 73h99z" />
    <glyph glyph-name="ucircumflex" unicode="&#xfb;" horiz-adv-x="505" 
d="M434 537v-537h-68l-10 72h-5q-20 -40 -55 -61t-77 -21q-80 0 -115.5 51.5t-35.5 144.5v351h83v-338q0 -70 20 -103t62 -33q66 0 91.5 47.5t25.5 142.5v284h84zM293 766q16 -34 46.5 -76t56.5 -74v-10h-50q-23 18 -46 42.5t-47 50.5q-25 -26 -48.5 -51t-43.5 -42h-50v10
q27 34 56 75.5t45 74.5h81z" />
    <glyph glyph-name="udieresis" unicode="&#xfc;" horiz-adv-x="505" 
d="M434 537v-537h-68l-10 72h-5q-20 -40 -55 -61t-77 -21q-80 0 -115.5 51.5t-35.5 144.5v351h83v-338q0 -70 20 -103t62 -33q66 0 91.5 47.5t25.5 142.5v284h84zM124 672q0 26 12.5 38t31.5 12q18 0 30.5 -12t12.5 -38t-12.5 -39t-30.5 -13q-19 0 -31.5 13t-12.5 39z
M294 672q0 26 13 38t31 12t31 -12t13 -38t-13 -39t-31 -13q-19 0 -31.5 13t-12.5 39z" />
    <glyph glyph-name="yacute" unicode="&#xfd;" horiz-adv-x="412" 
d="M3 537h87l86 -305q9 -32 17 -64.5t13 -64.5h4q4 27 12 60.5t18 69.5l83 304h86l-180 -616q-24 -80 -60.5 -120.5t-98.5 -40.5q-16 0 -30 2t-27 6v71q10 -2 22 -4t23 -2q34 0 53.5 23.5t35.5 76.5l20 69zM343 766v-9q-12 -21 -36 -49.5t-51 -56t-49 -45.5h-54v11
q26 37 50 76t41 73h99z" />
    <glyph glyph-name="thorn" unicode="&#xfe;" horiz-adv-x="508" 
d="M463 269q0 -134 -46 -206.5t-127 -72.5q-46 0 -81 22t-55 59h-4q2 -18 3.5 -39t1.5 -37v-235h-84v1000h83v-218q0 -19 -1 -39.5t-2 -38.5h3q22 40 55 61.5t77 21.5q84 0 130.5 -71t46.5 -207zM377 269q0 106 -26 156t-82 50q-60 0 -87 -46t-28 -143v-20q0 -104 27 -154
t89 -50q40 0 63.5 27t33.5 74t10 106z" />
    <glyph glyph-name="ydieresis" unicode="&#xff;" horiz-adv-x="412" 
d="M3 537h87l86 -305q9 -32 17 -64.5t13 -64.5h4q4 27 12 60.5t18 69.5l83 304h86l-180 -616q-24 -80 -60.5 -120.5t-98.5 -40.5q-16 0 -30 2t-27 6v71q10 -2 22 -4t23 -2q34 0 53.5 23.5t35.5 76.5l20 69zM77 672q0 26 12.5 38t31.5 12q18 0 30.5 -12t12.5 -38t-12.5 -39
t-30.5 -13q-19 0 -31.5 13t-12.5 39zM247 672q0 26 13 38t31 12t31 -12t13 -38t-13 -39t-31 -13q-19 0 -31.5 13t-12.5 39z" />
    <glyph glyph-name="Amacron" unicode="&#x100;" horiz-adv-x="507" 
d="M416 0l-62 222h-202l-62 -222h-90l205 715h95l206 -715h-90zM335 301l-61 229q-5 22 -12 52t-10 52q-10 -54 -22 -104l-60 -229h165zM382 853v-64h-259v64h259z" />
    <glyph glyph-name="amacron" unicode="&#x101;" horiz-adv-x="460" 
d="M236 546q82 0 118.5 -46.5t36.5 -136.5v-363h-63l-13 75h-3q-25 -43 -57.5 -64t-82.5 -21q-65 0 -99.5 45.5t-34.5 114.5q0 80 51 123.5t150 47.5l70 3v34q0 64 -20.5 92t-63.5 28q-29 0 -57.5 -9.5t-58.5 -25.5l-26 62q32 19 71 30t82 11zM309 265l-57 -3
q-69 -3 -99 -31t-30 -80q0 -48 20.5 -70.5t54.5 -22.5q50 0 80.5 40t30.5 115v52zM364 676v-64h-259v64h259z" />
    <glyph glyph-name="Abreve" unicode="&#x102;" horiz-adv-x="507" 
d="M416 0l-62 222h-202l-62 -222h-90l205 715h95l206 -715h-90zM335 301l-61 229q-5 22 -12 52t-10 52q-10 -54 -22 -104l-60 -229h165zM385 918q-2 -61 -38 -97.5t-96 -36.5q-61 0 -94 34.5t-36 99.5h53q4 -37 24 -53.5t55 -16.5q33 0 54 16.5t25 53.5h53z" />
    <glyph glyph-name="abreve" unicode="&#x103;" horiz-adv-x="460" 
d="M236 546q82 0 118.5 -46.5t36.5 -136.5v-363h-63l-13 75h-3q-25 -43 -57.5 -64t-82.5 -21q-65 0 -99.5 45.5t-34.5 114.5q0 80 51 123.5t150 47.5l70 3v34q0 64 -20.5 92t-63.5 28q-29 0 -57.5 -9.5t-58.5 -25.5l-26 62q32 19 71 30t82 11zM309 265l-57 -3
q-69 -3 -99 -31t-30 -80q0 -48 20.5 -70.5t54.5 -22.5q50 0 80.5 40t30.5 115v52zM367 741q-2 -61 -38 -97.5t-96 -36.5q-61 0 -94 34.5t-36 99.5h53q4 -37 24 -53.5t55 -16.5q33 0 54 16.5t25 53.5h53z" />
    <glyph glyph-name="Aogonek" unicode="&#x104;" horiz-adv-x="507" 
d="M416 0l-62 222h-202l-62 -222h-90l205 715h95l206 -715h-90zM335 301l-61 229q-5 22 -12 52t-10 52q-10 -54 -22 -104l-60 -229h165zM416 -117q0 -47 46 -47q13 0 21 2t15 4v-56q-21 -9 -52 -9q-98 0 -98 93q0 40 24.5 77.5t59.5 65.5l47 -13q-34 -33 -48.5 -60.5
t-14.5 -56.5z" />
    <glyph glyph-name="aogonek" unicode="&#x105;" horiz-adv-x="460" 
d="M236 546q82 0 118.5 -46.5t36.5 -136.5v-363h-63l-13 75h-3q-25 -43 -57.5 -64t-82.5 -21q-65 0 -99.5 45.5t-34.5 114.5q0 80 51 123.5t150 47.5l70 3v34q0 64 -20.5 92t-63.5 28q-29 0 -57.5 -9.5t-58.5 -25.5l-26 62q32 19 71 30t82 11zM309 265l-57 -3
q-69 -3 -99 -31t-30 -80q0 -48 20.5 -70.5t54.5 -22.5q50 0 80.5 40t30.5 115v52zM323 -117q0 -47 46 -47q13 0 21 2t15 4v-56q-21 -9 -52 -9q-98 0 -98 93q0 40 24.5 77.5t59.5 65.5l47 -13q-34 -33 -48.5 -60.5t-14.5 -56.5z" />
    <glyph glyph-name="Cacute" unicode="&#x106;" horiz-adv-x="502" 
d="M325 648q-61 0 -101.5 -39t-60.5 -105t-20 -147q0 -135 48.5 -212.5t136.5 -77.5q35 0 66.5 7.5t60.5 19.5v-76q-29 -14 -62 -21t-75 -7q-84 0 -143 44.5t-90.5 127t-31.5 196.5q0 104 30 187t90.5 131.5t150.5 48.5q84 0 152 -38l-32 -73q-26 15 -55.5 24.5t-63.5 9.5z
M445 943v-9q-12 -21 -36 -49.5t-51 -56t-49 -45.5h-54v11q26 37 50 76t41 73h99z" />
    <glyph glyph-name="cacute" unicode="&#x107;" horiz-adv-x="387" 
d="M245 -10q-95 0 -146.5 68t-51.5 207q0 137 52 209.5t149 72.5q34 0 63 -7.5t51 -19.5l-25 -68q-20 9 -42.5 15t-42.5 6q-120 0 -120 -207q0 -204 119 -204q28 0 54 7.5t50 19.5v-71q-23 -14 -52 -21t-58 -7zM368 766v-9q-12 -21 -36 -49.5t-51 -56t-49 -45.5h-54v11
q26 37 50 76t41 73h99z" />
    <glyph glyph-name="Ccircumflex" unicode="&#x108;" horiz-adv-x="502" 
d="M325 648q-61 0 -101.5 -39t-60.5 -105t-20 -147q0 -135 48.5 -212.5t136.5 -77.5q35 0 66.5 7.5t60.5 19.5v-76q-29 -14 -62 -21t-75 -7q-84 0 -143 44.5t-90.5 127t-31.5 196.5q0 104 30 187t90.5 131.5t150.5 48.5q84 0 152 -38l-32 -73q-26 15 -55.5 24.5t-63.5 9.5z
M348 943q16 -34 46.5 -76t56.5 -74v-10h-50q-23 18 -46 42.5t-47 50.5q-25 -26 -48.5 -51t-43.5 -42h-50v10q27 34 56 75.5t45 74.5h81z" />
    <glyph glyph-name="ccircumflex" unicode="&#x109;" horiz-adv-x="387" 
d="M245 -10q-95 0 -146.5 68t-51.5 207q0 137 52 209.5t149 72.5q34 0 63 -7.5t51 -19.5l-25 -68q-20 9 -42.5 15t-42.5 6q-120 0 -120 -207q0 -204 119 -204q28 0 54 7.5t50 19.5v-71q-23 -14 -52 -21t-58 -7zM271 766q16 -34 46.5 -76t56.5 -74v-10h-50q-23 18 -46 42.5
t-47 50.5q-25 -26 -48.5 -51t-43.5 -42h-50v10q27 34 56 75.5t45 74.5h81z" />
    <glyph glyph-name="Cdot" unicode="&#x10a;" horiz-adv-x="502" 
d="M325 648q-61 0 -101.5 -39t-60.5 -105t-20 -147q0 -135 48.5 -212.5t136.5 -77.5q35 0 66.5 7.5t60.5 19.5v-76q-29 -14 -62 -21t-75 -7q-84 0 -143 44.5t-90.5 127t-31.5 196.5q0 104 30 187t90.5 131.5t150.5 48.5q84 0 152 -38l-32 -73q-26 15 -55.5 24.5t-63.5 9.5z
M311 915q48 0 48 -57q0 -28 -13 -42.5t-35 -14.5t-35.5 14.5t-13.5 42.5q0 29 13 43t36 14z" />
    <glyph glyph-name="cdot" unicode="&#x10b;" horiz-adv-x="387" 
d="M245 -10q-95 0 -146.5 68t-51.5 207q0 137 52 209.5t149 72.5q34 0 63 -7.5t51 -19.5l-25 -68q-20 9 -42.5 15t-42.5 6q-120 0 -120 -207q0 -204 119 -204q28 0 54 7.5t50 19.5v-71q-23 -14 -52 -21t-58 -7zM234 738q48 0 48 -57q0 -28 -13 -42.5t-35 -14.5t-35.5 14.5
t-13.5 42.5q0 29 13 43t36 14z" />
    <glyph glyph-name="Ccaron" unicode="&#x10c;" horiz-adv-x="502" 
d="M325 648q-61 0 -101.5 -39t-60.5 -105t-20 -147q0 -135 48.5 -212.5t136.5 -77.5q35 0 66.5 7.5t60.5 19.5v-76q-29 -14 -62 -21t-75 -7q-84 0 -143 44.5t-90.5 127t-31.5 196.5q0 104 30 187t90.5 131.5t150.5 48.5q84 0 152 -38l-32 -73q-26 15 -55.5 24.5t-63.5 9.5z
M267 783q-17 33 -46 74.5t-55 74.5v11h50q21 -17 45 -42.5t47 -50.5q26 29 46.5 49.5t46.5 43.5h50v-11q-17 -20 -36.5 -46t-37.5 -53t-29 -50h-81z" />
    <glyph glyph-name="ccaron" unicode="&#x10d;" horiz-adv-x="387" 
d="M245 -10q-95 0 -146.5 68t-51.5 207q0 137 52 209.5t149 72.5q34 0 63 -7.5t51 -19.5l-25 -68q-20 9 -42.5 15t-42.5 6q-120 0 -120 -207q0 -204 119 -204q28 0 54 7.5t50 19.5v-71q-23 -14 -52 -21t-58 -7zM189 606q-17 33 -46 74.5t-55 74.5v11h50q21 -17 45 -42.5
t47 -50.5q26 29 46.5 49.5t46.5 43.5h50v-11q-17 -20 -36.5 -46t-37.5 -53t-29 -50h-81z" />
    <glyph glyph-name="Dcaron" unicode="&#x10e;" horiz-adv-x="580" 
d="M528 365q0 -181 -74 -273t-213 -92h-161v714h171q132 0 204.5 -89t72.5 -260zM438 362q0 140 -49.5 208t-143.5 68h-79v-562h69q103 0 153 72t50 214zM244 783q-17 33 -46 74.5t-55 74.5v11h50q21 -17 45 -42.5t47 -50.5q26 29 46.5 49.5t46.5 43.5h50v-11
q-17 -20 -36.5 -46t-37.5 -53t-29 -50h-81z" />
    <glyph glyph-name="dcaron" unicode="&#x10f;" horiz-adv-x="508" 
d="M222 -10q-84 0 -130 71t-46 207q0 135 46 207t128 72q44 0 78 -21t56 -58h4q-2 20 -3 39.5t-1 35.5v217h84v-760h-67l-12 69h-5q-22 -37 -54 -58t-78 -21zM239 60q60 0 88 46.5t28 139.5v26q0 102 -27 152t-90 50q-55 0 -81 -54t-26 -153q0 -101 26.5 -154t81.5 -53z
M589 760v-10q-4 -20 -15 -48.5t-24 -56t-26 -45.5h-45v11q4 13 9.5 42t10 59t5.5 48h85z" />
    <glyph glyph-name="Dcroat" unicode="&#x110;" horiz-adv-x="580" 
d="M250 714q132 0 204.5 -89t72.5 -260q0 -181 -74 -273t-213 -92h-158v327h-58v71h58v316h168zM245 638h-77v-240h121v-71h-121v-251h67q103 0 153 72t50 214q0 140 -49.5 208t-143.5 68z" />
    <glyph glyph-name="dcroat" unicode="&#x111;" horiz-adv-x="508" 
d="M222 -10q-84 0 -130 70.5t-46 204.5q0 135 46 205.5t128 70.5q44 0 78 -21t56 -58h4q-2 19 -3 39.5t-1 36.5v70h-142v63h142v89h84v-89h63v-63h-63v-608h-68l-11 70h-5q-22 -38 -54 -59t-78 -21zM240 60q59 0 87 46t28 143v19q0 102 -27 151t-90 49q-55 0 -80.5 -52.5
t-25.5 -151.5q0 -100 26 -152t82 -52z" />
    <glyph glyph-name="Emacron" unicode="&#x112;" horiz-adv-x="448" 
d="M399 0h-319v714h319v-76h-233v-227h219v-76h-219v-258h233v-77zM372 853v-64h-259v64h259z" />
    <glyph glyph-name="emacron" unicode="&#x113;" horiz-adv-x="462" 
d="M238 546q59 0 99 -31t60.5 -85t20.5 -122v-56h-288q3 -191 134 -191q69 0 133 37v-74q-32 -17 -65.5 -25.5t-74.5 -8.5q-71 0 -117.5 35t-69.5 97t-23 143q0 135 49.5 208t141.5 73zM238 478q-98 0 -107 -160h207q-1 67 -25 113.5t-75 46.5zM363 676v-64h-259v64h259z
" />
    <glyph glyph-name="Ebreve" unicode="&#x114;" horiz-adv-x="448" 
d="M399 0h-319v714h319v-76h-233v-227h219v-76h-219v-258h233v-77zM375 918q-2 -61 -38 -97.5t-96 -36.5q-61 0 -94 34.5t-36 99.5h53q4 -37 24 -53.5t55 -16.5q33 0 54 16.5t25 53.5h53z" />
    <glyph glyph-name="ebreve" unicode="&#x115;" horiz-adv-x="462" 
d="M238 546q59 0 99 -31t60.5 -85t20.5 -122v-56h-288q3 -191 134 -191q69 0 133 37v-74q-32 -17 -65.5 -25.5t-74.5 -8.5q-71 0 -117.5 35t-69.5 97t-23 143q0 135 49.5 208t141.5 73zM238 478q-98 0 -107 -160h207q-1 67 -25 113.5t-75 46.5zM366 741q-2 -61 -38 -97.5
t-96 -36.5q-61 0 -94 34.5t-36 99.5h53q4 -37 24 -53.5t55 -16.5q33 0 54 16.5t25 53.5h53z" />
    <glyph glyph-name="Edotaccent" unicode="&#x116;" horiz-adv-x="448" 
d="M399 0h-319v714h319v-76h-233v-227h219v-76h-219v-258h233v-77zM245 915q48 0 48 -57q0 -28 -13 -42.5t-35 -14.5t-35.5 14.5t-13.5 42.5q0 29 13 43t36 14z" />
    <glyph glyph-name="edotaccent" unicode="&#x117;" horiz-adv-x="462" 
d="M238 546q59 0 99 -31t60.5 -85t20.5 -122v-56h-288q3 -191 134 -191q69 0 133 37v-74q-32 -17 -65.5 -25.5t-74.5 -8.5q-71 0 -117.5 35t-69.5 97t-23 143q0 135 49.5 208t141.5 73zM238 478q-98 0 -107 -160h207q-1 67 -25 113.5t-75 46.5zM237 738q48 0 48 -57
q0 -28 -13 -42.5t-35 -14.5t-35.5 14.5t-13.5 42.5q0 29 13 43t36 14z" />
    <glyph glyph-name="Eogonek" unicode="&#x118;" horiz-adv-x="448" 
d="M399 0h-319v714h319v-76h-233v-227h219v-76h-219v-258h233v-77zM311 -117q0 -47 46 -47q13 0 21 2t15 4v-56q-21 -9 -52 -9q-98 0 -98 93q0 40 24.5 77.5t59.5 65.5l47 -13q-34 -33 -48.5 -60.5t-14.5 -56.5z" />
    <glyph glyph-name="eogonek" unicode="&#x119;" horiz-adv-x="462" 
d="M311 -117q0 -46 44 -46q12 0 21.5 2t16.5 4v-57q-24 -8 -54 -8q-49 0 -73 24.5t-24 69.5q0 35 19 66.5t46 55.5q-24 -4 -50 -4q-71 0 -117.5 35t-69.5 97t-23 143q0 135 49.5 208t141.5 73q59 0 99 -31t60.5 -85t20.5 -122v-56h-288q3 -191 134 -191q69 0 133 37v-74
q-45 -41 -65.5 -76t-20.5 -65zM238 478q-98 0 -107 -160h207q-1 67 -25 113.5t-75 46.5z" />
    <glyph glyph-name="Ecaron" unicode="&#x11a;" horiz-adv-x="448" 
d="M399 0h-319v714h319v-76h-233v-227h219v-76h-219v-258h233v-77zM201 783q-17 33 -46 74.5t-55 74.5v11h50q21 -17 45 -42.5t47 -50.5q26 29 46.5 49.5t46.5 43.5h50v-11q-17 -20 -36.5 -46t-37.5 -53t-29 -50h-81z" />
    <glyph glyph-name="ecaron" unicode="&#x11b;" horiz-adv-x="462" 
d="M238 546q59 0 99 -31t60.5 -85t20.5 -122v-56h-288q3 -191 134 -191q69 0 133 37v-74q-32 -17 -65.5 -25.5t-74.5 -8.5q-71 0 -117.5 35t-69.5 97t-23 143q0 135 49.5 208t141.5 73zM238 478q-98 0 -107 -160h207q-1 67 -25 113.5t-75 46.5zM193 606q-17 33 -46 74.5
t-55 74.5v11h50q21 -17 45 -42.5t47 -50.5q26 29 46.5 49.5t46.5 43.5h50v-11q-17 -20 -36.5 -46t-37.5 -53t-29 -50h-81z" />
    <glyph glyph-name="Gcircumflex" unicode="&#x11c;" horiz-adv-x="600" 
d="M338 377h202v-351q-96 -36 -206 -36q-94 0 -156.5 47t-93.5 130t-31 191t34 190.5t100.5 129t165.5 46.5q49 0 94 -11.5t84 -33.5l-31 -73q-34 20 -71.5 31t-75.5 11q-101 0 -155.5 -76t-54.5 -215q0 -83 20.5 -149t65 -103.5t116.5 -37.5q65 0 111 15v218h-118v77z
M377 943q16 -34 46.5 -76t56.5 -74v-10h-50q-23 18 -46 42.5t-47 50.5q-25 -26 -48.5 -51t-43.5 -42h-50v10q27 34 56 75.5t45 74.5h81z" />
    <glyph glyph-name="gcircumflex" unicode="&#x11d;" horiz-adv-x="508" 
d="M222 547q42 0 75 -19.5t57 -61.5h5l10 71h69v-544q0 -113 -51.5 -173t-162.5 -60q-86 0 -147 32v78q71 -38 147 -38q64 0 97.5 35t33.5 111v17q0 15 0.5 37t2.5 42h-4q-46 -84 -134 -84q-82 0 -128 71t-46 205q0 136 47 208.5t129 72.5zM237 474q-53 0 -79.5 -53.5
t-26.5 -155.5q0 -104 27 -154t82 -50q115 0 115 184v24q0 107 -28.5 156t-89.5 49zM297 766q16 -34 46.5 -76t56.5 -74v-10h-50q-23 18 -46 42.5t-47 50.5q-25 -26 -48.5 -51t-43.5 -42h-50v10q27 34 56 75.5t45 74.5h81z" />
    <glyph glyph-name="Gbreve" unicode="&#x11e;" horiz-adv-x="600" 
d="M338 377h202v-351q-96 -36 -206 -36q-94 0 -156.5 47t-93.5 130t-31 191t34 190.5t100.5 129t165.5 46.5q49 0 94 -11.5t84 -33.5l-31 -73q-34 20 -71.5 31t-75.5 11q-101 0 -155.5 -76t-54.5 -215q0 -83 20.5 -149t65 -103.5t116.5 -37.5q65 0 111 15v218h-118v77z
M470 918q-2 -61 -38 -97.5t-96 -36.5q-61 0 -94 34.5t-36 99.5h53q4 -37 24 -53.5t55 -16.5q33 0 54 16.5t25 53.5h53z" />
    <glyph glyph-name="gbreve" unicode="&#x11f;" horiz-adv-x="508" 
d="M222 547q42 0 75 -19.5t57 -61.5h5l10 71h69v-544q0 -113 -51.5 -173t-162.5 -60q-86 0 -147 32v78q71 -38 147 -38q64 0 97.5 35t33.5 111v17q0 15 0.5 37t2.5 42h-4q-46 -84 -134 -84q-82 0 -128 71t-46 205q0 136 47 208.5t129 72.5zM237 474q-53 0 -79.5 -53.5
t-26.5 -155.5q0 -104 27 -154t82 -50q115 0 115 184v24q0 107 -28.5 156t-89.5 49zM389 741q-2 -61 -38 -97.5t-96 -36.5q-61 0 -94 34.5t-36 99.5h53q4 -37 24 -53.5t55 -16.5q33 0 54 16.5t25 53.5h53z" />
    <glyph glyph-name="Gdot" unicode="&#x120;" horiz-adv-x="600" 
d="M338 377h202v-351q-96 -36 -206 -36q-94 0 -156.5 47t-93.5 130t-31 191t34 190.5t100.5 129t165.5 46.5q49 0 94 -11.5t84 -33.5l-31 -73q-34 20 -71.5 31t-75.5 11q-101 0 -155.5 -76t-54.5 -215q0 -83 20.5 -149t65 -103.5t116.5 -37.5q65 0 111 15v218h-118v77z
M340 915q48 0 48 -57q0 -28 -13 -42.5t-35 -14.5t-35.5 14.5t-13.5 42.5q0 29 13 43t36 14z" />
    <glyph glyph-name="gdot" unicode="&#x121;" horiz-adv-x="508" 
d="M222 547q42 0 75 -19.5t57 -61.5h5l10 71h69v-544q0 -113 -51.5 -173t-162.5 -60q-86 0 -147 32v78q71 -38 147 -38q64 0 97.5 35t33.5 111v17q0 15 0.5 37t2.5 42h-4q-46 -84 -134 -84q-82 0 -128 71t-46 205q0 136 47 208.5t129 72.5zM237 474q-53 0 -79.5 -53.5
t-26.5 -155.5q0 -104 27 -154t82 -50q115 0 115 184v24q0 107 -28.5 156t-89.5 49zM259 738q48 0 48 -57q0 -28 -13 -42.5t-35 -14.5t-35.5 14.5t-13.5 42.5q0 29 13 43t36 14z" />
    <glyph glyph-name="uni0122" unicode="&#x122;" horiz-adv-x="600" 
d="M338 377h202v-351q-96 -36 -206 -36q-94 0 -156.5 47t-93.5 130t-31 191t34 190.5t100.5 129t165.5 46.5q49 0 94 -11.5t84 -33.5l-31 -73q-34 20 -71.5 31t-75.5 11q-101 0 -155.5 -76t-54.5 -215q0 -83 20.5 -149t65 -103.5t116.5 -37.5q65 0 111 15v218h-118v77z
M390 -61v-10q-10 -34 -30 -76.5t-43 -73.5h-46v11q6 18 13 45t13 55t8 49h85z" />
    <glyph glyph-name="uni0123" unicode="&#x123;" horiz-adv-x="508" 
d="M222 547q42 0 75 -19.5t57 -61.5h5l10 71h69v-544q0 -113 -51.5 -173t-162.5 -60q-86 0 -147 32v78q71 -38 147 -38q64 0 97.5 35t33.5 111v17q0 15 0.5 37t2.5 42h-4q-46 -84 -134 -84q-82 0 -128 71t-46 205q0 136 47 208.5t129 72.5zM237 474q-53 0 -79.5 -53.5
t-26.5 -155.5q0 -104 27 -154t82 -50q115 0 115 184v24q0 107 -28.5 156t-89.5 49zM313 766v-11q-8 -18 -16.5 -45.5t-15 -55.5t-7.5 -48h-85v10q5 22 16.5 49t27 54t32.5 47h48z" />
    <glyph glyph-name="Hcircumflex" unicode="&#x124;" horiz-adv-x="595" 
d="M516 0h-86v334h-264v-334h-86v714h86v-303h264v303h86v-714zM339 943q16 -34 46.5 -76t56.5 -74v-10h-50q-23 18 -46 42.5t-47 50.5q-25 -26 -48.5 -51t-43.5 -42h-50v10q27 34 56 75.5t45 74.5h81z" />
    <glyph glyph-name="hcircumflex" unicode="&#x125;" horiz-adv-x="505" 
d="M154 760v-217q0 -45 -6 -79h6q19 40 54 61t77 21q77 0 114 -46.5t37 -139.5v-360h-83v346q0 67 -19.5 97t-63.5 30q-63 0 -89.5 -48t-26.5 -147v-278h-83v760h83zM153 989q16 -34 46.5 -76t56.5 -74v-10h-50q-23 18 -46 42.5t-47 50.5q-25 -26 -48.5 -51t-43.5 -42h-50
v10q27 34 56 75.5t45 74.5h81z" />
    <glyph glyph-name="Hbar" unicode="&#x126;" horiz-adv-x="595" 
d="M80 0v528h-81v67h81v119h85v-119h264v119h86v-119h81v-67h-81v-528h-86v334h-264v-334h-85zM166 412h264v116h-264v-116z" />
    <glyph glyph-name="hbar" unicode="&#x127;" horiz-adv-x="505" 
d="M154 760v-91h144v-64h-144v-80q0 -37 -6 -71h6q19 39 54 60.5t77 21.5q77 0 114 -46.5t37 -140.5v-349h-83v336q0 66 -20 96t-64 30q-62 0 -89 -46.5t-27 -147.5v-268h-82v605h-63v64h63v91h83z" />
    <glyph glyph-name="Itilde" unicode="&#x128;" horiz-adv-x="300" 
d="M263 0h-227v49l70 18v580l-70 18v49h227v-49l-71 -18v-580l71 -18v-49zM-9 782q5 51 26.5 87.5t64.5 36.5q26 0 49.5 -14.5t44.5 -28.5t41 -14q17 0 26 15.5t15 42.5h50q-5 -59 -28.5 -91.5t-61.5 -32.5q-25 0 -49 14.5t-46 29t-39 14.5q-32 0 -43 -59h-50z" />
    <glyph glyph-name="itilde" unicode="&#x129;" horiz-adv-x="225" 
d="M154 0h-83v537h83v-537zM-47 605q5 51 26.5 87.5t64.5 36.5q26 0 49.5 -14.5t44.5 -28.5t41 -14q17 0 26 15.5t15 42.5h50q-5 -59 -28.5 -91.5t-61.5 -32.5q-25 0 -49 14.5t-46 29t-39 14.5q-32 0 -43 -59h-50z" />
    <glyph glyph-name="Imacron" unicode="&#x12a;" horiz-adv-x="300" 
d="M263 0h-227v49l70 18v580l-70 18v49h227v-49l-71 -18v-580l71 -18v-49zM279 853v-64h-259v64h259z" />
    <glyph glyph-name="imacron" unicode="&#x12b;" horiz-adv-x="225" 
d="M154 0h-83v537h83v-537zM242 676v-64h-259v64h259z" />
    <glyph glyph-name="Ibreve" unicode="&#x12c;" horiz-adv-x="300" 
d="M263 0h-227v49l70 18v580l-70 18v49h227v-49l-71 -18v-580l71 -18v-49zM282 918q-2 -61 -38 -97.5t-96 -36.5q-61 0 -94 34.5t-36 99.5h53q4 -37 24 -53.5t55 -16.5q33 0 54 16.5t25 53.5h53z" />
    <glyph glyph-name="ibreve" unicode="&#x12d;" horiz-adv-x="225" 
d="M154 0h-83v537h83v-537zM245 741q-2 -61 -38 -97.5t-96 -36.5q-61 0 -94 34.5t-36 99.5h53q4 -37 24 -53.5t55 -16.5q33 0 54 16.5t25 53.5h53z" />
    <glyph glyph-name="Iogonek" unicode="&#x12e;" horiz-adv-x="300" 
d="M263 0h-227v49l70 18v580l-70 18v49h227v-49l-71 -18v-580l71 -18v-49zM176 -117q0 -47 46 -47q13 0 21 2t15 4v-56q-21 -9 -52 -9q-98 0 -98 93q0 40 24.5 77.5t59.5 65.5l47 -13q-34 -33 -48.5 -60.5t-14.5 -56.5z" />
    <glyph glyph-name="iogonek" unicode="&#x12f;" horiz-adv-x="225" 
d="M114 738q47 0 47 -57q0 -28 -12.5 -42.5t-34.5 -14.5t-35.5 14.5t-13.5 42.5q0 29 13.5 43t35.5 14zM154 537v-537h-83v537h83zM84 -117q0 -47 46 -47q13 0 21 2t15 4v-56q-21 -9 -52 -9q-98 0 -98 93q0 40 24.5 77.5t59.5 65.5l47 -13q-34 -33 -48.5 -60.5t-14.5 -56.5z
" />
    <glyph glyph-name="Idotaccent" unicode="&#x130;" horiz-adv-x="300" 
d="M263 0h-227v49l70 18v580l-70 18v49h227v-49l-71 -18v-580l71 -18v-49zM153 915q48 0 48 -57q0 -28 -13 -42.5t-35 -14.5t-35.5 14.5t-13.5 42.5q0 29 13 43t36 14z" />
    <glyph glyph-name="IJ" unicode="&#x132;" horiz-adv-x="527" 
d="M263 0h-227v49l70 18v580l-70 18v49h227v-49l-71 -18v-580l71 -18v-49zM297 -192q-40 0 -68 12v75q14 -5 29 -7.5t32 -2.5q35 0 54.5 26.5t19.5 93.5v709h85v-711q0 -105 -40 -150t-112 -45z" />
    <glyph glyph-name="ij" unicode="&#x133;" horiz-adv-x="450" 
d="M114 738q47 0 47 -57q0 -28 -12.5 -42.5t-34.5 -14.5t-35.5 14.5t-13.5 42.5q0 29 13.5 43t35.5 14zM154 537v-537h-83v537h83zM290 681q0 29 13.5 43t35.5 14q47 0 47 -57q0 -28 -12.5 -42.5t-34.5 -14.5t-35.5 14.5t-13.5 42.5zM257 -240q-18 0 -32 3t-26 7v72
q22 -9 45 -9q25 0 38.5 19.5t13.5 64.5v620h83v-618q0 -158 -122 -159z" />
    <glyph glyph-name="Jcircumflex" unicode="&#x134;" horiz-adv-x="239" 
d="M10 -192q-40 0 -68 12v75q14 -5 29 -7.5t32 -2.5q35 0 54.5 26.5t19.5 93.5v709h85v-711q0 -105 -40 -150t-112 -45zM160 943q16 -34 46.5 -76t56.5 -74v-10h-50q-23 18 -46 42.5t-47 50.5q-25 -26 -48.5 -51t-43.5 -42h-50v10q27 34 56 75.5t45 74.5h81z" />
    <glyph glyph-name="jcircumflex" unicode="&#x135;" horiz-adv-x="225" 
d="M32 -240q-35 0 -58 10v72q22 -9 45 -9q25 0 38.5 19.5t13.5 63.5v621h83v-618q0 -159 -122 -159zM152 766q16 -34 46.5 -76t56.5 -74v-10h-50q-23 18 -46 42.5t-47 50.5q-25 -26 -48.5 -51t-43.5 -42h-50v10q27 34 56 75.5t45 74.5h81z" />
    <glyph glyph-name="uni0136" unicode="&#x136;" horiz-adv-x="499" 
d="M501 0h-97l-180 333l-58 -61v-272h-86v714h86v-356q14 20 32.5 48t42.5 65l156 243h95l-209 -314zM329 -61v-10q-10 -34 -30 -76.5t-43 -73.5h-46v11q6 18 13 45t13 55t8 49h85z" />
    <glyph glyph-name="uni0137" unicode="&#x137;" horiz-adv-x="440" 
d="M154 760v-383q0 -24 -1.5 -50.5t-3.5 -50.5h4q8 15 20.5 34t22.5 33l135 194h92l-156 -214l167 -323h-93l-130 260l-57 -62v-198h-83v760h83zM284 -61v-10q-10 -34 -30 -76.5t-43 -73.5h-46v11q6 18 13 45t13 55t8 49h85z" />
    <glyph glyph-name="kgreenlandic" unicode="&#x138;" horiz-adv-x="440" 
d="M423 537l-152 -216l163 -321h-92l-128 258l-58 -62v-196h-85v537h85v-150q0 -33 -2 -63t-4 -52h4q8 13 15.5 26.5t14.5 23.5l146 215h93z" />
    <glyph glyph-name="Lacute" unicode="&#x139;" horiz-adv-x="417" 
d="M80 0v714h86v-637h232v-77h-318zM260 943v-9q-12 -21 -36 -49.5t-51 -56t-49 -45.5h-54v11q26 37 50 76t41 73h99z" />
    <glyph glyph-name="lacute" unicode="&#x13a;" horiz-adv-x="224" 
d="M154 0h-83v760h83v-760zM250 989v-9q-12 -21 -36 -49.5t-51 -56t-49 -45.5h-54v11q26 37 50 76t41 73h99z" />
    <glyph glyph-name="uni013B" unicode="&#x13b;" horiz-adv-x="417" 
d="M80 0v714h86v-637h232v-77h-318zM294 -61v-10q-10 -34 -30 -76.5t-43 -73.5h-46v11q6 18 13 45t13 55t8 49h85z" />
    <glyph glyph-name="uni013C" unicode="&#x13c;" horiz-adv-x="224" 
d="M154 0h-83v760h83v-760zM166 -61v-10q-10 -34 -30 -76.5t-43 -73.5h-46v11q6 18 13 45t13 55t8 49h85z" />
    <glyph glyph-name="Lcaron" unicode="&#x13d;" horiz-adv-x="417" 
d="M80 0v714h86v-637h232v-77h-318zM412 714v-10q-4 -20 -15 -48.5t-24 -56t-26 -45.5h-45v11q4 13 9.5 42t10 59t5.5 48h85z" />
    <glyph glyph-name="lcaron" unicode="&#x13e;" horiz-adv-x="224" 
d="M154 0h-83v760h83v-760zM304 760v-10q-4 -20 -15 -48.5t-24 -56t-26 -45.5h-45v11q4 13 9.5 42t10 59t5.5 48h85z" />
    <glyph glyph-name="Ldot" unicode="&#x13f;" horiz-adv-x="417" 
d="M80 0v714h86v-637h232v-77h-318zM323 437q48 0 48 -57q0 -28 -13 -42.5t-35 -14.5t-35.5 14.5t-13.5 42.5q0 29 13 43t36 14z" />
    <glyph glyph-name="ldot" unicode="&#x140;" horiz-adv-x="269" 
d="M154 0h-83v760h83v-760zM248 451q48 0 48 -57q0 -28 -13 -42.5t-35 -14.5t-35.5 14.5t-13.5 42.5q0 29 13 43t36 14z" />
    <glyph glyph-name="Lslash" unicode="&#x141;" horiz-adv-x="422" 
d="M84 0v244l-46 -28l-39 55l85 56v387h86v-331l118 72l37 -57l-155 -97v-224h231v-77h-317z" />
    <glyph glyph-name="lslash" unicode="&#x142;" horiz-adv-x="236" 
d="M74 0v295l-53 -38l-38 55l91 66v382h84v-323l57 42l40 -55l-97 -71v-353h-84z" />
    <glyph glyph-name="Nacute" unicode="&#x143;" horiz-adv-x="626" 
d="M547 0h-103l-286 585h-4q3 -39 5 -80t2 -79v-426h-81v714h103l285 -578h3q-2 38 -3.5 80.5t-1.5 77.5v420h81v-714zM450 943v-9q-12 -21 -36 -49.5t-51 -56t-49 -45.5h-54v11q26 37 50 76t41 73h99z" />
    <glyph glyph-name="nacute" unicode="&#x144;" horiz-adv-x="505" 
d="M286 547q74 0 112 -45.5t38 -141.5v-360h-83v346q0 64 -19.5 96t-63.5 32q-64 0 -90 -47t-26 -148v-279h-83v537h67l10 -73h5q20 40 55.5 61.5t77.5 21.5zM395 766v-9q-12 -21 -36 -49.5t-51 -56t-49 -45.5h-54v11q26 37 50 76t41 73h99z" />
    <glyph glyph-name="uni0145" unicode="&#x145;" horiz-adv-x="626" 
d="M547 0h-103l-286 585h-4q3 -39 5 -80t2 -79v-426h-81v714h103l285 -578h3q-2 38 -3.5 80.5t-1.5 77.5v420h81v-714zM366 -61v-10q-10 -34 -30 -76.5t-43 -73.5h-46v11q6 18 13 45t13 55t8 49h85z" />
    <glyph glyph-name="uni0146" unicode="&#x146;" horiz-adv-x="505" 
d="M286 547q74 0 112 -45.5t38 -141.5v-360h-83v346q0 64 -19.5 96t-63.5 32q-64 0 -90 -47t-26 -148v-279h-83v537h67l10 -73h5q20 40 55.5 61.5t77.5 21.5zM306 -61v-10q-10 -34 -30 -76.5t-43 -73.5h-46v11q6 18 13 45t13 55t8 49h85z" />
    <glyph glyph-name="Ncaron" unicode="&#x147;" horiz-adv-x="626" 
d="M547 0h-103l-286 585h-4q3 -39 5 -80t2 -79v-426h-81v714h103l285 -578h3q-2 38 -3.5 80.5t-1.5 77.5v420h81v-714zM271 783q-17 33 -46 74.5t-55 74.5v11h50q21 -17 45 -42.5t47 -50.5q26 29 46.5 49.5t46.5 43.5h50v-11q-17 -20 -36.5 -46t-37.5 -53t-29 -50h-81z" />
    <glyph glyph-name="ncaron" unicode="&#x148;" horiz-adv-x="505" 
d="M286 547q74 0 112 -45.5t38 -141.5v-360h-83v346q0 64 -19.5 96t-63.5 32q-64 0 -90 -47t-26 -148v-279h-83v537h67l10 -73h5q20 40 55.5 61.5t77.5 21.5zM217 606q-17 33 -46 74.5t-55 74.5v11h50q21 -17 45 -42.5t47 -50.5q26 29 46.5 49.5t46.5 43.5h50v-11
q-17 -20 -36.5 -46t-37.5 -53t-29 -50h-81z" />
    <glyph glyph-name="napostrophe" unicode="&#x149;" horiz-adv-x="573" 
d="M355 547q74 0 112 -45.5t38 -141.5v-360h-83v346q0 64 -19.5 96t-63.5 32q-64 0 -90 -47t-26 -148v-279h-83v537h67l10 -73h5q20 40 55.5 61.5t77.5 21.5zM135 714l7 -11q-14 -59 -34.5 -119t-44.5 -116h-63q16 59 28.5 126.5t18.5 119.5h88z" />
    <glyph glyph-name="Eng" unicode="&#x14a;" horiz-adv-x="626" 
d="M396 -192q-40 0 -68 12v75q14 -5 29.5 -7.5t32.5 -2.5q34 0 54.5 25.5t21.5 90.5l-308 589h-4q3 -37 5 -80.5t2 -81.5v-428h-81v714h103l285 -548h3q-2 40 -3.5 82t-1.5 79v387h81v-709q0 -100 -38.5 -148.5t-112.5 -48.5z" />
    <glyph glyph-name="eng" unicode="&#x14b;" horiz-adv-x="505" 
d="M316 -240q-16 0 -29.5 3t-25.5 7v72q21 -9 43 -9q23 0 36 20t13 64v430q0 62 -20.5 93.5t-64.5 31.5q-62 0 -88 -45.5t-26 -147.5v-279h-83v537h67l10 -73h5q19 40 54.5 61.5t78.5 21.5q81 0 115.5 -51.5t34.5 -145.5v-431q0 -73 -29 -116t-91 -43z" />
    <glyph glyph-name="Omacron" unicode="&#x14c;" horiz-adv-x="619" 
d="M567 358q0 -105 -27 -188.5t-84 -131.5t-146 -48q-91 0 -147.5 49t-83 132.5t-26.5 187.5q0 178 64.5 271.5t193.5 93.5q89 0 145.5 -48t83.5 -130.5t27 -187.5zM143 358q0 -141 41.5 -216t125.5 -75q83 0 124.5 74.5t41.5 216.5t-41 215.5t-124 73.5q-85 0 -126.5 -74
t-41.5 -215zM439 853v-64h-259v64h259z" />
    <glyph glyph-name="omacron" unicode="&#x14d;" horiz-adv-x="493" 
d="M447 269q0 -127 -51 -203t-151 -76q-95 0 -147 75.5t-52 203.5q0 133 50.5 205.5t150.5 72.5q93 0 146.5 -71t53.5 -207zM131 269q0 -101 28 -154t88 -53q59 0 87.5 53t28.5 154t-28.5 153.5t-87.5 52.5q-61 0 -88.5 -52.5t-27.5 -153.5zM376 676v-64h-259v64h259z" />
    <glyph glyph-name="Obreve" unicode="&#x14e;" horiz-adv-x="619" 
d="M567 358q0 -105 -27 -188.5t-84 -131.5t-146 -48q-91 0 -147.5 49t-83 132.5t-26.5 187.5q0 178 64.5 271.5t193.5 93.5q89 0 145.5 -48t83.5 -130.5t27 -187.5zM143 358q0 -141 41.5 -216t125.5 -75q83 0 124.5 74.5t41.5 216.5t-41 215.5t-124 73.5q-85 0 -126.5 -74
t-41.5 -215zM442 918q-2 -61 -38 -97.5t-96 -36.5q-61 0 -94 34.5t-36 99.5h53q4 -37 24 -53.5t55 -16.5q33 0 54 16.5t25 53.5h53z" />
    <glyph glyph-name="obreve" unicode="&#x14f;" horiz-adv-x="493" 
d="M447 269q0 -127 -51 -203t-151 -76q-95 0 -147 75.5t-52 203.5q0 133 50.5 205.5t150.5 72.5q93 0 146.5 -71t53.5 -207zM131 269q0 -101 28 -154t88 -53q59 0 87.5 53t28.5 154t-28.5 153.5t-87.5 52.5q-61 0 -88.5 -52.5t-27.5 -153.5zM379 741q-2 -61 -38 -97.5
t-96 -36.5q-61 0 -94 34.5t-36 99.5h53q4 -37 24 -53.5t55 -16.5q33 0 54 16.5t25 53.5h53z" />
    <glyph glyph-name="Ohungarumlaut" unicode="&#x150;" horiz-adv-x="619" 
d="M567 358q0 -105 -27 -188.5t-84 -131.5t-146 -48q-91 0 -147.5 49t-83 132.5t-26.5 187.5q0 178 64.5 271.5t193.5 93.5q89 0 145.5 -48t83.5 -130.5t27 -187.5zM143 358q0 -141 41.5 -216t125.5 -75q83 0 124.5 74.5t41.5 216.5t-41 215.5t-124 73.5q-85 0 -126.5 -74
t-41.5 -215zM517 943v-9q-11 -21 -33 -49.5t-47.5 -56t-45.5 -45.5h-43v11q14 21 30 49.5t30 55.5t21 44h88zM363 943v-9q-11 -21 -32 -49t-46 -55t-49 -47h-42v11q14 23 30 50.5t29.5 54t21.5 44.5h88z" />
    <glyph glyph-name="ohungarumlaut" unicode="&#x151;" horiz-adv-x="493" 
d="M447 269q0 -127 -51 -203t-151 -76q-95 0 -147 75.5t-52 203.5q0 133 50.5 205.5t150.5 72.5q93 0 146.5 -71t53.5 -207zM131 269q0 -101 28 -154t88 -53q59 0 87.5 53t28.5 154t-28.5 153.5t-87.5 52.5q-61 0 -88.5 -52.5t-27.5 -153.5zM454 766v-9q-11 -21 -33 -49.5
t-47.5 -56t-45.5 -45.5h-43v11q14 21 30 49.5t30 55.5t21 44h88zM300 766v-9q-11 -21 -32 -49t-46 -55t-49 -47h-42v11q14 23 30 50.5t29.5 54t21.5 44.5h88z" />
    <glyph glyph-name="OE" unicode="&#x152;" horiz-adv-x="731" 
d="M321 721q19 0 37 -2t34 -5h289v-76h-226v-227h212v-76h-212v-258h226v-77h-286q-17 -2 -35.5 -4t-38.5 -2q-137 0 -202.5 97t-65.5 268q0 170 67 266t201 96zM324 644q-68 -1 -107.5 -36t-56.5 -99t-17 -151q0 -88 17.5 -152t57.5 -99t107 -36q27 0 45 6v559
q-10 4 -21.5 6t-24.5 2z" />
    <glyph glyph-name="oe" unicode="&#x153;" horiz-adv-x="770" 
d="M548 546q59 0 98.5 -31t59 -85t19.5 -122v-56h-284q1 -192 131 -192q36 0 67.5 9t64.5 27v-72q-32 -17 -64.5 -25.5t-72.5 -8.5q-114 0 -167 101q-47 -101 -156 -101q-93 0 -145.5 74t-52.5 205q0 133 51 205t149 72q105 0 153 -100q47 100 149 100zM546 477
q-95 0 -104 -159h203q0 68 -23.5 113.5t-75.5 45.5zM245 475q-60 0 -87 -51.5t-27 -154.5q0 -208 114 -208q59 0 86 51t27 156q0 207 -113 207z" />
    <glyph glyph-name="Racute" unicode="&#x154;" horiz-adv-x="509" 
d="M228 714q117 0 172 -50.5t55 -151.5q0 -75 -31 -121.5t-88 -70.5l160 -320h-97l-141 298h-92v-298h-86v714h148zM227 637h-61v-267h68q133 0 133 138q0 69 -34 99t-106 30zM393 943v-9q-12 -21 -36 -49.5t-51 -56t-49 -45.5h-54v11q26 37 50 76t41 73h99z" />
    <glyph glyph-name="racute" unicode="&#x155;" horiz-adv-x="337" 
d="M275 547q12 0 25 -1.5t26 -5.5l-12 -83q-10 4 -21.5 5.5t-23.5 1.5q-33 0 -59 -23.5t-41 -64.5t-15 -94v-282h-83v537h66l10 -94h5q20 46 50.5 75t72.5 29zM332 766v-9q-12 -21 -36 -49.5t-51 -56t-49 -45.5h-54v11q26 37 50 76t41 73h99z" />
    <glyph glyph-name="uni0156" unicode="&#x156;" horiz-adv-x="509" 
d="M228 714q117 0 172 -50.5t55 -151.5q0 -75 -31 -121.5t-88 -70.5l160 -320h-97l-141 298h-92v-298h-86v714h148zM227 637h-61v-267h68q133 0 133 138q0 69 -34 99t-106 30zM320 -61v-10q-10 -34 -30 -76.5t-43 -73.5h-46v11q6 18 13 45t13 55t8 49h85z" />
    <glyph glyph-name="uni0157" unicode="&#x157;" horiz-adv-x="337" 
d="M275 547q12 0 25 -1.5t26 -5.5l-12 -83q-10 4 -21.5 5.5t-23.5 1.5q-33 0 -59 -23.5t-41 -64.5t-15 -94v-282h-83v537h66l10 -94h5q20 46 50.5 75t72.5 29zM168 -61v-10q-10 -34 -30 -76.5t-43 -73.5h-46v11q6 18 13 45t13 55t8 49h85z" />
    <glyph glyph-name="Rcaron" unicode="&#x158;" horiz-adv-x="509" 
d="M228 714q117 0 172 -50.5t55 -151.5q0 -75 -31 -121.5t-88 -70.5l160 -320h-97l-141 298h-92v-298h-86v714h148zM227 637h-61v-267h68q133 0 133 138q0 69 -34 99t-106 30zM215 783q-17 33 -46 74.5t-55 74.5v11h50q21 -17 45 -42.5t47 -50.5q26 29 46.5 49.5t46.5 43.5
h50v-11q-17 -20 -36.5 -46t-37.5 -53t-29 -50h-81z" />
    <glyph glyph-name="rcaron" unicode="&#x159;" horiz-adv-x="337" 
d="M275 547q12 0 25 -1.5t26 -5.5l-12 -83q-10 4 -21.5 5.5t-23.5 1.5q-33 0 -59 -23.5t-41 -64.5t-15 -94v-282h-83v537h66l10 -94h5q20 46 50.5 75t72.5 29zM154 606q-17 33 -46 74.5t-55 74.5v11h50q21 -17 45 -42.5t47 -50.5q26 29 46.5 49.5t46.5 43.5h50v-11
q-17 -20 -36.5 -46t-37.5 -53t-29 -50h-81z" />
    <glyph glyph-name="Sacute" unicode="&#x15a;" horiz-adv-x="454" 
d="M413 194q0 -61 -25.5 -107t-72.5 -71.5t-110 -25.5q-97 0 -163 32v87q34 -19 78 -29.5t84 -10.5q59 0 91 33.5t32 83.5q0 35 -12 59t-40 44t-76 42q-48 23 -82 49.5t-51.5 64t-17.5 93.5t24.5 98t69 65t102.5 23q46 0 87 -10.5t73 -25.5l-28 -78q-32 16 -65.5 25.5
t-65.5 9.5q-53 0 -81.5 -29.5t-28.5 -75.5q0 -36 11.5 -59.5t38.5 -43t74 -41.5q77 -36 115.5 -82t38.5 -120zM374 943v-9q-12 -21 -36 -49.5t-51 -56t-49 -45.5h-54v11q26 37 50 76t41 73h99z" />
    <glyph glyph-name="sacute" unicode="&#x15b;" horiz-adv-x="381" 
d="M345 145q0 -75 -45.5 -115t-125.5 -40q-43 0 -76.5 9t-58.5 22v83q25 -17 61 -29.5t73 -12.5q45 0 68 21t23 58q0 31 -21 53t-76 49q-59 30 -94 64.5t-35 97.5q0 65 46 103.5t120 38.5q38 0 72 -9.5t65 -26.5l-30 -66q-25 14 -52 23t-56 9q-40 0 -62.5 -18.5t-22.5 -50.5
t22.5 -52t78.5 -49q58 -31 92 -65.5t34 -96.5zM334 766v-9q-12 -21 -36 -49.5t-51 -56t-49 -45.5h-54v11q26 37 50 76t41 73h99z" />
    <glyph glyph-name="Scircumflex" unicode="&#x15c;" horiz-adv-x="454" 
d="M413 194q0 -61 -25.5 -107t-72.5 -71.5t-110 -25.5q-97 0 -163 32v87q34 -19 78 -29.5t84 -10.5q59 0 91 33.5t32 83.5q0 35 -12 59t-40 44t-76 42q-48 23 -82 49.5t-51.5 64t-17.5 93.5t24.5 98t69 65t102.5 23q46 0 87 -10.5t73 -25.5l-28 -78q-32 16 -65.5 25.5
t-65.5 9.5q-53 0 -81.5 -29.5t-28.5 -75.5q0 -36 11.5 -59.5t38.5 -43t74 -41.5q77 -36 115.5 -82t38.5 -120zM277 943q16 -34 46.5 -76t56.5 -74v-10h-50q-23 18 -46 42.5t-47 50.5q-25 -26 -48.5 -51t-43.5 -42h-50v10q27 34 56 75.5t45 74.5h81z" />
    <glyph glyph-name="scircumflex" unicode="&#x15d;" horiz-adv-x="381" 
d="M345 145q0 -75 -45.5 -115t-125.5 -40q-43 0 -76.5 9t-58.5 22v83q25 -17 61 -29.5t73 -12.5q45 0 68 21t23 58q0 31 -21 53t-76 49q-59 30 -94 64.5t-35 97.5q0 65 46 103.5t120 38.5q38 0 72 -9.5t65 -26.5l-30 -66q-25 14 -52 23t-56 9q-40 0 -62.5 -18.5t-22.5 -50.5
t22.5 -52t78.5 -49q58 -31 92 -65.5t34 -96.5zM238 766q16 -34 46.5 -76t56.5 -74v-10h-50q-23 18 -46 42.5t-47 50.5q-25 -26 -48.5 -51t-43.5 -42h-50v10q27 34 56 75.5t45 74.5h81z" />
    <glyph glyph-name="Scedilla" unicode="&#x15e;" horiz-adv-x="454" 
d="M413 194q0 -61 -25.5 -107t-72.5 -71.5t-110 -25.5q-97 0 -163 32v87q34 -19 78 -29.5t84 -10.5q59 0 91 33.5t32 83.5q0 35 -12 59t-40 44t-76 42q-48 23 -82 49.5t-51.5 64t-17.5 93.5t24.5 98t69 65t102.5 23q46 0 87 -10.5t73 -25.5l-28 -78q-32 16 -65.5 25.5
t-65.5 9.5q-53 0 -81.5 -29.5t-28.5 -75.5q0 -36 11.5 -59.5t38.5 -43t74 -41.5q77 -36 115.5 -82t38.5 -120zM304 -138q0 -50 -33 -76t-94 -26q-35 0 -54 6v54q19 -6 46 -6q67 0 67 48q0 26 -22 39t-59 18l37 81h51l-23 -51q39 -8 61.5 -30t22.5 -57z" />
    <glyph glyph-name="scedilla" unicode="&#x15f;" horiz-adv-x="381" 
d="M345 145q0 -75 -45.5 -115t-125.5 -40q-43 0 -76.5 9t-58.5 22v83q25 -17 61 -29.5t73 -12.5q45 0 68 21t23 58q0 31 -21 53t-76 49q-59 30 -94 64.5t-35 97.5q0 65 46 103.5t120 38.5q38 0 72 -9.5t65 -26.5l-30 -66q-25 14 -52 23t-56 9q-40 0 -62.5 -18.5t-22.5 -50.5
t22.5 -52t78.5 -49q58 -31 92 -65.5t34 -96.5zM273 -138q0 -50 -33 -76t-94 -26q-35 0 -54 6v54q19 -6 46 -6q67 0 67 48q0 26 -22 39t-59 18l37 81h51l-23 -51q39 -8 61.5 -30t22.5 -57z" />
    <glyph glyph-name="Scaron" unicode="&#x160;" horiz-adv-x="454" 
d="M413 194q0 -61 -25.5 -107t-72.5 -71.5t-110 -25.5q-97 0 -163 32v87q34 -19 78 -29.5t84 -10.5q59 0 91 33.5t32 83.5q0 35 -12 59t-40 44t-76 42q-48 23 -82 49.5t-51.5 64t-17.5 93.5t24.5 98t69 65t102.5 23q46 0 87 -10.5t73 -25.5l-28 -78q-32 16 -65.5 25.5
t-65.5 9.5q-53 0 -81.5 -29.5t-28.5 -75.5q0 -36 11.5 -59.5t38.5 -43t74 -41.5q77 -36 115.5 -82t38.5 -120zM195 783q-17 33 -46 74.5t-55 74.5v11h50q21 -17 45 -42.5t47 -50.5q26 29 46.5 49.5t46.5 43.5h50v-11q-17 -20 -36.5 -46t-37.5 -53t-29 -50h-81z" />
    <glyph glyph-name="scaron" unicode="&#x161;" horiz-adv-x="381" 
d="M345 145q0 -75 -45.5 -115t-125.5 -40q-43 0 -76.5 9t-58.5 22v83q25 -17 61 -29.5t73 -12.5q45 0 68 21t23 58q0 31 -21 53t-76 49q-59 30 -94 64.5t-35 97.5q0 65 46 103.5t120 38.5q38 0 72 -9.5t65 -26.5l-30 -66q-25 14 -52 23t-56 9q-40 0 -62.5 -18.5t-22.5 -50.5
t22.5 -52t78.5 -49q58 -31 92 -65.5t34 -96.5zM156 606q-17 33 -46 74.5t-55 74.5v11h50q21 -17 45 -42.5t47 -50.5q26 29 46.5 49.5t46.5 43.5h50v-11q-17 -20 -36.5 -46t-37.5 -53t-29 -50h-81z" />
    <glyph glyph-name="uni021A" unicode="&#x21a;" horiz-adv-x="434" 
d="M259 0h-85v637h-164v77h412v-77h-163v-637zM270 -61v-10q-10 -34 -30 -76.5t-43 -73.5h-46v11q6 18 13 45t13 55t8 49h85z" />
    <glyph glyph-name="uni021B" unicode="&#x21b;" horiz-adv-x="290" 
d="M217 62q29 0 56 10v-66q-32 -16 -79 -16q-56 0 -88 35t-32 115v329h-57v43l61 26l26 120h54v-121h109v-68h-109v-321q0 -44 14 -65t45 -21zM229 -61v-10q-10 -34 -30 -76.5t-43 -73.5h-46v11q6 18 13 45t13 55t8 49h85z" />
    <glyph glyph-name="Tcaron" unicode="&#x164;" horiz-adv-x="434" 
d="M259 0h-85v637h-164v77h412v-77h-163v-637zM176 783q-17 33 -46 74.5t-55 74.5v11h50q21 -17 45 -42.5t47 -50.5q26 29 46.5 49.5t46.5 43.5h50v-11q-17 -20 -36.5 -46t-37.5 -53t-29 -50h-81z" />
    <glyph glyph-name="tcaron" unicode="&#x165;" horiz-adv-x="290" 
d="M217 62q29 0 56 10v-66q-32 -16 -79 -16q-56 0 -88 35t-32 115v329h-57v43l61 26l26 120h54v-121h109v-68h-109v-321q0 -44 14 -65t45 -21zM394 760v-10q-4 -20 -15 -48.5t-24 -56t-26 -45.5h-45v11q4 13 9.5 42t10 59t5.5 48h85z" />
    <glyph glyph-name="Tbar" unicode="&#x166;" horiz-adv-x="434" 
d="M173 0v325h-115v70h115v241h-163v78h412v-78h-163v-241h115v-70h-115v-325h-86z" />
    <glyph glyph-name="tbar" unicode="&#x167;" horiz-adv-x="290" 
d="M217 62q29 0 56 10v-66q-32 -16 -79 -16q-56 0 -88 35t-32 115v135h-54v63h54v131h-57v43l61 26l26 120h54v-121h109v-68h-109v-131h104v-63h-104v-127q0 -44 14 -65t45 -21z" />
    <glyph glyph-name="Utilde" unicode="&#x168;" horiz-adv-x="585" 
d="M510 714v-482q0 -118 -54 -180t-164 -62q-106 0 -162 61.5t-56 180.5v482h86v-483q0 -84 34 -124t100 -40q67 0 98.5 41t31.5 124v482h86zM134 782q5 51 26.5 87.5t64.5 36.5q26 0 49.5 -14.5t44.5 -28.5t41 -14q17 0 26 15.5t15 42.5h50q-5 -59 -28.5 -91.5t-61.5 -32.5
q-25 0 -49 14.5t-46 29t-39 14.5q-32 0 -43 -59h-50z" />
    <glyph glyph-name="utilde" unicode="&#x169;" horiz-adv-x="505" 
d="M434 537v-537h-68l-10 72h-5q-20 -40 -55 -61t-77 -21q-80 0 -115.5 51.5t-35.5 144.5v351h83v-338q0 -70 20 -103t62 -33q66 0 91.5 47.5t25.5 142.5v284h84zM94 605q5 51 26.5 87.5t64.5 36.5q26 0 49.5 -14.5t44.5 -28.5t41 -14q17 0 26 15.5t15 42.5h50
q-5 -59 -28.5 -91.5t-61.5 -32.5q-25 0 -49 14.5t-46 29t-39 14.5q-32 0 -43 -59h-50z" />
    <glyph glyph-name="Umacron" unicode="&#x16a;" horiz-adv-x="585" 
d="M510 714v-482q0 -118 -54 -180t-164 -62q-106 0 -162 61.5t-56 180.5v482h86v-483q0 -84 34 -124t100 -40q67 0 98.5 41t31.5 124v482h86zM422 853v-64h-259v64h259z" />
    <glyph glyph-name="umacron" unicode="&#x16b;" horiz-adv-x="505" 
d="M434 537v-537h-68l-10 72h-5q-20 -40 -55 -61t-77 -21q-80 0 -115.5 51.5t-35.5 144.5v351h83v-338q0 -70 20 -103t62 -33q66 0 91.5 47.5t25.5 142.5v284h84zM383 676v-64h-259v64h259z" />
    <glyph glyph-name="Ubreve" unicode="&#x16c;" horiz-adv-x="585" 
d="M510 714v-482q0 -118 -54 -180t-164 -62q-106 0 -162 61.5t-56 180.5v482h86v-483q0 -84 34 -124t100 -40q67 0 98.5 41t31.5 124v482h86zM425 918q-2 -61 -38 -97.5t-96 -36.5q-61 0 -94 34.5t-36 99.5h53q4 -37 24 -53.5t55 -16.5q33 0 54 16.5t25 53.5h53z" />
    <glyph glyph-name="ubreve" unicode="&#x16d;" horiz-adv-x="505" 
d="M434 537v-537h-68l-10 72h-5q-20 -40 -55 -61t-77 -21q-80 0 -115.5 51.5t-35.5 144.5v351h83v-338q0 -70 20 -103t62 -33q66 0 91.5 47.5t25.5 142.5v284h84zM386 741q-2 -61 -38 -97.5t-96 -36.5q-61 0 -94 34.5t-36 99.5h53q4 -37 24 -53.5t55 -16.5q33 0 54 16.5
t25 53.5h53z" />
    <glyph glyph-name="Uring" unicode="&#x16e;" horiz-adv-x="585" 
d="M510 714v-482q0 -118 -54 -180t-164 -62q-106 0 -162 61.5t-56 180.5v482h86v-483q0 -84 34 -124t100 -40q67 0 98.5 41t31.5 124v482h86zM293 785q-49 0 -77.5 28t-28.5 74t28.5 74t77.5 28q46 0 76.5 -27t30.5 -73q0 -48 -29.5 -76t-77.5 -28zM294 834q23 0 38.5 14.5
t15.5 38.5t-14.5 39t-39.5 15q-24 0 -39.5 -15t-15.5 -39t14 -38.5t41 -14.5z" />
    <glyph glyph-name="uring" unicode="&#x16f;" horiz-adv-x="505" 
d="M434 537v-537h-68l-10 72h-5q-20 -40 -55 -61t-77 -21q-80 0 -115.5 51.5t-35.5 144.5v351h83v-338q0 -70 20 -103t62 -33q66 0 91.5 47.5t25.5 142.5v284h84zM253 608q-49 0 -77.5 28t-28.5 74t28.5 74t77.5 28q46 0 76.5 -27t30.5 -73q0 -48 -29.5 -76t-77.5 -28z
M254 657q23 0 38.5 14.5t15.5 38.5t-14.5 39t-39.5 15q-24 0 -39.5 -15t-15.5 -39t14 -38.5t41 -14.5z" />
    <glyph glyph-name="Uhungarumlaut" unicode="&#x170;" horiz-adv-x="585" 
d="M510 714v-482q0 -118 -54 -180t-164 -62q-106 0 -162 61.5t-56 180.5v482h86v-483q0 -84 34 -124t100 -40q67 0 98.5 41t31.5 124v482h86zM500 943v-9q-11 -21 -33 -49.5t-47.5 -56t-45.5 -45.5h-43v11q14 21 30 49.5t30 55.5t21 44h88zM346 943v-9q-11 -21 -32 -49
t-46 -55t-49 -47h-42v11q14 23 30 50.5t29.5 54t21.5 44.5h88z" />
    <glyph glyph-name="uhungarumlaut" unicode="&#x171;" horiz-adv-x="505" 
d="M434 537v-537h-68l-10 72h-5q-20 -40 -55 -61t-77 -21q-80 0 -115.5 51.5t-35.5 144.5v351h83v-338q0 -70 20 -103t62 -33q66 0 91.5 47.5t25.5 142.5v284h84zM460 766v-9q-11 -21 -33 -49.5t-47.5 -56t-45.5 -45.5h-43v11q14 21 30 49.5t30 55.5t21 44h88zM306 766v-9
q-11 -21 -32 -49t-46 -55t-49 -47h-42v11q14 23 30 50.5t29.5 54t21.5 44.5h88z" />
    <glyph glyph-name="Uogonek" unicode="&#x172;" horiz-adv-x="585" 
d="M352 -115q0 -49 44 -49q12 0 22 2t16 4v-56q-22 -9 -54 -9q-97 0 -97 96q0 34 18 65.5t43 55.5q-24 -4 -52 -4q-106 0 -162 61.5t-56 180.5v482h86v-483q0 -84 34 -124t100 -40q67 0 98.5 41t31.5 124v482h86v-482q0 -143 -78 -202q-47 -51 -63.5 -83t-16.5 -62z" />
    <glyph glyph-name="uogonek" unicode="&#x173;" horiz-adv-x="505" 
d="M434 537v-537h-68l-10 72h-5q-20 -40 -55 -61t-77 -21q-80 0 -115.5 51.5t-35.5 144.5v351h83v-338q0 -70 20 -103t62 -33q66 0 91.5 47.5t25.5 142.5v284h84zM359 -117q0 -47 46 -47q13 0 21 2t15 4v-56q-21 -9 -52 -9q-98 0 -98 93q0 40 24.5 77.5t59.5 65.5l47 -13
q-34 -33 -48.5 -60.5t-14.5 -56.5z" />
    <glyph glyph-name="Wcircumflex" unicode="&#x174;" horiz-adv-x="782" 
d="M776 714l-159 -714h-97l-106 459q-6 25 -12.5 62.5t-11.5 77.5q-3 -26 -9 -64.5t-15 -75.5l-103 -459h-96l-161 714h88l94 -437q10 -52 17.5 -97.5t11.5 -79.5q6 42 14.5 88.5t17.5 88.5l100 437h83l101 -438q9 -40 17 -85t14 -91q5 45 13 90.5t17 86.5l95 437h87z
M432 943q16 -34 46.5 -76t56.5 -74v-10h-50q-23 18 -46 42.5t-47 50.5q-25 -26 -48.5 -51t-43.5 -42h-50v10q27 34 56 75.5t45 74.5h81z" />
    <glyph glyph-name="wcircumflex" unicode="&#x175;" horiz-adv-x="659" 
d="M426 0l-71 318q-7 33 -13.5 66.5t-10.5 59.5h-3q-4 -28 -10 -61t-14 -65l-75 -318h-95l-124 537h84l60 -273q8 -42 16.5 -86t13.5 -82h3q5 32 12 74.5t18 85.5l67 281h92l66 -282q8 -29 16 -71t14 -88h3q2 21 8.5 55t14.5 73l69 313h83l-128 -537h-96zM370 766
q16 -34 46.5 -76t56.5 -74v-10h-50q-23 18 -46 42.5t-47 50.5q-25 -26 -48.5 -51t-43.5 -42h-50v10q27 34 56 75.5t45 74.5h81z" />
    <glyph glyph-name="Ycircumflex" unicode="&#x176;" horiz-adv-x="444" 
d="M223 374l131 340h90l-179 -436v-278h-86v275l-179 439h91zM262 943q16 -34 46.5 -76t56.5 -74v-10h-50q-23 18 -46 42.5t-47 50.5q-25 -26 -48.5 -51t-43.5 -42h-50v10q27 34 56 75.5t45 74.5h81z" />
    <glyph glyph-name="ycircumflex" unicode="&#x177;" horiz-adv-x="412" 
d="M3 537h87l86 -305q9 -32 17 -64.5t13 -64.5h4q4 27 12 60.5t18 69.5l83 304h86l-180 -616q-24 -80 -60.5 -120.5t-98.5 -40.5q-16 0 -30 2t-27 6v71q10 -2 22 -4t23 -2q34 0 53.5 23.5t35.5 76.5l20 69zM246 766q16 -34 46.5 -76t56.5 -74v-10h-50q-23 18 -46 42.5
t-47 50.5q-25 -26 -48.5 -51t-43.5 -42h-50v10q27 34 56 75.5t45 74.5h81z" />
    <glyph glyph-name="Ydieresis" unicode="&#x178;" horiz-adv-x="444" 
d="M223 374l131 340h90l-179 -436v-278h-86v275l-179 439h91zM93 849q0 26 12.5 38t31.5 12q18 0 30.5 -12t12.5 -38t-12.5 -39t-30.5 -13q-19 0 -31.5 13t-12.5 39zM263 849q0 26 13 38t31 12t31 -12t13 -38t-13 -39t-31 -13q-19 0 -31.5 13t-12.5 39z" />
    <glyph glyph-name="Zacute" unicode="&#x179;" horiz-adv-x="424" 
d="M399 0h-369v66l265 571h-259v77h355v-67l-266 -570h274v-77zM351 943v-9q-12 -21 -36 -49.5t-51 -56t-49 -45.5h-54v11q26 37 50 76t41 73h99z" />
    <glyph glyph-name="zacute" unicode="&#x17a;" horiz-adv-x="353" 
d="M327 0h-298v56l199 412h-187v69h279v-61l-198 -407h205v-69zM318 766v-9q-12 -21 -36 -49.5t-51 -56t-49 -45.5h-54v11q26 37 50 76t41 73h99z" />
    <glyph glyph-name="Zdotaccent" unicode="&#x17b;" horiz-adv-x="424" 
d="M399 0h-369v66l265 571h-259v77h355v-67l-266 -570h274v-77zM217 915q48 0 48 -57q0 -28 -13 -42.5t-35 -14.5t-35.5 14.5t-13.5 42.5q0 29 13 43t36 14z" />
    <glyph glyph-name="zdotaccent" unicode="&#x17c;" horiz-adv-x="353" 
d="M327 0h-298v56l199 412h-187v69h279v-61l-198 -407h205v-69zM184 738q48 0 48 -57q0 -28 -13 -42.5t-35 -14.5t-35.5 14.5t-13.5 42.5q0 29 13 43t36 14z" />
    <glyph glyph-name="Zcaron" unicode="&#x17d;" horiz-adv-x="424" 
d="M399 0h-369v66l265 571h-259v77h355v-67l-266 -570h274v-77zM172 783q-17 33 -46 74.5t-55 74.5v11h50q21 -17 45 -42.5t47 -50.5q26 29 46.5 49.5t46.5 43.5h50v-11q-17 -20 -36.5 -46t-37.5 -53t-29 -50h-81z" />
    <glyph glyph-name="zcaron" unicode="&#x17e;" horiz-adv-x="353" 
d="M327 0h-298v56l199 412h-187v69h279v-61l-198 -407h205v-69zM140 606q-17 33 -46 74.5t-55 74.5v11h50q21 -17 45 -42.5t47 -50.5q26 29 46.5 49.5t46.5 43.5h50v-11q-17 -20 -36.5 -46t-37.5 -53t-29 -50h-81z" />
    <glyph glyph-name="longs" unicode="&#x17f;" horiz-adv-x="257" 
d="M220 693q-34 0 -48 -26.5t-14 -91.5v-575h-84v573q0 96 33 144t106 48q24 0 45 -4.5t41 -12.5l-22 -66q-13 4 -28 7.5t-29 3.5z" />
    <glyph glyph-name="florin" unicode="&#x192;" horiz-adv-x="456" 
d="M317 724q25 0 48 -5.5t46 -15.5l-22 -66q-16 7 -31.5 11t-30.5 4q-35 0 -48.5 -25t-14.5 -87v-69h105v-68h-104v-457q0 -94 -32.5 -140t-107.5 -46q-20 0 -37.5 2t-32.5 6v73q33 -9 59 -9q36 0 51.5 24t15.5 79v468h-82v43l82 28v67q0 97 33.5 140t102.5 43z" />
    <glyph glyph-name="Aringacute" unicode="&#x1fa;" horiz-adv-x="507" 
d="M202 830v9q36 43 55 70t30 50h102v-8q-11 -16 -33 -38t-48 -44.5t-48 -38.5h-58zM0 0l194 623q-22 10 -35.5 30.5t-13.5 48.5q0 47 29.5 75t77.5 28q46 0 76.5 -27.5t30.5 -73.5q0 -30 -13 -50.5t-35 -30.5l196 -623h-91l-57 188h-213l-55 -188h-91zM252 650q24 0 39 14
t15 39q0 24 -14.5 38.5t-39.5 14.5q-24 0 -39 -14.5t-15 -38.5q0 -25 13.5 -39t40.5 -14zM167 266h172l-65 220q-6 26 -12 52.5t-10 45.5q-4 -19 -9 -42t-9 -40z" />
    <glyph glyph-name="aringacute" unicode="&#x1fb;" horiz-adv-x="460" 
d="M381 957v-7q-12 -17 -37.5 -41t-52.5 -46.5t-46 -35.5h-59v9q58 71 85 121h110zM236 799q46 0 77 -27.5t31 -73.5q0 -47 -30 -75t-78 -28q-49 0 -77.5 27.5t-28.5 74.5t29 74.5t77 27.5zM236 750q-23 0 -39 -14.5t-16 -38.5q0 -25 14 -39t41 -14q24 0 39 14t15 39
q0 24 -14.5 38.5t-39.5 14.5zM236 546q82 0 118.5 -46.5t36.5 -136.5v-363h-63l-13 75h-3q-25 -43 -57.5 -64t-82.5 -21q-65 0 -99.5 45.5t-34.5 114.5q0 80 51 123.5t150 47.5l70 3v34q0 64 -20.5 92t-63.5 28q-29 0 -57.5 -9.5t-58.5 -25.5l-26 62q32 19 71 30t82 11z
M309 265l-57 -3q-69 -3 -99 -31t-30 -80q0 -48 20.5 -70.5t54.5 -22.5q50 0 80.5 40t30.5 115v52z" />
    <glyph glyph-name="AEacute" unicode="&#x1fc;" horiz-adv-x="696" 
d="M645 0h-310v222h-168l-77 -222h-92l252 714h395v-77h-224v-226h209v-76h-209v-258h224v-77zM192 301h144v335h-30zM508 943v-9q-12 -21 -36 -49.5t-51 -56t-49 -45.5h-54v11q26 37 50 76t41 73h99z" />
    <glyph glyph-name="aeacute" unicode="&#x1fd;" horiz-adv-x="713" 
d="M492 546q58 0 97 -31t59 -85t20 -122v-55h-281q4 -193 128 -193q67 0 132 36v-72q-31 -17 -64 -25.5t-74 -8.5q-57 0 -102 28t-69 82q-28 -56 -66.5 -83t-95.5 -27q-68 0 -103 45.5t-35 114.5q0 80 50 123.5t147 47.5l69 3v35q0 61 -21 90t-63 29q-27 0 -56.5 -9
t-58.5 -26l-27 62q30 18 68 29.5t81 11.5q97 0 129 -76q46 76 136 76zM491 478q-95 0 -102 -160h199q0 69 -23.5 114.5t-73.5 45.5zM304 265l-56 -3q-66 -3 -95.5 -30.5t-29.5 -80.5q0 -48 19.5 -70.5t53.5 -22.5q49 0 78.5 40t29.5 115v52zM500 766v-9q-12 -21 -36 -49.5
t-51 -56t-49 -45.5h-54v11q26 37 50 76t41 73h99z" />
    <glyph glyph-name="Oslashacute" unicode="&#x1fe;" horiz-adv-x="619" 
d="M567 358q0 -175 -65.5 -271.5t-191.5 -96.5q-85 0 -142 46l-44 -79l-54 28l52 97q-35 50 -52 119t-17 158q0 178 64.5 271.5t193.5 93.5q84 0 143 -50l44 78l54 -30l-53 -95q68 -95 68 -269zM142 358q0 -118 30 -187l243 429q-38 48 -104 48q-85 0 -127 -74.5t-42 -215.5
zM477 358q0 54 -7 99t-21 80l-242 -427q39 -44 103 -44q85 0 126 75t41 217zM449 943v-9q-12 -21 -36 -49.5t-51 -56t-49 -45.5h-54v11q26 37 50 76t41 73h99z" />
    <glyph glyph-name="oslashacute" unicode="&#x1ff;" horiz-adv-x="493" 
d="M447 269q0 -133 -53.5 -206t-149.5 -73q-59 0 -101 30l-40 -76l-52 28l49 90q-55 74 -55 207q0 136 52.5 207t149.5 71q61 0 104 -36l38 69l52 -28l-45 -84q51 -74 51 -199zM129 269q0 -78 17 -126l171 303q-27 30 -71 30q-62 0 -89.5 -52.5t-27.5 -154.5zM364 269
q0 36 -4 65.5t-11 51.5l-170 -301q25 -25 67 -25q61 0 89.5 53.5t28.5 155.5zM384 766v-9q-12 -21 -36 -49.5t-51 -56t-49 -45.5h-54v11q26 37 50 76t41 73h99z" />
    <glyph glyph-name="uni0218" unicode="&#x218;" horiz-adv-x="454" 
d="M413 194q0 -61 -25.5 -107t-72.5 -71.5t-110 -25.5q-97 0 -163 32v87q34 -19 78 -29.5t84 -10.5q59 0 91 33.5t32 83.5q0 35 -12 59t-40 44t-76 42q-48 23 -82 49.5t-51.5 64t-17.5 93.5t24.5 98t69 65t102.5 23q46 0 87 -10.5t73 -25.5l-28 -78q-32 16 -65.5 25.5
t-65.5 9.5q-53 0 -81.5 -29.5t-28.5 -75.5q0 -36 11.5 -59.5t38.5 -43t74 -41.5q77 -36 115.5 -82t38.5 -120zM267 -61v-10q-10 -34 -30 -76.5t-43 -73.5h-46v11q6 18 13 45t13 55t8 49h85z" />
    <glyph glyph-name="uni0219" unicode="&#x219;" horiz-adv-x="381" 
d="M345 145q0 -75 -45.5 -115t-125.5 -40q-43 0 -76.5 9t-58.5 22v83q25 -17 61 -29.5t73 -12.5q45 0 68 21t23 58q0 31 -21 53t-76 49q-59 30 -94 64.5t-35 97.5q0 65 46 103.5t120 38.5q38 0 72 -9.5t65 -26.5l-30 -66q-25 14 -52 23t-56 9q-40 0 -62.5 -18.5t-22.5 -50.5
t22.5 -52t78.5 -49q58 -31 92 -65.5t34 -96.5zM236 -61v-10q-10 -34 -30 -76.5t-43 -73.5h-46v11q6 18 13 45t13 55t8 49h85z" />
    <glyph glyph-name="circumflex" unicode="&#x2c6;" horiz-adv-x="365" 
d="M222 766q16 -34 46.5 -76t56.5 -74v-10h-50q-23 18 -46 42.5t-47 50.5q-25 -26 -48.5 -51t-43.5 -42h-50v10q27 34 56 75.5t45 74.5h81z" />
    <glyph glyph-name="caron" unicode="&#x2c7;" horiz-adv-x="365" 
d="M141 606q-17 33 -46 74.5t-55 74.5v11h50q21 -17 45 -42.5t47 -50.5q26 29 46.5 49.5t46.5 43.5h50v-11q-17 -20 -36.5 -46t-37.5 -53t-29 -50h-81z" />
    <glyph glyph-name="macron" unicode="&#x2c9;" horiz-adv-x="339" 
d="M299 676v-64h-259v64h259z" />
    <glyph glyph-name="breve" unicode="&#x2d8;" horiz-adv-x="344" 
d="M304 741q-2 -61 -38 -97.5t-96 -36.5q-61 0 -94 34.5t-36 99.5h53q4 -37 24 -53.5t55 -16.5q33 0 54 16.5t25 53.5h53z" />
    <glyph glyph-name="dotaccent" unicode="&#x2d9;" horiz-adv-x="177" 
d="M89 738q48 0 48 -57q0 -28 -13 -42.5t-35 -14.5t-35.5 14.5t-13.5 42.5q0 29 13 43t36 14z" />
    <glyph glyph-name="ring" unicode="&#x2da;" horiz-adv-x="293" 
d="M146 608q-49 0 -77.5 28t-28.5 74t28.5 74t77.5 28q46 0 76.5 -27t30.5 -73q0 -48 -29.5 -76t-77.5 -28zM147 657q23 0 38.5 14.5t15.5 38.5t-14.5 39t-39.5 15q-24 0 -39.5 -15t-15.5 -39t14 -38.5t41 -14.5z" />
    <glyph glyph-name="ogonek" unicode="&#x2db;" horiz-adv-x="230" 
d="M108 -117q0 -47 46 -47q13 0 21 2t15 4v-56q-21 -9 -52 -9q-98 0 -98 93q0 40 24.5 77.5t59.5 65.5l47 -13q-34 -33 -48.5 -60.5t-14.5 -56.5z" />
    <glyph glyph-name="tilde" unicode="&#x2dc;" horiz-adv-x="397" 
d="M40 605q5 51 26.5 87.5t64.5 36.5q26 0 49.5 -14.5t44.5 -28.5t41 -14q17 0 26 15.5t15 42.5h50q-5 -59 -28.5 -91.5t-61.5 -32.5q-25 0 -49 14.5t-46 29t-39 14.5q-32 0 -43 -59h-50z" />
    <glyph glyph-name="hungarumlaut" unicode="&#x2dd;" horiz-adv-x="403" 
d="M363 766v-9q-11 -21 -33 -49.5t-47.5 -56t-45.5 -45.5h-43v11q14 21 30 49.5t30 55.5t21 44h88zM209 766v-9q-11 -21 -32 -49t-46 -55t-49 -47h-42v11q14 23 30 50.5t29.5 54t21.5 44.5h88z" />
    <glyph glyph-name="tonos" unicode="&#x384;" horiz-adv-x="543" 
d="M235 606v13q7 17 15.5 50.5t16.5 67t11 51.5h84v-12q-13 -34 -34.5 -83t-43.5 -87h-49z" />
    <glyph glyph-name="dieresistonos" unicode="&#x385;" horiz-adv-x="534" 
d="M346 804v-10q-10 -29 -30 -67.5t-40 -70.5h-41v12q10 32 19 70t12 66h80zM169 708q17 0 29.5 -13t12.5 -39q0 -25 -12.5 -37.5t-29.5 -12.5q-19 0 -31.5 12.5t-12.5 37.5q0 26 12.5 39t31.5 13zM367 708q18 0 30.5 -12.5t12.5 -39.5q0 -24 -12.5 -37t-30.5 -13t-30 13
t-12 38q0 26 12 38.5t30 12.5z" />
    <glyph glyph-name="Alphatonos" unicode="&#x386;" horiz-adv-x="512" 
d="M422 0l-62 222h-202l-62 -222h-90l205 715h95l206 -715h-90zM341 301l-61 229q-5 22 -12 52t-10 52q-10 -54 -22 -104l-60 -229h165zM1 573v13q7 17 15.5 50.5t16.5 67t11 51.5h84v-12q-13 -34 -34.5 -83t-43.5 -87h-49z" />
    <glyph glyph-name="anoteleia" unicode="&#x387;" horiz-adv-x="239" 
d="M63 479q0 33 15 49t41 16q25 0 41 -15t16 -50q0 -34 -16 -49.5t-41 -15.5t-40.5 16t-15.5 49z" />
    <glyph glyph-name="Epsilontonos" unicode="&#x388;" horiz-adv-x="532" 
d="M483 0h-319v714h319v-76h-233v-227h219v-76h-219v-258h233v-77zM-1 565v13q7 17 15.5 50.5t16.5 67t11 51.5h84v-12q-13 -34 -34.5 -83t-43.5 -87h-49z" />
    <glyph glyph-name="Etatonos" unicode="&#x389;" horiz-adv-x="680" 
d="M601 0h-86v334h-264v-334h-86v714h86v-303h264v303h86v-714zM-1 565v13q7 17 15.5 50.5t16.5 67t11 51.5h84v-12q-13 -34 -34.5 -83t-43.5 -87h-49z" />
    <glyph glyph-name="Iotatonos" unicode="&#x38a;" horiz-adv-x="416" 
d="M379 0h-227v49l70 18v580l-70 18v49h227v-49l-71 -18v-580l71 -18v-49zM-1 565v13q7 17 15.5 50.5t16.5 67t11 51.5h84v-12q-13 -34 -34.5 -83t-43.5 -87h-49z" />
    <glyph glyph-name="Omicrontonos" unicode="&#x38c;" horiz-adv-x="661" 
d="M609 358q0 -105 -27 -188.5t-84 -131.5t-146 -48q-91 0 -147.5 49t-83 132.5t-26.5 187.5q0 178 64.5 271.5t193.5 93.5q89 0 145.5 -48t83.5 -130.5t27 -187.5zM185 358q0 -141 41.5 -216t125.5 -75q83 0 124.5 74.5t41.5 216.5t-41 215.5t-124 73.5q-85 0 -126.5 -74
t-41.5 -215zM-1 565v13q7 17 15.5 50.5t16.5 67t11 51.5h84v-12q-13 -34 -34.5 -83t-43.5 -87h-49z" />
    <glyph glyph-name="Upsilontonos" unicode="&#x38e;" horiz-adv-x="584" 
d="M363 374l131 340h90l-179 -436v-278h-86v275l-179 439h91zM-1 565v13q7 17 15.5 50.5t16.5 67t11 51.5h84v-12q-13 -34 -34.5 -83t-43.5 -87h-49z" />
    <glyph glyph-name="Omegatonos" unicode="&#x38f;" horiz-adv-x="665" 
d="M353 647q-168 0 -168 -249q0 -106 28.5 -188t92.5 -142v-68h-235v77h144q-53 49 -86 130.5t-33 195.5q0 157 66.5 239t190.5 82t189.5 -83t65.5 -237q0 -116 -33 -197.5t-86 -129.5h144v-77h-235v68q67 61 94 142t27 188q0 119 -40.5 184t-125.5 65zM-4 565v13
q7 17 15.5 50.5t16.5 67t11 51.5h84v-12q-13 -34 -34.5 -83t-43.5 -87h-49z" />
    <glyph glyph-name="iotadieresistonos" unicode="&#x390;" horiz-adv-x="280" 
d="M153 537v-399q0 -40 12 -57.5t38 -17.5q17 0 34.5 3.5t26.5 7.5v-68q-32 -16 -79 -16q-56 0 -85.5 33.5t-29.5 113.5v400h83zM196 804v-10q-10 -29 -30 -67.5t-40 -70.5h-41v12q10 32 19 70t12 66h80zM19 708q17 0 29.5 -13t12.5 -39q0 -25 -12.5 -37.5t-29.5 -12.5
q-19 0 -31.5 12.5t-12.5 37.5q0 26 12.5 39t31.5 13zM217 708q18 0 30.5 -12.5t12.5 -39.5q0 -24 -12.5 -37t-30.5 -13t-30 13t-12 38q0 26 12 38.5t30 12.5z" />
    <glyph glyph-name="Alpha" unicode="&#x391;" horiz-adv-x="507" 
d="M416 0l-62 222h-202l-62 -222h-90l205 715h95l206 -715h-90zM335 301l-61 229q-5 22 -12 52t-10 52q-10 -54 -22 -104l-60 -229h165z" />
    <glyph glyph-name="Beta" unicode="&#x392;" horiz-adv-x="529" 
d="M80 714h172q106 0 161 -42t55 -132q0 -67 -28.5 -108.5t-83.5 -53.5v-4q62 -14 95.5 -54t33.5 -116q0 -94 -53 -149t-148 -55h-204v714zM166 409h91q67 0 95 30.5t28 92.5q0 108 -128 108h-86v-231zM166 336v-262h106q64 0 94 35t30 100q0 61 -33 94t-100 33h-97z" />
    <glyph glyph-name="Gamma" unicode="&#x393;" horiz-adv-x="414" 
d="M401 714v-77h-235v-637h-86v714h321z" />
    <glyph glyph-name="uni0394" unicode="&#x394;" horiz-adv-x="486" 
d="M292 714l181 -658v-56h-459v60l179 654h99zM377 77l-103 403q-10 36 -19 77t-14 69q-6 -34 -14.5 -73t-17.5 -73l-101 -403h269z" />
    <glyph glyph-name="Epsilon" unicode="&#x395;" horiz-adv-x="448" 
d="M399 0h-319v714h319v-76h-233v-227h219v-76h-219v-258h233v-77z" />
    <glyph glyph-name="Zeta" unicode="&#x396;" horiz-adv-x="424" 
d="M399 0h-369v66l265 571h-259v77h355v-67l-266 -570h274v-77z" />
    <glyph glyph-name="Eta" unicode="&#x397;" horiz-adv-x="595" 
d="M516 0h-86v334h-264v-334h-86v714h86v-303h264v303h86v-714z" />
    <glyph glyph-name="Theta" unicode="&#x398;" horiz-adv-x="619" 
d="M567 358q0 -105 -27 -188.5t-84 -131.5t-146 -48q-91 0 -147.5 49t-83 132.5t-26.5 187.5q0 178 64.5 271.5t193.5 93.5q89 0 145.5 -48t83.5 -130.5t27 -187.5zM143 358q0 -141 41.5 -216t125.5 -75q83 0 124.5 74.5t41.5 216.5t-41 215.5t-124 73.5q-85 0 -126.5 -74
t-41.5 -215zM414 401v-75h-210v75h210z" />
    <glyph glyph-name="Iota" unicode="&#x399;" horiz-adv-x="300" 
d="M263 0h-227v49l70 18v580l-70 18v49h227v-49l-71 -18v-580l71 -18v-49z" />
    <glyph glyph-name="Kappa" unicode="&#x39a;" horiz-adv-x="499" 
d="M501 0h-97l-180 333l-58 -61v-272h-86v714h86v-356q14 20 32.5 48t42.5 65l156 243h95l-209 -314z" />
    <glyph glyph-name="Lambda" unicode="&#x39b;" horiz-adv-x="495" 
d="M293 714l201 -714h-90l-130 490q-10 38 -17.5 69.5t-11.5 57.5q-4 -30 -11 -61.5t-16 -64.5l-127 -491h-91l199 714h94z" />
    <glyph glyph-name="Mu" unicode="&#x39c;" horiz-adv-x="775" 
d="M348 0l-189 607h-4q3 -44 4.5 -84.5t1.5 -72.5v-450h-81v714h123l183 -584h3l183 584h124v-714h-84v451q0 31 1.5 71.5t3.5 84.5h-4l-190 -607h-75z" />
    <glyph glyph-name="Nu" unicode="&#x39d;" horiz-adv-x="626" 
d="M547 0h-103l-286 585h-4q3 -39 5 -80t2 -79v-426h-81v714h103l285 -578h3q-2 38 -3.5 80.5t-1.5 77.5v420h81v-714z" />
    <glyph glyph-name="Xi" unicode="&#x39e;" horiz-adv-x="444" 
d="M54 638v76h336v-76h-336zM81 335v77h281v-77h-281zM40 0v77h364v-77h-364z" />
    <glyph glyph-name="Omicron" unicode="&#x39f;" horiz-adv-x="619" 
d="M567 358q0 -105 -27 -188.5t-84 -131.5t-146 -48q-91 0 -147.5 49t-83 132.5t-26.5 187.5q0 178 64.5 271.5t193.5 93.5q89 0 145.5 -48t83.5 -130.5t27 -187.5zM143 358q0 -141 41.5 -216t125.5 -75q83 0 124.5 74.5t41.5 216.5t-41 215.5t-124 73.5q-85 0 -126.5 -74
t-41.5 -215z" />
    <glyph glyph-name="Pi" unicode="&#x3a0;" horiz-adv-x="590" 
d="M80 0v714h430v-714h-86v637h-258v-637h-86z" />
    <glyph glyph-name="Rho" unicode="&#x3a1;" horiz-adv-x="492" 
d="M229 714q116 0 171 -53t55 -158q0 -103 -55.5 -164t-176.5 -61h-57v-278h-86v714h149zM225 639h-59v-286h48q80 0 116 34.5t36 113.5q0 73 -34 105.5t-107 32.5z" />
    <glyph glyph-name="Sigma" unicode="&#x3a3;" horiz-adv-x="452" 
d="M32 0v71l184 301l-178 272v70h369v-76h-187h-44.5t-39.5 2l175 -267l-185 -299l48 2t47 1h207v-77h-396z" />
    <glyph glyph-name="Tau" unicode="&#x3a4;" horiz-adv-x="434" 
d="M259 0h-85v637h-164v77h412v-77h-163v-637z" />
    <glyph glyph-name="Upsilon" unicode="&#x3a5;" horiz-adv-x="444" 
d="M223 374l131 340h90l-179 -436v-278h-86v275l-179 439h91z" />
    <glyph glyph-name="Phi" unicode="&#x3a6;" horiz-adv-x="686" 
d="M385 724v-88q88 0 144 -35t82.5 -94.5t26.5 -134.5q0 -76 -26.5 -137t-82 -97.5t-144.5 -37.5v-110h-84v110q-88 0 -144 37t-82.5 98.5t-26.5 136.5q0 73 27 133t83 95.5t143 35.5v88h84zM301 562q-87 -1 -127 -51t-40 -139q0 -95 42 -146.5t125 -52.5v389zM385 562v-389
q85 1 126 53t41 146q0 92 -40 140.5t-127 49.5z" />
    <glyph glyph-name="Chi" unicode="&#x3a7;" horiz-adv-x="456" 
d="M450 0h-93l-127 297l-134 -297h-90l177 373l-160 341h91l118 -271l118 271h90l-160 -345z" />
    <glyph glyph-name="Psi" unicode="&#x3a8;" horiz-adv-x="686" 
d="M626 714v-231q0 -81 -22.5 -141.5t-75 -94t-143.5 -33.5v-214h-84v214q-91 0 -143.5 33t-74.5 92.5t-22 139.5v235h85v-235q0 -57 13.5 -99.5t47.5 -66t94 -23.5v424h84v-424q84 0 119 44t35 145v235h87z" />
    <glyph glyph-name="uni03A9" unicode="&#x3a9;" horiz-adv-x="624" 
d="M313 647q-168 0 -168 -249q0 -106 28.5 -188t92.5 -142v-68h-235v77h144q-53 49 -86 130.5t-33 195.5q0 157 66.5 239t190.5 82t189.5 -83t65.5 -237q0 -116 -33 -197.5t-86 -129.5h144v-77h-235v68q67 61 94 142t27 188q0 119 -40.5 184t-125.5 65z" />
    <glyph glyph-name="Iotadieresis" unicode="&#x3aa;" horiz-adv-x="300" 
d="M263 0h-227v49l70 18v580l-70 18v49h227v-49l-71 -18v-580l71 -18v-49zM21 840q0 26 12.5 38t31.5 12q18 0 30.5 -12t12.5 -38t-12.5 -39t-30.5 -13q-19 0 -31.5 13t-12.5 39zM191 840q0 26 13 38t31 12t31 -12t13 -38t-13 -39t-31 -13q-19 0 -31.5 13t-12.5 39z" />
    <glyph glyph-name="Upsilondieresis" unicode="&#x3ab;" horiz-adv-x="444" 
d="M223 374l131 340h90l-179 -436v-278h-86v275l-179 439h91zM93 840q0 26 12.5 38t31.5 12q18 0 30.5 -12t12.5 -38t-12.5 -39t-30.5 -13q-19 0 -31.5 13t-12.5 39zM263 840q0 26 13 38t31 12t31 -12t13 -38t-13 -39t-31 -13q-19 0 -31.5 13t-12.5 39z" />
    <glyph glyph-name="alphatonos" unicode="&#x3ac;" horiz-adv-x="518" 
d="M222 -10q-82 0 -128.5 70t-46.5 207t47.5 208.5t133.5 71.5q47 0 79.5 -21.5t54.5 -64.5h6q4 19 11 40t16 36h67q-10 -33 -16.5 -85.5t-6.5 -109.5v-216q0 -66 38 -66q17 0 30 5v-65q-7 -4 -21 -7t-26 -3q-40 0 -63.5 19t-32.5 65h-7q-21 -39 -54.5 -61.5t-80.5 -22.5z
M242 61q114 0 114 197v9q0 105 -27 156t-90 51q-56 0 -82 -53.5t-26 -154.5q0 -106 27 -155.5t84 -49.5zM219 606v13q7 17 15.5 50.5t16.5 67t11 51.5h84v-12q-13 -34 -34.5 -83t-43.5 -87h-49z" />
    <glyph glyph-name="epsilontonos" unicode="&#x3ad;" horiz-adv-x="391" 
d="M284 314v-67h-45q-59 0 -86.5 -24.5t-27.5 -71.5q0 -46 29 -68t73 -22q36 0 70.5 10.5t62.5 27.5v-75q-28 -16 -62.5 -25t-81.5 -9q-89 0 -132.5 44.5t-43.5 112.5q0 55 28.5 88.5t75.5 45.5v5q-83 28 -83 122q0 64 45.5 101.5t118.5 37.5q39 0 72.5 -9t66.5 -27l-33 -65
q-24 14 -49.5 22t-53.5 8q-43 0 -65 -20t-22 -54q0 -45 28 -66.5t80 -21.5h35zM187 606v13q7 17 15.5 50.5t16.5 67t11 51.5h84v-12q-13 -34 -34.5 -83t-43.5 -87h-49z" />
    <glyph glyph-name="etatonos" unicode="&#x3ae;" horiz-adv-x="505" 
d="M286 547q74 0 112 -45.5t38 -141.5v-600h-83v586q0 64 -19.5 95.5t-63.5 31.5q-63 0 -89.5 -46.5t-26.5 -147.5v-279h-83v537h67l10 -73h5q20 40 55.5 61.5t77.5 21.5zM223 606v13q7 17 15.5 50.5t16.5 67t11 51.5h84v-12q-13 -34 -34.5 -83t-43.5 -87h-49z" />
    <glyph glyph-name="iotatonos" unicode="&#x3af;" horiz-adv-x="280" 
d="M153 537v-399q0 -40 12 -57.5t38 -17.5q17 0 34.5 3.5t26.5 7.5v-68q-32 -16 -79 -16q-56 0 -85.5 33.5t-29.5 113.5v400h83zM79 606v13q7 17 15.5 50.5t16.5 67t11 51.5h84v-12q-13 -34 -34.5 -83t-43.5 -87h-49z" />
    <glyph glyph-name="upsilondieresistonos" unicode="&#x3b0;" horiz-adv-x="495" 
d="M249 -9q-102 1 -141.5 60t-39.5 183v303h83v-308q0 -77 20.5 -121.5t78.5 -44.5q59 0 87.5 51.5t28.5 161.5q0 70 -7 132t-23 129h82q11 -50 18 -89.5t10 -79.5t3 -92q0 -142 -51.5 -213.5t-148.5 -71.5zM327 804v-10q-10 -29 -30 -67.5t-40 -70.5h-41v12q10 32 19 70
t12 66h80zM150 708q17 0 29.5 -13t12.5 -39q0 -25 -12.5 -37.5t-29.5 -12.5q-19 0 -31.5 12.5t-12.5 37.5q0 26 12.5 39t31.5 13zM348 708q18 0 30.5 -12.5t12.5 -39.5q0 -24 -12.5 -37t-30.5 -13t-30 13t-12 38q0 26 12 38.5t30 12.5z" />
    <glyph glyph-name="alpha" unicode="&#x3b1;" horiz-adv-x="518" 
d="M222 -10q-82 0 -128.5 70t-46.5 207t47.5 208.5t133.5 71.5q47 0 79.5 -21.5t54.5 -64.5h6q4 19 11 40t16 36h67q-10 -33 -16.5 -85.5t-6.5 -109.5v-216q0 -66 38 -66q17 0 30 5v-65q-7 -4 -21 -7t-26 -3q-40 0 -63.5 19t-32.5 65h-7q-21 -39 -54.5 -61.5t-80.5 -22.5z
M242 61q114 0 114 197v9q0 105 -27 156t-90 51q-56 0 -82 -53.5t-26 -154.5q0 -106 27 -155.5t84 -49.5z" />
    <glyph glyph-name="beta" unicode="&#x3b2;" horiz-adv-x="516" 
d="M262 765q86 0 133.5 -50.5t47.5 -136.5q0 -154 -118 -173v-4q76 -11 112 -59.5t36 -139.5q0 -101 -50.5 -156.5t-140.5 -55.5q-42 0 -72 8.5t-56 24.5v-263h-83v792q0 105 52 159t139 54zM260 693q-47 0 -76.5 -35t-29.5 -109v-450q23 -17 53 -26.5t61 -9.5
q63 0 92.5 36.5t29.5 110.5q0 76 -34 114t-98 38h-30v72h24q57 0 82.5 34t25.5 101q0 61 -27 92.5t-73 31.5z" />
    <glyph glyph-name="gamma" unicode="&#x3b3;" horiz-adv-x="414" 
d="M409 537l-149 -512q-12 -41 -21.5 -88.5t-15 -93t-5.5 -83.5h-87q0 28 5 70.5t13.5 87t17.5 78.5l-163 541h87l73 -248q14 -49 27 -99.5t17 -89.5h4q5 38 17 88t24 99l70 250h86z" />
    <glyph glyph-name="delta" unicode="&#x3b4;" horiz-adv-x="495" 
d="M272 761q50 0 90 -12.5t70 -29.5l-32 -69q-32 20 -63.5 30t-64.5 10q-38 0 -59 -18t-21 -47q0 -37 29 -68t82 -71q73 -56 109.5 -116t36.5 -144q0 -107 -53.5 -171.5t-150.5 -64.5q-96 0 -147.5 62.5t-51.5 162.5q0 88 47 150.5t123 89.5q-49 40 -77.5 79.5t-28.5 89.5
q0 67 46 102t116 35zM268 414q-58 -20 -97.5 -71t-39.5 -127q0 -42 13.5 -77.5t39 -56.5t62.5 -21q57 0 87.5 43t30.5 123q0 110 -96 187z" />
    <glyph glyph-name="epsilon" unicode="&#x3b5;" horiz-adv-x="391" 
d="M284 314v-67h-45q-59 0 -86.5 -24.5t-27.5 -71.5q0 -46 29 -68t73 -22q36 0 70.5 10.5t62.5 27.5v-75q-28 -16 -62.5 -25t-81.5 -9q-89 0 -132.5 44.5t-43.5 112.5q0 55 28.5 88.5t75.5 45.5v5q-83 28 -83 122q0 64 45.5 101.5t118.5 37.5q39 0 72.5 -9t66.5 -27l-33 -65
q-24 14 -49.5 22t-53.5 8q-43 0 -65 -20t-22 -54q0 -45 28 -66.5t80 -21.5h35z" />
    <glyph glyph-name="zeta" unicode="&#x3b6;" horiz-adv-x="387" 
d="M364 -51q0 -36 -18 -75.5t-41 -70.5h-83q24 33 41.5 69t17.5 59q0 25 -18.5 43t-75.5 37q-73 25 -106.5 72t-33.5 142q0 89 28.5 165.5t80.5 150t120 153.5q-14 -2 -43 -3.5t-64 -1.5h-101v71h297v-61q-121 -125 -177 -239t-56 -229q0 -44 10.5 -71.5t36 -46.5t68.5 -35
q50 -17 83.5 -45.5t33.5 -83.5z" />
    <glyph glyph-name="eta" unicode="&#x3b7;" horiz-adv-x="505" 
d="M286 547q74 0 112 -45.5t38 -141.5v-600h-83v586q0 64 -19.5 95.5t-63.5 31.5q-63 0 -89.5 -46.5t-26.5 -147.5v-279h-83v537h67l10 -73h5q20 40 55.5 61.5t77.5 21.5z" />
    <glyph glyph-name="theta" unicode="&#x3b8;" horiz-adv-x="501" 
d="M456 380q0 -192 -50 -291t-156 -99q-104 0 -153.5 99t-49.5 291q0 190 50 289.5t154 99.5q103 0 154 -98.5t51 -290.5zM250 699q-58 0 -86 -69.5t-33 -206.5h240q-5 137 -33.5 206.5t-87.5 69.5zM250 60q59 0 88.5 73t32.5 220h-240q2 -145 30.5 -219t88.5 -74z" />
    <glyph glyph-name="iota" unicode="&#x3b9;" horiz-adv-x="280" 
d="M153 537v-399q0 -40 12 -57.5t38 -17.5q17 0 34.5 3.5t26.5 7.5v-68q-32 -16 -79 -16q-56 0 -85.5 33.5t-29.5 113.5v400h83z" />
    <glyph glyph-name="kappa" unicode="&#x3ba;" horiz-adv-x="440" 
d="M423 537l-152 -216l163 -321h-92l-128 258l-58 -62v-196h-85v537h85v-150q0 -33 -2 -63t-4 -52h4q8 13 15.5 26.5t14.5 23.5l146 215h93z" />
    <glyph glyph-name="lambda" unicode="&#x3bb;" horiz-adv-x="445" 
d="M4 0l173 528l-22 86q-11 39 -25 60.5t-46 21.5q-25 0 -40 -6v69q10 3 23.5 5.5t27.5 2.5q59 0 90 -35.5t53 -112.5l130 -490q9 -35 20.5 -50.5t30.5 -15.5q16 0 29 5v-70q-21 -8 -47 -8q-43 0 -67 27.5t-40 87.5l-50 189q-8 28 -16 61t-12 59h-4q-4 -21 -10 -43.5
t-14 -44.5l-99 -326h-85z" />
    <glyph glyph-name="uni03BC" unicode="&#x3bc;" horiz-adv-x="508" 
d="M436 537v-537h-66l-11 73h-5q-18 -40 -48.5 -61.5t-68.5 -21.5q-56 0 -84 48h-3q2 -25 3 -51.5t1 -52.5v-174h-83v777h83v-344q0 -130 82 -130q66 0 91.5 49.5t25.5 144.5v280h83z" />
    <glyph glyph-name="nu" unicode="&#x3bd;" horiz-adv-x="443" 
d="M8 537h85l79 -318q10 -37 19 -74t13 -61h4q65 94 92.5 205t27.5 248h83q0 -105 -17.5 -196.5t-56.5 -175t-104 -165.5h-81z" />
    <glyph glyph-name="xi" unicode="&#x3be;" horiz-adv-x="387" 
d="M46 204q0 72 32.5 125t93.5 68v5q-51 10 -76.5 44.5t-25.5 98.5q0 58 34 96t84 53q-14 -2 -37 -3.5t-49 -1.5h-41v71h287v-68h-26q-47 0 -85.5 -17.5t-61 -49.5t-22.5 -77q0 -58 28.5 -86t95.5 -28h54v-70h-59q-68 0 -104 -38.5t-36 -111.5q0 -62 27 -90.5t88 -46.5
q61 -19 88 -49.5t27 -79.5q0 -36 -17.5 -75t-39.5 -70h-83q25 33 42 69t17 60q0 26 -18.5 44.5t-71.5 33.5q-77 22 -111 70t-34 124z" />
    <glyph glyph-name="omicron" unicode="&#x3bf;" horiz-adv-x="493" 
d="M447 269q0 -127 -51 -203t-151 -76q-95 0 -147 75.5t-52 203.5q0 133 50.5 205.5t150.5 72.5q93 0 146.5 -71t53.5 -207zM131 269q0 -101 28 -154t88 -53q59 0 87.5 53t28.5 154t-28.5 153.5t-87.5 52.5q-61 0 -88.5 -52.5t-27.5 -153.5z" />
    <glyph glyph-name="pi" unicode="&#x3c0;" horiz-adv-x="534" 
d="M466 64q20 0 38 8v-68q-22 -12 -62 -12q-100 0 -100 135v339h-165v-466h-83v466h-86v35l56 36h448v-71h-87v-336q0 -36 10.5 -51t30.5 -15z" />
    <glyph glyph-name="rho" unicode="&#x3c1;" horiz-adv-x="502" 
d="M457 269q0 -132 -48 -205.5t-142 -73.5q-37 0 -66 11.5t-51 32.5h-4q3 -29 4 -63.5t1 -68.5v-142h-83v516q0 131 49 201t147 70q90 0 141.5 -69.5t51.5 -208.5zM261 475q-56 0 -83.5 -47.5t-27.5 -145.5v-177q41 -44 104 -44q62 0 90 52t28 156t-26 155t-85 51z" />
    <glyph glyph-name="sigma1" unicode="&#x3c2;" horiz-adv-x="384" 
d="M251 547q32 0 61.5 -7.5t53.5 -19.5l-25 -69q-22 11 -43.5 16.5t-43.5 5.5q-122 0 -122 -212q0 -51 8 -85t33 -57t74 -41q59 -22 87.5 -51t28.5 -79q0 -36 -17.5 -75t-39.5 -70h-82q24 33 41 69t17 60q0 25 -18 43t-73 37q-49 18 -80.5 46t-47.5 76t-16 125
q0 144 53.5 216t150.5 72z" />
    <glyph glyph-name="sigma" unicode="&#x3c3;" horiz-adv-x="507" 
d="M447 244q0 -118 -52.5 -186t-148.5 -68q-94 0 -146.5 68.5t-52.5 196.5q0 145 62.5 213.5t180.5 68.5h197v-71h-105q32 -42 48.5 -97.5t16.5 -124.5zM131 257q0 -95 28.5 -145.5t87.5 -50.5t87.5 49.5t28.5 138.5q0 60 -14 113.5t-41 103.5h-27q-77 0 -113.5 -49.5
t-36.5 -159.5z" />
    <glyph glyph-name="tau" unicode="&#x3c4;" horiz-adv-x="361" 
d="M341 537v-71h-147v-306q0 -52 17.5 -75.5t50.5 -23.5q16 0 33 2.5t31 7.5v-67q-12 -6 -35.5 -10.5t-44.5 -4.5q-64 0 -99.5 38t-35.5 127v312h-107v35l55 36h282z" />
    <glyph glyph-name="upsilon" unicode="&#x3c5;" horiz-adv-x="495" 
d="M249 -9q-102 1 -141.5 60t-39.5 183v303h83v-308q0 -77 20.5 -121.5t78.5 -44.5q59 0 87.5 51.5t28.5 161.5q0 70 -7 132t-23 129h82q11 -50 18 -89.5t10 -79.5t3 -92q0 -142 -51.5 -213.5t-148.5 -71.5z" />
    <glyph glyph-name="phi" unicode="&#x3c6;" horiz-adv-x="622" 
d="M145 542l63 -43q-37 -48 -57 -105.5t-20 -124.5q0 -99 37 -149t100 -58v304q0 181 138 181q56 0 94.5 -35t57.5 -94.5t19 -131.5q0 -129 -61 -207t-167 -87v-232h-81v232q-104 8 -162.5 76t-58.5 202q0 79 25.5 146.5t72.5 125.5zM405 476q-28 0 -42.5 -26t-14.5 -84
v-304q64 7 103.5 64.5t39.5 158.5q1 89 -24 140.5t-62 50.5z" />
    <glyph glyph-name="chi" unicode="&#x3c7;" horiz-adv-x="437" 
d="M70 542q44 0 69.5 -29t44.5 -93l44 -152l107 269h86l-161 -372l70 -243q14 -51 28 -71t41 -20q10 0 18.5 1.5t16.5 2.5v-68q-10 -3 -23 -5t-29 -2q-50 0 -78 31t-48 100l-50 176l-123 -307h-88l179 411l-64 221q-12 39 -25 59.5t-35 20.5q-18 0 -31 -5v68q10 3 22.5 5
t28.5 2z" />
    <glyph glyph-name="psi" unicode="&#x3c8;" horiz-adv-x="617" 
d="M352 760v-696q64 6 97 59t33 163q0 63 -7.5 124t-23.5 127h82q17 -69 25 -130t8 -122q0 -144 -57.5 -216t-156.5 -78v-231h-81v231q-97 3 -151 67t-54 199v280h82v-278q0 -99 32.5 -145t90.5 -51v697h81z" />
    <glyph glyph-name="omega" unicode="&#x3c9;" horiz-adv-x="626" 
d="M526 537q26 -70 38 -136.5t12 -140.5q0 -127 -39.5 -198.5t-110.5 -71.5q-87 0 -112 91h-3q-25 -91 -114 -91q-71 0 -109 71.5t-38 198.5q0 75 12 140.5t38 136.5h83q-25 -67 -37.5 -134t-12.5 -143q0 -196 74 -196q34 0 50 37t16 107v139h79v-139q0 -143 67 -144
q74 0 74 196q0 146 -50 277h83z" />
    <glyph glyph-name="iotadieresis" unicode="&#x3ca;" horiz-adv-x="280" 
d="M153 537v-399q0 -40 12 -57.5t38 -17.5q17 0 34.5 3.5t26.5 7.5v-68q-32 -16 -79 -16q-56 0 -85.5 33.5t-29.5 113.5v400h83zM-11 672q0 26 12.5 38t31.5 12q18 0 30.5 -12t12.5 -38t-12.5 -39t-30.5 -13q-19 0 -31.5 13t-12.5 39zM159 672q0 26 13 38t31 12t31 -12
t13 -38t-13 -39t-31 -13q-19 0 -31.5 13t-12.5 39z" />
    <glyph glyph-name="upsilondieresis" unicode="&#x3cb;" horiz-adv-x="495" 
d="M249 -9q-102 1 -141.5 60t-39.5 183v303h83v-308q0 -77 20.5 -121.5t78.5 -44.5q59 0 87.5 51.5t28.5 161.5q0 70 -7 132t-23 129h82q11 -50 18 -89.5t10 -79.5t3 -92q0 -142 -51.5 -213.5t-148.5 -71.5zM121 672q0 26 12.5 38t31.5 12q18 0 30.5 -12t12.5 -38t-12.5 -39
t-30.5 -13q-19 0 -31.5 13t-12.5 39zM291 672q0 26 13 38t31 12t31 -12t13 -38t-13 -39t-31 -13q-19 0 -31.5 13t-12.5 39z" />
    <glyph glyph-name="omicrontonos" unicode="&#x3cc;" horiz-adv-x="493" 
d="M447 269q0 -127 -51 -203t-151 -76q-95 0 -147 75.5t-52 203.5q0 133 50.5 205.5t150.5 72.5q93 0 146.5 -71t53.5 -207zM131 269q0 -101 28 -154t88 -53q59 0 87.5 53t28.5 154t-28.5 153.5t-87.5 52.5q-61 0 -88.5 -52.5t-27.5 -153.5zM207 606v13q7 17 15.5 50.5
t16.5 67t11 51.5h84v-12q-13 -34 -34.5 -83t-43.5 -87h-49z" />
    <glyph glyph-name="upsilontonos" unicode="&#x3cd;" horiz-adv-x="495" 
d="M249 -9q-102 1 -141.5 60t-39.5 183v303h83v-308q0 -77 20.5 -121.5t78.5 -44.5q59 0 87.5 51.5t28.5 161.5q0 70 -7 132t-23 129h82q11 -50 18 -89.5t10 -79.5t3 -92q0 -142 -51.5 -213.5t-148.5 -71.5zM211 606v13q7 17 15.5 50.5t16.5 67t11 51.5h84v-12
q-13 -34 -34.5 -83t-43.5 -87h-49z" />
    <glyph glyph-name="omegatonos" unicode="&#x3ce;" horiz-adv-x="626" 
d="M526 537q26 -70 38 -136.5t12 -140.5q0 -127 -39.5 -198.5t-110.5 -71.5q-87 0 -112 91h-3q-25 -91 -114 -91q-71 0 -109 71.5t-38 198.5q0 75 12 140.5t38 136.5h83q-25 -67 -37.5 -134t-12.5 -143q0 -196 74 -196q34 0 50 37t16 107v139h79v-139q0 -143 67 -144
q74 0 74 196q0 146 -50 277h83zM275 606v13q7 17 15.5 50.5t16.5 67t11 51.5h84v-12q-13 -34 -34.5 -83t-43.5 -87h-49z" />
    <glyph glyph-name="afii10023" unicode="&#x401;" horiz-adv-x="448" 
d="M399 0h-319v714h319v-76h-233v-227h219v-76h-219v-258h233v-77zM110 840q0 26 12.5 38t31.5 12q18 0 30.5 -12t12.5 -38t-12.5 -39t-30.5 -13q-19 0 -31.5 13t-12.5 39zM280 840q0 26 13 38t31 12t31 -12t13 -38t-13 -39t-31 -13q-19 0 -31.5 13t-12.5 39z" />
    <glyph glyph-name="afii10051" unicode="&#x402;" horiz-adv-x="576" 
d="M372 -10q-35 0 -59 11v75q11 -4 23 -7t26 -3q31 0 50 22t19 78v94q0 52 -23.5 77t-78.5 25h-100v-362h-86v637h-133v77h377v-77h-158v-198h106q182 0 182 -176v-93q0 -88 -38.5 -134t-106.5 -46z" />
    <glyph glyph-name="afii10052" unicode="&#x403;" horiz-adv-x="414" 
d="M401 714v-77h-235v-637h-86v714h321zM395 934v-9q-12 -21 -36 -49.5t-51 -56t-49 -45.5h-54v11q26 37 50 76t41 73h99z" />
    <glyph glyph-name="afii10053" unicode="&#x404;" horiz-adv-x="510" 
d="M325 648q-57 0 -95.5 -32t-59 -86t-26.5 -120h254v-77h-255q1 -75 21.5 -135.5t61 -95.5t102.5 -35q40 0 72 9t61 22v-78q-60 -30 -144 -30q-85 0 -144 45t-89.5 127.5t-30.5 195.5q0 104 30 187t90.5 131.5t150.5 48.5q92 0 160 -41l-32 -73q-28 17 -59.5 27t-67.5 10z
" />
    <glyph glyph-name="afii10054" unicode="&#x405;" horiz-adv-x="454" 
d="M413 194q0 -61 -25.5 -107t-72.5 -71.5t-110 -25.5q-97 0 -163 32v87q34 -19 78 -29.5t84 -10.5q59 0 91 33.5t32 83.5q0 35 -12 59t-40 44t-76 42q-48 23 -82 49.5t-51.5 64t-17.5 93.5t24.5 98t69 65t102.5 23q46 0 87 -10.5t73 -25.5l-28 -78q-32 16 -65.5 25.5
t-65.5 9.5q-53 0 -81.5 -29.5t-28.5 -75.5q0 -36 11.5 -59.5t38.5 -43t74 -41.5q77 -36 115.5 -82t38.5 -120z" />
    <glyph glyph-name="afii10055" unicode="&#x406;" horiz-adv-x="300" 
d="M263 0h-227v49l70 18v580l-70 18v49h227v-49l-71 -18v-580l71 -18v-49z" />
    <glyph glyph-name="afii10056" unicode="&#x407;" horiz-adv-x="300" 
d="M263 0h-227v49l70 18v580l-70 18v49h227v-49l-71 -18v-580l71 -18v-49zM20 840q0 26 12.5 38t31.5 12q18 0 30.5 -12t12.5 -38t-12.5 -39t-30.5 -13q-19 0 -31.5 13t-12.5 39zM190 840q0 26 13 38t31 12t31 -12t13 -38t-13 -39t-31 -13q-19 0 -31.5 13t-12.5 39z" />
    <glyph glyph-name="afii10057" unicode="&#x408;" horiz-adv-x="239" 
d="M10 -192q-40 0 -68 12v75q14 -5 29 -7.5t32 -2.5q35 0 54.5 26.5t19.5 93.5v709h85v-711q0 -105 -40 -150t-112 -45z" />
    <glyph glyph-name="afii10058" unicode="&#x409;" horiz-adv-x="760" 
d="M51 -9q-31 0 -53 11v74q16 -9 40 -9q33 0 47 31.5t22 76.5q11 55 26.5 189t35.5 350h280v-299h47q119 0 173.5 -52.5t54.5 -152.5q0 -97 -56 -153.5t-165 -56.5h-138v635h-121q-19 -208 -32.5 -324t-24.5 -167q-17 -76 -45.5 -114t-90.5 -39zM449 75h49q138 0 138 135
q0 68 -34.5 99t-108.5 31h-44v-265z" />
    <glyph glyph-name="afii10059" unicode="&#x40a;" horiz-adv-x="777" 
d="M80 0v714h86v-301h217v301h85v-301h46q120 0 174.5 -52.5t54.5 -150.5t-57 -154t-164 -56h-139v337h-217v-337h-86zM468 75h49q138 0 138 135q0 68 -34.5 98t-108.5 30h-44v-263z" />
    <glyph glyph-name="afii10060" unicode="&#x40b;" horiz-adv-x="581" 
d="M395 714v-77h-166v-198h108q181 0 181 -177v-262h-87v260q0 52 -23.5 77t-77.5 25h-101v-362h-86v637h-133v77h385z" />
    <glyph glyph-name="afii10061" unicode="&#x40c;" horiz-adv-x="496" 
d="M498 0h-99l-233 366v-366h-86v714h86v-343l225 343h95l-229 -344zM424 934v-9q-12 -21 -36 -49.5t-51 -56t-49 -45.5h-54v11q26 37 50 76t41 73h99z" />
    <glyph glyph-name="afii10062" unicode="&#x40e;" horiz-adv-x="464" 
d="M464 714l-170 -512q-26 -77 -51.5 -123.5t-59.5 -67.5t-84 -21q-20 0 -37.5 3.5t-33.5 8.5v80q31 -14 64 -14q25 0 42.5 11.5t32.5 40t31 80.5l-194 514h91l124 -336q12 -34 24 -82h4q4 22 9 41t10 37l108 340h90zM392 925q-5 -75 -43.5 -113t-114.5 -38
q-78 0 -114.5 36.5t-41.5 114.5h73q4 -53 23 -75t61 -22q40 0 60 23t24 74h73z" />
    <glyph glyph-name="afii10145" unicode="&#x40f;" horiz-adv-x="590" 
d="M510 0h-173v-192h-85v192h-172v714h86v-637h258v637h86v-714z" />
    <glyph glyph-name="afii10017" unicode="&#x410;" horiz-adv-x="507" 
d="M416 0l-62 222h-202l-62 -222h-90l205 715h95l206 -715h-90zM335 301l-61 229q-5 22 -12 52t-10 52q-10 -54 -22 -104l-60 -229h165z" />
    <glyph glyph-name="afii10018" unicode="&#x411;" horiz-adv-x="500" 
d="M80 0v714h344v-77h-258v-222h70q121 0 173.5 -52.5t52.5 -152.5q0 -99 -55 -154.5t-164 -55.5h-163zM166 75h73q70 0 103 34t33 101q0 68 -33.5 99t-107.5 31h-68v-265z" />
    <glyph glyph-name="afii10019" unicode="&#x412;" horiz-adv-x="529" 
d="M80 714h172q106 0 161 -42t55 -132q0 -67 -28.5 -108.5t-83.5 -53.5v-4q62 -14 95.5 -54t33.5 -116q0 -94 -53 -149t-148 -55h-204v714zM166 409h91q67 0 95 30.5t28 92.5q0 108 -128 108h-86v-231zM166 336v-262h106q64 0 94 35t30 100q0 61 -33 94t-100 33h-97z" />
    <glyph glyph-name="afii10020" unicode="&#x413;" horiz-adv-x="414" 
d="M401 714v-77h-235v-637h-86v714h321z" />
    <glyph glyph-name="afii10021" unicode="&#x414;" horiz-adv-x="568" 
d="M476 714v-637h73v-269h-83v192h-378v-192h-83v269h48q59 149 93 308t38 329h292zM390 637h-127q-5 -95 -21 -193.5t-41 -192t-58 -174.5h247v560z" />
    <glyph glyph-name="afii10022" unicode="&#x415;" horiz-adv-x="448" 
d="M399 0h-319v714h319v-76h-233v-227h219v-76h-219v-258h233v-77z" />
    <glyph glyph-name="afii10024" unicode="&#x416;" horiz-adv-x="693" 
d="M217 369l-214 345h94l208 -345v345h83v-345l208 345h93l-213 -345l218 -369h-96l-210 365v-365h-83v365l-211 -365h-96z" />
    <glyph glyph-name="afii10025" unicode="&#x417;" horiz-adv-x="480" 
d="M410 549q0 -70 -36.5 -115.5t-101.5 -59.5v-4q74 -9 112.5 -54t38.5 -119q0 -94 -57 -150.5t-172 -56.5q-46 0 -87.5 8t-76.5 25v83q32 -19 75.5 -30t82.5 -11q146 0 146 134q0 69 -42 101.5t-125 32.5h-68v75h66q157 0 157 131q0 55 -30 82.5t-82 27.5q-42 0 -74 -14.5
t-58 -36.5l-41 61q36 32 80.5 48.5t102.5 16.5q92 0 141 -48t49 -127z" />
    <glyph glyph-name="afii10026" unicode="&#x418;" horiz-adv-x="632" 
d="M80 714h83v-416q0 -34 -1.5 -77t-3.5 -85h4l288 578h102v-714h-82v422q0 38 2 82.5t5 79.5h-4l-290 -584h-103v714z" />
    <glyph glyph-name="afii10027" unicode="&#x419;" horiz-adv-x="632" 
d="M80 714h83v-416q0 -34 -1.5 -77t-3.5 -85h4l288 578h102v-714h-82v422q0 38 2 82.5t5 79.5h-4l-290 -584h-103v714zM477 925q-5 -75 -43.5 -113t-114.5 -38q-78 0 -114.5 36.5t-41.5 114.5h73q4 -53 23 -75t61 -22q40 0 60 23t24 74h73z" />
    <glyph glyph-name="afii10028" unicode="&#x41a;" horiz-adv-x="496" 
d="M498 0h-99l-233 366v-366h-86v714h86v-343l225 343h95l-229 -344z" />
    <glyph glyph-name="afii10029" unicode="&#x41b;" horiz-adv-x="562" 
d="M484 0h-87v635h-154q-5 -56 -11.5 -119t-13 -124.5t-13 -114.5t-12.5 -89q-17 -101 -46 -149t-96 -48q-31 0 -53 11v74q16 -9 40 -9q34 0 50 37.5t26 113.5q6 44 15.5 122t19.5 175.5t20 198.5h315v-714z" />
    <glyph glyph-name="afii10030" unicode="&#x41c;" horiz-adv-x="775" 
d="M348 0l-189 607h-4q3 -44 4.5 -84.5t1.5 -72.5v-450h-81v714h123l183 -584h3l183 584h124v-714h-84v451q0 31 1.5 71.5t3.5 84.5h-4l-190 -607h-75z" />
    <glyph glyph-name="afii10031" unicode="&#x41d;" horiz-adv-x="595" 
d="M516 0h-86v334h-264v-334h-86v714h86v-303h264v303h86v-714z" />
    <glyph glyph-name="afii10032" unicode="&#x41e;" horiz-adv-x="619" 
d="M567 358q0 -105 -27 -188.5t-84 -131.5t-146 -48q-91 0 -147.5 49t-83 132.5t-26.5 187.5q0 178 64.5 271.5t193.5 93.5q89 0 145.5 -48t83.5 -130.5t27 -187.5zM143 358q0 -141 41.5 -216t125.5 -75q83 0 124.5 74.5t41.5 216.5t-41 215.5t-124 73.5q-85 0 -126.5 -74
t-41.5 -215z" />
    <glyph glyph-name="afii10033" unicode="&#x41f;" horiz-adv-x="590" 
d="M80 0v714h430v-714h-86v637h-258v-637h-86z" />
    <glyph glyph-name="afii10034" unicode="&#x420;" horiz-adv-x="492" 
d="M229 714q116 0 171 -53t55 -158q0 -103 -55.5 -164t-176.5 -61h-57v-278h-86v714h149zM225 639h-59v-286h48q80 0 116 34.5t36 113.5q0 73 -34 105.5t-107 32.5z" />
    <glyph glyph-name="afii10035" unicode="&#x421;" horiz-adv-x="502" 
d="M325 648q-61 0 -101.5 -39t-60.5 -105t-20 -147q0 -135 48.5 -212.5t136.5 -77.5q35 0 66.5 7.5t60.5 19.5v-76q-29 -14 -62 -21t-75 -7q-84 0 -143 44.5t-90.5 127t-31.5 196.5q0 104 30 187t90.5 131.5t150.5 48.5q84 0 152 -38l-32 -73q-26 15 -55.5 24.5t-63.5 9.5z
" />
    <glyph glyph-name="afii10036" unicode="&#x422;" horiz-adv-x="434" 
d="M259 0h-85v637h-164v77h412v-77h-163v-637z" />
    <glyph glyph-name="afii10037" unicode="&#x423;" horiz-adv-x="464" 
d="M464 714l-170 -512q-26 -77 -51.5 -123.5t-59.5 -67.5t-84 -21q-20 0 -37.5 3.5t-33.5 8.5v80q31 -14 64 -14q25 0 42.5 11.5t32.5 40t31 80.5l-194 514h91l124 -336q12 -34 24 -82h4q4 22 9 41t10 37l108 340h90z" />
    <glyph glyph-name="afii10038" unicode="&#x424;" horiz-adv-x="686" 
d="M385 724v-88q88 0 144 -35t82.5 -94.5t26.5 -134.5q0 -76 -26.5 -137t-82 -97.5t-144.5 -37.5v-110h-84v110q-88 0 -144 37t-82.5 98.5t-26.5 136.5q0 73 27 133t83 95.5t143 35.5v88h84zM301 562q-87 -1 -127 -51t-40 -139q0 -95 42 -146.5t125 -52.5v389zM385 562v-389
q85 1 126 53t41 146q0 92 -40 140.5t-127 49.5z" />
    <glyph glyph-name="afii10039" unicode="&#x425;" horiz-adv-x="456" 
d="M450 0h-93l-127 297l-134 -297h-90l177 373l-160 341h91l118 -271l118 271h90l-160 -345z" />
    <glyph glyph-name="afii10040" unicode="&#x426;" horiz-adv-x="607" 
d="M585 77v-269h-83v192h-422v714h86v-637h261v637h86v-637h72z" />
    <glyph glyph-name="afii10041" unicode="&#x427;" horiz-adv-x="568" 
d="M489 0h-87v292q-46 -21 -88 -32.5t-86 -11.5q-79 0 -120.5 46.5t-41.5 135.5v284h86v-270q0 -60 23 -89.5t73 -29.5q41 0 76 9.5t78 29.5v350h87v-714z" />
    <glyph glyph-name="afii10042" unicode="&#x428;" horiz-adv-x="834" 
d="M754 0h-674v714h86v-637h208v637h86v-637h208v637h86v-714z" />
    <glyph glyph-name="afii10043" unicode="&#x429;" horiz-adv-x="846" 
d="M822 77v-269h-82v192h-660v714h86v-637h206v637h86v-637h206v637h86v-637h72z" />
    <glyph glyph-name="afii10044" unicode="&#x42a;" horiz-adv-x="581" 
d="M158 0v636h-146v78h231v-299h73q117 0 171 -53t54 -152q0 -97 -55.5 -153.5t-163.5 -56.5h-164zM244 75h75q135 0 135 135q0 68 -35 99t-105 31h-70v-265z" />
    <glyph glyph-name="afii10045" unicode="&#x42b;" horiz-adv-x="728" 
d="M80 0v714h86v-299h72q117 0 170.5 -53t53.5 -152q0 -98 -56 -154t-163 -56h-163zM563 0v714h86v-714h-86zM166 75h74q134 0 134 135q0 68 -34 98.5t-105 30.5h-69v-264z" />
    <glyph glyph-name="afii10046" unicode="&#x42c;" horiz-adv-x="510" 
d="M80 0v714h86v-299h79q117 0 171.5 -53t54.5 -152q0 -98 -57 -154t-164 -56h-170zM166 75h81q136 0 136 135q0 68 -35 99t-106 31h-76v-265z" />
    <glyph glyph-name="afii10047" unicode="&#x42d;" horiz-adv-x="507" 
d="M179 648q-36 0 -65.5 -9.5t-56.5 -23.5l-31 71q68 39 157 39q85 1 145.5 -44t93 -127t31.5 -194q0 -108 -29.5 -191.5t-90 -131t-153.5 -47.5q-86 0 -141 27v77q30 -12 63.5 -19.5t69.5 -7.5q64 0 105.5 35t62 95t23.5 136h-254v77h253q-4 65 -26 119t-61 86.5t-96 32.5z
" />
    <glyph glyph-name="afii10048" unicode="&#x42e;" horiz-adv-x="826" 
d="M772 358q0 -105 -25 -188t-78 -131.5t-137 -48.5q-115 0 -176.5 89.5t-66.5 254.5h-123v-334h-86v714h86v-303h124q8 151 68.5 232t172.5 81q118 0 179.5 -95.5t61.5 -270.5zM376 358q0 -141 38 -216t115 -75q78 0 115.5 74.5t37.5 216.5t-37.5 215.5t-114.5 73.5
t-115.5 -74.5t-38.5 -214.5z" />
    <glyph glyph-name="afii10049" unicode="&#x42f;" horiz-adv-x="516" 
d="M257 298l-144 -298h-97l161 316q-56 20 -88 69.5t-32 123.5q0 205 222 205h157v-714h-86v297zM350 640h-66q-71 0 -104.5 -31.5t-33.5 -101.5t32 -104t101 -34h71v271z" />
    <glyph glyph-name="afii10065" unicode="&#x430;" horiz-adv-x="460" 
d="M236 546q82 0 118.5 -46.5t36.5 -136.5v-363h-63l-13 75h-3q-25 -43 -57.5 -64t-82.5 -21q-65 0 -99.5 45.5t-34.5 114.5q0 80 51 123.5t150 47.5l70 3v34q0 64 -20.5 92t-63.5 28q-29 0 -57.5 -9.5t-58.5 -25.5l-26 62q32 19 71 30t82 11zM309 265l-57 -3
q-69 -3 -99 -31t-30 -80q0 -48 20.5 -70.5t54.5 -22.5q50 0 80.5 40t30.5 115v52z" />
    <glyph glyph-name="afii10066" unicode="&#x431;" horiz-adv-x="495" 
d="M49 336q0 98 15.5 174t53.5 128.5t104 78.5q82 33 211 48l11 -74q-32 -3 -70 -9t-72 -14t-56 -17q-58 -25 -82.5 -83.5t-28.5 -151.5h5q19 34 53.5 58t80.5 24q84 0 129.5 -64t45.5 -180q0 -128 -54 -196t-150 -68q-94 0 -145 84.5t-51 261.5zM248 61q56 0 86 45t30 141
q0 88 -26 134.5t-82 46.5q-29 0 -54 -16t-42.5 -39t-25.5 -45q2 -124 27 -195.5t87 -71.5z" />
    <glyph glyph-name="afii10067" unicode="&#x432;" horiz-adv-x="469" 
d="M414 404q0 -98 -87 -118v-4q46 -8 74 -39.5t28 -84.5q0 -74 -44.5 -116t-134.5 -42h-179v537h173q80 0 125 -32.5t45 -100.5zM330 396q0 73 -90 73h-86v-155h86q90 0 90 82zM345 163q0 46 -25.5 65.5t-75.5 19.5h-90v-181h90q50 0 75.5 22.5t25.5 73.5z" />
    <glyph glyph-name="afii10068" unicode="&#x433;" horiz-adv-x="353" 
d="M340 537v-72h-186v-465h-83v537h269z" />
    <glyph glyph-name="afii10069" unicode="&#x434;" horiz-adv-x="486" 
d="M403 537v-465h63v-259h-80v187h-295v-187h-80v259h43q50 97 74 219.5t26 245.5h249zM322 467h-95q-3 -64 -13.5 -133.5t-29 -136.5t-46.5 -125h184v395z" />
    <glyph glyph-name="afii10070" unicode="&#x435;" horiz-adv-x="462" 
d="M238 546q59 0 99 -31t60.5 -85t20.5 -122v-56h-288q3 -191 134 -191q69 0 133 37v-74q-32 -17 -65.5 -25.5t-74.5 -8.5q-71 0 -117.5 35t-69.5 97t-23 143q0 135 49.5 208t141.5 73zM238 478q-98 0 -107 -160h207q-1 67 -25 113.5t-75 46.5z" />
    <glyph glyph-name="afii10072" unicode="&#x436;" horiz-adv-x="620" 
d="M603 537l-169 -256l184 -281h-94l-173 276v-276h-81v276l-173 -276h-94l184 281l-169 256h90l162 -257v257h81v-257l162 257h90z" />
    <glyph glyph-name="afii10073" unicode="&#x437;" horiz-adv-x="393" 
d="M176 547q74 0 116.5 -37t42.5 -102q0 -44 -23 -76t-60 -45v-4q45 -12 72.5 -45t27.5 -88q0 -70 -46.5 -115t-134.5 -45q-89 0 -143 36v77q27 -17 61.5 -29.5t75.5 -12.5q47 0 75 23t28 71q0 43 -27.5 67.5t-85.5 24.5h-44v67h39q47 0 75 22t28 65q0 38 -22.5 57t-62.5 19
q-28 0 -52.5 -7.5t-51.5 -21.5l-31 64q67 35 143 35z" />
    <glyph glyph-name="afii10074" unicode="&#x438;" horiz-adv-x="525" 
d="M151 537v-308q0 -27 -1.5 -59.5t-3.5 -62.5l211 430h96v-537h-79v300q0 29 1 64.5t3 64.5l-211 -429h-96v537h80z" />
    <glyph glyph-name="afii10075" unicode="&#x439;" horiz-adv-x="525" 
d="M151 537v-308q0 -27 -1.5 -59.5t-3.5 -62.5l211 430h96v-537h-79v300q0 29 1 64.5t3 64.5l-211 -429h-96v537h80zM424 756q-5 -75 -43.5 -113t-114.5 -38q-78 0 -114.5 36.5t-41.5 114.5h73q4 -53 23 -75t61 -22q40 0 60 23t24 74h73z" />
    <glyph glyph-name="afii10076" unicode="&#x43a;" horiz-adv-x="435" 
d="M324 537h91l-176 -255l191 -282h-95l-181 276v-276h-83v537h83v-257z" />
    <glyph glyph-name="afii10077" unicode="&#x43b;" horiz-adv-x="474" 
d="M403 0h-84v464h-117q-10 -164 -27 -267.5t-49 -153t-84 -49.5q-23 0 -40 7v69q4 -3 10.5 -4t13.5 -1q44 0 66.5 116t34.5 356h276v-537z" />
    <glyph glyph-name="afii10078" unicode="&#x43c;" horiz-adv-x="622" 
d="M552 537v-537h-79v306q0 50 6 126h-4l-129 -432h-72l-128 432h-3q2 -34 3.5 -67.5t1.5 -57.5v-307h-77v537h116l123 -424l126 424h116z" />
    <glyph glyph-name="afii10079" unicode="&#x43d;" horiz-adv-x="514" 
d="M154 537v-223h206v223h83v-537h-83v242h-206v-242h-83v537h83z" />
    <glyph glyph-name="afii10080" unicode="&#x43e;" horiz-adv-x="493" 
d="M447 269q0 -127 -51 -203t-151 -76q-95 0 -147 75.5t-52 203.5q0 133 50.5 205.5t150.5 72.5q93 0 146.5 -71t53.5 -207zM131 269q0 -101 28 -154t88 -53q59 0 87.5 53t28.5 154t-28.5 153.5t-87.5 52.5q-61 0 -88.5 -52.5t-27.5 -153.5z" />
    <glyph glyph-name="afii10081" unicode="&#x43f;" horiz-adv-x="510" 
d="M439 537v-537h-83v465h-202v-465h-83v537h368z" />
    <glyph glyph-name="afii10082" unicode="&#x440;" horiz-adv-x="508" 
d="M286 547q84 0 130.5 -69.5t46.5 -208.5q0 -134 -46 -206.5t-128 -72.5q-46 0 -80.5 22t-54.5 59h-4q2 -20 3 -40.5t1 -36.5v-234h-83v777h68l10 -73h5q22 40 54.5 61.5t77.5 21.5zM269 476q-60 0 -87 -47t-28 -144v-19q0 -104 27 -154t89 -50q54 0 80.5 53t26.5 154
q0 100 -25.5 153.5t-82.5 53.5z" />
    <glyph glyph-name="afii10083" unicode="&#x441;" horiz-adv-x="387" 
d="M245 -10q-95 0 -146.5 68t-51.5 207q0 137 52 209.5t149 72.5q34 0 63 -7.5t51 -19.5l-25 -68q-20 9 -42.5 15t-42.5 6q-120 0 -120 -207q0 -204 119 -204q28 0 54 7.5t50 19.5v-71q-23 -14 -52 -21t-58 -7z" />
    <glyph glyph-name="afii10084" unicode="&#x442;" horiz-adv-x="360" 
d="M346 466h-125v-466h-83v466h-125v71h333v-71z" />
    <glyph glyph-name="afii10085" unicode="&#x443;" horiz-adv-x="412" 
d="M3 537h87l86 -305q9 -32 17 -64.5t13 -64.5h4q4 27 12 60.5t18 69.5l83 304h86l-180 -616q-24 -80 -60.5 -120.5t-98.5 -40.5q-16 0 -30 2t-27 6v71q10 -2 22 -4t23 -2q34 0 53.5 23.5t35.5 76.5l20 69z" />
    <glyph glyph-name="afii10086" unicode="&#x444;" horiz-adv-x="605" 
d="M344 760v-216q71 -7 119 -44t72.5 -96.5t24.5 -134.5q0 -115 -54.5 -190t-161.5 -86v-233h-81v233q-101 8 -159 80t-58 196q0 117 54.5 191t162.5 84v216h81zM263 473q-65 -7 -98.5 -60t-33.5 -144q0 -83 32 -141t100 -65v410zM344 473v-410q68 8 99.5 66t31.5 140
q0 90 -34 143.5t-97 60.5z" />
    <glyph glyph-name="afii10087" unicode="&#x445;" horiz-adv-x="420" 
d="M162 276l-138 261h90l97 -197l98 197h90l-140 -264l146 -273h-90l-105 209l-106 -209h-89z" />
    <glyph glyph-name="afii10088" unicode="&#x446;" horiz-adv-x="523" 
d="M505 -187h-82v187h-352v537h83v-465h204v465h83v-465h64v-259z" />
    <glyph glyph-name="afii10089" unicode="&#x447;" horiz-adv-x="501" 
d="M142 537v-208q0 -43 19 -62.5t54 -19.5q36 0 69 15.5t64 39.5v235h82v-537h-82v233q-34 -28 -71 -42.5t-80 -14.5q-138 0 -138 156v205h83z" />
    <glyph glyph-name="afii10090" unicode="&#x448;" horiz-adv-x="720" 
d="M648 537v-537h-577v537h83v-465h164v465h82v-465h165v465h83z" />
    <glyph glyph-name="afii10091" unicode="&#x449;" horiz-adv-x="730" 
d="M648 537v-465h64v-258h-82v186h-559v537h83v-465h164v465h82v-465h165v465h83z" />
    <glyph glyph-name="afii10092" unicode="&#x44a;" horiz-adv-x="538" 
d="M227 537v-222h82q189 0 189 -155q0 -76 -47 -118t-139 -42h-168v464h-132v73h215zM309 248h-82v-181h83q105 0 105 90q0 47 -26 69t-80 22z" />
    <glyph glyph-name="afii10093" unicode="&#x44b;" horiz-adv-x="651" 
d="M71 0v537h83v-222h80q185 0 185 -155q0 -76 -46.5 -118t-137.5 -42h-164zM496 0v537h84v-537h-84zM154 67h77q50 0 77.5 21.5t27.5 68.5t-26 69t-78 22h-78v-181z" />
    <glyph glyph-name="afii10094" unicode="&#x44c;" horiz-adv-x="466" 
d="M154 315h86q186 0 186 -155q0 -76 -47 -118t-138 -42h-170v537h83v-222zM343 157q0 47 -26.5 69t-78.5 22h-84v-181h85q49 0 76.5 22t27.5 68z" />
    <glyph glyph-name="afii10095" unicode="&#x44d;" horiz-adv-x="404" 
d="M144 -10q-68 0 -115 28v72q25 -13 52.5 -20.5t57.5 -7.5q61 0 95 43.5t38 137.5h-179v67h178q-10 165 -123 165q-22 0 -48 -7t-43 -16l-25 67q26 13 56 20.5t62 7.5q98 0 153 -69.5t55 -208.5t-56.5 -209t-157.5 -70z" />
    <glyph glyph-name="afii10096" unicode="&#x44e;" horiz-adv-x="686" 
d="M640 269q0 -134 -51 -206.5t-142 -72.5q-178 0 -190 252h-103v-242h-83v537h83v-223h104q8 114 57 173.5t134 59.5q88 0 139.5 -71.5t51.5 -206.5zM341 269q0 -208 107 -208q56 0 81 52.5t25 155.5t-25.5 154.5t-80.5 51.5q-56 0 -81.5 -51.5t-25.5 -154.5z" />
    <glyph glyph-name="afii10097" unicode="&#x44f;" horiz-adv-x="460" 
d="M109 0h-93l138 229q-51 13 -81.5 50.5t-30.5 99.5q0 76 47 117t130 41h170v-537h-82v219h-75zM125 378q0 -91 108 -91h74v182h-79q-52 0 -77.5 -24t-25.5 -67z" />
    <glyph glyph-name="afii10071" unicode="&#x451;" horiz-adv-x="462" 
d="M238 546q59 0 99 -31t60.5 -85t20.5 -122v-56h-288q3 -191 134 -191q69 0 133 37v-74q-32 -17 -65.5 -25.5t-74.5 -8.5q-71 0 -117.5 35t-69.5 97t-23 143q0 135 49.5 208t141.5 73zM238 478q-98 0 -107 -160h207q-1 67 -25 113.5t-75 46.5zM106 672q0 26 12.5 38
t31.5 12q18 0 30.5 -12t12.5 -38t-12.5 -39t-30.5 -13q-19 0 -31.5 13t-12.5 39zM276 672q0 26 13 38t31 12t31 -12t13 -38t-13 -39t-31 -13q-19 0 -31.5 13t-12.5 39z" />
    <glyph glyph-name="afii10099" unicode="&#x452;" horiz-adv-x="505" 
d="M318 -240q-32 0 -55 10v72q11 -4 21 -6.5t20 -2.5q24 0 36.5 20t12.5 64v419q0 66 -20 96t-64 30q-61 0 -88 -46.5t-27 -147.5v-268h-83v606h-63v63h63v91h83v-91h138v-63h-138v-81q0 -17 -1.5 -35.5t-3.5 -35.5h5q19 39 54.5 60.5t76.5 21.5q77 0 114 -46.5t37 -140.5
v-430q0 -77 -30 -118t-88 -41z" />
    <glyph glyph-name="afii10100" unicode="&#x453;" horiz-adv-x="353" 
d="M340 537v-72h-186v-465h-83v537h269zM359 766v-9q-12 -21 -36 -49.5t-51 -56t-49 -45.5h-54v11q26 37 50 76t41 73h99z" />
    <glyph glyph-name="afii10101" unicode="&#x454;" horiz-adv-x="405" 
d="M254 -10q-98 0 -152.5 68.5t-54.5 206.5q0 139 55.5 210.5t155.5 71.5q64 0 118 -27l-25 -68q-19 10 -44 16.5t-48 6.5q-114 0 -126 -165h178v-67h-179q7 -181 127 -181q30 0 57.5 7.5t52.5 20.5v-72q-22 -14 -54 -21t-61 -7z" />
    <glyph glyph-name="afii10102" unicode="&#x455;" horiz-adv-x="381" 
d="M345 145q0 -75 -45.5 -115t-125.5 -40q-43 0 -76.5 9t-58.5 22v83q25 -17 61 -29.5t73 -12.5q45 0 68 21t23 58q0 31 -21 53t-76 49q-59 30 -94 64.5t-35 97.5q0 65 46 103.5t120 38.5q38 0 72 -9.5t65 -26.5l-30 -66q-25 14 -52 23t-56 9q-40 0 -62.5 -18.5t-22.5 -50.5
t22.5 -52t78.5 -49q58 -31 92 -65.5t34 -96.5z" />
    <glyph glyph-name="afii10103" unicode="&#x456;" horiz-adv-x="225" 
d="M114 738q47 0 47 -57q0 -28 -12.5 -42.5t-34.5 -14.5t-35.5 14.5t-13.5 42.5q0 29 13.5 43t35.5 14zM154 537v-537h-83v537h83z" />
    <glyph glyph-name="afii10104" unicode="&#x457;" horiz-adv-x="225" 
d="M154 0h-83v537h83v-537zM-17 672q0 26 12.5 38t31.5 12q18 0 30.5 -12t12.5 -38t-12.5 -39t-30.5 -13q-19 0 -31.5 13t-12.5 39zM153 672q0 26 13 38t31 12t31 -12t13 -38t-13 -39t-31 -13q-19 0 -31.5 13t-12.5 39z" />
    <glyph glyph-name="afii10105" unicode="&#x458;" horiz-adv-x="225" 
d="M65 681q0 29 13.5 43t35.5 14q47 0 47 -57q0 -28 -12.5 -42.5t-34.5 -14.5t-35.5 14.5t-13.5 42.5zM32 -240q-18 0 -32 3t-26 7v72q22 -9 45 -9q25 0 38.5 19.5t13.5 64.5v620h83v-618q0 -158 -122 -159z" />
    <glyph glyph-name="afii10106" unicode="&#x459;" horiz-adv-x="683" 
d="M383 537v-222h75q186 0 186 -155q0 -76 -47 -118t-139 -42h-157v463h-99q-10 -163 -26.5 -266.5t-48 -153t-84.5 -49.5q-24 0 -41 7v68q10 -5 23 -5q43 0 67 114t35 359h256zM454 248h-71v-181h71q51 0 78.5 22t27.5 68q0 47 -27 69t-79 22z" />
    <glyph glyph-name="afii10107" unicode="&#x45a;" horiz-adv-x="722" 
d="M421 537v-222h75q186 0 186 -155q0 -76 -46 -118t-138 -42h-159v243h-184v-243h-84v537h84v-223h184v223h82zM492 248h-71v-181h72q50 0 77.5 22t27.5 68q0 47 -26.5 69t-79.5 22z" />
    <glyph glyph-name="afii10108" unicode="&#x45b;" horiz-adv-x="505" 
d="M154 760v-91h144v-64h-144v-80q0 -37 -6 -71h6q19 39 54 60.5t77 21.5q77 0 114 -46.5t37 -140.5v-349h-83v336q0 66 -20 96t-64 30q-62 0 -89 -46.5t-27 -147.5v-268h-82v605h-63v64h63v91h83z" />
    <glyph glyph-name="afii10109" unicode="&#x45c;" horiz-adv-x="435" 
d="M324 537h91l-176 -255l191 -282h-95l-181 276v-276h-83v537h83v-257zM406 766v-9q-12 -21 -36 -49.5t-51 -56t-49 -45.5h-54v11q26 37 50 76t41 73h99z" />
    <glyph glyph-name="afii10110" unicode="&#x45e;" horiz-adv-x="412" 
d="M3 537h87l86 -305q9 -32 17 -64.5t13 -64.5h4q4 27 12 60.5t18 69.5l83 304h86l-180 -616q-24 -80 -60.5 -120.5t-98.5 -40.5q-16 0 -30 2t-27 6v71q10 -2 22 -4t23 -2q34 0 53.5 23.5t35.5 76.5l20 69zM365 756q-5 -75 -43.5 -113t-114.5 -38q-78 0 -114.5 36.5
t-41.5 114.5h73q4 -53 23 -75t61 -22q40 0 60 23t24 74h73z" />
    <glyph glyph-name="afii10193" unicode="&#x45f;" horiz-adv-x="510" 
d="M215 0h-144v537h83v-465h202v465h83v-537h-143v-186h-81v186z" />
    <glyph glyph-name="afii10050" unicode="&#x490;" horiz-adv-x="421" 
d="M400 862v-225h-234v-637h-86v714h238v148h82z" />
    <glyph glyph-name="afii10098" unicode="&#x491;" horiz-adv-x="354" 
d="M334 691v-224h-180v-467h-83v537h183v154h80z" />
    <glyph glyph-name="Wgrave" unicode="&#x1e80;" horiz-adv-x="782" 
d="M776 714l-159 -714h-97l-106 459q-6 25 -12.5 62.5t-11.5 77.5q-3 -26 -9 -64.5t-15 -75.5l-103 -459h-96l-161 714h88l94 -437q10 -52 17.5 -97.5t11.5 -79.5q6 42 14.5 88.5t17.5 88.5l100 437h83l101 -438q9 -40 17 -85t14 -91q5 45 13 90.5t17 86.5l95 437h87z
M354 934q11 -23 27 -50.5t33 -53.5t31 -45v-11h-54q-20 18 -47.5 45.5t-52 56t-36.5 49.5v9h99z" />
    <glyph glyph-name="wgrave" unicode="&#x1e81;" horiz-adv-x="659" 
d="M426 0l-71 318q-7 33 -13.5 66.5t-10.5 59.5h-3q-4 -28 -10 -61t-14 -65l-75 -318h-95l-124 537h84l60 -273q8 -42 16.5 -86t13.5 -82h3q5 32 12 74.5t18 85.5l67 281h92l66 -282q8 -29 16 -71t14 -88h3q2 21 8.5 55t14.5 73l69 313h83l-128 -537h-96zM293 766
q11 -23 27 -50.5t33 -53.5t31 -45v-11h-54q-20 18 -47.5 45.5t-52 56t-36.5 49.5v9h99z" />
    <glyph glyph-name="Wacute" unicode="&#x1e82;" horiz-adv-x="782" 
d="M776 714l-159 -714h-97l-106 459q-6 25 -12.5 62.5t-11.5 77.5q-3 -26 -9 -64.5t-15 -75.5l-103 -459h-96l-161 714h88l94 -437q10 -52 17.5 -97.5t11.5 -79.5q6 42 14.5 88.5t17.5 88.5l100 437h83l101 -438q9 -40 17 -85t14 -91q5 45 13 90.5t17 86.5l95 437h87z
M545 934v-9q-12 -21 -36 -49.5t-51 -56t-49 -45.5h-54v11q26 37 50 76t41 73h99z" />
    <glyph glyph-name="wacute" unicode="&#x1e83;" horiz-adv-x="659" 
d="M426 0l-71 318q-7 33 -13.5 66.5t-10.5 59.5h-3q-4 -28 -10 -61t-14 -65l-75 -318h-95l-124 537h84l60 -273q8 -42 16.5 -86t13.5 -82h3q5 32 12 74.5t18 85.5l67 281h92l66 -282q8 -29 16 -71t14 -88h3q2 21 8.5 55t14.5 73l69 313h83l-128 -537h-96zM489 766v-9
q-12 -21 -36 -49.5t-51 -56t-49 -45.5h-54v11q26 37 50 76t41 73h99z" />
    <glyph glyph-name="Wdieresis" unicode="&#x1e84;" horiz-adv-x="782" 
d="M776 714l-159 -714h-97l-106 459q-6 25 -12.5 62.5t-11.5 77.5q-3 -26 -9 -64.5t-15 -75.5l-103 -459h-96l-161 714h88l94 -437q10 -52 17.5 -97.5t11.5 -79.5q6 42 14.5 88.5t17.5 88.5l100 437h83l101 -438q9 -40 17 -85t14 -91q5 45 13 90.5t17 86.5l95 437h87z
M262 840q0 26 12.5 38t31.5 12q18 0 30.5 -12t12.5 -38t-12.5 -39t-30.5 -13q-19 0 -31.5 13t-12.5 39zM432 840q0 26 13 38t31 12t31 -12t13 -38t-13 -39t-31 -13q-19 0 -31.5 13t-12.5 39z" />
    <glyph glyph-name="wdieresis" unicode="&#x1e85;" horiz-adv-x="659" 
d="M426 0l-71 318q-7 33 -13.5 66.5t-10.5 59.5h-3q-4 -28 -10 -61t-14 -65l-75 -318h-95l-124 537h84l60 -273q8 -42 16.5 -86t13.5 -82h3q5 32 12 74.5t18 85.5l67 281h92l66 -282q8 -29 16 -71t14 -88h3q2 21 8.5 55t14.5 73l69 313h83l-128 -537h-96zM201 672
q0 26 12.5 38t31.5 12q18 0 30.5 -12t12.5 -38t-12.5 -39t-30.5 -13q-19 0 -31.5 13t-12.5 39zM371 672q0 26 13 38t31 12t31 -12t13 -38t-13 -39t-31 -13q-19 0 -31.5 13t-12.5 39z" />
    <glyph glyph-name="Ygrave" unicode="&#x1ef2;" horiz-adv-x="444" 
d="M223 374l131 340h90l-179 -436v-278h-86v275l-179 439h91zM189 934q11 -23 27 -50.5t33 -53.5t31 -45v-11h-54q-20 18 -47.5 45.5t-52 56t-36.5 49.5v9h99z" />
    <glyph glyph-name="ygrave" unicode="&#x1ef3;" horiz-adv-x="412" 
d="M3 537h87l86 -305q9 -32 17 -64.5t13 -64.5h4q4 27 12 60.5t18 69.5l83 304h86l-180 -616q-24 -80 -60.5 -120.5t-98.5 -40.5q-16 0 -30 2t-27 6v71q10 -2 22 -4t23 -2q34 0 53.5 23.5t35.5 76.5l20 69zM165 766q11 -23 27 -50.5t33 -53.5t31 -45v-11h-54
q-20 18 -47.5 45.5t-52 56t-36.5 49.5v9h99z" />
    <glyph glyph-name="endash" unicode="&#x2013;" horiz-adv-x="500" 
d="M38 234v71h424v-71h-424z" />
    <glyph glyph-name="emdash" unicode="&#x2014;" horiz-adv-x="1000" 
d="M38 234v71h924v-71h-924z" />
    <glyph glyph-name="afii00208" unicode="&#x2015;" horiz-adv-x="1000" 
d="M38 234v71h924v-71h-924z" />
    <glyph glyph-name="underscoredbl" unicode="&#x2017;" horiz-adv-x="429" 
d="M432 -112h-433v55h433v-55zM432 -231h-433v55h433v-55z" />
    <glyph glyph-name="quoteleft" unicode="&#x2018;" horiz-adv-x="185" 
d="M28 468l-6 11q14 60 35 120.5t45 114.5h62q-16 -61 -28.5 -127t-18.5 -119h-89z" />
    <glyph glyph-name="quoteright" unicode="&#x2019;" horiz-adv-x="185" 
d="M156 714l7 -11q-14 -59 -34.5 -119t-44.5 -116h-63q16 59 28.5 126.5t18.5 119.5h88z" />
    <glyph glyph-name="quotesinglbase" unicode="&#x201a;" horiz-adv-x="233" 
d="M171 116l7 -11q-14 -59 -34.5 -119t-44.5 -116h-63q16 59 28.5 126.5t18.5 119.5h88z" />
    <glyph glyph-name="quotereversed" unicode="&#x201b;" horiz-adv-x="185" 
d="M118 714q5 -54 17.5 -120t28.5 -126h-62q-24 56 -45 116t-35 119l6 11h90z" />
    <glyph glyph-name="quotedblleft" unicode="&#x201c;" horiz-adv-x="356" 
d="M335 714q-15 -62 -28 -126t-18 -120h-90l-6 11q14 60 35 120.5t44 114.5h63zM163 714q-16 -61 -28 -127t-18 -119h-89l-6 11q14 60 34.5 120.5t45.5 114.5h61z" />
    <glyph glyph-name="quotedblright" unicode="&#x201d;" horiz-adv-x="356" 
d="M327 714l7 -11q-14 -59 -34.5 -119t-44.5 -116h-63q16 63 28.5 126.5t19.5 119.5h87zM156 714l7 -11q-14 -59 -34.5 -119t-44.5 -116h-63q16 59 28.5 126.5t17.5 119.5h89z" />
    <glyph glyph-name="quotedblbase" unicode="&#x201e;" horiz-adv-x="373" 
d="M329 115l7 -11q-14 -59 -34.5 -119t-44.5 -116h-63q16 63 28.5 126.5t19.5 119.5h87zM158 115l7 -11q-14 -59 -34.5 -119t-44.5 -116h-63q16 59 28.5 126.5t17.5 119.5h89z" />
    <glyph glyph-name="dagger" unicode="&#x2020;" horiz-adv-x="469" 
d="M412 488l-152 11l20 -499h-93l19 499l-148 -11v77l148 -13l-19 208h93l-20 -208l152 13v-77z" />
    <glyph glyph-name="daggerdbl" unicode="&#x2021;" horiz-adv-x="469" 
d="M260 240l153 10v-76l-153 12l19 -186h-92l19 186l-150 -12v76l150 -10l-14 144l14 136l-150 -10v76l150 -13l-19 187h92l-19 -187l153 13v-76l-153 10l14 -136z" />
    <glyph glyph-name="bullet" unicode="&#x2022;" horiz-adv-x="380" 
d="M71 365q0 67 31.5 99.5t86.5 32.5t87 -32.5t32 -99.5q0 -65 -32 -98.5t-87 -33.5q-54 0 -86 33t-32 99z" />
    <glyph glyph-name="ellipsis" unicode="&#x2026;" horiz-adv-x="713" 
d="M63 55q0 33 15 49t41 16q25 0 41 -15t16 -50q0 -34 -16 -49.5t-41 -15.5t-40.5 16t-15.5 49zM300 55q0 33 15 49t41 16q25 0 41 -15t16 -50q0 -34 -16 -49.5t-41 -15.5t-40.5 16t-15.5 49zM537 55q0 33 15 49t41 16q25 0 41 -15t16 -50q0 -34 -16 -49.5t-41 -15.5
t-40.5 16t-15.5 49z" />
    <glyph glyph-name="perthousand" unicode="&#x2030;" horiz-adv-x="1010" 
d="M168 724q61 0 94 -58t33 -165t-32.5 -166t-94.5 -59q-61 0 -93 59t-32 166t31 165t94 58zM538 714l-294 -714h-69l294 714h69zM167 663q-30 0 -42.5 -40.5t-12.5 -121.5q0 -82 12.5 -122.5t43.5 -40.5q57 0 57 163q0 162 -58 162zM545 439q61 0 94 -58.5t33 -164.5
q0 -108 -32.5 -166.5t-94.5 -58.5q-61 0 -93 59.5t-32 165.5q0 109 31.5 166t93.5 57zM841 439q61 0 94 -58.5t33 -164.5q0 -107 -32.5 -166t-94.5 -59q-61 0 -93 59.5t-32 165.5t31 164.5t94 58.5zM544 378q-29 0 -42 -40.5t-13 -121.5q0 -82 13 -123t43 -41q57 0 57 164
q0 162 -58 162zM840 378q-29 0 -42 -40.5t-13 -121.5q0 -82 13 -123t43 -41q57 0 57 164q0 162 -58 162z" />
    <glyph glyph-name="minute" unicode="&#x2032;" horiz-adv-x="201" 
d="M122 714h90l-115 -224h-58z" />
    <glyph glyph-name="second" unicode="&#x2033;" horiz-adv-x="381" 
d="M218 490l84 224h90l-116 -224h-58zM39 490l83 224h90l-115 -224h-58z" />
    <glyph glyph-name="guilsinglleft" unicode="&#x2039;" horiz-adv-x="283" 
d="M36 271l152 196l58 -31l-116 -172l116 -170l-58 -33l-152 196v14z" />
    <glyph glyph-name="guilsinglright" unicode="&#x203a;" horiz-adv-x="283" 
d="M95 467l152 -196v-14l-152 -196l-58 33l115 170l-115 172z" />
    <glyph glyph-name="exclamdbl" unicode="&#x203c;" horiz-adv-x="460" 
d="M152 201h-59l-21 513h101zM66 55q0 65 57 65q25 0 40.5 -15t15.5 -50q0 -34 -16.5 -49.5t-39.5 -15.5q-26 0 -41.5 16t-15.5 49zM367 201h-59l-21 513h101zM281 55q0 65 57 65q25 0 40.5 -15t15.5 -50q0 -34 -16.5 -49.5t-39.5 -15.5q-26 0 -41.5 16t-15.5 49z" />
    <glyph glyph-name="fraction" unicode="&#x2044;" horiz-adv-x="120" 
d="M289 714l-387 -714h-71l387 714h71z" />
    <glyph glyph-name="nsuperior" unicode="&#x207f;" horiz-adv-x="328" 
d="M185.907 615.187q48.1016 0 72.8027 -27.2988q24.7002 -27.2988 24.7002 -84.8965v-215.991h-53.9512v207.592q0 38.3984 -12.6758 57.5977t-41.2764 19.1992q-41.6016 0 -58.5029 -28.1992q-16.9004 -28.1992 -16.9004 -88.7959v-167.394h-53.9521v322.187h43.5518
l6.5 -43.7979h3.25098q13 23.999 36.0762 36.8984q23.0752 12.8994 50.377 12.8994z" />
    <glyph glyph-name="franc" unicode="&#x20a3;" horiz-adv-x="472" 
d="M115 0v132h-74v65h74v517h311v-76h-226v-250h211v-75h-211v-116h127v-65h-127v-132h-85z" />
    <glyph glyph-name="afii08941" unicode="&#x20a4;" horiz-adv-x="472" 
d="M284 724q41 0 76 -11t66 -30l-32 -67q-25 16 -51.5 24.5t-55.5 8.5q-42 0 -62.5 -27.5t-20.5 -88.5v-97h145v-62h-145v-81h145v-62h-147q-1 -67 -15.5 -101t-46.5 -53h294v-77h-394v71q42 17 60 53t19 107h-81v62h81v81h-81v62h81v89q0 97 40.5 148t124.5 51z" />
    <glyph glyph-name="peseta" unicode="&#x20a7;" horiz-adv-x="677" 
d="M193 714q109 0 161 -53t52 -158q0 -106 -52.5 -165.5t-165.5 -59.5h-31v-278h-83v714h119zM191 639h-34v-286h25q74 0 107 35.5t33 112.5q0 73 -32 105.5t-99 32.5zM550 528v-115h97v-66h-97v-207q0 -38 11 -58.5t40 -20.5q13 0 28 2.5t25 7.5v-65q-13 -7 -31 -11.5
t-43 -4.5q-109 0 -109 140v217h-59v38l62 30l26 113h50z" />
    <glyph glyph-name="Euro" unicode="&#x20ac;" horiz-adv-x="472" 
d="M309 724q77 0 143 -41l-34 -72q-24 16 -51 26t-56 10q-59 0 -93 -50.5t-44 -145.5h178v-60h-183q0 -10 -0.5 -20t-0.5 -20q0 -11 0.5 -21.5t0.5 -21.5h161v-58h-156q10 -92 46 -137t100 -45q31 0 59.5 8t58.5 22v-80q-27 -14 -58 -21t-67 -7q-100 0 -154.5 69t-69.5 191
h-72v58h67q0 12 -0.5 22t-0.5 21t0.5 21t0.5 19h-67v60h72q7 76 33.5 138t73.5 98.5t113 36.5z" />
    <glyph glyph-name="afii61248" unicode="&#x2105;" horiz-adv-x="667" 
d="M182 379q-63 0 -100.5 43t-37.5 126q0 80 37 126t104 46q42 0 82 -20l-17 -52q-32 15 -64 15q-38 0 -57 -29.5t-19 -84.5q0 -114 79 -114q38 0 71 18v-55q-35 -19 -78 -19zM510 714l-306 -714h-69l305 714h70zM622 165q0 -82 -35 -126.5t-95 -44.5q-57 0 -92 45t-35 126
q0 76 33.5 123t95.5 47q57 0 92.5 -44t35.5 -126zM430 165q0 -54 16 -84.5t48 -30.5q31 0 46.5 31t15.5 84q0 55 -15.5 85.5t-46.5 30.5q-32 0 -48 -30.5t-16 -85.5z" />
    <glyph glyph-name="afii61289" unicode="&#x2113;" horiz-adv-x="456" 
d="M268 57q34 0 53 25.5t21 81.5h62q-3 -173 -145 -173q-64 0 -100.5 43t-36.5 133v108q-14 -6 -33.5 -12t-42.5 -13v62q20 6 38.5 12t37.5 14v228q0 74 32 115.5t97 41.5q58 0 90.5 -40t32.5 -113q0 -93 -45 -162t-127 -107v-133q0 -111 66 -111zM303 568q0 93 -51 93
q-28 0 -39.5 -22t-11.5 -69v-203q102 60 102 201z" />
    <glyph glyph-name="afii61352" unicode="&#x2116;" horiz-adv-x="856" 
d="M76 0v714h100l234 -568h4q-2 28 -4 75.5t-2 89.5v403h78v-714h-98l-236 572h-4q2 -32 4.5 -79.5t2.5 -86.5v-406h-79zM681 138q-62 0 -97 44t-35 126q0 81 35.5 125t97.5 44q60 0 96 -43.5t36 -125.5t-35.5 -126t-97.5 -44zM681 195q35 0 51.5 27.5t16.5 85.5
q0 111 -68 111q-66 0 -66 -111q0 -58 16 -85.5t50 -27.5zM569 0v63h223v-63h-223z" />
    <glyph glyph-name="trademark" unicode="&#x2122;" horiz-adv-x="669" 
d="M282 362v352h80l86 -275l88 275h77v-352h-54v203q0 11 1 34t2 37h-4l-92 -274h-44l-88 275h-4q1 -17 2 -38t1 -29v-208h-51zM105 362v301h-91v51h236v-51h-92v-301h-53z" />
    <glyph glyph-name="uni2126" unicode="&#x2126;" horiz-adv-x="624" 
d="M313 647q-168 0 -168 -249q0 -106 28.5 -188t92.5 -142v-68h-235v77h144q-53 49 -86 130.5t-33 195.5q0 157 66.5 239t190.5 82t189.5 -83t65.5 -237q0 -116 -33 -197.5t-86 -129.5h144v-77h-235v68q67 61 94 142t27 188q0 119 -40.5 184t-125.5 65z" />
    <glyph glyph-name="estimated" unicode="&#x212e;" horiz-adv-x="619" 
d="M309 -17q-85 0 -142.5 39t-87 102t-29.5 135t23 124t60.5 86t83.5 50t92 16q73 0 132 -33.5t93 -95.5t34 -147h-404v-174q22 -23 61 -41.5t84 -18.5q73 0 116 30t77 84l35 -20q-23 -37 -52.5 -68t-71.5 -49.5t-104 -18.5zM455 301v135q-19 20 -57 39t-90 19
q-50 0 -85.5 -17t-58.5 -40v-136h291z" />
    <glyph glyph-name="oneeighth" unicode="&#x215b;" horiz-adv-x="769" 
d="M129 0l387 714h71l-387 -714h-71zM148 286v267q0 23 1 45t3 45q-9 -7 -17 -14.5t-15 -13.5l-57 -42l-35 45l126 96h61v-428h-67zM586 -9q-64 0 -100.5 32t-36.5 88q0 36 19.5 62.5t57.5 48.5q-34 22 -49 46t-15 56q0 52 35 81.5t90 29.5q54 0 88 -28.5t34 -80.5
q0 -33 -18.5 -57.5t-52.5 -42.5q83 -36 83 -112q0 -56 -37 -89.5t-98 -33.5zM587 250q28 13 43.5 30.5t15.5 42.5q0 26 -16.5 42t-44.5 16q-27 0 -43.5 -16.5t-16.5 -42.5q0 -24 16.5 -41t45.5 -31zM584 45q35 0 53.5 17.5t18.5 48.5q0 27 -16.5 46t-50.5 34l-12 5
q-31 -16 -47.5 -36t-16.5 -48q0 -29 19 -48t52 -19z" />
    <glyph glyph-name="threeeighths" unicode="&#x215c;" horiz-adv-x="769" 
d="M136 278q-62 0 -111 26v64q54 -31 111 -31q44 0 64 18.5t20 50.5q0 74 -94 74h-41v55h39q42 0 63.5 19.5t21.5 51.5q0 29 -18 44.5t-47 15.5q-24 0 -45 -9.5t-43 -27.5l-34 46q28 24 58.5 36.5t67.5 12.5q60 0 93 -30t33 -80q0 -38 -18 -63.5t-50 -38.5v-3
q81 -22 81 -106q0 -57 -40.5 -91t-110.5 -34zM146 0l388 714h71l-388 -714h-71zM589 -9q-65 0 -101 32t-36 88q0 36 19.5 62.5t57.5 48.5q-33 22 -48.5 46t-15.5 56q0 52 35.5 81.5t90.5 29.5q53 0 87.5 -28.5t34.5 -80.5q0 -33 -18.5 -57.5t-52.5 -42.5q83 -37 83 -112
q0 -56 -37.5 -89.5t-98.5 -33.5zM590 250q28 13 44 30.5t16 42.5q0 26 -17 42t-44 16t-43.5 -16.5t-16.5 -42.5q0 -24 16.5 -41t44.5 -31zM588 45q35 0 53.5 17.5t18.5 48.5q0 27 -17 46t-51 34l-11 5q-31 -16 -47.5 -36t-16.5 -48q0 -29 18.5 -48t52.5 -19z" />
    <glyph glyph-name="fiveeighths" unicode="&#x215d;" horiz-adv-x="769" 
d="M144 0l387 714h71l-387 -714h-71zM143 277q-57 0 -103 22v65q44 -30 98 -30q40 0 61.5 22t21.5 66q0 38 -21.5 58t-58.5 20q-17 0 -31 -3t-28 -7l-35 24l17 200h201v-58h-149l-10 -106q12 2 23.5 3.5t23.5 1.5q61 0 98.5 -35.5t37.5 -96.5q0 -69 -38 -107.5t-108 -38.5z
M589 -9q-65 0 -101 32t-36 88q0 36 19.5 62.5t57.5 48.5q-34 22 -49 46t-15 56q0 52 35.5 81.5t89.5 29.5t88.5 -28.5t34.5 -80.5q0 -63 -72 -100q84 -37 84 -112q0 -56 -37.5 -89.5t-98.5 -33.5zM590 250q28 13 44 30.5t16 42.5q0 26 -17 42t-44 16t-44 -16.5t-17 -42.5
q0 -24 17 -41t45 -31zM588 45q34 0 53 17.5t19 48.5q0 27 -17 46t-51 34l-11 5q-31 -16 -48 -36t-17 -48q0 -29 19 -48t53 -19z" />
    <glyph glyph-name="seveneighths" unicode="&#x215e;" horiz-adv-x="769" 
d="M117 0l387 714h72l-388 -714h-71zM88 286l150 369h-191v59h260v-49l-147 -379h-72zM588 -9q-64 0 -100.5 32t-36.5 88q0 36 19.5 62.5t57.5 48.5q-33 22 -48.5 46t-15.5 56q0 52 35.5 81.5t89.5 29.5t88.5 -28.5t34.5 -80.5q0 -63 -72 -100q84 -37 84 -112
q0 -56 -37 -89.5t-99 -33.5zM589 250q28 13 44 30.5t16 42.5q0 26 -17 42t-44 16t-44 -16.5t-17 -42.5q0 -24 16.5 -41t45.5 -31zM587 45q35 0 53.5 17.5t18.5 48.5q0 27 -16.5 46t-51.5 34l-11 5q-32 -16 -48 -36t-16 -48q0 -29 18.5 -48t52.5 -19z" />
    <glyph glyph-name="cyrillicbreve" horiz-adv-x="548" 
d="M431 756q-5 -75 -43.5 -113t-114.5 -38q-78 0 -114.5 36.5t-41.5 114.5h73q4 -53 23 -75t61 -22q40 0 60 23t24 74h73z" />
    <glyph glyph-name="caroncommaaccent" horiz-adv-x="471" 
d="M290 760v-10q-4 -20 -15 -48.5t-24 -56t-26 -45.5h-45v11q4 13 9.5 42t10 59t5.5 48h85z" />
    <glyph glyph-name="commaaccent" unicode="&#x326;" 
d="M58 -61v-10q-10 -34 -30 -76.5t-43 -73.5h-46v11q6 18 13 45t13 55t8 49h85z" />
    <glyph glyph-name="commaaccentrotate" horiz-adv-x="471" 
d="M298 766v-11q-8 -18 -16.5 -45.5t-15 -55.5t-7.5 -48h-85v10q5 22 16.5 49t27 54t32.5 47h48z" />
    <glyph glyph-name="uni2074" unicode="&#x2074;" horiz-adv-x="325" 
d="M310 508h-54v-93h-66v93h-172v50l171 288h67v-281h54v-57zM190 565v113v46t2 39q-4 -10 -12.5 -26t-17.5 -32l-80 -140h108z" />
    <glyph glyph-name="uni2075" unicode="&#x2075;" horiz-adv-x="325" 
d="M263 843v-58h-149l-10 -106q12 2 24 3.5t24 1.5q61 0 98 -35t37 -97q0 -69 -37.5 -107.5t-108.5 -38.5q-27 0 -54 5t-49 16v65q45 -28 99 -28q40 0 61.5 21t21.5 66q0 37 -21.5 57.5t-59.5 20.5q-17 0 -31 -3.5t-28 -7.5l-34 25l16 200h201z" />
    <glyph glyph-name="uni2077" unicode="&#x2077;" horiz-adv-x="325" 
d="M71 415l149 368h-191v60h260v-49l-147 -379h-71z" />
    <glyph glyph-name="uni2078" unicode="&#x2078;" horiz-adv-x="325" 
d="M164 851q54 0 88 -28.5t34 -80.5q0 -64 -71 -100q83 -36 83 -112q0 -56 -37 -89.5t-98 -33.5q-65 0 -101 32t-36 88q0 36 19.5 62.5t57.5 48.5q-34 22 -49 46t-15 57q0 52 35.5 81t89.5 29zM163 797q-27 0 -43.5 -16.5t-16.5 -41.5t16.5 -42t44.5 -31q28 13 44 30.5
t16 42.5q0 26 -16.5 42t-44.5 16zM155 612q-64 -30 -64 -83q0 -30 19 -49t52 -19q35 0 53.5 18t18.5 49q0 51 -67 79z" />
    <glyph glyph-name="uni2000" unicode="&#x2000;" horiz-adv-x="500" 
 />
    <glyph glyph-name="uni2001" unicode="&#x2001;" horiz-adv-x="1000" 
 />
    <glyph glyph-name="uni2002" unicode="&#x2002;" horiz-adv-x="500" 
 />
    <glyph glyph-name="uni2003" unicode="&#x2003;" horiz-adv-x="1000" 
 />
    <glyph glyph-name="uni2004" unicode="&#x2004;" horiz-adv-x="333" 
 />
    <glyph glyph-name="uni2005" unicode="&#x2005;" horiz-adv-x="250" 
 />
    <glyph glyph-name="uni2006" unicode="&#x2006;" horiz-adv-x="167" 
 />
    <glyph glyph-name="uni2007" unicode="&#x2007;" horiz-adv-x="472" 
 />
    <glyph glyph-name="uni2008" unicode="&#x2008;" horiz-adv-x="239" 
 />
    <glyph glyph-name="uni2009" unicode="&#x2009;" horiz-adv-x="200" 
 />
    <glyph glyph-name="uni200A" unicode="&#x200a;" horiz-adv-x="100" 
 />
    <glyph glyph-name="uni200B" unicode="&#x200b;" 
 />
    <glyph glyph-name="uniFEFF" unicode="&#xfeff;" 
 />
    <glyph glyph-name="uniFFFC" unicode="&#xfffc;" horiz-adv-x="999" 
d="M820 694v47h148v-148h-46v101h-102zM629 694v47h133v-47h-133zM438 694v47h133v-47h-133zM247 694v47h132v-47h-132zM40 593v148h148v-47h-101v-101h-47zM968 402h-46v132h46v-132zM87 402h-47v132h47v-132zM418 307q0 -69 -32 -108t-93 -39t-92 39t-31 108
q0 70 31 108.5t92 38.5q63 0 94 -38t31 -109zM727 161q-24 0 -39 5v48q10 -2 18 -3t15 -1q42 0 42 47v193h54v-194q0 -47 -24 -71t-66 -24zM462 450h84q53 0 80.5 -16t27.5 -57q0 -24 -11 -39.5t-33 -19.5v-4q52 -11 52 -67q0 -40 -26.5 -61.5t-72.5 -21.5h-101v286z
M224 307q0 -100 69 -100t69 100t-69 100t-69 -100zM516 335h41q25 0 34.5 9t9.5 25q0 19 -10.5 27t-36.5 8h-38v-69zM87 210h-47v133h47v-133zM968 210h-46v133h46v-133zM516 291v-81h46q26 0 35.5 12.5t9.5 30.5q0 17 -10.5 27.5t-36.5 10.5h-44zM87 19h-47v132h47v-132z
M968 19h-46v132h46v-132zM40 -187v148h47v-102h101v-46h-148zM820 -187v46h102v102h46v-148h-148zM438 -187v46h133v-46h-133zM247 -187v46h132v-46h-132zM629 -187v46h133v-46h-133z" />
    <glyph glyph-name="uniFFFD" unicode="&#xfffd;" horiz-adv-x="999" 
d="M498 760l459 -458l-459 -458l-458 458zM530 179v23q0 26 12 42t41 38q46 37 66 67.5t20 77.5q0 67 -47.5 104t-124.5 37q-38 0 -84 -14t-80 -34l40 -87q37 19 68 29t54 10q31 0 46 -14t15 -37q0 -29 -13.5 -46.5t-45.5 -42.5q-37 -29 -53.5 -56.5t-16.5 -67.5v-29h103z
M414 45q0 -66 69 -66q31 0 49.5 17t18.5 49t-18.5 49.5t-49.5 17.5q-69 0 -69 -67z" />
    <glyph glyph-name="uni01F0" unicode="&#x1f0;" horiz-adv-x="225" 
d="M32 -240q-35 0 -58 10v72q22 -9 45 -9q25 0 38.5 19.5t13.5 63.5v621h83v-618q0 -159 -122 -159zM71 606q-17 33 -46 74.5t-55 74.5v11h50q21 -17 45 -42.5t47 -50.5q26 29 46.5 49.5t46.5 43.5h50v-11q-17 -20 -36.5 -46t-37.5 -53t-29 -50h-81z" />
    <glyph glyph-name="uni02BC" unicode="&#x2bc;" horiz-adv-x="185" 
d="M155 714l7 -11q-14 -59 -34.5 -119t-44.5 -116h-63q16 59 28.5 126.5t18.5 119.5h88z" />
    <glyph glyph-name="uni03D1" unicode="&#x3d1;" horiz-adv-x="542" 
d="M256 769q89 0 141.5 -75.5t67.5 -220.5h65v-72h-62q1 -10 1.5 -21t0.5 -22q-2 -174 -56.5 -271t-168.5 -97q-86 0 -125 46t-39 123q0 23 2.5 49.5t5 51t2.5 40.5q0 24 -7.5 34t-23.5 10q-18 0 -36 -10l-17 64q13 7 34 12t43 5q45 0 67 -26.5t22 -74.5q0 -33 -4.5 -76.5
t-4.5 -74.5q0 -47 19.5 -75t62.5 -28q68 0 102.5 73t35.5 225q0 10 -0.5 21.5t-0.5 21.5q-137 1 -208 58t-71 155q0 67 37.5 111t114.5 44zM256 699q-70 0 -70 -88q0 -64 48 -101t146 -37q-6 61 -21 112.5t-41 82.5t-62 31z" />
    <glyph glyph-name="uni03D2" unicode="&#x3d2;" horiz-adv-x="447" 
d="M222 372q22 77 43 140.5t37 99.5q17 48 38 78t66 30q23 0 41 -8v-71q-11 3 -22 3q-16 0 -29 -16t-30 -58q-12 -28 -29 -74.5t-36.5 -103.5t-36.5 -118v-274h-86v275l-178 439h92z" />
    <glyph glyph-name="uni03D6" unicode="&#x3d6;" horiz-adv-x="656" 
d="M635 537v-71h-92q20 -60 30.5 -115.5t10.5 -113.5q0 -121 -39 -184t-109 -63q-84 0 -108 86h-4q-13 -44 -38.5 -65t-69.5 -21q-71 0 -110 63.5t-39 183.5q0 59 11.5 115t32.5 114h-101v35l55 36h570zM462 466h-270q-20 -58 -31 -110t-11 -114q0 -93 19 -135.5t54 -42.5
t49 38t14 116v96h80v-96q0 -82 15 -118t47 -36q34 0 53.5 43t19.5 134q0 60 -9.5 113.5t-29.5 111.5z" />
    <glyph glyph-name="uni1E3E" unicode="&#x1e3e;" horiz-adv-x="775" 
d="M348 0l-189 607h-4q3 -44 4.5 -84.5t1.5 -72.5v-450h-81v714h123l183 -584h3l183 584h124v-714h-84v451q0 31 1.5 71.5t3.5 84.5h-4l-190 -607h-75zM541 935v-9q-12 -21 -36 -49.5t-51 -56t-49 -45.5h-54v11q26 37 50 76t41 73h99z" />
    <glyph glyph-name="uni1E3F" unicode="&#x1e3f;" horiz-adv-x="758" 
d="M547 547q73 0 108 -46.5t35 -143.5v-357h-83v345q0 67 -20.5 98t-60.5 31q-57 0 -81 -45.5t-24 -132.5v-296h-82v347q0 67 -19.5 97t-60.5 30q-62 0 -83.5 -53t-21.5 -141v-280h-83v537h67l10 -73h5q19 41 52 62t76 21q50 0 81.5 -23.5t43.5 -63.5h6q41 87 135 87z
M542 766v-9q-12 -21 -36 -49.5t-51 -56t-49 -45.5h-54v11q26 37 50 76t41 73h99z" />
    <glyph glyph-name="uni1E00" unicode="&#x1e00;" horiz-adv-x="507" 
d="M416 0l-62 222h-202l-62 -222h-90l205 715h95l206 -715h-90zM335 301l-61 229q-5 22 -12 52t-10 52q-10 -54 -22 -104l-60 -229h165zM253 -265q-49 0 -77.5 27.5t-28.5 75.5q0 46 28.5 74t77.5 28q47 0 77 -27.5t30 -73.5q0 -47 -29.5 -75.5t-77.5 -28.5zM253 -216
q23 0 38.5 15t15.5 39t-14.5 38t-39.5 14t-40 -14t-15 -38t13.5 -39t41.5 -15z" />
    <glyph glyph-name="uni1E01" unicode="&#x1e01;" horiz-adv-x="460" 
d="M236 546q82 0 118.5 -46.5t36.5 -136.5v-363h-63l-13 75h-3q-25 -43 -57.5 -64t-82.5 -21q-65 0 -99.5 45.5t-34.5 114.5q0 80 51 123.5t150 47.5l70 3v34q0 64 -20.5 92t-63.5 28q-29 0 -57.5 -9.5t-58.5 -25.5l-26 62q32 19 71 30t82 11zM309 265l-57 -3
q-69 -3 -99 -31t-30 -80q0 -48 20.5 -70.5t54.5 -22.5q50 0 80.5 40t30.5 115v52zM218 -265q-49 0 -77.5 27.5t-28.5 75.5q0 46 28.5 74t77.5 28q47 0 77 -27.5t30 -73.5q0 -47 -29.5 -75.5t-77.5 -28.5zM218 -216q23 0 38.5 15t15.5 39t-14.5 38t-39.5 14t-40 -14t-15 -38
t13.5 -39t41.5 -15z" />
    <glyph glyph-name="uni02F3" unicode="&#x2f3;" horiz-adv-x="350" 
d="M175 -265q-49 0 -77.5 27.5t-28.5 75.5q0 46 28.5 74t77.5 28q47 0 77 -27.5t30 -73.5q0 -47 -29.5 -75.5t-77.5 -28.5zM175 -216q23 0 38.5 15t15.5 39t-14.5 38t-39.5 14t-40 -14t-15 -38t13.5 -39t41.5 -15z" />
    <glyph glyph-name="Ohorn" unicode="&#x1a0;" horiz-adv-x="622" 
d="M566 358q0 -105 -27 -188.5t-83.5 -131.5t-145.5 -48q-91 0 -147.5 49t-83 132.5t-26.5 187.5q0 178 64 271.5t194 93.5q129 0 193 -102q36 16 46.5 52t11.5 86h80l7 -12q-7 -74 -35 -119t-81 -65q17 -41 25 -92.5t8 -113.5zM143 358q0 -141 41.5 -216t125.5 -75
t125 74.5t41 216.5t-41 215.5t-124 73.5q-86 0 -127 -74.5t-41 -214.5z" />
    <glyph glyph-name="ohorn" unicode="&#x1a1;" horiz-adv-x="511" 
d="M447 269q0 -133 -53 -206t-149 -73q-91 0 -145 73t-54 206q0 136 52 207t149 71q92 0 144 -72q35 13 46.5 50t12.5 91h80l7 -12q-8 -79 -36 -122.5t-79 -61.5q25 -62 25 -151zM131 269q0 -208 116 -208q60 0 88 52.5t28 155.5t-28 154.5t-88 51.5q-61 0 -88.5 -51.5
t-27.5 -154.5z" />
    <glyph glyph-name="Uhorn" unicode="&#x1af;" horiz-adv-x="641" 
d="M510 714v-98q46 7 60.5 46.5t14.5 97.5h80l7 -12q-9 -88 -47 -136.5t-115 -57.5v-307q0 -122 -53 -189.5t-163 -67.5q-107 0 -163.5 67t-56.5 190v467h86v-470q0 -87 34.5 -132t100.5 -45q67 0 98 46t31 132v469h86z" />
    <glyph glyph-name="uhorn" unicode="&#x1b0;" horiz-adv-x="566" 
d="M586 616l6 -12q-8 -88 -44.5 -136t-113.5 -58v-410h-68l-10 72h-5q-20 -40 -55 -61t-77 -21q-80 0 -115.5 51.5t-35.5 144.5v350h83v-337q0 -70 20 -103t62 -33q64 0 90.5 46.5t26.5 147.5v279h84v-64q44 8 58 47t14 97h80z" />
    <glyph glyph-name="hook" 
d="M-191 731q0 -37 -20 -58.5t-57 -30.5l-6 -51h-48l-6 82q32 3 51 16.5t19 36.5q0 22 -15.5 32t-43.5 10q-23 0 -45 -6v53q24 7 59 7q54 0 83 -23t29 -68z" />
    <glyph glyph-name="uni0400" unicode="&#x400;" horiz-adv-x="448" 
d="M399 0h-319v714h319v-76h-233v-227h219v-76h-219v-258h233v-77zM202 934q11 -23 27 -50.5t33 -53.5t31 -45v-11h-54q-20 18 -47.5 45.5t-52 56t-36.5 49.5v9h99z" />
    <glyph glyph-name="uni040D" unicode="&#x40d;" horiz-adv-x="632" 
d="M80 714h83v-416q0 -34 -1.5 -77t-3.5 -85h4l288 578h102v-714h-82v422q0 38 2 82.5t5 79.5h-4l-290 -584h-103v714zM284 934q11 -23 27 -50.5t33 -53.5t31 -45v-11h-54q-20 18 -47.5 45.5t-52 56t-36.5 49.5v9h99z" />
    <glyph glyph-name="uni0450" unicode="&#x450;" horiz-adv-x="462" 
d="M238 546q59 0 99 -31t60.5 -85t20.5 -122v-56h-288q3 -191 134 -191q69 0 133 37v-74q-32 -17 -65.5 -25.5t-74.5 -8.5q-71 0 -117.5 35t-69.5 97t-23 143q0 135 49.5 208t141.5 73zM238 478q-98 0 -107 -160h207q-1 67 -25 113.5t-75 46.5zM199 766q11 -23 27 -50.5
t33 -53.5t31 -45v-11h-54q-20 18 -47.5 45.5t-52 56t-36.5 49.5v9h99z" />
    <glyph glyph-name="uni045D" unicode="&#x45d;" horiz-adv-x="525" 
d="M151 537v-308q0 -27 -1.5 -59.5t-3.5 -62.5l211 430h96v-537h-79v300q0 29 1 64.5t3 64.5l-211 -429h-96v537h80zM220 766q11 -23 27 -50.5t33 -53.5t31 -45v-11h-54q-20 18 -47.5 45.5t-52 56t-36.5 49.5v9h99z" />
    <glyph glyph-name="uni0460" unicode="&#x460;" horiz-adv-x="764" 
d="M190 -2q-74 167 -118.5 352t-53.5 364h89q3 -102 20.5 -208t43.5 -207t57 -187h3q6 28 15.5 63t20.5 67l73 235q-9 59 -14 119t-6 118h86q2 -101 18 -206.5t43 -206.5t64 -191h2q59 135 90 289.5t38 314.5h87q-10 -179 -53.5 -363t-129.5 -353h-67q-39 80 -72.5 171
t-52.5 173l-105 -344h-78z" />
    <glyph glyph-name="uni0461" unicode="&#x461;" horiz-adv-x="687" 
d="M656 537q-4 -141 -44 -278.5t-107 -258.5h-76q-25 53 -50 120.5t-39 125.5l-101 -246h-74q-61 121 -97.5 260.5t-41.5 276.5h81q3 -78 16.5 -159.5t35 -156.5t46.5 -134h3q10 27 22 57.5t23 55.5l60 139q-10 51 -15.5 100.5t-7.5 97.5h80q2 -73 15 -153t34 -157t47 -141
h4q29 58 52 131t37.5 155t16.5 165h80z" />
    <glyph glyph-name="uni0462" unicode="&#x462;" horiz-adv-x="535" 
d="M114 0v553h-108v68h108v125h86v-125h151v-68h-151v-140h67q119 0 173.5 -52t54.5 -151q0 -97 -55.5 -153.5t-165.5 -56.5h-160zM200 75h70q138 0 138 133q0 68 -34.5 98.5t-108.5 30.5h-65v-262z" />
    <glyph glyph-name="uni0463" unicode="&#x463;" horiz-adv-x="489" 
d="M177 648v-111h115v-66h-115v-156h83q189 0 189 -155q0 -76 -47 -118t-139 -42h-169v471h-87v66h87v111h83zM259 248h-82v-181h82q50 0 78 22t28 68q0 47 -26.5 69t-79.5 22z" />
    <glyph glyph-name="uni0464" unicode="&#x464;" horiz-adv-x="736" 
d="M547 -10q-87 0 -144 45.5t-85.5 123t-31.5 174.5h-120v-333h-86v714h86v-304h122q8 92 39.5 162.5t88 111t139.5 41.5q88 0 156 -42l-31 -73q-28 17 -59 27.5t-66 10.5q-55 0 -93 -31.5t-59.5 -85.5t-27.5 -121h251v-77h-252q2 -75 22.5 -135t60.5 -95.5t101 -35.5
q35 0 67.5 8.5t63.5 22.5v-78q-30 -15 -64.5 -22.5t-77.5 -7.5z" />
    <glyph glyph-name="uni0465" unicode="&#x465;" horiz-adv-x="611" 
d="M462 -10q-194 0 -205 252h-103v-242h-83v537h83v-227h104q9 116 62.5 176.5t144.5 60.5q32 0 62 -7.5t55 -19.5l-25 -68q-18 10 -42.5 16.5t-47.5 6.5q-114 0 -126 -165h177v-68h-178q8 -180 127 -180q30 0 56.5 7.5t51.5 20.5v-72q-21 -14 -52 -21t-61 -7z" />
    <glyph glyph-name="uni0466" unicode="&#x466;" horiz-adv-x="566" 
d="M330 714l237 -714h-90l-105 328h-49v-328h-80v328h-51l-103 -328h-90l235 714h96zM282 634q-4 -21 -11 -46t-14 -46l-41 -140h132l-43 143q-6 20 -12.5 42t-10.5 47z" />
    <glyph glyph-name="uni0467" unicode="&#x467;" horiz-adv-x="480" 
d="M290 537l187 -537h-84l-78 234h-38v-234h-75v234h-38l-77 -234h-84l187 537h100zM242 474h-4q-3 -16 -7.5 -30t-9.5 -31l-34 -110h105l-33 109q-6 19 -10.5 34.5t-6.5 27.5z" />
    <glyph glyph-name="uni0468" unicode="&#x468;" horiz-adv-x="788" 
d="M553 714l236 -714h-91l-104 329h-49v-329h-80v329h-51l-102 -329h-91l109 334h-164v-334h-86v714h86v-303h190l100 303h97zM503 634q-4 -23 -10 -45.5t-14 -44.5l-41 -141h131l-43 143q-6 21 -12 43t-11 45z" />
    <glyph glyph-name="uni0469" unicode="&#x469;" horiz-adv-x="674" 
d="M485 537l186 -537h-83l-79 236h-37v-236h-75v236h-38l-78 -236h-83l85 243h-129v-243h-83v537h83v-223h155l77 223h99zM436 474h-4q-4 -20 -10.5 -45t-15.5 -50l-24 -75h104l-24 77q-4 13 -9.5 31.5t-10 35.5t-6.5 26z" />
    <glyph glyph-name="uni046A" unicode="&#x46a;" horiz-adv-x="609" 
d="M543 714v-58l-159 -247q49 -5 79.5 -28t49 -63t32.5 -96l58 -222h-91l-52 216q-12 47 -24.5 74t-33 39t-56.5 13v-342h-84v342q-36 -1 -56 -13t-32 -39t-24 -74l-52 -216h-92l58 222q14 58 32 98t48 62t80 27l-158 247v58h477zM439 639h-269l134 -220z" />
    <glyph glyph-name="uni046B" unicode="&#x46b;" horiz-adv-x="547" 
d="M481 537v-48l-132 -178q44 -5 69.5 -24.5t41 -51t28.5 -72.5l52 -163h-85l-48 168q-11 32 -21.5 50t-28 25.5t-46.5 7.5v-251h-76v250q-31 0 -48 -8t-27 -26t-19 -48l-50 -168h-84l51 163q12 42 27.5 73.5t41 50.5t69.5 24l-132 178v48h417zM383 471h-220l110 -152z" />
    <glyph glyph-name="uni046C" unicode="&#x46c;" horiz-adv-x="839" 
d="M775 714v-58l-159 -253q52 -5 82 -29t48 -64.5t32 -93.5l58 -216h-90l-53 211q-11 47 -24 74t-34 38t-56 12v-335h-84v335q-35 -1 -55 -11t-33 -37t-25 -76l-52 -211h-90l56 211q11 42 24 72.5t29 50.5h-183v-334h-86v714h86v-303h285l-152 245v58h476zM671 639h-269
l134 -225z" />
    <glyph glyph-name="uni046D" unicode="&#x46d;" horiz-adv-x="748" 
d="M684 537v-48l-133 -184q43 -5 69 -23.5t41.5 -49t28.5 -71.5l52 -161h-84l-50 166q-10 30 -20.5 47.5t-27 25t-46.5 7.5v-246h-76v245q-30 0 -47 -7.5t-27 -24.5t-20 -47l-51 -166h-83l52 163q17 56 36 81h-144v-244h-83v537h83v-223h240l-128 175v48h418zM585 471h-220
l110 -155z" />
    <glyph glyph-name="uni046E" unicode="&#x46e;" horiz-adv-x="477" 
d="M335 853q12 0 21.5 -2t16.5 -4v-57q-10 6 -24 6q-19 0 -38 -22.5t-37 -54.5q66 -14 101 -59t35 -111q0 -70 -37 -115.5t-102 -59.5v-4q75 -10 114 -53.5t39 -116.5q0 -96 -56.5 -148.5t-160.5 -55.5q-53 -2 -74 -17t-21 -43q0 -58 75 -58q38 0 65 3.5t56 3.5
q25 0 42.5 -3.5t29.5 -9.5v-77q-10 6 -28 10.5t-45 4.5q-32 0 -59.5 -3t-67.5 -3q-82 0 -118 37t-36 96q0 129 166 135q74 2 108.5 33t34.5 98t-43 98.5t-126 31.5h-67v75h66q157 0 157 131q0 55 -30 82.5t-83 27.5q-40 0 -72.5 -14.5t-57.5 -36.5l-42 61q54 47 127 60
q-10 17 -25 39.5t-31 44.5t-29 37v10h58q19 -17 40 -42t44 -55q23 39 51 69.5t63 30.5z" />
    <glyph glyph-name="uni046F" unicode="&#x46f;" horiz-adv-x="395" 
d="M292 663q10 0 20 -2t17 -5v-55q-10 5 -23 5q-36 0 -73 -68q49 -13 75.5 -47t26.5 -84q0 -44 -22.5 -75t-61.5 -45v-4q48 -14 75 -46t27 -83q0 -70 -43 -112t-134 -46q-48 -2 -65.5 -16t-17.5 -39q0 -24 14.5 -36t49.5 -12q31 0 58 2.5t53 2.5q20 0 34 -3.5t24 -8.5v-74
q-9 7 -25 10.5t-33 3.5q-23 0 -55.5 -2.5t-63.5 -2.5q-70 0 -102.5 33t-32.5 87q0 55 35.5 89t110.5 36q55 3 82.5 25t27.5 68q0 43 -29 65.5t-83 22.5h-47v67h39q46 0 75 21.5t29 64.5q0 77 -89 77q-28 0 -53 -7.5t-50 -20.5l-31 63q37 22 82 29q-16 28 -36 55.5t-40 52.5
v11h58q18 -17 38.5 -41.5t43.5 -54.5q23 40 51 69.5t64 29.5z" />
    <glyph glyph-name="uni0470" unicode="&#x470;" horiz-adv-x="686" 
d="M626 714v-231q0 -81 -22.5 -141.5t-75 -94t-143.5 -33.5v-214h-84v214q-91 0 -143.5 33t-74.5 92.5t-22 139.5v235h85v-235q0 -57 13.5 -99.5t47.5 -66t94 -23.5v424h84v-424q84 0 119 44t35 145v235h87z" />
    <glyph glyph-name="uni0471" unicode="&#x471;" horiz-adv-x="617" 
d="M352 760v-696q64 6 97 59t33 163q0 63 -7.5 124t-23.5 127h82q17 -69 25 -130t8 -122q0 -144 -57.5 -216t-156.5 -78v-231h-81v231q-97 3 -151 67t-54 199v280h82v-278q0 -99 32.5 -145t90.5 -51v697h81z" />
    <glyph glyph-name="uni0472" unicode="&#x472;" horiz-adv-x="624" 
d="M571 358q0 -105 -27.5 -188.5t-84.5 -131.5t-147 -48q-92 0 -149 49t-83.5 132.5t-26.5 187.5q0 178 65 271.5t195 93.5q89 0 146.5 -48t84.5 -130.5t27 -187.5zM313 648q-79 0 -121.5 -63t-48.5 -184h337q-6 121 -47 184t-120 63zM313 67q80 0 122 66.5t46 192.5h-338
q4 -124 46 -191.5t124 -67.5z" />
    <glyph glyph-name="uni0473" unicode="&#x473;" horiz-adv-x="499" 
d="M453 269q0 -133 -54 -206t-151 -73q-92 0 -147 73t-55 206q0 136 53 207t151 71q66 0 111 -36t68.5 -99t23.5 -143zM249 475q-56 0 -84.5 -42t-33.5 -124h236q-5 79 -34 122.5t-84 43.5zM249 61q111 0 119 182h-237q2 -87 30.5 -134.5t87.5 -47.5z" />
    <glyph glyph-name="uni0474" unicode="&#x474;" horiz-adv-x="526" 
d="M509 646q-29 0 -43.5 -29t-30.5 -84l-139 -533h-99l-197 714h90l122 -458q11 -40 19.5 -82t14.5 -81q6 35 14.5 76.5t16.5 74.5l77 303q17 65 34 102.5t41 54t62 17.5q16 0 29.5 -2.5t23.5 -7.5v-73q-19 8 -35 8z" />
    <glyph glyph-name="uni0475" unicode="&#x475;" horiz-adv-x="438" 
d="M406 544q14 0 25 -2.5t19 -5.5v-68q-6 4 -14 5.5t-16 1.5q-22 -1 -34 -20.5t-26 -70.5l-105 -384h-98l-154 537h85l89 -330q9 -34 16 -65t11 -58h4q3 25 9.5 57.5t16.5 67.5l48 183q16 59 31.5 92t37 46.5t55.5 13.5z" />
    <glyph glyph-name="uni0476" unicode="&#x476;" horiz-adv-x="526" 
d="M509 646q-29 0 -43.5 -29t-30.5 -84l-139 -533h-99l-197 714h90l122 -458q11 -40 19.5 -82t14.5 -81q6 35 14.5 76.5t16.5 74.5l77 303q17 65 34 102.5t41 54t62 17.5q16 0 29.5 -2.5t23.5 -7.5v-73q-19 8 -35 8zM295 935q9 -20 23 -47t30 -54.5t28 -47.5v-11h-41
q-21 17 -47 45t-48 57.5t-32 48.5v9h87zM142 935q17 -38 38 -77.5t42 -71.5v-11h-44q-20 18 -45 45.5t-47 56.5t-33 49v9h89z" />
    <glyph glyph-name="uni0477" unicode="&#x477;" horiz-adv-x="438" 
d="M406 544q14 0 25 -2.5t19 -5.5v-68q-6 4 -14 5.5t-16 1.5q-22 -1 -34 -20.5t-26 -70.5l-105 -384h-98l-154 537h85l89 -330q9 -34 16 -65t11 -58h4q3 25 9.5 57.5t16.5 67.5l48 183q16 59 31.5 92t37 46.5t55.5 13.5zM254 766q9 -20 23 -47t30 -54.5t28 -47.5v-11h-41
q-21 17 -47 45t-48 57.5t-32 48.5v9h87zM101 766q17 -38 38 -77.5t42 -71.5v-11h-44q-20 18 -45 45.5t-47 56.5t-33 49v9h89z" />
    <glyph glyph-name="uni0478" unicode="&#x478;" horiz-adv-x="1010" 
d="M551 358q0 -105 -26 -188.5t-80.5 -131.5t-141.5 -48q-89 0 -144 49t-80.5 132.5t-25.5 187.5q0 178 62.5 271.5t187.5 93.5q87 0 141.5 -48t80.5 -130.5t26 -187.5zM142 358q0 -141 40 -216t120 -75t119.5 74.5t39.5 216.5t-39 215.5t-119 73.5q-82 0 -121.5 -74
t-39.5 -215zM600 537h87l87 -305q8 -32 16 -64.5t13 -64.5h4q5 27 13 60t18 69l82 305h86l-180 -616q-24 -80 -61 -120.5t-98 -40.5q-16 0 -29.5 2t-27.5 6v71q10 -2 22 -4t23 -2q34 0 53.5 23.5t35.5 76.5l20 69z" />
    <glyph glyph-name="uni0479" unicode="&#x479;" horiz-adv-x="899" 
d="M447 269q0 -127 -51 -203t-151 -76q-95 0 -147 75.5t-52 203.5q0 133 50.5 205.5t150.5 72.5q93 0 146.5 -71t53.5 -207zM131 269q0 -101 28 -154t88 -53q59 0 87.5 53t28.5 154t-28.5 153.5t-87.5 52.5q-61 0 -88.5 -52.5t-27.5 -153.5zM490 537h87l86 -305
q9 -32 17 -64.5t13 -64.5h4q4 27 12 60.5t18 69.5l83 304h86l-180 -616q-24 -80 -60.5 -120.5t-98.5 -40.5q-16 0 -30 2t-27 6v71q10 -2 22 -4t23 -2q34 0 53.5 23.5t35.5 76.5l20 69z" />
    <glyph glyph-name="uni047A" unicode="&#x47a;" horiz-adv-x="660" 
d="M331 -55q-21 0 -36 12t-19 38q-108 18 -165.5 112.5t-57.5 251.5q0 159 56.5 251t165.5 110q5 26 20 37t36 11q20 0 34.5 -11t20.5 -37q106 -19 163.5 -112t57.5 -250q0 -155 -57.5 -249.5t-164.5 -113.5q-5 -26 -19.5 -38t-34.5 -12zM277 76q13 44 53 44q41 0 53 -45
q67 19 101.5 91.5t34.5 191.5t-34.5 190.5t-101.5 90.5q-5 -24 -19 -35t-34 -11t-34 11t-20 34q-66 -20 -100 -92t-34 -188q0 -117 34 -189.5t101 -92.5z" />
    <glyph glyph-name="uni047B" unicode="&#x47b;" horiz-adv-x="537" 
d="M492 269q0 -117 -45.5 -187.5t-127.5 -86.5q-10 -47 -49 -47q-42 0 -51 47q-81 15 -127 86.5t-46 187.5q0 119 44.5 188.5t129.5 84.5q4 25 17 35t33 10q19 0 31.5 -10.5t17.5 -35.5q82 -17 127.5 -87t45.5 -185zM409 269q0 164 -91 196q-9 -44 -48 -44q-41 0 -50 43
q-47 -15 -68.5 -64t-22.5 -131q0 -167 92 -198q7 43 49 43q39 0 48 -43q91 32 91 198z" />
    <glyph glyph-name="uni047C" unicode="&#x47c;" horiz-adv-x="820" 
d="M262 924v15q0 54 25.5 80t71.5 26q28 0 52 -9t48 -20.5t50.5 -20.5t58.5 -9h7v-61h-6q-45 0 -82 14t-67 28t-53 14q-45 0 -45 -57h-60zM354 751v35q56 15 56 44q0 12 -7 17t-17 9t-17 10.5t-7 20.5q0 19 12.5 29.5t32.5 10.5q26 0 42 -18.5t16 -50.5q0 -85 -111 -107z
M272 -10q-70 0 -118.5 46.5t-74.5 131t-26 196.5q0 99 23 180.5t69.5 130.5t118.5 49q63 0 114 -39l-33 -67q-33 30 -75 30q-45 0 -73.5 -40t-42 -105t-13.5 -142q0 -90 17.5 -156t50 -102.5t76.5 -35.5q23 0 43.5 9t39.5 25v223h84v-222q20 -16 40.5 -25.5t44.5 -9.5
q45 -1 77 35.5t49 102.5t17 156q0 77 -13.5 142.5t-42 105t-74.5 39.5q-41 0 -74 -30l-32 67q50 39 113 39q54 0 93.5 -28.5t65.5 -78t39 -114.5t13 -139q0 -112 -26 -196.5t-76 -131t-120 -46.5q-85 0 -135 56q-55 -56 -139 -56z" />
    <glyph glyph-name="uni047D" unicode="&#x47d;" horiz-adv-x="691" 
d="M294 890q28 0 53 -9t49.5 -20.5t50.5 -20.5t57 -9h7v-60h-11q-37 0 -75 14t-70.5 28t-52.5 14q-45 0 -45 -57h-59v13q0 107 96 107zM344 773q26 0 41.5 -18.5t15.5 -49.5q0 -87 -112 -108v34q57 15 57 45q0 12 -7 17t-16.5 9t-16.5 10.5t-7 20.5q0 40 45 40zM221 -10
q-61 0 -99 36.5t-56.5 99.5t-18.5 142q0 136 44.5 207.5t128.5 71.5q25 0 47.5 -6.5t43.5 -18.5l-25 -65q-15 8 -29.5 13t-28.5 5q-96 0 -96 -206q0 -57 10.5 -104t32 -75.5t55.5 -28.5q40 0 74 34v190h83v-189q18 -19 35.5 -27t37.5 -8q46 0 72.5 54.5t26.5 153.5
q0 206 -97 206q-14 0 -28 -5t-29 -13l-25 65q21 12 43 18.5t47 6.5q85 0 129.5 -71.5t44.5 -207.5q0 -135 -45 -206.5t-130 -71.5q-39 0 -69.5 14.5t-53.5 41.5q-24 -27 -55 -41.5t-70 -14.5z" />
    <glyph glyph-name="uni047E" unicode="&#x47e;" horiz-adv-x="764" 
d="M190 -2q-74 167 -118.5 352t-53.5 364h89q3 -102 20.5 -208t43.5 -207t57 -187h3q6 28 15.5 63t20.5 67l73 235q-9 59 -14 119t-6 118h86q2 -101 18 -206.5t43 -206.5t64 -191h2q59 135 90 289.5t38 314.5h87q-10 -179 -53.5 -363t-129.5 -353h-67q-39 80 -72.5 171
t-52.5 173l-105 -344h-78zM553 878v-24l-34 -74h-16l-21 49h-75l-21 -49h-15l-21 49h-74l-22 -49h-15l-34 74v24h348z" />
    <glyph glyph-name="uni047F" unicode="&#x47f;" horiz-adv-x="687" 
d="M656 537q-4 -141 -44 -278.5t-107 -258.5h-76q-25 53 -50 120.5t-39 125.5l-101 -246h-74q-61 121 -97.5 260.5t-41.5 276.5h81q3 -78 16.5 -159.5t35 -156.5t46.5 -134h3q10 27 22 57.5t23 55.5l60 139q-10 51 -15.5 100.5t-7.5 97.5h80q2 -73 15 -153t34 -157t47 -141
h4q29 58 52 131t37.5 155t16.5 165h80zM506 702v-24l-34 -74h-16l-21 49h-75l-21 -49h-15l-21 49h-74l-22 -49h-15l-34 74v24h348z" />
    <glyph glyph-name="uni0480" unicode="&#x480;" horiz-adv-x="502" 
d="M322 725q85 0 152 -38l-31 -73q-23 14 -53.5 24t-65.5 10q-60 0 -100.5 -39t-60.5 -105t-20 -147q0 -87 20 -152t61.5 -101t106.5 -36q43 0 83 17v-321h-85v226q-99 0 -160 46t-88.5 128.5t-27.5 193.5q0 102 30 185t90 132.5t149 49.5z" />
    <glyph glyph-name="uni0481" unicode="&#x481;" horiz-adv-x="392" 
d="M251 547q31 0 61 -7.5t52 -19.5l-25 -68q-19 9 -42.5 15t-43.5 6q-121 0 -121 -207q0 -112 32.5 -158t94.5 -46q22 0 40.5 5t35.5 14v-313h-82v222q-110 1 -158 71t-48 204q0 140 54.5 211t149.5 71z" />
    <glyph glyph-name="uni0482" unicode="&#x482;" horiz-adv-x="515" 
d="M357 630l63 -27l-65 -149l125 -53l-28 -61l-123 55l-77 -187l123 -55l-26 -60l-124 55l-64 -150l-64 27l64 151l-124 54l27 61l124 -56l78 187l-125 55l27 61l125 -55z" />
    <glyph glyph-name="uni0488" unicode="&#x488;" horiz-adv-x="945" 
d="M364 600q3 45 28.5 70t74.5 25q47 0 74.5 -25.5t30.5 -69.5h-40q-3 26 -20.5 35.5t-44.5 9.5q-30 0 -46 -9.5t-18 -35.5h-39zM632 461q2 43 27 69t75 26q48 0 75.5 -25.5t30.5 -69.5h-42q-2 25 -19 35t-45 10q-30 0 -45.5 -9.5t-17.5 -35.5h-39zM100 461q2 43 27.5 68.5
t75.5 25.5q47 0 75 -25.5t30 -68.5h-41q-2 25 -19.5 35t-44.5 10q-30 0 -46 -10t-18 -35h-39zM19 223q2 44 28 69.5t76 25.5q47 0 74.5 -25.5t29.5 -69.5h-41q-2 24 -18 35t-45 11q-30 0 -46 -9.5t-19 -36.5h-39zM718 223q3 45 29 70t75 25q46 0 73.5 -26t30.5 -69h-40
q-3 25 -20.5 35t-43.5 10q-30 0 -46 -9.5t-19 -35.5h-39zM101 -20q2 44 27.5 69.5t75.5 25.5q47 0 74.5 -25t30.5 -70h-41q-3 26 -20 36t-44 10q-30 0 -46 -9.5t-18 -36.5h-39zM632 -20q2 44 27 69.5t75 25.5q48 0 75.5 -25t30.5 -70h-42q-2 26 -19 36t-45 10
q-30 0 -45.5 -9.5t-17.5 -36.5h-39zM364 -156q3 44 28 69.5t75 25.5q47 0 75 -25.5t30 -69.5h-41q-2 26 -19.5 36t-44.5 10q-30 0 -46 -9.5t-18 -36.5h-39z" />
    <glyph glyph-name="uni0489" unicode="&#x489;" horiz-adv-x="940" 
d="M524 728q-12 -51 -21 -95t-13 -76h-70l-5 7q10 38 26.5 81.5t33.5 82.5h49zM190 624q28 -47 53 -85t43 -61l-50 -49l-8 2q-20 33 -38.5 73.5t-35.5 84.5zM792 582l35 -35q-45 -28 -82.5 -52.5t-62.5 -43.5l-50 49l2 8q32 19 74.5 39t83.5 35zM757 324q23 -6 53.5 -16.5
t60 -22t50.5 -21.5v-48q-51 12 -95 21t-76 14v68zM19 323q52 -12 95.5 -20.5t75.5 -13.5v-69l-7 -5q-80 21 -164 60v48zM703 94l9 -2q18 -32 38 -74.5t35 -83.5l-34 -34q-28 44 -52.5 81.5t-44.5 64.5zM259 72l49 -49l-1 -8q-21 -11 -49.5 -25t-57 -27t-51.5 -22l-36 35
q46 28 83.5 52.5t62.5 43.5zM520 -17l5 -7q-20 -77 -60 -164h-49q12 51 21 95.5t14 75.5h69z" />
    <glyph glyph-name="uni048A" unicode="&#x48a;" horiz-adv-x="649" 
d="M315 770q-77 0 -114 36.5t-42 114.5h72q3 -52 22 -73t63 -21q40 0 60.5 22t25.5 72h71q-5 -75 -43.5 -113t-114.5 -38zM470 -192l68 192h-69v422q0 34 2 78t6 84h-4l-291 -584h-102v714h83v-417q0 -71 -6 -162h4l288 579h103v-635h78l-64 -271h-96z" />
    <glyph glyph-name="uni048B" unicode="&#x48b;" horiz-adv-x="540" 
d="M265 605q-77 0 -113.5 36.5t-41.5 114.5h71q5 -51 23 -72.5t62 -21.5q40 0 61 22t25 72h72q-6 -75 -44.5 -113t-114.5 -38zM383 -186l58 186h-67v300q0 31 1 65.5t3 63.5l-211 -429h-96v537h80v-304q0 -31 -1.5 -63t-3.5 -63l211 430h96v-464h74l-59 -259h-85z" />
    <glyph glyph-name="uni048C" unicode="&#x48c;" horiz-adv-x="502" 
d="M166 714v-99h135v-69h-135v-133h66q121 0 175.5 -52.5t54.5 -150.5q0 -99 -57 -154.5t-166 -55.5h-159v546h-73v69h73v99h86zM235 337h-69v-262h70q139 0 139 133q0 68 -34.5 98.5t-105.5 30.5z" />
    <glyph glyph-name="uni048D" unicode="&#x48d;" horiz-adv-x="467" 
d="M154 760v-119h109v-63h-109v-263h84q189 0 189 -155q0 -76 -47.5 -118t-139.5 -42h-169v578h-65v63h65v119h83zM236 248h-82v-181h82q51 0 79 22t28 68q0 47 -26.5 69t-80.5 22z" />
    <glyph glyph-name="uni048E" unicode="&#x48e;" horiz-adv-x="503" 
d="M466 503q0 -67 -23 -116t-73 -77l52 -80l-50 -32l-59 91q-18 -6 -39.5 -8.5t-46.5 -2.5h-61v-278h-86v714h157q118 0 173.5 -53t55.5 -158zM166 352h48q18 0 33.5 0.5t28.5 3.5l-50 79l50 31l57 -86q45 38 45 121q0 73 -36 106t-112 33h-64v-288z" />
    <glyph glyph-name="uni048F" unicode="&#x48f;" horiz-adv-x="516" 
d="M286 -9q-45 0 -78.5 22.5t-53.5 57.5h-4q2 -15 3.5 -38t1.5 -39v-234h-84v777h68l11 -73h4q22 40 55.5 61.5t79.5 21.5q85 0 133 -70.5t48 -207.5q0 -93 -23 -155t-63 -94l40 -76l-52 -27l-42 81q-9 -4 -20.5 -5.5t-23.5 -1.5zM272 475q-62 0 -89.5 -46.5t-28.5 -143.5
v-19q0 -101 26.5 -151.5t87.5 -52.5q8 0 15.5 1t13.5 3l-52 107l53 27l50 -101q36 53 36 170q0 106 -27 156t-85 50z" />
    <glyph glyph-name="uni0492" unicode="&#x492;" horiz-adv-x="416" 
d="M403 714v-76h-237v-247h142v-74h-142v-317h-86v317h-64v74h64v323h323z" />
    <glyph glyph-name="uni0493" unicode="&#x493;" horiz-adv-x="354" 
d="M340 537v-72h-187v-165h113v-68h-113v-232h-82v232h-66v68h66v237h269z" />
    <glyph glyph-name="uni0494" unicode="&#x494;" horiz-adv-x="532" 
d="M236 317q-17 0 -36 -2.5t-34 -6.5v-308h-86v714h324v-76h-238v-255q18 5 39.5 7.5t42.5 2.5q82 0 136 -41.5t81 -113.5t27 -162q0 -96 -25 -169t-73 -114t-119 -41q-63 0 -107 23v78q48 -24 94 -24q50 0 81 33t45.5 89t14.5 125q0 71 -18 125.5t-55.5 85t-93.5 30.5z" />
    <glyph glyph-name="uni0495" unicode="&#x495;" horiz-adv-x="455" 
d="M342 537v-72h-188v-165q30 10 59 10q102 0 156 -71t54 -207t-47.5 -206t-130.5 -70q-59 0 -99 27v75q20 -14 41.5 -21.5t46.5 -7.5q104 0 104 202q0 101 -32 153.5t-98 52.5q-14 0 -28 -2.5t-26 -6.5v-228h-83v537h271z" />
    <glyph glyph-name="uni0496" unicode="&#x496;" horiz-adv-x="732" 
d="M689 714l-213 -345l174 -292h69v-269h-83v192h-38l-210 365v-365h-83v365l-211 -365h-96l219 369l-214 345h94l208 -345v345h83v-345l208 345h93z" />
    <glyph glyph-name="uni0497" unicode="&#x497;" horiz-adv-x="648" 
d="M603 537l-169 -256l137 -209h66v-258h-81v186h-32l-173 276v-276h-81v276l-173 -276h-94l184 281l-169 256h90l162 -257v257h81v-257l162 257h90z" />
    <glyph glyph-name="uni0498" unicode="&#x498;" horiz-adv-x="480" 
d="M410 549q0 -70 -36.5 -115.5t-101.5 -59.5v-4q74 -9 112.5 -54t38.5 -119q0 -94 -57 -150.5t-172 -56.5q-46 0 -87.5 8t-76.5 25v83q32 -19 75.5 -30t82.5 -11q146 0 146 134q0 69 -42 101.5t-125 32.5h-68v75h66q157 0 157 131q0 55 -30 82.5t-82 27.5q-42 0 -74 -14.5
t-58 -36.5l-41 61q36 32 80.5 48.5t102.5 16.5q92 0 141 -48t49 -127zM212 -117q0 28 -14.5 55.5t-47.5 61.5h57q31 -24 52.5 -58t21.5 -71q0 -45 -24 -69.5t-71 -24.5q-29 0 -51 8v57q10 -6 36 -6q41 0 41 47z" />
    <glyph glyph-name="uni0499" unicode="&#x499;" horiz-adv-x="393" 
d="M176 547q74 0 116.5 -37t42.5 -102q0 -44 -23 -76t-60 -45v-4q45 -12 72.5 -45t27.5 -88q0 -70 -46.5 -115t-134.5 -45q-89 0 -143 36v77q27 -17 61.5 -29.5t75.5 -12.5q47 0 75 23t28 71q0 43 -27.5 67.5t-85.5 24.5h-44v67h39q47 0 75 22t28 65q0 38 -22.5 57t-62.5 19
q-28 0 -52.5 -7.5t-51.5 -21.5l-31 64q67 35 143 35zM183 -117q0 28 -14.5 55.5t-47.5 61.5h57q31 -24 52.5 -58t21.5 -71q0 -45 -24 -69.5t-71 -24.5q-29 0 -51 8v57q10 -6 36 -6q41 0 41 47z" />
    <glyph glyph-name="uni049A" unicode="&#x49a;" horiz-adv-x="534" 
d="M486 714l-228 -343l192 -294h72v-269h-82v192h-41l-233 367v-367h-86v714h86v-340l225 340h95z" />
    <glyph glyph-name="uni049B" unicode="&#x49b;" horiz-adv-x="456" 
d="M366 -187v187h-32l-180 276v-276h-83v537h83v-257l170 257h91l-176 -255l142 -210h65v-259h-80z" />
    <glyph glyph-name="uni049C" unicode="&#x49c;" horiz-adv-x="496" 
d="M266 108h-52v183l-48 75v-366h-86v714h86v-343l48 73v186h52v-107l125 191h95l-220 -330v-28l232 -356h-99l-133 209v-101z" />
    <glyph glyph-name="uni049D" unicode="&#x49d;" horiz-adv-x="435" 
d="M250 507v-82l74 112h91l-165 -239v-32l180 -266h-95l-85 130v-91h-50v167l-46 70v-276h-83v537h83v-257l46 70v157h50z" />
    <glyph glyph-name="uni049E" unicode="&#x49e;" horiz-adv-x="496" 
d="M498 0h-99l-233 366v-366h-86v561h-68v71h68v82h86v-82h84v-71h-84v-190l225 343h95l-229 -344z" />
    <glyph glyph-name="uni049F" unicode="&#x49f;" horiz-adv-x="437" 
d="M153 760v-89h142v-63h-142v-328l171 257h91l-176 -255l190 -282h-95l-181 276v-276h-82v608h-62v63h62v89h82z" />
    <glyph glyph-name="uni04A0" unicode="&#x4a0;" horiz-adv-x="568" 
d="M558 714l-229 -344l241 -370h-99l-232 366v-366h-86v637h-144v77h230v-343l225 343h94z" />
    <glyph glyph-name="uni04A1" unicode="&#x4a1;" horiz-adv-x="496" 
d="M477 537l-176 -256l191 -281h-94l-182 276v-276h-82v466h-122v71h204v-257l171 257h90z" />
    <glyph glyph-name="uni04A2" unicode="&#x4a2;" horiz-adv-x="612" 
d="M505 -192v192h-75v334h-264v-334h-86v714h86v-303h264v303h86v-637h72v-269h-83z" />
    <glyph glyph-name="uni04A3" unicode="&#x4a3;" horiz-adv-x="528" 
d="M426 -186v186h-66v242h-206v-242h-83v537h83v-223h206v223h83v-465h65v-258h-82z" />
    <glyph glyph-name="uni04A4" unicode="&#x4a4;" horiz-adv-x="669" 
d="M80 0v714h86v-303h264v303h229v-77h-143v-637h-86v334h-264v-334h-86z" />
    <glyph glyph-name="uni04A5" unicode="&#x4a5;" horiz-adv-x="576" 
d="M71 0v537h83v-223h206v223h204v-71h-121v-466h-83v242h-206v-242h-83z" />
    <glyph glyph-name="uni04A6" unicode="&#x4a6;" horiz-adv-x="850" 
d="M489 714v-331q18 5 39 7.5t41 2.5q81 0 134.5 -42t80 -113.5t26.5 -161.5q0 -96 -24.5 -169t-73 -114t-118.5 -41q-63 0 -107 23v78q24 -11 47.5 -17.5t47.5 -6.5q49 0 80 33t45.5 89.5t14.5 124.5q0 71 -17.5 125t-54 84.5t-91.5 30.5q-17 0 -36 -2t-34 -6v-308h-85v636
h-238v-636h-86v714h409z" />
    <glyph glyph-name="uni04A7" unicode="&#x4a7;" horiz-adv-x="725" 
d="M429 537v-237q29 10 58 10q95 0 150.5 -69.5t55.5 -208.5q0 -136 -46.5 -206t-125.5 -70q-59 0 -99 27v75q20 -14 41 -21.5t45 -7.5q100 0 100 202q0 101 -31.5 153.5t-94.5 52.5q-28 0 -53 -10v-227h-83v465h-192v-465h-83v537h358z" />
    <glyph glyph-name="uni04A8" unicode="&#x4a8;" horiz-adv-x="654" 
d="M601 331q0 -82 -28.5 -156t-80.5 -119q15 -10 32.5 -16.5t37.5 -6.5q30 0 57 11v-74q-11 -4 -29 -7.5t-38 -3.5q-38 0 -72 13t-64 37q-20 -8 -48 -13.5t-53 -5.5q-87 0 -144.5 48t-85.5 129.5t-28 183.5q0 117 29 201t85.5 129t136.5 44q62 0 102 -20l-23 -72
q-14 7 -33.5 11t-41.5 4q-59 0 -96 -40t-54 -107t-17 -148q-1 -137 46.5 -212t123.5 -74q13 0 25 1.5t23 5.5q-37 49 -55 118.5t-18 137.5q0 72 17.5 126.5t52 85.5t84.5 31q73 0 115 -60.5t42 -181.5zM518 329q0 82 -18 126t-54 44q-26 0 -42.5 -24t-24 -62.5t-7.5 -83.5
q0 -68 17 -125t48 -98q42 36 61.5 98t19.5 125z" />
    <glyph glyph-name="uni04A9" unicode="&#x4a9;" horiz-adv-x="550" 
d="M247 547q22 0 39.5 -4t33.5 -10l-18 -69q-12 4 -26 7.5t-28 3.5q-60 0 -89 -55.5t-29 -155.5q0 -56 13 -102t41.5 -73.5t73.5 -27.5q14 0 24.5 2.5t16.5 5.5q-27 32 -41.5 76.5t-14.5 99.5q0 88 35 134t96 46t95 -45.5t34 -133.5q0 -118 -83 -192q8 -5 23 -10t29 -5
q26 0 50 8v-67q-12 -4 -27 -6t-31 -2q-65 0 -115 38q-19 -9 -43 -14.5t-55 -5.5q-69 0 -114.5 36t-68 98.5t-22.5 140.5q0 82 21.5 145.5t66 100t113.5 36.5zM374 358q-28 0 -42 -30t-14 -86q0 -49 13 -85.5t35 -61.5q28 21 44.5 59.5t16.5 89.5q0 54 -12.5 84t-40.5 30z
" />
    <glyph glyph-name="uni04AA" unicode="&#x4aa;" horiz-adv-x="502" 
d="M325 648q-61 0 -101.5 -39t-60.5 -105t-20 -147q0 -135 48.5 -212.5t136.5 -77.5q35 0 66.5 7.5t60.5 19.5v-76q-29 -14 -62 -21t-75 -7q-84 0 -143 44.5t-90.5 127t-31.5 196.5q0 104 30 187t90.5 131.5t150.5 48.5q84 0 152 -38l-32 -73q-26 15 -55.5 24.5t-63.5 9.5z
M314 -117q0 28 -14.5 55.5t-47.5 61.5h57q31 -24 52.5 -58t21.5 -71q0 -45 -24 -69.5t-71 -24.5q-29 0 -51 8v57q10 -6 36 -6q41 0 41 47z" />
    <glyph glyph-name="uni04AB" unicode="&#x4ab;" horiz-adv-x="387" 
d="M245 -10q-95 0 -146.5 68t-51.5 207q0 137 52 209.5t149 72.5q34 0 63 -7.5t51 -19.5l-25 -68q-20 9 -42.5 15t-42.5 6q-120 0 -120 -207q0 -204 119 -204q28 0 54 7.5t50 19.5v-71q-23 -14 -52 -21t-58 -7zM241 -114q0 28 -14.5 55.5t-47.5 61.5h57q31 -24 52.5 -58
t21.5 -71q0 -45 -24 -69.5t-71 -24.5q-29 0 -51 8v57q10 -6 36 -6q41 0 41 47z" />
    <glyph glyph-name="uni04AC" unicode="&#x4ac;" horiz-adv-x="434" 
d="M248 -192v192h-75v636h-163v78h412v-78h-163v-559h71v-269h-82z" />
    <glyph glyph-name="uni04AD" unicode="&#x4ad;" horiz-adv-x="360" 
d="M346 537v-71h-125v-394h65v-258h-82v186h-66v466h-125v71h333z" />
    <glyph glyph-name="uni04AE" unicode="&#x4ae;" horiz-adv-x="444" 
d="M223 374l131 340h90l-179 -436v-278h-86v275l-179 439h91z" />
    <glyph glyph-name="uni04AF" unicode="&#x4af;" horiz-adv-x="411" 
d="M246 -240h-83v239l-160 538h85l83 -305q13 -43 21 -77.5t11 -54.5h4q4 24 11.5 56t17.5 68l87 313h86l-163 -538v-239z" />
    <glyph glyph-name="uni04B0" unicode="&#x4b0;" horiz-adv-x="444" 
d="M179 0v174h-112v75h112v26l-179 439h92l131 -339l129 339h92l-179 -436v-29h111v-75h-111v-174h-86z" />
    <glyph glyph-name="uni04B1" unicode="&#x4b1;" horiz-adv-x="411" 
d="M409 537l-163 -537h104v-66h-104v-174h-83v174h-105v66h105l-160 537h85l82 -304q14 -44 21.5 -77.5t11.5 -55.5h4q4 26 12 57t19 69l85 311h86z" />
    <glyph glyph-name="uni04B2" unicode="&#x4b2;" horiz-adv-x="495" 
d="M401 -192v192h-41l-126 297l-138 -297h-90l180 373l-163 341h93l119 -271l118 271h92l-161 -345l132 -292h68v-269h-83z" />
    <glyph glyph-name="uni04B3" unicode="&#x4b3;" horiz-adv-x="442" 
d="M350 -187v187h-32l-106 210l-107 -210h-90l149 276l-140 261h92l97 -198l99 198h90l-141 -264l109 -201h61v-259h-81z" />
    <glyph glyph-name="uni04B4" unicode="&#x4b4;" horiz-adv-x="696" 
d="M591 -192v192h-424v636h-157v78h405v-78h-162v-559h261v637h86v-637h73v-269h-82z" />
    <glyph glyph-name="uni04B5" unicode="&#x4b5;" horiz-adv-x="590" 
d="M489 -186v186h-358v466h-118v71h319v-71h-119v-394h209v465h83v-465h65v-258h-81z" />
    <glyph glyph-name="uni04B6" unicode="&#x4b6;" horiz-adv-x="583" 
d="M489 714v-637h72v-269h-83v192h-76v292q-46 -21 -88 -32.5t-86 -11.5q-79 0 -120.5 46.5t-41.5 135.5v284h86v-270q0 -60 23 -89.5t73 -29.5q41 0 76 9.5t78 29.5v350h87z" />
    <glyph glyph-name="uni04B7" unicode="&#x4b7;" horiz-adv-x="512" 
d="M430 537v-465h65v-259h-82v187h-65v233q-34 -28 -71 -42.5t-80 -14.5q-138 0 -138 156v205h83v-208q0 -43 19 -62.5t54 -19.5q36 0 69 15.5t64 39.5v235h82z" />
    <glyph glyph-name="uni04B8" unicode="&#x4b8;" horiz-adv-x="576" 
d="M497 714v-714h-87v290q-26 -12 -51 -21.5t-52 -14.5v-153h-54v147q-97 0 -142 44t-45 138v284h86v-270q0 -61 24 -89.5t77 -28.5v175h54v-173q25 4 51 13t52 21v352h87z" />
    <glyph glyph-name="uni04B9" unicode="&#x4b9;" horiz-adv-x="505" 
d="M435 537v-537h-83v233q-18 -15 -38.5 -27t-43.5 -19v-124h-52v114q-3 0 -8.5 -0.5t-10.5 -0.5q-70 0 -105 39.5t-35 115.5v206h83v-208q0 -44 19.5 -63t56.5 -19v145h52v-137q42 13 82 47v235h83z" />
    <glyph glyph-name="uni04BA" unicode="&#x4ba;" horiz-adv-x="568" 
d="M80 714h86v-292q45 21 89.5 32.5t84.5 11.5q79 0 121 -45.5t42 -136.5v-284h-86v270q0 62 -23 90.5t-73 28.5q-43 0 -77.5 -9.5t-77.5 -29.5v-350h-86v714z" />
    <glyph glyph-name="uni04BB" unicode="&#x4bb;" horiz-adv-x="505" 
d="M154 760v-217q0 -45 -6 -79h6q19 40 54 61t77 21q77 0 114 -46.5t37 -139.5v-360h-83v346q0 67 -19.5 97t-63.5 30q-63 0 -89.5 -48t-26.5 -147v-278h-83v760h83z" />
    <glyph glyph-name="uni04BC" unicode="&#x4bc;" horiz-adv-x="694" 
d="M405 725q120 0 178 -93t58 -265v-42h-401q6 -125 51.5 -191t136.5 -66q47 0 87.5 11t83.5 30v-81q-39 -18 -84 -28t-97 -10q-126 0 -194 87t-74 248h-22q-55 0 -85.5 28t-30.5 79q0 18 4 37t10 33h72q-10 -23 -10 -56q0 -47 52 -47h10q8 96 38.5 169.5t84.5 115t132 41.5
zM403 648q-52 0 -87 -32.5t-53.5 -89t-22.5 -127.5h311q-1 121 -37.5 185t-110.5 64z" />
    <glyph glyph-name="uni04BD" unicode="&#x4bd;" horiz-adv-x="555" 
d="M331 546q59 0 99.5 -31.5t60.5 -85t20 -121.5v-56h-288q1 -192 133 -192q38 0 69 9t65 27v-72q-32 -17 -66 -25.5t-74 -8.5q-70 0 -116 33t-69 92t-25 137q-68 1 -98.5 25.5t-30.5 77.5q0 38 13 65h68q-10 -25 -10 -55q0 -46 48 -47h11q10 113 60.5 170.5t129.5 57.5z
M330 477q-99 0 -106 -159h206q0 67 -24 113t-76 46z" />
    <glyph glyph-name="uni04BE" unicode="&#x4be;" horiz-adv-x="694" 
d="M405 725q120 0 178 -93t58 -264v-43h-401q6 -125 51.5 -191t136.5 -66q47 0 87.5 11t83.5 30v-81q-31 -14 -67 -23.5t-78 -11.5v-185h-84v187q-104 13 -159 99t-61 231h-22q-55 0 -85.5 28t-30.5 79q0 18 4 37t10 33h72q-10 -23 -10 -56q0 -47 52 -47h10q7 96 37.5 169.5
t85 115t132.5 41.5zM403 648q-52 0 -87 -32.5t-53.5 -89t-22.5 -127.5h311q-1 121 -36.5 185t-111.5 64z" />
    <glyph glyph-name="uni04BF" unicode="&#x4bf;" horiz-adv-x="555" 
d="M299 -4q-75 14 -116 79.5t-43 176.5q-68 1 -98.5 25.5t-30.5 77.5q0 38 13 65h68q-10 -25 -10 -55q0 -47 51 -47h8q10 112 60.5 170t129.5 58q59 0 99.5 -31.5t60.5 -85t20 -121.5v-56h-288q1 -192 133 -192q38 0 69 9t65 27v-72q-49 -28 -110 -32v-178h-81v182zM330 477
q-99 0 -106 -159h206q0 67 -24 113t-76 46z" />
    <glyph glyph-name="uni04C0" unicode="&#x4c0;" horiz-adv-x="300" 
d="M263 0h-227v49l70 18v580l-70 18v49h227v-49l-71 -18v-580l71 -18v-49z" />
    <glyph glyph-name="uni04C1" unicode="&#x4c1;" horiz-adv-x="693" 
d="M217 369l-214 345h94l208 -345v345h83v-345l208 345h93l-213 -345l218 -369h-96l-210 365v-365h-83v365l-211 -365h-96zM505 925q-5 -75 -43.5 -113t-114.5 -38q-78 0 -114.5 36.5t-41.5 114.5h73q4 -53 23 -75t61 -22q40 0 60 23t24 74h73z" />
    <glyph glyph-name="uni04C2" unicode="&#x4c2;" horiz-adv-x="620" 
d="M603 537l-169 -256l184 -281h-94l-173 276v-276h-81v276l-173 -276h-94l184 281l-169 256h90l162 -257v257h81v-257l162 257h90zM469 756q-5 -75 -43.5 -113t-114.5 -38q-78 0 -114.5 36.5t-41.5 114.5h73q4 -53 23 -75t61 -22q40 0 60 23t24 74h73z" />
    </font>
</defs>
</svg>
