<?xml version="1.0" standalone="no"?>
<!DOCTYPE svg PUBLIC "-//W3C//DTD SVG 1.1//EN" "http://www.w3.org/Graphics/SVG/1.1/DTD/svg11.dtd" >
<svg>
<metadata>
Created by FontForge 20090622 at Tue Apr 18 15:35:13 2017
 By deploy user
Copyright (c) Olivier Gourvat - Mostardesign Studio, 2012. All rights reserved.
</metadata>
<defs>
<font id="SofiaProSemiBold" horiz-adv-x="567" >
  <font-face 
    font-family="Sofia Pro Semi Bold"
    font-weight="400"
    font-stretch="normal"
    units-per-em="1000"
    panose-1="2 11 0 0 0 0 0 0 0 0"
    ascent="750"
    descent="-250"
    x-height="467"
    cap-height="689"
    bbox="-177 -274 1128 1110"
    underline-thickness="50"
    underline-position="-50"
    unicode-range="U+0020-U+FB04"
  />
<missing-glyph horiz-adv-x="635" 
d="M80 0v665h475v-665h-475zM185 431h62q0 37 21 60t53 23t56 -20.5t24 -52.5q0 -30 -24 -50q-15 -17 -33 -21q-45 -13 -69 -38t-24 -72v-38h62v38q0 22 12.5 32.5t37.5 17.5q43 13 71 48t28 83q0 60 -41.5 97.5t-99.5 37.5q-57 0 -96.5 -40t-39.5 -105zM237 131
q0 -18 13.5 -30.5t32.5 -12.5q18 0 31.5 12.5t13.5 30.5t-13.5 30.5t-31.5 12.5q-19 0 -32.5 -12.5t-13.5 -30.5z" />
    <glyph glyph-name="f_f" unicode="ff" horiz-adv-x="740" 
d="M745 721v-117h-51q-76 0 -76 -100v-37h99v-98h-99v-369h-123v369h-260v-369h-123v369h-89v98h89v37q0 103 51 160t148 57h51v-117h-51q-76 0 -76 -100v-37h260v37q0 103 51 160t148 57h51z" />
    <glyph glyph-name="fi" unicode="fi" horiz-adv-x="658" 
d="M590 467v-467h-121v369h-234v-369h-123v369h-89v98h89v37q0 103 51 160t148 57h51v-117h-51q-76 0 -76 -100v-37h355zM451 648q0 31 23.5 52t55.5 21t54.5 -21t22.5 -52t-22.5 -52.5t-54.5 -21.5q-33 0 -56 21.5t-23 52.5z" />
    <glyph glyph-name="fl" unicode="fl" horiz-adv-x="665" 
d="M311 721h285v-721h-122v604h-163q-76 0 -76 -100v-37h99v-98h-99v-369h-123v369h-89v98h89v37q0 103 51 160t148 57z" />
    <glyph glyph-name="f_f_i" unicode="ffi" horiz-adv-x="1041" 
d="M973 467v-467h-121v369h-234v-369h-123v369h-260v-369h-123v369h-89v98h89v37q0 103 51 160t148 57h51v-117h-51q-76 0 -76 -100v-37h260v37q0 103 51 160t148 57h51v-117h-51q-76 0 -76 -100v-37h355zM834 648q0 31 23.5 52t55.5 21t54.5 -21t22.5 -52t-22.5 -52.5
t-54.5 -21.5q-33 0 -56 21.5t-23 52.5z" />
    <glyph glyph-name="f_f_l" unicode="ffl" horiz-adv-x="1048" 
d="M857 0v604h-163q-76 0 -76 -100v-37h99v-98h-99v-369h-123v369h-260v-369h-123v369h-89v98h89v37q0 103 51 160t148 57h51v-117h-51q-76 0 -76 -100v-37h260v37q0 103 51 160t148 57h285v-721h-122z" />
    <glyph glyph-name="f_f_j" unicode="ffj" horiz-adv-x="1029" 
d="M710 -233v112h59q71 0 69 88v402h-220v-369h-123v369h-260v-369h-123v369h-89v98h89v37q0 103 51 160t148 57h51v-117h-51q-76 0 -76 -100v-37h260v37q0 103 51 160t148 57h51v-117h-51q-76 0 -76 -100v-37h343v-498q0 -202 -174 -202h-77zM821 648q0 30 23 51.5t55 21.5
q33 0 55.5 -21t22.5 -52t-22.5 -52.5t-55.5 -21.5q-32 0 -55 21.5t-23 52.5z" />
    <glyph glyph-name="f_j" unicode="fj" horiz-adv-x="646" 
d="M327 -233v112h59q71 0 69 88v402h-220v-369h-123v369h-89v98h89v37q0 103 51 160t148 57h51v-117h-51q-76 0 -76 -100v-37h343v-498q0 -202 -174 -202h-77zM438 648q0 30 23 51.5t55 21.5q33 0 55.5 -21t22.5 -52t-22.5 -52.5t-55.5 -21.5q-32 0 -55 21.5t-23 52.5z" />
    <glyph glyph-name=".notdef" horiz-adv-x="635" 
d="M80 0v665h475v-665h-475zM185 431h62q0 37 21 60t53 23t56 -20.5t24 -52.5q0 -30 -24 -50q-15 -17 -33 -21q-45 -13 -69 -38t-24 -72v-38h62v38q0 22 12.5 32.5t37.5 17.5q43 13 71 48t28 83q0 60 -41.5 97.5t-99.5 37.5q-57 0 -96.5 -40t-39.5 -105zM237 131
q0 -18 13.5 -30.5t32.5 -12.5q18 0 31.5 12.5t13.5 30.5t-13.5 30.5t-31.5 12.5q-19 0 -32.5 -12.5t-13.5 -30.5z" />
    <glyph glyph-name=".null" horiz-adv-x="0" 
 />
    <glyph glyph-name="nonmarkingreturn" horiz-adv-x="333" 
 />
    <glyph glyph-name="space" unicode=" " horiz-adv-x="248" 
 />
    <glyph glyph-name="exclam" unicode="!" horiz-adv-x="280" 
d="M69 689h143l-19 -488h-105zM61 66q0 32 23 54t55 22q33 0 56.5 -21.5t23.5 -54.5t-23.5 -54.5t-56.5 -21.5q-32 0 -55 22t-23 54z" />
    <glyph glyph-name="quotedbl" unicode="&#x22;" horiz-adv-x="353" 
d="M75 395l-10 294h89l-10 -294h-69zM209 395l-10 294h89l-10 -294h-69z" />
    <glyph glyph-name="numbersign" unicode="#" horiz-adv-x="699" 
d="M553 515h111l-25 -90h-112l-50 -170h111l-25 -90h-111l-52 -165h-101l50 165h-103l-51 -165h-100l50 165h-110l25 90h110l49 170h-108l24 90h110l51 174h102l-50 -174h103l51 174h102zM321 425l-50 -170h103l51 170h-104z" />
    <glyph glyph-name="dollar" unicode="$" horiz-adv-x="569" 
d="M252 800h69v-106q84 -11 136.5 -65.5t52.5 -139.5h-128q0 41 -27.5 65.5t-75.5 24.5q-44 0 -73.5 -22.5t-29.5 -58.5q0 -57 82 -79l85 -25q107 -29 150 -85t38 -125q-4 -83 -63.5 -134t-146.5 -59v-113h-69v113q-94 10 -152 69t-58 141h128q2 -40 34 -68.5t85 -28.5
q50 0 81 23.5t33 59.5q2 34 -21.5 57t-73.5 37l-85 22q-174 51 -174 192q0 82 58 137t145 63v105z" />
    <glyph glyph-name="percent" unicode="%" horiz-adv-x="688" 
d="M536 661h-68l-325 -661h68zM36 532q0 56 38.5 95t94.5 39q55 0 94.5 -39t39.5 -95t-39 -94.5t-95 -38.5t-94.5 38.5t-38.5 94.5zM113 532q0 -24 16 -40t40 -16t40.5 16t16.5 40q0 23 -17 40t-40 17q-24 0 -40 -16.5t-16 -40.5zM385 123q0 56 38.5 95t94.5 39t95 -39.5
t39 -94.5q0 -56 -39 -94.5t-95 -38.5t-94.5 38.5t-38.5 94.5zM462 123q0 -24 16 -40t40 -16t40.5 16t16.5 40q0 23 -17 40t-40 17q-24 0 -40 -16.5t-16 -40.5z" />
    <glyph glyph-name="ampersand" unicode="&#x26;" horiz-adv-x="682" 
d="M297 319q-61 0 -90.5 -37t-25.5 -77q5 -44 35.5 -70t80.5 -26q51 0 88 36.5t37 104.5v69h-125zM283 -10q-100 0 -165.5 59t-65.5 149q0 62 28.5 108.5t81.5 69.5q-33 16 -53.5 51.5t-20.5 81.5q0 74 55 128t138 57q119 4 187 -92l-103 -63q-28 37 -69 37q-36 0 -57 -22
t-21 -52q0 -14 5.5 -31t25.5 -35t52 -18h121v82h114v-82h83v-99h-83v-114q0 -61 19 -84t78 -23v-108q-77 1 -120.5 18.5t-60.5 63.5q-21 -38 -70 -60t-99 -22z" />
    <glyph glyph-name="quotesingle" unicode="'" horiz-adv-x="219" 
d="M75 395l-10 294h89l-10 -294h-69z" />
    <glyph glyph-name="parenleft" unicode="(" horiz-adv-x="378" 
d="M42 229q0 207 85 337.5t217 130.5v-102q-79 0 -137.5 -108t-58.5 -258q0 -149 58.5 -255t137.5 -106v-101q-132 0 -217 128t-85 334z" />
    <glyph glyph-name="parenright" unicode=")" horiz-adv-x="378" 
d="M336 229q0 -206 -85 -334t-217 -128v101q79 0 137.5 106t58.5 255q0 150 -58.5 258t-137.5 108v102q132 0 217 -130.5t85 -337.5z" />
    <glyph glyph-name="asterisk" unicode="*" horiz-adv-x="474" 
d="M92 381l83 102l-128 36l29 86l123 -48l-8 132h92l-9 -131l125 47l27 -86l-127 -34l84 -105l-72 -51l-72 109l-76 -111z" />
    <glyph glyph-name="plus" unicode="+" horiz-adv-x="511" 
d="M304 213v-158h-97v158h-157v97h157v156h97v-156h157v-97h-157z" />
    <glyph glyph-name="comma" unicode="," horiz-adv-x="271" 
d="M86 -132l-81 30q34 47 54.5 111.5t19.5 133.5h126q-3 -98 -39 -168.5t-80 -106.5z" />
    <glyph glyph-name="hyphen" unicode="-" horiz-adv-x="477" 
d="M63 191v102h351v-102h-351z" />
    <glyph glyph-name="period" unicode="." horiz-adv-x="272" 
d="M57 66q0 32 23 54t55 22q33 0 56.5 -21.5t23.5 -54.5t-23.5 -54.5t-56.5 -21.5q-32 0 -55 22t-23 54z" />
    <glyph glyph-name="slash" unicode="/" horiz-adv-x="501" 
d="M364 689h107l-334 -689h-107z" />
    <glyph glyph-name="zero" unicode="0" horiz-adv-x="603" 
d="M60 327q0 339 243 339q69 0 117.5 -26t74.5 -74t37 -106t11 -133q0 -59 -6.5 -107t-23.5 -92t-43.5 -73.5t-69 -47t-97.5 -17.5q-243 0 -243 337zM183 327q0 -217 120 -217q118 0 118 217q0 219 -118 219q-120 0 -120 -219z" />
    <glyph glyph-name="one" unicode="1" horiz-adv-x="362" 
d="M39 559l233 103v-662h-123v493l-110 -44v110z" />
    <glyph glyph-name="two" unicode="2" horiz-adv-x="541" 
d="M473 0h-418v63l267 320q40 47 40 86q0 33 -26.5 55.5t-67.5 22.5q-40 0 -68 -26.5t-34 -68.5l-114 21q14 89 74 141t147 52q88 0 149.5 -55.5t61.5 -141.5q0 -88 -70 -167l-162 -185h221v-117z" />
    <glyph glyph-name="three" unicode="3" horiz-adv-x="546" 
d="M258 291h-70v109h70q40 -1 57 24.5t17 47.5q0 24 -13.5 46t-44.5 28q-63 8 -101 -40l-96 63q28 47 81.5 74t116.5 23q83 -4 136 -56.5t53 -126.5q0 -39 -22 -73t-59 -55q51 -19 82.5 -72t26.5 -106q-9 -88 -82 -140.5t-170 -45.5q-67 4 -121.5 42t-81.5 96q5 2 53.5 26.5
t53.5 27.5q15 -31 44.5 -52t61.5 -21q47 0 78.5 27.5t31.5 69.5q0 9 -4 21t-13.5 28t-31.5 26t-53 9z" />
    <glyph glyph-name="four" unicode="4" horiz-adv-x="599" 
d="M200 249h145v228zM554 142h-87v-142h-122v142h-323l326 512h119v-405h87v-107z" />
    <glyph glyph-name="five" unicode="5" horiz-adv-x="582" 
d="M411 224q0 55 -35.5 84t-90.5 29q-89 0 -150 -66l-70 42l55 341h372v-113h-274l-23 -134q41 35 121 35q93 0 155 -57.5t62 -160.5q0 -104 -71.5 -169t-189.5 -65q-68 0 -130 38t-97 100l51.5 32l51.5 32q20 -36 54 -58.5t70 -22.5q63 0 101 33t38 80z" />
    <glyph glyph-name="six" unicode="6" horiz-adv-x="573" 
d="M393 207q1 41 -27 70.5t-69 30.5t-71 -28t-31 -70q0 -42 28.5 -71.5t69.5 -29.5q41 -1 70 27.5t30 70.5zM317 422q82 0 142.5 -61t59.5 -161q-2 -93 -66.5 -152t-165.5 -58q-91 2 -154 63.5t-71 163.5q-3 62 -2.5 125.5t17 122.5t43.5 104.5t77.5 72t118.5 24.5
q66 -3 115.5 -30.5t81.5 -96.5l-113 -48q-29 60 -88 60q-67 0 -99.5 -59.5t-27.5 -143.5q10 28 47 51t85 23z" />
    <glyph glyph-name="seven" unicode="7" horiz-adv-x="541" 
d="M48 654h479l-313 -654h-140l259 539h-285v115z" />
    <glyph glyph-name="eight" unicode="8" horiz-adv-x="584" 
d="M218 484q0 -30 20.5 -50.5t54.5 -20.5q33 0 52.5 21t19.5 50q0 28 -20.5 48t-52.5 20q-33 0 -53.5 -20.5t-20.5 -47.5zM173 216q0 -45 35 -77.5t84 -32.5q48 0 83 32.5t35 77.5q0 43 -33 75.5t-78 32.5h-18q-45 0 -76.5 -33t-31.5 -75zM99 488q0 74 56 126t137 52
q80 0 136.5 -52t56.5 -126q0 -66 -49 -112q45 -26 70.5 -69t25.5 -95q0 -92 -70 -157t-170 -65t-170.5 65t-70.5 157q0 53 25.5 95.5t70.5 68.5q-48 46 -48 112z" />
    <glyph glyph-name="nine" unicode="9" horiz-adv-x="574" 
d="M181 449q-1 -41 27 -70.5t69 -30.5t71 27.5t31 69.5q0 42 -28.5 71.5t-69.5 30.5t-70 -28t-30 -70zM256 234q-81 0 -141.5 61t-59.5 161q2 93 66.5 151.5t164.5 57.5q92 -2 154.5 -63t71.5 -163q3 -62 2.5 -125.5t-17 -123t-43.5 -105t-77.5 -71.5t-118.5 -24
q-66 3 -115.5 30.5t-81.5 96.5l113 48q29 -60 88 -60q67 0 99.5 59t27.5 144q-10 -28 -47 -51t-86 -23z" />
    <glyph glyph-name="colon" unicode=":" horiz-adv-x="284" 
d="M63 66q0 33 23 54.5t56 21.5t56 -21.5t23 -54.5t-23 -54.5t-56 -21.5t-56 21.5t-23 54.5zM63 401q0 33 23 54.5t56 21.5t56 -21.5t23 -54.5t-23 -54.5t-56 -21.5t-56 21.5t-23 54.5z" />
    <glyph glyph-name="semicolon" unicode=";" horiz-adv-x="291" 
d="M94 -132l-83 30q76 103 75 245h127q-3 -98 -39 -168.5t-80 -106.5zM73 401q0 33 23 54.5t56 21.5t56 -21.5t23 -54.5t-23 -54.5t-56 -21.5t-56 21.5t-23 54.5z" />
    <glyph glyph-name="less" unicode="&#x3c;" horiz-adv-x="628" 
d="M550 45l-504 192v104l504 192v-105l-369 -139l369 -139v-105z" />
    <glyph glyph-name="equal" unicode="=" horiz-adv-x="600" 
d="M530 334h-460v94h460v-94zM70 229h460v-94h-460v94z" />
    <glyph glyph-name="greater" unicode="&#x3e;" horiz-adv-x="628" 
d="M582 237l-504 -192v105l369 139l-369 139v105l504 -192v-104z" />
    <glyph glyph-name="question" unicode="?" horiz-adv-x="491" 
d="M258 233l-2 -33h-119l-2 33q0 39 7.5 67t16.5 45.5t34.5 36t42 27l58.5 29.5q38 16 38 65q0 31 -25.5 51.5t-61.5 20.5q-37 0 -61 -24t-24 -63h-121q0 95 57.5 152t148.5 57t150 -53.5t59 -141.5q0 -70 -38.5 -120t-99.5 -69q-31 -10 -44.5 -27.5t-13.5 -52.5zM119 67
q0 32 23 54t56 22t56 -22t23 -54q0 -33 -23 -55t-56 -22t-56 22t-23 55z" />
    <glyph glyph-name="at" unicode="@" horiz-adv-x="967" 
d="M590 133v127q0 51 -35.5 86t-85.5 35t-85.5 -35t-35.5 -86q0 -49 35.5 -84t85.5 -35q45 0 86 33v-91q-43 -24 -86 -24q-84 0 -143.5 58.5t-59.5 142.5q0 85 59.5 144t143.5 59q81 0 141 -55t63 -138v-143q0 -62 64 -62q32 0 55 21t34 54.5t15.5 66t4.5 66.5
q0 145 -108 242t-259 97q-147 0 -248 -104t-101 -253q0 -148 101 -250t248 -102h29v-83h-29q-182 0 -307 126t-125 309t125.5 311.5t306.5 128.5q121 0 224 -54.5t165 -152t62 -215.5q0 -48 -10.5 -96t-31.5 -93t-60.5 -73t-90.5 -28q-63 0 -105 35.5t-42 114.5z" />
    <glyph glyph-name="A" unicode="A" horiz-adv-x="654" 
d="M519 0l-63 167h-257l-63 -167h-136l258 689h138l258 -689h-135zM327 542l-85 -263h172z" />
    <glyph glyph-name="B" unicode="B" horiz-adv-x="634" 
d="M554 502q0 -43 -21.5 -79.5t-69.5 -54.5q60 -15 94 -63t34 -98q0 -87 -58.5 -147t-155.5 -60h-291v689h270q91 0 144.5 -50.5t53.5 -136.5zM214 412h133q34 0 54 23.5t20 59.5q0 37 -20.5 58.5t-57.5 21.5h-129v-163zM367 305h-153v-191h156q40 0 63.5 28.5t23.5 66.5
q0 37 -24 66.5t-66 29.5z" />
    <glyph glyph-name="C" unicode="C" horiz-adv-x="693" 
d="M570 204l101 -74q-46 -65 -119 -102.5t-161 -37.5q-146 0 -246.5 103.5t-100.5 249.5q0 148 100.5 251t246.5 103q86 0 158.5 -36.5t118.5 -99.5l-102 -73q-68 88 -175 88q-93 0 -156 -68t-63 -165t63 -164.5t156 -67.5q54 0 101 25t78 68z" />
    <glyph glyph-name="D" unicode="D" horiz-adv-x="714" 
d="M214 572v-455h141q88 0 135.5 64t47.5 162q0 99 -47.5 164t-135.5 65h-141zM355 0h-269v689h269q144 0 227.5 -97.5t83.5 -248.5q0 -150 -83.5 -246.5t-227.5 -96.5z" />
    <glyph glyph-name="E" unicode="E" horiz-adv-x="572" 
d="M86 0v689h426v-114h-299v-179h262v-113h-262v-169h309v-114h-436z" />
    <glyph glyph-name="F" unicode="F" horiz-adv-x="534" 
d="M86 0v689h421v-114h-293v-179h232v-114h-232v-282h-128z" />
    <glyph glyph-name="G" unicode="G" horiz-adv-x="756" 
d="M645 592l-94 -82q-65 67 -156 67q-94 0 -158.5 -68.5t-64.5 -165.5t64.5 -166t158.5 -69q73 0 128.5 40t57.5 103h-189v105h336q0 -183 -89.5 -274.5t-243.5 -91.5q-147 0 -249 103.5t-102 249.5q0 147 102 250.5t249 103.5q152 0 250 -105z" />
    <glyph glyph-name="H" unicode="H" horiz-adv-x="704" 
d="M489 689h129v-689h-129v285h-276v-285h-127v689h127v-289h276v289z" />
    <glyph glyph-name="I" unicode="I" horiz-adv-x="299" 
d="M86 0v689h127v-689h-127z" />
    <glyph glyph-name="J" unicode="J" horiz-adv-x="300" 
d="M-99 -218l12 116q30 -10 80 -10q47 0 70 30.5t23 78.5v692h128v-692q0 -102 -53.5 -166t-167.5 -64q-32 0 -92 15z" />
    <glyph glyph-name="K" unicode="K" horiz-adv-x="598" 
d="M288 347l324 -347h-167l-230 255v-255h-129v689h129v-251l185 251h150z" />
    <glyph glyph-name="L" unicode="L" horiz-adv-x="506" 
d="M86 0v689h128v-575h266v-114h-394z" />
    <glyph glyph-name="M" unicode="M" horiz-adv-x="919" 
d="M459 223l219 466h110l84 -689h-128l-53 459l-180 -381h-102l-181 381l-54 -459h-128l85 689h108z" />
    <glyph glyph-name="N" unicode="N" horiz-adv-x="682" 
d="M596 689v-689h-117l-266 453v-453h-127v689h119l263 -448v448h128z" />
    <glyph glyph-name="O" unicode="O" horiz-adv-x="787" 
d="M171 343q0 -95 64.5 -161t157.5 -66t157.5 66t64.5 161t-64.5 161.5t-157.5 66.5t-157.5 -66.5t-64.5 -161.5zM44 343q0 147 101 250.5t248 103.5t248.5 -103.5t101.5 -250.5q0 -146 -102 -249.5t-248 -103.5t-247.5 103.5t-101.5 249.5z" />
    <glyph glyph-name="P" unicode="P" horiz-adv-x="612" 
d="M364 575h-150v-216h146q46 0 71.5 32.5t25.5 74.5t-24 75.5t-69 33.5zM86 0v689h280q108 0 163.5 -65.5t55.5 -157.5t-55.5 -156.5t-163.5 -64.5h-152v-245h-128z" />
    <glyph glyph-name="Q" unicode="Q" horiz-adv-x="792" 
d="M593 50l68 -111l-92 -56l-75 121q-50 -14 -99 -14q-147 0 -249 103.5t-102 249.5q0 147 102 250.5t249 103.5q149 0 251 -103t102 -251q0 -89 -41.5 -166.5t-113.5 -126.5zM457 271l70 -114q92 66 92 186q0 97 -65 165t-159 68t-158.5 -68t-64.5 -165q0 -86 53 -149.5
t135 -75.5q29 -5 65 -2l-60 100z" />
    <glyph glyph-name="R" unicode="R" horiz-adv-x="631" 
d="M356 575h-142v-216h138q47 0 72 32t25 75q0 42 -24 75.5t-69 33.5zM407 250l176 -250h-154l-162 245h-53v-245h-128v689h276q107 0 163.5 -65.5t56.5 -157.5q0 -80 -44.5 -141t-130.5 -75z" />
    <glyph glyph-name="S" unicode="S" horiz-adv-x="577" 
d="M46 201h128q2 -40 34 -68.5t85 -28.5q50 0 81 23.5t33 59.5q2 34 -21.5 57t-73.5 37l-85 22q-174 51 -174 192q0 89 67.5 145.5t164.5 56.5q100 0 164.5 -56.5t64.5 -151.5h-128q0 41 -27.5 65.5t-75.5 24.5q-44 0 -73.5 -22.5t-29.5 -58.5q0 -57 82 -79l85 -25
q107 -29 150 -85t38 -125q-4 -90 -73.5 -142.5t-168.5 -52.5q-109 0 -178 61t-69 151z" />
    <glyph glyph-name="T" unicode="T" horiz-adv-x="573" 
d="M28 572v117h517v-117h-194v-572h-129v572h-194z" />
    <glyph glyph-name="U" unicode="U" horiz-adv-x="681" 
d="M341 111q54 0 93.5 37t39.5 95v446h128v-446q0 -112 -76.5 -182.5t-184.5 -70.5q-109 0 -185.5 70.5t-76.5 182.5v446h130v-446q0 -58 39 -95t93 -37z" />
    <glyph glyph-name="V" unicode="V" horiz-adv-x="575" 
d="M20 689h133l134 -480l134 480h133l-209 -689h-115z" />
    <glyph glyph-name="W" unicode="W" horiz-adv-x="892" 
d="M601 209l148 480h139l-234 -689h-103l-106 391l-104 -391h-104l-232 689h138l147 -480l105 384h102z" />
    <glyph glyph-name="X" unicode="X" horiz-adv-x="643" 
d="M613 689l-216 -321l240 -368h-152l-164 265l-164 -265h-151l239 368l-216 321h153l139 -219l139 219h153z" />
    <glyph glyph-name="Y" unicode="Y" horiz-adv-x="644" 
d="M387 0h-131v314l-264 375h152l177 -265l179 265h153l-266 -377v-312z" />
    <glyph glyph-name="Z" unicode="Z" horiz-adv-x="587" 
d="M42 100l332 474h-319v115h484v-101l-335 -473h335v-115h-497v100z" />
    <glyph glyph-name="bracketleft" unicode="[" horiz-adv-x="332" 
d="M76 -227v916h220v-95h-112v-725h112v-96h-220z" />
    <glyph glyph-name="backslash" unicode="\" horiz-adv-x="501" 
d="M30 689h107l334 -689h-107z" />
    <glyph glyph-name="bracketright" unicode="]" horiz-adv-x="332" 
d="M256 689v-916h-220v96h112v725h-112v95h220z" />
    <glyph glyph-name="underscore" unicode="_" horiz-adv-x="728" 
d="M63 -124v93h602v-93h-602z" />
    <glyph glyph-name="grave" unicode="`" horiz-adv-x="539" 
d="M129 707h128l105 -163h-95z" />
    <glyph glyph-name="a" unicode="a" horiz-adv-x="614" 
d="M423 0v60q-21 -33 -63.5 -51t-81.5 -18q-96 0 -167 67.5t-71 175.5t70.5 175.5t167.5 67.5q39 0 80.5 -16.5t64.5 -51.5v58h122v-467h-122zM166 234q0 -55 38.5 -90.5t90.5 -35.5t90 34.5t38 91.5q0 58 -38.5 92t-89.5 34q-52 0 -90.5 -35.5t-38.5 -90.5z" />
    <glyph glyph-name="b" unicode="b" horiz-adv-x="606" 
d="M193 235q0 -57 36.5 -92.5t87.5 -35.5q52 0 87.5 35.5t35.5 92.5q0 56 -35.5 91t-87.5 35q-50 0 -87 -34.5t-37 -91.5zM191 0h-122v721h122v-316q18 34 58 53t88 19q95 0 162 -67.5t67 -176.5q0 -108 -67 -175.5t-162 -67.5q-47 0 -87.5 19.5t-58.5 53.5v-63z" />
    <glyph glyph-name="c" unicode="c" horiz-adv-x="520" 
d="M39 235q0 107 74 174.5t178 67.5q59 0 110 -24t84 -67l-97 -73q-34 46 -97 46q-53 0 -92 -34.5t-39 -89.5t39 -91.5t92 -36.5q63 0 97 47l98 -72q-33 -44 -84.5 -68t-110.5 -24q-104 0 -178 69t-74 176z" />
    <glyph glyph-name="d" unicode="d" horiz-adv-x="606" 
d="M416 0v63q-19 -34 -59.5 -53.5t-87.5 -19.5q-95 0 -162 67.5t-67 175.5q0 109 67 176.5t162 67.5q48 0 88 -19t59 -53v316h121v-721h-121zM414 235q0 57 -37.5 91.5t-87.5 34.5q-52 0 -87.5 -35t-35.5 -91q0 -57 35.5 -92.5t87.5 -35.5t88.5 35.5t36.5 92.5z" />
    <glyph glyph-name="e" unicode="e" horiz-adv-x="553" 
d="M519 235q0 -20 -2 -42h-356q6 -46 41.5 -73t87.5 -27q37 0 69 15.5t48 44.5l93 -50q-30 -57 -89 -85t-129 -28q-102 0 -172 68.5t-70 176.5t70 175t172 67t169.5 -67t67.5 -175zM160 276h240q-7 47 -39 73t-78 26q-49 0 -82.5 -26.5t-40.5 -72.5z" />
    <glyph glyph-name="f" unicode="f" horiz-adv-x="357" 
d="M362 721v-117h-51q-76 0 -76 -100v-37h99v-98h-99v-369h-123v369h-89v98h89v37q0 103 51 160t148 57h51z" />
    <glyph glyph-name="g" unicode="g" horiz-adv-x="611" 
d="M420 234q0 58 -37 92t-90 34q-52 0 -89 -35.5t-37 -90.5q0 -57 36.5 -92.5t89.5 -35.5q50 0 88.5 35.5t38.5 92.5zM157 -45q15 -34 50.5 -55.5t73.5 -21.5q82 0 115 52t27 134q-17 -34 -59 -54t-90 -20q-95 0 -164.5 67.5t-69.5 174.5q0 109 69.5 177t164.5 68
q47 0 88.5 -19.5t60.5 -53.5v63h119v-400q0 -152 -68 -226t-193 -74q-73 0 -132.5 37t-90.5 101z" />
    <glyph glyph-name="h" unicode="h" horiz-adv-x="587" 
d="M191 249v-249h-122v721h122v-326q15 39 59.5 60.5t85.5 21.5q90 0 139 -57t49 -160v-260h-122v254q0 48 -29.5 76t-69.5 28q-45 0 -78.5 -26.5t-33.5 -82.5z" />
    <glyph glyph-name="i" unicode="i" horiz-adv-x="259" 
d="M190 467v-467h-121v467h121zM51 648q0 31 23.5 52t55.5 21t54.5 -21t22.5 -52t-22.5 -52.5t-54.5 -21.5q-33 0 -56 21.5t-23 52.5z" />
    <glyph glyph-name="j" unicode="j" horiz-adv-x="261" 
d="M-59 -233v112h59q71 0 69 88v500h123v-498q0 -202 -174 -202h-77zM52 648q0 30 23 51.5t55 21.5q33 0 55.5 -21t22.5 -52t-22.5 -52.5t-55.5 -21.5q-32 0 -55 21.5t-23 52.5z" />
    <glyph glyph-name="k" unicode="k" horiz-adv-x="519" 
d="M366 0l-176 200v-200h-121v721h121v-394l129 140h158l-196 -205l238 -262h-153z" />
    <glyph glyph-name="l" unicode="l" horiz-adv-x="260" 
d="M69 0v721h122v-721h-122z" />
    <glyph glyph-name="m" unicode="m" horiz-adv-x="864" 
d="M592 358q-43 0 -69 -28.5t-26 -80.5v-249h-122v257q-1 47 -25 74t-61 27q-42 0 -70 -26.5t-28 -82.5v-249h-122v467h122v-69q18 39 56.5 58.5t77.5 19.5q112 -6 149 -87q50 88 147 88q86 0 133 -54t47 -156v-267h-121v254q0 49 -24.5 76.5t-63.5 27.5z" />
    <glyph glyph-name="n" unicode="n" 
d="M191 249v-249h-122v467h122v-69q19 36 58 57.5t81 21.5q83 0 128.5 -51.5t45.5 -149.5v-276h-122v254q0 50 -24 77t-65 27q-45 0 -73.5 -26t-28.5 -83z" />
    <glyph glyph-name="o" unicode="o" horiz-adv-x="566" 
d="M283 110q52 0 87 34.5t35 90.5q0 54 -35 88t-87 34t-87 -34t-35 -88q0 -56 35 -90.5t87 -34.5zM283 -9q-102 0 -172.5 68t-70.5 176t70.5 175t172.5 67t172.5 -67t70.5 -175t-70.5 -176t-172.5 -68z" />
    <glyph glyph-name="p" unicode="p" horiz-adv-x="605" 
d="M191 467v-63q18 34 58.5 53.5t87.5 19.5q94 0 161 -68t67 -175q0 -109 -66.5 -176.5t-161.5 -67.5q-47 0 -87.5 19t-58.5 53v-289h-122v694h122zM193 232q0 -58 36.5 -92t87.5 -34q52 0 87.5 35t35.5 91t-36 92t-87 36q-52 0 -88 -35.5t-36 -92.5z" />
    <glyph glyph-name="q" unicode="q" horiz-adv-x="605" 
d="M412 232q0 57 -36 92.5t-88 35.5q-51 0 -86.5 -35.5t-35.5 -92.5q0 -56 35.5 -91t86.5 -35q50 0 87 34t37 92zM414 404v63h122v-694h-122v289q-18 -34 -58.5 -53t-87.5 -19q-95 0 -161.5 67.5t-66.5 176.5q0 107 67 175t161 68q47 0 87.5 -19.5t58.5 -53.5z" />
    <glyph glyph-name="r" unicode="r" horiz-adv-x="411" 
d="M191 165v-165h-122v467h122v-110q17 60 53 90t79 30q45 0 77 -17l-21 -110q-29 13 -71 13q-117 0 -117 -198z" />
    <glyph glyph-name="s" unicode="s" horiz-adv-x="454" 
d="M182 195q-43 12 -71 28t-40.5 36t-16.5 37.5t-4 41.5q0 56 51 97.5t121 41.5q74 0 126.5 -36t55.5 -111h-116q-1 24 -20 36t-43 12q-59 0 -59 -46q0 -26 49 -39l78 -19q38 -10 64 -28t37.5 -39.5t16 -38.5t4.5 -34q0 -68 -56.5 -106t-134.5 -38q-74 0 -130.5 42.5
t-57.5 114.5h114q2 -25 27.5 -42.5t58.5 -16.5q26 1 43.5 14t17.5 33q1 17 -11.5 27.5t-39.5 16.5z" />
    <glyph glyph-name="t" unicode="t" horiz-adv-x="351" 
d="M229 645v-178h99v-98h-99v-369h-121v369h-85v98h85v178h121z" />
    <glyph glyph-name="u" unicode="u" 
d="M376 218v249h122v-467h-122v66q-19 -36 -55.5 -56t-73.5 -20q-85 0 -134.5 52t-49.5 149v276h123v-254q0 -53 26 -78.5t63 -25.5q43 0 72 26.5t29 82.5z" />
    <glyph glyph-name="v" unicode="v" horiz-adv-x="518" 
d="M205 0l-196 467h130l120 -311l120 311h131l-197 -467h-108z" />
    <glyph glyph-name="w" unicode="w" horiz-adv-x="774" 
d="M759 467l-167 -467h-102l-104 313l-101 -313h-101l-172 467h130l95 -295l94 295h108l95 -295l95 295h130z" />
    <glyph glyph-name="x" unicode="x" horiz-adv-x="520" 
d="M191 254l-153 213h143l80 -115l78 115h143l-153 -213l183 -254h-142l-110 156l-111 -156h-142z" />
    <glyph glyph-name="y" unicode="y" horiz-adv-x="511" 
d="M502 467l-289 -695h-129l107 264l-182 431h130l116 -291l117 291h130z" />
    <glyph glyph-name="z" unicode="z" horiz-adv-x="508" 
d="M56 467h403v-94l-245 -259h245v-114h-418v93l241 260h-226v114z" />
    <glyph glyph-name="braceleft" unicode="{" horiz-adv-x="407" 
d="M34 273q24 0 42.5 16t18.5 40v162q0 89 57.5 143.5t142.5 54.5h78v-94h-81q-38 0 -64.5 -27.5t-26.5 -68.5v-153q0 -41 -19 -72t-49 -43q29 -11 48.5 -42t19.5 -72v-147q0 -41 27 -71t64 -30h81v-96h-78q-85 0 -142.5 54.5t-57.5 143.5v164q0 24 -18.5 39.5t-42.5 15.5
v83z" />
    <glyph glyph-name="bar" unicode="|" horiz-adv-x="221" 
d="M76 800h69v-922h-69v922z" />
    <glyph glyph-name="braceright" unicode="}" horiz-adv-x="407" 
d="M373 273v-83q-24 0 -42.5 -15.5t-18.5 -39.5v-164q0 -89 -57.5 -143.5t-142.5 -54.5h-78v96h81q37 0 64 30t27 71v147q0 41 19.5 72t48.5 42q-30 12 -49 43t-19 72v153q0 41 -26.5 68.5t-64.5 27.5h-81v94h78q85 0 142.5 -54.5t57.5 -143.5v-162q0 -24 18.5 -40t42.5 -16
z" />
    <glyph glyph-name="exclamdown" unicode="&#xa1;" horiz-adv-x="265" 
d="M204 -227h-143l19 493h105zM53 401q0 32 23 54t55 22q33 0 56.5 -21.5t23.5 -54.5t-23.5 -54.5t-56.5 -21.5q-32 0 -55 22t-23 54z" />
    <glyph glyph-name="cent" unicode="&#xa2;" horiz-adv-x="535" 
d="M317 580v-104q110 -9 172 -90l-97 -73q-34 46 -97 46q-53 0 -92 -34.5t-39 -89.5t39 -91.5t92 -36.5q63 0 97 47l98 -72q-63 -82 -173 -91v-113h-69v116q-88 16 -146.5 81t-58.5 160q0 94 58 158t147 80v107h69z" />
    <glyph glyph-name="sterling" unicode="&#xa3;" horiz-adv-x="663" 
d="M395 282h-128v-170h190q40 0 40 31v39h121v-54q0 -55 -32.5 -91.5t-83.5 -36.5h-459v112h102v170h-81v62h81v126q0 103 57.5 165t152.5 62q93 0 154.5 -57t61.5 -163h-125q0 49 -26.5 71.5t-66.5 20.5q-37 -1 -61.5 -24.5t-24.5 -61.5v-139h128v-62z" />
    <glyph glyph-name="currency" unicode="&#xa4;" horiz-adv-x="618" 
d="M202 169l-71 -72l-64 64l71 72q-31 46 -31 106t32 107l-72 72l64 64l72 -72q49 31 106 31q61 0 107 -31l71 72l64 -64l-71 -72q31 -52 31 -107q0 -62 -31 -106l71 -72l-64 -64l-71 72q-47 -32 -107 -32t-107 32zM217 339q0 -38 27 -65t65 -27q39 0 66 27t27 65
q0 39 -27 66t-66 27q-38 0 -65 -27t-27 -66z" />
    <glyph glyph-name="yen" unicode="&#xa5;" horiz-adv-x="723" 
d="M432 322h159v-67h-165v-88h165v-66h-165v-101h-131v101h-164v66h164v88h-164v67h158l-258 367h152l177 -265l179 265h153z" />
    <glyph glyph-name="brokenbar" unicode="&#xa6;" horiz-adv-x="225" 
d="M78 263h69v-385h-69v385zM147 800v-385h-69v385h69z" />
    <glyph glyph-name="section" unicode="&#xa7;" horiz-adv-x="532" 
d="M316 213v-110q-28 -7 -48 -7q-87 0 -147 56.5t-60 147.5v188q0 91 60 147.5t147 56.5q70 0 127.5 -40t75.5 -114l-105 -32q-12 38 -39 57t-59 19q-40 0 -68 -26t-28 -68v-188q0 -44 28.5 -68.5t71.5 -24.5q20 0 44 6zM216 302v110q28 7 48 7q87 0 147 -56.5t60 -147.5
v-188q0 -91 -60 -147.5t-147 -56.5q-70 0 -127.5 40t-75.5 114l105 32q12 -38 39 -57t59 -19q40 0 68 26t28 68v188q0 44 -28.5 68.5t-71.5 24.5q-20 0 -44 -6z" />
    <glyph glyph-name="dieresis" unicode="&#xa8;" horiz-adv-x="551" 
d="M120 632q0 28 20 46.5t49 18.5q28 0 48 -19t20 -46t-20 -46t-48 -19q-29 0 -49 18.5t-20 46.5zM294 632q0 28 20 46.5t49 18.5t48.5 -18.5t19.5 -46.5t-19.5 -46.5t-48.5 -18.5t-49 18.5t-20 46.5z" />
    <glyph glyph-name="copyright" unicode="&#xa9;" horiz-adv-x="801" 
d="M541 222l-45 50q-48 -48 -93 -48q-47 0 -79.5 33.5t-32.5 80.5t32.5 80t79.5 33q45 0 91 -46l46 47q-63 66 -137 66q-76 0 -128 -52.5t-52 -127.5t52.5 -128t127.5 -53q76 0 138 65zM51 343q0 147 101.5 250.5t247.5 103.5t248 -103.5t102 -250.5t-102 -250t-248 -103
t-247.5 103t-101.5 250zM112 343q0 -121 84 -206t204 -85t204 85t84 206t-84 206.5t-204 85.5t-204 -85.5t-84 -206.5z" />
    <glyph glyph-name="ordfeminine" unicode="&#xaa;" horiz-adv-x="477" 
d="M327 324v46q-17 -24 -46.5 -38.5t-60.5 -14.5q-70 0 -119 47.5t-49 124.5t49 124.5t119 47.5q71 0 107 -52v45h71v-330h-71zM327 490q0 46 -31 73t-71 27q-42 0 -70.5 -28t-28.5 -72t28.5 -73t70.5 -29q43 0 72.5 27.5t29.5 74.5zM81 203v62h315v-62h-315z" />
    <glyph glyph-name="guillemotleft" unicode="&#xab;" horiz-adv-x="499" 
d="M41 233l138 207h98l-138 -207l138 -207h-98zM218 233l138 207h98l-138 -207l138 -207h-98z" />
    <glyph glyph-name="logicalnot" unicode="&#xac;" horiz-adv-x="633" 
d="M70 368h487v-259h-109v151h-378v108z" />
    <glyph glyph-name="registered" unicode="&#xae;" horiz-adv-x="801" 
d="M544 165l-90 127q38 10 57.5 40.5t19.5 69.5q0 47 -30 81.5t-84 34.5h-137v-353h69v122h23l88 -122h84zM349 450h68q21 0 33.5 -14t12.5 -34q0 -19 -13 -33t-35 -14h-66v95zM51 343q0 147 101.5 250.5t247.5 103.5t248 -103.5t102 -250.5t-102 -250t-248 -103t-247.5 103
t-101.5 250zM112 343q0 -121 84 -206t204 -85t204 85t84 206t-84 206.5t-204 85.5t-204 -85.5t-84 -206.5z" />
    <glyph glyph-name="macron" unicode="&#xaf;" horiz-adv-x="509" 
d="M120 585v83h269v-83h-269z" />
    <glyph glyph-name="degree" unicode="&#xb0;" horiz-adv-x="373" 
d="M47 558q0 57 41 98t98 41q58 0 99 -41t41 -98q0 -58 -41 -99t-99 -41q-57 0 -98 41t-41 99zM118 558q0 -29 20 -49t48 -20q29 0 49 20t20 49t-20 48.5t-49 19.5q-28 0 -48 -20t-20 -48z" />
    <glyph glyph-name="plusminus" unicode="&#xb1;" horiz-adv-x="546" 
d="M321 287v-144h-97v144h-155v96h155v142h97v-142h156v-96h-156zM477 -1h-408v95h408v-95z" />
    <glyph glyph-name="twosuperior" unicode="&#xb2;" horiz-adv-x="317" 
d="M31 470l157 187q22 27 22 50q0 20 -14.5 33t-39.5 13q-23 0 -39.5 -15.5t-20.5 -41.5l-67 14q9 52 44 82.5t86 30.5q52 0 88 -32.5t36 -83.5q0 -52 -41 -98l-93 -106h128v-70h-246v37z" />
    <glyph glyph-name="threesuperior" unicode="&#xb3;" horiz-adv-x="320" 
d="M99 730q-2 2 -27.5 18.5t-27.5 18.5q17 27 48 42.5t68 13.5q49 -3 80 -34t31 -73q0 -49 -48 -76q30 -11 48.5 -41.5t15.5 -61.5q-4 -49 -47.5 -81t-99.5 -28q-39 3 -71.5 25t-48.5 55q52 26 62 32q21 -38 63 -43q25 -1 44 13.5t21 35.5q1 21 -12.5 40t-47.5 18h-42v63h42
q25 0 35.5 17.5t8.5 32.5q-1 15 -13 27t-31 12q-32 1 -51 -26z" />
    <glyph glyph-name="acute" unicode="&#xb4;" horiz-adv-x="539" 
d="M234 707h128l-138 -163h-95z" />
    <glyph glyph-name="mu" unicode="&#xb5;" 
d="M76 -178v645h122v-256q0 -51 25.5 -76.5t60.5 -25.5q43 0 72 26.5t29 82.5v249h122v-467h-122v62q-19 -34 -54 -53t-71 -19q-48 0 -79 28l9 -126v-70h-114z" />
    <glyph glyph-name="paragraph" unicode="&#xb6;" horiz-adv-x="692" 
d="M337 689v-702q0 -29 -6 -35q-7 -6 -24 -6h-66v309q-86 5 -146.5 68t-60.5 149q0 90 63 153.5t154 63.5h86zM521 594h-29v-653q0 -52 -41.5 -94t-95.5 -43h-28h-87v86h109q20 0 34.5 13.5t14.5 32.5v753h121q56 0 96.5 -41t40.5 -96v-85h-90v79q0 20 -13 34t-32 14z" />
    <glyph glyph-name="periodcentered" unicode="&#xb7;" horiz-adv-x="278" 
d="M60 313q0 32 23 54t55 22q33 0 56.5 -21.5t23.5 -54.5t-23.5 -54.5t-56.5 -21.5q-32 0 -55 22t-23 54z" />
    <glyph glyph-name="cedilla" unicode="&#xb8;" horiz-adv-x="528" 
d="M236 -122q5 -13 17 -18.5t26 -1.5q28 11 17 46l-46 125h59l51 -94q9 -16 9 -46q0 -41 -30.5 -71.5t-74.5 -30.5q-42 0 -72.5 32.5t-29.5 87.5l69 -4q0 -13 5 -25z" />
    <glyph glyph-name="onesuperior" unicode="&#xb9;" horiz-adv-x="212" 
d="M88 433v284l-66 -30v65l139 70v-389h-73z" />
    <glyph glyph-name="ordmasculine" unicode="&#xba;" horiz-adv-x="464" 
d="M229 317q-73 0 -123 48t-50 126q0 75 50.5 122.5t122.5 47.5t122.5 -47.5t50.5 -122.5q0 -77 -50.5 -125.5t-122.5 -48.5zM229 388q42 0 71.5 28.5t29.5 74.5q0 44 -29.5 71.5t-71.5 27.5t-71.5 -27.5t-29.5 -71.5q0 -46 29.5 -74.5t71.5 -28.5zM74 203v62h320v-62h-320z
" />
    <glyph glyph-name="guillemotright" unicode="&#xbb;" horiz-adv-x="499" 
d="M281 233l-138 -207h-98l138 207l-138 207h98zM458 233l-138 -207h-98l138 207l-138 207h98z" />
    <glyph glyph-name="onequarter" unicode="&#xbc;" horiz-adv-x="777" 
d="M632 669l-450 -679h-78l452 679h76zM105 270v284l-66 -30v66l139 69v-389h-73zM689 83v-83h-73v83h-190l193 302h70v-238h51v-64h-51zM534 147h82v130z" />
    <glyph glyph-name="onehalf" unicode="&#xbd;" horiz-adv-x="792" 
d="M632 669l-450 -679h-78l452 679h76zM105 270v284l-66 -30v66l139 69v-389h-73zM495 38l157 187q22 27 22 50q0 20 -15 33t-39 13q-23 0 -39.5 -15.5t-20.5 -41.5l-67 13q9 53 44 83.5t86 30.5q52 0 88 -33t36 -83q0 -52 -41 -98l-93 -107h128v-70h-246v38z" />
    <glyph glyph-name="threequarters" unicode="&#xbe;" horiz-adv-x="853" 
d="M708 669l-450 -679h-78l452 679h76zM765 83v-83h-73v83h-190l193 302h70v-238h51v-64h-51zM610 147h82v130zM115 567l-55 38q17 27 48 42.5t68 13.5q49 -3 80 -34t31 -73q0 -49 -48 -76q30 -11 48.5 -41.5t15.5 -62.5q-4 -49 -47.5 -81t-99.5 -28q-39 3 -71.5 25
t-48.5 56l62 32q23 -43 63 -43q25 -1 44 13.5t21 34.5q1 21 -12.5 40.5t-47.5 18.5h-42v63h42q25 0 35.5 17.5t8.5 32.5q-1 15 -13 27t-31 12q-33 1 -51 -27z" />
    <glyph glyph-name="questiondown" unicode="&#xbf;" horiz-adv-x="482" 
d="M229 231l2 36h119l2 -36q0 -39 -7.5 -67t-16.5 -45.5t-34.5 -36t-42 -27l-58.5 -29.5q-38 -16 -38 -65q0 -31 25.5 -51.5t61.5 -20.5q37 0 61 24t24 63h121q0 -95 -57.5 -152t-148.5 -57t-150 53.5t-59 141.5q0 70 38.5 120t99.5 69q31 10 44.5 27.5t13.5 52.5zM368 400
q0 -32 -23 -54t-56 -22t-56 22t-23 54q0 33 23 55t56 22t56 -22t23 -55z" />
    <glyph glyph-name="Agrave" unicode="&#xc0;" horiz-adv-x="654" 
d="M519 0l-63 167h-257l-63 -167h-136l258 689h138l258 -689h-135zM327 542l-85 -263h172zM151 929h128l105 -163h-95z" />
    <glyph glyph-name="Aacute" unicode="&#xc1;" horiz-adv-x="654" 
d="M456 167l63 -167h135l-258 689h-138l-258 -689h136l63 167h257zM242 279l85 263l87 -263h-172zM372 929h128l-138 -163h-95z" />
    <glyph glyph-name="Acircumflex" unicode="&#xc2;" horiz-adv-x="654" 
d="M519 0l-63 167h-257l-63 -167h-136l258 689h138l258 -689h-135zM327 542l-85 -263h172zM265 932h123l110 -163h-94l-78 88l-76 -88h-94z" />
    <glyph glyph-name="Atilde" unicode="&#xc3;" horiz-adv-x="654" 
d="M519 0l-63 167h-257l-63 -167h-136l258 689h138l258 -689h-135zM327 542l-85 -263h172zM282 829q-8 0 -16.5 -11t-9.5 -32h-70q3 65 31.5 95t64.5 30q24 0 51 -20.5t37 -20.5q8 0 17 10t10 31h70q-3 -64 -32.5 -93.5t-64.5 -29.5q-23 0 -51 20.5t-37 20.5z" />
    <glyph glyph-name="Adieresis" unicode="&#xc4;" horiz-adv-x="654" 
d="M456 167l63 -167h135l-258 689h-138l-258 -689h136l63 167h257zM242 279l85 263l87 -263h-172zM171 854q0 28 20 46.5t49 18.5q28 0 48 -19t20 -46t-20 -46t-48 -19q-29 0 -49 18.5t-20 46.5zM345 854q0 28 20 46.5t49 18.5t48.5 -18.5t19.5 -46.5t-19.5 -46.5
t-48.5 -18.5t-49 18.5t-20 46.5z" />
    <glyph glyph-name="Aring" unicode="&#xc5;" horiz-adv-x="654" 
d="M456 167l63 -167h135l-258 689h-138l-258 -689h136l63 167h257zM242 279l85 263l87 -263h-172zM211 876q0 49 33.5 83t80.5 34q49 0 83 -33.5t34 -83.5q0 -48 -34 -81t-83 -33q-47 0 -80.5 33t-33.5 81zM268 876q0 -24 17 -40.5t40 -16.5q25 0 42 16.5t17 40.5
q0 25 -17 42t-42 17q-23 0 -40 -17t-17 -42z" />
    <glyph glyph-name="AE" unicode="&#xc6;" horiz-adv-x="933" 
d="M421 689h452v-116h-298v-177h261v-114h-261v-166h308v-116h-435v1l-1 -1v163h-205l-104 -163h-152zM447 516l-132 -230h132v230z" />
    <glyph glyph-name="Ccedilla" unicode="&#xc7;" horiz-adv-x="694" 
d="M327 -122q5 -13 17 -18.5t26 -1.5q28 11 17 46l-33 88q-133 14 -221 114t-88 237q0 148 100.5 251t246.5 103q86 0 158.5 -36.5t118.5 -99.5l-102 -73q-68 88 -175 88q-93 0 -156 -68t-63 -165t63 -164.5t156 -67.5q54 0 101 25t78 68l101 -74q-42 -60 -107.5 -96.5
t-144.5 -42.5l31 -56q9 -16 9 -46q0 -41 -31 -71.5t-74 -30.5q-42 0 -72.5 32.5t-29.5 87.5l69 -4q0 -13 5 -25z" />
    <glyph glyph-name="Egrave" unicode="&#xc8;" horiz-adv-x="572" 
d="M86 0v689h426v-114h-299v-179h262v-113h-262v-169h309v-114h-436zM152 929h128l105 -163h-95z" />
    <glyph glyph-name="Eacute" unicode="&#xc9;" horiz-adv-x="572" 
d="M86 689v-689h436v114h-309v169h262v113h-262v179h299v114h-426zM296 929h128l-138 -163h-95z" />
    <glyph glyph-name="Ecircumflex" unicode="&#xca;" horiz-adv-x="572" 
d="M86 0v689h426v-114h-299v-179h262v-113h-262v-169h309v-114h-436zM222 932h123l110 -163h-94l-78 88l-76 -88h-94z" />
    <glyph glyph-name="Edieresis" unicode="&#xcb;" horiz-adv-x="572" 
d="M86 689v-689h436v114h-309v169h262v113h-262v179h299v114h-426zM142 854q0 28 20 46.5t49 18.5q28 0 48 -19t20 -46t-20 -46t-48 -19q-29 0 -49 18.5t-20 46.5zM316 854q0 28 20 46.5t49 18.5t48.5 -18.5t19.5 -46.5t-19.5 -46.5t-48.5 -18.5t-49 18.5t-20 46.5z" />
    <glyph glyph-name="Igrave" unicode="&#xcc;" horiz-adv-x="299" 
d="M86 0v689h127v-689h-127zM-21 929h128l105 -163h-95z" />
    <glyph glyph-name="Iacute" unicode="&#xcd;" horiz-adv-x="299" 
d="M86 689v-689h127v689h-127zM192 929h128l-138 -163h-95z" />
    <glyph glyph-name="Icircumflex" unicode="&#xce;" horiz-adv-x="299" 
d="M86 0v689h127v-689h-127zM88 932h123l110 -163h-94l-78 88l-76 -88h-94z" />
    <glyph glyph-name="Idieresis" unicode="&#xcf;" horiz-adv-x="299" 
d="M86 689v-689h127v689h-127zM-6 854q0 28 20 46.5t49 18.5q28 0 48 -19t20 -46t-20 -46t-48 -19q-29 0 -49 18.5t-20 46.5zM168 854q0 28 20 46.5t49 18.5t48.5 -18.5t19.5 -46.5t-19.5 -46.5t-48.5 -18.5t-49 18.5t-20 46.5z" />
    <glyph glyph-name="Eth" unicode="&#xd0;" horiz-adv-x="722" 
d="M3 293v88h94v308h267q145 0 227.5 -97t82.5 -249q0 -151 -82.5 -247t-227.5 -96h-267v293h-94zM224 293v-174h140q88 0 135.5 63t47.5 161t-47.5 162.5t-135.5 64.5h-140v-189h138v-88h-138z" />
    <glyph glyph-name="Ntilde" unicode="&#xd1;" horiz-adv-x="682" 
d="M596 689v-689h-117l-266 453v-453h-127v689h119l263 -448v448h128zM296 829q-8 0 -16.5 -11t-9.5 -32h-70q3 65 31.5 95t64.5 30q24 0 51 -20.5t37 -20.5q8 0 17 10t10 31h70q-3 -64 -32.5 -93.5t-64.5 -29.5q-23 0 -51 20.5t-37 20.5z" />
    <glyph glyph-name="Ograve" unicode="&#xd2;" horiz-adv-x="787" 
d="M171 343q0 -95 64.5 -161t157.5 -66t157.5 66t64.5 161t-64.5 161.5t-157.5 66.5t-157.5 -66.5t-64.5 -161.5zM44 343q0 147 101 250.5t248 103.5t248.5 -103.5t101.5 -250.5q0 -146 -102 -249.5t-248 -103.5t-247.5 103.5t-101.5 249.5zM208 929h128l105 -163h-95z" />
    <glyph glyph-name="Oacute" unicode="&#xd3;" horiz-adv-x="787" 
d="M171 343q0 95 64.5 161.5t157.5 66.5t157.5 -66.5t64.5 -161.5t-64.5 -161t-157.5 -66t-157.5 66t-64.5 161zM44 343q0 -146 101.5 -249.5t247.5 -103.5t248 103.5t102 249.5q0 147 -101.5 250.5t-248.5 103.5t-248 -103.5t-101 -250.5zM444 929h128l-138 -163h-95z" />
    <glyph glyph-name="Ocircumflex" unicode="&#xd4;" horiz-adv-x="787" 
d="M171 343q0 -95 64.5 -161t157.5 -66t157.5 66t64.5 161t-64.5 161.5t-157.5 66.5t-157.5 -66.5t-64.5 -161.5zM44 343q0 147 101 250.5t248 103.5t248.5 -103.5t101.5 -250.5q0 -146 -102 -249.5t-248 -103.5t-247.5 103.5t-101.5 249.5zM331 932h123l110 -163h-94
l-78 88l-76 -88h-94z" />
    <glyph glyph-name="Otilde" unicode="&#xd5;" horiz-adv-x="787" 
d="M171 343q0 -95 64.5 -161t157.5 -66t157.5 66t64.5 161t-64.5 161.5t-157.5 66.5t-157.5 -66.5t-64.5 -161.5zM44 343q0 147 101 250.5t248 103.5t248.5 -103.5t101.5 -250.5q0 -146 -102 -249.5t-248 -103.5t-247.5 103.5t-101.5 249.5zM349 829q-8 0 -16.5 -11
t-9.5 -32h-70q3 65 31.5 95t64.5 30q24 0 51 -20.5t37 -20.5q8 0 17 10t10 31h70q-3 -64 -32.5 -93.5t-64.5 -29.5q-23 0 -51 20.5t-37 20.5z" />
    <glyph glyph-name="Odieresis" unicode="&#xd6;" horiz-adv-x="787" 
d="M171 343q0 95 64.5 161.5t157.5 66.5t157.5 -66.5t64.5 -161.5t-64.5 -161t-157.5 -66t-157.5 66t-64.5 161zM44 343q0 -146 101.5 -249.5t247.5 -103.5t248 103.5t102 249.5q0 147 -101.5 250.5t-248.5 103.5t-248 -103.5t-101 -250.5zM238 854q0 28 20 46.5t49 18.5
q28 0 48 -19t20 -46t-20 -46t-48 -19q-29 0 -49 18.5t-20 46.5zM412 854q0 28 20 46.5t49 18.5t48.5 -18.5t19.5 -46.5t-19.5 -46.5t-48.5 -18.5t-49 18.5t-20 46.5z" />
    <glyph glyph-name="multiply" unicode="&#xd7;" horiz-adv-x="492" 
d="M314 264l120 -119l-68 -69l-120 119l-118 -117l-68 68l118 118l-119 119l68 67l119 -118l120 120l68 -69z" />
    <glyph glyph-name="Oslash" unicode="&#xd8;" horiz-adv-x="785" 
d="M173 66l-80 -82l-47 47l80 82q-83 99 -83 230q0 147 101 250.5t248 103.5q128 0 223 -81l79 81l47 -46l-80 -82q81 -99 81 -226q0 -146 -102 -249.5t-248 -103.5q-113 0 -202 65q-2 1 -8 5zM170 343q0 -76 45 -139l311 321q-57 46 -134 46q-93 0 -157.5 -66.5
t-64.5 -161.5zM392 116q93 0 157.5 66t64.5 161q0 73 -43 134l-309 -319q56 -42 130 -42z" />
    <glyph glyph-name="Ugrave" unicode="&#xd9;" horiz-adv-x="681" 
d="M341 111q54 0 93.5 37t39.5 95v446h128v-446q0 -112 -76.5 -182.5t-184.5 -70.5q-109 0 -185.5 70.5t-76.5 182.5v446h130v-446q0 -58 39 -95t93 -37zM183 929h128l105 -163h-95z" />
    <glyph glyph-name="Uacute" unicode="&#xda;" horiz-adv-x="681" 
d="M341 111q54 0 93.5 37t39.5 95v446h128v-446q0 -112 -76.5 -182.5t-184.5 -70.5q-109 0 -185.5 70.5t-76.5 182.5v446h130v-446q0 -58 39 -95t93 -37zM361 929h128l-138 -163h-95z" />
    <glyph glyph-name="Ucircumflex" unicode="&#xdb;" horiz-adv-x="681" 
d="M341 111q54 0 93.5 37t39.5 95v446h128v-446q0 -112 -76.5 -182.5t-184.5 -70.5q-109 0 -185.5 70.5t-76.5 182.5v446h130v-446q0 -58 39 -95t93 -37zM278 932h123l110 -163h-94l-78 88l-76 -88h-94z" />
    <glyph glyph-name="Udieresis" unicode="&#xdc;" horiz-adv-x="681" 
d="M341 111q54 0 93.5 37t39.5 95v446h128v-446q0 -112 -76.5 -182.5t-184.5 -70.5q-109 0 -185.5 70.5t-76.5 182.5v446h130v-446q0 -58 39 -95t93 -37zM185 854q0 28 20 46.5t49 18.5q28 0 48 -19t20 -46t-20 -46t-48 -19q-29 0 -49 18.5t-20 46.5zM359 854q0 28 20 46.5
t49 18.5t48.5 -18.5t19.5 -46.5t-19.5 -46.5t-48.5 -18.5t-49 18.5t-20 46.5z" />
    <glyph glyph-name="Yacute" unicode="&#xdd;" horiz-adv-x="644" 
d="M387 0h-131v314l-264 375h152l177 -265l179 265h153l-266 -377v-312zM353 929h128l-138 -163h-95z" />
    <glyph glyph-name="Thorn" unicode="&#xde;" horiz-adv-x="573" 
d="M418 351q0 50 -29.5 79.5t-70.5 31.5h-105v-220h108q40 0 68.5 30t28.5 79zM326 130h-113v-130h-127v689h127v-116h113q93 0 155.5 -60.5t62.5 -159.5t-62.5 -161t-155.5 -62z" />
    <glyph glyph-name="germandbls" unicode="&#xdf;" 
d="M223 2l18 115q31 -8 59 -8q49 0 80.5 34.5t31.5 80.5q0 42 -30.5 78.5t-85.5 36.5h-31v104h24q30 0 48.5 21t18.5 52q0 30 -22.5 49.5t-58.5 19.5q-38 0 -62 -25.5t-24 -98.5v-461h-120v490q0 97 56 152t145 55t146 -48.5t57 -119.5q0 -80 -63 -122q52 -25 84.5 -75
t32.5 -114q0 -99 -60.5 -163.5t-165.5 -64.5q-38 0 -78 12z" />
    <glyph glyph-name="agrave" unicode="&#xe0;" horiz-adv-x="614" 
d="M423 0v60q-21 -33 -63.5 -51t-81.5 -18q-96 0 -167 67.5t-71 175.5t70.5 175.5t167.5 67.5q39 0 80.5 -16.5t64.5 -51.5v58h122v-467h-122zM166 234q0 -55 38.5 -90.5t90.5 -35.5t90 34.5t38 91.5q0 58 -38.5 92t-89.5 34q-52 0 -90.5 -35.5t-38.5 -90.5zM154 707h128
l105 -163h-95z" />
    <glyph glyph-name="aacute" unicode="&#xe1;" horiz-adv-x="614" 
d="M423 0v60q-21 -33 -63.5 -51t-81.5 -18q-96 0 -167 67.5t-71 175.5t70.5 175.5t167.5 67.5q39 0 80.5 -16.5t64.5 -51.5v58h122v-467h-122zM166 234q0 -55 38.5 -90.5t90.5 -35.5t90 34.5t38 91.5q0 58 -38.5 92t-89.5 34q-52 0 -90.5 -35.5t-38.5 -90.5zM324 707h128
l-138 -163h-95z" />
    <glyph glyph-name="acircumflex" unicode="&#xe2;" horiz-adv-x="614" 
d="M423 0v60q-21 -33 -63.5 -51t-81.5 -18q-96 0 -167 67.5t-71 175.5t70.5 175.5t167.5 67.5q39 0 80.5 -16.5t64.5 -51.5v58h122v-467h-122zM166 234q0 -55 38.5 -90.5t90.5 -35.5t90 34.5t38 91.5q0 58 -38.5 92t-89.5 34q-52 0 -90.5 -35.5t-38.5 -90.5zM245 710h123
l110 -163h-94l-78 88l-76 -88h-94z" />
    <glyph glyph-name="atilde" unicode="&#xe3;" horiz-adv-x="614" 
d="M423 0v60q-21 -33 -63.5 -51t-81.5 -18q-96 0 -167 67.5t-71 175.5t70.5 175.5t167.5 67.5q39 0 80.5 -16.5t64.5 -51.5v58h122v-467h-122zM166 234q0 -55 38.5 -90.5t90.5 -35.5t90 34.5t38 91.5q0 58 -38.5 92t-89.5 34q-52 0 -90.5 -35.5t-38.5 -90.5zM263 607
q-8 0 -16.5 -11t-9.5 -32h-70q3 65 31.5 95t64.5 30q24 0 51 -20.5t37 -20.5q8 0 17 10t10 31h70q-3 -64 -32.5 -93.5t-64.5 -29.5q-23 0 -51 20.5t-37 20.5z" />
    <glyph glyph-name="adieresis" unicode="&#xe4;" horiz-adv-x="614" 
d="M423 0v60q-21 -33 -63.5 -51t-81.5 -18q-96 0 -167 67.5t-71 175.5t70.5 175.5t167.5 67.5q39 0 80.5 -16.5t64.5 -51.5v58h122v-467h-122zM166 234q0 -55 38.5 -90.5t90.5 -35.5t90 34.5t38 91.5q0 58 -38.5 92t-89.5 34q-52 0 -90.5 -35.5t-38.5 -90.5zM152 632
q0 28 20 46.5t49 18.5q28 0 48 -19t20 -46t-20 -46t-48 -19q-29 0 -49 18.5t-20 46.5zM326 632q0 28 20 46.5t49 18.5t48.5 -18.5t19.5 -46.5t-19.5 -46.5t-48.5 -18.5t-49 18.5t-20 46.5z" />
    <glyph glyph-name="aring" unicode="&#xe5;" horiz-adv-x="614" 
d="M423 0v60q-21 -33 -63.5 -51t-81.5 -18q-96 0 -167 67.5t-71 175.5t70.5 175.5t167.5 67.5q39 0 80.5 -16.5t64.5 -51.5v58h122v-467h-122zM166 234q0 -55 38.5 -90.5t90.5 -35.5t90 34.5t38 91.5q0 58 -38.5 92t-89.5 34q-52 0 -90.5 -35.5t-38.5 -90.5zM192 654
q0 49 33.5 83t80.5 34q50 0 83.5 -33.5t33.5 -83.5q0 -48 -34 -81t-83 -33q-47 0 -80.5 33t-33.5 81zM249 654q0 -24 17 -40.5t40 -16.5q25 0 42 16.5t17 40.5q0 25 -17 42t-42 17q-23 0 -40 -17t-17 -42z" />
    <glyph glyph-name="ae" unicode="&#xe6;" horiz-adv-x="993" 
d="M599 276h240q-6 46 -38 72.5t-79 26.5q-49 0 -82.5 -26t-40.5 -73zM166 234q0 -55 38.5 -90.5t90.5 -35.5t90 34.5t38 91.5q0 58 -38.5 92t-89.5 34q-52 0 -90.5 -35.5t-38.5 -90.5zM958 235q0 -20 -2 -42h-356q7 -46 42 -73t87 -27q37 0 69 15.5t48 44.5l94 -50
q-31 -57 -90 -85t-128 -28q-120 0 -186 87v-77h-113v60q-21 -33 -63.5 -51t-81.5 -18q-96 0 -167 67.5t-71 175.5t70.5 175.5t167.5 67.5q39 0 80.5 -16.5t64.5 -51.5v58h113v-75q66 85 186 85q102 0 169 -67t67 -175z" />
    <glyph glyph-name="ccedilla" unicode="&#xe7;" horiz-adv-x="522" 
d="M320 -8l31 -57q9 -16 9 -46q0 -41 -31 -71.5t-74 -30.5q-42 0 -72.5 32.5t-29.5 87.5l69 -4q0 -13 5 -25q5 -13 17 -18.5t26 -1.5q28 11 17 46l-33 89q-91 12 -152.5 78.5t-61.5 163.5q0 107 74 174.5t178 67.5q59 0 110 -24t84 -67l-97 -73q-34 46 -97 46
q-53 0 -92 -34.5t-39 -89.5t39 -91.5t92 -36.5q63 0 97 47l98 -72q-60 -79 -167 -90z" />
    <glyph glyph-name="egrave" unicode="&#xe8;" horiz-adv-x="553" 
d="M519 235q0 -20 -2 -42h-356q6 -46 41.5 -73t87.5 -27q37 0 69 15.5t48 44.5l93 -50q-30 -57 -89 -85t-129 -28q-102 0 -172 68.5t-70 176.5t70 175t172 67t169.5 -67t67.5 -175zM160 276h240q-7 47 -39 73t-78 26q-49 0 -82.5 -26.5t-40.5 -72.5zM112 707h128l105 -163
h-95z" />
    <glyph glyph-name="eacute" unicode="&#xe9;" horiz-adv-x="553" 
d="M519 235q0 108 -67.5 175t-169.5 67t-172 -67t-70 -175t70 -176.5t172 -68.5q70 0 129 28t89 85l-93 50q-16 -29 -48 -44.5t-69 -15.5q-52 0 -87.5 27t-41.5 73h356q2 22 2 42zM160 276q7 46 40.5 72.5t82.5 26.5q46 0 78 -26t39 -73h-240zM332 707h128l-138 -163h-95z
" />
    <glyph glyph-name="ecircumflex" unicode="&#xea;" horiz-adv-x="553" 
d="M519 235q0 -20 -2 -42h-356q6 -46 41.5 -73t87.5 -27q37 0 69 15.5t48 44.5l93 -50q-30 -57 -89 -85t-129 -28q-102 0 -172 68.5t-70 176.5t70 175t172 67t169.5 -67t67.5 -175zM160 276h240q-7 47 -39 73t-78 26q-49 0 -82.5 -26.5t-40.5 -72.5zM217 710h123l110 -163
h-94l-78 88l-76 -88h-94z" />
    <glyph glyph-name="edieresis" unicode="&#xeb;" horiz-adv-x="553" 
d="M519 235q0 108 -67.5 175t-169.5 67t-172 -67t-70 -175t70 -176.5t172 -68.5q70 0 129 28t89 85l-93 50q-16 -29 -48 -44.5t-69 -15.5q-52 0 -87.5 27t-41.5 73h356q2 22 2 42zM160 276q7 46 40.5 72.5t82.5 26.5q46 0 78 -26t39 -73h-240zM124 632q0 28 20 46.5t49 18.5
q28 0 48 -19t20 -46t-20 -46t-48 -19q-29 0 -49 18.5t-20 46.5zM298 632q0 28 20 46.5t49 18.5t48.5 -18.5t19.5 -46.5t-19.5 -46.5t-48.5 -18.5t-49 18.5t-20 46.5z" />
    <glyph glyph-name="igrave" unicode="&#xec;" horiz-adv-x="259" 
d="M69 467h121v-467h-121v467zM-46 707h128l105 -163h-95z" />
    <glyph glyph-name="iacute" unicode="&#xed;" horiz-adv-x="259" 
d="M190 467h-121v-467h121v467zM173 707h128l-138 -163h-95z" />
    <glyph glyph-name="icircumflex" unicode="&#xee;" horiz-adv-x="259" 
d="M69 467h121v-467h-121v467zM68 710h123l110 -163h-94l-78 88l-76 -88h-94z" />
    <glyph glyph-name="idieresis" unicode="&#xef;" horiz-adv-x="259" 
d="M190 467h-121v-467h121v467zM-26 632q0 28 20 46.5t49 18.5q28 0 48 -19t20 -46t-20 -46t-48 -19q-29 0 -49 18.5t-20 46.5zM148 632q0 28 20 46.5t49 18.5t48.5 -18.5t19.5 -46.5t-19.5 -46.5t-48.5 -18.5t-49 18.5t-20 46.5z" />
    <glyph glyph-name="eth" unicode="&#xf0;" 
d="M323 588l157 -209q46 -63 46 -145q0 -108 -70.5 -176t-172.5 -68t-172.5 68t-70.5 176q0 98 61 163t151 72q20 2 44 -3l-63 76l-85 -43l-30 48l80 41l-75 101h123l42 -56l79 39l35 -43zM283 109q52 0 88 34.5t36 90.5q0 55 -36 88.5t-88 33.5t-87.5 -33.5t-35.5 -88.5
q0 -56 35.5 -90.5t87.5 -34.5z" />
    <glyph glyph-name="ntilde" unicode="&#xf1;" 
d="M191 249v-249h-122v467h122v-69q19 36 58 57.5t81 21.5q83 0 128.5 -51.5t45.5 -149.5v-276h-122v254q0 50 -24 77t-65 27q-45 0 -73.5 -26t-28.5 -83zM239 607q-8 0 -16.5 -11t-9.5 -32h-70q3 65 31.5 95t64.5 30q24 0 51 -20.5t37 -20.5q8 0 17 10t10 31h70
q-3 -64 -32.5 -93.5t-64.5 -29.5q-23 0 -51 20.5t-37 20.5z" />
    <glyph glyph-name="ograve" unicode="&#xf2;" horiz-adv-x="566" 
d="M283 110q52 0 87 34.5t35 90.5q0 54 -35 88t-87 34t-87 -34t-35 -88q0 -56 35 -90.5t87 -34.5zM283 -9q-102 0 -172.5 68t-70.5 176t70.5 175t172.5 67t172.5 -67t70.5 -175t-70.5 -176t-172.5 -68zM115 707h128l105 -163h-95z" />
    <glyph glyph-name="oacute" unicode="&#xf3;" horiz-adv-x="566" 
d="M283 110q-52 0 -87 34.5t-35 90.5q0 54 35 88t87 34t87 -34t35 -88q0 -56 -35 -90.5t-87 -34.5zM283 -9q102 0 172.5 68t70.5 176t-70.5 175t-172.5 67t-172.5 -67t-70.5 -175t70.5 -176t172.5 -68zM324 707h128l-138 -163h-95z" />
    <glyph glyph-name="ocircumflex" unicode="&#xf4;" horiz-adv-x="566" 
d="M283 110q52 0 87 34.5t35 90.5q0 54 -35 88t-87 34t-87 -34t-35 -88q0 -56 35 -90.5t87 -34.5zM283 -9q-102 0 -172.5 68t-70.5 176t70.5 175t172.5 67t172.5 -67t70.5 -175t-70.5 -176t-172.5 -68zM221 710h123l110 -163h-94l-78 88l-76 -88h-94z" />
    <glyph glyph-name="otilde" unicode="&#xf5;" horiz-adv-x="566" 
d="M283 110q52 0 87 34.5t35 90.5q0 54 -35 88t-87 34t-87 -34t-35 -88q0 -56 35 -90.5t87 -34.5zM283 -9q-102 0 -172.5 68t-70.5 176t70.5 175t172.5 67t172.5 -67t70.5 -175t-70.5 -176t-172.5 -68zM238 607q-8 0 -16.5 -11t-9.5 -32h-70q3 65 31.5 95t64.5 30
q24 0 51 -20.5t37 -20.5q8 0 17 10t10 31h70q-3 -64 -32.5 -93.5t-64.5 -29.5q-23 0 -51 20.5t-37 20.5z" />
    <glyph glyph-name="odieresis" unicode="&#xf6;" horiz-adv-x="566" 
d="M283 110q-52 0 -87 34.5t-35 90.5q0 54 35 88t87 34t87 -34t35 -88q0 -56 -35 -90.5t-87 -34.5zM283 -9q102 0 172.5 68t70.5 176t-70.5 175t-172.5 67t-172.5 -67t-70.5 -175t70.5 -176t172.5 -68zM127 632q0 28 20 46.5t49 18.5q28 0 48 -19t20 -46t-20 -46t-48 -19
q-29 0 -49 18.5t-20 46.5zM301 632q0 28 20 46.5t49 18.5t48.5 -18.5t19.5 -46.5t-19.5 -46.5t-48.5 -18.5t-49 18.5t-20 46.5z" />
    <glyph glyph-name="divide" unicode="&#xf7;" 
d="M210 66q0 30 22 50.5t52 20.5t52 -20.5t22 -50.5t-22 -50.5t-52 -20.5t-52 20.5t-22 50.5zM210 432q0 30 21.5 50t52.5 20t52.5 -20t21.5 -50q0 -31 -21.5 -51t-52.5 -20t-52.5 20t-21.5 51zM56 202h455v91h-455v-91z" />
    <glyph glyph-name="oslash" unicode="&#xf8;" horiz-adv-x="566" 
d="M283 -10q-81 0 -142 43l-58 -59l-47 47l56 58q-52 63 -52 155q0 108 70.5 175.5t172.5 67.5q84 0 150 -49l51 53l47 -46l-52 -53q47 -63 47 -148q0 -108 -70.5 -176t-172.5 -68zM283 357q-51 0 -86.5 -34.5t-35.5 -88.5q0 -40 17 -67l168 173q-29 17 -63 17zM283 109
q52 0 87 34.5t35 90.5q0 32 -13 58l-165 -170q25 -13 56 -13z" />
    <glyph glyph-name="ugrave" unicode="&#xf9;" 
d="M135 707h127l106 -163h-96zM376 218v249h122v-467h-122v66q-19 -36 -55.5 -56t-73.5 -20q-85 0 -134.5 52t-49.5 149v276h123v-254q0 -53 26 -78.5t63 -25.5q43 0 72 26.5t29 82.5z" />
    <glyph glyph-name="uacute" unicode="&#xfa;" 
d="M312 707h128l-138 -163h-96zM376 218v249h122v-467h-122v66q-19 -36 -55.5 -56t-73.5 -20q-85 0 -134.5 52t-49.5 149v276h123v-254q0 -53 26 -78.5t63 -25.5q43 0 72 26.5t29 82.5z" />
    <glyph glyph-name="ucircumflex" unicode="&#xfb;" 
d="M216 710h123l110 -163h-94l-78 88l-76 -88h-94zM376 218v249h122v-467h-122v66q-19 -36 -55.5 -56t-73.5 -20q-85 0 -134.5 52t-49.5 149v276h123v-254q0 -53 26 -78.5t63 -25.5q43 0 72 26.5t29 82.5z" />
    <glyph glyph-name="udieresis" unicode="&#xfc;" 
d="M125 635q0 28 20 46.5t49 18.5q28 0 47.5 -18.5t19.5 -46.5t-19.5 -46.5t-47.5 -18.5q-29 0 -49 18.5t-20 46.5zM299 635q0 28 20 46.5t49 18.5q28 0 48 -19t20 -46t-20 -46t-48 -19q-29 0 -49 18.5t-20 46.5zM376 218v249h122v-467h-122v66q-19 -36 -55.5 -56t-73.5 -20
q-85 0 -134.5 52t-49.5 149v276h123v-254q0 -53 26 -78.5t63 -25.5q43 0 72 26.5t29 82.5z" />
    <glyph glyph-name="yacute" unicode="&#xfd;" horiz-adv-x="511" 
d="M213 -228l289 695h-130l-117 -291l-116 291h-130l182 -431l-107 -264h129zM273 707h128l-138 -163h-95z" />
    <glyph glyph-name="thorn" unicode="&#xfe;" horiz-adv-x="603" 
d="M192 235q0 -58 36 -93t88 -35q51 0 86.5 35.5t35.5 92.5q0 55 -35.5 90t-86.5 35q-50 0 -87 -34t-37 -91zM190 -227h-121v948h121v-311q20 31 59 49t84 18q96 0 163 -67.5t67 -176.5q0 -108 -67 -175.5t-163 -67.5q-44 0 -83.5 18t-59.5 50v-285z" />
    <glyph glyph-name="ydieresis" unicode="&#xff;" horiz-adv-x="511" 
d="M213 -228l289 695h-130l-117 -291l-116 291h-130l182 -431l-107 -264h129zM103 632q0 28 20 46.5t49 18.5q28 0 48 -19t20 -46t-20 -46t-48 -19q-29 0 -49 18.5t-20 46.5zM277 632q0 28 20 46.5t49 18.5t48.5 -18.5t19.5 -46.5t-19.5 -46.5t-48.5 -18.5t-49 18.5
t-20 46.5z" />
    <glyph glyph-name="Amacron" unicode="&#x100;" horiz-adv-x="654" 
d="M519 0l-63 167h-257l-63 -167h-136l258 689h138l258 -689h-135zM327 542l-85 -263h172zM192 807v83h269v-83h-269z" />
    <glyph glyph-name="amacron" unicode="&#x101;" horiz-adv-x="614" 
d="M423 0v60q-21 -33 -63.5 -51t-81.5 -18q-96 0 -167 67.5t-71 175.5t70.5 175.5t167.5 67.5q39 0 80.5 -16.5t64.5 -51.5v58h122v-467h-122zM166 234q0 -55 38.5 -90.5t90.5 -35.5t90 34.5t38 91.5q0 58 -38.5 92t-89.5 34q-52 0 -90.5 -35.5t-38.5 -90.5zM173 585v83h269
v-83h-269z" />
    <glyph glyph-name="Abreve" unicode="&#x102;" horiz-adv-x="654" 
d="M456 167l63 -167h135l-258 689h-138l-258 -689h136l63 167h257zM242 279l85 263l87 -263h-172zM193 909h82q0 -55 51 -55q25 0 38 16t13 39h83q0 -59 -37 -94.5t-97 -35.5q-65 0 -99 38t-34 92z" />
    <glyph glyph-name="abreve" unicode="&#x103;" horiz-adv-x="614" 
d="M423 0v60q-21 -33 -63.5 -51t-81.5 -18q-96 0 -167 67.5t-71 175.5t70.5 175.5t167.5 67.5q39 0 80.5 -16.5t64.5 -51.5v58h122v-467h-122zM166 234q0 -55 38.5 -90.5t90.5 -35.5t90 34.5t38 91.5q0 58 -38.5 92t-89.5 34q-52 0 -90.5 -35.5t-38.5 -90.5zM174 687h82
q0 -55 51 -55q25 0 38 16t13 39h83q0 -59 -37 -94.5t-97 -35.5q-65 0 -99 38t-34 92z" />
    <glyph glyph-name="Aogonek" unicode="&#x104;" horiz-adv-x="654" 
d="M518 0l-62 167h-257l-63 -167h-136l258 689h138l258 -689h-72l-35 -96q-11 -35 17 -46q14 -4 26 1.5t17 18.5l5 25l69 4q1 -55 -29.5 -87.5t-72.5 -32.5q-43 0 -74 30.5t-31 71.5q0 30 9 46zM327 542l-85 -263h172z" />
    <glyph glyph-name="aogonek" unicode="&#x105;" horiz-adv-x="614" 
d="M423 0v60q-21 -33 -63.5 -51t-81.5 -18q-96 0 -167 67.5t-71 175.5t70.5 175.5t167.5 67.5q39 0 80.5 -16.5t64.5 -51.5v58h122v-467h-58l-35 -96q-11 -35 17 -46q14 -4 26 1.5t17 18.5l5 25l69 4q1 -55 -29.5 -87.5t-72.5 -32.5q-44 0 -74.5 30.5t-30.5 71.5q0 30 9 46z
M166 234q0 -55 38.5 -90.5t90.5 -35.5t90 34.5t38 91.5q0 58 -38.5 92t-89.5 34q-52 0 -90.5 -35.5t-38.5 -90.5z" />
    <glyph glyph-name="Cacute" unicode="&#x106;" horiz-adv-x="693" 
d="M570 204q-31 -43 -78 -68t-101 -25q-93 0 -156 67.5t-63 164.5t63 165t156 68q107 0 175 -88l102 73q-46 63 -118.5 99.5t-158.5 36.5q-146 0 -246.5 -103t-100.5 -251q0 -146 100.5 -249.5t246.5 -103.5q88 0 161 37.5t119 102.5zM438 929h128l-138 -163h-95z" />
    <glyph glyph-name="cacute" unicode="&#x107;" horiz-adv-x="520" 
d="M39 235q0 107 74 174.5t178 67.5q59 0 110 -24t84 -67l-97 -73q-34 46 -97 46q-53 0 -92 -34.5t-39 -89.5t39 -91.5t92 -36.5q63 0 97 47l98 -72q-33 -44 -84.5 -68t-110.5 -24q-104 0 -178 69t-74 176zM344 707h128l-138 -163h-95z" />
    <glyph glyph-name="Ccircumflex" unicode="&#x108;" horiz-adv-x="693" 
d="M570 204l101 -74q-46 -65 -119 -102.5t-161 -37.5q-146 0 -246.5 103.5t-100.5 249.5q0 148 100.5 251t246.5 103q86 0 158.5 -36.5t118.5 -99.5l-102 -73q-68 88 -175 88q-93 0 -156 -68t-63 -165t63 -164.5t156 -67.5q54 0 101 25t78 68zM328 932h123l110 -163h-94
l-78 88l-76 -88h-94z" />
    <glyph glyph-name="ccircumflex" unicode="&#x109;" horiz-adv-x="520" 
d="M39 235q0 107 74 174.5t178 67.5q59 0 110 -24t84 -67l-97 -73q-34 46 -97 46q-53 0 -92 -34.5t-39 -89.5t39 -91.5t92 -36.5q63 0 97 47l98 -72q-33 -44 -84.5 -68t-110.5 -24q-104 0 -178 69t-74 176zM223 710h123l110 -163h-94l-78 88l-76 -88h-94z" />
    <glyph glyph-name="Cdotaccent" unicode="&#x10a;" horiz-adv-x="693" 
d="M570 204q-31 -43 -78 -68t-101 -25q-93 0 -156 67.5t-63 164.5t63 165t156 68q107 0 175 -88l102 73q-46 63 -118.5 99.5t-158.5 36.5q-146 0 -246.5 -103t-100.5 -251q0 -146 100.5 -249.5t246.5 -103.5q88 0 161 37.5t119 102.5zM314 850q0 29 21 49t51 20q31 0 52 -20
t21 -49q0 -30 -21 -50t-52 -20q-30 0 -51 20t-21 50z" />
    <glyph glyph-name="cdotaccent" unicode="&#x10b;" horiz-adv-x="520" 
d="M39 235q0 107 74 174.5t178 67.5q59 0 110 -24t84 -67l-97 -73q-34 46 -97 46q-53 0 -92 -34.5t-39 -89.5t39 -91.5t92 -36.5q63 0 97 47l98 -72q-33 -44 -84.5 -68t-110.5 -24q-104 0 -178 69t-74 176zM219 628q0 29 21 49t51 20q31 0 52 -20t21 -49q0 -30 -21 -50
t-52 -20q-30 0 -51 20t-21 50z" />
    <glyph glyph-name="Ccaron" unicode="&#x10c;" horiz-adv-x="693" 
d="M570 204q-31 -43 -78 -68t-101 -25q-93 0 -156 67.5t-63 164.5t63 165t156 68q107 0 175 -88l102 73q-46 63 -118.5 99.5t-158.5 36.5q-146 0 -246.5 -103t-100.5 -251q0 -146 100.5 -249.5t246.5 -103.5q88 0 161 37.5t119 102.5zM322 766l-109 163h94l76 -89l78 89h94
l-110 -163h-123z" />
    <glyph glyph-name="ccaron" unicode="&#x10d;" horiz-adv-x="520" 
d="M39 235q0 107 74 174.5t178 67.5q59 0 110 -24t84 -67l-97 -73q-34 46 -97 46q-53 0 -92 -34.5t-39 -89.5t39 -91.5t92 -36.5q63 0 97 47l98 -72q-33 -44 -84.5 -68t-110.5 -24q-104 0 -178 69t-74 176zM219 544l-109 163h94l76 -89l78 89h94l-110 -163h-123z" />
    <glyph glyph-name="Dcaron" unicode="&#x10e;" horiz-adv-x="714" 
d="M214 117v455h141q88 0 135.5 -65t47.5 -164q0 -98 -47.5 -162t-135.5 -64h-141zM355 0q144 0 227.5 96.5t83.5 246.5q0 151 -83.5 248.5t-227.5 97.5h-269v-689h269zM293 766l-109 163h94l76 -89l78 89h94l-110 -163h-123z" />
    <glyph glyph-name="dcaron" unicode="&#x10f;" horiz-adv-x="651" 
d="M416 0v63q-19 -34 -59.5 -53.5t-87.5 -19.5q-95 0 -162 67.5t-67 175.5q0 109 67 176.5t162 67.5q48 0 88 -19t59 -53v316h121v-721h-121zM414 235q0 57 -37.5 91.5t-87.5 34.5q-52 0 -87.5 -35t-35.5 -91q0 -57 35.5 -92.5t87.5 -35.5t88.5 35.5t36.5 92.5zM646 452
l-75 25q69 96 65 212h107q-4 -84 -32 -145.5t-65 -91.5z" />
    <glyph glyph-name="Dcroat" unicode="&#x110;" horiz-adv-x="722" 
d="M3 293v88h94v308h267q145 0 227.5 -97t82.5 -249q0 -151 -82.5 -247t-227.5 -96h-267v293h-94zM224 293v-174h140q88 0 135.5 63t47.5 161t-47.5 162.5t-135.5 64.5h-140v-189h138v-88h-138z" />
    <glyph glyph-name="dcroat" unicode="&#x111;" horiz-adv-x="606" 
d="M267 558v77h149v86h121v-86h76v-77h-76v-558h-121v63q-19 -34 -59.5 -53.5t-87.5 -19.5q-95 0 -162 67.5t-67 175.5q0 109 67 176.5t162 67.5q48 0 88 -19t59 -53v153h-149zM414 235q0 57 -37.5 91.5t-87.5 34.5q-52 0 -87.5 -35t-35.5 -91q0 -57 35.5 -92.5t87.5 -35.5
t88.5 35.5t36.5 92.5z" />
    <glyph glyph-name="Emacron" unicode="&#x112;" horiz-adv-x="572" 
d="M86 0v689h426v-114h-299v-179h262v-113h-262v-169h309v-114h-436zM165 807v83h269v-83h-269z" />
    <glyph glyph-name="emacron" unicode="&#x113;" horiz-adv-x="553" 
d="M519 235q0 -20 -2 -42h-356q6 -46 41.5 -73t87.5 -27q37 0 69 15.5t48 44.5l93 -50q-30 -57 -89 -85t-129 -28q-102 0 -172 68.5t-70 176.5t70 175t172 67t169.5 -67t67.5 -175zM160 276h240q-7 47 -39 73t-78 26q-49 0 -82.5 -26.5t-40.5 -72.5zM145 585v83h269v-83
h-269z" />
    <glyph glyph-name="Ebreve" unicode="&#x114;" horiz-adv-x="572" 
d="M86 689v-689h436v114h-309v169h262v113h-262v179h299v114h-426zM150 909h82q0 -55 51 -55q25 0 38 16t13 39h83q0 -59 -37 -94.5t-97 -35.5q-65 0 -99 38t-34 92z" />
    <glyph glyph-name="ebreve" unicode="&#x115;" horiz-adv-x="553" 
d="M519 235q0 108 -67.5 175t-169.5 67t-172 -67t-70 -175t70 -176.5t172 -68.5q70 0 129 28t89 85l-93 50q-16 -29 -48 -44.5t-69 -15.5q-52 0 -87.5 27t-41.5 73h356q2 22 2 42zM160 276q7 46 40.5 72.5t82.5 26.5q46 0 78 -26t39 -73h-240zM146 687h82q0 -55 51 -55
q25 0 38 16t13 39h83q0 -59 -37 -94.5t-97 -35.5q-65 0 -99 38t-34 92z" />
    <glyph glyph-name="Edotaccent" unicode="&#x116;" horiz-adv-x="572" 
d="M86 689v-689h436v114h-309v169h262v113h-262v179h299v114h-426zM229 850q0 29 21 49t51 20q31 0 52 -20t21 -49q0 -30 -21 -50t-52 -20q-30 0 -51 20t-21 50z" />
    <glyph glyph-name="edotaccent" unicode="&#x117;" horiz-adv-x="553" 
d="M519 235q0 108 -67.5 175t-169.5 67t-172 -67t-70 -175t70 -176.5t172 -68.5q70 0 129 28t89 85l-93 50q-16 -29 -48 -44.5t-69 -15.5q-52 0 -87.5 27t-41.5 73h356q2 22 2 42zM160 276q7 46 40.5 72.5t82.5 26.5q46 0 78 -26t39 -73h-240zM207 628q0 29 21 49t51 20
q31 0 52 -20t21 -49q0 -30 -21 -50t-52 -20q-30 0 -51 20t-21 50z" />
    <glyph glyph-name="Eogonek" unicode="&#x118;" horiz-adv-x="572" 
d="M522 0l-37 -96q-11 -35 17 -46q14 -4 26 1.5t17 18.5l5 25l69 4q1 -55 -29.5 -87.5t-72.5 -32.5q-43 0 -74 30.5t-31 71.5q0 30 9 46l35 65h-370v689h426v-114h-299v-179h262v-113h-262v-169h309v-114z" />
    <glyph glyph-name="eogonek" unicode="&#x119;" horiz-adv-x="554" 
d="M384 -96q-11 -35 17 -46q14 -4 26 1.5t17 18.5l5 25l69 4q1 -55 -29.5 -87.5t-72.5 -32.5q-44 0 -74.5 30.5t-30.5 71.5q0 30 9 46l34 64q-34 -9 -72 -9q-102 0 -172 68.5t-70 176.5t70 175t172 67t169.5 -67t67.5 -175q0 -20 -2 -42h-356q6 -46 41.5 -73t87.5 -27
q37 0 69 15.5t48 44.5l93 -50q-10 -15 -26.5 -35l-29 -35t-29.5 -49t-31 -80zM160 276h240q-7 47 -39 73t-78 26q-49 0 -82.5 -26.5t-40.5 -72.5z" />
    <glyph glyph-name="Ecaron" unicode="&#x11a;" horiz-adv-x="572" 
d="M86 689v-689h436v114h-309v169h262v113h-262v179h299v114h-426zM235 766l-109 163h94l76 -89l78 89h94l-110 -163h-123z" />
    <glyph glyph-name="ecaron" unicode="&#x11b;" horiz-adv-x="553" 
d="M519 235q0 108 -67.5 175t-169.5 67t-172 -67t-70 -175t70 -176.5t172 -68.5q70 0 129 28t89 85l-93 50q-16 -29 -48 -44.5t-69 -15.5q-52 0 -87.5 27t-41.5 73h356q2 22 2 42zM160 276q7 46 40.5 72.5t82.5 26.5q46 0 78 -26t39 -73h-240zM218 544l-109 163h94l76 -89
l78 89h94l-110 -163h-123z" />
    <glyph glyph-name="Gcircumflex" unicode="&#x11c;" horiz-adv-x="756" 
d="M645 592l-94 -82q-65 67 -156 67q-94 0 -158.5 -68.5t-64.5 -165.5t64.5 -166t158.5 -69q73 0 128.5 40t57.5 103h-189v105h336q0 -183 -89.5 -274.5t-243.5 -91.5q-147 0 -249 103.5t-102 249.5q0 147 102 250.5t249 103.5q152 0 250 -105zM319 932h123l110 -163h-94
l-78 88l-76 -88h-94z" />
    <glyph glyph-name="gcircumflex" unicode="&#x11d;" horiz-adv-x="611" 
d="M420 234q0 58 -37 92t-90 34q-52 0 -89 -35.5t-37 -90.5q0 -57 36.5 -92.5t89.5 -35.5q50 0 88.5 35.5t38.5 92.5zM157 -45q15 -34 50.5 -55.5t73.5 -21.5q82 0 115 52t27 134q-17 -34 -59 -54t-90 -20q-95 0 -164.5 67.5t-69.5 174.5q0 109 69.5 177t164.5 68
q47 0 88.5 -19.5t60.5 -53.5v63h119v-400q0 -152 -68 -226t-193 -74q-73 0 -132.5 37t-90.5 101zM244 710h123l110 -163h-94l-78 88l-76 -88h-94z" />
    <glyph glyph-name="Gbreve" unicode="&#x11e;" horiz-adv-x="756" 
d="M645 592q-98 105 -250 105q-147 0 -249 -103.5t-102 -250.5q0 -146 102 -249.5t249 -103.5q154 0 243.5 91.5t89.5 274.5h-336v-105h189q-2 -63 -57.5 -103t-128.5 -40q-94 0 -158.5 69t-64.5 166t64.5 165.5t158.5 68.5q91 0 156 -67zM247 909h82q0 -55 51 -55
q25 0 38 16t13 39h83q0 -59 -37 -94.5t-97 -35.5q-65 0 -99 38t-34 92z" />
    <glyph glyph-name="gbreve" unicode="&#x11f;" horiz-adv-x="611" 
d="M420 234q0 -57 -38.5 -92.5t-88.5 -35.5q-53 0 -89.5 35.5t-36.5 92.5q0 55 37 90.5t89 35.5q53 0 90 -34t37 -92zM157 -45l-99 -50q31 -64 90.5 -101t132.5 -37q125 0 193 74t68 226v400h-119v-63q-19 34 -60.5 53.5t-88.5 19.5q-95 0 -164.5 -68t-69.5 -177
q0 -107 69.5 -174.5t164.5 -67.5q48 0 90 20t59 54q6 -82 -27 -134t-115 -52q-38 0 -73.5 21.5t-50.5 55.5zM172 687h82q0 -55 51 -55q25 0 38 16t13 39h83q0 -59 -37 -94.5t-97 -35.5q-65 0 -99 38t-34 92z" />
    <glyph glyph-name="Gdotaccent" unicode="&#x120;" horiz-adv-x="756" 
d="M645 592q-98 105 -250 105q-147 0 -249 -103.5t-102 -250.5q0 -146 102 -249.5t249 -103.5q154 0 243.5 91.5t89.5 274.5h-336v-105h189q-2 -63 -57.5 -103t-128.5 -40q-94 0 -158.5 69t-64.5 166t64.5 165.5t158.5 68.5q91 0 156 -67zM308 850q0 29 21 49t51 20
q31 0 52 -20t21 -49q0 -30 -21 -50t-52 -20q-30 0 -51 20t-21 50z" />
    <glyph glyph-name="gdotaccent" unicode="&#x121;" horiz-adv-x="611" 
d="M420 234q0 -57 -38.5 -92.5t-88.5 -35.5q-53 0 -89.5 35.5t-36.5 92.5q0 55 37 90.5t89 35.5q53 0 90 -34t37 -92zM157 -45l-99 -50q31 -64 90.5 -101t132.5 -37q125 0 193 74t68 226v400h-119v-63q-19 34 -60.5 53.5t-88.5 19.5q-95 0 -164.5 -68t-69.5 -177
q0 -107 69.5 -174.5t164.5 -67.5q48 0 90 20t59 54q6 -82 -27 -134t-115 -52q-38 0 -73.5 21.5t-50.5 55.5zM233 628q0 29 21 49t51 20q31 0 52 -20t21 -49q0 -30 -21 -50t-52 -20q-30 0 -51 20t-21 50z" />
    <glyph glyph-name="Gcommaaccent" unicode="&#x122;" horiz-adv-x="756" 
d="M645 592l-94 -82q-65 67 -156 67q-94 0 -158.5 -68.5t-64.5 -165.5t64.5 -166t158.5 -69q73 0 128.5 40t57.5 103h-189v105h336q0 -183 -89.5 -274.5t-243.5 -91.5q-147 0 -249 103.5t-102 249.5q0 147 102 250.5t249 103.5q152 0 250 -105zM364 -274l-64 29q32 45 44 85
t10 104h107q-7 -146 -97 -218z" />
    <glyph glyph-name="gcommaaccent" unicode="&#x123;" horiz-adv-x="611" 
d="M318 772l64 -29q-32 -45 -44 -85t-9 -103h-108q7 144 97 217zM420 234q0 -57 -38.5 -92.5t-88.5 -35.5q-53 0 -89.5 35.5t-36.5 92.5q0 55 37 90.5t89 35.5q53 0 90 -34t37 -92zM157 -45l-99 -50q31 -64 90.5 -101t132.5 -37q125 0 193 74t68 226v400h-119v-63
q-19 34 -60.5 53.5t-88.5 19.5q-95 0 -164.5 -68t-69.5 -177q0 -107 69.5 -174.5t164.5 -67.5q48 0 90 20t59 54q6 -82 -27 -134t-115 -52q-38 0 -73.5 21.5t-50.5 55.5z" />
    <glyph glyph-name="Hcircumflex" unicode="&#x124;" horiz-adv-x="704" 
d="M489 689h129v-689h-129v285h-276v-285h-127v689h127v-289h276v289zM290 932h123l110 -163h-94l-78 88l-76 -88h-94z" />
    <glyph glyph-name="hcircumflex" unicode="&#x125;" horiz-adv-x="587" 
d="M191 249v-249h-122v721h122v-326q15 39 59.5 60.5t85.5 21.5q90 0 139 -57t49 -160v-260h-122v254q0 48 -29.5 76t-69.5 28q-45 0 -78.5 -26.5t-33.5 -82.5zM70 927h123l110 -163h-94l-78 88l-76 -88h-94z" />
    <glyph glyph-name="Hbar" unicode="&#x126;" horiz-adv-x="716" 
d="M92 508h-71v75h71v106h128v-106h275v106h129v-106h71v-75h-71v-508h-129v284h-275v-284h-128v508zM220 400h275v108h-275v-108z" />
    <glyph glyph-name="hbar" unicode="&#x127;" horiz-adv-x="581" 
d="M191 249v-249h-122v558h-74v77h74v86h122v-86h142v-77h-142v-163q15 39 56.5 60.5t82.5 21.5q90 0 139 -57t49 -160v-260h-123v254q0 48 -27.5 76t-66.5 28q-44 0 -77 -26.5t-33 -82.5z" />
    <glyph glyph-name="Itilde" unicode="&#x128;" horiz-adv-x="299" 
d="M86 0v689h127v-689h-127zM105 829q-8 0 -16.5 -11t-9.5 -32h-70q3 65 31.5 95t64.5 30q24 0 51 -20.5t37 -20.5q8 0 17 10t10 31h70q-3 -64 -32.5 -93.5t-64.5 -29.5q-23 0 -51 20.5t-37 20.5z" />
    <glyph glyph-name="itilde" unicode="&#x129;" horiz-adv-x="259" 
d="M69 467h121v-467h-121v467zM85 607q-8 0 -16.5 -11t-9.5 -32h-70q3 65 31.5 95t64.5 30q24 0 51 -20.5t37 -20.5q8 0 17 10t10 31h70q-3 -64 -32.5 -93.5t-64.5 -29.5q-23 0 -51 20.5t-37 20.5z" />
    <glyph glyph-name="Imacron" unicode="&#x12a;" horiz-adv-x="299" 
d="M86 0v689h127v-689h-127zM15 807v83h269v-83h-269z" />
    <glyph glyph-name="imacron" unicode="&#x12b;" horiz-adv-x="259" 
d="M69 467h121v-467h-121v467zM-4 585v83h269v-83h-269z" />
    <glyph glyph-name="Ibreve" unicode="&#x12c;" horiz-adv-x="299" 
d="M86 689v-689h127v689h-127zM16 909h82q0 -55 51 -55q25 0 38 16t13 39h83q0 -59 -37 -94.5t-97 -35.5q-65 0 -99 38t-34 92z" />
    <glyph glyph-name="ibreve" unicode="&#x12d;" horiz-adv-x="259" 
d="M190 467h-121v-467h121v467zM-4 687h82q0 -55 51 -55q25 0 38 16t13 39h83q0 -59 -37 -94.5t-97 -35.5q-65 0 -99 38t-34 92z" />
    <glyph glyph-name="Iogonek" unicode="&#x12e;" horiz-adv-x="299" 
d="M150 0l-35 -96q-11 -35 17 -46q14 -4 26 1.5t17 18.5l5 25l69 4q1 -55 -29.5 -87.5t-72.5 -32.5q-43 0 -74 30.5t-31 71.5q0 30 9 46l35 65v689h127v-689h-63z" />
    <glyph glyph-name="iogonek" unicode="&#x12f;" horiz-adv-x="259" 
d="M159 -122l5 25l69 4q1 -55 -29.5 -87.5t-72.5 -32.5q-43 0 -74 30.5t-31 71.5q0 30 9 46l34 65v467h121v-467h-56l-35 -96q-11 -35 17 -46q14 -4 26 1.5t17 18.5zM51 648q0 31 23.5 52t55.5 21t54.5 -21t22.5 -52t-22.5 -52.5t-54.5 -21.5q-33 0 -56 21.5t-23 52.5z" />
    <glyph glyph-name="Idotaccent" unicode="&#x130;" horiz-adv-x="299" 
d="M86 689v-689h127v689h-127zM77 850q0 29 21 49t51 20q31 0 52 -20t21 -49q0 -30 -21 -50t-52 -20q-30 0 -51 20t-21 50z" />
    <glyph glyph-name="dotlessi" unicode="&#x131;" horiz-adv-x="259" 
d="M69 467h121v-467h-121v467z" />
    <glyph glyph-name="IJ" unicode="&#x132;" horiz-adv-x="599" 
d="M86 0v689h127v-689h-127zM200 -218l12 116q30 -10 80 -10q47 0 70 30.5t23 78.5v692h128v-692q0 -102 -53.5 -166t-167.5 -64q-32 0 -92 15z" />
    <glyph glyph-name="ij" unicode="&#x133;" horiz-adv-x="520" 
d="M190 467v-467h-121v467h121zM51 648q0 31 23.5 52t55.5 21t54.5 -21t22.5 -52t-22.5 -52.5t-54.5 -21.5q-33 0 -56 21.5t-23 52.5zM200 -233v112h59q71 0 69 88v500h123v-498q0 -202 -174 -202h-77zM311 648q0 30 23 51.5t55 21.5q33 0 55.5 -21t22.5 -52t-22.5 -52.5
t-55.5 -21.5q-32 0 -55 21.5t-23 52.5z" />
    <glyph glyph-name="Jcircumflex" unicode="&#x134;" horiz-adv-x="300" 
d="M-99 -218l12 116q30 -10 80 -10q47 0 70 30.5t23 78.5v692h128v-692q0 -102 -53.5 -166t-167.5 -64q-32 0 -92 15zM86 932h123l110 -163h-94l-78 88l-76 -88h-94z" />
    <glyph glyph-name="jcircumflex" unicode="&#x135;" horiz-adv-x="261" 
d="M-59 -233v112h59q71 0 69 88v500h123v-498q0 -202 -174 -202h-77zM76 710h123l110 -163h-94l-78 88l-76 -88h-94z" />
    <glyph glyph-name="Kcommaaccent" unicode="&#x136;" horiz-adv-x="598" 
d="M288 347l324 -347h-167l-230 255v-255h-129v689h129v-251l185 251h150zM287 -274l-64 29q32 45 44 85t10 104h107q-7 -146 -97 -218z" />
    <glyph glyph-name="kcommaaccent" unicode="&#x137;" horiz-adv-x="519" 
d="M366 0l-176 200v-200h-121v721h121v-394l129 140h158l-196 -205l238 -262h-153zM247 -274l-64 29q32 45 44 85t10 104h107q-7 -146 -97 -218z" />
    <glyph glyph-name="kgreenlandic" unicode="&#x138;" horiz-adv-x="498" 
d="M340 0l-150 159v-159h-121v467h121v-154l130 154h147l-203 -230l230 -237h-154z" />
    <glyph glyph-name="Lacute" unicode="&#x139;" horiz-adv-x="506" 
d="M86 689v-689h394v114h-266v575h-128zM196 929h128l-138 -163h-95z" />
    <glyph glyph-name="lacute" unicode="&#x13a;" horiz-adv-x="260" 
d="M69 721v-721h122v721h-122zM179 929h128l-138 -163h-95z" />
    <glyph glyph-name="Lcommaaccent" unicode="&#x13b;" horiz-adv-x="506" 
d="M86 0v689h128v-575h266v-114h-394zM236 -274l-64 29q32 45 44 85t10 104h107q-7 -146 -97 -218z" />
    <glyph glyph-name="lcommaaccent" unicode="&#x13c;" horiz-adv-x="260" 
d="M69 0v721h122v-721h-122zM86 -274l-64 29q32 45 44 85t10 104h107q-7 -146 -97 -218z" />
    <glyph glyph-name="Lcaron" unicode="&#x13d;" horiz-adv-x="508" 
d="M86 0v689h128v-575h266v-114h-394zM356 452l-75 25q69 96 65 212h107q-4 -84 -32 -145.5t-65 -91.5z" />
    <glyph glyph-name="lcaron" unicode="&#x13e;" horiz-adv-x="260" 
d="M300 484l-75 25q69 96 65 212h107q-4 -84 -32 -145.5t-65 -91.5zM69 721v-721h122v721h-122z" />
    <glyph glyph-name="Ldot" unicode="&#x13f;" horiz-adv-x="506" 
d="M86 0v689h128v-575h266v-114h-394zM265 313q0 32 23 54t55 22q33 0 56.5 -21.5t23.5 -54.5t-23.5 -54.5t-56.5 -21.5q-32 0 -55 22t-23 54z" />
    <glyph glyph-name="ldot" unicode="&#x140;" horiz-adv-x="394" 
d="M69 0v721h122v-721h-122zM248 313q0 32 23 54t55 22q33 0 56.5 -21.5t23.5 -54.5t-23.5 -54.5t-56.5 -21.5q-32 0 -55 22t-23 54z" />
    <glyph glyph-name="Lslash" unicode="&#x141;" horiz-adv-x="512" 
d="M92 304l-69 -44v85l69 44v300h128v-220l97 60v-85l-97 -60v-268h266v-116h-394v304z" />
    <glyph glyph-name="lslash" unicode="&#x142;" horiz-adv-x="292" 
d="M215 721v-264l83 52v-84l-83 -52v-373h-122v296l-80 -50v84l80 50v341h122z" />
    <glyph glyph-name="Nacute" unicode="&#x143;" horiz-adv-x="682" 
d="M596 0v689h-128v-448l-263 448h-119v-689h127v453l266 -453h117zM378 929h128l-138 -163h-95z" />
    <glyph glyph-name="nacute" unicode="&#x144;" 
d="M191 249v-249h-122v467h122v-69q19 36 58 57.5t81 21.5q83 0 128.5 -51.5t45.5 -149.5v-276h-122v254q0 50 -24 77t-65 27q-45 0 -73.5 -26t-28.5 -83zM319 707h128l-138 -163h-95z" />
    <glyph glyph-name="Ncommaaccent" unicode="&#x145;" horiz-adv-x="682" 
d="M596 689v-689h-117l-266 453v-453h-127v689h119l263 -448v448h128zM304 -274l-64 29q32 45 44 85t10 104h107q-7 -146 -97 -218z" />
    <glyph glyph-name="ncommaaccent" unicode="&#x146;" 
d="M191 249v-249h-122v467h122v-69q19 36 58 57.5t81 21.5q83 0 128.5 -51.5t45.5 -149.5v-276h-122v254q0 50 -24 77t-65 27q-45 0 -73.5 -26t-28.5 -83zM248 -274l-64 29q32 45 44 85t10 104h107q-7 -146 -97 -218z" />
    <glyph glyph-name="Ncaron" unicode="&#x147;" horiz-adv-x="682" 
d="M596 0v689h-128v-448l-263 448h-119v-689h127v453l266 -453h117zM279 766l-109 163h94l76 -89l78 89h94l-110 -163h-123z" />
    <glyph glyph-name="ncaron" unicode="&#x148;" 
d="M191 249v-249h-122v467h122v-69q19 36 58 57.5t81 21.5q83 0 128.5 -51.5t45.5 -149.5v-276h-122v254q0 50 -24 77t-65 27q-45 0 -73.5 -26t-28.5 -83zM222 544l-109 163h94l76 -89l78 89h94l-110 -163h-123z" />
    <glyph glyph-name="napostrophe" unicode="&#x149;" 
d="M191 249v-249h-122v467h122v-69q19 36 58 57.5t81 21.5q83 0 128.5 -51.5t45.5 -149.5v-276h-122v254q0 50 -24 77t-65 27q-45 0 -73.5 -26t-28.5 -83zM1 478l-71 21q52 71 39 171h110q1 -127 -78 -192z" />
    <glyph glyph-name="Eng" unicode="&#x14a;" horiz-adv-x="681" 
d="M476 2l-262 449v-451h-128v689h119l262 -456v456h128v-679q0 -51 -11 -93t-35.5 -77t-68.5 -54t-104 -19q-35 0 -93 15l13 119q61 -16 105 -8q34 6 54.5 38.5t20.5 70.5z" />
    <glyph glyph-name="eng" unicode="&#x14b;" horiz-adv-x="568" 
d="M504 276v-250q0 -102 -49.5 -164.5t-159.5 -62.5q-24 0 -67 10l12 112q22 -7 55 -7q45 0 66 30t21 75v235q0 50 -24 77t-65 27q-45 0 -73.5 -26t-28.5 -83v-249h-122v467h122v-69q19 36 58 57.5t81 21.5q83 0 129 -51.5t45 -149.5z" />
    <glyph glyph-name="Omacron" unicode="&#x14c;" horiz-adv-x="787" 
d="M171 343q0 -95 64.5 -161t157.5 -66t157.5 66t64.5 161t-64.5 161.5t-157.5 66.5t-157.5 -66.5t-64.5 -161.5zM44 343q0 147 101 250.5t248 103.5t248.5 -103.5t101.5 -250.5q0 -146 -102 -249.5t-248 -103.5t-247.5 103.5t-101.5 249.5zM259 807v83h269v-83h-269z" />
    <glyph glyph-name="omacron" unicode="&#x14d;" horiz-adv-x="566" 
d="M283 110q52 0 87 34.5t35 90.5q0 54 -35 88t-87 34t-87 -34t-35 -88q0 -56 35 -90.5t87 -34.5zM283 -9q-102 0 -172.5 68t-70.5 176t70.5 175t172.5 67t172.5 -67t70.5 -175t-70.5 -176t-172.5 -68zM148 585v83h269v-83h-269z" />
    <glyph glyph-name="Obreve" unicode="&#x14e;" horiz-adv-x="787" 
d="M171 343q0 95 64.5 161.5t157.5 66.5t157.5 -66.5t64.5 -161.5t-64.5 -161t-157.5 -66t-157.5 66t-64.5 161zM44 343q0 -146 101.5 -249.5t247.5 -103.5t248 103.5t102 249.5q0 147 -101.5 250.5t-248.5 103.5t-248 -103.5t-101 -250.5zM260 909h82q0 -55 51 -55
q25 0 38 16t13 39h83q0 -59 -37 -94.5t-97 -35.5q-65 0 -99 38t-34 92z" />
    <glyph glyph-name="obreve" unicode="&#x14f;" horiz-adv-x="566" 
d="M283 110q-52 0 -87 34.5t-35 90.5q0 54 35 88t87 34t87 -34t35 -88q0 -56 -35 -90.5t-87 -34.5zM283 -9q102 0 172.5 68t70.5 176t-70.5 175t-172.5 67t-172.5 -67t-70.5 -175t70.5 -176t172.5 -68zM149 687h82q0 -55 51 -55q25 0 38 16t13 39h83q0 -59 -37 -94.5
t-97 -35.5q-65 0 -99 38t-34 92z" />
    <glyph glyph-name="Ohungarumlaut" unicode="&#x150;" horiz-adv-x="787" 
d="M171 343q0 95 64.5 161.5t157.5 66.5t157.5 -66.5t64.5 -161.5t-64.5 -161t-157.5 -66t-157.5 66t-64.5 161zM44 343q0 -146 101.5 -249.5t247.5 -103.5t248 103.5t102 249.5q0 147 -101.5 250.5t-248.5 103.5t-248 -103.5t-101 -250.5zM632 929l-121 -163h-97l111 163
h107zM476 929l-110 -163h-94l99 163h105z" />
    <glyph glyph-name="ohungarumlaut" unicode="&#x151;" horiz-adv-x="566" 
d="M283 110q-52 0 -87 34.5t-35 90.5q0 54 35 88t87 34t87 -34t35 -88q0 -56 -35 -90.5t-87 -34.5zM283 -9q102 0 172.5 68t70.5 176t-70.5 175t-172.5 67t-172.5 -67t-70.5 -175t70.5 -176t172.5 -68zM520 707l-121 -163h-97l111 163h107zM364 707l-110 -163h-94l99 163
h105z" />
    <glyph glyph-name="OE" unicode="&#x152;" horiz-adv-x="1100" 
d="M615 605v84h425v-116h-298v-177h261v-114h-261v-166h308v-116h-435v81q-91 -91 -223 -91q-146 0 -247 103.5t-101 249.5q0 147 101 250.5t247 103.5q136 0 223 -92zM172 343q0 -94 63.5 -160t156.5 -66q94 0 158 67t64 163q-2 93 -66 158t-156 65q-93 0 -156.5 -66.5
t-63.5 -160.5z" />
    <glyph glyph-name="oe" unicode="&#x153;" horiz-adv-x="919" 
d="M526 276h240q-7 46 -38.5 72.5t-78.5 26.5q-49 0 -82.5 -26t-40.5 -73zM283 109q52 0 87 34.5t35 90.5q0 54 -35.5 88.5t-86.5 34.5t-86.5 -34.5t-35.5 -88.5q0 -56 35 -90.5t87 -34.5zM465 71q-70 -81 -182 -81q-102 0 -172.5 68t-70.5 176t70.5 175.5t172.5 67.5
q112 0 182 -80q71 80 184 80q102 0 164 -61.5t70 -161.5q3 -26 1 -61h-357q7 -46 42 -73t87 -27q37 0 69 15.5t48 44.5l94 -50q-31 -57 -90 -85t-128 -28q-114 0 -184 81z" />
    <glyph glyph-name="Racute" unicode="&#x154;" horiz-adv-x="631" 
d="M356 575q45 0 69 -33.5t24 -75.5q0 -43 -25 -75t-72 -32h-138v216h142zM407 250q86 14 130.5 75t44.5 141q0 92 -56.5 157.5t-163.5 65.5h-276v-689h128v245h53l162 -245h154zM328 929h128l-138 -163h-95z" />
    <glyph glyph-name="racute" unicode="&#x155;" horiz-adv-x="411" 
d="M181 707h128l-138 -163h-95zM191 165q0 198 117 198q42 0 71 -13l21 110q-32 17 -77 17q-43 0 -79 -30t-53 -90v110h-122v-467h122v165z" />
    <glyph glyph-name="Rcommaaccent" unicode="&#x156;" horiz-adv-x="631" 
d="M356 575h-142v-216h138q47 0 72 32t25 75q0 42 -24 75.5t-69 33.5zM407 250l176 -250h-154l-162 245h-53v-245h-128v689h276q107 0 163.5 -65.5t56.5 -157.5q0 -80 -44.5 -141t-130.5 -75zM296 -274l-64 29q32 45 44 85t10 104h107q-7 -146 -97 -218z" />
    <glyph glyph-name="rcommaaccent" unicode="&#x157;" horiz-adv-x="411" 
d="M88 -274l-64 29q32 45 44 85t10 104h107q-7 -146 -97 -218zM191 165v-165h-122v467h122v-110q17 60 53 90t79 30q45 0 77 -17l-21 -110q-29 13 -71 13q-117 0 -117 -198z" />
    <glyph glyph-name="Rcaron" unicode="&#x158;" horiz-adv-x="631" 
d="M356 575q45 0 69 -33.5t24 -75.5q0 -43 -25 -75t-72 -32h-138v216h142zM407 250q86 14 130.5 75t44.5 141q0 92 -56.5 157.5t-163.5 65.5h-276v-689h128v245h53l162 -245h154zM250 766l-109 163h94l76 -89l78 89h94l-110 -163h-123z" />
    <glyph glyph-name="rcaron" unicode="&#x159;" horiz-adv-x="411" 
d="M153 544l-109 163h94l76 -89l78 89h94l-110 -163h-123zM191 165q0 198 117 198q42 0 71 -13l21 110q-32 17 -77 17q-43 0 -79 -30t-53 -90v110h-122v-467h122v165z" />
    <glyph glyph-name="Sacute" unicode="&#x15a;" horiz-adv-x="577" 
d="M174 201h-128q0 -90 69 -151t178 -61q99 0 168.5 52.5t73.5 142.5q5 69 -38 125t-150 85l-85 25q-82 22 -82 79q0 36 29.5 58.5t73.5 22.5q48 0 75.5 -24.5t27.5 -65.5h128q0 95 -64.5 151.5t-164.5 56.5q-97 0 -164.5 -56.5t-67.5 -145.5q0 -141 174 -192l85 -22
q50 -14 73.5 -37t21.5 -57q-2 -36 -33 -59.5t-81 -23.5q-53 0 -85 28.5t-34 68.5zM344 929h128l-138 -163h-95z" />
    <glyph glyph-name="sacute" unicode="&#x15b;" horiz-adv-x="454" 
d="M182 195q-43 12 -71 28t-40.5 36t-16.5 37.5t-4 41.5q0 56 51 97.5t121 41.5q74 0 126.5 -36t55.5 -111h-116q-1 24 -20 36t-43 12q-59 0 -59 -46q0 -26 49 -39l78 -19q38 -10 64 -28t37.5 -39.5t16 -38.5t4.5 -34q0 -68 -56.5 -106t-134.5 -38q-74 0 -130.5 42.5
t-57.5 114.5h114q2 -25 27.5 -42.5t58.5 -16.5q26 1 43.5 14t17.5 33q1 17 -11.5 27.5t-39.5 16.5zM268 707h128l-138 -163h-95z" />
    <glyph glyph-name="Scircumflex" unicode="&#x15c;" horiz-adv-x="577" 
d="M46 201h128q2 -40 34 -68.5t85 -28.5q50 0 81 23.5t33 59.5q2 34 -21.5 57t-73.5 37l-85 22q-174 51 -174 192q0 89 67.5 145.5t164.5 56.5q100 0 164.5 -56.5t64.5 -151.5h-128q0 41 -27.5 65.5t-75.5 24.5q-44 0 -73.5 -22.5t-29.5 -58.5q0 -57 82 -79l85 -25
q107 -29 150 -85t38 -125q-4 -90 -73.5 -142.5t-168.5 -52.5q-109 0 -178 61t-69 151zM229 932h123l110 -163h-94l-78 88l-76 -88h-94z" />
    <glyph glyph-name="scircumflex" unicode="&#x15d;" horiz-adv-x="454" 
d="M182 195q-43 12 -71 28t-40.5 36t-16.5 37.5t-4 41.5q0 56 51 97.5t121 41.5q74 0 126.5 -36t55.5 -111h-116q-1 24 -20 36t-43 12q-59 0 -59 -46q0 -26 49 -39l78 -19q38 -10 64 -28t37.5 -39.5t16 -38.5t4.5 -34q0 -68 -56.5 -106t-134.5 -38q-74 0 -130.5 42.5
t-57.5 114.5h114q2 -25 27.5 -42.5t58.5 -16.5q26 1 43.5 14t17.5 33q1 17 -11.5 27.5t-39.5 16.5zM164 710h123l110 -163h-94l-78 88l-76 -88h-94z" />
    <glyph glyph-name="Scedilla" unicode="&#x15e;" horiz-adv-x="579" 
d="M246 -122q5 -13 17 -18.5t26 -1.5q28 11 17 46l-32 86q-101 6 -164 65.5t-63 145.5h128q2 -40 34 -68.5t85 -28.5q50 0 81 23.5t33 59.5q2 34 -21.5 57t-73.5 37l-85 22q-174 51 -174 192q0 89 67.5 145.5t164.5 56.5q100 0 164.5 -56.5t64.5 -151.5h-128
q0 41 -27.5 65.5t-75.5 24.5q-44 0 -73.5 -22.5t-29.5 -58.5q0 -57 82 -79l85 -25q107 -29 150 -85t38 -125q-4 -79 -59 -129.5t-138 -62.5l31 -57q9 -16 9 -46q0 -41 -30.5 -71.5t-74.5 -30.5q-42 0 -72.5 32.5t-29.5 87.5l69 -4q0 -13 5 -25z" />
    <glyph glyph-name="scedilla" unicode="&#x15f;" horiz-adv-x="455" 
d="M288 -2l34 -63q9 -16 9 -46q0 -41 -30.5 -71.5t-74.5 -30.5q-42 0 -72.5 32.5t-29.5 87.5l69 -4q0 -13 5 -25q5 -13 17 -18.5t26 -1.5q28 11 17 46l-32 86h-1q-74 0 -130.5 42.5t-57.5 114.5h114q2 -25 27.5 -42.5t58.5 -16.5q26 1 43.5 14t17.5 33q1 17 -11.5 27.5
t-39.5 16.5l-64 16q-43 12 -71 28t-40.5 36t-16.5 37.5t-4 41.5q0 56 51 97.5t121 41.5q74 0 126.5 -36t55.5 -111h-116q-1 24 -20 36t-43 12q-59 0 -59 -46q0 -26 49 -39l78 -19q38 -10 64 -28t37.5 -39.5t16 -38.5t4.5 -34q0 -53 -35.5 -88t-92.5 -48z" />
    <glyph glyph-name="Scaron" unicode="&#x160;" horiz-adv-x="577" 
d="M174 201h-128q0 -90 69 -151t178 -61q99 0 168.5 52.5t73.5 142.5q5 69 -38 125t-150 85l-85 25q-82 22 -82 79q0 36 29.5 58.5t73.5 22.5q48 0 75.5 -24.5t27.5 -65.5h128q0 95 -64.5 151.5t-164.5 56.5q-97 0 -164.5 -56.5t-67.5 -145.5q0 -141 174 -192l85 -22
q50 -14 73.5 -37t21.5 -57q-2 -36 -33 -59.5t-81 -23.5q-53 0 -85 28.5t-34 68.5zM229 766l-109 163h94l76 -89l78 89h94l-110 -163h-123z" />
    <glyph glyph-name="scaron" unicode="&#x161;" horiz-adv-x="454" 
d="M182 195q-43 12 -71 28t-40.5 36t-16.5 37.5t-4 41.5q0 56 51 97.5t121 41.5q74 0 126.5 -36t55.5 -111h-116q-1 24 -20 36t-43 12q-59 0 -59 -46q0 -26 49 -39l78 -19q38 -10 64 -28t37.5 -39.5t16 -38.5t4.5 -34q0 -68 -56.5 -106t-134.5 -38q-74 0 -130.5 42.5
t-57.5 114.5h114q2 -25 27.5 -42.5t58.5 -16.5q26 1 43.5 14t17.5 33q1 17 -11.5 27.5t-39.5 16.5zM164 544l-109 163h94l76 -89l78 89h94l-110 -163h-123z" />
    <glyph glyph-name="Tcommaaccent" unicode="&#x162;" horiz-adv-x="573" 
d="M28 572v117h517v-117h-194v-572h-129v572h-194zM240 -274l-64 29q32 45 44 85t10 104h107q-7 -146 -97 -218z" />
    <glyph glyph-name="tcommaaccent" unicode="&#x163;" horiz-adv-x="351" 
d="M229 645v-178h99v-98h-99v-369h-121v369h-85v98h85v178h121zM127 -274l-64 29q32 45 44 85t10 104h107q-7 -146 -97 -218z" />
    <glyph glyph-name="Tcaron" unicode="&#x164;" horiz-adv-x="573" 
d="M28 689v-117h194v-572h129v572h194v117h-517zM225 766l-109 163h94l76 -89l78 89h94l-110 -163h-123z" />
    <glyph glyph-name="tcaron" unicode="&#x165;" horiz-adv-x="350" 
d="M345 524l-65 29q32 45 44 85t10 104h107q-7 -145 -96 -218zM107 369v-369h122v369h98v98h-98v178h-122v-178h-84v-98h84z" />
    <glyph glyph-name="Tbar" unicode="&#x166;" horiz-adv-x="573" 
d="M222 334h-115v76h115v162h-194v117h517v-117h-194v-162h114v-76h-114v-334h-129v334z" />
    <glyph glyph-name="tbar" unicode="&#x167;" horiz-adv-x="354" 
d="M109 0v198h-58v71h58v100h-84v98h84v178h122v-178h98v-98h-98v-100h72v-71h-72v-198h-122z" />
    <glyph glyph-name="Utilde" unicode="&#x168;" horiz-adv-x="681" 
d="M341 111q54 0 93.5 37t39.5 95v446h128v-446q0 -112 -76.5 -182.5t-184.5 -70.5q-109 0 -185.5 70.5t-76.5 182.5v446h130v-446q0 -58 39 -95t93 -37zM296 829q-8 0 -16.5 -11t-9.5 -32h-70q3 65 31.5 95t64.5 30q24 0 51 -20.5t37 -20.5q8 0 17 10t10 31h70
q-3 -64 -32.5 -93.5t-64.5 -29.5q-23 0 -51 20.5t-37 20.5z" />
    <glyph glyph-name="utilde" unicode="&#x169;" 
d="M376 218v249h122v-467h-122v66q-19 -36 -55.5 -56t-73.5 -20q-85 0 -134.5 52t-49.5 149v276h123v-254q0 -53 26 -78.5t63 -25.5q43 0 72 26.5t29 82.5zM246 607q-8 0 -16.5 -11t-9.5 -32h-70q3 65 31.5 95t64.5 30q24 0 51 -20.5t37 -20.5q8 0 17 10t10 31h70
q-3 -64 -32.5 -93.5t-64.5 -29.5q-23 0 -51 20.5t-37 20.5z" />
    <glyph glyph-name="Umacron" unicode="&#x16a;" horiz-adv-x="681" 
d="M341 111q54 0 93.5 37t39.5 95v446h128v-446q0 -112 -76.5 -182.5t-184.5 -70.5q-109 0 -185.5 70.5t-76.5 182.5v446h130v-446q0 -58 39 -95t93 -37zM206 807v83h269v-83h-269z" />
    <glyph glyph-name="umacron" unicode="&#x16b;" 
d="M376 218v249h122v-467h-122v66q-19 -36 -55.5 -56t-73.5 -20q-85 0 -134.5 52t-49.5 149v276h123v-254q0 -53 26 -78.5t63 -25.5q43 0 72 26.5t29 82.5zM156 585v83h269v-83h-269z" />
    <glyph glyph-name="Ubreve" unicode="&#x16c;" horiz-adv-x="681" 
d="M341 111q54 0 93.5 37t39.5 95v446h128v-446q0 -112 -76.5 -182.5t-184.5 -70.5q-109 0 -185.5 70.5t-76.5 182.5v446h130v-446q0 -58 39 -95t93 -37zM207 909h82q0 -55 51 -55q25 0 38 16t13 39h83q0 -59 -37 -94.5t-97 -35.5q-65 0 -99 38t-34 92z" />
    <glyph glyph-name="ubreve" unicode="&#x16d;" 
d="M376 218v249h122v-467h-122v66q-19 -36 -55.5 -56t-73.5 -20q-85 0 -134.5 52t-49.5 149v276h123v-254q0 -53 26 -78.5t63 -25.5q43 0 72 26.5t29 82.5zM157 687h82q0 -55 51 -55q25 0 38 16t13 39h83q0 -59 -37 -94.5t-97 -35.5q-65 0 -99 38t-34 92z" />
    <glyph glyph-name="Uring" unicode="&#x16e;" horiz-adv-x="681" 
d="M341 111q54 0 93.5 37t39.5 95v446h128v-446q0 -112 -76.5 -182.5t-184.5 -70.5q-109 0 -185.5 70.5t-76.5 182.5v446h130v-446q0 -58 39 -95t93 -37zM225 876q0 49 33.5 83t80.5 34q49 0 83 -33.5t34 -83.5q0 -48 -34 -81t-83 -33q-47 0 -80.5 33t-33.5 81zM282 876
q0 -24 17 -40.5t40 -16.5q25 0 42 16.5t17 40.5q0 25 -17 42t-42 17q-23 0 -40 -17t-17 -42z" />
    <glyph glyph-name="uring" unicode="&#x16f;" 
d="M376 218v249h122v-467h-122v66q-19 -36 -55.5 -56t-73.5 -20q-85 0 -134.5 52t-49.5 149v276h123v-254q0 -53 26 -78.5t63 -25.5q43 0 72 26.5t29 82.5zM175 654q0 49 33.5 83t80.5 34q49 0 83 -33.5t34 -83.5q0 -48 -34 -81t-83 -33q-47 0 -80.5 33t-33.5 81zM232 654
q0 -24 17 -40.5t40 -16.5q25 0 42 16.5t17 40.5q0 25 -17 42t-42 17q-23 0 -40 -17t-17 -42z" />
    <glyph glyph-name="Uhungarumlaut" unicode="&#x170;" horiz-adv-x="681" 
d="M341 111q54 0 93.5 37t39.5 95v446h128v-446q0 -112 -76.5 -182.5t-184.5 -70.5q-109 0 -185.5 70.5t-76.5 182.5v446h130v-446q0 -58 39 -95t93 -37zM582 929l-121 -163h-97l111 163h107zM426 929l-110 -163h-94l99 163h105z" />
    <glyph glyph-name="uhungarumlaut" unicode="&#x171;" 
d="M376 218v249h122v-467h-122v66q-19 -36 -55.5 -56t-73.5 -20q-85 0 -134.5 52t-49.5 149v276h123v-254q0 -53 26 -78.5t63 -25.5q43 0 72 26.5t29 82.5zM503 707l-121 -163h-97l111 163h107zM347 707l-110 -163h-94l99 163h105z" />
    <glyph glyph-name="Uogonek" unicode="&#x172;" horiz-adv-x="681" 
d="M399 -122l5 25l69 4q1 -55 -29.5 -87.5t-72.5 -32.5q-43 0 -74 30.5t-31 71.5q0 30 9 46l31 57q-97 12 -162 80t-65 171v446h130v-446q0 -58 39 -95t93 -37t93.5 37t39.5 95v446h128v-446q0 -104 -66.5 -173t-164.5 -78l-32 -88q-11 -35 17 -46q14 -4 26 1.5t17 18.5z
" />
    <glyph glyph-name="uogonek" unicode="&#x173;" 
d="M465 -122l5 25l69 4q1 -55 -29.5 -87.5t-72.5 -32.5q-43 0 -74 30.5t-31 71.5q0 30 9 46l35 65v66q-19 -36 -55.5 -56t-73.5 -20q-85 0 -134.5 52t-49.5 149v276h123v-254q0 -53 26 -78.5t63 -25.5q43 0 72 26.5t29 82.5v249h122v-467h-58l-35 -96q-11 -35 17 -46
q14 -4 26 1.5t17 18.5z" />
    <glyph glyph-name="Wcircumflex" unicode="&#x174;" horiz-adv-x="892" 
d="M601 209l148 480h139l-234 -689h-103l-106 391l-104 -391h-104l-232 689h138l147 -480l105 384h102zM384 932h123l110 -163h-94l-78 88l-76 -88h-94z" />
    <glyph glyph-name="wcircumflex" unicode="&#x175;" horiz-adv-x="774" 
d="M759 467l-167 -467h-102l-104 313l-101 -313h-101l-172 467h130l95 -295l94 295h108l95 -295l95 295h130zM323 710h123l110 -163h-94l-78 88l-76 -88h-94z" />
    <glyph glyph-name="Ycircumflex" unicode="&#x176;" horiz-adv-x="644" 
d="M387 0h-131v314l-264 375h152l177 -265l179 265h153l-266 -377v-312zM260 932h123l110 -163h-94l-78 88l-76 -88h-94z" />
    <glyph glyph-name="ycircumflex" unicode="&#x177;" horiz-adv-x="511" 
d="M502 467l-289 -695h-129l107 264l-182 431h130l116 -291l117 291h130zM196 710h123l110 -163h-94l-78 88l-76 -88h-94z" />
    <glyph glyph-name="Ydieresis" unicode="&#x178;" horiz-adv-x="644" 
d="M387 0h-131v314l-264 375h152l177 -265l179 265h153l-266 -377v-312zM167 854q0 28 20 46.5t49 18.5q28 0 48 -19t20 -46t-20 -46t-48 -19q-29 0 -49 18.5t-20 46.5zM341 854q0 28 20 46.5t49 18.5t48.5 -18.5t19.5 -46.5t-19.5 -46.5t-48.5 -18.5t-49 18.5t-20 46.5z
" />
    <glyph glyph-name="Zacute" unicode="&#x179;" horiz-adv-x="587" 
d="M42 100l332 474h-319v115h484v-101l-335 -473h335v-115h-497v100zM320 929h128l-138 -163h-95z" />
    <glyph glyph-name="zacute" unicode="&#x17a;" horiz-adv-x="508" 
d="M459 467h-403v-114h226l-241 -260v-93h418v114h-245l245 259v94zM284 707h128l-138 -163h-95z" />
    <glyph glyph-name="Zdotaccent" unicode="&#x17b;" horiz-adv-x="587" 
d="M42 100l332 474h-319v115h484v-101l-335 -473h335v-115h-497v100zM218 850q0 29 21 49t51 20q31 0 52 -20t21 -49q0 -30 -21 -50t-52 -20q-30 0 -51 20t-21 50z" />
    <glyph glyph-name="zdotaccent" unicode="&#x17c;" horiz-adv-x="508" 
d="M459 467h-403v-114h226l-241 -260v-93h418v114h-245l245 259v94zM177 628q0 29 21 49t51 20q31 0 52 -20t21 -49q0 -30 -21 -50t-52 -20q-30 0 -51 20t-21 50z" />
    <glyph glyph-name="Zcaron" unicode="&#x17d;" horiz-adv-x="587" 
d="M42 100l332 474h-319v115h484v-101l-335 -473h335v-115h-497v100zM229 766l-109 163h94l76 -89l78 89h94l-110 -163h-123z" />
    <glyph glyph-name="zcaron" unicode="&#x17e;" horiz-adv-x="508" 
d="M459 467h-403v-114h226l-241 -260v-93h418v114h-245l245 259v94zM188 544l-109 163h94l76 -89l78 89h94l-110 -163h-123z" />
    <glyph glyph-name="longs" unicode="&#x17f;" horiz-adv-x="324" 
d="M362 721v-117h-51q-76 0 -76 -100v-504h-123v369h-89v98h89v37q0 103 51 160t148 57h51z" />
    <glyph glyph-name="florin" unicode="&#x192;" horiz-adv-x="623" 
d="M30 -189l23 115h54q72 0 94 99l70 341h-87l21 101h87l8 35q20 103 83 159t164 54l46 -1l-23 -116h-53q-48 0 -69 -34t-33 -97h99l-20 -101h-100q-62 -307 -77 -371q-20 -87 -82.5 -136.5t-153.5 -48.5q-33 0 -51 1z" />
    <glyph glyph-name="Aringacute" unicode="&#x1fa;" horiz-adv-x="654" 
d="M456 167l63 -167h135l-258 689h-138l-258 -689h136l63 167h257zM370 1110h128l-113 -133q57 -34 57 -101q0 -48 -34 -81t-83 -33q-47 0 -80.5 33t-33.5 81q0 40 22.5 70t57.5 42zM242 279l85 263l87 -263h-172zM268 876q0 -24 17 -40.5t40 -16.5q25 0 42 16.5t17 40.5
q0 25 -17 42t-42 17q-23 0 -40 -17t-17 -42z" />
    <glyph glyph-name="aringacute" unicode="&#x1fb;" horiz-adv-x="614" 
d="M423 0v60q-21 -33 -63.5 -51t-81.5 -18q-96 0 -167 67.5t-71 175.5t70.5 175.5t167.5 67.5q39 0 80.5 -16.5t64.5 -51.5v58h122v-467h-122zM166 234q0 -55 38.5 -90.5t90.5 -35.5t90 34.5t38 91.5q0 58 -38.5 92t-89.5 34q-52 0 -90.5 -35.5t-38.5 -90.5zM324 882h128
l-113 -133q57 -34 57 -101q0 -48 -34 -81t-83 -33q-47 0 -80.5 33t-33.5 81q0 40 22.5 70t57.5 42zM222 648q0 -24 17 -40.5t40 -16.5q25 0 42 16.5t17 40.5q0 25 -17 42t-42 17q-23 0 -40 -17t-17 -42z" />
    <glyph glyph-name="AEacute" unicode="&#x1fc;" horiz-adv-x="933" 
d="M873 689h-452l-435 -689h152l104 163h205v-163l1 1v-1h435v116h-308v166h261v114h-261v177h298v116zM315 286l132 230v-230h-132zM527 929h128l-138 -163h-95z" />
    <glyph glyph-name="aeacute" unicode="&#x1fd;" horiz-adv-x="993" 
d="M599 276q7 47 40.5 73t82.5 26q47 0 79 -26.5t38 -72.5h-240zM166 234q0 55 38.5 90.5t90.5 35.5q51 0 89.5 -34t38.5 -92q0 -57 -38 -91.5t-90 -34.5t-90.5 35.5t-38.5 90.5zM958 235q0 108 -67 175t-169 67q-120 0 -186 -85v75h-113v-58q-23 35 -64.5 51.5t-80.5 16.5
q-97 0 -167.5 -67.5t-70.5 -175.5t71 -175.5t167 -67.5q39 0 81.5 18t63.5 51v-60h113v77q66 -87 186 -87q69 0 128 28t90 85l-94 50q-16 -29 -48 -44.5t-69 -15.5q-52 0 -87 27t-42 73h356q2 22 2 42zM528 707h128l-138 -163h-95z" />
    <glyph glyph-name="Oslashacute" unicode="&#x1fe;" horiz-adv-x="785" 
d="M449 929h128l-138 -163h-95zM173 66l9 -6t8 -5q89 -65 202 -65q146 0 248 103.5t102 249.5q0 127 -81 226l80 82l-47 46l-79 -81q-95 81 -223 81q-147 0 -248 -103.5t-101 -250.5q0 -131 83 -230l-80 -82l47 -47zM170 343q0 95 64.5 161.5t157.5 66.5q77 0 134 -46
l-311 -321q-45 63 -45 139zM392 116q-74 0 -130 42l309 319q43 -61 43 -134q0 -95 -64.5 -161t-157.5 -66z" />
    <glyph glyph-name="oslashacute" unicode="&#x1ff;" horiz-adv-x="566" 
d="M344 707h128l-138 -163h-95zM283 -10q102 0 172.5 68t70.5 176q0 85 -47 148l52 53l-47 46l-51 -53q-66 49 -150 49q-102 0 -172.5 -67.5t-70.5 -175.5q0 -92 52 -155l-56 -58l47 -47l58 59q61 -43 142 -43zM283 357q34 0 63 -17l-168 -173q-17 27 -17 67q0 54 35.5 88.5
t86.5 34.5zM283 109q-31 0 -56 13l165 170q13 -26 13 -58q0 -56 -35 -90.5t-87 -34.5z" />
    <glyph glyph-name="Scommaaccent" unicode="&#x218;" horiz-adv-x="577" 
d="M46 201h128q2 -40 34 -68.5t85 -28.5q50 0 81 23.5t33 59.5q2 34 -21.5 57t-73.5 37l-85 22q-174 51 -174 192q0 89 67.5 145.5t164.5 56.5q100 0 164.5 -56.5t64.5 -151.5h-128q0 41 -27.5 65.5t-75.5 24.5q-44 0 -73.5 -22.5t-29.5 -58.5q0 -57 82 -79l85 -25
q107 -29 150 -85t38 -125q-4 -90 -73.5 -142.5t-168.5 -52.5q-109 0 -178 61t-69 151zM254 -274l-64 29q32 45 44 85t10 104h107q-7 -146 -97 -218z" />
    <glyph glyph-name="scommaaccent" unicode="&#x219;" horiz-adv-x="454" 
d="M182 195q-43 12 -71 28t-40.5 36t-16.5 37.5t-4 41.5q0 56 51 97.5t121 41.5q74 0 126.5 -36t55.5 -111h-116q-1 24 -20 36t-43 12q-59 0 -59 -46q0 -26 49 -39l78 -19q38 -10 64 -28t37.5 -39.5t16 -38.5t4.5 -34q0 -68 -56.5 -106t-134.5 -38q-74 0 -130.5 42.5
t-57.5 114.5h114q2 -25 27.5 -42.5t58.5 -16.5q26 1 43.5 14t17.5 33q1 17 -11.5 27.5t-39.5 16.5zM188 -274l-64 29q32 45 44 85t10 104h107q-7 -146 -97 -218z" />
    <glyph glyph-name="circumflex" unicode="&#x2c6;" horiz-adv-x="582" 
d="M229 710h123l110 -163h-94l-78 88l-76 -88h-94z" />
    <glyph glyph-name="caron" unicode="&#x2c7;" horiz-adv-x="582" 
d="M229 544l-109 163h94l76 -89l78 89h94l-110 -163h-123z" />
    <glyph glyph-name="breve" unicode="&#x2d8;" horiz-adv-x="507" 
d="M120 687h82q0 -55 51 -55q25 0 38 16t13 39h83q0 -59 -37 -94.5t-97 -35.5q-65 0 -99 38t-34 92z" />
    <glyph glyph-name="dotaccent" unicode="&#x2d9;" horiz-adv-x="365" 
d="M110 628q0 29 21 49t51 20q31 0 52 -20t21 -49q0 -30 -21 -50t-52 -20q-30 0 -51 20t-21 50z" />
    <glyph glyph-name="ring" unicode="&#x2da;" horiz-adv-x="531" 
d="M160 654q0 49 33.5 83t80.5 34q50 0 83.5 -33.5t33.5 -83.5q0 -48 -34 -81t-83 -33q-47 0 -80.5 33t-33.5 81zM217 654q0 -24 17 -40.5t40 -16.5q25 0 42 16.5t17 40.5q0 25 -17 42t-42 17q-23 0 -40 -17t-17 -42z" />
    <glyph glyph-name="ogonek" unicode="&#x2db;" horiz-adv-x="528" 
d="M293 -122l5 25l69 4q1 -55 -29.5 -87.5t-72.5 -32.5q-43 0 -74 30.5t-31 71.5q0 30 9 46l51 94h59l-46 -125q-11 -35 17 -46q14 -4 26 1.5t17 18.5z" />
    <glyph glyph-name="tilde" unicode="&#x2dc;" horiz-adv-x="441" 
d="M176 607q-8 0 -16.5 -11t-9.5 -32h-70q3 65 31.5 95t64.5 30q24 0 51 -20.5t37 -20.5q8 0 17 10t10 31h70q-3 -64 -32.5 -93.5t-64.5 -29.5q-23 0 -51 20.5t-37 20.5z" />
    <glyph glyph-name="hungarumlaut" unicode="&#x2dd;" horiz-adv-x="520" 
d="M440 707l-121 -163h-97l111 163h107zM284 707l-110 -163h-94l99 163h105z" />
    <glyph glyph-name="Wgrave" unicode="&#x1e80;" horiz-adv-x="892" 
d="M601 209l148 480h139l-234 -689h-103l-106 391l-104 -391h-104l-232 689h138l147 -480l105 384h102zM239 929h128l105 -163h-95z" />
    <glyph glyph-name="wgrave" unicode="&#x1e81;" horiz-adv-x="774" 
d="M759 467l-167 -467h-102l-104 313l-101 -313h-101l-172 467h130l95 -295l94 295h108l95 -295l95 295h130zM198 707h128l105 -163h-95z" />
    <glyph glyph-name="Wacute" unicode="&#x1e82;" horiz-adv-x="892" 
d="M749 689l-148 -480l-104 384h-102l-105 -384l-147 480h-138l232 -689h104l104 391l106 -391h103l234 689h-139zM508 929h128l-138 -163h-95z" />
    <glyph glyph-name="wacute" unicode="&#x1e83;" horiz-adv-x="774" 
d="M592 0l167 467h-130l-95 -295l-95 295h-108l-94 -295l-95 295h-130l172 -467h101l101 313l104 -313h102zM435 707h128l-138 -163h-95z" />
    <glyph glyph-name="Wdieresis" unicode="&#x1e84;" horiz-adv-x="892" 
d="M749 689l-148 -480l-104 384h-102l-105 -384l-147 480h-138l232 -689h104l104 391l106 -391h103l234 689h-139zM291 854q0 28 20 46.5t49 18.5q28 0 48 -19t20 -46t-20 -46t-48 -19q-29 0 -49 18.5t-20 46.5zM465 854q0 28 20 46.5t49 18.5t48.5 -18.5t19.5 -46.5
t-19.5 -46.5t-48.5 -18.5t-49 18.5t-20 46.5z" />
    <glyph glyph-name="wdieresis" unicode="&#x1e85;" horiz-adv-x="774" 
d="M592 0l167 467h-130l-95 -295l-95 295h-108l-94 -295l-95 295h-130l172 -467h101l101 313l104 -313h102zM230 632q0 28 20 46.5t49 18.5q28 0 48 -19t20 -46t-20 -46t-48 -19q-29 0 -49 18.5t-20 46.5zM404 632q0 28 20 46.5t49 18.5t48.5 -18.5t19.5 -46.5t-19.5 -46.5
t-48.5 -18.5t-49 18.5t-20 46.5z" />
    <glyph glyph-name="Ygrave" unicode="&#x1ef2;" horiz-adv-x="644" 
d="M387 0h-131v314l-264 375h152l177 -265l179 265h153l-266 -377v-312zM153 929h128l105 -163h-95z" />
    <glyph glyph-name="ygrave" unicode="&#x1ef3;" horiz-adv-x="511" 
d="M502 467l-289 -695h-129l107 264l-182 431h130l116 -291l117 291h130zM94 707h128l105 -163h-95z" />
    <glyph glyph-name="thinspace" unicode="&#x2009;" horiz-adv-x="14" 
 />
    <glyph glyph-name="endash" unicode="&#x2013;" horiz-adv-x="619" 
d="M63 181v108h493v-108h-493z" />
    <glyph glyph-name="emdash" unicode="&#x2014;" horiz-adv-x="830" 
d="M63 181v108h704v-108h-704z" />
    <glyph glyph-name="quoteleft" unicode="&#x2018;" horiz-adv-x="267" 
d="M185 714l54 -27q-25 -35 -40.5 -62.5t-29 -76.5t-13.5 -104h-104q3 82 46.5 158.5t86.5 111.5z" />
    <glyph glyph-name="quoteright" unicode="&#x2019;" horiz-adv-x="265" 
d="M95 421l-54 27q25 36 40.5 62.5t29.5 75.5t14 104h103q-2 -82 -46 -158.5t-87 -110.5z" />
    <glyph glyph-name="quotesinglbase" unicode="&#x201a;" horiz-adv-x="250" 
d="M55 -103l-54 26q26 37 41 63.5t29 75.5t14 104h103q-2 -82 -46 -158.5t-87 -110.5z" />
    <glyph glyph-name="quotedblleft" unicode="&#x201c;" horiz-adv-x="431" 
d="M349 714l54 -27q-25 -36 -40.5 -62.5t-29 -75.5t-13.5 -104h-104q3 82 46.5 158.5t86.5 110.5zM186 714l53 -27q-25 -35 -40.5 -62.5t-29 -76t-13.5 -103.5h-103q2 82 46 158.5t87 110.5z" />
    <glyph glyph-name="quotedblright" unicode="&#x201d;" horiz-adv-x="427" 
d="M95 421l-54 26q25 36 40.5 63t29 76t13.5 104h103q-2 -82 -45.5 -158.5t-86.5 -110.5zM258 421l-54 26q26 37 41 63.5t28.5 75.5t13.5 104h104q-3 -82 -46.5 -158.5t-86.5 -110.5z" />
    <glyph glyph-name="quotedblbase" unicode="&#x201e;" horiz-adv-x="413" 
d="M55 -103l-53 26q25 36 40.5 63t29 76t13.5 104h103q-2 -82 -46 -158.5t-87 -110.5zM219 -103l-54 26q26 37 41 63.5t28.5 75.5t13.5 104h103q-2 -82 -45.5 -158.5t-86.5 -110.5z" />
    <glyph glyph-name="dagger" unicode="&#x2020;" horiz-adv-x="413" 
d="M262 689v-173h111v-85h-111v-534h-111v534h-111v85h111v173h111z" />
    <glyph glyph-name="daggerdbl" unicode="&#x2021;" horiz-adv-x="441" 
d="M276 689v-173h111v-85h-111v-223h111v-84h-111v-227h-111v227h-111v84h111v223h-111v85h111v173h111z" />
    <glyph glyph-name="bullet" unicode="&#x2022;" horiz-adv-x="464" 
d="M76 238q0 64 45.5 107t110.5 43t110.5 -43t45.5 -107t-45.5 -107t-110.5 -43t-110.5 43t-45.5 107z" />
    <glyph glyph-name="ellipsis" unicode="&#x2026;" horiz-adv-x="811" 
d="M57 66q0 33 23 54.5t56 21.5t56 -21.5t23 -54.5t-23 -54.5t-56 -21.5t-56 21.5t-23 54.5zM327 66q0 33 22.5 54.5t55.5 21.5t56.5 -22t23.5 -54t-23.5 -54t-56.5 -22t-55.5 21.5t-22.5 54.5zM596 66q0 33 23 54.5t56 21.5t56 -21.5t23 -54.5t-23 -54.5t-56 -21.5
t-56 21.5t-23 54.5z" />
    <glyph glyph-name="perthousand" unicode="&#x2030;" horiz-adv-x="995" 
d="M538 661h-68l-325 -661h68zM38 532q0 56 38.5 95t94.5 39q55 0 94.5 -39t39.5 -95t-39 -94.5t-95 -38.5t-94.5 38.5t-38.5 94.5zM115 532q0 -24 16 -40t40 -16t40.5 16t16.5 40q0 23 -17 40t-40 17q-24 0 -40 -16.5t-16 -40.5zM387 123q0 56 38.5 95t94.5 39t95 -39.5
t39 -94.5q0 -56 -39 -94.5t-95 -38.5t-94.5 38.5t-38.5 94.5zM464 123q0 -24 16 -40t40 -16t40.5 16t16.5 40q0 23 -17 40t-40 17q-24 0 -40 -16.5t-16 -40.5zM693 123q0 56 38.5 95t94.5 39t95 -39.5t39 -94.5q0 -56 -39 -94.5t-95 -38.5t-94.5 38.5t-38.5 94.5zM770 123
q0 -24 16 -40t40 -16t40.5 16t16.5 40q0 23 -17 40t-40 17q-24 0 -40 -16.5t-16 -40.5z" />
    <glyph glyph-name="guilsinglleft" unicode="&#x2039;" horiz-adv-x="322" 
d="M41 233l138 207h98l-138 -207l138 -207h-98z" />
    <glyph glyph-name="guilsinglright" unicode="&#x203a;" horiz-adv-x="322" 
d="M281 233l-138 -207h-98l138 207l-138 207h98z" />
    <glyph glyph-name="fraction" unicode="&#x2044;" horiz-adv-x="180" 
d="M351 669l-450 -679h-78l452 679h76z" />
    <glyph glyph-name="zerosuperior" unicode="&#x2070;" horiz-adv-x="356" 
d="M36 624q0 199 142 199t142 -199q0 -197 -142 -197t-142 197zM109 624q0 -126 69 -126t69 126q0 128 -69 128t-69 -128z" />
    <glyph glyph-name="foursuperior" unicode="&#x2074;" horiz-adv-x="350" 
d="M274 515v-82h-73v82h-190l193 302h70v-238h51v-64h-51zM119 579h82v130z" />
    <glyph glyph-name="fivesuperior" unicode="&#x2075;" horiz-adv-x="340" 
d="M85 546q11 -21 31.5 -34t42.5 -13q35 0 57 19t22 46q0 31 -20.5 47.5t-51.5 16.5q-54 0 -93 -38l-35 23l32 204h215v-68h-156l-13 -74q25 17 67 17q55 0 91 -33.5t36 -94.5t-41 -99t-110 -38q-41 0 -77.5 21.5t-57.5 57.5z" />
    <glyph glyph-name="sixsuperior" unicode="&#x2076;" horiz-adv-x="339" 
d="M304 747l-67 -28q-16 35 -51 35q-39 0 -58 -34t-17 -83q8 17 29 30.5t48 13.5q48 0 84 -36t35 -95q-1 -55 -39.5 -90t-96.5 -34q-54 1 -91 37t-42 96q-6 42 0 89t18.5 86.5t46.5 64.5t85 24q84 -4 116 -76zM118 556q0 -25 16.5 -41.5t40.5 -17.5q23 0 40 16.5t18 40.5
q0 24 -16.5 41t-39.5 18q-25 0 -42 -16.5t-17 -40.5z" />
    <glyph glyph-name="sevensuperior" unicode="&#x2077;" horiz-adv-x="324" 
d="M313 817l-186 -384h-83l152 315h-166v69h283z" />
    <glyph glyph-name="eightsuperior" unicode="&#x2078;" horiz-adv-x="345" 
d="M59 718q0 44 33.5 74.5t80.5 30.5t80 -30.5t33 -74.5q0 -39 -28 -64q56 -36 56 -97q0 -54 -41 -92t-100 -38t-100.5 38t-41.5 92q0 62 56 97q-28 28 -28 64zM104 558q0 -26 20.5 -44t48.5 -18t48 18.5t20 43.5t-19 44t-46 19h-9q-26 0 -44.5 -19t-18.5 -44zM131 717
q0 -17 11.5 -28.5t30.5 -11.5t30.5 12t11.5 28t-12 27.5t-30 11.5q-19 0 -30.5 -11.5t-11.5 -27.5z" />
    <glyph glyph-name="ninesuperior" unicode="&#x2079;" horiz-adv-x="339" 
d="M36 503l68 28q17 -36 51 -36q38 0 57 34.5t18 83.5q-9 -17 -30 -30.5t-48 -13.5q-48 0 -84 36t-35 95q2 55 40 89.5t96 33.5q55 -1 92 -37t42 -96q3 -47 -1 -89t-18 -84.5t-47.5 -67t-83.5 -22.5q-83 4 -117 76zM223 694q0 24 -16.5 41t-40.5 18q-24 0 -41 -16.5
t-17 -40.5q-1 -25 15.5 -41.5t40.5 -17.5q24 0 41 16t18 41z" />
    <glyph glyph-name="zeroinferior" unicode="&#x2080;" horiz-adv-x="356" 
d="M36 43q0 199 142 199t142 -199q0 -197 -142 -197t-142 197zM109 43q0 -126 69 -126t69 126q0 128 -69 128t-69 -128z" />
    <glyph glyph-name="oneinferior" unicode="&#x2081;" horiz-adv-x="212" 
d="M88 -149v285l-66 -30v65l139 70v-390h-73z" />
    <glyph glyph-name="twoinferior" unicode="&#x2082;" horiz-adv-x="321" 
d="M34 -111l157 187q22 27 22 50q0 20 -15 33t-39 13q-23 0 -39.5 -15.5t-20.5 -41.5l-67 13q9 53 44 83.5t86 30.5q52 0 88 -32.5t36 -83.5q0 -52 -41 -98l-93 -107h128v-70h-246v38z" />
    <glyph glyph-name="threeinferior" unicode="&#x2083;" horiz-adv-x="318" 
d="M98 148l-55 38q17 27 48 42.5t68 13.5q49 -3 80 -34t31 -73q0 -49 -48 -76q30 -11 48.5 -41.5t15.5 -62.5q-4 -49 -47.5 -81t-99.5 -28q-39 3 -71.5 25t-48.5 56l62 32q23 -43 63 -43q25 -1 44 13.5t21 34.5q1 21 -12.5 40.5t-47.5 18.5h-42v63h42q25 0 35.5 17.5
t8.5 32.5q-1 15 -13 27t-31 12q-33 1 -51 -27z" />
    <glyph glyph-name="fourinferior" unicode="&#x2084;" horiz-adv-x="347" 
d="M272 -66v-83h-73v83h-190l193 302h70v-238h51v-64h-51zM117 -2h82v130z" />
    <glyph glyph-name="fiveinferior" unicode="&#x2085;" horiz-adv-x="338" 
d="M85 -35q11 -21 31.5 -34t42.5 -13q35 0 57 19t22 46q0 31 -20.5 47.5t-51.5 16.5q-54 0 -93 -38l-35 23l32 204h215v-68h-156l-13 -75q25 18 67 18q55 0 91 -33.5t36 -94.5t-41.5 -99.5t-109.5 -38.5q-40 0 -77 21.5t-58 57.5q3 3 30.5 21z" />
    <glyph glyph-name="sixinferior" unicode="&#x2086;" horiz-adv-x="338" 
d="M303 166l-67 -28q-17 35 -51 35q-39 0 -58 -34t-17 -84q7 17 28.5 31t48.5 14q48 0 84 -36.5t35 -94.5q-1 -55 -39.5 -90t-96.5 -34q-54 1 -91 37t-42 96q-6 41 0 88t18.5 86.5t46.5 65t85 24.5q84 -4 116 -76zM117 -26q0 -24 16.5 -41t40.5 -17q23 -1 40 16t18 40
q0 25 -16.5 42t-39.5 17q-25 1 -42 -15.5t-17 -41.5z" />
    <glyph glyph-name="seveninferior" unicode="&#x2087;" horiz-adv-x="314" 
d="M310 236l-186 -385h-83l152 316h-166v69h283z" />
    <glyph glyph-name="eightinferior" unicode="&#x2088;" horiz-adv-x="345" 
d="M59 137q0 44 33.5 74.5t80.5 30.5t80 -30.5t33 -74.5q0 -39 -28 -64q56 -36 56 -97q0 -54 -41 -92t-100 -38t-100.5 38t-41.5 92q0 62 56 97q-28 28 -28 64zM104 -23q0 -26 20.5 -44t48.5 -18t48 18.5t20 43.5t-19.5 44t-45.5 19h-9q-26 0 -44.5 -19t-18.5 -44zM131 136
q0 -17 11.5 -29t30.5 -12q19 1 30.5 13t11.5 28t-12 27.5t-30 11.5q-19 0 -30.5 -11.5t-11.5 -27.5z" />
    <glyph glyph-name="nineinferior" unicode="&#x2089;" horiz-adv-x="339" 
d="M36 -79l68 29q17 -36 51 -36q38 0 57 34t18 84q-8 -17 -29.5 -30.5t-48.5 -13.5q-48 0 -84 36t-35 95q2 54 40 89t96 34q55 -1 92 -37t42 -96q3 -47 -1 -89t-18 -84.5t-47.5 -67t-83.5 -23.5q-83 4 -117 76zM223 112q0 25 -16.5 42t-40.5 17q-24 1 -41 -16t-17 -40
q-1 -25 15.5 -42t40.5 -17t41 16t18 40z" />
    <glyph glyph-name="colonmonetary" unicode="&#x20a1;" horiz-adv-x="704" 
d="M324 -4l-38 -107l-54 20l36 102q-36 13 -66 32l-43 -118l-54 19l49 136q-54 49 -84 117.5t-30 145.5q0 144 96 246t237 107l39 109l54 -20l-33 -92q42 -5 73 -17l33 93l54 -20l-34 -96q60 -33 105 -92l-102 -73q-22 28 -47 44l-149 -419q14 -2 21 -2q54 0 101 25t78 68
l101 -74q-46 -65 -119 -102.5t-161 -37.5q-31 0 -63 6zM392 575l-147 -410q29 -27 64 -39l156 435q-38 13 -73 14zM168 343q0 -70 34 -127l125 351q-71 -20 -115 -82t-44 -142z" />
    <glyph glyph-name="lira" unicode="&#x20a4;" horiz-adv-x="667" 
d="M399 227h-128v-115h205q11 0 18 9t7 22v39h121v-54q0 -55 -32.5 -91.5t-83.5 -36.5h-459v112h102v115h-81v60h81v53h-81v60h81v71q0 103 57.5 164.5t152.5 61.5q93 0 154.5 -57t61.5 -163h-125q0 49 -26.5 71.5t-66.5 20.5q-37 -1 -61.5 -24.5t-24.5 -61.5v-83h128v-60
h-128v-53h128v-60z" />
    <glyph glyph-name="uni20A6" unicode="&#x20a6;" horiz-adv-x="786" 
d="M139 487h-90v55h90v147h119l86 -147h177v147h128v-147h87v-55h-87v-108h87v-55h-87v-324h-117l-190 324h-76v-324h-127v324h-90v55h90v108zM377 487l63 -108h81v108h-144zM472 324l49 -83v83h-49zM266 453v-74h43z" />
    <glyph glyph-name="peseta" unicode="&#x20a7;" horiz-adv-x="755" 
d="M129 385h-80v55h80v52h-80v55h80v142h280q79 0 130.5 -39.5t73.5 -102.5h101v-55h-88q2 -24 2 -34q0 -12 -1 -18h87v-55h-97q-19 -64 -71.5 -102t-136.5 -38h-152v-245h-128v385zM500 458q0 18 -4 34h-239v-52h241q2 12 2 18zM407 575h-150v-28h211q-26 28 -61 28z
M257 359h146q43 0 69 26h-215v-26z" />
    <glyph glyph-name="rupee" unicode="&#x20a8;" horiz-adv-x="701" 
d="M376 453h-313v58h307q-24 64 -86 64h-221q0 5 -0.5 57t-0.5 57h594v-58h-212q51 -48 62 -120h150v-58h-146q-4 -77 -48 -133.5t-127 -69.5l176 -250h-154l-162 245h-132v114h217q43 0 67.5 27t28.5 67z" />
    <glyph glyph-name="uni20A9" unicode="&#x20a9;" horiz-adv-x="993" 
d="M181 322h-133v55h115l-22 64h-93v55h75l-65 193h138l59 -193h166l27 97h102l26 -97h166l60 193h139l-66 -193h68v-55h-87l-21 -64h108v-55h-127l-109 -322h-103l-87 322h-38l-85 -322h-104zM272 441l19 -64h98l17 64h-134zM591 441l17 -64h98l19 64h-134zM308 322
l35 -113l31 113h-66zM623 322l31 -113l35 113h-66z" />
    <glyph glyph-name="afii57636" unicode="&#x20aa;" horiz-adv-x="884" 
d="M605 332v-136h-122v119q0 43 -30 72t-79 29h-41h-120v-416h-123v538h257q41 0 72 -4q84 -7 135 -63.5t51 -138.5zM279 206v136h122v-119q0 -43 30 -72t79 -29h41h120v416h123v-538h-257q-36 0 -72 3q-84 7 -135 64.5t-51 138.5z" />
    <glyph glyph-name="Euro" unicode="&#x20ac;" horiz-adv-x="835" 
d="M532 370h-484v60h117q28 116 121 191.5t216 75.5q86 0 158.5 -36.5t118.5 -99.5l-102 -73q-68 88 -175 88q-70 0 -125 -40t-79 -106h234v-60zM48 314h484v-60h-233q24 -64 79 -103.5t124 -39.5q54 0 101 25t78 68l101 -74q-46 -65 -119 -102.5t-161 -37.5
q-122 0 -214.5 74t-121.5 190h-118v60z" />
    <glyph glyph-name="uni2113" unicode="&#x2113;" horiz-adv-x="399" 
d="M176 525v-245l34 2q31 0 31 51v192q0 65 -31 65q-34 0 -34 -65zM230 105l97 -5v-100h-117q-145 0 -145 166v365q0 166 145 166q142 0 142 -171v-187q0 -85 -37 -125.5t-139 -40.5v-7q0 -31 11 -45.5t43 -15.5z" />
    <glyph glyph-name="afii61352" unicode="&#x2116;" horiz-adv-x="979" 
d="M599 0v689h-128v-448l-262 448h-120v-689h128v453l266 -453h116zM666 561q0 56 38.5 94.5t94.5 38.5q55 0 94 -39t39 -94t-39 -93.5t-94 -38.5q-56 0 -94.5 38t-38.5 94zM739 561q0 -25 17.5 -42.5t42.5 -17.5t42.5 17.5t17.5 42.5t-17.5 43t-42.5 18t-42.5 -18
t-17.5 -43zM672 325v60h253v-60h-253z" />
    <glyph glyph-name="trademark" unicode="&#x2122;" horiz-adv-x="849" 
d="M330 319l36 301h-107v-301h-78v301h-118v69h378l115 -241l113 241h67l45 -370h-77l-28 238l-91 -197h-58l-92 197l-28 -238h-77z" />
    <glyph glyph-name="estimated" unicode="&#x212e;" horiz-adv-x="651" 
d="M607 279h-429v-193q66 -63 152 -63q76 0 123 33t87 94l31 -19q-44 -68 -99 -104.5t-142 -36.5q-119 0 -195 84.5t-76 205.5q0 123 75 206.5t200 83.5q124 0 198.5 -84.5t74.5 -206.5zM487 312v163q-68 62 -153 62q-96 0 -156 -62v-163h309z" />
    <glyph glyph-name="minus" unicode="&#x2212;" horiz-adv-x="530" 
d="M460 215h-390v95h390v-95z" />
    <glyph glyph-name="notequal" unicode="&#x2260;" horiz-adv-x="610" 
d="M272 135l-52 -106h-70l52 106h-128v94h173l51 105h-224v94h270l50 101h71l-50 -101h119v-94h-165l-51 -105h216v-94h-262z" />
    <glyph glyph-name="lessequal" unicode="&#x2264;" horiz-adv-x="642" 
d="M567 144l-504 192v104l504 192v-105l-369 -139l369 -139v-105zM562 0h-492v88h492v-88z" />
    <glyph glyph-name="greaterequal" unicode="&#x2265;" horiz-adv-x="642" 
d="M579 336l-504 -192v105l369 139l-369 139v105l504 -192v-104zM80 0h492v88h-492v-88z" />
    <glyph glyph-name="commaaccent" unicode="&#xf6c3;" horiz-adv-x="301" 
d="M134 -274l-64 29q32 45 44 85t10 104h107q-7 -146 -97 -218z" />
    <glyph glyph-name="rupiah" unicode="&#xf6dd;" horiz-adv-x="1162" 
d="M342 575h-142v-216h138q47 0 72 32t25 75q0 42 -24 75.5t-69 33.5zM393 250l176 -250h-154l-162 245h-53v-245h-128v689h276q107 0 163.5 -65.5t56.5 -157.5q0 -80 -44.5 -141t-130.5 -75zM754 467v-63q18 34 58.5 53.5t87.5 19.5q94 0 161 -68t67 -175
q0 -109 -66.5 -176.5t-161.5 -67.5q-47 0 -87.5 19t-58.5 53v-289h-122v694h122zM756 232q0 -58 36.5 -92t87.5 -34q52 0 87.5 35t35.5 91t-35.5 92t-87.5 36t-88 -35.5t-36 -92.5z" />
    <glyph glyph-name="apple" unicode="&#xf8ff;" horiz-adv-x="847" 
d="M767 687v-687h-687v687h687zM164 595v-377h81l-74 75v178l255 -253l256 253v-178l-74 -75h84v377l-266 -263zM179 132h-15v-53h9v37l13 -37h10l11 37v-37h9v53h-14l-9 -36zM248 132q-25 0 -25 -27q0 -11 6.5 -18.5t18.5 -7.5q11 0 17 8t6 18q0 11 -6 19t-17 8zM248 89
q-7 0 -12 5.5t-5 10.5q0 6 5 11.5t12 5.5q12 0 12 -17q0 -16 -12 -16zM284 99h-13q0 -20 22 -20t22 17q0 11 -15 14q-16 3 -16 6q0 6 9 6q10 0 10 -6h9q0 16 -19 16t-19 -16q0 -8 16 -15q13 0 13 -5q0 -7 -10 -7q-9 0 -9 10zM315 122h17v-43h8v43h15v10h-40v-10zM377 132h-9
l-22 -53h12l4 13h22l3 -13h11zM374 119l7 -18h-16l6 18h3zM426 132h-28v-53h9v22h13q9 0 9 -9v-13h13q-3 3 -3 13q0 9 -7 13q7 3 7 11q0 16 -13 16zM420 108h-13v14h13q9 0 9 -6q0 -8 -9 -8zM466 132h-20v-53h20q25 0 25 29q0 24 -25 24zM466 89h-8v33h4q17 0 17 -17
q0 -6 -4 -11t-9 -5zM531 132h-37v-53h40v10h-28v12h25v9h-25v12h25v10zM543 99h-9q0 -20 22 -20t22 17q0 11 -15 14q-17 3 -17 6q0 6 7 6q12 0 12 -6h10q0 16 -19 16q-8 0 -15 -4.5t-7 -11.5t19 -15q12 0 12 -5q0 -7 -9 -7q-13 0 -13 10zM589 132h-7v-53h7v53zM633 86l4 -7
h6v29h-22v-9h12q-4 -10 -12 -10q-7 0 -11.5 5.5t-4.5 10.5q0 6 4.5 11.5t11.5 5.5q9 0 9 -10h13q-4 20 -22 20q-11 0 -18 -8t-7 -19q0 -10 7 -18t18 -8q9 0 12 7zM657 132h-8v-53h8v33l22 -33h13v53h-13v-33z" />
    <glyph glyph-name="published" horiz-adv-x="801" 
d="M365 280h67q55 0 84.5 35.5t29.5 79.5q0 48 -29.5 82t-84.5 34h-136v-353h69v122zM365 443h67q21 0 32 -14t11 -34t-11.5 -33.5t-33.5 -13.5h-65v95zM51 343q0 147 101.5 250.5t247.5 103.5t248 -103.5t102 -250.5t-102 -250t-248 -103t-247.5 103t-101.5 250zM112 343
q0 -121 84 -206t204 -85t204 85t84 206t-84 206.5t-204 85.5t-204 -85.5t-84 -206.5z" />
    <glyph glyph-name="frenchfranc" horiz-adv-x="737" 
d="M373 0v310h-154v-310h-127v689h417v-115h-290v-152h272v-109q34 120 125 120q57 0 86 -18l-21 -112q-31 16 -70 16q-120 0 -120 -198v-121h-118z" />
    <glyph glyph-name="parenleft.case" horiz-adv-x="378" 
d="M42 341q0 207 85 337.5t217 130.5v-102q-79 0 -137.5 -108t-58.5 -258q0 -149 58.5 -255t137.5 -106v-101q-132 0 -217 128t-85 334z" />
    <glyph glyph-name="parenright.case" horiz-adv-x="378" 
d="M336 341q0 -206 -85 -334t-217 -128v101q79 0 137.5 106t58.5 255q0 150 -58.5 258t-137.5 108v102q132 0 217 -130.5t85 -337.5z" />
    <glyph glyph-name="hyphen.case" horiz-adv-x="477" 
d="M63 303v102h351v-102h-351z" />
    <glyph glyph-name="at.case" horiz-adv-x="967" 
d="M590 245v127q0 51 -35.5 86t-85.5 35t-85.5 -35t-35.5 -86q0 -49 35.5 -84t85.5 -35q45 0 86 33v-91q-43 -24 -86 -24q-84 0 -143.5 58.5t-59.5 142.5q0 85 59.5 144t143.5 59q81 0 141 -55t63 -138v-143q0 -62 64 -62q32 0 55 21t34 54.5t15.5 66t4.5 66.5
q0 145 -108 242t-259 97q-147 0 -248 -104t-101 -253q0 -148 101 -250t248 -102h29v-83h-29q-182 0 -307 126t-125 309t125.5 311.5t306.5 128.5q121 0 224 -54.5t165 -152t62 -215.5q0 -48 -10.5 -96t-31.5 -93t-60.5 -73t-90.5 -28q-63 0 -105 35.5t-42 114.5z" />
    <glyph glyph-name="bracketleft.case" horiz-adv-x="332" 
d="M76 -115v916h220v-95h-112v-725h112v-96h-220z" />
    <glyph glyph-name="bracketright.case" horiz-adv-x="332" 
d="M256 801v-916h-220v96h112v725h-112v95h220z" />
    <glyph glyph-name="braceleft.case" horiz-adv-x="407" 
d="M34 385q24 0 42.5 16t18.5 40v162q0 89 57.5 143.5t142.5 54.5h78v-94h-81q-38 0 -64.5 -27.5t-26.5 -68.5v-153q0 -41 -19 -72t-49 -43q29 -11 48.5 -42t19.5 -72v-147q0 -41 27 -71t64 -30h81v-96h-78q-85 0 -142.5 54.5t-57.5 143.5v164q0 24 -18.5 39.5t-42.5 15.5
v83z" />
    <glyph glyph-name="braceright.case" horiz-adv-x="407" 
d="M373 385v-83q-24 0 -42.5 -15.5t-18.5 -39.5v-164q0 -89 -57.5 -143.5t-142.5 -54.5h-78v96h81q37 0 64 30t27 71v147q0 41 19.5 72t48.5 42q-30 12 -49 43t-19 72v153q0 41 -26.5 68.5t-64.5 27.5h-81v94h78q85 0 142.5 -54.5t57.5 -143.5v-162q0 -24 18.5 -40t42.5 -16
z" />
    <glyph glyph-name="exclamdown.case" horiz-adv-x="280" 
d="M212 0h-143l19 487h105zM61 622q0 32 23 54t55 22q33 0 56.5 -21.5t23.5 -54.5t-23.5 -54.5t-56.5 -21.5q-32 0 -55 22t-23 54z" />
    <glyph glyph-name="guillemotleft.case" horiz-adv-x="522" 
d="M50 345l138 207h98l-138 -207l138 -207h-98zM227 345l138 207h98l-138 -207l138 -207h-98z" />
    <glyph glyph-name="periodcentered.case" horiz-adv-x="278" 
d="M60 425q0 32 23 54t55 22q33 0 56.5 -21.5t23.5 -54.5t-23.5 -54.5t-56.5 -21.5q-32 0 -55 22t-23 54z" />
    <glyph glyph-name="guillemotright.case" horiz-adv-x="522" 
d="M295 345l-138 -207h-98l138 207l-138 207h98zM472 345l-138 -207h-98l138 207l-138 207h98z" />
    <glyph glyph-name="questiondown.case" horiz-adv-x="491" 
d="M233 452l2 36h119l2 -36q0 -39 -7.5 -67t-16.5 -45.5t-34.5 -36t-42 -27l-58.5 -29.5q-38 -16 -38 -65q0 -31 25.5 -51.5t61.5 -20.5q37 0 61 24t24 63h121q0 -95 -57.5 -152t-148.5 -57t-150 53.5t-59 141.5q0 70 38.5 120t99.5 69q31 10 44.5 27.5t13.5 52.5zM372 620
q0 -32 -23 -54t-56 -22t-56 22t-23 54q0 33 23 55t56 22t56 -22t23 -55z" />
    <glyph glyph-name="endash.case" horiz-adv-x="621" 
d="M64 293v108h493v-108h-493z" />
    <glyph glyph-name="emdash.case" horiz-adv-x="832" 
d="M64 293v108h704v-108h-704z" />
    <glyph glyph-name="bullet.case" horiz-adv-x="468" 
d="M78 350q0 64 45.5 107t110.5 43t110.5 -43t45.5 -107t-45.5 -107t-110.5 -43t-110.5 43t-45.5 107z" />
    <glyph glyph-name="guilsinglleft.case" horiz-adv-x="345" 
d="M50 345l138 207h98l-138 -207l138 -207h-98z" />
    <glyph glyph-name="guilsinglright.case" horiz-adv-x="345" 
d="M295 345l-138 -207h-98l138 207l-138 207h98z" />
    <glyph glyph-name="cent.case" horiz-adv-x="537" 
d="M317 692v-104q110 -9 172 -90l-97 -73q-34 46 -97 46q-53 0 -92 -34.5t-39 -89.5t39 -91.5t92 -36.5q63 0 97 47l98 -72q-63 -82 -173 -91v-113h-69v116q-88 16 -146.5 81t-58.5 160q0 94 58 158t147 80v107h69z" />
    <glyph glyph-name="zero.tnum" horiz-adv-x="580" 
d="M48 327q0 339 243 339q69 0 117.5 -26t74.5 -74t37 -106t11 -133q0 -59 -6.5 -107t-23.5 -92t-43.5 -73.5t-69 -47t-97.5 -17.5q-243 0 -243 337zM171 327q0 -217 120 -217q118 0 118 217q0 219 -118 219q-120 0 -120 -219z" />
    <glyph glyph-name="one.tnum" horiz-adv-x="580" 
d="M148 559l233 103v-662h-123v493l-110 -44v110z" />
    <glyph glyph-name="two.tnum" horiz-adv-x="580" 
d="M492 0h-418v63l267 320q40 47 40 86q0 33 -26.5 55.5t-67.5 22.5q-40 0 -68 -26.5t-34 -68.5l-114 21q14 89 74 141t147 52q88 0 149.5 -55.5t61.5 -141.5q0 -88 -70 -167l-162 -185h221v-117z" />
    <glyph glyph-name="three.tnum" horiz-adv-x="580" 
d="M275 291h-70v109h70q40 -1 57 24.5t17 47.5q0 24 -13.5 46t-44.5 28q-63 8 -101 -40l-96 63q28 47 81.5 74t116.5 23q83 -4 136 -56.5t53 -126.5q0 -39 -22 -73t-59 -55q51 -19 82.5 -72t26.5 -106q-9 -88 -82 -140.5t-170 -45.5q-67 4 -121.5 42t-81.5 96l53.5 26.5
t53.5 27.5q15 -31 44.5 -52t61.5 -21q47 0 78.5 27.5t31.5 69.5q0 9 -4 21t-13.5 28t-31.5 26t-53 9z" />
    <glyph glyph-name="four.tnum" horiz-adv-x="580" 
d="M190 249h145v228zM544 142h-87v-142h-122v142h-323l326 512h119v-405h87v-107z" />
    <glyph glyph-name="five.tnum" horiz-adv-x="580" 
d="M410 224q0 55 -35.5 84t-90.5 29q-89 0 -150 -66l-70 42l55 341h372v-113h-274l-23 -134q41 35 121 35q93 0 155 -57.5t62 -160.5q0 -104 -71.5 -169t-189.5 -65q-68 0 -130 38t-97 100l51.5 32l51.5 32q20 -36 54 -58.5t70 -22.5q63 0 101 33t38 80z" />
    <glyph glyph-name="six.tnum" horiz-adv-x="580" 
d="M396 207q1 41 -27 70.5t-69 30.5t-71 -28t-31 -70q0 -42 28.5 -71.5t69.5 -29.5q41 -1 70 27.5t30 70.5zM320 422q82 0 142.5 -61t59.5 -161q-2 -93 -66.5 -152t-165.5 -58q-91 2 -154 63.5t-71 163.5q-3 62 -2.5 125.5t17 122.5t43.5 104.5t77.5 72t118.5 24.5
q66 -3 115.5 -30.5t81.5 -96.5l-113 -48q-29 60 -88 60q-67 0 -99.5 -59.5t-27.5 -143.5q10 28 47 51t85 23z" />
    <glyph glyph-name="seven.tnum" horiz-adv-x="580" 
d="M67 654h479l-313 -654h-140l259 539h-285v115z" />
    <glyph glyph-name="eight.tnum" horiz-adv-x="580" 
d="M216 484q0 -30 20.5 -50.5t54.5 -20.5q33 0 52.5 21t19.5 50q0 28 -20.5 48t-52.5 20q-33 0 -53.5 -20.5t-20.5 -47.5zM171 216q0 -45 35 -77.5t84 -32.5q48 0 83 32.5t35 77.5q0 43 -33 75.5t-78 32.5h-18q-45 0 -76.5 -33t-31.5 -75zM97 488q0 74 56 126t137 52
q80 0 136.5 -52t56.5 -126q0 -66 -49 -112q45 -26 70.5 -69t25.5 -95q0 -92 -70 -157t-170 -65t-170.5 65t-70.5 157q0 53 25.5 95.5t70.5 68.5q-48 46 -48 112z" />
    <glyph glyph-name="nine.tnum" horiz-adv-x="580" 
d="M184 449q-1 -41 27 -70.5t69 -30.5t71 27.5t31 69.5q0 42 -28.5 71.5t-69.5 30.5t-70 -28t-30 -70zM259 234q-81 0 -141.5 61t-59.5 161q2 93 66.5 151.5t164.5 57.5q92 -2 154.5 -63t71.5 -163q3 -62 2.5 -125.5t-17 -123t-43.5 -105t-77.5 -71.5t-118.5 -24
q-66 3 -115.5 30.5t-81.5 96.5l113 48q29 -60 88 -60q67 0 99.5 59t27.5 144q-10 -28 -47 -51t-86 -23z" />
    <glyph glyph-name="zero.taboldstyle" horiz-adv-x="580" 
d="M290 -9q-102 0 -176.5 73.5t-74.5 188.5q0 117 74 189.5t177 72.5q105 0 178.5 -72.5t73.5 -189.5q0 -115 -74 -188.5t-178 -73.5zM290 107q55 0 95.5 41t40.5 105q0 65 -40 105t-96 40q-55 0 -94.5 -40t-39.5 -105q0 -64 40 -105t94 -41z" />
    <glyph glyph-name="one.taboldstyle" horiz-adv-x="580" 
d="M400 517v-517h-123v334l-136 -61v120z" />
    <glyph glyph-name="two.taboldstyle" horiz-adv-x="580" 
d="M485 0h-400v66l235 240q34 32 34 54q0 20 -18 34.5t-48 14.5q-31 0 -51.5 -16.5t-24.5 -47.5l-119 16q9 74 61.5 118.5t135.5 44.5q85 0 140.5 -46.5t55.5 -112.5q0 -65 -70 -133l-128 -121h197v-111z" />
    <glyph glyph-name="six.taboldstyle" horiz-adv-x="580" 
d="M396 207q1 41 -27 70.5t-69 30.5t-71 -28t-31 -70q0 -42 28.5 -71.5t69.5 -29.5q41 -1 70 27.5t30 70.5zM320 422q82 0 142.5 -61t59.5 -161q-2 -93 -66.5 -152t-165.5 -58q-91 2 -154 63.5t-71 163.5q-3 62 -2.5 125.5t17 122.5t43.5 104.5t77.5 72t118.5 24.5
q66 -3 115.5 -30.5t81.5 -96.5l-113 -48q-29 60 -88 60q-67 0 -99.5 -59.5t-27.5 -143.5q10 28 47 51t85 23z" />
    <glyph glyph-name="eight.taboldstyle" horiz-adv-x="580" 
d="M216 484q0 -30 20.5 -50.5t54.5 -20.5q33 0 52.5 21t19.5 50q0 28 -20.5 48t-52.5 20q-33 0 -53.5 -20.5t-20.5 -47.5zM171 216q0 -45 35 -77.5t84 -32.5q48 0 83 32.5t35 77.5q0 43 -33 75.5t-78 32.5h-18q-45 0 -76.5 -33t-31.5 -75zM97 488q0 74 56 126t137 52
q80 0 136.5 -52t56.5 -126q0 -66 -49 -112q45 -26 70.5 -69t25.5 -95q0 -92 -70 -157t-170 -65t-170.5 65t-70.5 157q0 53 25.5 95.5t70.5 68.5q-48 46 -48 112z" />
    <glyph glyph-name="three.taboldstyle" horiz-adv-x="580" 
d="M277 102h-70v109h70q40 -1 57 24.5t17 47.5q0 24 -13.5 46t-44.5 28q-63 8 -101 -40l-96 63q28 47 81.5 74t116.5 23q83 -4 136 -56.5t53 -126.5q0 -39 -22 -73t-59 -55q51 -19 82.5 -72t26.5 -106q-9 -88 -82 -140.5t-170 -45.5q-67 4 -121.5 42t-81.5 96q5 3 53.5 27.5
t53.5 26.5q15 -31 44.5 -52t61.5 -21q47 0 78.5 27.5t31.5 69.5q0 9 -4 21t-13.5 28t-31.5 26t-53 9z" />
    <glyph glyph-name="four.taboldstyle" horiz-adv-x="580" 
d="M192 61h145v227zM547 -46h-87v-142h-123v142h-323l326 512h120v-405h87v-107z" />
    <glyph glyph-name="five.taboldstyle" horiz-adv-x="580" 
d="M410 36q0 55 -35 84t-91 29q-90 0 -150 -65l-70 42l55 340h372v-113h-274l-23 -134q42 36 121 36q93 0 155 -58t62 -161q0 -104 -71.5 -169t-189.5 -65q-68 0 -130 38t-97 100q5 2 52 31.5l52 32.5q19 -36 52.5 -58t70.5 -22q64 0 101.5 32.5t37.5 79.5z" />
    <glyph glyph-name="seven.taboldstyle" horiz-adv-x="580" 
d="M68 466h479l-314 -654h-140l259 539h-284v115z" />
    <glyph glyph-name="nine.taboldstyle" horiz-adv-x="580" 
d="M187 261q-1 -41 27 -70.5t69 -30.5t71 27.5t31 69.5q0 42 -28.5 71.5t-69.5 30.5t-70 -28t-30 -70zM262 46q-81 0 -141.5 61t-59.5 161q2 93 66.5 151.5t164.5 57.5q92 -2 154.5 -63t71.5 -163q3 -62 2.5 -125.5t-17 -123t-43.5 -105t-77.5 -71.5t-118.5 -24
q-66 3 -115.5 30.5t-81.5 96.5l113 48q29 -60 88 -60q67 0 99.5 59t27.5 144q-10 -28 -47 -51t-86 -23z" />
    <glyph glyph-name="zero.oldstyle" horiz-adv-x="600" 
d="M299 -9q-102 0 -176.5 73.5t-74.5 188.5q0 117 74 189.5t177 72.5q105 0 178.5 -72.5t73.5 -189.5q0 -115 -74 -188.5t-178 -73.5zM299 107q55 0 95.5 41t40.5 105q0 65 -40.5 105t-95.5 40t-94.5 -40t-39.5 -105q0 -64 40 -105t94 -41z" />
    <glyph glyph-name="one.oldstyle" horiz-adv-x="379" 
d="M300 517v-517h-122v334l-137 -61v120z" />
    <glyph glyph-name="two.oldstyle" horiz-adv-x="522" 
d="M457 0h-400v66l235 240q33 31 33 54q0 20 -17.5 34.5t-47.5 14.5q-31 0 -51.5 -16.5t-24.5 -47.5l-119 16q8 74 60.5 118.5t136.5 44.5q85 0 140 -46.5t55 -112.5q0 -67 -70 -133l-128 -121h198v-111z" />
    <glyph glyph-name="three.oldstyle" horiz-adv-x="527" 
d="M251 102h-70v109h70q40 -1 57 24.5t17 47.5q0 24 -13.5 46t-44.5 28q-63 8 -101 -40l-96 63q28 47 81.5 74t116.5 23q83 -4 136 -56.5t53 -126.5q0 -39 -22 -73t-59 -55q51 -19 82.5 -72t26.5 -106q-9 -88 -82 -140.5t-170 -45.5q-67 4 -121.5 42t-81.5 96q5 3 53.5 27.5
t53.5 26.5q15 -31 44.5 -52t61.5 -21q47 0 78.5 27.5t31.5 69.5q0 9 -4 21t-13.5 28t-31.5 26t-53 9z" />
    <glyph glyph-name="four.oldstyle" horiz-adv-x="586" 
d="M195 61h145v227zM550 -46h-87v-142h-123v142h-322l325 512h120v-405h87v-107z" />
    <glyph glyph-name="five.oldstyle" 
d="M405 35q0 55 -35.5 84.5t-90.5 29.5q-90 0 -151 -66l-69 42l55 341h371v-114h-273l-24 -133q45 35 121 35q93 0 155 -58t62 -161q0 -104 -71.5 -168.5t-189.5 -64.5q-68 0 -130 38t-97 100q6 3 53.5 32.5t50.5 31.5q19 -37 53 -59t70 -22q64 0 102 32.5t38 79.5z" />
    <glyph glyph-name="six.oldstyle" horiz-adv-x="573" 
d="M393 207q1 41 -27 70.5t-69 30.5t-71 -28t-31 -70q0 -42 28.5 -71.5t69.5 -29.5q41 -1 70 27.5t30 70.5zM317 422q82 0 142.5 -61t59.5 -161q-2 -93 -66.5 -152t-165.5 -58q-91 2 -154 63.5t-71 163.5q-3 62 -2.5 125.5t17 122.5t43.5 104.5t77.5 72t118.5 24.5
q66 -3 115.5 -30.5t81.5 -96.5l-113 -48q-29 60 -88 60q-67 0 -99.5 -59.5t-27.5 -143.5q10 28 47 51t85 23z" />
    <glyph glyph-name="seven.oldstyle" horiz-adv-x="518" 
d="M37 466h479l-313 -654h-140l259 539h-285v115z" />
    <glyph glyph-name="eight.oldstyle" horiz-adv-x="584" 
d="M218 484q0 -30 20.5 -50.5t54.5 -20.5q33 0 52.5 21t19.5 50q0 28 -20.5 48t-52.5 20q-33 0 -53.5 -20.5t-20.5 -47.5zM173 216q0 -45 35 -77.5t84 -32.5q48 0 83 32.5t35 77.5q0 43 -33 75.5t-78 32.5h-18q-45 0 -76.5 -33t-31.5 -75zM99 488q0 74 56 126t137 52
q80 0 136.5 -52t56.5 -126q0 -66 -49 -112q45 -26 70.5 -69t25.5 -95q0 -92 -70 -157t-170 -65t-170.5 65t-70.5 157q0 53 25.5 95.5t70.5 68.5q-48 46 -48 112z" />
    <glyph glyph-name="nine.oldstyle" horiz-adv-x="554" 
d="M174 261q-1 -41 27 -70.5t69 -30.5t71 27.5t31 69.5q0 42 -28.5 71.5t-69.5 30.5t-70 -28t-30 -70zM249 46q-81 0 -141.5 61t-59.5 161q2 93 66.5 151.5t164.5 57.5q92 -2 154.5 -63t71.5 -163q3 -62 2.5 -125.5t-17 -123t-43.5 -105t-77.5 -71.5t-118.5 -24
q-66 3 -115.5 30.5t-81.5 96.5l113 48q29 -60 88 -60q67 0 99.5 59t27.5 144q-10 -28 -47 -51t-86 -23z" />
    <glyph glyph-name="Lslash.sc" horiz-adv-x="434" 
d="M199 394l79 50v-73l-79 -50v-219h218v-102h-330v251l-58 -35v73l58 36v247h112v-178z" />
    <glyph glyph-name="Zcaron.sc" horiz-adv-x="514" 
d="M259 699l63 70h84l-94 -139h-105l-94 139h84zM47 87l271 385h-259v100h403v-86l-272 -385h272v-101h-415v87z" />
    <glyph glyph-name="exclam.sc" horiz-adv-x="290" 
d="M97 166l-16 404h129l-16 -404h-97zM212 55q0 29 -20 47.5t-48 18.5q-29 0 -49 -18.5t-20 -47.5q0 -28 20 -46.5t49 -18.5q28 0 48 18.5t20 46.5z" />
    <glyph glyph-name="ampersand.sc" horiz-adv-x="584" 
d="M356 349v67h100v-68h68v-86h-68v-91q0 -48 16 -66.5t64 -18.5v-95q-64 1 -101 14.5t-53 48.5q-19 -30 -58 -47t-78 -17q-84 0 -139.5 49.5t-55.5 125.5q0 106 86 147q-55 29 -55 108q0 61 47.5 108.5t114.5 47.5q101 0 157 -80l-89 -56q-25 32 -56 32q-29 0 -45.5 -17
t-16.5 -41q0 -19 14.5 -42t50.5 -23h97zM356 262h-83q-53 0 -80 -22t-30 -57q-1 -39 26 -64t68 -25q42 0 70.5 32t28.5 88v48z" />
    <glyph glyph-name="question.sc" horiz-adv-x="427" 
d="M142 406h-103q0 80 48 127t125 47q76 0 125 -44.5t49 -118.5q0 -59 -32 -101t-83 -58q-22 -6 -32 -18t-11.5 -24.5t-4.5 -50.5h-104q0 6 -0.5 16t-0.5 15q0 64 24.5 100t79.5 56q32 12 45 27t13 38q0 24 -20 40t-48 16q-29 0 -49 -18.5t-21 -48.5zM104 55q0 29 20 47.5
t48 18.5q29 0 49 -18.5t20 -47.5q0 -28 -20 -46.5t-49 -18.5q-28 0 -48 18.5t-20 46.5z" />
    <glyph glyph-name="A.sc" horiz-adv-x="570" 
d="M218 235h134l-68 204zM440 0l-51 137h-207l-52 -137h-118l214 572h118l214 -572h-118z" />
    <glyph glyph-name="B.sc" horiz-adv-x="551" 
d="M473 415q0 -78 -69 -109q47 -14 73 -53t26 -80q0 -73 -49 -123t-130 -50h-242v572h225q77 0 121.5 -42t44.5 -115zM193 346h106q26 0 42 18t16 46q0 29 -16 45.5t-45 16.5h-103v-126zM316 250h-123v-150h125q31 0 50 23t19 53q0 28 -19.5 51t-51.5 23z" />
    <glyph glyph-name="C.sc" horiz-adv-x="600" 
d="M482 174l89 -65q-39 -55 -100.5 -87t-133.5 -32q-122 0 -206 85.5t-84 207.5q0 123 83.5 209t206.5 86q144 0 232 -116l-89 -64q-58 74 -143 74q-76 0 -127 -55t-51 -134q0 -78 51 -132.5t127 -54.5q90 0 145 78z" />
    <glyph glyph-name="D.sc" horiz-adv-x="614" 
d="M306 0h-224v572h224q121 0 190 -80.5t69 -207.5q0 -125 -69 -204.5t-190 -79.5zM193 102h113q70 0 108.5 52t38.5 130q0 81 -38 133.5t-109 52.5h-113v-368z" />
    <glyph glyph-name="E.sc" horiz-adv-x="499" 
d="M82 572h356v-100h-246v-140h216v-100h-216v-132h253v-100h-363v572z" />
    <glyph glyph-name="F.sc" horiz-adv-x="466" 
d="M82 572h352v-100h-241v-140h191v-100h-191v-232h-111v572z" />
    <glyph glyph-name="G.sc" horiz-adv-x="648" 
d="M547 488l-80 -71h-2q-51 56 -127 56q-75 0 -127.5 -55.5t-52.5 -134.5q0 -78 52.5 -133.5t127.5 -55.5q57 0 102 30.5t47 79.5h-155v93h282q0 -153 -74 -230t-202 -77q-122 0 -207 86t-85 207q0 123 84.5 209t207.5 86q127 0 209 -90z" />
    <glyph glyph-name="H.sc" horiz-adv-x="607" 
d="M525 572v-572h-112v234h-221v-234h-110v572h110v-237h221v237h112z" />
    <glyph glyph-name="I.sc" horiz-adv-x="274" 
d="M82 572h110v-572h-110v572z" />
    <glyph glyph-name="J.sc" horiz-adv-x="275" 
d="M-71 -185l10 102q25 -9 69 -9q38 0 56 24t18 62v578h111v-578q0 -86 -45 -139t-140 -53q-34 0 -79 13z" />
    <glyph glyph-name="K.sc" horiz-adv-x="522" 
d="M255 288l269 -288h-145l-185 205v-205h-112v572h112v-199l148 199h131z" />
    <glyph glyph-name="L.sc" horiz-adv-x="428" 
d="M82 572h111v-472h218v-100h-329v572z" />
    <glyph glyph-name="M.sc" horiz-adv-x="784" 
d="M391 194l179 378h95l69 -572h-111l-43 361l-143 -297h-88l-145 297l-44 -361h-111l70 572h94z" />
    <glyph glyph-name="N.sc" horiz-adv-x="589" 
d="M507 0h-101l-214 364v-364h-110v572h102l211 -358v358h112v-572z" />
    <glyph glyph-name="O.sc" horiz-adv-x="674" 
d="M47 283q0 123 84 209t205 86q123 0 207.5 -86t84.5 -209q0 -121 -85 -207t-207 -86q-121 0 -205 86t-84 207zM158 283q0 -76 51.5 -129.5t126.5 -53.5q76 0 128.5 53.5t52.5 129.5q0 77 -52.5 131t-128.5 54q-75 0 -126.5 -54t-51.5 -131z" />
    <glyph glyph-name="P.sc" horiz-adv-x="530" 
d="M82 572h233q90 0 137 -54.5t47 -131.5t-47 -130.5t-137 -53.5h-122v-202h-111v572zM313 472h-120v-171h116q37 0 57.5 25.5t20.5 59.5t-19.5 60t-54.5 26z" />
    <glyph glyph-name="Q.sc" horiz-adv-x="677" 
d="M505 43l56 -92l-82 -51l-62 101q-39 -11 -79 -11q-122 0 -207 86t-85 207q0 123 84.5 209t207.5 86t208 -86t85 -209q0 -72 -34 -135.5t-92 -104.5zM389 230l58 -94q32 25 52 64.5t20 82.5q0 79 -52.5 134t-128.5 55t-128 -55t-52 -134q0 -72 46.5 -122.5t118.5 -60.5h34
q-6 11 -32 51l-18 29z" />
    <glyph glyph-name="R.sc" horiz-adv-x="549" 
d="M354 206l146 -206h-135l-134 202h-38v-202h-111v572h230q89 0 137 -55t48 -131q0 -65 -36.5 -115.5t-106.5 -64.5zM307 472h-114v-171h110q38 0 57.5 25.5t19.5 59.5t-18.5 60t-54.5 26z" />
    <glyph glyph-name="S.sc" horiz-adv-x="503" 
d="M49 170h112q1 -33 26.5 -56t67.5 -23q40 0 64.5 18t26.5 47q2 27 -17 45.5t-59 28.5l-70 20q-145 39 -145 160q0 74 56.5 121t137.5 47q84 0 137.5 -47.5t53.5 -128.5h-110q0 33 -22.5 53.5t-59.5 20.5q-34 0 -58 -18t-24 -46q0 -44 66 -62l69 -20q85 -23 122.5 -71
t34.5 -106q-4 -75 -62.5 -119t-140.5 -44q-91 0 -148.5 52t-57.5 128z" />
    <glyph glyph-name="T.sc" horiz-adv-x="477" 
d="M23 572h431v-101h-159v-471h-113v471h-159v101z" />
    <glyph glyph-name="U.sc" horiz-adv-x="588" 
d="M294 96q43 0 75 29.5t32 75.5v371h111v-371q0 -93 -64 -152t-154 -59t-154 59t-64 152v371h113v-371q0 -46 31 -75.5t74 -29.5z" />
    <glyph glyph-name="V.sc" horiz-adv-x="505" 
d="M144 572l108 -384l108 384h117l-174 -572h-100l-175 572h116z" />
    <glyph glyph-name="W.sc" horiz-adv-x="770" 
d="M633 572h120l-195 -572h-89l-84 308l-84 -308h-89l-194 572h120l119 -379l84 301h89l83 -300z" />
    <glyph glyph-name="X.sc" horiz-adv-x="564" 
d="M347 306l200 -306h-132l-134 213l-132 -213h-132l198 306l-179 266h134l111 -176l114 176h132z" />
    <glyph glyph-name="Y.sc" horiz-adv-x="572" 
d="M342 0h-113v260l-220 312h132l144 -215l145 215h135l-223 -312v-260z" />
    <glyph glyph-name="Z.sc" horiz-adv-x="514" 
d="M47 87l271 385h-259v100h403v-86l-272 -385h272v-101h-415v87z" />
    <glyph glyph-name="Scaron.sc" horiz-adv-x="503" 
d="M248 699l63 70h84l-95 -139h-105l-93 139h83zM161 170h-112q0 -76 57.5 -128t148.5 -52q82 0 140.5 44t62.5 119q3 58 -34.5 106t-122.5 71l-69 20q-66 18 -66 62q0 28 24 46t58 18q37 0 59.5 -20.5t22.5 -53.5h110q0 81 -53.5 128.5t-137.5 47.5q-81 0 -137.5 -47
t-56.5 -121q0 -121 145 -160l70 -20q40 -10 59 -28.5t17 -45.5q-2 -29 -26.5 -47t-64.5 -18q-42 0 -67.5 23t-26.5 56z" />
    <glyph glyph-name="OE.sc" horiz-adv-x="933" 
d="M515 572h357v-101h-245v-139h214v-101h-214v-129h252v-102h-364v61q-78 -71 -179 -71q-122 0 -206 86t-84 207q0 123 84 209t206 86q107 0 179 -72v66zM157 283q0 -75 52 -128.5t127 -53.5t127 55t52 130q-2 74 -54 127.5t-125 53.5q-75 0 -127 -53.5t-52 -130.5z" />
    <glyph glyph-name="Ydieresis.sc" horiz-adv-x="572" 
d="M150 708q0 24 17.5 40t42.5 16t41.5 -16t16.5 -40q0 -25 -16.5 -41t-41.5 -16t-42.5 16.5t-17.5 40.5zM294 708q0 24 17.5 40t41.5 16q25 0 42 -16t17 -40q0 -25 -17 -41t-42 -16q-24 0 -41.5 16.5t-17.5 40.5zM342 0h-113v260l-220 312h132l144 -215l145 215h135
l-223 -312v-260z" />
    <glyph glyph-name="exclamdown.sc" horiz-adv-x="290" 
d="M97 404l-16 -404h129l-16 404h-97zM212 515q0 -29 -20 -47.5t-48 -18.5q-29 0 -49 18.5t-20 47.5q0 28 20 46.5t49 18.5q28 0 48 -18.5t20 -46.5z" />
    <glyph glyph-name="questiondown.sc" horiz-adv-x="427" 
d="M285 164h103q0 -80 -48 -127t-125 -47q-76 0 -125 44.5t-49 118.5q0 59 32 101t83 58q22 6 32 18t11.5 24.5t4.5 50.5h104q0 -5 0.5 -15t0.5 -16q0 -64 -24.5 -100t-79.5 -56q-32 -12 -45 -27t-13 -38q0 -24 20.5 -40t47.5 -16q29 0 49 18.5t21 48.5zM323 515
q0 -29 -20 -47.5t-48 -18.5q-29 0 -49 18.5t-20 47.5q0 28 20 46.5t49 18.5q28 0 48 -18.5t20 -46.5z" />
    <glyph glyph-name="Agrave.sc" horiz-adv-x="570" 
d="M249 631l-118 139h113l90 -139h-85zM218 235h134l-68 204zM440 0l-51 137h-207l-52 -137h-118l214 572h118l214 -572h-118z" />
    <glyph glyph-name="Aacute.sc" horiz-adv-x="570" 
d="M439 768l-117 -140h-86l91 140h112zM352 235h-134l66 204zM389 137l51 -137h118l-214 572h-118l-214 -572h118l52 137h207z" />
    <glyph glyph-name="Acircumflex.sc" horiz-adv-x="570" 
d="M343 632l-62 71l-63 -71h-83l94 140h104l95 -140h-85zM218 235h134l-68 204zM440 0l-51 137h-207l-52 -137h-118l214 572h118l214 -572h-118z" />
    <glyph glyph-name="Atilde.sc" horiz-adv-x="570" 
d="M245 682q-6 0 -12 -9t-6 -26h-64q3 51 23.5 77t48.5 30q18 2 43 -15t39 -17q6 0 12 8t7 25h64q-3 -56 -27.5 -81.5t-55.5 -25.5q-16 0 -38.5 17t-33.5 17zM218 235h134l-68 204zM440 0l-51 137h-207l-52 -137h-118l214 572h118l214 -572h-118z" />
    <glyph glyph-name="Adieresis.sc" horiz-adv-x="570" 
d="M143 708q0 24 18 40t43 16q24 0 41 -16t17 -40t-17 -40.5t-41 -16.5q-25 0 -43 16.5t-18 40.5zM287 708q0 24 17.5 40t42.5 16t42 -16t17 -40q0 -25 -17 -41t-42 -16t-42.5 16.5t-17.5 40.5zM352 235h-134l66 204zM389 137l51 -137h118l-214 572h-118l-214 -572h118
l52 137h207z" />
    <glyph glyph-name="Aring.sc" horiz-adv-x="570" 
d="M183 724q0 42 28 70.5t69 28.5q42 0 70.5 -28.5t28.5 -70.5q0 -41 -28.5 -69t-70.5 -28q-41 0 -69 28t-28 69zM239 724q0 -17 12 -29t29 -12q18 0 31 12t13 29t-13 30t-31 13q-16 0 -28.5 -13t-12.5 -30zM352 235h-134l66 204zM389 137l51 -137h118l-214 572h-118
l-214 -572h118l52 137h207z" />
    <glyph glyph-name="AE.sc" horiz-adv-x="802" 
d="M221 134l-86 -134h-133l362 572h377v-101h-245v-139h214v-101h-214v-129h253v-102h-364v134h-164zM285 242h100v173z" />
    <glyph glyph-name="Ccedilla.sc" horiz-adv-x="601" 
d="M285 -96q3 -10 12.5 -14.5t19.5 -0.5q20 8 12 34l-26 70q-111 12 -183.5 95t-72.5 196q0 123 83.5 209t206.5 86q144 0 232 -116l-89 -64q-56 74 -143 74q-76 0 -127 -55t-51 -134q0 -77 51 -131.5t127 -54.5q91 0 145 77l89 -65q-76 -105 -207 -117q2 -5 10.5 -20.5
t11 -22t6 -18t3.5 -21.5q0 -35 -26 -61t-64 -26q-36 0 -62 29t-25 76l65 -3q0 -15 2 -22z" />
    <glyph glyph-name="Egrave.sc" horiz-adv-x="499" 
d="M82 572h356v-100h-246v-140h216v-100h-216v-132h253v-100h-363v572zM241 631l-119 139h114l91 -139h-86z" />
    <glyph glyph-name="Eacute.sc" horiz-adv-x="499" 
d="M388 770l-119 -139h-85l90 139h114zM438 572h-356v-572h363v100h-253v132h216v100h-216v140h246v100z" />
    <glyph glyph-name="Ecircumflex.sc" horiz-adv-x="499" 
d="M82 572h356v-100h-246v-140h216v-100h-216v-132h253v-100h-363v572zM310 632l-63 71l-63 -71h-83l93 140h105l94 -140h-83z" />
    <glyph glyph-name="Edieresis.sc" horiz-adv-x="499" 
d="M117 708q0 24 17.5 40t43.5 16q24 0 41 -16t17 -40t-17 -40.5t-41 -16.5q-26 0 -43.5 16t-17.5 41zM260 708q0 24 17.5 40t43.5 16q24 0 41 -16t17 -40t-17 -40.5t-41 -16.5q-26 0 -43.5 16t-17.5 41zM438 572h-356v-572h363v100h-253v132h216v100h-216v140h246v100z" />
    <glyph glyph-name="Igrave.sc" horiz-adv-x="274" 
d="M82 572h110v-572h-110v572zM104 631l-119 139h114l91 -139h-86z" />
    <glyph glyph-name="Iacute.sc" horiz-adv-x="274" 
d="M174 773h115l-121 -133h-88zM192 572h-110v-572h110v572z" />
    <glyph glyph-name="Icircumflex.sc" horiz-adv-x="274" 
d="M82 572h110v-572h-110v572zM201 632l-63 71l-63 -71h-83l93 140h105l94 -140h-83z" />
    <glyph glyph-name="Idieresis.sc" horiz-adv-x="274" 
d="M192 572h-110v-572h110v572zM7 708q0 24 17.5 40t43.5 16q24 0 41 -16t17 -40t-17 -40.5t-41 -16.5q-26 0 -43.5 16t-17.5 41zM150 708q0 24 17.5 40t43.5 16q24 0 41 -16t17 -40t-17 -40.5t-41 -16.5q-26 0 -43.5 16t-17.5 41z" />
    <glyph glyph-name="Eth.sc" horiz-adv-x="620" 
d="M313 0h-223v244h-77v72h77v256h223q120 0 188.5 -80.5t68.5 -207.5q0 -125 -68.5 -204.5t-188.5 -79.5zM201 316h113v-72h-113v-140h112q70 0 108 51t38 129q0 80 -38 132t-108 52h-112v-152z" />
    <glyph glyph-name="Ntilde.sc" horiz-adv-x="589" 
d="M507 0h-101l-214 364v-364h-110v572h102l211 -358v358h112v-572zM258 682q-6 0 -12 -9t-6 -26h-65q3 56 27.5 82t55.5 26q17 0 39 -16.5t33 -16.5q3 0 7 2.5t7.5 10.5t3.5 20h64q-2 -56 -27 -81.5t-55 -25.5q-16 0 -39 17t-33 17z" />
    <glyph glyph-name="Ograve.sc" horiz-adv-x="674" 
d="M284 631l-119 139h113l91 -139h-85zM47 283q0 123 84 209t205 86q123 0 207.5 -86t84.5 -209q0 -121 -85 -207t-207 -86q-121 0 -205 86t-84 207zM158 283q0 -76 51.5 -129.5t126.5 -53.5q76 0 128.5 53.5t52.5 129.5q0 77 -52.5 131t-128.5 54q-75 0 -126.5 -54
t-51.5 -131z" />
    <glyph glyph-name="Oacute.sc" horiz-adv-x="674" 
d="M498 770l-119 -139h-85l90 139h114zM47 283q0 -121 84 -207t205 -86q122 0 207 86t85 207q0 123 -84.5 209t-207.5 86q-121 0 -205 -86t-84 -209zM158 283q0 77 51.5 131t126.5 54q76 0 128.5 -54t52.5 -131q0 -76 -52.5 -129.5t-128.5 -53.5q-75 0 -126.5 53.5
t-51.5 129.5z" />
    <glyph glyph-name="Ocircumflex.sc" horiz-adv-x="674" 
d="M400 632l-64 72l-61 -72h-84l94 140h104l94 -140h-83zM47 283q0 123 84 209t205 86q123 0 207.5 -86t84.5 -209q0 -121 -85 -207t-207 -86q-121 0 -205 86t-84 207zM158 283q0 -76 51.5 -129.5t126.5 -53.5q76 0 128.5 53.5t52.5 129.5q0 77 -52.5 131t-128.5 54
q-75 0 -126.5 -54t-51.5 -131z" />
    <glyph glyph-name="Otilde.sc" horiz-adv-x="674" 
d="M47 283q0 123 84 209t205 86q123 0 207.5 -86t84.5 -209q0 -121 -85 -207t-207 -86q-121 0 -205 86t-84 207zM158 283q0 -76 51.5 -129.5t126.5 -53.5q76 0 128.5 53.5t52.5 129.5q0 77 -52.5 131t-128.5 54q-75 0 -126.5 -54t-51.5 -131zM301 682q-6 0 -12 -9t-6 -26
h-64q3 56 27 82t55 26q18 0 40 -16.5t32 -16.5q6 0 12 8t7 25h63q-2 -56 -26.5 -81.5t-55.5 -25.5q-15 0 -38 17t-34 17z" />
    <glyph glyph-name="Odieresis.sc" horiz-adv-x="674" 
d="M206 708q0 24 17.5 40t42.5 16q24 0 41 -16t17 -40t-17 -40.5t-41 -16.5q-25 0 -42.5 16.5t-17.5 40.5zM350 708q0 24 17 40t42 16t42 -16t17 -40q0 -25 -17 -41t-42 -16t-42 16t-17 41zM47 283q0 -121 84 -207t205 -86q122 0 207 86t85 207q0 123 -84.5 209t-207.5 86
q-121 0 -205 -86t-84 -209zM158 283q0 77 51.5 131t126.5 54q76 0 128.5 -54t52.5 -131q0 -76 -52.5 -129.5t-128.5 -53.5q-75 0 -126.5 53.5t-51.5 129.5z" />
    <glyph glyph-name="Oslash.sc" horiz-adv-x="673" 
d="M156 52l-66 -68l-42 43l65 68q-67 83 -67 188q0 123 84 209t205 86q104 0 184 -66l66 67l42 -42l-66 -67q66 -84 66 -187q0 -121 -85 -207t-207 -86q-97 0 -179 62zM157 283q0 -63 34 -109l251 259q-48 35 -107 35q-75 0 -126.5 -54t-51.5 -131zM335 100q76 0 128.5 53.5
t52.5 129.5q0 59 -33 107l-250 -258q43 -32 102 -32z" />
    <glyph glyph-name="Ugrave.sc" horiz-adv-x="588" 
d="M275 631l-118 139h113l90 -139h-85zM294 96q43 0 75 29.5t32 75.5v371h111v-371q0 -93 -64 -152t-154 -59t-154 59t-64 152v371h113v-371q0 -46 31 -75.5t74 -29.5z" />
    <glyph glyph-name="Uacute.sc" horiz-adv-x="588" 
d="M428 770l-118 -139h-86l92 139h112zM294 96q43 0 75 29.5t32 75.5v371h111v-371q0 -93 -64 -152t-154 -59t-154 59t-64 152v371h113v-371q0 -46 31 -75.5t74 -29.5z" />
    <glyph glyph-name="Ucircumflex.sc" horiz-adv-x="588" 
d="M356 632l-63 72l-62 -72h-84l94 140h104l95 -140h-84zM294 96q43 0 75 29.5t32 75.5v371h111v-371q0 -93 -64 -152t-154 -59t-154 59t-64 152v371h113v-371q0 -46 31 -75.5t74 -29.5z" />
    <glyph glyph-name="Udieresis.sc" horiz-adv-x="588" 
d="M162 708q0 24 18 40t43 16q24 0 40.5 -16t16.5 -40q0 -25 -16.5 -41t-40.5 -16q-25 0 -43 16.5t-18 40.5zM306 708q0 24 17.5 40t42.5 16t42 -16t17 -40q0 -25 -17 -41t-42 -16t-42.5 16.5t-17.5 40.5zM294 96q43 0 75 29.5t32 75.5v371h111v-371q0 -93 -64 -152
t-154 -59t-154 59t-64 152v371h113v-371q0 -46 31 -75.5t74 -29.5z" />
    <glyph glyph-name="Yacute.sc" horiz-adv-x="572" 
d="M342 0h-113v260l-220 312h132l144 -215l145 215h135l-223 -312v-260zM426 770l-119 -139h-85l90 139h114z" />
    <glyph glyph-name="Thorn.sc" horiz-adv-x="497" 
d="M282 108h-89v-108h-111v572h111v-95h89q79 0 131 -50.5t52 -133.5t-52 -134t-131 -51zM193 205h85q31 0 54 24t23 62q0 40 -23 63.5t-55 25.5h-84v-175z" />
    <glyph glyph-name="Amacron.sc" horiz-adv-x="570" 
d="M168 738h227v-74h-227v74zM218 235h134l-68 204zM440 0l-51 137h-207l-52 -137h-118l214 572h118l214 -572h-118z" />
    <glyph glyph-name="Abreve.sc" horiz-adv-x="570" 
d="M169 753h73q0 -45 39 -45q19 0 29 13t10 32h74q0 -51 -31.5 -81.5t-81.5 -30.5q-55 0 -83.5 32.5t-28.5 79.5zM352 235h-134l66 204zM389 137l51 -137h118l-214 572h-118l-214 -572h118l52 137h207z" />
    <glyph glyph-name="Cacute.sc" horiz-adv-x="600" 
d="M484 770l-118 -139h-86l91 139h113zM571 109l-89 65q-55 -78 -145 -78q-76 0 -127 54.5t-51 132.5q0 79 51 134t127 55q85 0 143 -74l89 64q-88 116 -232 116q-123 0 -206.5 -86t-83.5 -209q0 -122 84 -207.5t206 -85.5q72 0 133.5 32t100.5 87z" />
    <glyph glyph-name="Ccircumflex.sc" horiz-adv-x="600" 
d="M397 632l-63 71l-63 -71h-83l94 140h104l94 -140h-83zM482 174l89 -65q-39 -55 -100.5 -87t-133.5 -32q-122 0 -206 85.5t-84 207.5q0 123 83.5 209t206.5 86q144 0 232 -116l-89 -64q-58 74 -143 74q-76 0 -127 -55t-51 -134q0 -78 51 -132.5t127 -54.5q90 0 145 78z
" />
    <glyph glyph-name="Cdotaccent.sc" horiz-adv-x="600" 
d="M267 714q0 25 18 42t44 17t44.5 -17t18.5 -42q0 -26 -18 -43t-45 -17q-26 0 -44 17t-18 43zM571 109l-89 65q-55 -78 -145 -78q-76 0 -127 54.5t-51 132.5q0 79 51 134t127 55q85 0 143 -74l89 64q-88 116 -232 116q-123 0 -206.5 -86t-83.5 -209q0 -122 84 -207.5
t206 -85.5q72 0 133.5 32t100.5 87z" />
    <glyph glyph-name="Ccaron.sc" horiz-adv-x="600" 
d="M571 109l-89 65q-55 -78 -145 -78q-76 0 -127 54.5t-51 132.5q0 79 51 134t127 55q85 0 143 -74l89 64q-88 116 -232 116q-123 0 -206.5 -86t-83.5 -209q0 -122 84 -207.5t206 -85.5q72 0 133.5 32t100.5 87zM341 699l63 70h84l-95 -139h-105l-93 139h83z" />
    <glyph glyph-name="Dcaron.sc" horiz-adv-x="614" 
d="M304 699l64 70h84l-95 -139h-105l-94 139h84zM82 0h224q121 0 190 79.5t69 204.5q0 127 -69 207.5t-190 80.5h-224v-572zM306 102h-113v368h113q71 0 109 -52.5t38 -133.5q0 -78 -38.5 -130t-108.5 -52z" />
    <glyph glyph-name="Aogonek.sc" horiz-adv-x="570" 
d="M494 0l-25 -77q-8 -27 13 -34q16 -7 26 8t7 29l64 3q1 -48 -24.5 -76.5t-62.5 -28.5q-38 0 -63.5 26t-25.5 61q0 9 2 18t6.5 19.5t7.5 16.5l10 19.5t10 18.5l-50 134h-207l-52 -137h-118l214 572h118l214 -572h-64zM285 438l-67 -203h135z" />
    <glyph glyph-name="Emacron.sc" horiz-adv-x="499" 
d="M82 572h356v-100h-246v-140h216v-100h-216v-132h253v-100h-363v572zM139 738h226v-74h-226v74z" />
    <glyph glyph-name="Ebreve.sc" horiz-adv-x="499" 
d="M134 753h73q0 -45 40 -45q19 0 28.5 13t9.5 32h74q0 -51 -30.5 -81.5t-81.5 -30.5q-54 0 -83.5 33t-29.5 79zM438 572h-356v-572h363v100h-253v132h216v100h-216v140h246v100z" />
    <glyph glyph-name="Edotaccent.sc" horiz-adv-x="499" 
d="M196 714q0 25 18.5 42t44.5 17t44 -17t18 -42q0 -26 -18 -43t-44 -17q-27 0 -45 17t-18 43zM438 572h-356v-572h363v100h-253v132h216v100h-216v140h246v100z" />
    <glyph glyph-name="Ecaron.sc" horiz-adv-x="499" 
d="M438 572h-356v-572h363v100h-253v132h216v100h-216v140h246v100zM249 699l63 70h84l-95 -139h-105l-93 139h83z" />
    <glyph glyph-name="Gcircumflex.sc" horiz-adv-x="648" 
d="M547 488l-80 -71h-2q-51 56 -127 56q-75 0 -127.5 -55.5t-52.5 -134.5q0 -78 52.5 -133.5t127.5 -55.5q57 0 102 30.5t47 79.5h-155v93h282q0 -153 -74 -230t-202 -77q-122 0 -207 86t-85 207q0 123 84.5 209t207.5 86q127 0 209 -90zM389 632l-63 72l-62 -72h-84l94 140
h104l95 -140h-84z" />
    <glyph glyph-name="Gbreve.sc" horiz-adv-x="648" 
d="M467 417l80 71q-82 90 -209 90q-123 0 -207.5 -86t-84.5 -209q0 -121 85 -207t207 -86q128 0 202 77t74 230h-282v-93h155q-2 -49 -47 -79.5t-102 -30.5q-75 0 -127.5 55.5t-52.5 133.5q0 79 52.5 134.5t127.5 55.5q76 0 127 -56h2zM214 753h73q0 -45 40 -45
q19 0 28.5 13t9.5 32h74q0 -51 -30.5 -81.5t-81.5 -30.5q-54 0 -83.5 33t-29.5 79z" />
    <glyph glyph-name="Eogonek.sc" horiz-adv-x="499" 
d="M384 0h-302v572h356v-100h-246v-140h216v-100h-216v-132h253v-99l-29 -75q-10 -26 12 -34q17 -7 27.5 8.5t5.5 28.5l65 3q1 -48 -24.5 -76t-62.5 -28q-38 0 -63.5 25.5t-25.5 61.5q0 26 7 39z" />
    <glyph glyph-name="Dcroat.sc" horiz-adv-x="620" 
d="M313 0h-223v243h-77v75h77v254h223q120 0 188.5 -80.5t68.5 -207.5q0 -125 -68.5 -204.5t-188.5 -79.5zM201 318h113v-75h-113v-139h112q70 0 108 51t38 129q0 80 -38 132t-108 52h-112v-150z" />
    <glyph glyph-name="Gdotaccent.sc" horiz-adv-x="648" 
d="M467 417l80 71q-82 90 -209 90q-123 0 -207.5 -86t-84.5 -209q0 -121 85 -207t207 -86q128 0 202 77t74 230h-282v-93h155q-2 -49 -47 -79.5t-102 -30.5q-75 0 -127.5 55.5t-52.5 133.5q0 79 52.5 134.5t127.5 55.5q76 0 127 -56h2zM274 714q0 25 18.5 42t44.5 17t44 -17
t18 -42q0 -26 -18 -43t-44 -17q-27 0 -45 17t-18 43z" />
    <glyph glyph-name="Hcircumflex.sc" horiz-adv-x="607" 
d="M525 572v-572h-112v234h-221v-234h-110v572h110v-237h221v237h112zM366 632l-63 71l-62 -71h-84l94 140h104l94 -140h-83z" />
    <glyph glyph-name="Hbar.sc" horiz-adv-x="618" 
d="M531 484h59v-61h-59v-423h-112v234h-221v-234h-111v423h-58v61h58v88h111v-88h221v88h112v-88zM198 335h221v88h-221v-88z" />
    <glyph glyph-name="Itilde.sc" horiz-adv-x="274" 
d="M101 682q-6 0 -12 -9t-6 -26h-64q3 56 27 82t55 26q18 0 39.5 -16.5t32.5 -16.5q6 0 12 8t7 25h64q-3 -56 -27.5 -81.5t-55.5 -25.5q-16 0 -39 17t-33 17zM82 572h110v-572h-110v572z" />
    <glyph glyph-name="Imacron.sc" horiz-adv-x="274" 
d="M82 572h110v-572h-110v572zM24 738h227v-74h-227v74z" />
    <glyph glyph-name="Iogonek.sc" horiz-adv-x="274" 
d="M82 4v568h110v-572h-53l-27 -77q-8 -27 12 -34q16 -7 26 8t7 29l65 3q0 -48 -25 -76.5t-62 -28.5q-38 0 -64 26t-26 61q0 24 8 40z" />
    <glyph glyph-name="IJ.sc" horiz-adv-x="549" 
d="M82 572h110v-572h-110v572zM203 -185l10 102q25 -9 69 -9q38 0 56 24t18 62v578h111v-578q0 -86 -45 -139t-140 -53q-34 0 -79 13z" />
    <glyph glyph-name="Jcircumflex.sc" horiz-adv-x="275" 
d="M198 632l-63 71l-62 -71h-84l94 140h104l95 -140h-84zM-71 -185l10 102q25 -9 69 -9q38 0 56 24t18 62v578h111v-578q0 -86 -45 -139t-140 -53q-34 0 -79 13z" />
    <glyph glyph-name="Lacute.sc" horiz-adv-x="428" 
d="M285 767l-118 -140h-85l89 140h114zM193 572h-111v-572h329v100h-218v472z" />
    <glyph glyph-name="Lcaron.sc" horiz-adv-x="434" 
d="M311 374l-68 20q43 60 51 125q4 21 4 52h93q-3 -70 -26 -121t-54 -76zM82 572h111v-472h218v-100h-329v572z" />
    <glyph glyph-name="Ldot.sc" horiz-adv-x="428" 
d="M82 572h111v-472h218v-100h-329v572zM253 243q0 22 17 38t41 16q23 0 40 -16t17 -38q0 -24 -16.5 -40t-40.5 -16t-41 16t-17 40z" />
    <glyph glyph-name="Nacute.sc" horiz-adv-x="589" 
d="M439 770l-119 -139h-85l91 139h113zM406 0h101v572h-112v-358l-211 358h-102v-572h110v364z" />
    <glyph glyph-name="Ncaron.sc" horiz-adv-x="589" 
d="M290 699l62 70h84l-94 -139h-105l-93 139h83zM406 0h101v572h-112v-358l-211 358h-102v-572h110v364z" />
    <glyph glyph-name="Omacron.sc" horiz-adv-x="674" 
d="M223 738h227v-74h-227v74zM47 283q0 123 84 209t205 86q123 0 207.5 -86t84.5 -209q0 -121 -85 -207t-207 -86q-121 0 -205 86t-84 207zM158 283q0 -76 51.5 -129.5t126.5 -53.5q76 0 128.5 53.5t52.5 129.5q0 77 -52.5 131t-128.5 54q-75 0 -126.5 -54t-51.5 -131z" />
    <glyph glyph-name="Obreve.sc" horiz-adv-x="674" 
d="M224 753h73q0 -45 39 -45q20 0 29.5 13t9.5 32h74q0 -51 -31 -81.5t-82 -30.5q-54 0 -83 32.5t-29 79.5zM47 283q0 -121 84 -207t205 -86q122 0 207 86t85 207q0 123 -84.5 209t-207.5 86q-121 0 -205 -86t-84 -209zM158 283q0 77 51.5 131t126.5 54q76 0 128.5 -54
t52.5 -131q0 -76 -52.5 -129.5t-128.5 -53.5q-75 0 -126.5 53.5t-51.5 129.5z" />
    <glyph glyph-name="Ohungarumlaut.sc" horiz-adv-x="674" 
d="M412 769l-95 -139h-85l86 139h94zM540 769l-104 -139h-87l96 139h95zM47 283q0 -121 84 -207t205 -86q122 0 207 86t85 207q0 123 -84.5 209t-207.5 86q-121 0 -205 -86t-84 -209zM158 283q0 77 51.5 131t126.5 54q76 0 128.5 -54t52.5 -131q0 -76 -52.5 -129.5
t-128.5 -53.5q-75 0 -126.5 53.5t-51.5 129.5z" />
    <glyph glyph-name="Racute.sc" horiz-adv-x="549" 
d="M395 770l-119 -139h-85l91 139h113zM500 0l-146 206q70 14 106.5 64.5t36.5 115.5q0 76 -48 131t-137 55h-230v-572h111v202h38l134 -202h135zM193 472h114q36 0 54.5 -26t18.5 -60t-19.5 -59.5t-57.5 -25.5h-110v171z" />
    <glyph glyph-name="Rcaron.sc" horiz-adv-x="549" 
d="M271 699l63 70h84l-94 -139h-105l-95 139h85zM500 0l-146 206q70 14 106.5 64.5t36.5 115.5q0 76 -48 131t-137 55h-230v-572h111v202h38l134 -202h135zM193 472h114q36 0 54.5 -26t18.5 -60t-19.5 -59.5t-57.5 -25.5h-110v171z" />
    <glyph glyph-name="Sacute.sc" horiz-adv-x="503" 
d="M394 770l-118 -139h-86l91 139h113zM161 170h-112q0 -76 57.5 -128t148.5 -52q82 0 140.5 44t62.5 119q3 58 -34.5 106t-122.5 71l-69 20q-66 18 -66 62q0 28 24 46t58 18q37 0 59.5 -20.5t22.5 -53.5h110q0 81 -53.5 128.5t-137.5 47.5q-81 0 -137.5 -47t-56.5 -121
q0 -121 145 -160l70 -20q40 -10 59 -28.5t17 -45.5q-2 -29 -26.5 -47t-64.5 -18q-42 0 -67.5 23t-26.5 56z" />
    <glyph glyph-name="Scircumflex.sc" horiz-adv-x="503" 
d="M314 632l-63 71l-63 -71h-84l94 140h105l94 -140h-83zM49 170h112q1 -33 26.5 -56t67.5 -23q40 0 64.5 18t26.5 47q2 27 -17 45.5t-59 28.5l-70 20q-145 39 -145 160q0 74 56.5 121t137.5 47q84 0 137.5 -47.5t53.5 -128.5h-110q0 33 -22.5 53.5t-59.5 20.5
q-34 0 -58 -18t-24 -46q0 -44 66 -62l69 -20q85 -23 122.5 -71t34.5 -106q-4 -75 -62.5 -119t-140.5 -44q-91 0 -148.5 52t-57.5 128z" />
    <glyph glyph-name="Scedilla.sc" horiz-adv-x="502" 
d="M298 -5q2 -5 10.5 -21t11.5 -22.5t6.5 -18.5t3.5 -22q0 -35 -26.5 -61t-63.5 -26t-62.5 28.5t-24.5 76.5l65 -3q-4 -14 6.5 -29t26.5 -8q21 8 13 34l-27 69q-83 5 -135 55.5t-52 123.5h111q1 -32 26.5 -56t67.5 -24q41 0 65 18t27 47q2 27 -17 45t-59 29l-70 19
q-145 39 -145 161q0 74 56 121t137 47q83 0 137 -48t54 -128h-110q0 33 -22 53t-60 20q-34 0 -58 -17.5t-24 -45.5q0 -45 66 -62l69 -21q81 -24 117.5 -68t38.5 -94q1 -69 -44.5 -115.5t-114.5 -56.5z" />
    <glyph glyph-name="Utilde.sc" horiz-adv-x="588" 
d="M294 96q43 0 75 29.5t32 75.5v371h111v-371q0 -93 -64 -152t-154 -59t-154 59t-64 152v371h113v-371q0 -45 31.5 -75t73.5 -30zM258 682q-6 0 -12 -9t-6 -26h-64q3 56 27 82t55 26q17 0 38.5 -16.5t33.5 -16.5q6 0 12 8t7 25h63q-2 -56 -26.5 -81.5t-55.5 -25.5
q-17 0 -39.5 17t-32.5 17z" />
    <glyph glyph-name="Umacron.sc" horiz-adv-x="588" 
d="M180 738h228v-74h-228v74zM294 96q43 0 75 29.5t32 75.5v371h111v-371q0 -93 -64 -152t-154 -59t-154 59t-64 152v371h113v-371q0 -46 31 -75.5t74 -29.5z" />
    <glyph glyph-name="Ubreve.sc" horiz-adv-x="588" 
d="M182 753h72q0 -45 39 -45q19 0 29 13t10 32h75q0 -51 -31.5 -81.5t-82.5 -30.5q-54 0 -82.5 32.5t-28.5 79.5zM294 96q43 0 75 29.5t32 75.5v371h111v-371q0 -93 -64 -152t-154 -59t-154 59t-64 152v371h113v-371q0 -46 31 -75.5t74 -29.5z" />
    <glyph glyph-name="Uring.sc" horiz-adv-x="588" 
d="M196 724q0 42 28 70.5t69 28.5q42 0 70.5 -28.5t28.5 -70.5q0 -41 -28.5 -69t-70.5 -28q-41 0 -69 28t-28 69zM252 724q0 -17 12 -29t29 -12q18 0 30.5 12t12.5 29t-12.5 30t-30.5 13q-16 0 -28.5 -13t-12.5 -30zM294 96q43 0 75 29.5t32 75.5v371h111v-371
q0 -93 -64 -152t-154 -59t-154 59t-64 152v371h113v-371q0 -46 31 -75.5t74 -29.5z" />
    <glyph glyph-name="Uhungarumlaut.sc" horiz-adv-x="588" 
d="M294 96q43 0 75 29.5t32 75.5v371h111v-371q0 -93 -64 -152t-154 -59t-154 59t-64 152v371h113v-371q0 -46 31 -75.5t74 -29.5zM354 769l-95 -139h-85l86 139h94zM482 769l-104 -139h-87l96 139h95z" />
    <glyph glyph-name="Uogonek.sc" horiz-adv-x="590" 
d="M230 -89q0 23 15 55l15 29q-78 11 -130.5 67.5t-52.5 139.5v370h113v-370q0 -45 31 -74.5t74 -29.5t75 29.5t32 74.5v370h111v-370q0 -86 -55 -143t-136 -66q-15 -38 -26 -70q-8 -26 12 -34q17 -7 27 8t7 29l65 3q1 -49 -25 -77t-62 -28q-38 0 -64 26t-26 61z" />
    <glyph glyph-name="Wcircumflex.sc" horiz-adv-x="770" 
d="M448 632l-63 71l-63 -71h-83l94 140h104l95 -140h-84zM633 572h120l-195 -572h-89l-84 308l-84 -308h-89l-194 572h120l119 -379l84 301h89l83 -300z" />
    <glyph glyph-name="Ycircumflex.sc" horiz-adv-x="572" 
d="M348 632l-62 71l-63 -71h-83l94 140h104l94 -140h-84zM342 0h-113v260l-220 312h132l144 -215l145 215h135l-223 -312v-260z" />
    <glyph glyph-name="Tcaron.sc" horiz-adv-x="477" 
d="M244 699l63 70h84l-95 -139h-105l-93 139h83zM454 572h-431v-101h159v-471h113v471h159v101z" />
    <glyph glyph-name="Tbar.sc" horiz-adv-x="477" 
d="M182 246h-95v67h95v158h-159v101h431v-101h-159v-158h98v-67h-98v-246h-113v246z" />
    <glyph glyph-name="Zacute.sc" horiz-adv-x="514" 
d="M399 770l-120 -139h-85l91 139h114zM47 87l271 385h-259v100h403v-86l-272 -385h272v-101h-415v87z" />
    <glyph glyph-name="Zdotaccent.sc" horiz-adv-x="514" 
d="M202 714q0 25 18 42t44 17q27 0 45 -17t18 -42q0 -26 -18 -43t-45 -17q-26 0 -44 17t-18 43zM47 87l271 385h-259v100h403v-86l-272 -385h272v-101h-415v87z" />
    <glyph glyph-name="Wgrave.sc" horiz-adv-x="770" 
d="M353 631l-118 139h113l91 -139h-86zM633 572h120l-195 -572h-89l-84 308l-84 -308h-89l-194 572h120l119 -379l84 301h89l83 -300z" />
    <glyph glyph-name="Wacute.sc" horiz-adv-x="770" 
d="M535 770l-119 -139h-85l91 139h113zM753 572h-120l-120 -378l-83 300h-89l-84 -301l-119 379h-120l194 -572h89l84 308l84 -308h89z" />
    <glyph glyph-name="Wdieresis.sc" horiz-adv-x="770" 
d="M254 708q0 24 17.5 40t42.5 16q24 0 41.5 -16t17.5 -40t-17.5 -40.5t-41.5 -16.5q-25 0 -42.5 16.5t-17.5 40.5zM397 708q0 24 17.5 40t43.5 16q24 0 41.5 -16t17.5 -40t-17.5 -40.5t-41.5 -16.5q-26 0 -43.5 16t-17.5 41zM753 572h-120l-120 -378l-83 300h-89l-84 -301
l-119 379h-120l194 -572h89l84 308l84 -308h89z" />
    <glyph glyph-name="Aringacute.sc" horiz-adv-x="570" 
d="M430 914l-94 -112q45 -29 45 -83q0 -41 -29 -69.5t-72 -28.5q-39 0 -67.5 28.5t-28.5 69.5q0 32 19.5 58.5t49.5 36.5l65 100h112zM241 719q0 -17 12 -29.5t28 -12.5q19 0 31.5 12.5t12.5 29.5q0 18 -12.5 30.5t-31.5 12.5q-17 0 -28.5 -12.5t-11.5 -30.5zM352 235h-134
l66 204zM389 137l51 -137h118l-214 572h-118l-214 -572h118l52 137h207z" />
    <glyph glyph-name="AEacute.sc" horiz-adv-x="802" 
d="M589 770l-119 -139h-85l91 139h113zM135 0l86 134h164v-134h364v102h-253v129h214v101h-214v139h245v101h-377l-362 -572h133zM385 242h-100l100 173v-173z" />
    <glyph glyph-name="Oslashacute.sc" horiz-adv-x="673" 
d="M495 770l-120 -139h-84l90 139h114zM90 -16l66 68q82 -62 179 -62q122 0 207 86t85 207q0 103 -66 187l66 67l-42 42l-66 -67q-80 66 -184 66q-121 0 -205 -86t-84 -209q0 -105 67 -188l-65 -68zM157 283q0 77 51.5 131t126.5 54q59 0 107 -35l-251 -259q-34 46 -34 109z
M335 100q-59 0 -102 32l250 258q33 -48 33 -107q0 -76 -52.5 -129.5t-128.5 -53.5z" />
    <glyph glyph-name="Ibreve.sc" horiz-adv-x="274" 
d="M192 572h-110v-572h110v572zM25 753h73q0 -45 40 -45q19 0 28.5 13t9.5 32h74q0 -51 -30.5 -81.5t-81.5 -30.5q-54 0 -83.5 33t-29.5 79z" />
    <glyph glyph-name="Eng.sc" horiz-adv-x="589" 
d="M395 4l-202 358v-362h-111v572h103l209 -369v369h113v-561q0 -90 -43.5 -146t-140.5 -56q-28 0 -80 13l11 108q22 -5 49 -9q27 -2 36 2q27 5 41 28t15 53z" />
    <glyph glyph-name="Ygrave.sc" horiz-adv-x="572" 
d="M260 631l-118 139h113l91 -139h-86zM342 0h-113v260l-220 312h132l144 -215l145 215h135l-223 -312v-260z" />
    <glyph glyph-name="Gcommaaccent.sc" horiz-adv-x="648" 
d="M547 488l-80 -71h-2q-51 56 -127 56q-75 0 -127.5 -55.5t-52.5 -134.5q0 -78 52.5 -133.5t127.5 -55.5q57 0 102 30.5t47 79.5h-155v93h282q0 -153 -74 -230t-202 -77q-122 0 -207 86t-85 207q0 123 84.5 209t207.5 86q127 0 209 -90zM308 -248l-56 24q44 59 36 184h97
q1 -67 -23 -125t-54 -83z" />
    <glyph glyph-name="Kcommaaccent.sc" horiz-adv-x="522" 
d="M255 288l269 -288h-145l-185 205v-205h-112v572h112v-199l148 199h131zM266 -248l-56 24q44 59 36 184h97q1 -67 -23 -125t-54 -83z" />
    <glyph glyph-name="Lcommaaccent.sc" horiz-adv-x="428" 
d="M82 572h111v-472h218v-100h-329v572zM214 -248l-56 24q44 59 36 184h97q1 -67 -23 -125t-54 -83z" />
    <glyph glyph-name="Ncommaaccent.sc" horiz-adv-x="589" 
d="M507 0h-101l-214 360v-360h-110v572h102l211 -355v355h112v-572zM266 -248l-56 24q44 59 36 184h97q1 -67 -23 -125t-54 -83z" />
    <glyph glyph-name="Rcommaaccent.sc" horiz-adv-x="549" 
d="M354 206l146 -206h-135l-134 202h-38v-202h-111v572h230q89 0 137 -55t48 -131q0 -65 -36.5 -115.5t-106.5 -64.5zM307 472h-114v-171h110q38 0 57.5 25.5t19.5 59.5t-18.5 60t-54.5 26zM266 -248l-56 24q44 59 36 184h97q1 -67 -23 -125t-54 -83z" />
    <glyph glyph-name="Tcommaaccent.sc" horiz-adv-x="477" 
d="M23 572h431v-101h-159v-471h-113v471h-159v101zM209 -248l-56 24q44 59 36 184h97q1 -67 -23 -125t-54 -83z" />
    <glyph glyph-name="Scommaaccent.sc" horiz-adv-x="503" 
d="M49 170h112q1 -33 26.5 -56t67.5 -23q40 0 64.5 18.5t26.5 46.5q2 27 -17 45t-59 29l-70 20q-145 39 -145 160q0 74 56.5 121t137.5 47q84 0 137.5 -47.5t53.5 -128.5h-110q0 33 -22.5 53.5t-59.5 20.5q-34 0 -58 -18t-24 -46q0 -44 66 -62l69 -20q86 -25 122.5 -72
t34.5 -105q-4 -75 -62.5 -119t-140.5 -44q-91 0 -148.5 52t-57.5 128zM231 -248l-56 24q44 59 36 184h97q1 -67 -23 -125t-54 -83z" />
    <glyph glyph-name="Idotaccent.sc" horiz-adv-x="274" 
d="M192 572h-110v-572h110v572zM75 714q0 25 18.5 42t44.5 17t44 -17t18 -42q0 -26 -18 -43t-44 -17q-27 0 -45 17t-18 43z" />
    <glyph glyph-name="zero.numr" horiz-adv-x="356" 
d="M36 461q0 200 142 200t142 -200q0 -197 -142 -197t-142 197zM109 461q0 -126 69 -126t69 126q0 128 -69 128t-69 -128z" />
    <glyph glyph-name="one.numr" horiz-adv-x="213" 
d="M88 270v284l-66 -30v66l139 69v-389h-73z" />
    <glyph glyph-name="two.numr" horiz-adv-x="318" 
d="M32 307l157 188q22 25 22 50q0 20 -15 33t-39 13q-23 0 -39.5 -16t-20.5 -42l-67 14q9 53 44 83.5t86 30.5q52 0 88 -33t36 -83q0 -53 -41 -99l-93 -106h128v-70h-246v37z" />
    <glyph glyph-name="three.numr" horiz-adv-x="317" 
d="M97 567l-55 38q17 27 48 42.5t68 13.5q49 -3 80 -34t31 -73q0 -49 -48 -76q30 -11 48.5 -41.5t15.5 -62.5q-4 -49 -47.5 -81t-99.5 -28q-39 3 -71.5 25t-48.5 56l62 32q23 -43 63 -43q25 -1 44 13.5t21 34.5q1 21 -12.5 40.5t-47.5 18.5h-42v63h42q25 0 35.5 17.5
t8.5 32.5q-1 15 -13 27t-31 12q-33 1 -51 -27z" />
    <glyph glyph-name="four.numr" horiz-adv-x="346" 
d="M271 353v-83h-73v83h-190l193 301h70v-238h51v-63h-51zM116 416h82v130z" />
    <glyph glyph-name="five.numr" horiz-adv-x="339" 
d="M86 383q11 -21 31.5 -34t42.5 -13q35 0 57 19t22 46q0 31 -20.5 47.5t-51.5 16.5q-54 0 -93 -38l-35 23l32 204h215v-68h-156l-13 -74q25 17 67 17q55 0 91 -33.5t36 -94.5t-41 -99t-110 -38q-41 0 -77.5 21.5t-57.5 57.5z" />
    <glyph glyph-name="six.numr" horiz-adv-x="338" 
d="M303 584l-67 -28q-17 36 -51 36q-39 0 -58 -34t-17 -84q8 17 29 30.5t48 13.5q48 0 84 -36t35 -95q-1 -55 -39.5 -90t-96.5 -34q-54 1 -91 37t-42 96q-6 42 0 89t18.5 86.5t46.5 64.5t85 24q84 -4 116 -76zM117 393q0 -25 16.5 -41.5t40.5 -17.5q23 0 40 16.5t18 40.5
q0 24 -16.5 41t-39.5 18q-25 0 -42 -16.5t-17 -40.5z" />
    <glyph glyph-name="seven.numr" horiz-adv-x="314" 
d="M309 654l-186 -384h-83l152 316h-166v68h283z" />
    <glyph glyph-name="eight.numr" horiz-adv-x="345" 
d="M59 556q0 44 33.5 74.5t80.5 30.5t80 -30.5t33 -74.5q0 -40 -28 -65q56 -34 56 -97q0 -54 -41 -92t-100 -38t-100.5 38t-41.5 92q0 62 56 97q-28 28 -28 65zM104 395q0 -26 20.5 -44t48.5 -18t48 18.5t20 43.5t-19 44t-46 19h-9q-26 0 -44.5 -19t-18.5 -44zM131 554
q0 -17 11.5 -28.5t30.5 -11.5q19 1 30.5 12.5t11.5 27.5t-12 27.5t-30 11.5q-19 0 -30.5 -11.5t-11.5 -27.5z" />
    <glyph glyph-name="nine.numr" horiz-adv-x="338" 
d="M35 340l68 28q17 -36 51 -36q38 0 57 34.5t18 83.5q-9 -17 -30 -30.5t-48 -13.5q-48 0 -84 36t-35 95q2 55 40 89.5t96 33.5q55 -1 92 -36.5t42 -96.5q3 -46 -1 -88t-18 -84.5t-47.5 -67.5t-83.5 -23q-83 4 -117 76zM222 531q0 24 -16.5 41t-40.5 18t-41 -16t-17 -41
q-1 -25 15.5 -41.5t40.5 -17.5q24 0 41 16.5t18 40.5z" />
    <glyph glyph-name="zero.dnom" horiz-adv-x="356" 
d="M36 192q0 199 142 199t142 -199q0 -198 -142 -198t-142 198zM109 192q0 -127 69 -127t69 127t-69 127t-69 -127z" />
    <glyph glyph-name="one.dnom" horiz-adv-x="213" 
d="M89 0v284l-66 -30v66l139 69v-389h-73z" />
    <glyph glyph-name="two.dnom" horiz-adv-x="318" 
d="M32 38l157 187q22 27 22 50q0 20 -15 33t-39 13q-23 0 -39.5 -15.5t-20.5 -41.5l-67 13q9 53 44 83.5t86 30.5q52 0 88 -33t36 -83q0 -52 -41 -98l-93 -107h128v-70h-246v38z" />
    <glyph glyph-name="three.dnom" horiz-adv-x="319" 
d="M99 297l-55 38q17 27 48 42.5t68 13.5q49 -3 80 -34t31 -73q0 -49 -48 -76q30 -11 48.5 -41.5t15.5 -62.5q-4 -49 -47.5 -81t-99.5 -28q-39 3 -71.5 25t-48.5 56l62 32q23 -43 63 -43q25 -1 44 13.5t21 34.5q1 21 -12.5 40.5t-47.5 18.5h-42v63h42q25 0 35.5 17.5
t8.5 32.5q-1 15 -13 27t-31 12q-33 1 -51 -27z" />
    <glyph glyph-name="four.dnom" horiz-adv-x="347" 
d="M272 83v-83h-73v83h-190l193 302h70v-238h51v-64h-51zM117 147h82v130z" />
    <glyph glyph-name="five.dnom" horiz-adv-x="339" 
d="M85 113q11 -21 31.5 -34t42.5 -13q35 0 57 19t22 47q0 31 -21 47.5t-51 16.5q-54 0 -93 -39l-35 23l32 204h215v-68h-156l-13 -74q26 17 67 17q55 0 91 -33.5t36 -93.5q0 -61 -41.5 -99.5t-109.5 -38.5q-41 0 -77.5 21.5t-57.5 57.5z" />
    <glyph glyph-name="six.dnom" horiz-adv-x="338" 
d="M303 315l-67 -29q-17 36 -51 36q-39 0 -58 -34t-17 -84q7 17 28.5 30.5t48.5 13.5q48 0 84 -36t35 -95q-1 -54 -39.5 -89t-96.5 -34q-54 1 -91 36.5t-42 96.5q-6 41 0 88t18.5 86.5t46.5 64.5t85 24q83 -4 116 -75zM117 123q0 -24 16.5 -41t40.5 -17q23 -1 40 15.5
t18 40.5q0 25 -16.5 42t-39.5 17q-25 0 -42 -16.5t-17 -40.5z" />
    <glyph glyph-name="seven.dnom" horiz-adv-x="317" 
d="M310 385l-186 -385h-83l152 316h-166v69h283z" />
    <glyph glyph-name="eight.dnom" horiz-adv-x="345" 
d="M59 286q0 44 33.5 74.5t80.5 30.5t80 -30.5t33 -74.5q0 -39 -28 -65q56 -34 56 -97q0 -54 -41 -92t-100 -38t-100.5 38t-41.5 92q0 62 56 97q-28 28 -28 65zM104 126q0 -26 20 -44.5t49 -18.5q28 0 48 18.5t20 44.5q0 24 -19 43t-46 19h-9q-26 0 -44.5 -18.5t-18.5 -43.5
zM131 285q0 -17 11.5 -29t30.5 -12q19 1 30.5 12.5t11.5 28.5q0 15 -12 26.5t-30 11.5q-19 0 -30.5 -11t-11.5 -27z" />
    <glyph glyph-name="nine.dnom" horiz-adv-x="339" 
d="M36 70l68 29q17 -37 51 -37q38 0 57 34.5t18 84.5q-8 -18 -29.5 -31.5t-48.5 -13.5q-48 0 -84 36.5t-35 94.5q2 55 40 89.5t96 33.5q55 -1 92 -36.5t42 -96.5q3 -46 -1 -88t-18 -84.5t-47.5 -67.5t-83.5 -23q-83 4 -117 76zM223 261q0 25 -16.5 42t-40.5 17
q-24 1 -41 -16t-17 -41q-1 -24 15.5 -41t40.5 -17q24 -1 41 15.5t18 40.5z" />
    <glyph glyph-name="l.alt1" horiz-adv-x="305" 
d="M303 112v-112h-65q-174 0 -174 202v519h123v-521q-2 -88 69 -88h47z" />
    <glyph glyph-name="a.alt1" horiz-adv-x="540" 
d="M226 97q31 0 71 14.5t59 40.5v22q-20 14 -56.5 21.5t-59.5 7.5q-83 0 -83 -52q0 -22 18.5 -38t50.5 -16zM131 312l-72 69q68 96 204 96q101 0 157.5 -51.5t56.5 -148.5v-277h-120v48q-24 -29 -64.5 -43.5t-75.5 -14.5q-83 0 -132 41t-49 112q0 67 48.5 107t153.5 40
q25 0 61.5 -8.5t57.5 -22.5v18q0 40 -27 66.5t-74 26.5q-32 0 -67 -14t-58 -44z" />
    <glyph glyph-name="y.alt1" horiz-adv-x="509" 
d="M162 -36l28 67l-180 436h129l116 -287l116 287h130l-229 -549q-37 -83 -77.5 -116.5t-113.5 -33.5q-29 0 -69 10v107q33 -5 68 -5q30 0 46.5 19.5t35.5 64.5z" />
    <glyph glyph-name="lslash.alt1" horiz-adv-x="326" 
d="M322 112v-112h-65q-174 0 -174 202v91l-75 -47v84l75 47v344h123v-267l87 55v-84l-87 -55v-170q-2 -88 69 -88h47z" />
    <glyph glyph-name="lacute.alt1" horiz-adv-x="305" 
d="M175 929h128l-138 -163h-95zM303 0v112h-47q-71 0 -69 88v521h-123v-519q0 -202 174 -202h65z" />
    <glyph glyph-name="lcommaaccent.alt1" horiz-adv-x="305" 
d="M171 -274l-64 29q32 45 44 85t10 104h107q-7 -146 -97 -218zM303 112v-112h-65q-174 0 -174 202v519h123v-521q-2 -88 69 -88h47z" />
    <glyph glyph-name="lcaron.alt1" horiz-adv-x="305" 
d="M296 484l-75 25q69 96 65 212h107q-4 -84 -32 -145.5t-65 -91.5zM303 0v112h-47q-71 0 -69 88v521h-123v-519q0 -202 174 -202h65z" />
    <glyph glyph-name="aacute.alt1" horiz-adv-x="540" 
d="M328 707h128l-138 -163h-95zM226 97q31 0 71 14.5t59 40.5v22q-20 14 -56.5 21.5t-59.5 7.5q-83 0 -83 -52q0 -22 18.5 -38t50.5 -16zM131 312l-72 69q68 96 204 96q101 0 157.5 -51.5t56.5 -148.5v-277h-120v48q-24 -29 -64.5 -43.5t-75.5 -14.5q-83 0 -132 41t-49 112
q0 67 48.5 107t153.5 40q25 0 61.5 -8.5t57.5 -22.5v18q0 40 -27 66.5t-74 26.5q-32 0 -67 -14t-58 -44z" />
    <glyph glyph-name="agrave.alt1" horiz-adv-x="540" 
d="M96 707h128l105 -163h-95zM226 97q31 0 71 14.5t59 40.5v22q-20 14 -56.5 21.5t-59.5 7.5q-83 0 -83 -52q0 -22 18.5 -38t50.5 -16zM131 312l-72 69q68 96 204 96q101 0 157.5 -51.5t56.5 -148.5v-277h-120v48q-24 -29 -64.5 -43.5t-75.5 -14.5q-83 0 -132 41t-49 112
q0 67 48.5 107t153.5 40q25 0 61.5 -8.5t57.5 -22.5v18q0 40 -27 66.5t-74 26.5q-32 0 -67 -14t-58 -44z" />
    <glyph glyph-name="acircumflex.alt1" horiz-adv-x="540" 
d="M205 710h123l110 -163h-94l-78 88l-76 -88h-94zM226 97q31 0 71 14.5t59 40.5v22q-20 14 -56.5 21.5t-59.5 7.5q-83 0 -83 -52q0 -22 18.5 -38t50.5 -16zM131 312l-72 69q68 96 204 96q101 0 157.5 -51.5t56.5 -148.5v-277h-120v48q-24 -29 -64.5 -43.5t-75.5 -14.5
q-83 0 -132 41t-49 112q0 67 48.5 107t153.5 40q25 0 61.5 -8.5t57.5 -22.5v18q0 40 -27 66.5t-74 26.5q-32 0 -67 -14t-58 -44z" />
    <glyph glyph-name="adieresis.alt1" horiz-adv-x="540" 
d="M112 632q0 28 20 46.5t49 18.5q28 0 48 -19t20 -46t-20 -46t-48 -19q-29 0 -49 18.5t-20 46.5zM286 632q0 28 20 46.5t49 18.5t48.5 -18.5t19.5 -46.5t-19.5 -46.5t-48.5 -18.5t-49 18.5t-20 46.5zM226 97q31 0 71 14.5t59 40.5v22q-20 14 -56.5 21.5t-59.5 7.5
q-83 0 -83 -52q0 -22 18.5 -38t50.5 -16zM131 312l-72 69q68 96 204 96q101 0 157.5 -51.5t56.5 -148.5v-277h-120v48q-24 -29 -64.5 -43.5t-75.5 -14.5q-83 0 -132 41t-49 112q0 67 48.5 107t153.5 40q25 0 61.5 -8.5t57.5 -22.5v18q0 40 -27 66.5t-74 26.5q-32 0 -67 -14
t-58 -44z" />
    <glyph glyph-name="atilde.alt1" horiz-adv-x="540" 
d="M231 607q-8 0 -16.5 -11t-9.5 -32h-70q3 65 31.5 95t64.5 30q24 0 51 -20.5t37 -20.5q8 0 17 10t10 31h70q-3 -64 -32.5 -93.5t-64.5 -29.5q-23 0 -51 20.5t-37 20.5zM226 97q31 0 71 14.5t59 40.5v22q-20 14 -56.5 21.5t-59.5 7.5q-83 0 -83 -52q0 -22 18.5 -38
t50.5 -16zM131 312l-72 69q68 96 204 96q101 0 157.5 -51.5t56.5 -148.5v-277h-120v48q-24 -29 -64.5 -43.5t-75.5 -14.5q-83 0 -132 41t-49 112q0 67 48.5 107t153.5 40q25 0 61.5 -8.5t57.5 -22.5v18q0 40 -27 66.5t-74 26.5q-32 0 -67 -14t-58 -44z" />
    <glyph glyph-name="aring.alt1" horiz-adv-x="540" 
d="M152 654q0 49 33.5 83t80.5 34q50 0 83.5 -33.5t33.5 -83.5q0 -48 -34 -81t-83 -33q-47 0 -80.5 33t-33.5 81zM209 654q0 -24 17 -40.5t40 -16.5q25 0 42 16.5t17 40.5q0 25 -17 42t-42 17q-23 0 -40 -17t-17 -42zM226 97q31 0 71 14.5t59 40.5v22q-20 14 -56.5 21.5
t-59.5 7.5q-83 0 -83 -52q0 -22 18.5 -38t50.5 -16zM131 312l-72 69q68 96 204 96q101 0 157.5 -51.5t56.5 -148.5v-277h-120v48q-24 -29 -64.5 -43.5t-75.5 -14.5q-83 0 -132 41t-49 112q0 67 48.5 107t153.5 40q25 0 61.5 -8.5t57.5 -22.5v18q0 40 -27 66.5t-74 26.5
q-32 0 -67 -14t-58 -44z" />
    <glyph glyph-name="amacron.alt1" horiz-adv-x="540" 
d="M134 585v83h269v-83h-269zM226 97q31 0 71 14.5t59 40.5v22q-20 14 -56.5 21.5t-59.5 7.5q-83 0 -83 -52q0 -22 18.5 -38t50.5 -16zM131 312l-72 69q68 96 204 96q101 0 157.5 -51.5t56.5 -148.5v-277h-120v48q-24 -29 -64.5 -43.5t-75.5 -14.5q-83 0 -132 41t-49 112
q0 67 48.5 107t153.5 40q25 0 61.5 -8.5t57.5 -22.5v18q0 40 -27 66.5t-74 26.5q-32 0 -67 -14t-58 -44z" />
    <glyph glyph-name="abreve.alt1" horiz-adv-x="540" 
d="M139 687h82q0 -55 51 -55q25 0 38 16t13 39h83q0 -59 -37 -94.5t-97 -35.5q-65 0 -99 38t-34 92zM226 97q31 0 71 14.5t59 40.5v22q-20 14 -56.5 21.5t-59.5 7.5q-83 0 -83 -52q0 -22 18.5 -38t50.5 -16zM131 312l-72 69q68 96 204 96q101 0 157.5 -51.5t56.5 -148.5
v-277h-120v48q-24 -29 -64.5 -43.5t-75.5 -14.5q-83 0 -132 41t-49 112q0 67 48.5 107t153.5 40q25 0 61.5 -8.5t57.5 -22.5v18q0 40 -27 66.5t-74 26.5q-32 0 -67 -14t-58 -44z" />
    <glyph glyph-name="aogonek.alt1" horiz-adv-x="540" 
d="M131 312l-72 69q68 96 204 96q101 0 157.5 -51.5t56.5 -148.5v-277h-56l-35 -96q-11 -35 17 -46q14 -4 26 1.5t17 18.5l5 25l69 4q1 -55 -29.5 -87.5t-72.5 -32.5q-44 0 -74.5 30.5t-30.5 71.5q0 30 9 46l35 65v48q-24 -29 -64.5 -43.5t-75.5 -14.5q-83 0 -132 41
t-49 112q0 67 48.5 107t153.5 40q25 0 61.5 -8.5t57.5 -22.5v18q0 40 -27 66.5t-74 26.5q-32 0 -67 -14t-58 -44zM226 97q31 0 71 14.5t59 40.5v22q-20 14 -56.5 21.5t-59.5 7.5q-83 0 -83 -52q0 -22 18.5 -38t50.5 -16z" />
    <glyph glyph-name="yacute.alt1" horiz-adv-x="509" 
d="M281 707h128l-138 -163h-95zM190 31l-28 -67q-19 -45 -35.5 -64.5t-46.5 -19.5q-35 0 -68 5v-107q40 -10 69 -10q73 0 113.5 33.5t77.5 116.5l229 549h-130l-116 -287l-116 287h-129z" />
    <glyph glyph-name="ydieresis.alt1" horiz-adv-x="509" 
d="M96 632q0 28 20 46.5t49 18.5q28 0 48 -19t20 -46t-20 -46t-48 -19q-29 0 -49 18.5t-20 46.5zM270 632q0 28 20 46.5t49 18.5t48.5 -18.5t19.5 -46.5t-19.5 -46.5t-48.5 -18.5t-49 18.5t-20 46.5zM190 31l-28 -67q-19 -45 -35.5 -64.5t-46.5 -19.5q-35 0 -68 5v-107
q40 -10 69 -10q73 0 113.5 33.5t77.5 116.5l229 549h-130l-116 -287l-116 287h-129z" />
    <glyph glyph-name="ae.alt1" horiz-adv-x="871" 
d="M477 21v-21h-120v48q-24 -29 -64.5 -43.5t-75.5 -14.5q-83 0 -132 41t-49 112q0 67 48.5 107t153.5 40q26 0 62.5 -7.5t56.5 -21.5v16q0 40 -27 66.5t-74 26.5q-32 0 -67 -14.5t-58 -44.5l-72 70q68 96 204 96q113 0 168 -63q69 63 168 63q102 0 169.5 -67t67.5 -175
q0 -20 -2 -42h-356q6 -46 41.5 -73t87.5 -27q37 0 69 15.5t48 44.5l93 -50q-30 -57 -89 -85t-129 -28q-66 0 -122 31zM477 276h240q-7 47 -39 73t-78 26q-49 0 -82.5 -26.5t-40.5 -72.5zM220 97q32 0 74.5 14.5t61.5 40.5v18q-20 14 -56.5 21.5t-59.5 7.5q-48 0 -65.5 -17.5
t-17.5 -38.5q0 -19 16 -32.5t47 -13.5z" />
    <glyph glyph-name="aeacute.alt1" horiz-adv-x="871" 
d="M497 707h128l-138 -163h-95zM477 0v21q56 -31 122 -31q70 0 129 28t89 85l-93 50q-16 -29 -48 -44.5t-69 -15.5q-52 0 -87.5 27t-41.5 73h356q2 22 2 42q0 108 -67.5 175t-169.5 67q-99 0 -168 -63q-55 63 -168 63q-136 0 -204 -96l72 -70q23 30 58 44.5t67 14.5
q47 0 74 -26.5t27 -66.5v-16q-20 14 -56.5 21.5t-62.5 7.5q-105 0 -153.5 -40t-48.5 -107q0 -71 49 -112t132 -41q35 0 75.5 14.5t64.5 43.5v-48h120zM477 276q7 46 40.5 72.5t82.5 26.5q46 0 78 -26t39 -73h-240zM220 97q-31 0 -47 13.5t-16 32.5q0 21 17.5 38.5t65.5 17.5
q23 0 59.5 -7.5t56.5 -21.5v-18q-19 -26 -61.5 -40.5t-74.5 -14.5z" />
    <glyph glyph-name="ycircumflex.alt1" horiz-adv-x="509" 
d="M194 710h123l110 -163h-94l-78 88l-76 -88h-94zM162 -36l28 67l-180 436h129l116 -287l116 287h130l-229 -549q-37 -83 -77.5 -116.5t-113.5 -33.5q-29 0 -69 10v107q33 -5 68 -5q30 0 46.5 19.5t35.5 64.5z" />
    <glyph glyph-name="ldot.alt1" horiz-adv-x="404" 
d="M244 313q0 32 23 54t55 22q33 0 56.5 -21.5t23.5 -54.5t-23.5 -54.5t-56.5 -21.5q-32 0 -55 22t-23 54zM303 112v-112h-65q-174 0 -174 202v519h123v-521q-2 -88 69 -88h47z" />
    <glyph glyph-name="t.alt1" horiz-adv-x="383" 
d="M346 112v-112h-63q-94 0 -134 46.5t-40 141.5v181h-85v98h85v97l123 39v-136h97v-98h-97v-183q-1 -35 13.5 -54.5t55.5 -19.5h45z" />
    <glyph glyph-name="tcaron.alt1" horiz-adv-x="383" 
d="M336 524l-65 29q32 45 44 85t10 104h107q-7 -145 -96 -218zM346 0v112h-45q-41 0 -55.5 19.5t-13.5 54.5v183h97v98h-97v136l-123 -39v-97h-85v-98h85v-181q0 -95 40 -141.5t134 -46.5h63z" />
    <glyph glyph-name="tbar.alt1" horiz-adv-x="385" 
d="M348 112v-112h-63q-94 0 -134 46.5t-40 141.5v10h-59v71h59v100h-85v98h85v97l123 39v-136h97v-98h-97v-100h70v-71h-70v-12q-1 -35 13.5 -54.5t55.5 -19.5h45z" />
    <glyph glyph-name="tcommaaccent.alt1" horiz-adv-x="383" 
d="M205 -274l-64 29q32 45 44 85t10 104h107q-7 -146 -97 -218zM346 112v-112h-63q-94 0 -134 46.5t-40 141.5v181h-85v98h85v97l123 39v-136h97v-98h-97v-183q-1 -35 13.5 -54.5t55.5 -19.5h45z" />
    <glyph glyph-name="T.sc.alt1" horiz-adv-x="477" 
d="M23 572h431v-101h-159v-471h-113v471h-159v101z" />
    <glyph glyph-name="Tcaron.sc.alt1" horiz-adv-x="477" 
d="M244 699l63 70h84l-95 -139h-105l-93 139h83zM454 572h-431v-101h159v-471h113v471h159v101z" />
    <glyph glyph-name="Tbar.sc.alt1" horiz-adv-x="477" 
d="M182 246h-95v67h95v158h-159v101h431v-101h-159v-158h98v-67h-98v-246h-113v246z" />
    <glyph glyph-name="Tcommaaccent.sc.alt1" horiz-adv-x="477" 
d="M23 572h431v-101h-159v-471h-113v471h-159v101zM209 -248l-56 24q44 59 36 184h97q1 -67 -23 -125t-54 -83z" />
    <glyph glyph-name="aringacute.alt1" horiz-adv-x="540" 
d="M316 882h128l-113 -133q57 -34 57 -101q0 -48 -34 -81t-83 -33q-47 0 -80.5 33t-33.5 81q0 40 22.5 70t57.5 42zM214 648q0 -24 17 -40.5t40 -16.5q25 0 42 16.5t17 40.5q0 25 -17 42t-42 17q-23 0 -40 -17t-17 -42zM226 97q31 0 71 14.5t59 40.5v22q-20 14 -56.5 21.5
t-59.5 7.5q-83 0 -83 -52q0 -22 18.5 -38t50.5 -16zM131 312l-72 69q68 96 204 96q101 0 157.5 -51.5t56.5 -148.5v-277h-120v48q-24 -29 -64.5 -43.5t-75.5 -14.5q-83 0 -132 41t-49 112q0 67 48.5 107t153.5 40q25 0 61.5 -8.5t57.5 -22.5v18q0 40 -27 66.5t-74 26.5
q-32 0 -67 -14t-58 -44z" />
    </font>
</defs>
</svg>
