<?xml version="1.0" standalone="no"?>
<!DOCTYPE svg PUBLIC "-//W3C//DTD SVG 1.1//EN" "http://www.w3.org/Graphics/SVG/1.1/DTD/svg11.dtd" >
<svg>
<metadata>
Created by FontForge 20090622 at Sat Aug  6 20:11:03 2016
 By deploy user
Copyright &#194;&#169; 2015 ParaType, Inc., ParaType Ltd. All rights reserved.
</metadata>
<defs>
<font id="circleroundedbold" horiz-adv-x="596" >
  <font-face
    font-family="Circe Rounded Bold"
    font-weight="700"
    font-stretch="normal"
    units-per-em="1000"
    panose-1="2 15 6 2 2 2 3 2 2 3"
    ascent="773"
    descent="-227"
    x-height="450"
    cap-height="700"
    bbox="-500 -320 1452 941"
    underline-thickness="50"
    underline-position="-50"
    unicode-range="U+0020-U+FB02"
  />
<missing-glyph horiz-adv-x="212"
 />
    <glyph glyph-name="uniF350.var.accented" unicode="&#xf350;`" horiz-adv-x="603"
d="M421 108h-247l-36 -80q-13 -28 -43 -28h-39q-15 0 -24.5 10t-9.5 24q0 8 3 15l209 449q13 28 43 28h49q30 0 43 -28l209 -449q3 -7 3 -15q0 -14 -9.5 -24t-24.5 -10h-47q-30 0 -43 28zM298 383l-73 -161h145zM252 664l77 82q11 11 26 11q18 0 28 -13l19 -24q9 -10 9 -25
q0 -20 -16 -33l-83 -66q-13 -10 -27 -10q-19 0 -33 16q-12 14 -12 31q0 19 12 31z" />
    <glyph glyph-name="uniF355.var.accented" unicode="&#xf355;`" horiz-adv-x="498"
d="M446 77v-39q0 -16 -11 -27t-27 -11h-292q-16 0 -27 11t-11 27v449q0 16 11 27t27 11h283q16 0 27 -11t11 -27v-39q0 -16 -11 -27t-27 -11h-199v-88h175q16 0 27 -11t11 -27v-39q0 -16 -11 -27t-27 -11h-175v-92h208q16 0 27 -11t11 -27zM202 664l77 82q11 11 26 11
q18 0 28 -13l19 -24q9 -10 9 -25q0 -20 -16 -33l-83 -66q-13 -10 -27 -10q-19 0 -33 16q-12 14 -12 31q0 19 12 31z" />
    <glyph glyph-name="uniF358.var.accented" unicode="&#xf358;`" horiz-adv-x="663"
d="M547 0h-46q-16 0 -27 11t-11 27v292l-258 -307q-20 -23 -45 -23h-44q-16 0 -27 11t-11 27v449q0 16 11 27t27 11h46q16 0 27 -11t11 -27v-292l258 307q20 23 45 23h44q16 0 27 -11t11 -27v-449q0 -16 -11 -27t-27 -11zM277 664l77 82q11 11 26 11q18 0 28 -13l19 -24
q9 -11 9 -25q0 -20 -16 -33l-83 -66q-13 -10 -27 -10q-19 0 -33 16q-12 14 -12 31q0 19 12 31z" />
    <glyph glyph-name="uniF35E.var.accented" unicode="&#xf35e;`" horiz-adv-x="659"
d="M35 261q0 116 82 193.5t212 77.5t212.5 -74t82.5 -197q0 -119 -83.5 -195.5t-211.5 -76.5q-129 0 -211.5 74t-82.5 198zM165 261q0 -67 47.5 -112t116.5 -45q78 0 121.5 44t43.5 113q0 70 -47 113t-118 43q-72 0 -118 -43t-46 -113zM287 664l77 82q11 11 26 11
q18 0 28 -13l19 -24q9 -11 9 -25q0 -20 -16 -33l-83 -66q-13 -10 -27 -10q-19 0 -33 16q-12 14 -12 31q0 19 12 31z" />
    <glyph glyph-name="uniF363.var.accented" unicode="&#xf363;`" horiz-adv-x="555"
d="M527 471l-172 -343q-64 -128 -169 -128q-33 0 -58 12q-21 9 -21 30q0 6 3 14l14 35q10 24 33 24q7 0 20 -2t16 -2q23 0 44 34l9 14l-205 308q-7 10 -7 21q0 15 11 26t27 11h54q30 0 46 -26l136 -219l106 218q14 27 43 27h40q15 0 25 -10t10 -25q0 -9 -5 -19zM240 664
l77 82q11 11 26 11q18 0 28 -13l19 -24q9 -10 9 -25q0 -20 -16 -33l-83 -66q-13 -10 -27 -10q-19 0 -33 16q-12 14 -12 31q0 19 12 31z" />
    <glyph glyph-name="uniF36B.var.accented" unicode="&#xf36b;`" horiz-adv-x="736"
d="M658 487v-449q0 -16 -11 -27t-27 -11h-47q-16 0 -27 11t-11 27v449q0 16 11 27t27 11h47q16 0 27 -11t11 -27zM200 248v-133q17 -2 46 -2q95 0 95 71q0 66 -94 66q-28 0 -47 -2zM78 39v448q0 16 11 27t27 11h46q16 0 27 -11t11 -27v-125q23 3 57 3q106 0 160 -47.5
t54 -130.5q0 -86 -63.5 -137.5t-176.5 -51.5q-49 0 -115 2q-16 0 -27 11.5t-11 27.5zM307 664l77 82q11 11 26 11q18 0 28 -13l19 -24q9 -11 9 -25q0 -20 -16 -33l-83 -66q-13 -10 -27 -10q-19 0 -33 16q-12 14 -12 31q0 19 12 31z" />
    <glyph glyph-name="uniF36D.var.accented" unicode="&#xf36d;`" horiz-adv-x="549"
d="M86 134q13 0 22 -5q48 -23 118 -23q139 0 167 104h-206q-16 0 -27 11t-11 27v39q0 16 11 27t27 11h202q-33 94 -167 94q-68 0 -115 -19q-9 -4 -19 -4q-23 0 -37 23l-13 23q-5 8 -5 17q0 23 19 33q79 42 175 42q129 0 212 -75t83 -197q0 -126 -84 -198.5t-227 -72.5
q-101 0 -162 36q-22 13 -22 35q0 9 5 17l20 35q11 20 34 20zM182 664l77 82q11 11 26 11q18 0 28 -13l19 -24q9 -10 9 -25q0 -20 -16 -33l-83 -66q-13 -10 -27 -10q-19 0 -33 16q-12 14 -12 31q0 19 12 31z" />
    <glyph glyph-name="uniF36E.var.accented" unicode="&#xf36e;`" horiz-adv-x="877"
d="M200 210v-172q0 -16 -11 -27t-27 -11h-46q-16 0 -27 11t-11 27v449q0 16 11 27t27 11h46q16 0 27 -11t11 -27v-162h83q19 94 90.5 151.5t182.5 57.5q133 0 209.5 -73t76.5 -198q0 -122 -77.5 -197t-208.5 -75q-109 0 -183.5 58.5t-90.5 160.5h-82zM408 263
q0 -68 42 -112.5t110 -44.5q74 0 113 44t39 113q0 71 -41.5 113.5t-110.5 42.5q-68 0 -110 -43t-42 -113zM368 664l77 82q11 11 26 11q18 0 28 -13l19 -24q9 -11 9 -25q0 -20 -16 -33l-83 -66q-13 -10 -27 -10q-19 0 -33 16q-12 14 -12 31q0 19 12 31z" />
    <glyph glyph-name="uniF36F.var.accented" unicode="&#xf36f;`" horiz-adv-x="552"
d="M474 486v-448q0 -16 -11 -27t-27 -11h-47q-16 0 -27 11t-11 27v122h-92l-93 -135q-17 -25 -47 -25h-45q-15 0 -25.5 10.5t-10.5 25.5q0 11 7 21l95 130q-89 51 -89 147q0 82 60 138t180 56q25 0 75 -1t70 -1q16 -1 27 -12.5t11 -27.5zM351 275v135q-33 3 -72 3
q-47 0 -72.5 -19t-25.5 -52q0 -27 20 -44.5t48 -22.5h102zM220 664l77 82q11 11 26 11q18 0 28 -13l19 -24q9 -10 9 -25q0 -20 -16 -33l-83 -66q-13 -10 -27 -10q-19 0 -33 16q-12 14 -12 31q0 19 12 31z" />
    <glyph glyph-name="uniF371.var.accented" unicode="&#xf371;`" horiz-adv-x="498"
d="M89 645q0 27 18.5 43.5t46.5 16.5q22 0 40 -17t18 -43q0 -28 -17.5 -45t-40.5 -17q-28 0 -46.5 16.5t-18.5 45.5zM308 645q0 27 19 43.5t45 16.5q24 0 42 -16.5t18 -43.5q0 -29 -18 -45.5t-42 -16.5q-27 0 -45.5 16.5t-18.5 45.5zM446 77v-39q0 -16 -11 -27t-27 -11h-292
q-16 0 -27 11t-11 27v449q0 16 11 27t27 11h283q16 0 27 -11t11 -27v-39q0 -16 -11 -27t-27 -11h-199v-88h175q16 0 27 -11t11 -27v-39q0 -16 -11 -27t-27 -11h-175v-92h208q16 0 27 -11t11 -27zM260 676q-19 0 -34 16q-12 15 -12 32q0 15 11 28l83 88q9 10 22 10
q15 0 24 -11l31 -36q7 -7 7 -18q0 -16 -12 -25l-96 -76q-11 -8 -24 -8z" />
    <glyph glyph-name="afii10017.var.accented" unicode="&#x410;`" horiz-adv-x="706"
d="M499 179h-299l-62 -151q-10 -28 -41 -28h-36q-17 0 -28 11.5t-11 27.5q0 7 3 14l262 621q12 28 42 28h48q30 0 42 -28l262 -621q3 -7 3 -14q0 -16 -11 -27.5t-28 -11.5h-43q-31 0 -41 28zM350 543l-103 -249h205zM301 817l148 77q7 4 16 4q22 0 32 -21l13 -31q3 -6 3 -14
q0 -24 -23 -32l-155 -57q-4 -2 -13 -2q-27 0 -38 25q-4 7 -4 17q0 24 21 34z" />
    <glyph glyph-name="afii10022.var.accented" unicode="&#x415;`" horiz-adv-x="575"
d="M512 78v-41q0 -15 -11 -26t-26 -11h-341q-15 0 -26 11t-11 26v626q0 15 11 26t26 11h331q15 0 26 -11t11 -26v-41q0 -15 -11 -26t-26 -11h-245v-174h215q15 0 26 -11t11 -26v-41q0 -15 -11 -26t-26 -11h-215v-181h255q15 0 26 -11t11 -26zM265 817l148 77q7 4 16 4
q22 0 32 -21l13 -31q3 -6 3 -14q0 -24 -23 -32l-155 -57q-4 -2 -13 -2q-27 0 -38 25q-4 7 -4 17q0 24 21 34z" />
    <glyph glyph-name="afii10026.var.accented" unicode="&#x418;`" horiz-adv-x="792"
d="M658 0h-49q-15 0 -26 11t-11 26v460l-349 -473q-19 -24 -44 -24h-45q-15 0 -26 11t-11 26v626q0 15 11 26t26 11h49q15 0 26 -11t11 -26v-461l349 473q18 25 44 25h45q15 0 26 -11t11 -26v-626q0 -15 -11 -26t-26 -11zM355 817l148 77q7 4 16 4q22 0 32 -21l13 -31
q3 -6 3 -14q0 -24 -23 -32l-155 -57q-4 -2 -13 -2q-27 0 -38 25q-4 7 -4 17q0 24 21 34z" />
    <glyph glyph-name="afii10032.var.accented" unicode="&#x41e;`" horiz-adv-x="819"
d="M45 350q0 154 102.5 257.5t261.5 103.5q158 0 261.5 -100t103.5 -261q0 -157 -104 -259t-261 -102q-158 0 -261 100t-103 261zM175 350q0 -105 67.5 -175.5t166.5 -70.5q108 0 171.5 70t63.5 176q0 108 -67.5 177t-167.5 69q-101 0 -167.5 -69t-66.5 -177zM365 817
l148 77q7 4 16 4q22 0 32 -21l13 -31q3 -6 3 -14q0 -24 -23 -32l-155 -57q-4 -2 -13 -2q-27 0 -38 25q-4 7 -4 17q0 24 21 34z" />
    <glyph glyph-name="afii10037.var.accented" unicode="&#x423;`" horiz-adv-x="676"
d="M160 674l214 -365l155 363q12 28 42 28h36q16 0 27 -11.5t11 -26.5q0 -8 -3 -15l-215 -484q-37 -83 -82 -123t-108 -40q-33 0 -63 11q-24 9 -24 31q0 6 3 15l13 36q10 26 33 26q11 0 18 -2q12 -2 19 -2q46 0 69 49l10 24l-279 463q-5 10 -5 17q0 13 9.5 22.5t23.5 9.5h51
q30 0 45 -26zM307 817l148 77q7 4 16 4q22 0 32 -21l13 -31q3 -6 3 -14q0 -24 -23 -32l-155 -57q-4 -2 -13 -2q-27 0 -38 25q-4 7 -4 17q0 24 21 34z" />
    <glyph glyph-name="afii10045.var.accented" unicode="&#x42b;`" horiz-adv-x="864"
d="M767 663v-626q0 -15 -11 -26t-26 -11h-48q-15 0 -26 11t-11 26v626q0 15 11 26t26 11h48q15 0 26 -11t11 -26zM220 345v-229l66 -3q138 0 138 123q0 56 -35.5 85t-100.5 29q-21 0 -68 -5zM97 37v626q0 15 11 26t26 11h49q15 0 26 -11t11 -26v-203q39 5 78 5
q127 0 191.5 -60t64.5 -166q0 -112 -75 -176.5t-208 -64.5q-59 0 -137 2q-16 0 -26.5 11t-10.5 26zM370 817l148 77q7 4 16 4q22 0 32 -21l13 -31q3 -6 3 -14q0 -24 -23 -32l-155 -57q-4 -2 -13 -2q-27 0 -38 25q-4 7 -4 17q0 24 21 34z" />
    <glyph glyph-name="afii10047.var.accented" unicode="&#x42d;`" horiz-adv-x="668"
d="M85 150q10 0 24 -7q70 -39 146 -39q94 0 160.5 50.5t81.5 144.5h-278q-15 0 -26 11t-11 26v41q0 15 11 26t26 11h275q-18 87 -85 134.5t-167 47.5q-66 0 -124 -35q-12 -6 -23 -6q-21 0 -31 16l-22 31q-6 9 -6 20q0 19 17 31q86 58 211 58q161 0 260 -98.5t99 -261.5
q0 -165 -99 -263.5t-267 -98.5q-65 0 -115 11.5t-99 44.5q-17 12 -17 32q0 8 5 18l23 37q10 18 31 18zM230 817l148 77q7 4 16 4q22 0 32 -21l13 -31q3 -6 3 -14q0 -24 -23 -32l-155 -57q-4 -2 -13 -2q-27 0 -38 25q-4 7 -4 17q0 24 21 34z" />
    <glyph glyph-name="afii10048.var.accented" unicode="&#x42e;`" horiz-adv-x="1081"
d="M220 299v-262q0 -15 -11 -26t-26 -11h-49q-15 0 -26 11t-11 26v626q0 15 11 26t26 11h49q15 0 26 -11t11 -26v-249h119q20 131 112.5 214t229.5 83q157 0 256 -99.5t99 -261.5q0 -158 -99.5 -259.5t-255.5 -101.5q-135 0 -231.5 85t-112.5 225h-117zM464 350
q0 -104 64 -175t157 -71q106 0 163.5 69t57.5 177q0 109 -61 177.5t-160 68.5q-95 0 -158 -69t-63 -177zM515 817l148 77q7 4 16 4q22 0 32 -21l13 -31q3 -6 3 -14q0 -24 -23 -32l-155 -57q-4 -2 -13 -2q-27 0 -38 25q-4 7 -4 17q0 24 21 34z" />
    <glyph glyph-name="afii10049.var.accented" unicode="&#x42f;`" horiz-adv-x="624"
d="M527 663v-626q0 -15 -11 -26t-26 -11h-48q-15 0 -26 11t-11 26v205h-101l-140 -216q-16 -26 -47 -26h-41q-15 0 -25.5 10.5t-10.5 25.5q0 11 6 20l142 211q-54 27 -88.5 76.5t-34.5 117.5q0 105 72 173.5t216 68.5q5 0 137 -3q16 0 26.5 -10.5t10.5 -26.5zM405 357v228
q-51 3 -77 3q-60 0 -96.5 -33t-36.5 -86q0 -45 28.5 -74.5t69.5 -37.5h112zM305 817l148 77q7 4 16 4q22 0 32 -21l13 -31q3 -6 3 -14q0 -24 -23 -32l-155 -57q-4 -2 -13 -2q-27 0 -38 25q-4 7 -4 17q0 24 21 34z" />
    <glyph glyph-name="afii10023.var.accented" unicode="&#x401;`" horiz-adv-x="575"
d="M97 824q0 29 17 46t42 17q22 0 38.5 -17.5t16.5 -45.5q0 -31 -16.5 -49t-38.5 -18q-26 0 -42.5 18t-16.5 49zM399 824q0 28 17.5 45.5t42.5 17.5q22 0 38 -17.5t16 -45.5q0 -31 -16 -49t-38 -18q-25 0 -42.5 18t-17.5 49zM243 792l43 86q14 26 37 26q9 0 14 -2l14 -5
q21 -6 21 -31q0 -14 -10 -24l-69 -75q-14 -16 -28 -16q-12 0 -19 7t-7 18q0 9 4 16zM512 78v-41q0 -15 -11 -26t-26 -11h-341q-15 0 -26 11t-11 26v626q0 15 11 26t26 11h331q15 0 26 -11t11 -26v-41q0 -15 -11 -26t-26 -11h-245v-174h215q15 0 26 -11t11 -26v-41
q0 -15 -11 -26t-26 -11h-215v-181h255q15 0 26 -11t11 -26z" />
    <glyph glyph-name="afii10065.var.accented" unicode="&#x430;`" horiz-adv-x="463"
d="M176 -6q-63 0 -102 37t-39 101q0 71 46 108.5t118 37.5q62 0 102 -29v14q0 52 -19 77t-65 25q-41 0 -77 -12q-9 -3 -18 -3q-24 0 -34 21l-6 12q-4 10 -4 16q0 21 21 32q65 30 130 30q96 0 138 -47t42 -140v-237q0 -15 -11 -26t-26 -11h-26q-15 0 -26 11t-11 26v15
q-41 -58 -133 -58zM301 132v46q-29 22 -79 22q-31 0 -51.5 -14.5t-20.5 -41.5q0 -25 18 -39t46 -14q58 0 87 41zM197 600l61 95q11 17 32 17q13 0 23 -7l24 -18q15 -11 15 -31q0 -14 -9 -25l-72 -83q-13 -15 -34 -15q-14 0 -27 8q-19 13 -19 37q0 12 6 22z" />
    <glyph glyph-name="afii10070.var.accented" unicode="&#x435;`" horiz-adv-x="523"
d="M151 267h221v2q0 42 -27.5 69t-75.5 27q-98 0 -118 -98zM290 85q48 0 88 19q14 7 23 7q17 0 29 -17l9 -13q6 -9 6 -20q0 -20 -16 -30q-67 -42 -151 -42q-109 0 -175.5 65t-66.5 171q0 101 65 168.5t173 67.5q89 0 151 -58.5t62 -150.5q0 -18 -1 -26q-1 -13 -13.5 -24.5
t-25.5 -11.5h-292q7 -50 44 -77.5t91 -27.5zM224 600l61 95q11 17 32 17q13 0 23 -7l24 -18q15 -11 15 -31q0 -14 -9 -25l-72 -83q-14 -15 -34 -15q-14 0 -27 8q-19 13 -19 37q0 12 6 22z" />
    <glyph glyph-name="afii10074.var.accented" unicode="&#x438;`" horiz-adv-x="568"
d="M467 0h-41q-15 0 -26 11t-11 26v248l-192 -260q-18 -25 -48 -25h-48q-15 0 -26 11t-11 26v376q0 15 11 26t26 11h41q15 0 26 -11t11 -26v-248l192 260q18 25 48 25h48q15 0 26 -11t11 -26v-376q0 -15 -11 -26t-26 -11zM233 600l61 95q11 17 32 17q13 0 23 -7l24 -18
q15 -11 15 -31q0 -14 -9 -25l-72 -83q-13 -15 -34 -15q-14 0 -27 8q-19 13 -19 37q0 12 6 22z" />
    <glyph glyph-name="afii10080.var.accented" unicode="&#x43e;`" horiz-adv-x="562"
d="M281 -11q-110 0 -177.5 66.5t-67.5 169.5t67.5 169.5t177.5 66.5t177.5 -66.5t67.5 -169.5t-67.5 -169.5t-177.5 -66.5zM281 353q-52 0 -87 -35.5t-35 -92.5q0 -56 34.5 -92.5t87.5 -36.5q54 0 88.5 35.5t34.5 93.5q0 56 -35 92t-88 36zM238 600l61 95q11 17 32 17
q13 0 23 -7l24 -18q15 -11 15 -31q0 -14 -9 -25l-72 -83q-14 -15 -34 -15q-14 0 -27 8q-19 13 -19 37q0 12 6 22z" />
    <glyph glyph-name="afii10085.var.accented" unicode="&#x443;`" horiz-adv-x="495"
d="M243 204q6 -15 22 -65q8 44 16 66l69 210q12 35 49 35h29q18 0 31 -13t13 -31q0 -8 -3 -17l-153 -389q-47 -120 -84 -160t-90 -40q-38 0 -76 19q-18 9 -18 29q0 7 3 13l13 27q10 22 29 22q9 0 23 -3q4 -1 13 -1q41 0 69 70l10 24l-181 391q-4 10 -4 17q0 17 12 29.5
t30 12.5h43q30 0 42 -28zM204 600l61 95q11 17 32 17q13 0 23 -7l24 -18q15 -11 15 -31q0 -14 -9 -25l-72 -83q-14 -15 -34 -15q-14 0 -27 8q-19 13 -19 37q0 12 6 22z" />
    <glyph glyph-name="afii10093.var.accented" unicode="&#x44b;`" horiz-adv-x="676"
d="M179 327h56q106 0 152 -44t46 -112q0 -73 -50 -122t-157 -49h-125q-15 0 -26 11t-11 26v376q0 15 11 26t26 11h41q15 0 26 -11t11 -26v-86zM534 450h41q15 0 26 -11t11 -26v-376q0 -15 -11 -26t-26 -11h-41q-15 0 -26 11t-11 26v376q0 15 11 26t26 11zM179 235v-135h45
q87 0 87 67q0 68 -86 68h-46zM269 600l61 95q11 17 32 17q13 0 23 -7l24 -18q15 -11 15 -31q0 -14 -9 -25l-72 -83q-13 -15 -34 -15q-14 0 -27 8q-19 13 -19 37q0 12 6 22z" />
    <glyph glyph-name="afii10095.var.accented" unicode="&#x44d;`" horiz-adv-x="489"
d="M43 87l13 18q12 16 28 16q11 0 25 -7q48 -25 97 -25q52 0 85.5 25.5t42.5 74.5h-164q-15 0 -26 11.5t-11 27.5t11 27t26 11h163q-11 47 -46 71t-83 24t-100 -26q-10 -5 -19 -5q-22 0 -33 20l-9 14q-5 10 -5 19q0 21 17 32q77 46 153 46q111 0 178 -64t67 -172
q0 -102 -64.5 -169t-175.5 -67q-93 0 -162 48q-15 10 -15 28q0 12 7 22zM164 600l61 95q11 17 32 17q13 0 23 -7l24 -18q15 -11 15 -31q0 -14 -9 -25l-72 -83q-14 -15 -34 -15q-14 0 -27 8q-19 13 -19 37q0 12 6 22z" />
    <glyph glyph-name="afii10096.var.accented" unicode="&#x44e;`" horiz-adv-x="772"
d="M264 172h-78v-135q0 -15 -11 -26t-26 -11h-48q-15 0 -26 11t-11 26v376q0 15 11 26t26 11h48q15 0 26 -11t11 -26v-126h80q18 79 78.5 126.5t149.5 47.5q108 0 175 -66.5t67 -169.5q0 -102 -67.5 -169t-174.5 -67q-92 0 -153 50t-77 133zM497 346q-48 0 -78 -33t-30 -88
q0 -56 30 -88.5t78 -32.5q49 0 79 32.5t30 88.5t-29.5 88.5t-79.5 32.5zM346 600l61 95q11 17 32 17q13 0 23 -7l24 -18q15 -11 15 -31q0 -14 -9 -25l-72 -83q-14 -15 -34 -15q-14 0 -27 8q-19 13 -19 37q0 12 6 22z" />
    <glyph glyph-name="afii10097.var.accented" unicode="&#x44f;`" horiz-adv-x="485"
d="M119 0h-37q-14 0 -23 10t-9 23q0 10 6 19l81 108q-34 12 -60.5 45.5t-26.5 84.5q0 71 54.5 115.5t169.5 44.5h110q15 0 26 -11t11 -26v-376q0 -15 -11 -26t-26 -11h-41q-15 0 -26 11t-11 26v98h-64l-76 -110q-17 -25 -47 -25zM246 220h60v130h-51q-39 0 -60.5 -20
t-21.5 -48q0 -27 22.5 -44.5t50.5 -17.5zM220 600l61 95q11 17 32 17q13 0 23 -7l24 -18q15 -11 15 -31q0 -14 -9 -25l-72 -83q-14 -15 -34 -15q-14 0 -27 8q-19 13 -19 37q0 12 6 22z" />
    <glyph glyph-name="afii10071.var.accented" unicode="&#x451;`" horiz-adv-x="523"
d="M125 532q-23 0 -38 15t-15 41q0 24 15.5 38.5t37.5 14.5q20 0 35 -14.5t15 -38.5q0 -26 -15 -41t-35 -15zM414 532q-23 0 -38 15t-15 41q0 24 15.5 38.5t37.5 14.5q20 0 35 -14.5t15 -38.5q0 -26 -14.5 -41t-35.5 -15zM354 639l-82 -94q-12 -15 -32 -15q-10 0 -18 6
q-13 7 -13 28q0 12 6 22l68 107q7 13 23 13q9 0 17 -5l27 -21q11 -8 11 -22q0 -12 -7 -19zM151 267h221v2q0 42 -27.5 69t-75.5 27q-98 0 -118 -98zM274 461q89 0 151 -58.5t62 -150.5q0 -18 -1 -26q-1 -13 -13.5 -24.5t-25.5 -11.5h-292q7 -50 44 -77.5t91 -27.5
q48 0 88 19q9 5 20 5q22 0 38 -23q7 -10 7 -24q0 -21 -15 -30q-67 -43 -150 -43q-109 0 -175.5 65t-66.5 171q0 101 65 168.5t173 67.5z" />
    <glyph glyph-name="fi" unicode="fi" horiz-adv-x="530"
d="M184 450h256q15 0 26 -11t11 -26v-376q0 -15 -11 -26t-26 -11h-41q-15 0 -26 11t-11 26v305h-178v-305q0 -15 -11 -26t-26 -11h-41q-15 0 -26 11t-11 26v469q0 103 53.5 154t146.5 51q108 0 170 -64q9 -9 9 -23q0 -16 -12 -27l-26 -23q-13 -11 -25 -11q-14 0 -32 15
q-33 25 -76 25q-93 0 -93 -107v-46z" />
    <glyph glyph-name="fl" unicode="fl" horiz-adv-x="571"
d="M563 86l11 -21q4 -7 4 -15q0 -20 -24 -35q-45 -25 -110 -25q-110 0 -110 134v455q-34 24 -71 24q-79 0 -79 -89v-64h44q15 0 26 -11t11 -26v-34q0 -15 -11 -26t-26 -11h-44v-305q0 -15 -11 -26t-26 -11h-41q-15 0 -26 11t-11 26v486q0 92 42 140t118 48q71 0 118 -30h65
q15 0 26 -11t11 -26v-473q0 -73 39 -73q6 0 16 2q24 6 31 6q17 0 28 -20z" />
    <glyph glyph-name=".notdef" horiz-adv-x="212"
 />
    <glyph glyph-name=".null" horiz-adv-x="0"
 />
    <glyph glyph-name="nonmarkingreturn" horiz-adv-x="333"
 />
    <glyph glyph-name="space" unicode=" " horiz-adv-x="212"
 />
    <glyph glyph-name="exclam" unicode="!" horiz-adv-x="309"
d="M216 663v-384q0 -15 -11 -26t-26 -11h-48q-15 0 -26 11t-11 26v384q0 15 11 26t26 11h48q15 0 26 -11t11 -26zM78 75q0 28 22 51t58 23q31 0 52 -23t21 -51q0 -32 -21 -56t-52 -24q-36 0 -58 24t-22 56z" />
    <glyph glyph-name="quotedbl" unicode="&#x22;" horiz-adv-x="431"
d="M364 663v-167q0 -15 -11 -26t-26 -11h-41q-15 0 -26 11t-11 26v167q0 15 11 26t26 11h41q15 0 26 -11t11 -26zM182 663v-167q0 -15 -11 -26t-26 -11h-41q-15 0 -26 11t-11 26v167q0 15 11 26t26 11h41q15 0 26 -11t11 -26z" />
    <glyph glyph-name="numbersign" unicode="#" horiz-adv-x="724"
d="M472 180l-57 -156q-10 -25 -37 -25q-3 0 -11 2l-19 8q-24 8 -24 34q0 9 2 13l46 124h-153l-58 -156q-10 -25 -36 -25q-4 0 -12 2l-19 7q-24 8 -24 34q0 9 2 13l46 125h-41q-15 0 -26 11t-11 26v26q0 15 11 26t26 11h78l52 140h-130q-15 0 -26 11t-11 26v26q0 15 11 26
t26 11h168l58 156q10 25 37 25q3 0 11 -2l19 -8q24 -8 24 -34q0 -9 -2 -13l-46 -124h151l58 156q10 25 36 25q4 0 12 -2l19 -7q24 -8 24 -34q0 -9 -2 -13l-46 -125h49q15 0 26 -11t11 -26v-26q0 -15 -11 -26t-26 -11h-86l-52 -140h138q15 0 26 -11t11 -26v-26q0 -15 -11 -26
t-26 -11h-175zM256 280h153l51 140h-152z" />
    <glyph glyph-name="dollar" unicode="$" horiz-adv-x="581"
d="M73 118l31 34q12 14 27 14q13 0 24 -10q59 -52 136 -52q44 0 69 21.5t25 60.5q0 28 -17.5 49.5t-45.5 37t-61.5 30t-67.5 33t-62 41t-45.5 59t-17.5 82.5q0 67 45 119t120 68v48q0 15 11 26t26 11h41q15 0 26 -11t11 -26v-46q70 -12 118 -46q17 -12 17 -32q0 -13 -8 -22
l-24 -31q-13 -16 -29 -16q-11 0 -22 8q-40 28 -96 28q-52 0 -79 -20.5t-27 -56.5q0 -34 23.5 -59t58.5 -39.5t76.5 -34.5t76.5 -41.5t58.5 -62t23.5 -95.5q0 -74 -46 -125.5t-121 -66.5v-58q0 -15 -11 -26t-26 -11h-41q-15 0 -26 11t-11 26v57q-109 18 -157 79
q-10 13 -10 26q0 11 7 19z" />
    <glyph glyph-name="percent" unicode="%" horiz-adv-x="910"
d="M718 633l-460 -615q-12 -15 -31 -15q-13 0 -21 7l-6 4q-15 10 -15 29q0 13 7 21l461 618q11 14 28 14q13 0 27 -9q17 -14 17 -33q0 -13 -7 -21zM234 352q-86 0 -141.5 49.5t-55.5 129.5t55.5 129t141.5 49t141.5 -49t55.5 -129t-55.5 -129.5t-141.5 -49.5zM234 616
q-38 0 -63.5 -23.5t-25.5 -61.5q0 -39 25.5 -62.5t63.5 -23.5q40 0 65 23.5t25 62.5q0 38 -25.5 61.5t-64.5 23.5zM676 -10q-86 0 -141.5 49.5t-55.5 129.5t55.5 129t141.5 49t141.5 -49t55.5 -129t-55.5 -129.5t-141.5 -49.5zM676 254q-38 0 -63.5 -23.5t-25.5 -61.5
q0 -39 25.5 -62.5t63.5 -23.5q40 0 65 23.5t25 62.5q0 38 -25.5 61.5t-64.5 23.5z" />
    <glyph glyph-name="ampersand" unicode="&#x26;" horiz-adv-x="733"
d="M673 415v-2q-11 -151 -91 -258l80 -102q7 -8 7 -20q0 -13 -9.5 -23t-23.5 -10h-48q-31 0 -47 22l-38 51q-76 -84 -208 -84q-105 0 -170 56.5t-65 144.5q0 79 39.5 130.5t115.5 104.5q-80 38 -80 134q0 69 49 110.5t117 41.5t117 -41.5t49 -110.5q0 -46 -26.5 -84.5
t-63.5 -50.5l136 -177q38 73 46 166q1 16 12 26.5t27 10.5h40q14 0 24.5 -11t10.5 -24zM433 164l-143 195q-53 -43 -76.5 -75.5t-23.5 -70.5q0 -46 31.5 -77.5t77.5 -31.5q89 0 134 60zM242 559q0 -24 17 -41t42 -17t42 17t17 41q0 25 -17.5 42t-41.5 17q-25 0 -42 -17
t-17 -42z" />
    <glyph glyph-name="quotesingle" unicode="'" horiz-adv-x="249"
d="M182 663v-167q0 -15 -11 -26t-26 -11h-41q-15 0 -26 11t-11 26v167q0 15 11 26t26 11h41q15 0 26 -11t11 -26z" />
    <glyph glyph-name="parenleft" unicode="(" horiz-adv-x="312"
d="M298 591q0 -13 -9 -25q-134 -146 -134 -341q0 -97 36 -186t98 -156q10 -10 10 -24q0 -17 -13 -27l-17 -15q-11 -9 -26 -9q-17 0 -28 11q-175 167 -175 406q0 231 176 406q11 11 27 11q15 0 27 -10l16 -14q12 -12 12 -27z" />
    <glyph glyph-name="parenright" unicode=")" horiz-adv-x="312"
d="M69 642q16 0 27 -11q176 -175 176 -406q0 -239 -175 -406q-11 -11 -28 -11q-15 0 -26 9l-17 15q-13 10 -13 27q0 14 10 24q62 67 98 156t36 186q0 195 -134 341q-9 10 -9 24q0 16 12 28l16 14q12 10 27 10z" />
    <glyph glyph-name="asterisk" unicode="*" horiz-adv-x="540"
d="M272 565q-31 0 -52 21t-21 52q0 30 21.5 51t51.5 21q29 0 50.5 -21.5t21.5 -50.5q0 -30 -21 -51.5t-51 -21.5zM269 261q-30 0 -51 21t-21 50q0 30 21 52t51 22q29 0 50.5 -22t21.5 -52q0 -29 -21.5 -50t-50.5 -21zM412 496q-30 0 -51.5 21t-21.5 51q0 29 22 51t51 22
q30 0 51.5 -22t21.5 -51q0 -30 -21.5 -51t-51.5 -21zM412 334q-29 0 -51 21t-22 50q0 30 22 52t51 22q30 0 51.5 -22t21.5 -52q0 -29 -21.5 -50t-51.5 -21zM127 334q-29 0 -50.5 21t-21.5 50q0 30 21.5 52t50.5 22q31 0 52.5 -22t21.5 -52q0 -29 -21.5 -50t-52.5 -21z
M127 496q-29 0 -50.5 21t-21.5 51q0 29 21.5 51t50.5 22q31 0 52.5 -21.5t21.5 -51.5t-21.5 -51t-52.5 -21z" />
    <glyph glyph-name="plus" unicode="+"
d="M243 164v146h-140q-15 0 -26 11t-11 26v26q0 15 11 26t26 11h140v144q0 15 11 26t26 11h34q15 0 26 -11t11 -26v-144h142q15 0 26 -11t11 -26v-26q0 -15 -11 -26t-26 -11h-142v-146q0 -15 -11 -26t-26 -11h-34q-15 0 -26 11t-11 26z" />
    <glyph glyph-name="comma" unicode="," horiz-adv-x="259"
d="M126 -1q0 3 -2 9q-6 -8 -26 -8t-35.5 18.5t-15.5 45.5q0 32 20.5 52.5t56.5 20.5q40 0 64 -31.5t24 -80.5q0 -101 -98 -159q-8 -4 -14 -4q-19 0 -29 16q-4 7 -4 16q0 18 15 28q23 18 33 40q11 22 11 37z" />
    <glyph glyph-name="hyphen" unicode="-" horiz-adv-x="376"
d="M314 290v-33q0 -15 -11 -26t-26 -11h-178q-15 0 -26 11t-11 26v33q0 15 11 26t26 11h178q15 0 26 -11t11 -26z" />
    <glyph glyph-name="period" unicode="." horiz-adv-x="243"
d="M125 149q31 0 52 -23t21 -51q0 -32 -21 -56t-52 -24q-36 0 -58 24t-22 56q0 28 22 51t58 23z" />
    <glyph glyph-name="slash" unicode="/" horiz-adv-x="365"
d="M379 643l-304 -816q-10 -24 -35 -24q-9 0 -13 2l-19 7q-24 8 -24 35q0 9 2 13l304 816q8 24 35 24q9 0 13 -2l19 -7q24 -8 24 -35q0 -9 -2 -13z" />
    <glyph glyph-name="zero" unicode="0" horiz-adv-x="553"
d="M42 350q0 166 59 262t176 96q116 0 175 -96t59 -262q0 -167 -58 -262.5t-174 -95.5q-117 0 -177 96t-60 262zM165 350q0 -251 114 -251q59 0 84.5 59.5t25.5 191.5q0 131 -26 190.5t-86 59.5q-59 0 -85.5 -61t-26.5 -189z" />
    <glyph glyph-name="one" unicode="1" horiz-adv-x="385"
d="M165 538l-57 -43q-10 -7 -22 -7q-18 0 -30 13l-25 30q-8 10 -8 22q0 17 14 28l129 98q31 23 57 23h25q15 0 23.5 -10t8.5 -25v-630q0 -15 -11 -26t-26 -11h-41q-15 0 -26 11t-11 26v501z" />
    <glyph glyph-name="two" unicode="2" horiz-adv-x="519"
d="M472 70v-33q0 -15 -11 -26t-26 -11h-373q-15 0 -26 11t-11 26v21q0 29 34 61q54 51 91.5 90t82 93t67.5 105t23 95q0 43 -23 67t-66 24q-56 0 -94 -57q-12 -20 -34 -20q-9 0 -19 5l-27 14q-20 10 -20 33q0 8 4 15q35 66 82 95.5t121 29.5q94 0 146 -54t52 -129
q0 -55 -23 -114.5t-53 -103.5t-72.5 -90t-66 -67.5t-49.5 -42.5h254q15 0 26 -11t11 -26z" />
    <glyph glyph-name="three" unicode="3" horiz-adv-x="530"
d="M245 711q91 0 146 -48t55 -130q0 -119 -107 -167q64 -12 99 -58.5t35 -110.5q0 -95 -65 -151.5t-164 -56.5q-65 0 -111 19t-98 62q-13 10 -13 29q0 15 8 23l24 31q12 14 29 14q12 0 23 -8q73 -55 131 -55q54 0 83.5 27.5t29.5 69.5q0 48 -34.5 73.5t-95.5 25.5h-13
q-15 0 -26 11t-11 26v41q0 15 11.5 26t29.5 11q47 0 79.5 26t32.5 70q0 39 -22.5 62t-66.5 23q-51 0 -106 -43q-11 -8 -24 -8q-18 0 -30 14l-21 23q-9 9 -9 23q0 18 13 29q89 77 188 77z" />
    <glyph glyph-name="four" unicode="4" horiz-adv-x="563"
d="M448 162v-125q0 -15 -11 -26t-26 -11h-41q-15 0 -26 11t-11 26v125h-286q-15 0 -26 10.5t-11 23.5v20q0 25 23 64l230 387q20 33 53 33h41q14 0 23.5 -9.5t9.5 -22.5q0 -10 -5 -17l-223 -374h171v136q0 15 11 26t26 11h41q15 0 26 -11t11 -26v-136h53q15 0 26 -11t11 -26
v-41q0 -15 -11 -26t-26 -11h-53z" />
    <glyph glyph-name="five" unicode="5" horiz-adv-x="509"
d="M109 147q54 -43 116 -43q50 0 82.5 33t32.5 85q0 54 -40 89t-109 35q-34 0 -59 -4q-2 0 -4.5 -0.5t-3.5 -0.5q-19 0 -30 11t-11 29q0 1 0.5 4t0.5 4l33 274q2 16 14 26.5t28 10.5h257q15 0 26 -11t11 -26v-41q0 -15 -11 -26t-26 -11h-193l-20 -139q22 4 40 4
q95 0 157.5 -61t62.5 -162q0 -110 -69 -174t-172 -64q-99 0 -188 83q-11 11 -11 25q0 15 10 26l21 23q10 12 26 12q15 0 29 -11z" />
    <glyph glyph-name="six" unicode="6" horiz-adv-x="566"
d="M181 368q47 65 144 65q82 0 139 -60t57 -154q0 -105 -68 -167.5t-158 -62.5q-114 0 -182 75t-68 184q0 86 27.5 164t74 135.5t101.5 98t114 62.5q9 3 18 3q25 0 33 -20l11 -29q3 -7 3 -14q0 -25 -26 -35q-78 -32 -137.5 -95t-82.5 -150zM167 247q0 -62 34 -102.5
t95 -40.5q46 0 74.5 31.5t28.5 75.5q0 50 -29.5 82.5t-83.5 32.5q-43 0 -73 -23t-46 -56z" />
    <glyph glyph-name="seven" unicode="7" horiz-adv-x="494"
d="M179 0h-30q-16 0 -27.5 11.5t-11.5 26.5q0 8 3 15l214 532h-265q-15 0 -26 11t-11 26v41q0 15 11 26t26 11h370q15 0 26 -11t11 -27v-13q0 -16 -18 -62l-220 -551q-6 -16 -20.5 -26t-31.5 -10z" />
    <glyph glyph-name="eight" unicode="8" horiz-adv-x="599"
d="M310 417q39 0 64.5 27t25.5 63q0 42 -28 65.5t-74 23.5q-45 0 -72 -25t-27 -64q0 -36 26 -63t66 -27h19zM293 302q-46 0 -79.5 -27t-33.5 -72q0 -43 32 -71t87 -28q59 0 90 27t31 70v2q-1 47 -31.5 73t-78.5 26h-17zM299 711q95 0 159.5 -51.5t64.5 -132.5q0 -52 -29 -98
t-79 -68q54 -13 90.5 -58.5t36.5 -111.5q0 -94 -68.5 -148t-173.5 -54t-174 52.5t-69 139.5q0 65 33.5 112t86.5 67q-43 19 -71.5 63.5t-28.5 103.5q0 81 64 132.5t158 51.5z" />
    <glyph glyph-name="nine" unicode="9" horiz-adv-x="555"
d="M374 324q-46 -63 -133 -63q-89 0 -150 62t-61 155q0 105 71 169t161 64q115 0 181.5 -74t66.5 -193q0 -185 -90 -300.5t-248 -151.5q-3 -1 -8 -1q-30 0 -36 26l-7 25q-1 4 -1 10q0 27 27 36q99 33 153 89.5t74 146.5zM388 445q0 64 -33 107.5t-93 43.5q-47 0 -78.5 -33
t-31.5 -77q0 -48 32 -82.5t85 -34.5q83 0 119 76z" />
    <glyph glyph-name="colon" unicode=":" horiz-adv-x="318"
d="M162 461q31 0 52 -23t21 -51q0 -32 -21 -56t-52 -24q-36 0 -58 24t-22 56q0 28 22 51t58 23zM162 149q31 0 52 -23t21 -51q0 -32 -21 -56t-52 -24q-36 0 -58 24t-22 56q0 28 22 51t58 23z" />
    <glyph glyph-name="semicolon" unicode=";" horiz-adv-x="324"
d="M162 461q31 0 52 -23t21 -51q0 -32 -21 -56t-52 -24q-36 0 -58 24t-22 56q0 28 22 51t58 23zM162 -1q0 3 -2 9q-6 -8 -26 -8t-35.5 18.5t-15.5 45.5q0 32 20.5 52.5t56.5 20.5q40 0 64 -31.5t24 -80.5q0 -101 -98 -159q-8 -4 -14 -4q-19 0 -29 16q-4 7 -4 16q0 18 15 28
q23 18 33 40q11 22 11 37z" />
    <glyph glyph-name="less" unicode="&#x3c;" horiz-adv-x="600"
d="M71 397l395 228q10 5 17 5q14 0 24 -9.5t10 -24.5v-43q0 -21 -20 -33l-287 -158l287 -160q20 -12 20 -33v-44q0 -15 -10 -24.5t-24 -9.5q-7 0 -17 5l-395 230q-22 14 -22 36q0 21 22 35z" />
    <glyph glyph-name="equal" unicode="="
d="M530 468v-26q0 -15 -11 -26t-26 -11h-390q-15 0 -26 11t-11 26v26q0 15 11 26t26 11h390q15 0 26 -11t11 -26zM530 278v-26q0 -15 -11 -26t-26 -11h-390q-15 0 -26 11t-11 26v26q0 15 11 26t26 11h390q15 0 26 -11t11 -26z" />
    <glyph glyph-name="greater" unicode="&#x3e;" horiz-adv-x="599"
d="M133 625l395 -228q22 -14 22 -35q0 -22 -22 -36l-395 -230q-10 -5 -17 -5q-14 0 -24 9.5t-10 24.5v44q0 21 20 33l287 160l-287 158q-20 12 -20 33v43q0 15 10 24.5t24 9.5q7 0 17 -5z" />
    <glyph glyph-name="question" unicode="?" horiz-adv-x="465"
d="M220 218h-39q-13 0 -22 9.5t-9 25.5q0 32 12.5 58.5t31 42.5l40 33.5l40 32.5t31 38.5t12.5 51.5q0 36 -27 61t-67 25q-60 0 -98 -37q-11 -10 -24 -10q-15 0 -28 13l-23 23q-9 9 -9 21q0 15 14 31q69 74 175 74q97 0 153.5 -50.5t56.5 -125.5q0 -49 -16.5 -87t-41.5 -62
t-50.5 -43.5t-46.5 -41.5t-26 -46q-4 -21 -12 -29t-27 -8zM132 75q0 28 22 51t57 23q32 0 53 -23t21 -51q0 -32 -21 -56t-53 -24q-35 0 -57 24t-22 56z" />
    <glyph glyph-name="at" unicode="@" horiz-adv-x="995"
d="M57 225q0 186 129 313t322 127q186 0 308 -108.5t122 -283.5q0 -109 -59.5 -189t-164.5 -84h-80q-14 0 -24.5 10.5t-10.5 25.5q-50 -47 -124 -47q-101 0 -161 65t-60 171q0 100 73 168t185 68q92 0 175 -39q11 -5 19 -18t8 -25v-272h20q42 0 69.5 45.5t27.5 120.5
q0 120 -88.5 202.5t-234.5 82.5t-244.5 -91t-98.5 -242q0 -144 99.5 -238.5t243.5 -94.5q34 0 72 5q2 0 4 0.5t3 0.5q26 0 31 -27l7 -34q1 -4 1 -11q0 -27 -30 -33q-45 -9 -88 -9q-195 0 -323 124.5t-128 316.5zM599 143v188q-46 22 -88 22q-63 0 -98.5 -38.5t-35.5 -94.5
q0 -58 32.5 -91t86.5 -33q60 0 103 47z" />
    <glyph glyph-name="A" unicode="A" horiz-adv-x="706"
d="M499 179h-299l-62 -151q-10 -28 -41 -28h-36q-17 0 -28 11.5t-11 27.5q0 7 3 14l262 621q12 28 42 28h48q30 0 42 -28l262 -621q3 -7 3 -14q0 -16 -11 -27.5t-28 -11.5h-43q-31 0 -41 28zM350 543l-103 -249h205z" />
    <glyph glyph-name="B" unicode="B" horiz-adv-x="617"
d="M529 530q0 -112 -100 -160q55 -14 89 -56t34 -108q0 -104 -71.5 -157t-188.5 -53q-89 0 -158 3q-15 1 -26 12t-11 26v624q0 16 11 27t26 12q138 3 165 3q119 0 174.5 -47.5t55.5 -125.5zM220 301v-185q42 -5 81 -5q128 0 128 101q0 44 -32 66.5t-90 22.5h-87zM220 408h83
q46 0 75 23.5t29 69.5q0 42 -29.5 64.5t-80.5 22.5q-44 0 -77 -3v-177z" />
    <glyph glyph-name="C" unicode="C" horiz-adv-x="650"
d="M527 562q-66 34 -124 34q-99 0 -163.5 -67t-64.5 -179q0 -109 67.5 -177.5t174.5 -68.5q62 0 126 35q12 6 23 6q22 0 32 -17l18 -28q7 -10 7 -23q0 -19 -14 -28q-91 -60 -203 -60q-161 0 -261 99t-100 262q0 157 95 259t263 102q93 0 183 -50q20 -10 20 -29q0 -10 -6 -20
l-21 -37q-12 -19 -30 -19q-11 0 -22 6z" />
    <glyph glyph-name="D" unicode="D" horiz-adv-x="741"
d="M134 700q165 3 169 3q102 0 179 -27.5t123 -76.5t68.5 -109.5t22.5 -132.5q0 -156 -104.5 -257.5t-296.5 -101.5q-31 0 -161 2q-15 0 -26 11t-11 26v626q0 15 10.5 26t26.5 11zM220 585v-470q34 -2 79 -2q125 0 196 66t71 178q0 107 -70.5 169t-194.5 62q-39 0 -81 -3z
" />
    <glyph glyph-name="E" unicode="E" horiz-adv-x="575"
d="M512 78v-41q0 -15 -11 -26t-26 -11h-341q-15 0 -26 11t-11 26v626q0 15 11 26t26 11h331q15 0 26 -11t11 -26v-41q0 -15 -11 -26t-26 -11h-245v-174h215q15 0 26 -11t11 -26v-41q0 -15 -11 -26t-26 -11h-215v-181h255q15 0 26 -11t11 -26z" />
    <glyph glyph-name="F" unicode="F" horiz-adv-x="537"
d="M220 272v-235q0 -15 -11 -26t-26 -11h-49q-15 0 -26 11t-11 26v626q0 15 11 26t26 11h326q15 0 26 -11t11 -26v-41q0 -15 -11 -26t-26 -11h-240v-198h210q15 0 26 -11t11 -26v-41q0 -15 -11 -26t-26 -11h-210z" />
    <glyph glyph-name="G" unicode="G" horiz-adv-x="727"
d="M175 350q0 -111 65 -178.5t172 -67.5q40 0 82.5 14.5t62.5 33.5v110h-132q-15 0 -26 11t-11 26v41q0 15 11 26t26 11h210q15 0 26 -11t11 -26v-226q0 -30 -23 -47q-46 -36 -112.5 -57t-126.5 -21q-170 0 -267.5 98t-97.5 263q0 154 96 257.5t253 103.5q124 0 210 -53
q13 -8 13 -26q0 -10 -6 -21l-22 -36q-10 -17 -30 -17q-11 0 -23 6q-61 32 -127 32q-104 0 -169 -65.5t-65 -180.5z" />
    <glyph glyph-name="H" unicode="H" horiz-adv-x="759"
d="M662 663v-626q0 -15 -11 -26t-26 -11h-48q-15 0 -26 11t-11 26v262h-320v-262q0 -15 -11 -26t-26 -11h-49q-15 0 -26 11t-11 26v626q0 15 11 26t26 11h49q15 0 26 -11t11 -26v-249h320v249q0 15 11 26t26 11h48q15 0 26 -11t11 -26z" />
    <glyph glyph-name="I" unicode="I" horiz-adv-x="347"
d="M235 663v-626q0 -15 -11 -26t-26 -11h-49q-15 0 -26 11t-11 26v626q0 15 11 26t26 11h49q15 0 26 -11t11 -26z" />
    <glyph glyph-name="J" unicode="J" horiz-adv-x="389"
d="M169 186v477q0 15 11 26t26 11h49q15 0 26 -11t11 -26v-498q0 -85 -42.5 -130.5t-126.5 -45.5q-48 0 -93 19q-23 8 -23 32q0 8 3 15l12 34q7 23 33 23q5 0 15 -2q24 -6 36 -6q63 0 63 82z" />
    <glyph glyph-name="K" unicode="K" horiz-adv-x="664"
d="M220 361v-324q0 -15 -11 -26t-26 -11h-49q-15 0 -26 11t-11 26v626q0 15 11 26t26 11h49q15 0 26 -11t11 -26v-295l257 309q18 23 49 23h45q14 0 23 -10t9 -23q0 -14 -8 -22l-239 -271l259 -317q8 -9 8 -22q0 -14 -9.5 -24.5t-24.5 -10.5h-53q-30 0 -49 24z" />
    <glyph glyph-name="L" unicode="L" horiz-adv-x="547"
d="M535 78v-41q0 -15 -11 -26t-26 -11h-364q-15 0 -26 11t-11 26v626q0 15 11 26t26 11h49q15 0 26 -11t11 -26v-548h278q15 0 26 -11t11 -26z" />
    <glyph glyph-name="M" unicode="M" horiz-adv-x="901"
d="M220 503v-466q0 -15 -11 -26t-26 -11h-49q-15 0 -26 11t-11 26v626q0 15 11 26t26 11h57q30 0 48 -25l221 -302l211 302q17 25 47 25h49q15 0 26 -11t11 -26v-626q0 -15 -11 -26t-26 -11h-48q-15 0 -26 11t-11 26v469l-183 -257q-19 -27 -47 -27t-48 27z" />
    <glyph glyph-name="N" unicode="N" horiz-adv-x="792"
d="M617 700h41q15 0 26 -11t11 -26v-626q0 -15 -11 -26t-26 -11h-35q-26 0 -45 24l-366 461v-448q0 -15 -11 -26t-26 -11h-41q-15 0 -26 11t-11 26v626q0 15 11 26t26 11h35q26 0 45 -24l366 -463v450q0 15 11 26t26 11z" />
    <glyph glyph-name="O" unicode="O" horiz-adv-x="819"
d="M45 350q0 154 102.5 257.5t261.5 103.5q158 0 261.5 -100t103.5 -261q0 -157 -104 -259t-261 -102q-158 0 -261 100t-103 261zM175 350q0 -105 67.5 -175.5t166.5 -70.5q108 0 171.5 70t63.5 176q0 108 -67.5 177t-167.5 69q-101 0 -167.5 -69t-66.5 -177z" />
    <glyph glyph-name="P" unicode="P" horiz-adv-x="612"
d="M296 702q74 0 128.5 -18.5t84.5 -51t44 -71t14 -84.5q0 -95 -68 -161t-188 -66q-61 0 -91 3v-216q0 -15 -11 -26t-26 -11h-49q-15 0 -26 11t-11 26v626q0 15 10.5 26t26.5 11q100 2 162 2zM220 585v-215q48 -5 87 -5q58 0 94 28.5t36 84.5q0 109 -129 109q-22 0 -88 -2z
" />
    <glyph glyph-name="Q" unicode="Q" horiz-adv-x="819"
d="M632 -12l-40 45q-80 -44 -183 -44q-158 0 -261 100t-103 261q0 154 102.5 257.5t261.5 103.5q158 0 261.5 -100t103.5 -261q0 -149 -96 -250l37 -41q9 -11 9 -24q0 -17 -13 -28l-27 -23q-10 -9 -24 -9q-18 0 -28 13zM559 239l38 -45q47 66 47 156q0 108 -67.5 177
t-167.5 69q-101 0 -167.5 -69t-66.5 -177q0 -105 67.5 -175.5t166.5 -70.5q56 0 105 22l-35 41q-9 10 -9 25q0 18 12 28l26 22q10 9 24 9q16 0 27 -12z" />
    <glyph glyph-name="R" unicode="R" horiz-adv-x="650"
d="M481 25l-175 237h-86v-225q0 -15 -11 -26t-26 -11h-49q-15 0 -26 11t-11 26v626q0 15 10.5 26t26.5 11q120 2 176 2q254 0 254 -216q0 -81 -41 -131.5t-94 -68.5l174 -228q8 -9 8 -22q0 -15 -10.5 -25.5t-25.5 -10.5h-46q-30 0 -48 25zM220 377h80q57 0 95.5 28.5
t38.5 79.5q0 102 -130 102q-18 0 -84 -2v-208z" />
    <glyph glyph-name="S" unicode="S" horiz-adv-x="544"
d="M54 125l33 35q11 11 25 11q15 0 28 -11q68 -56 127 -56q45 0 73.5 21.5t28.5 60.5q0 28 -17.5 49.5t-45.5 37t-61.5 30t-67.5 33t-62 41t-45.5 59t-17.5 82.5q0 82 59.5 137.5t158.5 55.5q91 0 167 -43q18 -10 18 -32q0 -9 -5 -17l-19 -33q-12 -20 -33 -20q-10 0 -18 4
q-53 26 -100 26q-45 0 -71.5 -21t-26.5 -56q0 -34 23.5 -59t58.5 -39.5t76.5 -34.5t76.5 -41.5t58.5 -62t23.5 -95.5q0 -87 -67 -142.5t-167 -55.5q-115 0 -207 85q-13 11 -13 29q0 13 9 22z" />
    <glyph glyph-name="T" unicode="T" horiz-adv-x="597"
d="M323 0h-49q-15 0 -26 11t-11 26v548h-190q-15 0 -26 11t-11 26v41q0 15 11 26t26 11h503q15 0 26 -11t11 -26v-41q0 -15 -11 -26t-26 -11h-190v-548q0 -15 -11 -26t-26 -11z" />
    <glyph glyph-name="U" unicode="U" horiz-adv-x="750"
d="M541 315v348q0 15 11 26t26 11h48q15 0 26 -11t11 -26v-373q0 -151 -79 -226t-199 -75q-135 0 -216.5 79.5t-81.5 228.5v366q0 15 11 26t26 11h49q15 0 26 -11t11 -26v-340q0 -102 43.5 -160.5t131.5 -58.5q156 0 156 211z" />
    <glyph glyph-name="V" unicode="V" horiz-adv-x="650"
d="M136 672l197 -491l188 491q12 28 41 28h35q17 0 28.5 -12t11.5 -27q0 -6 -3 -14l-248 -621q-10 -28 -41 -28h-33q-30 0 -42 28l-254 621q-3 7 -3 15q0 15 11.5 26.5t27.5 11.5h43q31 0 41 -28z" />
    <glyph glyph-name="W" unicode="W" horiz-adv-x="980"
d="M719 200l130 465q11 35 47 35h28q40 0 40 -37q0 -7 -3 -18l-174 -610q-11 -35 -47 -35h-41q-37 0 -49 35l-157 471l-155 -471q-4 -16 -17.5 -25.5t-30.5 -9.5h-42q-16 0 -29.5 10t-18.5 25l-182 610q-2 10 -2 14q0 17 11 29t28 12h48q16 0 29 -10t18 -25l131 -464
l145 464q5 15 18.5 25t29.5 10h48q17 0 30.5 -9.5t17.5 -25.5z" />
    <glyph glyph-name="X" unicode="X" horiz-adv-x="655"
d="M175 675l155 -228l152 228q17 25 47 25h47q15 0 25 -10.5t10 -25.5q0 -10 -6 -19l-198 -288l207 -302q6 -9 6 -19q0 -15 -10 -25.5t-25 -10.5h-47q-30 0 -47 25l-164 238l-163 -238q-17 -25 -47 -25h-47q-15 0 -25 10.5t-10 25.5q0 10 6 19l207 302l-196 288q-6 9 -6 20
q0 14 10 24.5t25 10.5h47q30 0 47 -25z" />
    <glyph glyph-name="Y" unicode="Y" horiz-adv-x="616"
d="M155 674l158 -267l157 267q15 26 45 26h36q16 0 26.5 -11.5t10.5 -26.5q0 -12 -5 -19l-214 -351v-255q0 -15 -11 -26t-26 -11h-49q-15 0 -26 11t-11 26v255l-212 351q-6 9 -6 20q0 15 11 26t27 11h43q30 0 46 -26z" />
    <glyph glyph-name="Z" unicode="Z" horiz-adv-x="637"
d="M25 37v17q0 15 29 54l358 477h-340q-15 0 -26 11t-11 26v41q0 15 11 26t26 11h468q15 0 26 -11t11 -26v-18q0 -18 -29 -54l-359 -476h371q15 0 26 -11t11 -26v-41q0 -15 -11 -26t-26 -11h-498q-15 0 -26 11t-11 26z" />
    <glyph glyph-name="bracketleft" unicode="[" horiz-adv-x="350"
d="M335 -130v-33q0 -15 -11 -26t-26 -11h-201q-15 0 -26 11t-11 26v776q0 15 11 26t26 11h201q15 0 26 -11t11 -26v-34q0 -15 -11 -26t-26 -11h-123v-635h123q15 0 26 -11t11 -26z" />
    <glyph glyph-name="backslash" unicode="\" horiz-adv-x="365"
d="M289 -173l-303 816q-2 5 -2 13q0 27 23 35l20 7q4 2 12 2q27 0 35 -23l305 -818q2 -4 2 -12q0 -27 -24 -35l-20 -7q-4 -2 -13 -2q-27 0 -35 24z" />
    <glyph glyph-name="bracketright" unicode="]" horiz-adv-x="350"
d="M15 579v34q0 15 11 26t26 11h201q15 0 26 -11t11 -26v-776q0 -15 -11 -26t-26 -11h-201q-15 0 -26 11t-11 26v33q0 15 11 26t26 11h123v635h-123q-15 0 -26 11t-11 26z" />
    <glyph glyph-name="asciicircum" unicode="^" horiz-adv-x="507"
d="M254 593l-84 -121q-17 -22 -43 -22h-27q-15 0 -25.5 10.5t-10.5 25.5q0 11 7 21l128 179q17 22 43 22h25q26 0 43 -22l126 -179q7 -10 7 -21q0 -15 -10.5 -25.5t-25.5 -10.5h-28q-27 0 -42 22z" />
    <glyph glyph-name="underscore" unicode="_" horiz-adv-x="344"
d="M344 -122v-41q0 -15 -11 -26t-26 -11h-270q-15 0 -26 11t-11 26v41q0 15 11 26t26 11h270q15 0 26 -11t11 -26z" />
    <glyph glyph-name="grave" unicode="`" horiz-adv-x="315"
d="M173 693l60 -93q6 -10 6 -23q0 -24 -18 -36q-11 -8 -26 -8q-23 0 -36 15l-71 81q-10 10 -10 26q0 19 15 30l25 18q11 8 23 8q21 0 32 -18z" />
    <glyph glyph-name="a" unicode="a" horiz-adv-x="463"
d="M176 -6q-63 0 -102 37t-39 101q0 71 46 108.5t118 37.5q62 0 102 -29v14q0 52 -19 77t-65 25q-41 0 -77 -12q-9 -3 -18 -3q-24 0 -34 21l-6 12q-4 10 -4 16q0 21 21 32q65 30 130 30q96 0 138 -47t42 -140v-237q0 -15 -11 -26t-26 -11h-26q-15 0 -26 11t-11 26v15
q-41 -58 -133 -58zM301 132v46q-29 22 -79 22q-31 0 -51.5 -14.5t-20.5 -41.5q0 -25 18 -39t46 -14q58 0 87 41z" />
    <glyph glyph-name="b" unicode="b" horiz-adv-x="548"
d="M179 663v-241q50 39 119 39q99 0 156.5 -63.5t57.5 -165.5q0 -111 -69.5 -177t-187.5 -66q-87 0 -164 36q-11 5 -19 17.5t-8 24.5v596q0 15 11 26t26 11h41q15 0 26 -11t11 -26zM179 310v-191q36 -23 82 -23q56 0 92 34.5t36 93.5q0 62 -33.5 95.5t-84.5 33.5
q-55 0 -92 -43z" />
    <glyph glyph-name="c" unicode="c" horiz-adv-x="491"
d="M382 331q-9 0 -18 4q-37 18 -80 18q-50 0 -87.5 -35.5t-37.5 -92.5q0 -58 38.5 -93.5t91.5 -35.5q47 0 87 26q13 8 24 8q19 0 31 -15l17 -21q7 -7 7 -20q0 -21 -14 -32q-67 -53 -158 -53q-112 0 -179.5 64.5t-67.5 171.5q0 100 66 168t167 68q86 0 148 -34q18 -10 18 -33
q0 -9 -4 -16l-15 -26q-13 -21 -34 -21z" />
    <glyph glyph-name="d" unicode="d" horiz-adv-x="556"
d="M414 700h41q15 0 26 -11t11 -26v-626q0 -15 -11 -26t-26 -11h-41q-15 0 -26 11t-11 26v10q-52 -55 -129 -55q-96 0 -154 62.5t-58 165.5q0 106 69 173.5t178 67.5q57 0 94 -22v224q0 15 11 26t26 11zM377 145v181q-43 27 -89 27q-54 0 -91.5 -34.5t-37.5 -94.5
q0 -58 32.5 -91.5t80.5 -33.5q59 0 105 46z" />
    <glyph glyph-name="e" unicode="e" horiz-adv-x="523"
d="M151 267h221v2q0 42 -27.5 69t-75.5 27q-98 0 -118 -98zM290 85q48 0 88 19q14 7 23 7q17 0 29 -17l9 -13q6 -9 6 -20q0 -20 -16 -30q-67 -42 -151 -42q-109 0 -175.5 65t-66.5 171q0 101 65 168.5t173 67.5q89 0 151 -58.5t62 -150.5q0 -18 -1 -26q-1 -13 -13.5 -24.5
t-25.5 -11.5h-292q7 -50 44 -77.5t91 -27.5z" />
    <glyph glyph-name="f" unicode="f" horiz-adv-x="329"
d="M269 342h-85v-305q0 -15 -11 -26t-26 -11h-41q-15 0 -26 11t-11 26v486q0 92 42 140t118 48q56 0 99 -23q19 -10 19 -32q0 -9 -5 -17l-9 -16q-14 -25 -41 -25q-5 0 -15 2q-14 3 -27 3q-66 0 -66 -89v-64h85q15 0 26 -11t11 -26v-34q0 -15 -11 -26t-26 -11z" />
    <glyph glyph-name="g" unicode="g" horiz-adv-x="507"
d="M234 126q-6 -6 -6 -17q0 -14 9 -23q105 0 170.5 -37t65.5 -110t-65 -110t-169 -37q-105 0 -169.5 36.5t-64.5 110.5q0 54 39.5 89.5t106.5 49.5q-8 14 -8 31q0 19 10 32q-50 20 -78.5 60.5t-28.5 90.5q0 70 53 119.5t139 49.5q65 0 115 -32l100 22q3 1 8 1q13 0 23.5 -8
t13.5 -21l3 -16q1 -3 1 -9q0 -30 -28 -35l-56 -13q11 -28 11 -58q0 -70 -53.5 -118t-141.5 -48zM239 -6q-60 0 -93.5 -15t-33.5 -40q0 -26 34 -40.5t93 -14.5q126 0 126 55q0 25 -32.5 40t-93.5 15zM238 368q-38 0 -61 -22t-23 -54t23 -52.5t61 -20.5q37 0 60.5 20t23.5 53
t-22.5 54.5t-61.5 21.5z" />
    <glyph glyph-name="h" unicode="h" horiz-adv-x="546"
d="M378 246q0 50 -26 77t-74 27q-58 0 -99 -41v-272q0 -15 -11 -26t-26 -11h-41q-15 0 -26 11t-11 26v626q0 15 11 26t26 11h41q15 0 26 -11t11 -26v-254q51 49 129 49q87 0 136 -47.5t49 -149.5v-224q0 -15 -11 -26t-26 -11h-41q-15 0 -26 11t-11 26v209z" />
    <glyph glyph-name="i" unicode="i" horiz-adv-x="277"
d="M118 450h41q15 0 26 -11t11 -26v-376q0 -15 -11 -26t-26 -11h-41q-15 0 -26 11t-11 26v376q0 15 11 26t26 11zM141 679q26 0 46 -18.5t20 -48.5q0 -33 -20 -52.5t-46 -19.5q-31 0 -51.5 19.5t-20.5 52.5q0 30 21 48.5t51 18.5z" />
    <glyph glyph-name="j" unicode="j" horiz-adv-x="292"
d="M26 -100q5 -1 15 -1q54 0 54 78v436q0 15 11 26t26 11h41q15 0 26 -11t11 -26v-446q0 -175 -141 -175q-49 0 -93 19q-18 7 -18 26q0 9 2 13l11 30q9 23 29 23q4 0 13.5 -1.5t12.5 -1.5zM156 679q26 0 46 -18.5t20 -48.5q0 -33 -20 -52.5t-46 -19.5q-31 0 -51.5 19.5
t-20.5 52.5q0 30 21 48.5t51 18.5z" />
    <glyph glyph-name="k" unicode="k" horiz-adv-x="507"
d="M341 24l-138 182q-10 13 -10 29t10 29l121 162q19 24 48 24h42q15 0 24.5 -10.5t9.5 -24.5q0 -13 -8 -22l-122 -149l144 -186q8 -11 8 -22q0 -15 -10.5 -25.5t-25.5 -10.5h-45q-30 0 -48 24zM101 700h41q15 0 26 -11t11 -26v-626q0 -15 -11 -26t-26 -11h-41q-15 0 -26 11
t-11 26v626q0 15 11 26t26 11z" />
    <glyph glyph-name="l" unicode="l" horiz-adv-x="300"
d="M64 124v539q0 15 11 26t26 11h41q15 0 26 -11t11 -26v-492q0 -73 39 -73q6 0 16 2q24 6 31 6q17 0 28 -20l11 -21q4 -7 4 -15q0 -20 -24 -35q-45 -25 -110 -25q-110 0 -110 134z" />
    <glyph glyph-name="m" unicode="m" horiz-adv-x="800"
d="M179 413v-13q52 58 141 58q50 0 84 -20t47 -52q55 72 152 72q144 0 144 -164v-257q0 -15 -11 -26t-26 -11h-41q-15 0 -26 11t-11 26v227q0 86 -77 86q-66 0 -93 -52q0 -3 0.5 -15.5t0.5 -17.5v-228q0 -15 -11 -26t-26 -11h-41q-15 0 -26 11t-11 26v235q0 36 -19.5 57
t-55.5 21q-62 0 -94 -48v-265q0 -15 -11 -26t-26 -11h-41q-15 0 -26 11t-11 26v376q0 15 11 26t26 11h41q15 0 26 -11t11 -26z" />
    <glyph glyph-name="n" unicode="n" horiz-adv-x="546"
d="M378 244q0 106 -101 106q-55 0 -98 -43v-270q0 -15 -11 -26t-26 -11h-41q-15 0 -26 11t-11 26v376q0 15 11 26t26 11h41q15 0 26 -11.5t11 -29.5q53 49 129 49q185 0 185 -194v-227q0 -15 -11 -26t-26 -11h-41q-15 0 -26 11t-11 26v207z" />
    <glyph glyph-name="o" unicode="o" horiz-adv-x="562"
d="M281 -11q-110 0 -177.5 66.5t-67.5 169.5t67.5 169.5t177.5 66.5t177.5 -66.5t67.5 -169.5t-67.5 -169.5t-177.5 -66.5zM281 353q-52 0 -87 -35.5t-35 -92.5q0 -56 34.5 -92.5t87.5 -36.5q54 0 88.5 35.5t34.5 93.5q0 56 -35 92t-88 36z" />
    <glyph glyph-name="p" unicode="p" horiz-adv-x="558"
d="M522 232q0 -105 -66 -174t-172 -69q-67 0 -105 22v-174q0 -15 -11 -26t-26 -11h-41q-15 0 -26 11t-11 26v576q0 15 11 26t26 11h41q15 0 26 -11.5t11 -28.5q22 22 60 36.5t79 14.5q92 0 148 -64t56 -165zM179 304v-182q40 -26 95 -26q58 0 92 37.5t34 95.5q0 55 -31 89.5
t-87 34.5q-59 0 -103 -49z" />
    <glyph glyph-name="q" unicode="q" horiz-adv-x="559"
d="M294 461q92 0 175 -39q11 -5 19 -18t8 -25v-542q0 -15 -11 -26t-26 -11h-41q-15 0 -26 11t-11 26v186q-53 -34 -111 -34q-107 0 -170.5 64.5t-63.5 171.5q0 100 73 168t185 68zM381 137v194q-46 22 -88 22q-63 0 -98.5 -38.5t-35.5 -94.5q0 -54 34.5 -89t91.5 -35
q58 0 96 41z" />
    <glyph glyph-name="r" unicode="r" horiz-adv-x="352"
d="M270 348q-10 2 -19 2q-48 0 -72 -48v-265q0 -15 -11 -26t-26 -11h-41q-15 0 -26 11t-11 26v376q0 15 11 26t26 11h41q15 0 26 -11.5t11 -28.5q40 48 103 48q22 0 39 -7q21 -8 21 -29q0 -8 -3 -14l-15 -32q-13 -29 -41 -29q-8 0 -13 1z" />
    <glyph glyph-name="s" unicode="s" horiz-adv-x="437"
d="M45 97l15 19q10 13 24 13t30 -11q50 -33 111 -33q26 0 42.5 11t16.5 31t-25 32.5t-61 22t-71.5 23t-60.5 43.5t-25 76q0 64 46.5 100.5t118.5 36.5q84 0 150 -42q15 -10 15 -30q0 -11 -6 -20l-11 -16q-12 -16 -28 -16q-9 0 -25 7q-41 21 -89 21q-25 0 -40.5 -11.5
t-15.5 -27.5q0 -17 18 -29.5t45 -18.5t58.5 -17t58.5 -24t45 -40t18 -64q0 -66 -49.5 -105t-132.5 -39q-97 0 -168 62q-11 10 -11 25q0 13 7 21z" />
    <glyph glyph-name="t" unicode="t" horiz-adv-x="354"
d="M309 87l10 -18q5 -8 5 -17q0 -23 -17 -32q-51 -30 -113 -30q-74 0 -107 45.5t-33 135.5v367q0 15 11 26t26 11h41q15 0 26 -11t11 -26v-88h108q15 0 26 -11t11 -26v-34q0 -15 -11 -26t-26 -11h-108v-164q0 -81 54 -81q17 0 32 5t23 5q20 0 31 -20z" />
    <glyph glyph-name="u" unicode="u" horiz-adv-x="535"
d="M169 199q0 -103 86 -103q59 0 101 55v262q0 15 11 26t26 11h41q15 0 26 -11t11 -26v-376q0 -15 -11 -26t-26 -11h-41q-15 0 -26 11t-11 26v18q-54 -66 -144 -66q-70 0 -114 47t-44 139v238q0 15 11 26t26 11h41q15 0 26 -11t11 -26v-214z" />
    <glyph glyph-name="v" unicode="v" horiz-adv-x="475"
d="M143 422l71 -165q22 -49 34 -102q13 56 33 104l66 163q12 28 42 28h26q18 0 30.5 -12.5t12.5 -30.5q0 -5 -4 -17l-156 -364q-12 -28 -42 -28h-25q-30 0 -43 28l-167 364q-4 8 -4 18q0 17 12 29.5t30 12.5h42q30 0 42 -28z" />
    <glyph glyph-name="w" unicode="w" horiz-adv-x="713"
d="M499 206q7 -20 17 -62q4 21 14 65l56 205q5 16 18 26t29 10h14q20 0 33.5 -14t13.5 -33q0 -10 -2 -15l-111 -355q-4 -16 -17.5 -25.5t-30.5 -9.5h-29q-36 0 -50 34l-83 216q-4 10 -9 30t-6 23q-6 -29 -16 -55l-82 -214q-14 -34 -50 -34h-24q-17 0 -30.5 9.5t-17.5 25.5
l-115 355q-2 5 -2 15q0 19 13.5 33t33.5 14h21q16 0 29 -10t18 -25l62 -210q4 -12 13 -60q13 47 17 60l72 210q12 35 49 35h28q37 0 49 -35z" />
    <glyph glyph-name="x" unicode="x" horiz-adv-x="504"
d="M91 450h38q30 0 46 -26l79 -123l81 124q17 25 47 25h30q17 0 27.5 -11t10.5 -27q0 -12 -7 -22l-108 -155l119 -174q7 -10 7 -22q0 -16 -11 -27.5t-28 -11.5h-37q-31 0 -47 26l-88 136l-92 -137q-17 -25 -47 -25h-30q-17 0 -27.5 11t-10.5 27q0 12 7 22l118 169l-109 160
q-7 10 -7 22q0 16 11 27.5t28 11.5z" />
    <glyph glyph-name="y" unicode="y" horiz-adv-x="495"
d="M243 204q6 -15 22 -65q8 44 16 66l69 210q12 35 49 35h29q18 0 31 -13t13 -31q0 -8 -3 -17l-153 -389q-47 -120 -84 -160t-90 -40q-38 0 -76 19q-18 9 -18 29q0 7 3 13l13 27q10 22 29 22q9 0 23 -3q4 -1 13 -1q41 0 69 70l10 24l-181 391q-4 10 -4 17q0 17 12 29.5
t30 12.5h43q30 0 42 -28z" />
    <glyph glyph-name="z" unicode="z" horiz-adv-x="489"
d="M42 37v16q0 31 21 52l223 237h-192q-15 0 -26 11t-11 26v34q0 15 11 26t26 11h316q15 0 26 -11t11 -26v-16q0 -31 -21 -52l-223 -238h202q15 0 26 -11t11 -26v-33q0 -15 -11 -26t-26 -11h-326q-15 0 -26 11t-11 26z" />
    <glyph glyph-name="braceleft" unicode="{" horiz-adv-x="362"
d="M342 -130v-33q0 -15 -11 -26t-26 -11h-45q-75 0 -112.5 34t-37.5 112v131q0 73 -54 92q-20 8 -28 19.5t-8 35.5q0 25 7.5 37t28.5 21q54 23 54 103v112q0 79 36 116t121 37h38q15 0 26 -11t11 -26v-34q0 -15 -11.5 -26t-29.5 -11q-44 0 -60 -18t-16 -67v-117
q0 -48 -20.5 -78.5t-54.5 -35.5q75 -9 75 -114v-119q0 -46 18 -66t61 -20q16 0 27 -11t11 -26z" />
    <glyph glyph-name="bar" unicode="|" horiz-adv-x="339"
d="M149 700h41q15 0 26 -11t11 -26v-626q0 -15 -11 -26t-26 -11h-41q-15 0 -26 11t-11 26v626q0 15 11 26t26 11z" />
    <glyph glyph-name="braceright" unicode="}" horiz-adv-x="362"
d="M252 497v-112q0 -80 54 -103q21 -9 28.5 -21t7.5 -37q0 -24 -8 -35.5t-28 -19.5q-54 -19 -54 -92v-131q0 -78 -37.5 -112t-111.5 -34h-46q-15 0 -26 11t-11 26v33q0 15 11 26t27 11q43 0 61 20t18 66v119q0 105 75 114q-34 5 -54.5 35.5t-20.5 78.5v117q0 49 -16 67
t-60 18q-18 0 -29.5 11t-11.5 26v34q0 15 11 26t26 11h38q86 0 121.5 -37t35.5 -116z" />
    <glyph glyph-name="asciitilde" unicode="~"
d="M549 330q-60 -56 -129 -56q-41 0 -116 34.5t-109 34.5q-37 0 -73 -26q-21 -16 -42 -16q-18 0 -31 12q-13 11 -13 31q0 17 11 29q62 69 141 69q42 0 118 -34.5t115 -34.5q31 0 59 19q25 16 40 16q16 0 30 -15q12 -13 12 -31q0 -19 -13 -32z" />
    <glyph glyph-name="uni00A0" unicode="&#xa0;" horiz-adv-x="212"
 />
    <glyph glyph-name="exclamdown" unicode="&#xa1;" horiz-adv-x="309"
d="M94 -207v384q0 15 11 26t26 11h48q15 0 26 -11t11 -26v-384q0 -15 -11 -26t-26 -11h-48q-15 0 -26 11t-11 26zM232 381q0 -28 -22 -51t-58 -23q-31 0 -52 23t-21 51q0 32 21 56t52 24q36 0 58 -24t22 -56z" />
    <glyph glyph-name="cent" unicode="&#xa2;" horiz-adv-x="581"
d="M492 42q-51 -41 -114 -49v-76q0 -15 -11 -26t-26 -11h-41q-15 0 -26 11t-11 26v80q-82 18 -129 78.5t-47 149.5q0 84 48.5 147.5t127.5 81.5v73q0 15 11 26t26 11h41q15 0 26 -11t11 -26l-1 -70q47 -7 91 -30q18 -10 18 -33q0 -9 -4 -16l-15 -26q-13 -21 -34 -21
q-10 0 -18 4q-37 18 -80 18q-50 0 -87.5 -35.5t-37.5 -92.5q0 -58 38.5 -93.5t91.5 -35.5q47 0 87 26q13 8 24 8q19 0 31 -15l17 -21q7 -7 7 -20q0 -21 -14 -32z" />
    <glyph glyph-name="sterling" unicode="&#xa3;" horiz-adv-x="594"
d="M43 93q31 31 81 53q47 60 48 119h-67q-15 0 -26 11t-11 26v18q0 15 11 26t26 11h43l-17 33.5t-18.5 39t-11.5 37.5t-6 48q0 83 63.5 138t162.5 55q102 0 169 -54q16 -12 16 -34q0 -10 -6 -19l-23 -30q-12 -16 -30 -16q-11 0 -22 7q-44 31 -99 31q-44 0 -72.5 -25
t-28.5 -62q0 -36 26.5 -86.5t30.5 -62.5h113q15 0 26 -11t11 -26v-18q0 -15 -11 -26t-26 -11h-103q-7 -53 -55 -108q23 -4 87.5 -26t99.5 -22q36 0 76 24q13 8 24 8q19 0 31 -17l20 -27q7 -8 7 -23q0 -19 -13 -28q-67 -52 -147 -52q-39 0 -114 26t-114 26q-38 0 -77 -31
q-11 -10 -26 -10q-16 0 -28 13l-24 26q-8 8 -8 21q0 16 12 28z" />
    <glyph glyph-name="currency" unicode="&#xa4;" horiz-adv-x="581"
d="M51 174l44 44q-34 55 -34 124q0 70 35 125l-42 44q-14 16 -14 35q0 21 14 35t35 14q22 0 35 -14l43 -44q54 32 124 32q69 0 123 -32l46 45q14 14 35 14q22 0 35 -14q14 -13 14 -35q0 -21 -14 -35l-44 -44q36 -58 36 -126q0 -69 -35 -124l42 -41q14 -13 14 -35
q0 -21 -14 -35q-15 -15 -36 -15t-35 14l-42 42q-53 -33 -125 -33t-125 33l-44 -45q-14 -14 -34 -14q-21 0 -36 15t-15 36q0 20 14 34zM291 215q58 0 90.5 36.5t32.5 90.5q0 57 -33 92t-90 35q-56 0 -89.5 -35t-33.5 -92q0 -54 33.5 -90.5t89.5 -36.5z" />
    <glyph glyph-name="yen" unicode="&#xa5;" horiz-adv-x="584"
d="M97 210h133v82h-133q-15 0 -26 11t-11 26v19q0 15 11 26t26 11h81l-145 265q-4 7 -4 16q0 14 9.5 24t24.5 10h52q31 0 44 -27l137 -266l136 266q14 27 44 27h45q15 0 24.5 -10t9.5 -24q0 -9 -4 -16l-148 -265h84q15 0 26 -11t11 -26v-19q0 -15 -11 -26t-26 -11h-135v-82
h135q15 0 26 -11t11 -26v-19q0 -15 -11 -26t-26 -11h-135v-80q0 -15 -11 -26t-26 -11h-48q-15 0 -26 11t-11 26v80h-133q-15 0 -26 11t-11 26v19q0 15 11 26t26 11z" />
    <glyph glyph-name="brokenbar" unicode="&#xa6;" horiz-adv-x="339"
d="M149 700h41q15 0 26 -11t11 -26v-186q0 -15 -11 -26t-26 -11h-41q-15 0 -26 11t-11 26v186q0 15 11 26t26 11zM190 0h-41q-15 0 -26 11t-11 26v186q0 15 11 26t26 11h41q15 0 26 -11t11 -26v-186q0 -15 -11 -26t-26 -11z" />
    <glyph glyph-name="section" unicode="&#xa7;" horiz-adv-x="523"
d="M164 -67q15 0 31 -12q20 -14 44 -14q25 0 42.5 17.5t17.5 41.5q0 59 -71 99q-81 9 -126 60t-45 124q0 60 32 106.5t90 66.5q-72 46 -72 135q0 60 45.5 101.5t125.5 41.5q74 0 127 -53q10 -10 10 -23q0 -14 -11 -27l-16 -18q-12 -13 -26 -13t-34 13q-21 13 -46 13
q-24 0 -42 -17t-18 -41q0 -59 72 -101q82 -9 127 -60t45 -124q0 -61 -31.5 -107t-89.5 -66q69 -47 69 -133q0 -61 -45 -102t-126 -41q-75 0 -126 51q-10 9 -10 23q0 16 11 27l19 20q12 12 27 12zM262 335q-41 0 -65.5 -26t-24.5 -60t24 -60t66 -26q43 0 66 25.5t23 60.5
q0 34 -23.5 60t-65.5 26z" />
    <glyph glyph-name="dieresis" unicode="&#xa8;" horiz-adv-x="443"
d="M125 532q-27 0 -46 18t-19 49q0 29 19 46.5t46 17.5q24 0 42 -17.5t18 -46.5q0 -31 -18 -49t-42 -18zM323 532q-27 0 -45.5 18t-18.5 49q0 29 18.5 46.5t45.5 17.5q24 0 42 -17.5t18 -46.5q0 -31 -17.5 -49t-42.5 -18z" />
    <glyph glyph-name="copyright" unicode="&#xa9;" horiz-adv-x="1017"
d="M509 -216q-185 0 -311 126.5t-126 310.5q0 183 126 309.5t311 126.5t310.5 -126t125.5 -310t-125.5 -310.5t-310.5 -126.5zM510 557q-145 0 -241.5 -98t-96.5 -239q0 -140 96.5 -238t241.5 -98q143 0 239 98t96 238q0 141 -96 239t-239 98zM677 42q-67 -53 -158 -53
q-112 0 -179.5 64.5t-67.5 171.5q0 100 66 168t167 68q86 0 148 -34q18 -10 18 -33q0 -9 -4 -16l-15 -26q-13 -21 -34 -21q-9 0 -18 4q-37 18 -80 18q-50 0 -87.5 -35.5t-37.5 -92.5q0 -58 38.5 -93.5t91.5 -35.5q47 0 87 26q13 8 24 8q19 0 31 -15l17 -21q7 -7 7 -20
q0 -21 -14 -32z" />
    <glyph glyph-name="ordfeminine" unicode="&#xaa;" horiz-adv-x="445"
d="M174 527q62 0 106 -21q-4 67 -73 67q-33 0 -60 -8q-9 -3 -16 -3q-24 0 -35 26q-3 8 -3 15q0 24 22 32q57 23 117 23t104 -35t44 -101v-178q0 -15 -11 -26t-26 -11h-26q-15 0 -26 11.5t-11 28.5q-24 -22 -51 -33.5t-73 -11.5q-50 0 -80.5 31.5t-30.5 77.5q0 56 34 86
t95 30zM280 443q-37 14 -71 14q-57 0 -57 -35t55 -35q35 0 73 25v31z" />
    <glyph glyph-name="guillemotleft" unicode="&#xab;" horiz-adv-x="547"
d="M380 250l114 -135q9 -11 9 -24q0 -17 -13 -28l-22 -17q-10 -9 -24 -9q-17 0 -28 13l-145 172q-10 11 -10 28t10 28l149 172q10 12 27 12q13 0 24 -9l21 -17q12 -10 12 -28q0 -14 -9 -25zM162 250l114 -135q9 -11 9 -24q0 -17 -13 -28l-22 -17q-10 -9 -24 -9q-17 0 -28 13
l-145 172q-10 11 -10 28t10 28l149 172q10 12 27 12q13 0 24 -9l21 -17q12 -10 12 -28q0 -14 -9 -25z" />
    <glyph glyph-name="logicalnot" unicode="&#xac;"
d="M445 216v94h-357q-15 0 -26 11t-11 26v26q0 15 11 26t26 11h420q15 0 26 -11t11 -26v-157q0 -15 -11 -26t-26 -11h-26q-15 0 -26 11t-11 26z" />
    <glyph glyph-name="uni00AD" unicode="&#xad;" horiz-adv-x="376"
d="M314 290v-33q0 -15 -11 -26t-26 -11h-178q-15 0 -26 11t-11 26v33q0 15 11 26t26 11h178q15 0 26 -11t11 -26z" />
    <glyph glyph-name="registered" unicode="&#xae;" horiz-adv-x="663"
d="M325 448h-27v-51q0 -15 -11 -26t-27 -11t-27.5 11t-11.5 26v206q0 15 11 26t26 11h80q58 0 86 -25t28 -68q0 -29 -15.5 -51t-37.5 -30l34 -45q9 -12 9 -26t-11 -24.5t-27 -10.5q-23 0 -39 26zM298 503h29q22 0 34.5 12.5t12.5 30.5q0 39 -47 39h-29v-82zM331 208
q-119 0 -202.5 84.5t-83.5 202.5q0 119 83 203t203 84q121 0 203.5 -84t82.5 -203t-83 -203t-203 -84zM331 300q81 0 137.5 57t56.5 138t-56 138t-138 57t-138 -57t-56 -138t56.5 -138t137.5 -57z" />
    <glyph glyph-name="macron" unicode="&#xaf;" horiz-adv-x="399"
d="M339 605v-18q0 -15 -11 -26t-26 -11h-205q-15 0 -26 11t-11 26v18q0 15 11 26t26 11h205q15 0 26 -11t11 -26z" />
    <glyph glyph-name="degree" unicode="&#xb0;" horiz-adv-x="425"
d="M211 402q-69 0 -117.5 48t-48.5 118q0 72 48.5 120.5t117.5 48.5q71 0 120 -46t49 -117t-49.5 -121.5t-119.5 -50.5zM212 637q-27 0 -47 -19.5t-20 -47.5t20 -48t47 -20q28 0 48 20t20 48t-20 47.5t-48 19.5z" />
    <glyph glyph-name="plusminus" unicode="&#xb1;"
d="M314 299h-34q-15 0 -26 11t-11 26v66h-140q-15 0 -26 11t-11 26v26q0 15 11 26t26 11h140v144q0 15 11 26t26 11h34q15 0 26 -11t11 -26v-144h142q15 0 26 -11t11 -26v-26q0 -15 -11 -26t-26 -11h-142v-66q0 -15 -11 -26t-26 -11zM103 255h390q15 0 26 -11t11 -26v-26
q0 -15 -11 -26t-26 -11h-390q-15 0 -26 11t-11 26v26q0 15 11 26t26 11z" />
    <glyph glyph-name="twosuperior" unicode="&#xb2;" horiz-adv-x="354"
d="M331 403v-21q0 -14 -9.5 -23t-22.5 -9h-244q-14 0 -23 10t-9 26q0 30 32 52l34.5 23.5t33 23l27.5 20t24.5 19.5t17.5 18t12.5 19.5t3.5 18.5q0 18 -11.5 28.5t-31.5 10.5q-24 0 -39 -18q-25 -29 -39 -29q-6 0 -18 5l-16 8q-21 11 -21 28q0 7 5 17q38 74 138 74
q67 0 103.5 -30.5t36.5 -80.5q0 -92 -159 -158h143q13 0 22.5 -9.5t9.5 -22.5z" />
    <glyph glyph-name="threesuperior" unicode="&#xb3;" horiz-adv-x="356"
d="M309 617q0 -32 -20.5 -53t-56.5 -29q43 -4 66 -27t23 -57q0 -48 -44 -77.5t-107 -29.5q-85 0 -136 50q-10 10 -10 23q0 12 9 21l12 12q10 10 22 10t26 -11q29 -24 60 -24q61 0 61 35q0 32 -59 32q-13 0 -21.5 8.5t-8.5 20.5v14q0 11 8 19t20 8q22 0 35 9.5t13 24.5
q0 29 -45 29q-33 0 -62 -21q-12 -7 -22 -7q-17 0 -28 14q-9 11 -9 24q0 17 14 28q57 43 127 43q59 0 96 -24t37 -65z" />
    <glyph glyph-name="acute" unicode="&#xb4;" horiz-adv-x="315"
d="M82 600l61 95q11 17 32 17q13 0 23 -7l24 -18q15 -11 15 -31q0 -14 -9 -25l-72 -83q-14 -15 -34 -15q-14 0 -27 8q-19 13 -19 37q0 12 6 22z" />
    <glyph glyph-name="mu" unicode="&#xb5;" horiz-adv-x="539"
d="M176 190q3 -94 86 -94q59 0 101 55v262q0 15 11 26t26 11h41q15 0 26 -11t11 -26v-376q0 -15 -11 -26t-26 -11h-41q-15 0 -26 11t-11 26v18q-54 -66 -144 -66q-21 0 -43 5v-157q0 -15 -11 -26t-26 -11h-41q-15 0 -26 11t-11 26v576q0 15 11 26t26 11h41q15 0 26 -11
t11 -26v-223z" />
    <glyph glyph-name="mu" unicode="&#x3bc;" horiz-adv-x="539"
d="M176 190q3 -94 86 -94q59 0 101 55v262q0 15 11 26t26 11h41q15 0 26 -11t11 -26v-376q0 -15 -11 -26t-26 -11h-41q-15 0 -26 11t-11 26v18q-54 -66 -144 -66q-21 0 -43 5v-157q0 -15 -11 -26t-26 -11h-41q-15 0 -26 11t-11 26v576q0 15 11 26t26 11h41q15 0 26 -11
t11 -26v-223z" />
    <glyph glyph-name="paragraph" unicode="&#xb6;" horiz-adv-x="491"
d="M132 -93q22 -8 45 -8q80 0 80 113v251q-90 1 -155 60t-65 158q0 100 62.5 159.5t159.5 59.5h170q15 0 26 -11t11 -26v-34q0 -15 -11 -26t-26 -11h-57v-584q0 -216 -187 -216q-53 0 -105 29q-16 10 -16 27q0 9 4 17l14 27q11 20 28 20q7 0 22 -5z" />
    <glyph glyph-name="periodcentered" unicode="&#xb7;" horiz-adv-x="212"
d="M109 376q31 0 52 -23t21 -51q0 -32 -21 -56t-52 -24q-36 0 -58 24t-22 56q0 28 22 51t58 23z" />
    <glyph glyph-name="cedilla" unicode="&#xb8;" horiz-adv-x="378"
d="M214 -34q104 -8 104 -86q0 -40 -36 -64t-102 -24q-53 0 -94 24q-15 10 -15 29q0 8 3 14q9 17 29 17q10 0 18 -4q23 -10 43 -10q39 0 39 25q0 18 -15 23q-19 7 -25.5 17.5t-6.5 30.5v62h58v-54z" />
    <glyph glyph-name="onesuperior" unicode="&#xb9;" horiz-adv-x="265"
d="M97 586l-17 -10q-9 -6 -20 -6q-21 0 -34 19q-6 9 -6 20q0 20 16 30l58 40q19 14 31 17t36 3q36 0 36 -37v-275q0 -15 -11 -26t-26 -11h-26q-15 0 -26 11t-11 26v199z" />
    <glyph glyph-name="ordmasculine" unicode="&#xba;" horiz-adv-x="498"
d="M249 301q-86 0 -141.5 49.5t-55.5 129.5t55.5 129t141.5 49t141.5 -49t55.5 -129t-55.5 -129.5t-141.5 -49.5zM249 565q-38 0 -63.5 -23.5t-25.5 -61.5q0 -39 25.5 -62.5t63.5 -23.5q40 0 65 23.5t25 62.5q0 38 -25.5 61.5t-64.5 23.5z" />
    <glyph glyph-name="guillemotright" unicode="&#xbb;" horiz-adv-x="547"
d="M273 436l21 17q8 9 23 9q17 0 28 -12l149 -172q11 -13 11 -29t-11 -29l-145 -170q-11 -13 -28 -13q-13 0 -24 9l-22 17q-13 11 -13 28q0 13 9 24l114 135l-115 133q-9 11 -9 25q0 18 12 28zM54 436l21 17q8 9 23 9q17 0 28 -12l149 -172q11 -13 11 -29t-11 -29l-145 -170
q-11 -13 -28 -13q-14 0 -24 9l-22 17q-13 11 -13 28q0 13 9 24l114 135l-115 133q-9 11 -9 25q0 18 12 28z" />
    <glyph glyph-name="onequarter" unicode="&#xbc;" horiz-adv-x="704"
d="M102 586l-17 -10q-9 -6 -20 -6q-21 0 -34 19q-6 9 -6 20q0 20 16 30l58 40q19 14 31 17t36 3q36 0 36 -37v-275q0 -15 -11 -26t-26 -11h-26q-15 0 -26 11t-11 26v199zM589 633l-460 -615q-12 -15 -31 -15q-13 0 -21 7l-6 4q-15 10 -15 29q0 13 7 21l461 618q11 14 28 14
q14 0 27 -9q17 -14 17 -33q0 -13 -7 -21zM613 70v-38q0 -14 -9.5 -23t-22.5 -9h-28q-13 0 -22.5 9t-9.5 23v38h-171q-14 0 -23 9.5t-9 24.5q0 16 31 59l115 161q20 26 44 26q16 0 25.5 -9t9.5 -23q0 -16 -12 -33l-99 -137h89v45q0 13 9.5 22.5t22.5 9.5h28q13 0 22.5 -9.5
t9.5 -22.5v-45h24q13 0 22.5 -9t9.5 -23v-14q0 -14 -9.5 -23t-22.5 -9h-24z" />
    <glyph glyph-name="onehalf" unicode="&#xbd;" horiz-adv-x="681"
d="M102 586l-17 -10q-9 -6 -20 -6q-21 0 -34 19q-6 9 -6 20q0 20 16 30l58 40q19 14 31 17t36 3q36 0 36 -37v-275q0 -15 -11 -26t-26 -11h-26q-15 0 -26 11t-11 26v199zM575 633l-460 -615q-12 -15 -31 -15q-13 0 -21 7l-6 4q-15 10 -15 29q0 13 7 21l461 618q11 14 28 14
q14 0 27 -9q17 -14 17 -33q0 -13 -7 -21zM658 53v-21q0 -14 -9 -23t-23 -9h-244q-14 0 -23 10t-9 26q0 30 32 52l34.5 23.5t33 23l27.5 20t24.5 19.5t17.5 18t12.5 19.5t3.5 18.5q0 18 -11.5 28.5t-31.5 10.5q-24 0 -39 -18q-25 -29 -39 -29q-6 0 -18 5l-16 8q-21 11 -21 28
q0 7 5 17q38 74 138 74q67 0 103.5 -30.5t36.5 -80.5q0 -92 -159 -158h143q14 0 23 -9.5t9 -22.5z" />
    <glyph glyph-name="threequarters" unicode="&#xbe;" horiz-adv-x="763"
d="M663 633l-460 -615q-12 -15 -31 -15q-13 0 -21 7l-6 4q-15 10 -15 29q0 13 7 21l461 618q11 14 28 14q14 0 27 -9q17 -14 17 -33q0 -13 -7 -21zM672 70v-38q0 -14 -9 -23t-23 -9h-28q-14 0 -23 9t-9 23v38h-171q-14 0 -23 9.5t-9 24.5q0 16 31 59l115 161q19 26 44 26
q16 0 25.5 -9t9.5 -23q0 -16 -12 -33l-99 -137h89v45q0 13 9 22.5t23 9.5h28q14 0 23 -9.5t9 -22.5v-45h24q14 0 23 -9t9 -23v-14q0 -14 -9 -23t-23 -9h-24zM311 617q0 -32 -20.5 -53t-56.5 -29q43 -4 66 -27t23 -57q0 -48 -44 -77.5t-107 -29.5q-85 0 -136 50
q-10 10 -10 23q0 12 9 21l12 12q10 10 22 10t26 -11q29 -24 60 -24q61 0 61 35q0 32 -59 32q-13 0 -21.5 8.5t-8.5 20.5v14q0 11 8 19t20 8q22 0 35 9.5t13 24.5q0 29 -45 29q-33 0 -62 -21q-12 -7 -22 -7q-17 0 -28 14q-9 11 -9 24q0 17 14 28q57 43 127 43q59 0 96 -24
t37 -65z" />
    <glyph glyph-name="questiondown" unicode="&#xbf;" horiz-adv-x="465"
d="M253 238h39q13 0 22 -9.5t9 -25.5q0 -32 -12.5 -58.5t-31 -42.5l-40 -33.5l-40 -32.5t-31 -38.5t-12.5 -51.5q0 -36 27 -61t67 -25q60 0 98 37q11 10 24 10q15 0 28 -13l23 -23q9 -9 9 -21q0 -15 -14 -31q-69 -74 -175 -74q-97 0 -153.5 50.5t-56.5 125.5q0 49 16.5 87
t41.5 62t50.5 43.5t46.5 41.5t26 46q4 21 12 29t27 8zM341 381q0 -28 -22 -51t-57 -23q-32 0 -53 23t-21 51q0 32 21 56t53 24q35 0 57 -24t22 -56z" />
    <glyph glyph-name="Agrave" unicode="&#xc0;" horiz-adv-x="706"
d="M499 179h-299l-62 -151q-10 -28 -41 -28h-36q-17 0 -28 11.5t-11 27.5q0 7 3 14l262 621q12 28 42 28h48q30 0 42 -28l262 -621q3 -7 3 -14q0 -16 -11 -27.5t-28 -11.5h-43q-31 0 -41 28zM350 543l-103 -249h205zM258 893l146 -75q22 -11 22 -36q0 -6 -4 -16
q-11 -24 -38 -24q-9 0 -14 2l-153 55q-24 8 -24 34q0 8 3 14l13 29q10 21 32 21q10 0 17 -4z" />
    <glyph glyph-name="Aacute" unicode="&#xc1;" horiz-adv-x="706"
d="M499 179h-299l-62 -151q-10 -28 -41 -28h-36q-17 0 -28 11.5t-11 27.5q0 7 3 14l262 621q12 28 42 28h48q30 0 42 -28l262 -621q3 -7 3 -14q0 -16 -11 -27.5t-28 -11.5h-43q-31 0 -41 28zM350 543l-103 -249h205zM301 817l148 77q7 4 16 4q22 0 32 -21l13 -31q3 -6 3 -14
q0 -24 -23 -32l-155 -57q-4 -2 -13 -2q-27 0 -38 25q-4 7 -4 17q0 24 21 34z" />
    <glyph glyph-name="Acircumflex" unicode="&#xc2;" horiz-adv-x="706"
d="M499 179h-299l-62 -151q-10 -28 -41 -28h-36q-17 0 -28 11.5t-11 27.5q0 7 3 14l262 621q12 28 42 28h48q30 0 42 -28l262 -621q3 -7 3 -14q0 -16 -11 -27.5t-28 -11.5h-43q-31 0 -41 28zM350 543l-103 -249h205zM351 799l-102 -53q-7 -5 -20 -5q-22 0 -34 18q-6 9 -6 21
q0 21 17 33l113 70q14 10 33 10q17 0 32 -9l115 -71q17 -11 17 -32q0 -12 -7 -22q-13 -18 -35 -18q-12 0 -21 5z" />
    <glyph glyph-name="Atilde" unicode="&#xc3;" horiz-adv-x="706"
d="M499 179h-299l-62 -151q-10 -28 -41 -28h-36q-17 0 -28 11.5t-11 27.5q0 7 3 14l262 621q12 28 42 28h48q30 0 42 -28l262 -621q3 -7 3 -14q0 -16 -11 -27.5t-28 -11.5h-43q-31 0 -41 28zM350 543l-103 -249h205zM528 797q-58 -52 -109 -52q-25 0 -69.5 22t-71.5 22
q-18 0 -47 -18q-13 -8 -25 -8q-17 0 -31 17q-8 10 -8 23q0 20 14 31q56 46 103 46q31 0 74 -22.5t69 -22.5q18 0 47 19q15 11 32 11t28 -14q9 -11 9 -24q0 -16 -15 -30z" />
    <glyph glyph-name="Adieresis" unicode="&#xc4;" horiz-adv-x="706"
d="M499 179h-299l-62 -151q-10 -28 -41 -28h-36q-17 0 -28 11.5t-11 27.5q0 7 3 14l262 621q12 28 42 28h48q30 0 42 -28l262 -621q3 -7 3 -14q0 -16 -11 -27.5t-28 -11.5h-43q-31 0 -41 28zM350 543l-103 -249h205zM240 887q29 0 50 -17t21 -45q0 -31 -21 -48.5t-50 -17.5
q-33 0 -55 17.5t-22 48.5q0 28 22 45t55 17zM472 887q29 0 50 -17t21 -45q0 -31 -21 -48.5t-50 -17.5q-33 0 -55 17.5t-22 48.5q0 28 22 45t55 17z" />
    <glyph glyph-name="Aring" unicode="&#xc5;" horiz-adv-x="706"
d="M97 0h-36q-17 0 -28 11.5t-11 27.5q0 7 3 14l272 644q-85 24 -85 103q0 54 39 81t100 27q63 0 103 -27t40 -81q0 -79 -85 -103l272 -644q3 -7 3 -14q0 -16 -11 -27.5t-28 -11.5h-43q-31 0 -41 28l-62 151h-299l-62 -151q-10 -28 -41 -28zM350 543l-103 -249h205zM297 800
q0 -23 15.5 -35t39.5 -12q25 0 41 12t16 35q0 45 -57 45q-55 0 -55 -45z" />
    <glyph glyph-name="AE" unicode="&#xc6;" horiz-adv-x="950"
d="M887 78v-41q0 -15 -11 -26t-26 -11h-341q-15 0 -26 11t-11 26v144h-233l-109 -156q-17 -25 -47 -25h-45q-15 0 -24.5 10.5t-9.5 24.5q0 10 6 19l446 621q18 25 48 25h336q15 0 26 -11t11 -26v-41q0 -15 -11 -26t-26 -11h-245v-174h215q15 0 26 -11t11 -26v-41
q0 -15 -11 -26t-26 -11h-215v-181h255q15 0 26 -11t11 -26zM472 514l-152 -218h152v218z" />
    <glyph glyph-name="Ccedilla" unicode="&#xc7;" horiz-adv-x="650"
d="M421 -33q111 -9 111 -87q0 -39 -35.5 -63.5t-97.5 -24.5q-69 0 -115 31q-13 8 -13 25q0 9 5 17q10 16 28 16q9 0 17 -4q30 -15 50 -15q39 0 39 25q0 16 -17 24q-30 14 -30 43v37q-144 14 -231 111t-87 248q0 157 95 259t263 102q93 0 183 -50q20 -10 20 -29q0 -10 -6 -20
l-21 -37q-12 -19 -30 -19q-11 0 -22 6q-66 34 -124 34q-99 0 -163.5 -67t-64.5 -179q0 -109 67.5 -177.5t174.5 -68.5q62 0 126 35q12 6 23 6q22 0 32 -17l18 -28q7 -10 7 -23q0 -19 -14 -28q-85 -56 -188 -60v-22z" />
    <glyph glyph-name="Egrave" unicode="&#xc8;" horiz-adv-x="575"
d="M512 78v-41q0 -15 -11 -26t-26 -11h-341q-15 0 -26 11t-11 26v626q0 15 11 26t26 11h331q15 0 26 -11t11 -26v-41q0 -15 -11 -26t-26 -11h-245v-174h215q15 0 26 -11t11 -26v-41q0 -15 -11 -26t-26 -11h-215v-181h255q15 0 26 -11t11 -26zM214 893l146 -75q22 -11 22 -36
q0 -6 -4 -16q-11 -24 -38 -24q-9 0 -14 2l-153 55q-24 8 -24 34q0 8 3 14l13 29q10 21 32 21q10 0 17 -4z" />
    <glyph glyph-name="Eacute" unicode="&#xc9;" horiz-adv-x="575"
d="M512 78v-41q0 -15 -11 -26t-26 -11h-341q-15 0 -26 11t-11 26v626q0 15 11 26t26 11h331q15 0 26 -11t11 -26v-41q0 -15 -11 -26t-26 -11h-245v-174h215q15 0 26 -11t11 -26v-41q0 -15 -11 -26t-26 -11h-215v-181h255q15 0 26 -11t11 -26zM250 817l148 77q7 4 16 4
q22 0 32 -21l13 -31q3 -6 3 -14q0 -24 -23 -32l-155 -57q-4 -2 -13 -2q-27 0 -38 25q-4 7 -4 17q0 24 21 34z" />
    <glyph glyph-name="Ecircumflex" unicode="&#xca;" horiz-adv-x="575"
d="M512 78v-41q0 -15 -11 -26t-26 -11h-341q-15 0 -26 11t-11 26v626q0 15 11 26t26 11h331q15 0 26 -11t11 -26v-41q0 -15 -11 -26t-26 -11h-245v-174h215q15 0 26 -11t11 -26v-41q0 -15 -11 -26t-26 -11h-215v-181h255q15 0 26 -11t11 -26zM298 799l-102 -53q-7 -5 -20 -5
q-22 0 -34 18q-6 9 -6 21q0 21 17 33l113 70q14 10 33 10q17 0 32 -9l115 -71q17 -11 17 -32q0 -12 -7 -22q-14 -18 -35 -18q-12 0 -21 5z" />
    <glyph glyph-name="Edieresis" unicode="&#xcb;" horiz-adv-x="575"
d="M512 78v-41q0 -15 -11 -26t-26 -11h-341q-15 0 -26 11t-11 26v626q0 15 11 26t26 11h331q15 0 26 -11t11 -26v-41q0 -15 -11 -26t-26 -11h-245v-174h215q15 0 26 -11t11 -26v-41q0 -15 -11 -26t-26 -11h-215v-181h255q15 0 26 -11t11 -26zM190 887q29 0 50 -17t21 -45
q0 -31 -21 -48.5t-50 -17.5q-33 0 -55 17.5t-22 48.5q0 28 22 45t55 17zM422 887q29 0 50 -17t21 -45q0 -31 -21 -48.5t-50 -17.5q-33 0 -55 17.5t-22 48.5q0 28 22 45t55 17z" />
    <glyph glyph-name="Igrave" unicode="&#xcc;" horiz-adv-x="347"
d="M235 663v-626q0 -15 -11 -26t-26 -11h-49q-15 0 -26 11t-11 26v626q0 15 11 26t26 11h49q15 0 26 -11t11 -26zM69 893l146 -75q22 -11 22 -36q0 -6 -4 -16q-11 -24 -38 -24q-9 0 -14 2l-153 55q-24 8 -24 34q0 8 3 14l13 29q10 21 32 21q10 0 17 -4z" />
    <glyph glyph-name="Iacute" unicode="&#xcd;" horiz-adv-x="347"
d="M235 663v-626q0 -15 -11 -26t-26 -11h-49q-15 0 -26 11t-11 26v626q0 15 11 26t26 11h49q15 0 26 -11t11 -26zM133 817l148 77q7 4 16 4q22 0 32 -21l13 -31q3 -6 3 -14q0 -24 -23 -32l-155 -57q-4 -2 -13 -2q-27 0 -38 25q-4 7 -4 17q0 24 21 34z" />
    <glyph glyph-name="Icircumflex" unicode="&#xce;" horiz-adv-x="347"
d="M235 663v-626q0 -15 -11 -26t-26 -11h-49q-15 0 -26 11t-11 26v626q0 15 11 26t26 11h49q15 0 26 -11t11 -26zM171 799l-102 -53q-7 -5 -20 -5q-22 0 -34 18q-6 9 -6 21q0 21 17 33l113 70q14 10 33 10q17 0 32 -9l115 -71q17 -11 17 -32q0 -12 -7 -22q-13 -18 -35 -18
q-12 0 -21 5z" />
    <glyph glyph-name="Idieresis" unicode="&#xcf;" horiz-adv-x="347"
d="M235 663v-626q0 -15 -11 -26t-26 -11h-49q-15 0 -26 11t-11 26v626q0 15 11 26t26 11h49q15 0 26 -11t11 -26zM60 887q29 0 50 -17t21 -45q0 -31 -21 -48.5t-50 -17.5q-33 0 -55 17.5t-22 48.5q0 28 22 45t55 17zM292 887q29 0 50 -17t21 -45q0 -31 -21 -48.5t-50 -17.5
q-33 0 -55 17.5t-22 48.5q0 28 22 45t55 17z" />
    <glyph glyph-name="Eth" unicode="&#xd0;" horiz-adv-x="749"
d="M227 297v-182q34 -2 80 -2q125 0 196 66t71 178q0 107 -70.5 169t-194.5 62q-40 0 -82 -3v-180h140q15 0 26 -11t11 -26v-34q0 -15 -11 -26t-26 -11h-140zM303 -2q-21 0 -81 1t-80 1q-15 0 -26 11t-11 26v260h-58q-15 0 -26 11t-11 26v34q0 15 11 26t26 11h58v258
q0 15 11 26t26 11q5 0 72 1.5t97 1.5q102 0 179 -27.5t123 -76.5t68.5 -109.5t22.5 -132.5q0 -156 -104.5 -257.5t-296.5 -101.5z" />
    <glyph glyph-name="Ntilde" unicode="&#xd1;" horiz-adv-x="792"
d="M617 700h41q15 0 26 -11t11 -26v-626q0 -15 -11 -26t-26 -11h-35q-26 0 -45 24l-366 461v-448q0 -15 -11 -26t-26 -11h-41q-15 0 -26 11t-11 26v626q0 15 11 26t26 11h35q26 0 45 -24l366 -463v450q0 15 11 26t26 11zM578 797q-58 -52 -109 -52q-25 0 -69.5 22t-71.5 22
q-18 0 -47 -18q-13 -8 -25 -8q-17 0 -31 17q-8 10 -8 23q0 20 14 31q56 46 103 46q31 0 74 -22.5t69 -22.5q18 0 47 19q15 11 32 11t28 -14q9 -11 9 -24q0 -16 -15 -30z" />
    <glyph glyph-name="Ograve" unicode="&#xd2;" horiz-adv-x="819"
d="M45 350q0 154 102.5 257.5t261.5 103.5q158 0 261.5 -100t103.5 -261q0 -157 -104 -259t-261 -102q-158 0 -261 100t-103 261zM175 350q0 -105 67.5 -175.5t166.5 -70.5q108 0 171.5 70t63.5 176q0 108 -67.5 177t-167.5 69q-101 0 -167.5 -69t-66.5 -177zM334 893
l146 -75q22 -11 22 -36q0 -6 -4 -16q-11 -24 -38 -24q-9 0 -14 2l-153 55q-24 8 -24 34q0 8 3 14l13 29q10 21 32 21q10 0 17 -4z" />
    <glyph glyph-name="Oacute" unicode="&#xd3;" horiz-adv-x="819"
d="M45 350q0 154 102.5 257.5t261.5 103.5q158 0 261.5 -100t103.5 -261q0 -157 -104 -259t-261 -102q-158 0 -261 100t-103 261zM175 350q0 -105 67.5 -175.5t166.5 -70.5q108 0 171.5 70t63.5 176q0 108 -67.5 177t-167.5 69q-101 0 -167.5 -69t-66.5 -177zM365 817
l148 77q7 4 16 4q22 0 32 -21l13 -31q3 -6 3 -14q0 -24 -23 -32l-155 -57q-4 -2 -13 -2q-27 0 -38 25q-4 7 -4 17q0 24 21 34z" />
    <glyph glyph-name="Ocircumflex" unicode="&#xd4;" horiz-adv-x="819"
d="M45 350q0 154 102.5 257.5t261.5 103.5q158 0 261.5 -100t103.5 -261q0 -157 -104 -259t-261 -102q-158 0 -261 100t-103 261zM175 350q0 -105 67.5 -175.5t166.5 -70.5q108 0 171.5 70t63.5 176q0 108 -67.5 177t-167.5 69q-101 0 -167.5 -69t-66.5 -177zM410 799
l-102 -53q-7 -5 -20 -5q-22 0 -34 18q-6 9 -6 21q0 21 17 33l113 70q14 10 33 10q17 0 32 -9l115 -71q17 -11 17 -32q0 -12 -7 -22q-14 -18 -35 -18q-12 0 -21 5z" />
    <glyph glyph-name="Otilde" unicode="&#xd5;" horiz-adv-x="819"
d="M45 350q0 154 102.5 257.5t261.5 103.5q158 0 261.5 -100t103.5 -261q0 -157 -104 -259t-261 -102q-158 0 -261 100t-103 261zM175 350q0 -105 67.5 -175.5t166.5 -70.5q108 0 171.5 70t63.5 176q0 108 -67.5 177t-167.5 69q-101 0 -167.5 -69t-66.5 -177zM580 797
q-58 -52 -109 -52q-25 0 -69.5 22t-71.5 22q-18 0 -47 -18q-13 -8 -25 -8q-17 0 -31 17q-8 10 -8 23q0 20 14 31q56 46 103 46q31 0 74 -22.5t69 -22.5q18 0 47 19q15 11 32 11t28 -14q9 -11 9 -24q0 -16 -15 -30z" />
    <glyph glyph-name="Odieresis" unicode="&#xd6;" horiz-adv-x="819"
d="M45 350q0 154 102.5 257.5t261.5 103.5q158 0 261.5 -100t103.5 -261q0 -157 -104 -259t-261 -102q-158 0 -261 100t-103 261zM175 350q0 -105 67.5 -175.5t166.5 -70.5q108 0 171.5 70t63.5 176q0 108 -67.5 177t-167.5 69q-101 0 -167.5 -69t-66.5 -177zM293 887
q29 0 50 -17t21 -45q0 -31 -21 -48.5t-50 -17.5q-33 0 -55 17.5t-22 48.5q0 28 22 45t55 17zM525 887q29 0 50 -17t21 -45q0 -31 -21 -48.5t-50 -17.5q-33 0 -55 17.5t-22 48.5q0 28 22 45t55 17z" />
    <glyph glyph-name="multiply" unicode="&#xd7;" horiz-adv-x="559"
d="M105 257l103 103l-102 102q-10 10 -10 26t10 26l19 19q11 11 26 11t26 -11l102 -102l102 102q11 11 26 11t26 -11l19 -19q11 -11 11 -26t-11 -26l-102 -102l103 -103q11 -11 11 -26t-11 -26l-19 -19q-10 -10 -26 -10t-26 10l-103 103l-103 -103q-10 -10 -26 -10t-26 10
l-19 19q-10 10 -10 26t10 26z" />
    <glyph glyph-name="Oslash" unicode="&#xd8;" horiz-adv-x="819"
d="M99 124l10 10q-64 91 -64 216q0 154 102.5 257.5t261.5 103.5q121 0 225 -65q16 16 38 16q19 0 32 -13t13 -33q0 -21 -16 -36q73 -101 73 -230q0 -157 -104 -259t-261 -102q-138 0 -234 76l-9 -9q-15 -13 -32 -13q-20 0 -34 15q-14 14 -14 34t13 32zM607 487l-341 -333
q61 -50 143 -50q108 0 171.5 70t63.5 176q0 76 -37 137zM204 227l338 329q-61 40 -133 40q-101 0 -167.5 -69t-66.5 -177q0 -68 29 -123z" />
    <glyph glyph-name="Ugrave" unicode="&#xd9;" horiz-adv-x="750"
d="M541 315v348q0 15 11 26t26 11h48q15 0 26 -11t11 -26v-373q0 -151 -79 -226t-199 -75q-135 0 -216.5 79.5t-81.5 228.5v366q0 15 11 26t26 11h49q15 0 26 -11t11 -26v-340q0 -102 43.5 -160.5t131.5 -58.5q156 0 156 211zM287 893l146 -75q22 -11 22 -36q0 -6 -4 -16
q-11 -24 -38 -24q-9 0 -14 2l-153 55q-24 8 -24 34q0 8 3 14l13 29q10 21 32 21q10 0 17 -4z" />
    <glyph glyph-name="Uacute" unicode="&#xda;" horiz-adv-x="750"
d="M541 315v348q0 15 11 26t26 11h48q15 0 26 -11t11 -26v-373q0 -151 -79 -226t-199 -75q-135 0 -216.5 79.5t-81.5 228.5v366q0 15 11 26t26 11h49q15 0 26 -11t11 -26v-340q0 -102 43.5 -160.5t131.5 -58.5q156 0 156 211zM328 817l148 77q7 4 16 4q22 0 32 -21l13 -31
q3 -6 3 -14q0 -24 -23 -32l-155 -57q-4 -2 -13 -2q-27 0 -38 25q-4 7 -4 17q0 24 21 34z" />
    <glyph glyph-name="Ucircumflex" unicode="&#xdb;" horiz-adv-x="750"
d="M541 315v348q0 15 11 26t26 11h48q15 0 26 -11t11 -26v-373q0 -151 -79 -226t-199 -75q-135 0 -216.5 79.5t-81.5 228.5v366q0 15 11 26t26 11h49q15 0 26 -11t11 -26v-340q0 -102 43.5 -160.5t131.5 -58.5q156 0 156 211zM372 799l-102 -53q-8 -5 -20 -5q-22 0 -34 18
q-6 9 -6 21q0 21 17 33l113 70q14 10 33 10q17 0 32 -9l115 -71q17 -11 17 -32q0 -12 -7 -22q-14 -18 -35 -18q-12 0 -21 5z" />
    <glyph glyph-name="Udieresis" unicode="&#xdc;" horiz-adv-x="750"
d="M541 315v348q0 15 11 26t26 11h48q15 0 26 -11t11 -26v-373q0 -151 -79 -226t-199 -75q-135 0 -216.5 79.5t-81.5 228.5v366q0 15 11 26t26 11h49q15 0 26 -11t11 -26v-340q0 -102 43.5 -160.5t131.5 -58.5q156 0 156 211zM255 887q29 0 50 -17t21 -45q0 -31 -21 -48.5
t-50 -17.5q-33 0 -55 17.5t-22 48.5q0 28 22 45t55 17zM487 887q29 0 50 -17t21 -45q0 -31 -21 -48.5t-50 -17.5q-33 0 -55 17.5t-22 48.5q0 28 22 45t55 17z" />
    <glyph glyph-name="Yacute" unicode="&#xdd;" horiz-adv-x="616"
d="M155 674l158 -267l157 267q15 26 45 26h36q16 0 26.5 -11.5t10.5 -26.5q0 -12 -5 -19l-214 -351v-255q0 -15 -11 -26t-26 -11h-49q-15 0 -26 11t-11 26v255l-212 351q-6 9 -6 20q0 15 11 26t27 11h43q30 0 46 -26zM262 817l148 77q7 4 16 4q22 0 32 -21l13 -31
q3 -6 3 -14q0 -24 -23 -32l-155 -57q-4 -2 -13 -2q-27 0 -38 25q-4 7 -4 17q0 24 21 34z" />
    <glyph glyph-name="Thorn" unicode="&#xde;" horiz-adv-x="612"
d="M296 599q143 0 207 -63.5t64 -160.5q0 -95 -68 -161.5t-188 -66.5q-51 0 -91 4v-114q0 -15 -11 -26t-26 -11h-49q-15 0 -26 11t-11 26v626q0 15 11 26t26 11h49q15 0 26 -11t11 -26v-66q8 0 38 1t38 1zM220 481v-214q48 -5 87 -5q58 0 94 29t36 85q0 108 -139 108
q-50 0 -78 -3z" />
    <glyph glyph-name="germandbls" unicode="&#xdf;" horiz-adv-x="551"
d="M362 -11q-73 0 -126 46q-12 10 -12 31q0 16 8 27q14 18 34 18q14 0 28 -6q23 -9 40 -9q28 0 46 17t18 47t-25.5 56t-56 43.5t-56 48t-25.5 68.5q0 35 13 62.5t28 42t28 33t13 37.5q0 22 -18.5 37t-46.5 15q-39 0 -57 -27t-18 -86v-454q0 -15 -11 -26t-26 -11h-41
q-15 0 -26 11t-11 26v464q0 211 207 211q73 0 121.5 -40t48.5 -98q0 -28 -8.5 -49.5t-20.5 -35l-23.5 -26t-20 -28.5t-8.5 -35q0 -26 17 -46.5t41 -36t47.5 -34t40.5 -50.5t17 -75q0 -70 -45 -119t-114 -49z" />
    <glyph glyph-name="agrave" unicode="&#xe0;" horiz-adv-x="463"
d="M176 -6q-63 0 -102 37t-39 101q0 71 46 108.5t118 37.5q62 0 102 -29v14q0 52 -19 77t-65 25q-41 0 -77 -12q-9 -3 -18 -3q-24 0 -34 21l-6 12q-4 10 -4 16q0 21 21 32q65 30 130 30q96 0 138 -47t42 -140v-237q0 -15 -11 -26t-26 -11h-26q-15 0 -26 11t-11 26v15
q-41 -58 -133 -58zM301 132v46q-29 22 -79 22q-31 0 -51.5 -14.5t-20.5 -41.5q0 -25 18 -39t46 -14q58 0 87 41zM234 693l60 -93q6 -10 6 -23q0 -24 -18 -36q-11 -8 -26 -8q-22 0 -36 15l-71 81q-10 10 -10 26q0 19 15 30l25 18q11 8 23 8q22 0 32 -18z" />
    <glyph glyph-name="aacute" unicode="&#xe1;" horiz-adv-x="463"
d="M176 -6q-63 0 -102 37t-39 101q0 71 46 108.5t118 37.5q62 0 102 -29v14q0 52 -19 77t-65 25q-41 0 -77 -12q-9 -3 -18 -3q-24 0 -34 21l-6 12q-4 10 -4 16q0 21 21 32q65 30 130 30q96 0 138 -47t42 -140v-237q0 -15 -11 -26t-26 -11h-26q-15 0 -26 11t-11 26v15
q-41 -58 -133 -58zM301 132v46q-29 22 -79 22q-31 0 -51.5 -14.5t-20.5 -41.5q0 -25 18 -39t46 -14q58 0 87 41zM177 600l61 95q11 17 32 17q13 0 23 -7l24 -18q15 -11 15 -31q0 -14 -9 -25l-72 -83q-13 -15 -34 -15q-14 0 -27 8q-19 13 -19 37q0 12 6 22z" />
    <glyph glyph-name="acircumflex" unicode="&#xe2;" horiz-adv-x="463"
d="M176 -6q-63 0 -102 37t-39 101q0 71 46 108.5t118 37.5q62 0 102 -29v14q0 52 -19 77t-65 25q-41 0 -77 -12q-9 -3 -18 -3q-24 0 -34 21l-6 12q-4 10 -4 16q0 21 21 32q65 30 130 30q96 0 138 -47t42 -140v-237q0 -15 -11 -26t-26 -11h-26q-15 0 -26 11t-11 26v15
q-41 -58 -133 -58zM301 132v46q-29 22 -79 22q-31 0 -51.5 -14.5t-20.5 -41.5q0 -25 18 -39t46 -14q58 0 87 41zM135 523q-21 0 -33 17q-9 11 -9 26q0 21 16 35l89 77q14 12 33 12q21 0 34 -13l88 -76q15 -13 15 -34q0 -18 -10 -29q-14 -17 -34 -17q-14 0 -27 10l-67 54
l-68 -53q-12 -9 -27 -9z" />
    <glyph glyph-name="atilde" unicode="&#xe3;" horiz-adv-x="463"
d="M176 -6q-63 0 -102 37t-39 101q0 71 46 108.5t118 37.5q62 0 102 -29v14q0 52 -19 77t-65 25q-41 0 -77 -12q-9 -3 -18 -3q-24 0 -34 21l-6 12q-4 10 -4 16q0 21 21 32q65 30 130 30q96 0 138 -47t42 -140v-237q0 -15 -11 -26t-26 -11h-26q-15 0 -26 11t-11 26v15
q-41 -58 -133 -58zM301 132v46q-29 22 -79 22q-31 0 -51.5 -14.5t-20.5 -41.5q0 -25 18 -39t46 -14q58 0 87 41zM381 573q-54 -48 -99 -48q-22 0 -57 25t-58 25q-11 0 -38 -17q-17 -10 -27 -10q-14 0 -28 15q-7 8 -7 20q0 20 16 34q50 42 93 42q24 0 60 -25t56 -25
q6 0 12.5 2t10 4t10 7t8.5 6q16 11 29 11q14 0 26 -13q9 -10 9 -22q0 -17 -16 -31z" />
    <glyph glyph-name="adieresis" unicode="&#xe4;" horiz-adv-x="463"
d="M176 -6q-63 0 -102 37t-39 101q0 71 46 108.5t118 37.5q62 0 102 -29v14q0 52 -19 77t-65 25q-41 0 -77 -12q-9 -3 -18 -3q-24 0 -34 21l-6 12q-4 10 -4 16q0 21 21 32q65 30 130 30q96 0 138 -47t42 -140v-237q0 -15 -11 -26t-26 -11h-26q-15 0 -26 11t-11 26v15
q-41 -58 -133 -58zM301 132v46q-29 22 -79 22q-31 0 -51.5 -14.5t-20.5 -41.5q0 -25 18 -39t46 -14q58 0 87 41zM139 532q-27 0 -46 18t-19 49q0 29 19 46.5t46 17.5q24 0 42 -17.5t18 -46.5q0 -31 -18 -49t-42 -18zM337 532q-27 0 -45.5 18t-18.5 49q0 29 18.5 46.5
t45.5 17.5q24 0 42 -17.5t18 -46.5q0 -31 -17.5 -49t-42.5 -18z" />
    <glyph glyph-name="aring" unicode="&#xe5;" horiz-adv-x="463"
d="M176 -6q-63 0 -102 37t-39 101q0 71 46 108.5t118 37.5q62 0 102 -29v14q0 52 -19 77t-65 25q-41 0 -77 -12q-9 -3 -18 -3q-24 0 -34 21l-6 12q-4 10 -4 16q0 21 21 32q65 30 130 30q96 0 138 -47t42 -140v-237q0 -15 -11 -26t-26 -11h-26q-15 0 -26 11t-11 26v15
q-41 -58 -133 -58zM301 132v46q-29 22 -79 22q-31 0 -51.5 -14.5t-20.5 -41.5q0 -25 18 -39t46 -14q58 0 87 41zM237 494q-54 0 -90 34.5t-36 83.5q0 50 36 85t90 35q55 0 91.5 -35t36.5 -85q0 -49 -36.5 -83.5t-91.5 -34.5zM239 669q-24 0 -39 -16t-15 -40t15 -40.5
t39 -16.5q23 0 37.5 16.5t14.5 40.5t-14.5 40t-37.5 16z" />
    <glyph glyph-name="ae" unicode="&#xe6;" horiz-adv-x="765"
d="M409 271l206 -4q-2 44 -29.5 71t-77.5 27q-68 0 -101 -57q2 -22 2 -37zM300 129l1 57q-36 14 -79 14q-31 0 -51.5 -15.5t-20.5 -40.5q0 -23 17 -38t47 -15q46 0 86 38zM350 48q-72 -57 -154 -57q-78 0 -119.5 38.5t-41.5 108.5q0 64 45.5 102t118.5 38q25 0 56.5 -7
t45.5 -15q1 6 1 18q0 44 -21.5 67.5t-58.5 23.5q-44 0 -82 -12q-9 -3 -18 -3q-23 0 -33 20l-7 13q-3 6 -3 14q0 24 20 34q65 30 130 30q93 0 138 -47q63 47 150 47q89 0 151 -58.5t62 -150.5q0 -18 -1 -26q-2 -14 -14 -25t-26 -11h-280v-43q14 -28 46.5 -45t76.5 -17
q51 0 91 19q11 6 23 6q20 0 30 -15l8 -12q6 -9 6 -20q0 -19 -17 -31q-67 -43 -150 -43q-108 0 -173 59z" />
    <glyph glyph-name="ccedilla" unicode="&#xe7;" horiz-adv-x="491"
d="M314 -34q104 -8 104 -86q0 -40 -36 -64t-102 -24q-53 0 -94 24q-15 10 -15 29q0 8 3 14q9 17 29 17q10 0 18 -4q23 -10 43 -10q39 0 39 25q0 18 -15 23q-19 7 -25.5 17.5t-6.5 30.5v32q-101 8 -160.5 71.5t-59.5 163.5t66 168t167 68q86 0 148 -34q18 -10 18 -33
q0 -9 -4 -16l-15 -26q-13 -21 -34 -21q-9 0 -18 4q-37 18 -80 18q-50 0 -87.5 -35.5t-37.5 -92.5q0 -58 38.5 -93.5t91.5 -35.5q47 0 87 26q13 8 24 8q19 0 31 -15l17 -21q7 -7 7 -20q0 -21 -14 -32q-58 -46 -127 -51v-25z" />
    <glyph glyph-name="egrave" unicode="&#xe8;" horiz-adv-x="523"
d="M151 267h221v2q0 42 -27.5 69t-75.5 27q-98 0 -118 -98zM290 85q48 0 88 19q14 7 23 7q17 0 29 -17l9 -13q6 -9 6 -20q0 -20 -16 -30q-67 -42 -151 -42q-109 0 -175.5 65t-66.5 171q0 101 65 168.5t173 67.5q89 0 151 -58.5t62 -150.5q0 -18 -1 -26q-1 -13 -13.5 -24.5
t-25.5 -11.5h-292q7 -50 44 -77.5t91 -27.5zM274 693l60 -93q6 -10 6 -23q0 -24 -18 -36q-11 -8 -26 -8q-22 0 -36 15l-71 81q-10 10 -10 26q0 19 15 30l25 18q11 8 23 8q22 0 32 -18z" />
    <glyph glyph-name="eacute" unicode="&#xe9;" horiz-adv-x="523"
d="M151 267h221v2q0 42 -27.5 69t-75.5 27q-98 0 -118 -98zM290 85q48 0 88 19q14 7 23 7q17 0 29 -17l9 -13q6 -9 6 -20q0 -20 -16 -30q-67 -42 -151 -42q-109 0 -175.5 65t-66.5 171q0 101 65 168.5t173 67.5q89 0 151 -58.5t62 -150.5q0 -18 -1 -26q-1 -13 -13.5 -24.5
t-25.5 -11.5h-292q7 -50 44 -77.5t91 -27.5zM227 600l61 95q11 17 32 17q13 0 23 -7l24 -18q15 -11 15 -31q0 -14 -9 -25l-72 -83q-13 -15 -34 -15q-14 0 -27 8q-19 13 -19 37q0 12 6 22z" />
    <glyph glyph-name="ecircumflex" unicode="&#xea;" horiz-adv-x="523"
d="M151 267h221v2q0 42 -27.5 69t-75.5 27q-98 0 -118 -98zM290 85q48 0 88 19q14 7 23 7q17 0 29 -17l9 -13q6 -9 6 -20q0 -20 -16 -30q-67 -42 -151 -42q-109 0 -175.5 65t-66.5 171q0 101 65 168.5t173 67.5q89 0 151 -58.5t62 -150.5q0 -18 -1 -26q-1 -13 -13.5 -24.5
t-25.5 -11.5h-292q7 -50 44 -77.5t91 -27.5zM173 523q-21 0 -33 17q-9 11 -9 26q0 21 16 35l89 77q13 12 33 12q21 0 34 -13l88 -76q15 -13 15 -34q0 -18 -10 -29q-14 -17 -34 -17q-14 0 -27 10l-67 54l-68 -53q-12 -9 -27 -9z" />
    <glyph glyph-name="edieresis" unicode="&#xeb;" horiz-adv-x="523"
d="M151 267h221v2q0 42 -27.5 69t-75.5 27q-98 0 -118 -98zM290 85q48 0 88 19q14 7 23 7q17 0 29 -17l9 -13q6 -9 6 -20q0 -20 -16 -30q-67 -42 -151 -42q-109 0 -175.5 65t-66.5 171q0 101 65 168.5t173 67.5q89 0 151 -58.5t62 -150.5q0 -18 -1 -26q-1 -13 -13.5 -24.5
t-25.5 -11.5h-292q7 -50 44 -77.5t91 -27.5zM172 532q-27 0 -46 18t-19 49q0 29 19 46.5t46 17.5q24 0 42 -17.5t18 -46.5q0 -31 -18 -49t-42 -18zM370 532q-27 0 -45.5 18t-18.5 49q0 29 18.5 46.5t45.5 17.5q24 0 42 -17.5t18 -46.5q0 -31 -17.5 -49t-42.5 -18z" />
    <glyph glyph-name="igrave" unicode="&#xec;" horiz-adv-x="277"
d="M118 450h41q15 0 26 -11t11 -26v-376q0 -15 -11 -26t-26 -11h-41q-15 0 -26 11t-11 26v376q0 15 11 26t26 11zM109 693l60 -93q6 -10 6 -23q0 -24 -18 -36q-11 -8 -26 -8q-23 0 -36 15l-71 81q-10 10 -10 26q0 19 15 30l25 18q11 8 23 8q21 0 32 -18z" />
    <glyph glyph-name="iacute" unicode="&#xed;" horiz-adv-x="277"
d="M118 450h41q15 0 26 -11t11 -26v-376q0 -15 -11 -26t-26 -11h-41q-15 0 -26 11t-11 26v376q0 15 11 26t26 11zM85 600l61 95q11 17 32 17q13 0 23 -7l24 -18q15 -11 15 -31q0 -14 -9 -25l-72 -83q-13 -15 -34 -15q-14 0 -27 8q-19 13 -19 37q0 12 6 22z" />
    <glyph glyph-name="icircumflex" unicode="&#xee;" horiz-adv-x="277"
d="M118 450h41q15 0 26 -11t11 -26v-376q0 -15 -11 -26t-26 -11h-41q-15 0 -26 11t-11 26v376q0 15 11 26t26 11zM43 523q-21 0 -33 17q-9 10 -9 26q0 21 16 35l89 77q14 12 33 12q21 0 34 -13l88 -76q15 -13 15 -34q0 -18 -10 -29q-14 -17 -34 -17q-14 0 -27 10l-67 54
l-68 -53q-12 -9 -27 -9z" />
    <glyph glyph-name="idieresis" unicode="&#xef;" horiz-adv-x="277"
d="M118 450h41q15 0 26 -11t11 -26v-376q0 -15 -11 -26t-26 -11h-41q-15 0 -26 11t-11 26v376q0 15 11 26t26 11zM42 532q-27 0 -46 18t-19 49q0 29 19 46.5t46 17.5q24 0 42 -17.5t18 -46.5q0 -31 -18 -49t-42 -18zM240 532q-27 0 -45.5 18t-18.5 49q0 29 18.5 46.5
t45.5 17.5q24 0 42 -17.5t18 -46.5q0 -31 -17.5 -49t-42.5 -18z" />
    <glyph glyph-name="eth" unicode="&#xf0;" horiz-adv-x="562"
d="M281 -11q-110 0 -177.5 66.5t-67.5 169.5t67.5 169.5t177.5 66.5q62 0 95 -45q-20 64 -61 122l-91 -33q-8 -2 -11 -2q-27 0 -35 25l-11 32q-2 8 -2 11q0 27 26 36l47 17q-10 9 -33 28q-16 10 -16 31q0 11 6 22l8 12q11 17 32 17q9 0 19 -5q44 -27 92 -66l69 25q8 2 11 2
q27 0 35 -25l10 -32q2 -8 2 -11q0 -28 -26 -36l-24 -9q49 -71 76 -154t27 -159q0 -129 -66 -202t-179 -73zM281 353q-52 0 -87 -35.5t-35 -92.5q0 -56 34.5 -92.5t87.5 -36.5q56 0 89.5 41.5t33.5 114.5v17q-11 37 -44 60.5t-79 23.5z" />
    <glyph glyph-name="ntilde" unicode="&#xf1;" horiz-adv-x="546"
d="M378 244q0 106 -101 106q-55 0 -98 -43v-270q0 -15 -11 -26t-26 -11h-41q-15 0 -26 11t-11 26v376q0 15 11 26t26 11h41q15 0 26 -11.5t11 -29.5q53 49 129 49q185 0 185 -194v-227q0 -15 -11 -26t-26 -11h-41q-15 0 -26 11t-11 26v207zM425 573q-54 -48 -99 -48
q-22 0 -57 25t-58 25q-11 0 -38 -17q-17 -10 -27 -10q-14 0 -28 15q-7 8 -7 20q0 20 16 34q50 42 93 42q24 0 60 -25t56 -25q6 0 12.5 2t10 4t10 7t8.5 6q16 11 29 11q14 0 26 -13q9 -10 9 -22q0 -17 -16 -31z" />
    <glyph glyph-name="ograve" unicode="&#xf2;" horiz-adv-x="562"
d="M281 -11q-110 0 -177.5 66.5t-67.5 169.5t67.5 169.5t177.5 66.5t177.5 -66.5t67.5 -169.5t-67.5 -169.5t-177.5 -66.5zM281 353q-52 0 -87 -35.5t-35 -92.5q0 -56 34.5 -92.5t87.5 -36.5q54 0 88.5 35.5t34.5 93.5q0 56 -35 92t-88 36zM270 693l60 -93q6 -10 6 -23
q0 -24 -18 -36q-11 -8 -26 -8q-22 0 -36 15l-71 81q-10 10 -10 26q0 19 15 30l25 18q11 8 23 8q22 0 32 -18z" />
    <glyph glyph-name="oacute" unicode="&#xf3;" horiz-adv-x="562"
d="M281 -11q-110 0 -177.5 66.5t-67.5 169.5t67.5 169.5t177.5 66.5t177.5 -66.5t67.5 -169.5t-67.5 -169.5t-177.5 -66.5zM281 353q-52 0 -87 -35.5t-35 -92.5q0 -56 34.5 -92.5t87.5 -36.5q54 0 88.5 35.5t34.5 93.5q0 56 -35 92t-88 36zM233 600l61 95q11 17 32 17
q13 0 23 -7l24 -18q15 -11 15 -31q0 -14 -9 -25l-72 -83q-13 -15 -34 -15q-14 0 -27 8q-19 13 -19 37q0 12 6 22z" />
    <glyph glyph-name="ocircumflex" unicode="&#xf4;" horiz-adv-x="562"
d="M281 -11q-110 0 -177.5 66.5t-67.5 169.5t67.5 169.5t177.5 66.5t177.5 -66.5t67.5 -169.5t-67.5 -169.5t-177.5 -66.5zM281 353q-52 0 -87 -35.5t-35 -92.5q0 -56 34.5 -92.5t87.5 -36.5q54 0 88.5 35.5t34.5 93.5q0 56 -35 92t-88 36zM187 523q-21 0 -33 17
q-9 11 -9 26q0 21 16 35l89 77q14 12 33 12q21 0 34 -13l88 -76q15 -13 15 -34q0 -18 -10 -29q-14 -17 -34 -17q-14 0 -27 10l-67 54l-68 -53q-12 -9 -27 -9z" />
    <glyph glyph-name="otilde" unicode="&#xf5;" horiz-adv-x="562"
d="M281 -11q-110 0 -177.5 66.5t-67.5 169.5t67.5 169.5t177.5 66.5t177.5 -66.5t67.5 -169.5t-67.5 -169.5t-177.5 -66.5zM281 353q-52 0 -87 -35.5t-35 -92.5q0 -56 34.5 -92.5t87.5 -36.5q54 0 88.5 35.5t34.5 93.5q0 56 -35 92t-88 36zM433 573q-54 -48 -99 -48
q-22 0 -57 25t-58 25q-11 0 -38 -17q-17 -10 -27 -10q-14 0 -28 15q-7 8 -7 20q0 20 16 34q50 42 93 42q24 0 60 -25t56 -25q13 0 41 19q16 11 29 11q14 0 26 -13q9 -10 9 -22q0 -17 -16 -31z" />
    <glyph glyph-name="odieresis" unicode="&#xf6;" horiz-adv-x="562"
d="M281 -11q-110 0 -177.5 66.5t-67.5 169.5t67.5 169.5t177.5 66.5t177.5 -66.5t67.5 -169.5t-67.5 -169.5t-177.5 -66.5zM281 353q-52 0 -87 -35.5t-35 -92.5q0 -56 34.5 -92.5t87.5 -36.5q54 0 88.5 35.5t34.5 93.5q0 56 -35 92t-88 36zM191 532q-27 0 -46 18t-19 49
q0 29 19 46.5t46 17.5q24 0 42 -17.5t18 -46.5q0 -31 -18 -49t-42 -18zM389 532q-27 0 -45.5 18t-18.5 49q0 29 18.5 46.5t45.5 17.5q24 0 42 -17.5t18 -46.5q0 -31 -17.5 -49t-42.5 -18z" />
    <glyph glyph-name="divide" unicode="&#xf7;"
d="M298 622q30 0 48.5 -19.5t18.5 -45.5q0 -28 -18.5 -49t-48.5 -21q-31 0 -49.5 21t-18.5 49q0 26 18.5 45.5t49.5 19.5zM298 230q29 0 48 -20.5t19 -45.5q0 -28 -18.5 -49t-48.5 -21q-31 0 -49.5 20.5t-18.5 49.5q0 25 18.5 45.5t49.5 20.5zM530 373v-26q0 -15 -11 -26
t-26 -11h-390q-15 0 -26 11t-11 26v26q0 15 11 26t26 11h390q15 0 26 -11t11 -26z" />
    <glyph glyph-name="oslash" unicode="&#xf8;" horiz-adv-x="577"
d="M130 36l-17 -15q-7 -9 -21 -9t-24 12q-8 10 -8 22q0 16 11 24l13 11q-48 60 -48 144q0 102 71 169t182 67q91 0 158 -48l17 15q10 8 21 8q15 0 24 -11q8 -10 8 -20q0 -15 -12 -25l-13 -11q49 -62 49 -144q0 -102 -70.5 -169t-181.5 -67q-93 0 -159 47zM404 288l-188 -173
q32 -19 73 -19q59 0 94.5 35.5t35.5 93.5q0 36 -15 63zM173 162l188 172q-32 19 -72 19q-58 0 -94 -35t-36 -93q0 -35 14 -63z" />
    <glyph glyph-name="ugrave" unicode="&#xf9;" horiz-adv-x="535"
d="M169 199q0 -103 86 -103q59 0 101 55v262q0 15 11 26t26 11h41q15 0 26 -11t11 -26v-376q0 -15 -11 -26t-26 -11h-41q-15 0 -26 11t-11 26v18q-54 -66 -144 -66q-70 0 -114 47t-44 139v238q0 15 11 26t26 11h41q15 0 26 -11t11 -26v-214zM252 693l60 -93q6 -10 6 -23
q0 -24 -18 -36q-11 -8 -26 -8q-22 0 -36 15l-71 81q-10 10 -10 26q0 19 15 30l25 18q11 8 23 8q22 0 32 -18z" />
    <glyph glyph-name="uacute" unicode="&#xfa;" horiz-adv-x="535"
d="M169 199q0 -103 86 -103q59 0 101 55v262q0 15 11 26t26 11h41q15 0 26 -11t11 -26v-376q0 -15 -11 -26t-26 -11h-41q-15 0 -26 11t-11 26v18q-54 -66 -144 -66q-70 0 -114 47t-44 139v238q0 15 11 26t26 11h41q15 0 26 -11t11 -26v-214zM223 600l61 95q11 17 32 17
q13 0 23 -7l24 -18q15 -11 15 -31q0 -14 -9 -25l-72 -83q-13 -15 -34 -15q-14 0 -27 8q-19 13 -19 37q0 12 6 22z" />
    <glyph glyph-name="ucircumflex" unicode="&#xfb;" horiz-adv-x="535"
d="M169 199q0 -103 86 -103q59 0 101 55v262q0 15 11 26t26 11h41q15 0 26 -11t11 -26v-376q0 -15 -11 -26t-26 -11h-41q-15 0 -26 11t-11 26v18q-54 -66 -144 -66q-70 0 -114 47t-44 139v238q0 15 11 26t26 11h41q15 0 26 -11t11 -26v-214zM171 523q-21 0 -33 17
q-9 11 -9 26q0 21 16 35l89 77q14 12 33 12q21 0 34 -13l88 -76q15 -13 15 -34q0 -18 -10 -29q-14 -17 -34 -17q-14 0 -27 10l-67 54l-68 -53q-12 -9 -27 -9z" />
    <glyph glyph-name="udieresis" unicode="&#xfc;" horiz-adv-x="535"
d="M169 199q0 -103 86 -103q59 0 101 55v262q0 15 11 26t26 11h41q15 0 26 -11t11 -26v-376q0 -15 -11 -26t-26 -11h-41q-15 0 -26 11t-11 26v18q-54 -66 -144 -66q-70 0 -114 47t-44 139v238q0 15 11 26t26 11h41q15 0 26 -11t11 -26v-214zM168 532q-27 0 -46 18t-19 49
q0 29 19 46.5t46 17.5q24 0 42 -17.5t18 -46.5q0 -31 -18 -49t-42 -18zM366 532q-27 0 -45.5 18t-18.5 49q0 29 18.5 46.5t45.5 17.5q24 0 42 -17.5t18 -46.5q0 -31 -17.5 -49t-42.5 -18z" />
    <glyph glyph-name="yacute" unicode="&#xfd;" horiz-adv-x="495"
d="M243 204q6 -15 22 -65q8 44 16 66l69 210q12 35 49 35h29q18 0 31 -13t13 -31q0 -8 -3 -17l-153 -389q-47 -120 -84 -160t-90 -40q-38 0 -76 19q-18 9 -18 29q0 7 3 13l13 27q10 22 29 22q9 0 23 -3q4 -1 13 -1q41 0 69 70l10 24l-181 391q-4 10 -4 17q0 17 12 29.5
t30 12.5h43q30 0 42 -28zM194 600l61 95q11 17 32 17q13 0 23 -7l24 -18q15 -11 15 -31q0 -14 -9 -25l-72 -83q-13 -15 -34 -15q-14 0 -27 8q-19 13 -19 37q0 12 6 22z" />
    <glyph glyph-name="thorn" unicode="&#xfe;" horiz-adv-x="558"
d="M522 232q0 -105 -66 -174t-172 -69q-67 0 -105 22v-174q0 -15 -11 -26t-26 -11h-41q-15 0 -26 11t-11 26v826q0 15 11 26t26 11h41q15 0 26 -11t11 -26v-249q54 47 139 47q92 0 148 -64t56 -165zM179 304v-182q40 -26 95 -26q58 0 92 37.5t34 95.5q0 55 -31 89.5
t-87 34.5q-59 0 -103 -49z" />
    <glyph glyph-name="ydieresis" unicode="&#xff;" horiz-adv-x="495"
d="M243 204q6 -15 22 -65q8 44 16 66l69 210q12 35 49 35h29q18 0 31 -13t13 -31q0 -8 -3 -17l-153 -389q-47 -120 -84 -160t-90 -40q-38 0 -76 19q-18 9 -18 29q0 7 3 13l13 27q10 22 29 22q9 0 23 -3q4 -1 13 -1q41 0 69 70l10 24l-181 391q-4 10 -4 17q0 17 12 29.5
t30 12.5h43q30 0 42 -28zM157 532q-27 0 -46 18t-19 49q0 29 19 46.5t46 17.5q24 0 42 -17.5t18 -46.5q0 -31 -18 -49t-42 -18zM355 532q-27 0 -45.5 18t-18.5 49q0 29 18.5 46.5t45.5 17.5q24 0 42 -17.5t18 -46.5q0 -31 -17.5 -49t-42.5 -18z" />
    <glyph glyph-name="Amacron" unicode="&#x100;" horiz-adv-x="706"
d="M499 179h-299l-62 -151q-10 -28 -41 -28h-36q-17 0 -28 11.5t-11 27.5q0 7 3 14l262 621q12 28 42 28h48q30 0 42 -28l262 -621q3 -7 3 -14q0 -16 -11 -27.5t-28 -11.5h-43q-31 0 -41 28zM350 543l-103 -249h205zM507 815v-18q0 -15 -11 -26t-26 -11h-235q-15 0 -26 11
t-11 26v18q0 15 11 26t26 11h235q15 0 26 -11t11 -26z" />
    <glyph glyph-name="amacron" unicode="&#x101;" horiz-adv-x="463"
d="M176 -6q-63 0 -102 37t-39 101q0 71 46 108.5t118 37.5q62 0 102 -29v14q0 52 -19 77t-65 25q-41 0 -77 -12q-9 -3 -18 -3q-24 0 -34 21l-6 12q-4 10 -4 16q0 21 21 32q65 30 130 30q96 0 138 -47t42 -140v-237q0 -15 -11 -26t-26 -11h-26q-15 0 -26 11t-11 26v15
q-41 -58 -133 -58zM301 132v46q-29 22 -79 22q-31 0 -51.5 -14.5t-20.5 -41.5q0 -25 18 -39t46 -14q58 0 87 41zM375 605v-18q0 -15 -11 -26t-26 -11h-205q-15 0 -26 11t-11 26v18q0 15 11 26t26 11h205q15 0 26 -11t11 -26z" />
    <glyph glyph-name="Abreve" unicode="&#x102;" horiz-adv-x="706"
d="M499 179h-299l-62 -151q-10 -28 -41 -28h-36q-17 0 -28 11.5t-11 27.5q0 7 3 14l262 621q12 28 42 28h48q30 0 42 -28l262 -621q3 -7 3 -14q0 -16 -11 -27.5t-28 -11.5h-43q-31 0 -41 28zM350 543l-103 -249h205zM543 849q0 -16 -9 -25q-32 -36 -80.5 -61.5t-95.5 -25.5
q-102 0 -179 87q-9 9 -9 25t11 27q12 12 27 12q16 0 34 -13q47 -38 116 -38q64 0 113 38q18 13 33 13q16 0 28 -12q11 -10 11 -27z" />
    <glyph glyph-name="abreve" unicode="&#x103;" horiz-adv-x="463"
d="M176 -6q-63 0 -102 37t-39 101q0 71 46 108.5t118 37.5q62 0 102 -29v14q0 52 -19 77t-65 25q-41 0 -77 -12q-9 -3 -18 -3q-24 0 -34 21l-6 12q-4 10 -4 16q0 21 21 32q65 30 130 30q96 0 138 -47t42 -140v-237q0 -15 -11 -26t-26 -11h-26q-15 0 -26 11t-11 26v15
q-41 -58 -133 -58zM301 132v46q-29 22 -79 22q-31 0 -51.5 -14.5t-20.5 -41.5q0 -25 18 -39t46 -14q58 0 87 41zM384 637q0 -13 -7 -21q-64 -84 -152 -84q-85 0 -142 83q-7 11 -7 21q0 16 14 27q11 8 23 8q16 0 28 -12q40 -34 89 -34q51 0 91 33q15 12 29 12q11 0 22 -8
q12 -9 12 -25z" />
    <glyph glyph-name="Aogonek" unicode="&#x104;" horiz-adv-x="706"
d="M499 179h-299l-62 -151q-10 -28 -41 -28h-36q-17 0 -28 11.5t-11 27.5q0 7 3 14l262 621q12 28 42 28h48q30 0 42 -28l262 -621q3 -7 3 -14q0 -16 -11 -27.5t-28 -11.5q-44 0 -76.5 -21t-32.5 -47q0 -21 13.5 -30.5t31.5 -9.5q10 0 15 1t14 1q25 0 32 -21l6 -19
q2 -8 2 -11q0 -19 -22 -29q-30 -14 -73 -14q-57 0 -95.5 23t-38.5 71q0 47 42 77t107 42q-6 6 -9 15zM350 543l-103 -249h205z" />
    <glyph glyph-name="aogonek" unicode="&#x105;" horiz-adv-x="463"
d="M176 -6q-63 0 -102 37t-39 101q0 71 46 108.5t118 37.5q62 0 102 -29v14q0 52 -19 77t-65 25q-41 0 -77 -12q-9 -3 -18 -3q-24 0 -34 21l-6 12q-4 10 -4 16q0 21 21 32q65 30 130 30q96 0 138 -47t42 -140v-237q0 -15 -11 -26t-26 -11h-5q-42 -1 -73 -22t-31 -46
q0 -21 13.5 -30.5t31.5 -9.5q2 0 9.5 0.5t10.5 0.5q14 0 19.5 -1t10.5 -5t8 -13l8 -25q1 -2 1 -7q0 -20 -16 -26q-34 -16 -77 -16q-57 0 -95.5 23t-38.5 71q0 50 48 81t119 41q-6 9 -6 21v15q-41 -58 -133 -58zM301 132v46q-29 22 -79 22q-31 0 -51.5 -14.5t-20.5 -41.5
q0 -25 18 -39t46 -14q58 0 87 41z" />
    <glyph glyph-name="Cacute" unicode="&#x106;" horiz-adv-x="650"
d="M527 562q-66 34 -124 34q-99 0 -163.5 -67t-64.5 -179q0 -109 67.5 -177.5t174.5 -68.5q62 0 126 35q12 6 23 6q22 0 32 -17l18 -28q7 -10 7 -23q0 -19 -14 -28q-91 -60 -203 -60q-161 0 -261 99t-100 262q0 157 95 259t263 102q93 0 183 -50q20 -10 20 -29q0 -10 -6 -20
l-21 -37q-12 -19 -30 -19q-11 0 -22 6zM333 817l148 77q7 4 16 4q22 0 32 -21l13 -31q3 -6 3 -14q0 -24 -23 -32l-155 -57q-4 -2 -13 -2q-27 0 -38 25q-4 7 -4 17q0 24 21 34z" />
    <glyph glyph-name="cacute" unicode="&#x107;" horiz-adv-x="491"
d="M382 331q-9 0 -18 4q-37 18 -80 18q-50 0 -87.5 -35.5t-37.5 -92.5q0 -58 38.5 -93.5t91.5 -35.5q47 0 87 26q13 8 24 8q19 0 31 -15l17 -21q7 -7 7 -20q0 -21 -14 -32q-67 -53 -158 -53q-112 0 -179.5 64.5t-67.5 171.5q0 100 66 168t167 68q86 0 148 -34q18 -10 18 -33
q0 -9 -4 -16l-15 -26q-13 -21 -34 -21zM218 600l61 95q11 17 32 17q13 0 23 -7l24 -18q15 -11 15 -31q0 -14 -9 -25l-72 -83q-14 -15 -34 -15q-14 0 -27 8q-19 13 -19 37q0 12 6 22z" />
    <glyph glyph-name="Ccircumflex" unicode="&#x108;" horiz-adv-x="650"
d="M527 562q-66 34 -124 34q-99 0 -163.5 -67t-64.5 -179q0 -109 67.5 -177.5t174.5 -68.5q62 0 126 35q12 6 23 6q22 0 32 -17l18 -28q7 -10 7 -23q0 -19 -14 -28q-91 -60 -203 -60q-161 0 -261 99t-100 262q0 157 95 259t263 102q93 0 183 -50q20 -10 20 -29q0 -10 -6 -20
l-21 -37q-12 -19 -30 -19q-11 0 -22 6zM385 799l-102 -53q-7 -5 -20 -5q-22 0 -34 18q-6 9 -6 21q0 21 17 33l113 70q14 10 33 10q17 0 32 -9l115 -71q17 -11 17 -32q0 -12 -7 -22q-13 -18 -35 -18q-12 0 -21 5z" />
    <glyph glyph-name="ccircumflex" unicode="&#x109;" horiz-adv-x="491"
d="M382 331q-9 0 -18 4q-37 18 -80 18q-50 0 -87.5 -35.5t-37.5 -92.5q0 -58 38.5 -93.5t91.5 -35.5q47 0 87 26q13 8 24 8q19 0 31 -15l17 -21q7 -7 7 -20q0 -21 -14 -32q-67 -53 -158 -53q-112 0 -179.5 64.5t-67.5 171.5q0 100 66 168t167 68q86 0 148 -34q18 -10 18 -33
q0 -9 -4 -16l-15 -26q-13 -21 -34 -21zM181 523q-21 0 -33 17q-9 11 -9 26q0 21 16 35l89 77q14 12 33 12q21 0 34 -13l88 -76q15 -13 15 -34q0 -18 -10 -29q-14 -17 -34 -17q-14 0 -27 10l-67 54l-68 -53q-12 -9 -27 -9z" />
    <glyph glyph-name="Cdotaccent" unicode="&#x10a;" horiz-adv-x="650"
d="M527 562q-66 34 -124 34q-99 0 -163.5 -67t-64.5 -179q0 -109 67.5 -177.5t174.5 -68.5q62 0 126 35q12 6 23 6q22 0 32 -17l18 -28q7 -10 7 -23q0 -19 -14 -28q-91 -60 -203 -60q-161 0 -261 99t-100 262q0 157 95 259t263 102q93 0 183 -50q20 -10 20 -29q0 -10 -6 -20
l-21 -37q-12 -19 -30 -19q-11 0 -22 6zM383 902q30 0 52.5 -19.5t22.5 -51.5q0 -34 -22.5 -54.5t-52.5 -20.5q-33 0 -56 20t-23 55q0 32 23 51.5t56 19.5z" />
    <glyph glyph-name="cdotaccent" unicode="&#x10b;" horiz-adv-x="491"
d="M382 331q-9 0 -18 4q-37 18 -80 18q-50 0 -87.5 -35.5t-37.5 -92.5q0 -58 38.5 -93.5t91.5 -35.5q47 0 87 26q13 8 24 8q19 0 31 -15l17 -21q7 -7 7 -20q0 -21 -14 -32q-67 -53 -158 -53q-112 0 -179.5 64.5t-67.5 171.5q0 100 66 168t167 68q86 0 148 -34q18 -10 18 -33
q0 -9 -4 -16l-15 -26q-13 -21 -34 -21zM275 679q26 0 46 -18.5t20 -48.5q0 -33 -20 -52.5t-46 -19.5q-31 0 -51.5 19.5t-20.5 52.5q0 30 21 48.5t51 18.5z" />
    <glyph glyph-name="Ccaron" unicode="&#x10c;" horiz-adv-x="650"
d="M527 562q-66 34 -124 34q-99 0 -163.5 -67t-64.5 -179q0 -109 67.5 -177.5t174.5 -68.5q62 0 126 35q12 6 23 6q22 0 32 -17l18 -28q7 -10 7 -23q0 -19 -14 -28q-91 -60 -203 -60q-161 0 -261 99t-100 262q0 157 95 259t263 102q93 0 183 -50q20 -10 20 -29q0 -10 -6 -20
l-21 -37q-12 -19 -30 -19q-11 0 -22 6zM512 897q22 0 33 -17q6 -9 6 -20q0 -21 -18 -34l-112 -70q-14 -10 -34 -10q-18 0 -33 9l-113 71q-17 11 -17 32q0 13 7 23q12 17 33 17q12 0 22 -6l103 -60l102 60q8 5 21 5z" />
    <glyph glyph-name="ccaron" unicode="&#x10d;" horiz-adv-x="491"
d="M382 331q-9 0 -18 4q-37 18 -80 18q-50 0 -87.5 -35.5t-37.5 -92.5q0 -58 38.5 -93.5t91.5 -35.5q47 0 87 26q13 8 24 8q19 0 31 -15l17 -21q7 -7 7 -20q0 -21 -14 -32q-67 -53 -158 -53q-112 0 -179.5 64.5t-67.5 171.5q0 100 66 168t167 68q86 0 148 -34q18 -10 18 -33
q0 -9 -4 -16l-15 -26q-13 -21 -34 -21zM370 691q17 0 30 -13q10 -11 10 -27q0 -21 -15 -33l-93 -81q-14 -12 -33 -12q-21 0 -34 13l-92 80q-14 14 -14 33q0 15 11 28q11 14 32 14q18 0 29 -11l69 -63l70 61q14 11 30 11z" />
    <glyph glyph-name="Dcaron" unicode="&#x10e;" horiz-adv-x="741"
d="M134 700q165 3 169 3q102 0 179 -27.5t123 -76.5t68.5 -109.5t22.5 -132.5q0 -156 -104.5 -257.5t-296.5 -101.5q-31 0 -161 2q-15 0 -26 11t-11 26v626q0 15 10.5 26t26.5 11zM220 585v-470q34 -2 79 -2q125 0 196 66t71 178q0 107 -70.5 169t-194.5 62q-39 0 -81 -3z
M460 897q22 0 33 -17q6 -9 6 -20q0 -21 -18 -34l-112 -70q-14 -10 -34 -10q-18 0 -33 9l-113 71q-17 11 -17 32q0 13 7 23q12 17 33 17q12 0 22 -6l103 -60l102 60q8 5 21 5z" />
    <glyph glyph-name="dcaron" unicode="&#x10f;" horiz-adv-x="556"
d="M414 700h41q15 0 26 -11t11 -26v-626q0 -15 -11 -26t-26 -11h-41q-15 0 -26 11t-11 26v10q-52 -55 -129 -55q-96 0 -154 62.5t-58 165.5q0 106 69 173.5t178 67.5q57 0 94 -22v224q0 15 11 26t26 11zM377 145v181q-43 27 -89 27q-54 0 -91.5 -34.5t-37.5 -94.5
q0 -58 32.5 -91.5t80.5 -33.5q59 0 105 46zM542 541q0 13 9 28q24 37 24 69q0 9 -1 13q-3 15 -3 25q0 24 28 24h48q34 0 34 -34q0 -98 -70 -155q-10 -8 -27 -8q-18 0 -28 9q-14 13 -14 29z" />
    <glyph glyph-name="Dcroat" unicode="&#x110;" horiz-adv-x="749"
d="M227 297v-182q34 -2 80 -2q125 0 196 66t71 178q0 107 -70.5 169t-194.5 62q-40 0 -82 -3v-180h140q15 0 26 -11t11 -26v-34q0 -15 -11 -26t-26 -11h-140zM303 -2q-21 0 -81 1t-80 1q-15 0 -26 11t-11 26v260h-58q-15 0 -26 11t-11 26v34q0 15 11 26t26 11h58v258
q0 15 11 26t26 11q5 0 72 1.5t97 1.5q102 0 179 -27.5t123 -76.5t68.5 -109.5t22.5 -132.5q0 -156 -104.5 -257.5t-296.5 -101.5z" />
    <glyph glyph-name="dcroat" unicode="&#x111;" horiz-adv-x="556"
d="M248 -8q-96 0 -154 62.5t-58 165.5q0 106 69 173.5t178 67.5q57 0 94 -22v81h-93q-15 0 -26 11t-11 26v19q0 15 11 26t26 11h93v50q0 15 11 26t26 11h41q15 0 26 -11t11 -26v-50h42q15 0 26 -11t11 -26v-19q0 -15 -11 -26t-26 -11h-42v-483q0 -15 -11 -26t-26 -11h-41
q-15 0 -26 11t-11 26v10q-52 -55 -129 -55zM377 145v181q-43 27 -89 27q-54 0 -91.5 -34.5t-37.5 -94.5q0 -58 32.5 -91.5t80.5 -33.5q59 0 105 46z" />
    <glyph glyph-name="Emacron" unicode="&#x112;" horiz-adv-x="575"
d="M512 78v-41q0 -15 -11 -26t-26 -11h-341q-15 0 -26 11t-11 26v626q0 15 11 26t26 11h331q15 0 26 -11t11 -26v-41q0 -15 -11 -26t-26 -11h-245v-174h215q15 0 26 -11t11 -26v-41q0 -15 -11 -26t-26 -11h-215v-181h255q15 0 26 -11t11 -26zM454 815v-18q0 -15 -11 -26
t-26 -11h-235q-15 0 -26 11t-11 26v18q0 15 11 26t26 11h235q15 0 26 -11t11 -26z" />
    <glyph glyph-name="emacron" unicode="&#x113;" horiz-adv-x="523"
d="M151 267h221v2q0 42 -27.5 69t-75.5 27q-98 0 -118 -98zM290 85q48 0 88 19q14 7 23 7q17 0 29 -17l9 -13q6 -9 6 -20q0 -20 -16 -30q-67 -42 -151 -42q-109 0 -175.5 65t-66.5 171q0 101 65 168.5t173 67.5q89 0 151 -58.5t62 -150.5q0 -18 -1 -26q-1 -13 -13.5 -24.5
t-25.5 -11.5h-292q7 -50 44 -77.5t91 -27.5zM404 605v-18q0 -15 -11 -26t-26 -11h-205q-15 0 -26 11t-11 26v18q0 15 11 26t26 11h205q15 0 26 -11t11 -26z" />
    <glyph glyph-name="Edotaccent" unicode="&#x116;" horiz-adv-x="575"
d="M512 78v-41q0 -15 -11 -26t-26 -11h-341q-15 0 -26 11t-11 26v626q0 15 11 26t26 11h331q15 0 26 -11t11 -26v-41q0 -15 -11 -26t-26 -11h-245v-174h215q15 0 26 -11t11 -26v-41q0 -15 -11 -26t-26 -11h-215v-181h255q15 0 26 -11t11 -26zM306 902q30 0 52.5 -19.5
t22.5 -51.5q0 -34 -22.5 -54.5t-52.5 -20.5q-33 0 -56 20t-23 55q0 32 23 51.5t56 19.5z" />
    <glyph glyph-name="edotaccent" unicode="&#x117;" horiz-adv-x="523"
d="M151 267h221v2q0 42 -27.5 69t-75.5 27q-98 0 -118 -98zM290 85q48 0 88 19q14 7 23 7q17 0 29 -17l9 -13q6 -9 6 -20q0 -20 -16 -30q-67 -42 -151 -42q-109 0 -175.5 65t-66.5 171q0 101 65 168.5t173 67.5q89 0 151 -58.5t62 -150.5q0 -18 -1 -26q-1 -13 -13.5 -24.5
t-25.5 -11.5h-292q7 -50 44 -77.5t91 -27.5zM269 679q26 0 46 -18.5t20 -48.5q0 -33 -20 -52.5t-46 -19.5q-31 0 -51.5 19.5t-20.5 52.5q0 30 21 48.5t51 18.5z" />
    <glyph glyph-name="Eogonek" unicode="&#x118;" horiz-adv-x="575"
d="M512 78v-41q0 -15 -11 -26t-26 -11h-5q-42 -1 -73 -22t-31 -46q0 -21 13.5 -30.5t31.5 -9.5q10 0 15 1t14 1q25 0 32 -21l6 -19q2 -8 2 -11q0 -19 -22 -29q-30 -14 -73 -14q-57 0 -95.5 23t-38.5 71q0 72 99 106h-216q-15 0 -26 11t-11 26v626q0 15 11 26t26 11h331
q15 0 26 -11t11 -26v-41q0 -15 -11 -26t-26 -11h-245v-174h215q15 0 26 -11t11 -26v-41q0 -15 -11 -26t-26 -11h-215v-181h255q15 0 26 -11t11 -26z" />
    <glyph glyph-name="eogonek" unicode="&#x119;" horiz-adv-x="523"
d="M290 85q48 0 88 19q14 7 23 7q17 0 29 -17l9 -13q6 -9 6 -20q0 -20 -16 -30q-62 -39 -141 -42q-51 -21 -51 -57q0 -21 13.5 -30.5t31.5 -9.5q2 0 9.5 0.5t10.5 0.5q14 0 19.5 -1t10.5 -5t8 -13l8 -25q1 -2 1 -7q0 -20 -16 -26q-34 -16 -77 -16q-57 0 -95.5 23t-38.5 71
q0 68 89 103q-81 18 -128 78.5t-47 149.5q0 101 65 168.5t173 67.5q89 0 151 -58.5t62 -150.5q0 -18 -1 -26q-1 -13 -13.5 -24.5t-25.5 -11.5h-292q7 -50 44 -77.5t91 -27.5zM151 267h221v2q0 42 -27.5 69t-75.5 27q-98 0 -118 -98z" />
    <glyph glyph-name="Ecaron" unicode="&#x11a;" horiz-adv-x="575"
d="M512 78v-41q0 -15 -11 -26t-26 -11h-341q-15 0 -26 11t-11 26v626q0 15 11 26t26 11h331q15 0 26 -11t11 -26v-41q0 -15 -11 -26t-26 -11h-245v-174h215q15 0 26 -11t11 -26v-41q0 -15 -11 -26t-26 -11h-215v-181h255q15 0 26 -11t11 -26zM432 897q22 0 33 -17
q6 -9 6 -20q0 -21 -18 -34l-112 -70q-14 -10 -34 -10q-18 0 -33 9l-113 71q-17 11 -17 32q0 13 7 23q12 17 33 17q12 0 22 -6l103 -60l102 60q7 5 21 5z" />
    <glyph glyph-name="ecaron" unicode="&#x11b;" horiz-adv-x="523"
d="M151 267h221v2q0 42 -27.5 69t-75.5 27q-98 0 -118 -98zM290 85q48 0 88 19q14 7 23 7q17 0 29 -17l9 -13q6 -9 6 -20q0 -20 -16 -30q-67 -42 -151 -42q-109 0 -175.5 65t-66.5 171q0 101 65 168.5t173 67.5q89 0 151 -58.5t62 -150.5q0 -18 -1 -26q-1 -13 -13.5 -24.5
t-25.5 -11.5h-292q7 -50 44 -77.5t91 -27.5zM374 691q17 0 30 -13q10 -11 10 -27q0 -21 -15 -33l-93 -81q-14 -12 -33 -12q-21 0 -34 13l-92 80q-14 14 -14 33q0 15 11 28q11 14 32 14q18 0 29 -11l69 -63l70 61q14 11 30 11z" />
    <glyph glyph-name="Gcircumflex" unicode="&#x11c;" horiz-adv-x="727"
d="M175 350q0 -111 65 -178.5t172 -67.5q40 0 82.5 14.5t62.5 33.5v110h-132q-15 0 -26 11t-11 26v41q0 15 11 26t26 11h210q15 0 26 -11t11 -26v-226q0 -30 -23 -47q-46 -36 -112.5 -57t-126.5 -21q-170 0 -267.5 98t-97.5 263q0 154 96 257.5t253 103.5q124 0 210 -53
q13 -8 13 -26q0 -10 -6 -21l-22 -36q-10 -17 -30 -17q-11 0 -23 6q-61 32 -127 32q-104 0 -169 -65.5t-65 -180.5zM385 799l-102 -53q-7 -5 -20 -5q-22 0 -34 18q-6 9 -6 21q0 21 17 33l113 70q14 10 33 10q17 0 32 -9l115 -71q17 -11 17 -32q0 -12 -7 -22q-13 -18 -35 -18
q-12 0 -21 5z" />
    <glyph glyph-name="gcircumflex" unicode="&#x11d;" horiz-adv-x="507"
d="M234 126q-6 -6 -6 -17q0 -14 9 -23q105 0 170.5 -37t65.5 -110t-65 -110t-169 -37q-105 0 -169.5 36.5t-64.5 110.5q0 54 39.5 89.5t106.5 49.5q-8 14 -8 31q0 19 10 32q-50 20 -78.5 60.5t-28.5 90.5q0 70 53 119.5t139 49.5q65 0 115 -32l100 22q3 1 8 1q13 0 23.5 -8
t13.5 -21l3 -16q1 -3 1 -9q0 -30 -28 -35l-56 -13q11 -28 11 -58q0 -70 -53.5 -118t-141.5 -48zM239 -6q-60 0 -93.5 -15t-33.5 -40q0 -26 34 -40.5t93 -14.5q126 0 126 55q0 25 -32.5 40t-93.5 15zM238 368q-38 0 -61 -22t-23 -54t23 -52.5t61 -20.5q37 0 60.5 20t23.5 53
t-22.5 54.5t-61.5 21.5zM148 523q-21 0 -33 17q-9 11 -9 26q0 21 16 35l89 77q13 12 33 12q21 0 34 -13l88 -76q15 -13 15 -34q0 -18 -10 -29q-14 -17 -34 -17q-14 0 -27 10l-67 54l-68 -53q-12 -9 -27 -9z" />
    <glyph glyph-name="Gbreve" unicode="&#x11e;" horiz-adv-x="727"
d="M175 350q0 -111 65 -178.5t172 -67.5q40 0 82.5 14.5t62.5 33.5v110h-132q-15 0 -26 11t-11 26v41q0 15 11 26t26 11h210q15 0 26 -11t11 -26v-226q0 -30 -23 -47q-46 -36 -112.5 -57t-126.5 -21q-170 0 -267.5 98t-97.5 263q0 154 96 257.5t253 103.5q124 0 210 -53
q13 -8 13 -26q0 -10 -6 -21l-22 -36q-10 -17 -30 -17q-11 0 -23 6q-61 32 -127 32q-104 0 -169 -65.5t-65 -180.5zM592 849q0 -16 -9 -25q-32 -36 -80.5 -61.5t-95.5 -25.5q-102 0 -179 87q-9 9 -9 25t11 27q12 12 27 12q16 0 34 -13q48 -38 116 -38q64 0 113 38
q18 13 33 13q16 0 28 -12q11 -10 11 -27z" />
    <glyph glyph-name="gbreve" unicode="&#x11f;" horiz-adv-x="507"
d="M234 126q-6 -6 -6 -17q0 -14 9 -23q105 0 170.5 -37t65.5 -110t-65 -110t-169 -37q-105 0 -169.5 36.5t-64.5 110.5q0 54 39.5 89.5t106.5 49.5q-8 14 -8 31q0 19 10 32q-50 20 -78.5 60.5t-28.5 90.5q0 70 53 119.5t139 49.5q65 0 115 -32l100 22q3 1 8 1q13 0 23.5 -8
t13.5 -21l3 -16q1 -3 1 -9q0 -30 -28 -35l-56 -13q11 -28 11 -58q0 -70 -53.5 -118t-141.5 -48zM239 -6q-60 0 -93.5 -15t-33.5 -40q0 -26 34 -40.5t93 -14.5q126 0 126 55q0 25 -32.5 40t-93.5 15zM238 368q-38 0 -61 -22t-23 -54t23 -52.5t61 -20.5q37 0 60.5 20t23.5 53
t-22.5 54.5t-61.5 21.5zM397 637q0 -13 -7 -21q-64 -84 -152 -84q-85 0 -142 83q-7 11 -7 21q0 16 14 27q11 8 23 8q16 0 28 -12q40 -34 89 -34q51 0 91 33q15 12 29 12q11 0 22 -8q12 -9 12 -25z" />
    <glyph glyph-name="Gdotaccent" unicode="&#x120;" horiz-adv-x="727"
d="M175 350q0 -111 65 -178.5t172 -67.5q40 0 82.5 14.5t62.5 33.5v110h-132q-15 0 -26 11t-11 26v41q0 15 11 26t26 11h210q15 0 26 -11t11 -26v-226q0 -30 -23 -47q-46 -36 -112.5 -57t-126.5 -21q-170 0 -267.5 98t-97.5 263q0 154 96 257.5t253 103.5q124 0 210 -53
q13 -8 13 -26q0 -10 -6 -21l-22 -36q-10 -17 -30 -17q-11 0 -23 6q-61 32 -127 32q-104 0 -169 -65.5t-65 -180.5zM378 902q30 0 52.5 -19.5t22.5 -51.5q0 -34 -22.5 -54.5t-52.5 -20.5q-33 0 -56 20t-23 55q0 32 23 51.5t56 19.5z" />
    <glyph glyph-name="gdotaccent" unicode="&#x121;" horiz-adv-x="507"
d="M234 126q-6 -6 -6 -17q0 -14 9 -23q105 0 170.5 -37t65.5 -110t-65 -110t-169 -37q-105 0 -169.5 36.5t-64.5 110.5q0 54 39.5 89.5t106.5 49.5q-8 14 -8 31q0 19 10 32q-50 20 -78.5 60.5t-28.5 90.5q0 70 53 119.5t139 49.5q65 0 115 -32l100 22q3 1 8 1q13 0 23.5 -8
t13.5 -21l3 -16q1 -3 1 -9q0 -30 -28 -35l-56 -13q11 -28 11 -58q0 -70 -53.5 -118t-141.5 -48zM239 -6q-60 0 -93.5 -15t-33.5 -40q0 -26 34 -40.5t93 -14.5q126 0 126 55q0 25 -32.5 40t-93.5 15zM238 368q-38 0 -61 -22t-23 -54t23 -52.5t61 -20.5q37 0 60.5 20t23.5 53
t-22.5 54.5t-61.5 21.5zM241 679q26 0 46 -18.5t20 -48.5q0 -33 -20 -52.5t-46 -19.5q-31 0 -51.5 19.5t-20.5 52.5q0 30 21 48.5t51 18.5z" />
    <glyph glyph-name="Gcommaaccent" unicode="&#x122;" horiz-adv-x="727"
d="M175 350q0 -111 65 -178.5t172 -67.5q40 0 82.5 14.5t62.5 33.5v110h-132q-15 0 -26 11t-11 26v41q0 15 11 26t26 11h210q15 0 26 -11t11 -26v-226q0 -30 -23 -47q-46 -36 -112.5 -57t-126.5 -21q-170 0 -267.5 98t-97.5 263q0 154 96 257.5t253 103.5q124 0 210 -53
q13 -8 13 -26q0 -10 -6 -21l-22 -36q-10 -17 -30 -17q-11 0 -23 6q-61 32 -127 32q-104 0 -169 -65.5t-65 -180.5zM324 -168q0 13 14 27q18 15 18 45q0 5 -0.5 12.5t-0.5 10.5q0 18 20 23l59 13q3 1 7 1q16 0 23 -14t7 -32q0 -42 -27.5 -72.5t-68.5 -44.5q-6 -3 -15 -3
q-20 0 -30 15q-6 9 -6 19z" />
    <glyph glyph-name="gcommaaccent" unicode="&#x123;" horiz-adv-x="507"
d="M234 126q-6 -6 -6 -17q0 -14 9 -23q105 0 170.5 -37t65.5 -110t-65 -110t-169 -37q-105 0 -169.5 36.5t-64.5 110.5q0 54 39.5 89.5t106.5 49.5q-8 14 -8 31q0 19 10 32q-50 20 -78.5 60.5t-28.5 90.5q0 70 53 119.5t139 49.5q65 0 115 -32l100 22q3 1 8 1q13 0 23.5 -8
t13.5 -21l3 -16q1 -3 1 -9q0 -30 -28 -35l-56 -13q11 -28 11 -58q0 -70 -53.5 -118t-141.5 -48zM239 -6q-60 0 -93.5 -15t-33.5 -40q0 -26 34 -40.5t93 -14.5q126 0 126 55q0 25 -32.5 40t-93.5 15zM238 368q-38 0 -61 -22t-23 -54t23 -52.5t61 -20.5q37 0 60.5 20t23.5 53
t-22.5 54.5t-61.5 21.5zM318 665q0 -13 -14 -27q-18 -15 -18 -45q0 -5 0.5 -12.5t0.5 -10.5q0 -18 -20 -23l-59 -13q-3 -1 -7 -1q-16 0 -23 14t-7 32q0 42 27.5 72.5t68.5 44.5q6 3 15 3q20 0 30 -15q6 -9 6 -19z" />
    <glyph glyph-name="Hcircumflex" unicode="&#x124;" horiz-adv-x="759"
d="M662 663v-626q0 -15 -11 -26t-26 -11h-48q-15 0 -26 11t-11 26v262h-320v-262q0 -15 -11 -26t-26 -11h-49q-15 0 -26 11t-11 26v626q0 15 11 26t26 11h49q15 0 26 -11t11 -26v-249h320v249q0 15 11 26t26 11h48q15 0 26 -11t11 -26zM379 799l-102 -53q-7 -5 -20 -5
q-22 0 -34 18q-6 9 -6 21q0 21 17 33l113 70q14 10 33 10q17 0 32 -9l115 -71q17 -11 17 -32q0 -12 -7 -22q-13 -18 -35 -18q-12 0 -21 5z" />
    <glyph glyph-name="hcircumflex" unicode="&#x125;" horiz-adv-x="546"
d="M378 246q0 50 -26 77t-74 27q-58 0 -99 -41v-272q0 -15 -11 -26t-26 -11h-41q-15 0 -26 11t-11 26v626q0 15 11 26t26 11h41q15 0 26 -11t11 -26v-254q51 49 129 49q87 0 136 -47.5t49 -149.5v-224q0 -15 -11 -26t-26 -11h-41q-15 0 -26 11t-11 26v209zM152 799l-102 -53
q-8 -5 -20 -5q-22 0 -34 18q-6 9 -6 21q0 21 17 33l113 70q14 10 33 10q17 0 32 -9l115 -71q17 -11 17 -32q0 -12 -7 -22q-14 -18 -35 -18q-12 0 -21 5z" />
    <glyph glyph-name="Hbar" unicode="&#x126;" horiz-adv-x="769"
d="M188 0h-49q-15 0 -26 11t-11 26v469h-43q-15 0 -26 11t-11 26v33q0 15 11 26t26 11h43v50q0 15 11 26t26 11h49q15 0 26 -11t11 -26v-50h320v50q0 15 11 26t26 11h48q15 0 26 -11t11 -26v-50h43q15 0 26 -11t11 -26v-33q0 -15 -11 -26t-26 -11h-43v-469q0 -15 -11 -26
t-26 -11h-48q-15 0 -26 11t-11 26v262h-320v-262q0 -15 -11 -26t-26 -11zM545 414v92h-320v-92h320z" />
    <glyph glyph-name="hbar" unicode="&#x127;" horiz-adv-x="583"
d="M179 0h-41q-15 0 -26 11t-11 26v468h-69q-15 0 -26 11t-11 26v33q0 15 11 26t26 11h69v51q0 15 11 26t26 11h41q15 0 26 -11t11 -26v-51h111q15 0 26 -11t11 -26v-33q0 -15 -11 -26t-26 -11h-111v-96q51 49 129 49q87 0 136 -47.5t49 -149.5v-224q0 -15 -11 -26t-26 -11
h-41q-15 0 -26 11t-11 26v209q0 50 -26 77t-74 27q-58 0 -99 -41v-272q0 -15 -11 -26t-26 -11z" />
    <glyph glyph-name="Imacron" unicode="&#x12a;" horiz-adv-x="347"
d="M235 663v-626q0 -15 -11 -26t-26 -11h-49q-15 0 -26 11t-11 26v626q0 15 11 26t26 11h49q15 0 26 -11t11 -26zM332 815v-18q0 -15 -11 -26t-26 -11h-235q-15 0 -26 11t-11 26v18q0 15 11 26t26 11h235q15 0 26 -11t11 -26z" />
    <glyph glyph-name="imacron" unicode="&#x12b;" horiz-adv-x="277"
d="M118 450h41q15 0 26 -11t11 -26v-376q0 -15 -11 -26t-26 -11h-41q-15 0 -26 11t-11 26v376q0 15 11 26t26 11zM278 605v-18q0 -15 -11 -26t-26 -11h-205q-15 0 -26 11t-11 26v18q0 15 11 26t26 11h205q15 0 26 -11t11 -26z" />
    <glyph glyph-name="Iogonek" unicode="&#x12e;" horiz-adv-x="347"
d="M235 663v-626q0 -15 -11 -26t-26 -11h-5q-42 -1 -73 -22t-31 -46q0 -21 13.5 -30.5t31.5 -9.5q10 0 15 1t14 1q25 0 32 -21l6 -19q2 -8 2 -11q0 -19 -22 -29q-30 -14 -73 -14q-57 0 -95.5 23t-38.5 71q0 46 41.5 76.5t105.5 42.5q-9 9 -9 24v626q0 15 11 26t26 11h49
q15 0 26 -11t11 -26z" />
    <glyph glyph-name="iogonek" unicode="&#x12f;" horiz-adv-x="277"
d="M118 450h41q15 0 26 -11t11 -26v-376q0 -15 -11 -26t-26 -11h-6q-42 -1 -73 -22t-31 -46q0 -21 13.5 -30.5t31.5 -9.5q2 0 9.5 0.5t10.5 0.5q14 0 19.5 -1t10.5 -5t8 -13l8 -25q1 -2 1 -7q0 -20 -16 -26q-34 -16 -77 -16q-57 0 -95.5 23t-38.5 71t44 78t111 42
q-8 10 -8 23v376q0 15 11 26t26 11zM141 679q26 0 46 -18.5t20 -48.5q0 -33 -20 -52.5t-46 -19.5q-31 0 -51.5 19.5t-20.5 52.5q0 30 21 48.5t51 18.5z" />
    <glyph glyph-name="Idotaccent" unicode="&#x130;" horiz-adv-x="347"
d="M235 663v-626q0 -15 -11 -26t-26 -11h-49q-15 0 -26 11t-11 26v626q0 15 11 26t26 11h49q15 0 26 -11t11 -26zM176 902q30 0 52.5 -19.5t22.5 -51.5q0 -34 -22.5 -54.5t-52.5 -20.5q-33 0 -56 20t-23 55q0 32 23 51.5t56 19.5z" />
    <glyph glyph-name="dotlessi" unicode="&#x131;" horiz-adv-x="277"
d="M118 450h41q15 0 26 -11t11 -26v-376q0 -15 -11 -26t-26 -11h-41q-15 0 -26 11t-11 26v376q0 15 11 26t26 11z" />
    <glyph glyph-name="Jcircumflex" unicode="&#x134;" horiz-adv-x="389"
d="M169 186v477q0 15 11 26t26 11h49q15 0 26 -11t11 -26v-498q0 -85 -42.5 -130.5t-126.5 -45.5q-48 0 -93 19q-23 8 -23 32q0 8 3 15l12 34q7 23 33 23q5 0 15 -2q24 -6 36 -6q63 0 63 82zM227 799l-102 -53q-8 -5 -20 -5q-22 0 -34 18q-6 9 -6 21q0 21 17 33l113 70
q14 10 33 10q17 0 32 -9l115 -71q17 -11 17 -32q0 -12 -7 -22q-13 -18 -35 -18q-12 0 -21 5z" />
    <glyph glyph-name="jcircumflex" unicode="&#x135;" horiz-adv-x="292"
d="M26 -100q5 -1 15 -1q54 0 54 78v436q0 15 11 26t26 11h41q15 0 26 -11t11 -26v-446q0 -175 -141 -175q-49 0 -93 19q-18 7 -18 26q0 9 2 13l11 30q9 23 29 23q4 0 13.5 -1.5t12.5 -1.5zM57 523q-21 0 -33 17q-9 10 -9 26q0 21 16 35l89 77q14 12 33 12q21 0 34 -13
l88 -76q15 -13 15 -34q0 -18 -10 -29q-14 -17 -34 -17q-14 0 -27 10l-67 54l-68 -53q-12 -9 -27 -9z" />
    <glyph glyph-name="Kcommaaccent" unicode="&#x136;" horiz-adv-x="664"
d="M220 361v-324q0 -15 -11 -26t-26 -11h-49q-15 0 -26 11t-11 26v626q0 15 11 26t26 11h49q15 0 26 -11t11 -26v-295l257 309q18 23 49 23h45q14 0 23 -10t9 -23q0 -14 -8 -22l-239 -271l259 -317q8 -9 8 -22q0 -14 -9.5 -24.5t-24.5 -10.5h-53q-30 0 -49 24zM254 -168
q0 13 14 27q18 15 18 45q0 5 -0.5 12.5t-0.5 10.5q0 18 20 23l59 13q3 1 7 1q16 0 23 -14t7 -32q0 -42 -27.5 -72.5t-68.5 -44.5q-6 -3 -15 -3q-20 0 -30 15q-6 9 -6 19z" />
    <glyph glyph-name="kcommaaccent" unicode="&#x137;" horiz-adv-x="507"
d="M341 24l-138 182q-10 13 -10 29t10 29l121 162q19 24 48 24h42q15 0 24.5 -10.5t9.5 -24.5q0 -13 -8 -22l-122 -149l144 -186q8 -11 8 -22q0 -15 -10.5 -25.5t-25.5 -10.5h-45q-30 0 -48 24zM101 700h41q15 0 26 -11t11 -26v-626q0 -15 -11 -26t-26 -11h-41q-15 0 -26 11
t-11 26v626q0 15 11 26t26 11zM165 -168q0 13 14 27q18 15 18 45q0 5 -0.5 12.5t-0.5 10.5q0 18 20 23l59 13q3 1 7 1q16 0 23 -14t7 -32q0 -42 -27.5 -72.5t-68.5 -44.5q-6 -3 -15 -3q-20 0 -30 15q-6 9 -6 19z" />
    <glyph glyph-name="Lacute" unicode="&#x139;" horiz-adv-x="547"
d="M535 78v-41q0 -15 -11 -26t-26 -11h-364q-15 0 -26 11t-11 26v626q0 15 11 26t26 11h49q15 0 26 -11t11 -26v-548h278q15 0 26 -11t11 -26zM228 817l148 77q7 4 16 4q22 0 32 -21l13 -31q3 -6 3 -14q0 -24 -23 -32l-155 -57q-4 -2 -13 -2q-27 0 -38 25q-4 7 -4 17
q0 24 21 34z" />
    <glyph glyph-name="lacute" unicode="&#x13a;" horiz-adv-x="300"
d="M64 124v539q0 15 11 26t26 11h41q15 0 26 -11t11 -26v-492q0 -73 39 -73q6 0 16 2q24 6 31 6q17 0 28 -20l11 -21q4 -7 4 -15q0 -20 -24 -35q-45 -25 -110 -25q-110 0 -110 134zM104 817l148 77q7 4 16 4q22 0 32 -21l13 -31q3 -6 3 -14q0 -24 -23 -32l-155 -57
q-4 -2 -13 -2q-27 0 -38 25q-4 7 -4 17q0 24 21 34z" />
    <glyph glyph-name="Lcommaaccent" unicode="&#x13b;" horiz-adv-x="547"
d="M535 78v-41q0 -15 -11 -26t-26 -11h-364q-15 0 -26 11t-11 26v626q0 15 11 26t26 11h49q15 0 26 -11t11 -26v-548h278q15 0 26 -11t11 -26zM229 -168q0 13 14 27q18 15 18 45q0 5 -0.5 12.5t-0.5 10.5q0 18 20 23l59 13q3 1 7 1q16 0 23 -14t7 -32q0 -42 -27.5 -72.5
t-68.5 -44.5q-6 -3 -15 -3q-20 0 -30 15q-6 9 -6 19z" />
    <glyph glyph-name="lcommaaccent" unicode="&#x13c;" horiz-adv-x="300"
d="M64 124v539q0 15 11 26t26 11h41q15 0 26 -11t11 -26v-492q0 -73 39 -73q6 0 16 2q24 6 31 6q17 0 28 -20l11 -21q4 -7 4 -15q0 -20 -24 -35q-45 -25 -110 -25q-110 0 -110 134zM95 -168q0 13 14 27q18 15 18 45q0 5 -0.5 12.5t-0.5 10.5q0 18 20 23l59 13q3 1 7 1
q16 0 23 -14t7 -32q0 -42 -27.5 -72.5t-68.5 -44.5q-6 -3 -15 -3q-20 0 -30 15q-6 9 -6 19z" />
    <glyph glyph-name="Lcaron" unicode="&#x13d;" horiz-adv-x="547"
d="M535 78v-41q0 -15 -11 -26t-26 -11h-364q-15 0 -26 11t-11 26v626q0 15 11 26t26 11h49q15 0 26 -11t11 -26v-548h278q15 0 26 -11t11 -26zM335 541q0 13 9 28q24 37 24 69q0 9 -1 13q-3 15 -3 25q0 24 28 24h48q34 0 34 -34q0 -98 -70 -155q-10 -8 -27 -8t-28 9
q-14 13 -14 29z" />
    <glyph glyph-name="lcaron" unicode="&#x13e;" horiz-adv-x="300"
d="M64 124v539q0 15 11 26t26 11h41q15 0 26 -11t11 -26v-492q0 -73 39 -73q6 0 16 2q24 6 31 6q17 0 28 -20l11 -21q4 -7 4 -15q0 -20 -24 -35q-45 -25 -110 -25q-110 0 -110 134zM235 541q0 13 9 28q24 37 24 69q0 9 -1 13q-3 15 -3 25q0 24 28 24h48q34 0 34 -34
q0 -98 -70 -155q-10 -8 -27 -8t-28 9q-14 13 -14 29z" />
    <glyph glyph-name="Ldot" unicode="&#x13f;" horiz-adv-x="547"
d="M535 78v-41q0 -15 -11 -26t-26 -11h-364q-15 0 -26 11t-11 26v626q0 15 11 26t26 11h49q15 0 26 -11t11 -26v-548h278q15 0 26 -11t11 -26zM436 449q31 0 52 -23t21 -51q0 -32 -21 -56t-52 -24q-36 0 -58 24t-22 56q0 28 22 51t58 23z" />
    <glyph glyph-name="ldot" unicode="&#x140;" horiz-adv-x="350"
d="M64 124v539q0 15 11 26t26 11h41q15 0 26 -11t11 -26v-492q0 -73 39 -73q6 0 16 2q24 6 31 6q17 0 28 -20l11 -21q4 -7 4 -15q0 -20 -24 -35q-45 -25 -110 -25q-110 0 -110 134zM300 405q26 0 46 -18.5t20 -48.5q0 -33 -20 -52.5t-46 -19.5q-31 0 -51.5 19.5t-20.5 52.5
q0 30 21 48.5t51 18.5z" />
    <glyph glyph-name="Lslash" unicode="&#x141;" horiz-adv-x="552"
d="M507 0h-364q-15 0 -26 11t-11 26v206l-29 -13q-8 -4 -17 -4q-22 0 -31 19l-16 31q-5 10 -5 19q0 19 18 28l80 38v302q0 15 11 26t26 11h49q15 0 26 -11t11 -26v-245l109 50q8 3 15 3q23 0 33 -21l14 -30q4 -8 4 -18q0 -21 -22 -31l-153 -71v-185h278q15 0 26 -11t11 -26
v-41q0 -15 -11 -26t-26 -11z" />
    <glyph glyph-name="lslash" unicode="&#x142;" horiz-adv-x="330"
d="M84 124v112l-14 -7q-7 -4 -16 -4q-23 0 -33 21l-15 29q-4 7 -4 16q0 23 21 33l61 29v310q0 15 11 26t26 11h41q15 0 26 -11t11 -26v-259l61 29q7 4 16 4q22 0 32 -21l14 -30q3 -8 3 -15q0 -23 -21 -34l-105 -49v-117q0 -73 39 -73q6 0 16 2q24 6 31 6q17 0 28 -20l11 -21
q4 -7 4 -15q0 -20 -24 -35q-45 -25 -110 -25q-110 0 -110 134z" />
    <glyph glyph-name="Nacute" unicode="&#x143;" horiz-adv-x="792"
d="M617 700h41q15 0 26 -11t11 -26v-626q0 -15 -11 -26t-26 -11h-35q-26 0 -45 24l-366 461v-448q0 -15 -11 -26t-26 -11h-41q-15 0 -26 11t-11 26v626q0 15 11 26t26 11h35q26 0 45 -24l366 -463v450q0 15 11 26t26 11zM355 817l148 77q7 4 16 4q22 0 32 -21l13 -31
q3 -6 3 -14q0 -24 -23 -32l-155 -57q-4 -2 -13 -2q-27 0 -38 25q-4 7 -4 17q0 24 21 34z" />
    <glyph glyph-name="nacute" unicode="&#x144;" horiz-adv-x="546"
d="M378 244q0 106 -101 106q-55 0 -98 -43v-270q0 -15 -11 -26t-26 -11h-41q-15 0 -26 11t-11 26v376q0 15 11 26t26 11h41q15 0 26 -11.5t11 -29.5q53 49 129 49q185 0 185 -194v-227q0 -15 -11 -26t-26 -11h-41q-15 0 -26 11t-11 26v207zM232 600l61 95q11 17 32 17
q13 0 23 -7l24 -18q15 -11 15 -31q0 -14 -9 -25l-72 -83q-14 -15 -34 -15q-14 0 -27 8q-19 13 -19 37q0 12 6 22z" />
    <glyph glyph-name="Ncommaaccent" unicode="&#x145;" horiz-adv-x="792"
d="M617 700h41q15 0 26 -11t11 -26v-626q0 -15 -11 -26t-26 -11h-35q-26 0 -45 24l-366 461v-448q0 -15 -11 -26t-26 -11h-41q-15 0 -26 11t-11 26v626q0 15 11 26t26 11h35q26 0 45 -24l366 -463v450q0 15 11 26t26 11zM316 -168q0 13 14 27q18 15 18 45q0 5 -0.5 12.5
t-0.5 10.5q0 18 20 23l59 13q3 1 7 1q16 0 23 -14t7 -32q0 -42 -27.5 -72.5t-68.5 -44.5q-6 -3 -15 -3q-20 0 -30 15q-6 9 -6 19z" />
    <glyph glyph-name="ncommaaccent" unicode="&#x146;" horiz-adv-x="546"
d="M378 244q0 106 -101 106q-55 0 -98 -43v-270q0 -15 -11 -26t-26 -11h-41q-15 0 -26 11t-11 26v376q0 15 11 26t26 11h41q15 0 26 -11.5t11 -29.5q53 49 129 49q185 0 185 -194v-227q0 -15 -11 -26t-26 -11h-41q-15 0 -26 11t-11 26v207zM191 -168q0 13 14 27q18 15 18 45
q0 5 -0.5 12.5t-0.5 10.5q0 18 20 23l59 13q3 1 7 1q16 0 23 -14t7 -32q0 -42 -27.5 -72.5t-68.5 -44.5q-6 -3 -15 -3q-20 0 -30 15q-6 9 -6 19z" />
    <glyph glyph-name="Ncaron" unicode="&#x147;" horiz-adv-x="792"
d="M617 700h41q15 0 26 -11t11 -26v-626q0 -15 -11 -26t-26 -11h-35q-26 0 -45 24l-366 461v-448q0 -15 -11 -26t-26 -11h-41q-15 0 -26 11t-11 26v626q0 15 11 26t26 11h35q26 0 45 -24l366 -463v450q0 15 11 26t26 11zM522 897q22 0 33 -17q6 -9 6 -20q0 -21 -18 -34
l-112 -70q-14 -10 -34 -10q-18 0 -33 9l-113 71q-17 11 -17 32q0 13 7 23q12 17 33 17q12 0 22 -6l103 -60l102 60q7 5 21 5z" />
    <glyph glyph-name="ncaron" unicode="&#x148;" horiz-adv-x="546"
d="M378 244q0 106 -101 106q-55 0 -98 -43v-270q0 -15 -11 -26t-26 -11h-41q-15 0 -26 11t-11 26v376q0 15 11 26t26 11h41q15 0 26 -11.5t11 -29.5q53 49 129 49q185 0 185 -194v-227q0 -15 -11 -26t-26 -11h-41q-15 0 -26 11t-11 26v207zM373 691q17 0 30 -13
q10 -11 10 -27q0 -21 -15 -33l-93 -81q-13 -12 -33 -12q-21 0 -34 13l-92 80q-14 14 -14 33q0 15 11 28q11 14 32 14q18 0 29 -11l69 -63l70 61q14 11 30 11z" />
    <glyph glyph-name="Omacron" unicode="&#x14c;" horiz-adv-x="819"
d="M45 350q0 154 102.5 257.5t261.5 103.5q158 0 261.5 -100t103.5 -261q0 -157 -104 -259t-261 -102q-158 0 -261 100t-103 261zM175 350q0 -105 67.5 -175.5t166.5 -70.5q108 0 171.5 70t63.5 176q0 108 -67.5 177t-167.5 69q-101 0 -167.5 -69t-66.5 -177zM571 815v-18
q0 -15 -11 -26t-26 -11h-235q-15 0 -26 11t-11 26v18q0 15 11 26t26 11h235q15 0 26 -11t11 -26z" />
    <glyph glyph-name="omacron" unicode="&#x14d;" horiz-adv-x="562"
d="M281 -11q-110 0 -177.5 66.5t-67.5 169.5t67.5 169.5t177.5 66.5t177.5 -66.5t67.5 -169.5t-67.5 -169.5t-177.5 -66.5zM281 353q-52 0 -87 -35.5t-35 -92.5q0 -56 34.5 -92.5t87.5 -36.5q54 0 88.5 35.5t34.5 93.5q0 56 -35 92t-88 36zM428 605v-18q0 -15 -11 -26
t-26 -11h-205q-15 0 -26 11t-11 26v18q0 15 11 26t26 11h205q15 0 26 -11t11 -26z" />
    <glyph glyph-name="Ohungarumlaut" unicode="&#x150;" horiz-adv-x="819"
d="M45 350q0 154 102.5 257.5t261.5 103.5q158 0 261.5 -100t103.5 -261q0 -157 -104 -259t-261 -102q-158 0 -261 100t-103 261zM175 350q0 -105 67.5 -175.5t166.5 -70.5q108 0 171.5 70t63.5 176q0 108 -67.5 177t-167.5 69q-101 0 -167.5 -69t-66.5 -177zM467 802
l104 87q11 9 26 9q14 0 27 -11l28 -24q9 -7 9 -19q0 -16 -14 -22l-129 -74q-11 -7 -28 -7q-18 0 -28 11q-8 9 -8 22q0 17 13 28zM281 804l68 80q14 16 34 16q10 0 20 -5l37 -19q12 -6 12 -20q0 -10 -9 -18l-108 -85q-12 -9 -27 -9q-16 0 -26 9q-11 11 -11 25t10 26z" />
    <glyph glyph-name="ohungarumlaut" unicode="&#x151;" horiz-adv-x="562"
d="M281 -11q-110 0 -177.5 66.5t-67.5 169.5t67.5 169.5t177.5 66.5t177.5 -66.5t67.5 -169.5t-67.5 -169.5t-177.5 -66.5zM281 353q-52 0 -87 -35.5t-35 -92.5q0 -56 34.5 -92.5t87.5 -36.5q54 0 88.5 35.5t34.5 93.5q0 56 -35 92t-88 36zM323 598l66 90q13 16 34 16
q15 0 24 -8l19 -15q15 -12 15 -30q0 -14 -11 -25l-74 -79q-17 -17 -38 -17q-14 0 -25 9q-18 14 -18 36q0 12 8 23zM157 601l57 94q10 18 33 18q12 0 22 -7l16 -11q16 -12 16 -33q0 -16 -8 -25l-64 -87q-12 -16 -35 -16q-13 0 -26 8q-18 12 -18 34q0 14 7 25z" />
    <glyph glyph-name="OE" unicode="&#x152;" horiz-adv-x="1038"
d="M975 78v-41q0 -15 -11 -26t-26 -11h-359q-8 0 -13.5 6t-5.5 14q-72 -31 -154 -31q-161 0 -261 99t-100 262q0 157 95 259t263 102q86 0 157 -33q0 9 6.5 15.5t15.5 6.5h346q15 0 26 -11t11 -26v-41q0 -15 -11 -26t-26 -11h-245v-174h215q15 0 26 -11t11 -26v-41
q0 -15 -11 -26t-26 -11h-215v-181h255q15 0 26 -11t11 -26zM560 144v405q-70 47 -157 47q-99 0 -163.5 -67t-64.5 -179q0 -109 67.5 -177.5t174.5 -68.5q79 0 143 40z" />
    <glyph glyph-name="oe" unicode="&#x153;" horiz-adv-x="840"
d="M370 128q-17 45 -17 97q0 53 18 97q-38 31 -90 31t-87.5 -35.5t-35.5 -92.5q0 -56 35 -92.5t88 -36.5q54 0 89 32zM468 267h221v2q0 42 -28 69t-75 27q-98 0 -118 -98zM591 461q89 0 151 -58.5t62 -150.5q0 -18 -1 -26q-1 -13 -13.5 -24.5t-25.5 -11.5h-292
q7 -50 43.5 -77.5t90.5 -27.5q50 0 88 19q12 6 24 6q19 0 29 -16l8 -13q5 -10 5 -18q0 -20 -16 -31q-67 -43 -150 -43q-94 0 -156 48q-63 -48 -157 -48q-110 0 -177.5 66.5t-67.5 169.5t67.5 169.5t177.5 66.5q93 0 157 -50q63 50 153 50z" />
    <glyph glyph-name="Racute" unicode="&#x154;" horiz-adv-x="650"
d="M481 25l-175 237h-86v-225q0 -15 -11 -26t-26 -11h-49q-15 0 -26 11t-11 26v626q0 15 10.5 26t26.5 11q120 2 176 2q254 0 254 -216q0 -81 -41 -131.5t-94 -68.5l174 -228q8 -9 8 -22q0 -15 -10.5 -25.5t-25.5 -10.5h-46q-30 0 -48 25zM220 377h80q57 0 95.5 28.5
t38.5 79.5q0 102 -130 102q-18 0 -84 -2v-208zM240 817l148 77q7 4 16 4q22 0 32 -21l13 -31q3 -6 3 -14q0 -24 -23 -32l-155 -57q-4 -2 -13 -2q-27 0 -38 25q-4 7 -4 17q0 24 21 34z" />
    <glyph glyph-name="racute" unicode="&#x155;" horiz-adv-x="352"
d="M270 348q-10 2 -19 2q-48 0 -72 -48v-265q0 -15 -11 -26t-26 -11h-41q-15 0 -26 11t-11 26v376q0 15 11 26t26 11h41q15 0 26 -11.5t11 -28.5q40 48 103 48q22 0 39 -7q21 -8 21 -29q0 -8 -3 -14l-15 -32q-13 -29 -41 -29q-8 0 -13 1zM144 600l61 95q11 17 32 17
q13 0 23 -7l24 -18q15 -11 15 -31q0 -14 -9 -25l-72 -83q-14 -15 -34 -15q-14 0 -27 8q-19 13 -19 37q0 12 6 22z" />
    <glyph glyph-name="Rcommaaccent" unicode="&#x156;" horiz-adv-x="650"
d="M481 25l-175 237h-86v-225q0 -15 -11 -26t-26 -11h-49q-15 0 -26 11t-11 26v626q0 15 10.5 26t26.5 11q120 2 176 2q254 0 254 -216q0 -81 -41 -131.5t-94 -68.5l174 -228q8 -9 8 -22q0 -15 -10.5 -25.5t-25.5 -10.5h-46q-30 0 -48 25zM220 377h80q57 0 95.5 28.5
t38.5 79.5q0 102 -130 102q-18 0 -84 -2v-208zM246 -168q0 13 14 27q18 15 18 45q0 5 -0.5 12.5t-0.5 10.5q0 18 20 23l59 13q3 1 7 1q16 0 23 -14t7 -32q0 -42 -27.5 -72.5t-68.5 -44.5q-6 -3 -15 -3q-20 0 -30 15q-6 9 -6 19z" />
    <glyph glyph-name="rcommaaccent" unicode="&#x157;" horiz-adv-x="352"
d="M270 348q-10 2 -19 2q-48 0 -72 -48v-265q0 -15 -11 -26t-26 -11h-41q-15 0 -26 11t-11 26v376q0 15 11 26t26 11h41q15 0 26 -11.5t11 -28.5q40 48 103 48q22 0 39 -7q21 -8 21 -29q0 -8 -3 -14l-15 -32q-13 -29 -41 -29q-8 0 -13 1zM89 -168q0 13 14 27q18 15 18 45
q0 5 -0.5 12.5t-0.5 10.5q0 18 20 23l59 13q3 1 7 1q16 0 23 -14t7 -32q0 -42 -27.5 -72.5t-68.5 -44.5q-6 -3 -15 -3q-20 0 -30 15q-6 9 -6 19z" />
    <glyph glyph-name="Rcaron" unicode="&#x158;" horiz-adv-x="650"
d="M481 25l-175 237h-86v-225q0 -15 -11 -26t-26 -11h-49q-15 0 -26 11t-11 26v626q0 15 10.5 26t26.5 11q120 2 176 2q254 0 254 -216q0 -81 -41 -131.5t-94 -68.5l174 -228q8 -9 8 -22q0 -15 -10.5 -25.5t-25.5 -10.5h-46q-30 0 -48 25zM220 377h80q57 0 95.5 28.5
t38.5 79.5q0 102 -130 102q-18 0 -84 -2v-208zM427 897q22 0 33 -17q6 -9 6 -20q0 -21 -18 -34l-112 -70q-14 -10 -34 -10q-18 0 -33 9l-113 71q-17 11 -17 32q0 13 7 23q12 17 33 17q11 0 22 -6l103 -60l102 60q8 5 21 5z" />
    <glyph glyph-name="rcaron" unicode="&#x159;" horiz-adv-x="352"
d="M270 348q-10 2 -19 2q-48 0 -72 -48v-265q0 -15 -11 -26t-26 -11h-41q-15 0 -26 11t-11 26v376q0 15 11 26t26 11h41q15 0 26 -11.5t11 -28.5q40 48 103 48q22 0 39 -7q21 -8 21 -29q0 -8 -3 -14l-15 -32q-13 -29 -41 -29q-8 0 -13 1zM298 691q17 0 30 -13q10 -11 10 -27
q0 -21 -15 -33l-93 -81q-13 -12 -33 -12q-21 0 -34 13l-92 80q-14 14 -14 33q0 15 11 28q11 14 32 14q18 0 29 -11l69 -63l70 61q14 11 30 11z" />
    <glyph glyph-name="Sacute" unicode="&#x15a;" horiz-adv-x="544"
d="M54 125l33 35q11 11 25 11q15 0 28 -11q68 -56 127 -56q45 0 73.5 21.5t28.5 60.5q0 28 -17.5 49.5t-45.5 37t-61.5 30t-67.5 33t-62 41t-45.5 59t-17.5 82.5q0 82 59.5 137.5t158.5 55.5q91 0 167 -43q18 -10 18 -32q0 -9 -5 -17l-19 -33q-12 -20 -33 -20q-10 0 -18 4
q-53 26 -100 26q-45 0 -71.5 -21t-26.5 -56q0 -34 23.5 -59t58.5 -39.5t76.5 -34.5t76.5 -41.5t58.5 -62t23.5 -95.5q0 -87 -67 -142.5t-167 -55.5q-115 0 -207 85q-13 11 -13 29q0 13 9 22zM233 817l148 77q7 4 16 4q22 0 32 -21l13 -31q3 -6 3 -14q0 -24 -23 -32l-155 -57
q-4 -2 -13 -2q-27 0 -38 25q-4 7 -4 17q0 24 21 34z" />
    <glyph glyph-name="sacute" unicode="&#x15b;" horiz-adv-x="437"
d="M45 97l15 19q10 13 24 13t30 -11q50 -33 111 -33q26 0 42.5 11t16.5 31t-25 32.5t-61 22t-71.5 23t-60.5 43.5t-25 76q0 64 46.5 100.5t118.5 36.5q84 0 150 -42q15 -10 15 -30q0 -11 -6 -20l-11 -16q-12 -16 -28 -16q-9 0 -25 7q-41 21 -89 21q-25 0 -40.5 -11.5
t-15.5 -27.5q0 -17 18 -29.5t45 -18.5t58.5 -17t58.5 -24t45 -40t18 -64q0 -66 -49.5 -105t-132.5 -39q-97 0 -168 62q-11 10 -11 25q0 13 7 21zM159 600l61 95q11 17 32 17q13 0 23 -7l24 -18q15 -11 15 -31q0 -14 -9 -25l-72 -83q-13 -15 -34 -15q-14 0 -27 8
q-19 13 -19 37q0 12 6 22z" />
    <glyph glyph-name="Scircumflex" unicode="&#x15c;" horiz-adv-x="544"
d="M54 125l33 35q11 11 25 11q15 0 28 -11q68 -56 127 -56q45 0 73.5 21.5t28.5 60.5q0 28 -17.5 49.5t-45.5 37t-61.5 30t-67.5 33t-62 41t-45.5 59t-17.5 82.5q0 82 59.5 137.5t158.5 55.5q91 0 167 -43q18 -10 18 -32q0 -9 -5 -17l-19 -33q-12 -20 -33 -20q-10 0 -18 4
q-53 26 -100 26q-45 0 -71.5 -21t-26.5 -56q0 -34 23.5 -59t58.5 -39.5t76.5 -34.5t76.5 -41.5t58.5 -62t23.5 -95.5q0 -87 -67 -142.5t-167 -55.5q-115 0 -207 85q-13 11 -13 29q0 13 9 22zM265 799l-102 -53q-7 -5 -20 -5q-22 0 -34 18q-6 9 -6 21q0 21 17 33l113 70
q14 10 33 10q17 0 32 -9l115 -71q17 -11 17 -32q0 -12 -7 -22q-13 -18 -35 -18q-12 0 -21 5z" />
    <glyph glyph-name="scircumflex" unicode="&#x15d;" horiz-adv-x="437"
d="M45 97l15 19q10 13 24 13t30 -11q50 -33 111 -33q26 0 42.5 11t16.5 31t-25 32.5t-61 22t-71.5 23t-60.5 43.5t-25 76q0 64 46.5 100.5t118.5 36.5q84 0 150 -42q15 -10 15 -30q0 -11 -6 -20l-11 -16q-12 -16 -28 -16q-9 0 -25 7q-41 21 -89 21q-25 0 -40.5 -11.5
t-15.5 -27.5q0 -17 18 -29.5t45 -18.5t58.5 -17t58.5 -24t45 -40t18 -64q0 -66 -49.5 -105t-132.5 -39q-97 0 -168 62q-11 10 -11 25q0 13 7 21zM119 523q-21 0 -33 17q-9 11 -9 26q0 21 16 35l89 77q13 12 33 12q21 0 34 -13l88 -76q15 -13 15 -34q0 -18 -10 -29
q-14 -17 -34 -17q-14 0 -27 10l-67 54l-68 -53q-12 -9 -27 -9z" />
    <glyph glyph-name="Scedilla" unicode="&#x15e;" horiz-adv-x="544"
d="M282 -33q111 -9 111 -87q0 -39 -35.5 -63.5t-97.5 -24.5q-68 0 -115 31q-13 8 -13 25q0 9 5 17q10 16 28 16q9 0 17 -4q30 -15 50 -15q39 0 39 25q0 16 -17 24q-30 14 -30 43v37q-88 11 -166 83q-13 11 -13 29q0 13 9 22l33 35q11 11 25 11q15 0 28 -11q68 -56 127 -56
q45 0 73.5 21.5t28.5 60.5q0 28 -17.5 49.5t-45.5 37t-61.5 30t-67.5 33t-62 41t-45.5 59t-17.5 82.5q0 82 59.5 137.5t158.5 55.5q91 0 167 -43q18 -10 18 -32q0 -9 -5 -17l-19 -33q-12 -20 -33 -20q-10 0 -18 4q-53 26 -100 26q-45 0 -71.5 -21t-26.5 -56q0 -34 23.5 -59
t58.5 -39.5t76.5 -34.5t76.5 -41.5t58.5 -62t23.5 -95.5q0 -83 -61.5 -137.5t-155.5 -59.5v-23z" />
    <glyph glyph-name="scedilla" unicode="&#x15f;" horiz-adv-x="437"
d="M246 -34q104 -8 104 -86q0 -40 -36 -64t-102 -24q-53 0 -94 24q-15 10 -15 29q0 8 3 14q9 17 29 17q10 0 18 -4q23 -10 43 -10q39 0 39 25q0 18 -15 23q-19 7 -25.5 17.5t-6.5 30.5v33q-78 7 -139 60q-11 10 -11 25q0 13 7 21l15 19q10 13 24 13t30 -11q50 -33 111 -33
q26 0 42.5 11t16.5 31t-25 32.5t-61 22t-71.5 23t-60.5 43.5t-25 76q0 64 46.5 100.5t118.5 36.5q84 0 150 -42q15 -10 15 -30q0 -11 -6 -20l-11 -16q-12 -16 -28 -16q-9 0 -25 7q-41 21 -89 21q-25 0 -40.5 -11.5t-15.5 -27.5q0 -17 18 -29.5t45 -18.5t58.5 -17t58.5 -24
t45 -40t18 -64q0 -60 -41 -97.5t-112 -44.5v-25z" />
    <glyph glyph-name="Scaron" unicode="&#x160;" horiz-adv-x="544"
d="M54 125l33 35q11 11 25 11q15 0 28 -11q68 -56 127 -56q45 0 73.5 21.5t28.5 60.5q0 28 -17.5 49.5t-45.5 37t-61.5 30t-67.5 33t-62 41t-45.5 59t-17.5 82.5q0 82 59.5 137.5t158.5 55.5q91 0 167 -43q18 -10 18 -32q0 -9 -5 -17l-19 -33q-12 -20 -33 -20q-10 0 -18 4
q-53 26 -100 26q-45 0 -71.5 -21t-26.5 -56q0 -34 23.5 -59t58.5 -39.5t76.5 -34.5t76.5 -41.5t58.5 -62t23.5 -95.5q0 -87 -67 -142.5t-167 -55.5q-115 0 -207 85q-13 11 -13 29q0 13 9 22zM395 897q22 0 33 -17q6 -9 6 -20q0 -21 -18 -34l-112 -70q-14 -10 -34 -10
q-18 0 -33 9l-113 71q-17 11 -17 32q0 13 7 23q12 17 33 17q11 0 22 -6l103 -60l102 60q8 5 21 5z" />
    <glyph glyph-name="scaron" unicode="&#x161;" horiz-adv-x="437"
d="M45 97l15 19q10 13 24 13t30 -11q50 -33 111 -33q26 0 42.5 11t16.5 31t-25 32.5t-61 22t-71.5 23t-60.5 43.5t-25 76q0 64 46.5 100.5t118.5 36.5q84 0 150 -42q15 -10 15 -30q0 -11 -6 -20l-11 -16q-12 -16 -28 -16q-9 0 -25 7q-41 21 -89 21q-25 0 -40.5 -11.5
t-15.5 -27.5q0 -17 18 -29.5t45 -18.5t58.5 -17t58.5 -24t45 -40t18 -64q0 -66 -49.5 -105t-132.5 -39q-97 0 -168 62q-11 10 -11 25q0 13 7 21zM314 691q17 0 30 -13q10 -11 10 -27q0 -21 -15 -33l-93 -81q-13 -12 -33 -12q-21 0 -34 13l-92 80q-14 14 -14 33q0 15 11 28
q11 14 32 14q18 0 29 -11l69 -63l70 61q14 11 30 11z" />
    <glyph glyph-name="Tcedilla" unicode="&#x162;" horiz-adv-x="597"
d="M327 -33q111 -9 111 -87q0 -39 -35.5 -63.5t-97.5 -24.5q-69 0 -115 31q-13 8 -13 25q0 9 5 17q10 16 28 16q9 0 17 -4q30 -15 50 -15q39 0 39 25q0 16 -17 24q-30 14 -30 43v46q-14 2 -23 12.5t-9 24.5v548h-190q-15 0 -26 11t-11 26v41q0 15 11 26t26 11h503
q15 0 26 -11t11 -26v-41q0 -15 -11 -26t-26 -11h-190v-548q0 -14 -9.5 -24.5t-23.5 -12.5v-33z" />
    <glyph glyph-name="tcedilla" unicode="&#x163;" horiz-adv-x="354"
d="M214 -34q104 -8 104 -86q0 -40 -36 -64t-102 -24q-53 0 -94 24q-15 10 -15 29q0 8 3 14q9 17 29 17q10 0 18 -4q23 -10 43 -10q39 0 39 25q0 18 -15 23q-19 7 -25.5 17.5t-6.5 30.5v36q-102 19 -102 177v367q0 15 11 26t26 11h41q15 0 26 -11t11 -26v-88h108q15 0 26 -11
t11 -26v-34q0 -15 -11 -26t-26 -11h-108v-164q0 -81 54 -81q17 0 32 5t23 5q20 0 31 -20l10 -18q5 -8 5 -17q0 -23 -17 -32q-45 -26 -93 -29v-25z" />
    <glyph glyph-name="Tcaron" unicode="&#x164;" horiz-adv-x="597"
d="M323 0h-49q-15 0 -26 11t-11 26v548h-190q-15 0 -26 11t-11 26v41q0 15 11 26t26 11h503q15 0 26 -11t11 -26v-41q0 -15 -11 -26t-26 -11h-190v-548q0 -15 -11 -26t-26 -11zM419 897q22 0 33 -17q6 -9 6 -20q0 -21 -18 -34l-112 -70q-14 -10 -34 -10q-18 0 -33 9l-113 71
q-17 11 -17 32q0 13 7 23q12 17 33 17q11 0 22 -6l103 -60l102 60q8 5 21 5z" />
    <glyph glyph-name="tcaron" unicode="&#x165;" horiz-adv-x="354"
d="M309 87l10 -18q5 -8 5 -17q0 -23 -17 -32q-51 -30 -113 -30q-74 0 -107 45.5t-33 135.5v367q0 15 11 26t26 11h41q15 0 26 -11t11 -26v-88h108q15 0 26 -11t11 -26v-34q0 -15 -11 -26t-26 -11h-108v-164q0 -81 54 -81q17 0 32 5t23 5q20 0 31 -20zM230 541q0 13 9 28
q24 37 24 69q0 9 -1 13q-3 15 -3 25q0 24 28 24h48q34 0 34 -34q0 -98 -70 -155q-10 -8 -27 -8q-18 0 -28 9q-14 13 -14 29z" />
    <glyph glyph-name="Umacron" unicode="&#x16a;" horiz-adv-x="750"
d="M541 315v348q0 15 11 26t26 11h48q15 0 26 -11t11 -26v-373q0 -151 -79 -226t-199 -75q-135 0 -216.5 79.5t-81.5 228.5v366q0 15 11 26t26 11h49q15 0 26 -11t11 -26v-340q0 -102 43.5 -160.5t131.5 -58.5q156 0 156 211zM537 815v-18q0 -15 -11 -26t-26 -11h-235
q-15 0 -26 11t-11 26v18q0 15 11 26t26 11h235q15 0 26 -11t11 -26z" />
    <glyph glyph-name="umacron" unicode="&#x16b;" horiz-adv-x="535"
d="M169 199q0 -103 86 -103q59 0 101 55v262q0 15 11 26t26 11h41q15 0 26 -11t11 -26v-376q0 -15 -11 -26t-26 -11h-41q-15 0 -26 11t-11 26v18q-54 -66 -144 -66q-70 0 -114 47t-44 139v238q0 15 11 26t26 11h41q15 0 26 -11t11 -26v-214zM403 605v-18q0 -15 -11 -26
t-26 -11h-205q-15 0 -26 11t-11 26v18q0 15 11 26t26 11h205q15 0 26 -11t11 -26z" />
    <glyph glyph-name="Ubreve" unicode="&#x16c;" horiz-adv-x="750"
d="M541 315v348q0 15 11 26t26 11h48q15 0 26 -11t11 -26v-373q0 -151 -79 -226t-199 -75q-135 0 -216.5 79.5t-81.5 228.5v366q0 15 11 26t26 11h49q15 0 26 -11t11 -26v-340q0 -102 43.5 -160.5t131.5 -58.5q156 0 156 211zM562 849q0 -16 -9 -25q-32 -36 -80.5 -61.5
t-95.5 -25.5q-102 0 -179 87q-9 9 -9 25t11 27q12 12 27 12q16 0 34 -13q48 -38 116 -38q64 0 113 38q18 13 33 13q16 0 28 -12q11 -10 11 -27z" />
    <glyph glyph-name="ubreve" unicode="&#x16d;" horiz-adv-x="535"
d="M169 199q0 -103 86 -103q59 0 101 55v262q0 15 11 26t26 11h41q15 0 26 -11t11 -26v-376q0 -15 -11 -26t-26 -11h-41q-15 0 -26 11t-11 26v18q-54 -66 -144 -66q-70 0 -114 47t-44 139v238q0 15 11 26t26 11h41q15 0 26 -11t11 -26v-214zM421 637q0 -13 -7 -21
q-64 -84 -152 -84q-85 0 -142 83q-7 11 -7 21q0 16 14 27q11 8 23 8q16 0 28 -12q40 -34 89 -34q51 0 91 33q15 12 29 12q11 0 22 -8q12 -9 12 -25z" />
    <glyph glyph-name="Uring" unicode="&#x16e;" horiz-adv-x="750"
d="M541 315v348q0 15 11 26t26 11h48q15 0 26 -11t11 -26v-373q0 -151 -79 -226t-199 -75q-135 0 -216.5 79.5t-81.5 228.5v366q0 15 11 26t26 11h49q15 0 26 -11t11 -26v-340q0 -102 43.5 -160.5t131.5 -58.5q156 0 156 211zM375 908q63 0 103 -27t40 -81
q0 -53 -40.5 -81.5t-102.5 -28.5q-61 0 -100 28.5t-39 81.5q0 54 39 81t100 27zM376 753q25 0 41 12t16 35q0 45 -57 45q-55 0 -55 -45q0 -23 15.5 -35t39.5 -12z" />
    <glyph glyph-name="uring" unicode="&#x16f;" horiz-adv-x="535"
d="M169 199q0 -103 86 -103q59 0 101 55v262q0 15 11 26t26 11h41q15 0 26 -11t11 -26v-376q0 -15 -11 -26t-26 -11h-41q-15 0 -26 11t-11 26v18q-54 -66 -144 -66q-70 0 -114 47t-44 139v238q0 15 11 26t26 11h41q15 0 26 -11t11 -26v-214zM263 494q-54 0 -90 34.5
t-36 83.5q0 50 36 85t90 35q55 0 91.5 -35t36.5 -85q0 -49 -36.5 -83.5t-91.5 -34.5zM265 669q-24 0 -39 -16t-15 -40t15 -40.5t39 -16.5q23 0 37.5 16.5t14.5 40.5t-14.5 40t-37.5 16z" />
    <glyph glyph-name="Uhungarumlaut" unicode="&#x170;" horiz-adv-x="750"
d="M541 315v348q0 15 11 26t26 11h48q15 0 26 -11t11 -26v-373q0 -151 -79 -226t-199 -75q-135 0 -216.5 79.5t-81.5 228.5v366q0 15 11 26t26 11h49q15 0 26 -11t11 -26v-340q0 -102 43.5 -160.5t131.5 -58.5q156 0 156 211zM419 802l104 87q11 9 26 9q14 0 27 -11l28 -24
q9 -7 9 -19q0 -16 -14 -22l-129 -74q-11 -7 -28 -7q-18 0 -28 11q-8 9 -8 22q0 17 13 28zM233 804l68 80q14 16 34 16q10 0 20 -5l37 -19q12 -6 12 -20q0 -10 -9 -18l-108 -85q-12 -9 -27 -9q-16 0 -26 9q-11 11 -11 25t10 26z" />
    <glyph glyph-name="uhungarumlaut" unicode="&#x171;" horiz-adv-x="535"
d="M169 199q0 -103 86 -103q59 0 101 55v262q0 15 11 26t26 11h41q15 0 26 -11t11 -26v-376q0 -15 -11 -26t-26 -11h-41q-15 0 -26 11t-11 26v18q-54 -66 -144 -66q-70 0 -114 47t-44 139v238q0 15 11 26t26 11h41q15 0 26 -11t11 -26v-214zM305 598l66 90q13 16 34 16
q15 0 24 -8l19 -15q15 -12 15 -30q0 -14 -11 -25l-74 -79q-17 -17 -38 -17q-14 0 -25 9q-18 14 -18 36q0 12 8 23zM139 601l57 94q10 18 33 18q12 0 22 -7l16 -11q16 -12 16 -33q0 -16 -8 -25l-64 -87q-12 -16 -35 -16q-13 0 -26 8q-18 12 -18 34q0 14 7 25z" />
    <glyph glyph-name="Uogonek" unicode="&#x172;" horiz-adv-x="750"
d="M541 315v348q0 15 11 26t26 11h48q15 0 26 -11t11 -26v-373q0 -144 -72 -218.5t-183 -81.5q-53 -22 -53 -58q0 -21 13.5 -30.5t31.5 -9.5q10 0 15 1t14 1q25 0 32 -21l6 -19q2 -8 2 -11q0 -19 -22 -29q-30 -14 -73 -14q-57 0 -95.5 23t-38.5 71q0 65 83 100
q-109 17 -172.5 94.5t-63.5 208.5v366q0 15 11 26t26 11h49q15 0 26 -11t11 -26v-340q0 -102 43.5 -160.5t131.5 -58.5q156 0 156 211z" />
    <glyph glyph-name="uogonek" unicode="&#x173;" horiz-adv-x="535"
d="M169 199q0 -103 86 -103q59 0 101 55v262q0 15 11 26t26 11h41q15 0 26 -11t11 -26v-376q0 -15 -11 -26t-26 -11h-5q-42 -1 -73 -22t-31 -46q0 -21 13.5 -30.5t31.5 -9.5q2 0 9.5 0.5t10.5 0.5q14 0 19.5 -1t10.5 -5t8 -13l8 -25q1 -2 1 -7q0 -20 -16 -26
q-34 -16 -77 -16q-57 0 -95.5 23t-38.5 71t43.5 78t110.5 42q-8 10 -8 23v18q-54 -66 -144 -66q-70 0 -114 47t-44 139v238q0 15 11 26t26 11h41q15 0 26 -11t11 -26v-214z" />
    <glyph glyph-name="Ydieresis" unicode="&#x178;" horiz-adv-x="616"
d="M155 674l158 -267l157 267q15 26 45 26h36q16 0 26.5 -11.5t10.5 -26.5q0 -12 -5 -19l-214 -351v-255q0 -15 -11 -26t-26 -11h-49q-15 0 -26 11t-11 26v255l-212 351q-6 9 -6 20q0 15 11 26t27 11h43q30 0 46 -26zM195 887q29 0 50 -17t21 -45q0 -31 -21 -48.5t-50 -17.5
q-33 0 -55 17.5t-22 48.5q0 28 22 45t55 17zM427 887q29 0 50 -17t21 -45q0 -31 -21 -48.5t-50 -17.5q-33 0 -55 17.5t-22 48.5q0 28 22 45t55 17z" />
    <glyph glyph-name="Zacute" unicode="&#x179;" horiz-adv-x="637"
d="M25 37v17q0 15 29 54l358 477h-340q-15 0 -26 11t-11 26v41q0 15 11 26t26 11h468q15 0 26 -11t11 -26v-18q0 -18 -29 -54l-359 -476h371q15 0 26 -11t11 -26v-41q0 -15 -11 -26t-26 -11h-498q-15 0 -26 11t-11 26zM273 817l148 77q7 4 16 4q22 0 32 -21l13 -31
q3 -6 3 -14q0 -24 -23 -32l-155 -57q-4 -2 -13 -2q-27 0 -38 25q-4 7 -4 17q0 24 21 34z" />
    <glyph glyph-name="zacute" unicode="&#x17a;" horiz-adv-x="489"
d="M42 37v16q0 31 21 52l223 237h-192q-15 0 -26 11t-11 26v34q0 15 11 26t26 11h316q15 0 26 -11t11 -26v-16q0 -31 -21 -52l-223 -238h202q15 0 26 -11t11 -26v-33q0 -15 -11 -26t-26 -11h-326q-15 0 -26 11t-11 26zM198 600l61 95q11 17 32 17q13 0 23 -7l24 -18
q15 -11 15 -31q0 -14 -9 -25l-72 -83q-14 -15 -34 -15q-14 0 -27 8q-19 13 -19 37q0 12 6 22z" />
    <glyph glyph-name="Zdotaccent" unicode="&#x17b;" horiz-adv-x="637"
d="M25 37v17q0 15 29 54l358 477h-340q-15 0 -26 11t-11 26v41q0 15 11 26t26 11h468q15 0 26 -11t11 -26v-18q0 -18 -29 -54l-359 -476h371q15 0 26 -11t11 -26v-41q0 -15 -11 -26t-26 -11h-498q-15 0 -26 11t-11 26zM321 902q30 0 52.5 -19.5t22.5 -51.5
q0 -34 -22.5 -54.5t-52.5 -20.5q-33 0 -56 20t-23 55q0 32 23 51.5t56 19.5z" />
    <glyph glyph-name="zdotaccent" unicode="&#x17c;" horiz-adv-x="489"
d="M42 37v16q0 31 21 52l223 237h-192q-15 0 -26 11t-11 26v34q0 15 11 26t26 11h316q15 0 26 -11t11 -26v-16q0 -31 -21 -52l-223 -238h202q15 0 26 -11t11 -26v-33q0 -15 -11 -26t-26 -11h-326q-15 0 -26 11t-11 26zM245 679q26 0 46 -18.5t20 -48.5q0 -33 -20 -52.5
t-46 -19.5q-31 0 -51.5 19.5t-20.5 52.5q0 30 21 48.5t51 18.5z" />
    <glyph glyph-name="Zcaron" unicode="&#x17d;" horiz-adv-x="637"
d="M25 37v17q0 15 29 54l358 477h-340q-15 0 -26 11t-11 26v41q0 15 11 26t26 11h468q15 0 26 -11t11 -26v-18q0 -18 -29 -54l-359 -476h371q15 0 26 -11t11 -26v-41q0 -15 -11 -26t-26 -11h-498q-15 0 -26 11t-11 26zM447 897q22 0 33 -17q6 -9 6 -20q0 -21 -18 -34
l-112 -70q-14 -10 -34 -10q-18 0 -33 9l-113 71q-17 11 -17 32q0 13 7 23q12 17 33 17q11 0 22 -6l103 -60l102 60q8 5 21 5z" />
    <glyph glyph-name="zcaron" unicode="&#x17e;" horiz-adv-x="489"
d="M42 37v16q0 31 21 52l223 237h-192q-15 0 -26 11t-11 26v34q0 15 11 26t26 11h316q15 0 26 -11t11 -26v-16q0 -31 -21 -52l-223 -238h202q15 0 26 -11t11 -26v-33q0 -15 -11 -26t-26 -11h-326q-15 0 -26 11t-11 26zM353 691q17 0 30 -13q10 -11 10 -27q0 -21 -15 -33
l-93 -81q-14 -12 -33 -12q-21 0 -34 13l-92 80q-14 14 -14 33q0 15 11 28q11 14 32 14q18 0 29 -11l69 -63l70 61q14 11 30 11z" />
    <glyph glyph-name="longs" unicode="&#x17f;" horiz-adv-x="273"
d="M69 523q0 92 43 140t119 48q56 0 99 -23q19 -10 19 -32q0 -9 -5 -17l-9 -16q-14 -25 -41 -25q-5 0 -15 2q-13 3 -27 3q-68 0 -68 -89v-477q0 -15 -11 -26t-26 -11h-41q-15 0 -26 11t-11 26v486z" />
    <glyph glyph-name="uni018F" unicode="&#x18f;" horiz-adv-x="765"
d="M152 649q94 62 225 62q156 0 254 -99t98 -261q0 -164 -96.5 -263t-257.5 -99q-150 0 -244.5 98t-94.5 265q0 4 0.5 12t0.5 13q1 15 12.5 26t26.5 11h520q-18 86 -84 134t-164 48q-68 0 -133 -36q-12 -6 -23 -6q-22 0 -32 18l-17 27q-6 9 -6 20q0 19 15 30zM167 299
q6 -82 61.5 -138.5t144.5 -56.5q93 0 152.5 50.5t75.5 144.5h-434z" />
    <glyph glyph-name="florin" unicode="&#x192;" horiz-adv-x="587"
d="M567 637l-13 -25q-10 -19 -29 -19q-6 0 -22 4q-20 6 -33 6q-57 0 -73 -89l-11 -64h78q15 0 26 -11t11 -26v-34q0 -15 -11 -26t-26 -11h-97l-66 -375q-17 -89 -51 -132t-105 -43q-52 0 -97 24q-18 10 -18 30q0 7 5 19l9 19q10 21 31 21q9 0 21 -3q18 -3 22 -3q53 0 68 79
l64 364h-80q-15 0 -26 11t-11 26v34q0 15 11 26t26 11h99l13 73q19 99 57 143.5t111 44.5q50 0 102 -25q20 -10 20 -30q0 -7 -5 -19z" />
    <glyph glyph-name="uni01DD" unicode="&#x1dd;" horiz-adv-x="509"
d="M369 185h-221v-2q0 -44 28 -71t77 -27q50 0 79 26.5t37 73.5zM366 262q-8 47 -44 75t-89 28q-48 0 -88 -19q-11 -6 -23 -6q-17 0 -27 13l-10 14q-7 10 -7 21q0 20 17 30q67 43 150 43q108 0 171.5 -64.5t63.5 -171.5q0 -103 -60 -169.5t-168 -66.5q-96 0 -159.5 58
t-63.5 151q0 19 1 28q2 14 14 25t27 11h295z" />
    <glyph glyph-name="Scommaaccent" unicode="&#x218;" horiz-adv-x="544"
d="M54 125l33 35q11 11 25 11q15 0 28 -11q68 -56 127 -56q45 0 73.5 21.5t28.5 60.5q0 28 -17.5 49.5t-45.5 37t-61.5 30t-67.5 33t-62 41t-45.5 59t-17.5 82.5q0 82 59.5 137.5t158.5 55.5q91 0 167 -43q18 -10 18 -32q0 -9 -5 -17l-19 -33q-12 -20 -33 -20q-10 0 -18 4
q-53 26 -100 26q-45 0 -71.5 -21t-26.5 -56q0 -34 23.5 -59t58.5 -39.5t76.5 -34.5t76.5 -41.5t58.5 -62t23.5 -95.5q0 -87 -67 -142.5t-167 -55.5q-115 0 -207 85q-13 11 -13 29q0 13 9 22zM197 -168q0 13 14 27q18 15 18 45q0 5 -0.5 12.5t-0.5 10.5q0 18 20 23l59 13
q3 1 7 1q16 0 23 -14t7 -32q0 -42 -27.5 -72.5t-68.5 -44.5q-6 -3 -15 -3q-20 0 -30 15q-6 9 -6 19z" />
    <glyph glyph-name="scommaaccent" unicode="&#x219;" horiz-adv-x="437"
d="M45 97l15 19q10 13 24 13t30 -11q50 -33 111 -33q26 0 42.5 11t16.5 31t-25 32.5t-61 22t-71.5 23t-60.5 43.5t-25 76q0 64 46.5 100.5t118.5 36.5q84 0 150 -42q15 -10 15 -30q0 -11 -6 -20l-11 -16q-12 -16 -28 -16q-9 0 -25 7q-41 21 -89 21q-25 0 -40.5 -11.5
t-15.5 -27.5q0 -17 18 -29.5t45 -18.5t58.5 -17t58.5 -24t45 -40t18 -64q0 -66 -49.5 -105t-132.5 -39q-97 0 -168 62q-11 10 -11 25q0 13 7 21zM139 -168q0 13 14 27q18 15 18 45q0 5 -0.5 12.5t-0.5 10.5q0 18 20 23l59 13q3 1 7 1q16 0 23 -14t7 -32q0 -42 -27.5 -72.5
t-68.5 -44.5q-6 -3 -15 -3q-20 0 -30 15q-6 9 -6 19z" />
    <glyph glyph-name="Tcommaaccent" unicode="&#x21a;" horiz-adv-x="597"
d="M323 0h-49q-15 0 -26 11t-11 26v548h-190q-15 0 -26 11t-11 26v41q0 15 11 26t26 11h503q15 0 26 -11t11 -26v-41q0 -15 -11 -26t-26 -11h-190v-548q0 -15 -11 -26t-26 -11zM214 -168q0 13 14 27q18 15 18 45q0 5 -0.5 12.5t-0.5 10.5q0 18 20 23l59 13q3 1 7 1
q16 0 23 -14t7 -32q0 -42 -27.5 -72.5t-68.5 -44.5q-6 -3 -15 -3q-20 0 -30 15q-6 9 -6 19z" />
    <glyph glyph-name="tcommaaccent" unicode="&#x21b;" horiz-adv-x="354"
d="M309 87l10 -18q5 -8 5 -17q0 -23 -17 -32q-51 -30 -113 -30q-74 0 -107 45.5t-33 135.5v367q0 15 11 26t26 11h41q15 0 26 -11t11 -26v-88h108q15 0 26 -11t11 -26v-34q0 -15 -11 -26t-26 -11h-108v-164q0 -81 54 -81q17 0 32 5t23 5q20 0 31 -20zM95 -168q0 13 14 27
q18 15 18 45q0 5 -0.5 12.5t-0.5 10.5q0 18 20 23l59 13q3 1 7 1q16 0 23 -14t7 -32q0 -42 -27.5 -72.5t-68.5 -44.5q-6 -3 -15 -3q-20 0 -30 15q-6 9 -6 19z" />
    <glyph glyph-name="uni0237" unicode="&#x237;" horiz-adv-x="292"
d="M26 -100q5 -1 15 -1q54 0 54 78v436q0 15 11 26t26 11h41q15 0 26 -11t11 -26v-446q0 -175 -141 -175q-49 0 -93 19q-18 7 -18 26q0 9 2 13l11 30q9 23 29 23q4 0 13.5 -1.5t12.5 -1.5z" />
    <glyph glyph-name="uni0259" unicode="&#x259;" horiz-adv-x="509"
d="M369 185h-221v-2q0 -44 28 -71t77 -27q50 0 79 26.5t37 73.5zM366 262q-8 47 -44 75t-89 28q-48 0 -88 -19q-11 -6 -23 -6q-17 0 -27 13l-10 14q-7 10 -7 21q0 20 17 30q67 43 150 43q108 0 171.5 -64.5t63.5 -171.5q0 -103 -60 -169.5t-168 -66.5q-96 0 -159.5 58
t-63.5 151q0 19 1 28q2 14 14 25t27 11h295z" />
    <glyph glyph-name="afii57929" unicode="&#x2bc;" horiz-adv-x="232"
d="M66 470q0 13 9 26q21 32 21 70q0 15 -5 30q-4 16 -4 21q0 20 26 34l30 18q7 4 16 4q23 0 31 -19q14 -30 14 -62q0 -93 -70 -151q-9 -9 -27 -9t-27 9q-14 14 -14 29z" />
    <glyph glyph-name="circumflex" unicode="&#x2c6;" horiz-adv-x="429"
d="M119 523q-21 0 -33 17q-9 11 -9 26q0 21 16 35l89 77q13 12 33 12q21 0 34 -13l88 -76q15 -13 15 -34q0 -18 -10 -29q-14 -17 -34 -17q-14 0 -27 10l-67 54l-68 -53q-12 -9 -27 -9z" />
    <glyph glyph-name="caron" unicode="&#x2c7;" horiz-adv-x="429"
d="M315 691q17 0 30 -13q10 -11 10 -27q0 -21 -15 -33l-93 -81q-14 -12 -33 -12q-21 0 -34 13l-92 80q-14 14 -14 33q0 15 11 28q11 14 32 14q18 0 29 -11l69 -63l70 61q14 11 30 11z" />
    <glyph glyph-name="breve" unicode="&#x2d8;" horiz-adv-x="433"
d="M375 637q0 -13 -7 -21q-64 -84 -152 -84q-85 0 -142 83q-7 11 -7 21q0 16 14 27q11 8 23 8q16 0 28 -12q40 -34 89 -34q51 0 91 33q15 12 29 12q11 0 22 -8q12 -9 12 -25z" />
    <glyph glyph-name="dotaccent" unicode="&#x2d9;" horiz-adv-x="258"
d="M132 679q26 0 46 -18.5t20 -48.5q0 -33 -20 -52.5t-46 -19.5q-31 0 -51.5 19.5t-20.5 52.5q0 30 21 48.5t51 18.5z" />
    <glyph glyph-name="ring" unicode="&#x2da;" horiz-adv-x="374"
d="M186 494q-54 0 -90 34.5t-36 83.5q0 50 36 85t90 35q55 0 91.5 -35t36.5 -85q0 -49 -36.5 -83.5t-91.5 -34.5zM188 669q-24 0 -39 -16t-15 -40t15 -40.5t39 -16.5q23 0 37.5 16.5t14.5 40.5t-14.5 40t-37.5 16z" />
    <glyph glyph-name="ogonek" unicode="&#x2db;" horiz-adv-x="357"
d="M284 0q-44 0 -76.5 -21t-32.5 -47q0 -21 13.5 -30.5t31.5 -9.5q2 0 9.5 0.5t10.5 0.5q14 0 19.5 -1t10.5 -5t8 -13l8 -25q1 -2 1 -7q0 -20 -16 -26q-34 -16 -77 -16q-57 0 -95.5 23t-38.5 71q0 60 68.5 93t155.5 33v-20z" />
    <glyph glyph-name="tilde" unicode="&#x2dc;" horiz-adv-x="464"
d="M386 573q-54 -48 -99 -48q-22 0 -57 25t-58 25q-11 0 -38 -17q-17 -10 -27 -10q-15 0 -28 15q-7 8 -7 20q0 20 16 34q50 42 93 42q24 0 60 -25t56 -25q13 0 41 19q16 11 29 11q14 0 26 -13q9 -10 9 -22q0 -17 -16 -31z" />
    <glyph glyph-name="hungarumlaut" unicode="&#x2dd;" horiz-adv-x="484"
d="M248 598l66 90q13 16 34 16q15 0 24 -8l19 -15q15 -12 15 -30q0 -14 -11 -25l-74 -79q-17 -17 -38 -17q-15 0 -25 9q-18 13 -18 36q0 12 8 23zM82 601l57 94q11 18 33 18q12 0 22 -7l16 -11q16 -12 16 -33q0 -16 -8 -25l-64 -87q-12 -16 -35 -16q-13 0 -26 8
q-18 12 -18 34q0 14 7 25z" />
    <glyph glyph-name="gravecomb" unicode="&#x300;" horiz-adv-x="0"
d="M-283 697l64 -101q7 -12 7 -24q0 -22 -18 -34q-11 -8 -26 -8q-20 0 -35 15l-79 87q-8 8 -8 22q0 18 13 28l33 24q8 7 20 7q18 0 29 -16z" />
    <glyph glyph-name="acutecomb" unicode="&#x301;" horiz-adv-x="0"
d="M-299 600l61 95q11 17 32 17q13 0 23 -7l24 -18q15 -11 15 -31q0 -14 -9 -25l-72 -83q-13 -15 -34 -15q-14 0 -27 8q-19 13 -19 37q0 12 6 22z" />
    <glyph glyph-name="uni0394" unicode="&#x394;" horiz-adv-x="727"
d="M351 708h18q30 0 42 -28l275 -627q3 -7 3 -15q0 -15 -11 -26.5t-27 -11.5h-575q-16 0 -27 11.5t-11 26.5q0 8 3 15l268 627q12 28 42 28zM357 502l-161 -387h330z" />
    <glyph glyph-name="uni0394" unicode="&#x2206;" horiz-adv-x="727"
d="M351 708h18q30 0 42 -28l275 -627q3 -7 3 -15q0 -15 -11 -26.5t-27 -11.5h-575q-16 0 -27 11.5t-11 26.5q0 8 3 15l268 627q12 28 42 28zM357 502l-161 -387h330z" />
    <glyph glyph-name="uni03A9" unicode="&#x3a9;" horiz-adv-x="823"
d="M368 74v-37q0 -15 -11 -26t-26 -11h-240q-15 0 -26 11t-11 26v41q0 15 11 26t26 11h120q-59 19 -107.5 93.5t-48.5 171.5q0 149 102 240t255 91q155 0 256 -90.5t101 -240.5q0 -101 -49 -172.5t-108 -92.5h119q15 0 26 -11t11 -26v-41q0 -15 -11 -26t-26 -11h-239
q-15 0 -26 11t-11 26v37q0 38 35 53q69 30 109 94.5t40 138.5q0 97 -62.5 166.5t-164.5 69.5q-107 0 -167 -69.5t-60 -169.5q0 -67 40 -134t108 -96q35 -16 35 -53z" />
    <glyph glyph-name="uni03A9" unicode="&#x2126;" horiz-adv-x="823"
d="M368 74v-37q0 -15 -11 -26t-26 -11h-240q-15 0 -26 11t-11 26v41q0 15 11 26t26 11h120q-59 19 -107.5 93.5t-48.5 171.5q0 149 102 240t255 91q155 0 256 -90.5t101 -240.5q0 -101 -49 -172.5t-108 -92.5h119q15 0 26 -11t11 -26v-41q0 -15 -11 -26t-26 -11h-239
q-15 0 -26 11t-11 26v37q0 38 35 53q69 30 109 94.5t40 138.5q0 97 -62.5 166.5t-164.5 69.5q-107 0 -167 -69.5t-60 -169.5q0 -67 40 -134t108 -96q35 -16 35 -53z" />
    <glyph glyph-name="pi" unicode="&#x3c0;" horiz-adv-x="620"
d="M27 26l-4 40v6q0 25 27 34q65 21 69 174l1 62h-46q-15 0 -26 11t-11 26v34q0 15 11 26t26 11h460q15 0 26 -11t11 -26v-34q0 -15 -11 -26t-26 -11h-40v-176q0 -68 33 -68q3 0 13 2q20 4 24 4q20 0 30 -21l11 -20q4 -7 4 -15q0 -21 -17 -30q-49 -28 -113 -28
q-100 0 -100 129v223h-145v-45q0 -161 -40.5 -228t-126.5 -76h-3q-14 0 -25 10t-12 23z" />
    <glyph glyph-name="afii10023" unicode="&#x401;" horiz-adv-x="575"
d="M512 78v-41q0 -15 -11 -26t-26 -11h-341q-15 0 -26 11t-11 26v626q0 15 11 26t26 11h331q15 0 26 -11t11 -26v-41q0 -15 -11 -26t-26 -11h-245v-174h215q15 0 26 -11t11 -26v-41q0 -15 -11 -26t-26 -11h-215v-181h255q15 0 26 -11t11 -26zM196 887q29 0 50 -17t21 -45
q0 -31 -21 -48.5t-50 -17.5q-33 0 -55 17.5t-22 48.5q0 28 22 45t55 17zM428 887q29 0 50 -17t21 -45q0 -31 -21 -48.5t-50 -17.5q-33 0 -55 17.5t-22 48.5q0 28 22 45t55 17z" />
    <glyph glyph-name="afii10051" unicode="&#x402;" horiz-adv-x="764"
d="M360 585v-202q66 40 149 40q210 0 210 -220q0 -106 -46.5 -160t-127.5 -54q-59 0 -109 32q-19 13 -19 30q0 8 4 15l19 35q9 18 28 18q8 0 18 -5q20 -10 38 -10q73 0 73 97q0 107 -111 107q-64 0 -126 -37v-234q0 -15 -11 -26t-26 -11h-49q-15 0 -26 11t-11 26v548h-190
q-15 0 -26 11t-11 26v41q0 15 11 26t26 11h503q15 0 26 -11t11 -26v-41q0 -15 -11 -26t-26 -11h-190z" />
    <glyph glyph-name="afii10052" unicode="&#x403;" horiz-adv-x="507"
d="M220 585v-548q0 -15 -11 -26t-26 -11h-49q-15 0 -26 11t-11 26v626q0 15 11 26t26 11h321q15 0 26 -11t11 -26v-41q0 -15 -11 -26t-26 -11h-235zM285 817l148 77q7 4 16 4q22 0 32 -21l13 -31q3 -6 3 -14q0 -24 -23 -32l-155 -57q-4 -2 -13 -2q-27 0 -38 25q-4 7 -4 17
q0 24 21 34z" />
    <glyph glyph-name="afii10053" unicode="&#x404;" horiz-adv-x="667"
d="M572 557q-11 0 -20 5q-62 34 -133 34q-99 0 -163.5 -48t-82.5 -134h276q15 0 26 -11t11 -26v-41q0 -15 -11 -26t-26 -11h-278q16 -95 86.5 -145t166.5 -50q69 0 137 35q11 6 22 6q20 0 34 -23l15 -27q6 -11 6 -20q0 -21 -22 -35q-85 -51 -202 -51q-169 0 -269 97
t-100 264q0 160 98.5 260.5t253.5 100.5q130 0 211 -56q19 -13 19 -31q0 -10 -6 -19l-18 -29q-10 -19 -31 -19z" />
    <glyph glyph-name="afii10054" unicode="&#x405;" horiz-adv-x="544"
d="M54 125l33 35q11 11 25 11q15 0 28 -11q68 -56 127 -56q45 0 73.5 21.5t28.5 60.5q0 28 -17.5 49.5t-45.5 37t-61.5 30t-67.5 33t-62 41t-45.5 59t-17.5 82.5q0 82 59.5 137.5t158.5 55.5q91 0 167 -43q18 -10 18 -32q0 -9 -5 -17l-19 -33q-12 -20 -33 -20q-10 0 -18 4
q-53 26 -100 26q-45 0 -71.5 -21t-26.5 -56q0 -34 23.5 -59t58.5 -39.5t76.5 -34.5t76.5 -41.5t58.5 -62t23.5 -95.5q0 -87 -67 -142.5t-167 -55.5q-115 0 -207 85q-13 11 -13 29q0 13 9 22z" />
    <glyph glyph-name="afii10055" unicode="&#x406;" horiz-adv-x="347"
d="M235 663v-626q0 -15 -11 -26t-26 -11h-49q-15 0 -26 11t-11 26v626q0 15 11 26t26 11h49q15 0 26 -11t11 -26z" />
    <glyph glyph-name="afii10056" unicode="&#x407;" horiz-adv-x="348"
d="M26 825q0 28 19 45t47 17q26 0 44.5 -17t18.5 -45q0 -31 -18.5 -48.5t-44.5 -17.5q-28 0 -47 17.5t-19 48.5zM193 825q0 28 19.5 45t47.5 17q25 0 43.5 -17.5t18.5 -44.5q0 -31 -18 -48.5t-44 -17.5q-29 0 -48 17.5t-19 48.5zM235 663v-626q0 -15 -11 -26t-26 -11h-49
q-15 0 -26 11t-11 26v626q0 15 11 26t26 11h49q15 0 26 -11t11 -26z" />
    <glyph glyph-name="afii10057" unicode="&#x408;" horiz-adv-x="389"
d="M169 186v477q0 15 11 26t26 11h49q15 0 26 -11t11 -26v-498q0 -85 -42.5 -130.5t-126.5 -45.5q-48 0 -93 19q-23 8 -23 32q0 8 3 15l12 34q7 23 33 23q5 0 15 -2q24 -6 36 -6q63 0 63 82z" />
    <glyph glyph-name="afii10058" unicode="&#x409;" horiz-adv-x="1007"
d="M628 345v-229q1 0 26 -1.5t39 -1.5q139 0 139 123q0 56 -36 85t-101 29q-22 0 -67 -5zM177 560l7 103q2 16 13 26.5t27 10.5h367q15 0 26 -11t11 -26v-203q39 5 77 5q127 0 192 -60t65 -166q0 -113 -74.5 -177t-208.5 -64q-60 0 -136 2q-16 0 -26.5 11t-10.5 26v548h-204
l-14 -132q-19 -178 -52 -280.5t-73 -139t-99 -36.5h-4q-18 0 -29.5 10.5t-11.5 28.5v35q0 25 7 35t32 17q91 24 119 437z" />
    <glyph glyph-name="afii10059" unicode="&#x40a;" horiz-adv-x="1032"
d="M220 323v-286q0 -15 -11 -26t-26 -11h-49q-15 0 -26 11t-11 26v626q0 15 11 26t26 11h49q15 0 26 -11t11 -26v-225h310v225q0 15 11 26t26 11h48q15 0 26 -11t11 -26v-220q43 4 78 4q127 0 192 -58t65 -159q0 -107 -75 -169.5t-208 -62.5q-59 0 -137 2q-15 0 -26 11
t-11 26v286h-310zM652 116q3 0 27.5 -1.5t38.5 -1.5q139 0 139 114q0 51 -36 78t-101 27q-33 0 -68 -5v-211z" />
    <glyph glyph-name="afii10060" unicode="&#x40b;" horiz-adv-x="765"
d="M323 0h-49q-15 0 -26 11t-11 26v548h-190q-15 0 -26 11t-11 26v41q0 15 11 26t26 11h503q15 0 26 -11t11 -26v-41q0 -15 -11 -26t-26 -11h-190v-202q63 40 150 40q42 0 78 -12t66.5 -37t48 -69.5t17.5 -104.5v-163q0 -15 -11 -26t-26 -11h-48q-15 0 -26 11t-11 26v127
q0 144 -120 144q-60 0 -118 -38v-233q0 -15 -11 -26t-26 -11z" />
    <glyph glyph-name="afii10061" unicode="&#x40c;" horiz-adv-x="664"
d="M220 361v-324q0 -15 -11 -26t-26 -11h-49q-15 0 -26 11t-11 26v626q0 15 11 26t26 11h49q15 0 26 -11t11 -26v-295l257 309q18 23 49 23h45q14 0 23 -10t9 -23q0 -14 -8 -22l-239 -271l259 -317q8 -9 8 -22q0 -14 -9.5 -24.5t-24.5 -10.5h-53q-30 0 -49 24zM330 817
l148 77q7 4 16 4q22 0 32 -21l13 -31q3 -6 3 -14q0 -24 -23 -32l-155 -57q-4 -2 -13 -2q-27 0 -38 25q-4 7 -4 17q0 24 21 34z" />
    <glyph glyph-name="afii10062" unicode="&#x40e;" horiz-adv-x="676"
d="M160 674l214 -365l155 363q12 28 42 28h36q16 0 27 -11.5t11 -26.5q0 -8 -3 -15l-215 -484q-37 -83 -82 -123t-108 -40q-33 0 -63 11q-24 9 -24 31q0 6 3 15l13 36q10 26 33 26q11 0 18 -2q12 -2 19 -2q46 0 69 49l10 24l-279 463q-5 10 -5 17q0 13 9.5 22.5t23.5 9.5h51
q30 0 45 -26zM550 871q0 -65 -55 -104.5t-145 -39.5t-145 39.5t-55 104.5q0 25 15.5 42t43.5 17t42 -16.5t14 -42.5q0 -59 85 -59t85 59q0 26 14 42.5t42 16.5t43.5 -17t15.5 -42z" />
    <glyph glyph-name="afii10145" unicode="&#x40f;" horiz-adv-x="742"
d="M391 -153h-41q-15 0 -26 11t-11 26v116h-179q-15 0 -26 11t-11 26v626q0 15 11 26t26 11h49q15 0 26 -11t11 -26v-548h302v548q0 15 11 26t26 11h49q15 0 26 -11t11 -26v-626q0 -15 -11 -26t-26 -11h-180v-116q0 -15 -11 -26t-26 -11z" />
    <glyph glyph-name="afii10017" unicode="&#x410;" horiz-adv-x="706"
d="M499 179h-299l-62 -151q-10 -28 -41 -28h-36q-17 0 -28 11.5t-11 27.5q0 7 3 14l262 621q12 28 42 28h48q30 0 42 -28l262 -621q3 -7 3 -14q0 -16 -11 -27.5t-28 -11.5h-43q-31 0 -41 28zM350 543l-103 -249h205z" />
    <glyph glyph-name="afii10018" unicode="&#x411;" horiz-adv-x="614"
d="M220 429q40 6 94 6q109 0 172 -57t63 -154q0 -109 -70.5 -168.5t-199.5 -59.5q-34 0 -145 3q-16 1 -26.5 11.5t-10.5 26.5v626q0 15 11 26t26 11h335q15 0 26 -11t11 -26v-41q0 -15 -11 -26t-26 -11h-249v-156zM220 314v-199q56 -4 78 -4q129 0 129 104q0 48 -30.5 76.5
t-92.5 28.5q-38 0 -84 -6z" />
    <glyph glyph-name="afii10019" unicode="&#x412;" horiz-adv-x="617"
d="M529 530q0 -112 -100 -160q55 -14 89 -56t34 -108q0 -104 -71.5 -157t-188.5 -53q-89 0 -158 3q-15 1 -26 12t-11 26v624q0 16 11 27t26 12q138 3 165 3q119 0 174.5 -47.5t55.5 -125.5zM220 301v-185q42 -5 81 -5q128 0 128 101q0 44 -32 66.5t-90 22.5h-87zM220 408h83
q46 0 75 23.5t29 69.5q0 42 -29.5 64.5t-80.5 22.5q-44 0 -77 -3v-177z" />
    <glyph glyph-name="afii10020" unicode="&#x413;" horiz-adv-x="507"
d="M220 585v-548q0 -15 -11 -26t-26 -11h-49q-15 0 -26 11t-11 26v626q0 15 11 26t26 11h321q15 0 26 -11t11 -26v-41q0 -15 -11 -26t-26 -11h-235z" />
    <glyph glyph-name="afii10021" unicode="&#x414;" horiz-adv-x="756"
d="M239 700h360q15 0 26 -11t11 -26v-548h58q15 0 26 -11t11 -26v-166q0 -15 -11 -26t-26 -11h-41q-15 0 -26 11t-11 26v88h-489v-88q0 -15 -11 -26t-26 -11h-41q-15 0 -26 11t-11 26v166q0 15 11 26t26 11h38q31 38 65.5 155.5t42.5 289.5l5 103q1 16 12 26.5t27 10.5z
M514 115v470h-193l-11 -122q-9 -123 -37 -221t-51 -127h292z" />
    <glyph glyph-name="afii10022" unicode="&#x415;" horiz-adv-x="575"
d="M512 78v-41q0 -15 -11 -26t-26 -11h-341q-15 0 -26 11t-11 26v626q0 15 11 26t26 11h331q15 0 26 -11t11 -26v-41q0 -15 -11 -26t-26 -11h-245v-174h215q15 0 26 -11t11 -26v-41q0 -15 -11 -26t-26 -11h-215v-181h255q15 0 26 -11t11 -26z" />
    <glyph glyph-name="afii10024" unicode="&#x416;" horiz-adv-x="938"
d="M493 0h-48q-15 0 -26 11t-11 26v326l-247 -338q-18 -25 -48 -25h-38q-16 0 -26 11t-10 26q0 12 7 22l230 306l-218 277q-7 10 -7 22q0 15 10 25.5t25 10.5h38q30 0 48 -24l236 -310v297q0 15 11 26t26 11h48q15 0 26 -11t11 -26v-297l235 310q18 24 48 24h39
q15 0 25 -10.5t10 -25.5q0 -12 -7 -22l-218 -276l230 -307q7 -10 7 -22q0 -15 -10 -26t-26 -11h-39q-30 0 -48 25l-246 338v-326q0 -15 -11 -26t-26 -11z" />
    <glyph glyph-name="afii10025" unicode="&#x417;" horiz-adv-x="578"
d="M276 711q95 0 152.5 -50.5t57.5 -141.5q0 -43 -24 -85t-70 -70q61 -17 91 -61t30 -107q0 -93 -72.5 -150t-172.5 -57q-127 0 -220 89q-12 10 -12 28q0 14 9 25l26 30q12 14 29 14q12 0 23 -8q79 -63 139 -63q55 0 92 26.5t37 77.5q0 42 -32 67t-92 25h-35q-15 0 -26 11
t-11 26v41q0 15 11 26t26 11h31q41 0 71 25t30 67q0 43 -28 66t-74 23q-58 0 -119 -45q-13 -8 -24 -8q-18 0 -30 14l-22 27q-8 10 -8 23q0 17 13 28q97 76 204 76z" />
    <glyph glyph-name="afii10026" unicode="&#x418;" horiz-adv-x="792"
d="M658 0h-49q-15 0 -26 11t-11 26v460l-349 -473q-19 -24 -44 -24h-45q-15 0 -26 11t-11 26v626q0 15 11 26t26 11h49q15 0 26 -11t11 -26v-461l349 473q18 25 44 25h45q15 0 26 -11t11 -26v-626q0 -15 -11 -26t-26 -11z" />
    <glyph glyph-name="afii10027" unicode="&#x419;" horiz-adv-x="792"
d="M658 0h-49q-15 0 -26 11t-11 26v460l-349 -473q-19 -24 -44 -24h-45q-15 0 -26 11t-11 26v626q0 15 11 26t26 11h49q15 0 26 -11t11 -26v-461l349 473q18 25 44 25h45q15 0 26 -11t11 -26v-626q0 -15 -11 -26t-26 -11zM608 871q0 -65 -55 -104.5t-145 -39.5t-145 39.5
t-55 104.5q0 25 15.5 42t43.5 17t42 -16.5t14 -42.5q0 -59 85 -59t85 59q0 26 14 42.5t42 16.5t43.5 -17t15.5 -42z" />
    <glyph glyph-name="afii10028" unicode="&#x41a;" horiz-adv-x="664"
d="M220 361v-324q0 -15 -11 -26t-26 -11h-49q-15 0 -26 11t-11 26v626q0 15 11 26t26 11h49q15 0 26 -11t11 -26v-295l257 309q18 23 49 23h45q14 0 23 -10t9 -23q0 -14 -8 -22l-239 -271l259 -317q8 -9 8 -22q0 -14 -9.5 -24.5t-24.5 -10.5h-53q-30 0 -49 24z" />
    <glyph glyph-name="afii10029" unicode="&#x41b;" horiz-adv-x="725"
d="M628 663v-626q0 -15 -11 -26t-26 -11h-48q-15 0 -26 11t-11 26v548h-204l-14 -132q-18 -177 -51 -280t-73.5 -139.5t-99.5 -36.5h-4q-18 0 -29.5 10.5t-11.5 28.5v35q0 25 7 35t32 17q91 24 119 437l7 103q2 16 13 26.5t27 10.5h367q15 0 26 -11t11 -26z" />
    <glyph glyph-name="afii10030" unicode="&#x41c;" horiz-adv-x="901"
d="M220 503v-466q0 -15 -11 -26t-26 -11h-49q-15 0 -26 11t-11 26v626q0 15 11 26t26 11h57q30 0 48 -25l221 -302l211 302q17 25 47 25h49q15 0 26 -11t11 -26v-626q0 -15 -11 -26t-26 -11h-48q-15 0 -26 11t-11 26v469l-183 -257q-19 -27 -47 -27t-48 27z" />
    <glyph glyph-name="afii10031" unicode="&#x41d;" horiz-adv-x="759"
d="M662 663v-626q0 -15 -11 -26t-26 -11h-48q-15 0 -26 11t-11 26v262h-320v-262q0 -15 -11 -26t-26 -11h-49q-15 0 -26 11t-11 26v626q0 15 11 26t26 11h49q15 0 26 -11t11 -26v-249h320v249q0 15 11 26t26 11h48q15 0 26 -11t11 -26z" />
    <glyph glyph-name="afii10032" unicode="&#x41e;" horiz-adv-x="819"
d="M45 350q0 154 102.5 257.5t261.5 103.5q158 0 261.5 -100t103.5 -261q0 -157 -104 -259t-261 -102q-158 0 -261 100t-103 261zM175 350q0 -105 67.5 -175.5t166.5 -70.5q108 0 171.5 70t63.5 176q0 108 -67.5 177t-167.5 69q-101 0 -167.5 -69t-66.5 -177z" />
    <glyph glyph-name="afii10033" unicode="&#x41f;" horiz-adv-x="752"
d="M655 663v-626q0 -15 -11 -26t-26 -11h-49q-15 0 -26 11t-11 26v548h-312v-548q0 -15 -11 -26t-26 -11h-49q-15 0 -26 11t-11 26v626q0 15 11 26t26 11h484q15 0 26 -11t11 -26z" />
    <glyph glyph-name="afii10034" unicode="&#x420;" horiz-adv-x="612"
d="M296 702q74 0 128.5 -18.5t84.5 -51t44 -71t14 -84.5q0 -95 -68 -161t-188 -66q-61 0 -91 3v-216q0 -15 -11 -26t-26 -11h-49q-15 0 -26 11t-11 26v626q0 15 10.5 26t26.5 11q100 2 162 2zM220 585v-215q48 -5 87 -5q58 0 94 28.5t36 84.5q0 109 -129 109q-22 0 -88 -2z
" />
    <glyph glyph-name="afii10035" unicode="&#x421;" horiz-adv-x="650"
d="M527 562q-66 34 -124 34q-99 0 -163.5 -67t-64.5 -179q0 -109 67.5 -177.5t174.5 -68.5q62 0 126 35q12 6 23 6q22 0 32 -17l18 -28q7 -10 7 -23q0 -19 -14 -28q-91 -60 -203 -60q-161 0 -261 99t-100 262q0 157 95 259t263 102q93 0 183 -50q20 -10 20 -29q0 -10 -6 -20
l-21 -37q-12 -19 -30 -19q-11 0 -22 6z" />
    <glyph glyph-name="afii10036" unicode="&#x422;" horiz-adv-x="597"
d="M323 0h-49q-15 0 -26 11t-11 26v548h-190q-15 0 -26 11t-11 26v41q0 15 11 26t26 11h503q15 0 26 -11t11 -26v-41q0 -15 -11 -26t-26 -11h-190v-548q0 -15 -11 -26t-26 -11z" />
    <glyph glyph-name="afii10037" unicode="&#x423;" horiz-adv-x="676"
d="M160 674l214 -365l155 363q12 28 42 28h36q16 0 27 -11.5t11 -26.5q0 -8 -3 -15l-215 -484q-37 -83 -82 -123t-108 -40q-33 0 -63 11q-24 9 -24 31q0 6 3 15l13 36q10 26 33 26q11 0 18 -2q12 -2 19 -2q46 0 69 49l10 24l-279 463q-5 10 -5 17q0 13 9.5 22.5t23.5 9.5h51
q30 0 45 -26z" />
    <glyph glyph-name="afii10038" unicode="&#x424;" horiz-adv-x="839"
d="M481 85v-56q0 -15 -11 -26t-26 -11h-49q-15 0 -26 11t-11 26v56q-147 0 -235 72.5t-88 202.5q0 129 88 201t235 74v36q0 15 11 26t26 11h49q15 0 26 -11t11 -26v-36q146 -2 234.5 -75t88.5 -200q0 -129 -88.5 -201.5t-234.5 -73.5zM481 198q193 2 193 162q0 73 -49 117
t-144 45v-324zM358 522q-94 -1 -143.5 -45t-49.5 -117q0 -78 50 -119.5t143 -42.5v324z" />
    <glyph glyph-name="afii10039" unicode="&#x425;" horiz-adv-x="655"
d="M175 675l155 -228l152 228q17 25 47 25h47q15 0 25 -10.5t10 -25.5q0 -10 -6 -19l-198 -288l207 -302q6 -9 6 -19q0 -15 -10 -25.5t-25 -10.5h-47q-30 0 -47 25l-164 238l-163 -238q-17 -25 -47 -25h-47q-15 0 -25 10.5t-10 25.5q0 10 6 19l207 302l-196 288q-6 9 -6 20
q0 14 10 24.5t25 10.5h47q30 0 47 -25z" />
    <glyph glyph-name="afii10040" unicode="&#x426;" horiz-adv-x="770"
d="M708 -125h-41q-15 0 -26 11t-11 26v88h-496q-15 0 -26 11t-11 26v626q0 15 11 26t26 11h49q15 0 26 -11t11 -26v-548h307v548q0 15 11 26t26 11h49q15 0 26 -11t11 -26v-548h58q15 0 26 -11t11 -26v-166q0 -15 -11 -26t-26 -11z" />
    <glyph glyph-name="afii10041" unicode="&#x427;" horiz-adv-x="667"
d="M447 399v264q0 15 11 26t26 11h49q15 0 26 -11t11 -26v-626q0 -15 -11 -26t-26 -11h-49q-15 0 -26 11t-11 26v250q-66 -48 -167 -48q-90 0 -151.5 54t-61.5 170v200q0 15 11 26t26 11h49q15 0 26 -11t11 -26v-165q0 -144 123 -144q68 0 134 45z" />
    <glyph glyph-name="afii10042" unicode="&#x428;" horiz-adv-x="997"
d="M900 663v-626q0 -15 -11 -26t-26 -11h-729q-15 0 -26 11t-11 26v626q0 15 11 26t26 11h49q15 0 26 -11t11 -26v-548h217v548q0 15 11 26t26 11h49q15 0 26 -11t11 -26v-548h217v548q0 15 11 26t26 11h49q15 0 26 -11t11 -26z" />
    <glyph glyph-name="afii10043" unicode="&#x429;" horiz-adv-x="1020"
d="M958 -125h-41q-15 0 -26 11t-11 26v88h-746q-15 0 -26 11t-11 26v626q0 15 11 26t26 11h49q15 0 26 -11t11 -26v-548h217v548q0 15 11 26t26 11h49q15 0 26 -11t11 -26v-548h217v548q0 15 11 26t26 11h49q15 0 26 -11t11 -26v-548h58q15 0 26 -11t11 -26v-166
q0 -15 -11 -26t-26 -11z" />
    <glyph glyph-name="afii10044" unicode="&#x42a;" horiz-adv-x="673"
d="M337 -2q-61 0 -139 2q-16 0 -26.5 11t-10.5 26v548h-117q-15 0 -26 11t-11 26v41q0 15 11 26t26 11h202q15 0 26 -11t11 -26v-203q40 5 81 5q132 0 198 -60t66 -166q0 -112 -76 -176.5t-215 -64.5zM283 345v-229q8 0 21.5 -1t25 -1.5t22.5 -0.5q146 0 146 123
q0 57 -38.5 85.5t-105.5 28.5q-24 0 -71 -5z" />
    <glyph glyph-name="afii10045" unicode="&#x42b;" horiz-adv-x="864"
d="M767 663v-626q0 -15 -11 -26t-26 -11h-48q-15 0 -26 11t-11 26v626q0 15 11 26t26 11h48q15 0 26 -11t11 -26zM220 345v-229l66 -3q138 0 138 123q0 56 -35.5 85t-100.5 29q-21 0 -68 -5zM97 37v626q0 15 11 26t26 11h49q15 0 26 -11t11 -26v-203q39 5 78 5
q127 0 191.5 -60t64.5 -166q0 -112 -75 -176.5t-208 -64.5q-59 0 -137 2q-16 0 -26.5 11t-10.5 26z" />
    <glyph glyph-name="afii10046" unicode="&#x42c;" horiz-adv-x="609"
d="M220 345v-229q66 -3 68 -3q146 0 146 123q0 57 -38.5 85.5t-105.5 28.5q-23 0 -70 -5zM97 37v626q0 15 11 26t26 11h49q15 0 26 -11t11 -26v-203q39 5 80 5q132 0 198 -60t66 -166q0 -112 -76 -176.5t-214 -64.5q-62 0 -140 2q-16 0 -26.5 11t-10.5 26z" />
    <glyph glyph-name="afii10047" unicode="&#x42d;" horiz-adv-x="668"
d="M85 150q10 0 24 -7q70 -39 146 -39q94 0 160.5 50.5t81.5 144.5h-278q-15 0 -26 11t-11 26v41q0 15 11 26t26 11h275q-18 87 -85 134.5t-167 47.5q-66 0 -124 -35q-12 -6 -23 -6q-21 0 -31 16l-22 31q-6 9 -6 20q0 19 17 31q86 58 211 58q161 0 260 -98.5t99 -261.5
q0 -165 -99 -263.5t-267 -98.5q-65 0 -115 11.5t-99 44.5q-17 12 -17 32q0 8 5 18l23 37q10 18 31 18z" />
    <glyph glyph-name="afii10048" unicode="&#x42e;" horiz-adv-x="1081"
d="M220 299v-262q0 -15 -11 -26t-26 -11h-49q-15 0 -26 11t-11 26v626q0 15 11 26t26 11h49q15 0 26 -11t11 -26v-249h119q20 131 112.5 214t229.5 83q157 0 256 -99.5t99 -261.5q0 -158 -99.5 -259.5t-255.5 -101.5q-135 0 -231.5 85t-112.5 225h-117zM464 350
q0 -104 64 -175t157 -71q106 0 163.5 69t57.5 177q0 109 -61 177.5t-160 68.5q-95 0 -158 -69t-63 -177z" />
    <glyph glyph-name="afii10049" unicode="&#x42f;" horiz-adv-x="624"
d="M527 663v-626q0 -15 -11 -26t-26 -11h-48q-15 0 -26 11t-11 26v205h-101l-140 -216q-16 -26 -47 -26h-41q-15 0 -25.5 10.5t-10.5 25.5q0 11 6 20l142 211q-54 27 -88.5 76.5t-34.5 117.5q0 105 72 173.5t216 68.5q5 0 137 -3q16 0 26.5 -10.5t10.5 -26.5zM405 357v228
q-51 3 -77 3q-60 0 -96.5 -33t-36.5 -86q0 -45 28.5 -74.5t69.5 -37.5h112z" />
    <glyph glyph-name="afii10065" unicode="&#x430;" horiz-adv-x="463"
d="M176 -6q-63 0 -102 37t-39 101q0 71 46 108.5t118 37.5q62 0 102 -29v14q0 52 -19 77t-65 25q-41 0 -77 -12q-9 -3 -18 -3q-24 0 -34 21l-6 12q-4 10 -4 16q0 21 21 32q65 30 130 30q96 0 138 -47t42 -140v-237q0 -15 -11 -26t-26 -11h-26q-15 0 -26 11t-11 26v15
q-41 -58 -133 -58zM301 132v46q-29 22 -79 22q-31 0 -51.5 -14.5t-20.5 -41.5q0 -25 18 -39t46 -14q58 0 87 41z" />
    <glyph glyph-name="afii10066" unicode="&#x431;" horiz-adv-x="544"
d="M307 442q93 0 149 -60t56 -161q0 -97 -66 -164.5t-170 -67.5q-113 0 -178.5 77t-65.5 208q0 289 170 362q41 18 96.5 28.5t75.5 22.5q23 14 39 14t28 -13l23 -26q10 -10 10 -26q0 -15 -10 -24q-33 -32 -69.5 -44.5t-78.5 -19.5t-72 -22q-85 -39 -96 -168q22 37 66 60.5
t93 23.5zM278 335q-46 0 -78.5 -24t-44.5 -61q1 -67 33 -110.5t85 -43.5t84.5 34.5t31.5 85.5q0 52 -29 85.5t-82 33.5z" />
    <glyph glyph-name="afii10067" unicode="&#x432;" horiz-adv-x="502"
d="M241 455q204 0 204 -118q0 -39 -24.5 -67t-59.5 -34q96 -24 96 -105q0 -136 -214 -136q-24 0 -77.5 2t-64.5 2q-16 1 -26.5 11.5t-10.5 26.5v376q0 16 10.5 26.5t26.5 11.5q76 4 140 4zM179 191v-100q68 -4 76 -4q38 0 59.5 14t21.5 38q0 52 -85 52h-72zM179 360v-99h75
q30 0 49.5 13.5t19.5 38.5q0 49 -72 49q-48 0 -72 -2z" />
    <glyph glyph-name="afii10068" unicode="&#x433;" horiz-adv-x="374"
d="M329 342h-150v-305q0 -15 -11 -26t-26 -11h-41q-15 0 -26 11t-11 26v376q0 15 11 26t26 11h228q15 0 26 -11t11 -26v-34q0 -15 -11 -26t-26 -11z" />
    <glyph glyph-name="afii10069" unicode="&#x434;" horiz-adv-x="554"
d="M436 0h-319v-68q0 -15 -11 -26t-26 -11h-33q-15 0 -26 11t-11 26v138q0 15 11 26t26 11h20q53 70 63 235l5 71q1 16 12 26.5t27 10.5h258q15 0 26 -11t11 -26v-306h38q15 0 26 -11t11 -26v-138q0 -15 -11 -26t-26 -11h-34q-15 0 -26 11t-11 26v68zM187 107h167v235h-110
l-3 -46q-12 -131 -54 -189z" />
    <glyph glyph-name="afii10070" unicode="&#x435;" horiz-adv-x="523"
d="M151 267h221v2q0 42 -27.5 69t-75.5 27q-98 0 -118 -98zM290 85q48 0 88 19q14 7 23 7q17 0 29 -17l9 -13q6 -9 6 -20q0 -20 -16 -30q-67 -42 -151 -42q-109 0 -175.5 65t-66.5 171q0 101 65 168.5t173 67.5q89 0 151 -58.5t62 -150.5q0 -18 -1 -26q-1 -13 -13.5 -24.5
t-25.5 -11.5h-292q7 -50 44 -77.5t91 -27.5z" />
    <glyph glyph-name="afii10072" unicode="&#x436;" horiz-adv-x="696"
d="M646 396l-112 -164l124 -178q6 -9 6 -19q0 -14 -9.5 -24.5t-24.5 -10.5h-39q-32 0 -49 27l-116 179q-8 13 -8 27q0 11 7 25l106 166q16 26 46 26h41q15 0 24.5 -10.5t9.5 -24.5q0 -10 -6 -19zM326 450h41q15 0 26 -11t11 -26v-376q0 -15 -11 -26t-26 -11h-41
q-15 0 -26 11t-11 26v376q0 15 11 26t26 11zM38 54l122 178l-113 164q-6 9 -6 19q0 14 9.5 24.5t24.5 10.5h43q32 0 49 -27l101 -165q8 -13 8 -26t-8 -26l-114 -180q-16 -26 -46 -26h-42q-15 0 -24.5 10.5t-9.5 24.5q0 10 6 19z" />
    <glyph glyph-name="afii10073" unicode="&#x437;" horiz-adv-x="465"
d="M66 416q78 45 162 45q88 0 134 -34t46 -94q0 -33 -22 -60t-61 -41q46 -10 70.5 -38.5t24.5 -68.5q0 -63 -56 -99.5t-148 -36.5q-55 0 -93 10.5t-75 41.5q-13 9 -13 29q0 14 7 22l12 13q12 16 31 16q12 0 23 -7q51 -33 98 -33q44 0 68 15t24 40q0 23 -18 37t-50 14h-47
q-15 0 -26 11.5t-11 27.5t11 27t26 11h42q27 0 43.5 16t16.5 39q0 49 -79 49q-37 0 -95 -28q-10 -5 -19 -5q-21 0 -32 20l-7 11q-5 8 -5 17q0 22 18 33z" />
    <glyph glyph-name="afii10074" unicode="&#x438;" horiz-adv-x="568"
d="M467 0h-41q-15 0 -26 11t-11 26v248l-192 -260q-18 -25 -48 -25h-48q-15 0 -26 11t-11 26v376q0 15 11 26t26 11h41q15 0 26 -11t11 -26v-248l192 260q18 25 48 25h48q15 0 26 -11t11 -26v-376q0 -15 -11 -26t-26 -11z" />
    <glyph glyph-name="afii10075" unicode="&#x439;" horiz-adv-x="568"
d="M467 0h-41q-15 0 -26 11t-11 26v248l-192 -260q-18 -25 -48 -25h-48q-15 0 -26 11t-11 26v376q0 15 11 26t26 11h41q15 0 26 -11t11 -26v-248l192 260q18 25 48 25h48q15 0 26 -11t11 -26v-376q0 -15 -11 -26t-26 -11zM388 710q25 0 39 -15t14 -39q0 -60 -40 -98
t-113 -38q-80 0 -118.5 37t-38.5 99q0 25 13 39.5t37 14.5q26 0 40.5 -14.5t14.5 -39.5q0 -23 12.5 -38.5t39.5 -15.5q24 0 36 15.5t12 38.5q0 54 52 54z" />
    <glyph glyph-name="afii10076" unicode="&#x43a;" horiz-adv-x="508"
d="M342 24l-136 174q-11 14 -11 30q0 14 10 29l122 168q18 25 48 25h42q15 0 25 -10.5t10 -24.5q0 -11 -8 -22l-127 -157l147 -179q8 -9 8 -22q0 -14 -9.5 -24.5t-24.5 -10.5h-47q-30 0 -49 24zM101 450h41q15 0 26 -11t11 -26v-376q0 -15 -11 -26t-26 -11h-41q-15 0 -26 11
t-11 26v376q0 15 11 26t26 11z" />
    <glyph glyph-name="afii10077" unicode="&#x43b;" horiz-adv-x="534"
d="M166 450h267q15 0 26 -11t11 -26v-376q0 -15 -11 -26t-26 -11h-41q-15 0 -26 11t-11 26v298h-119l-3 -48q-14 -159 -52.5 -222t-113.5 -72h-4q-13 0 -23.5 8.5t-11.5 21.5l-4 38q-1 5 -1 13q0 13 5.5 19.5t21.5 15.5q62 31 72 201l5 103q1 16 12 26.5t27 10.5z" />
    <glyph glyph-name="afii10078" unicode="&#x43c;" horiz-adv-x="631"
d="M276 158l-97 117v-238q0 -15 -11 -26t-26 -11h-41q-15 0 -26 11t-11 26v376q0 15 11 26t26 11h40q25 0 46 -24l134 -164l126 164q19 24 46 24h37q15 0 26 -11t11 -26v-376q0 -15 -11 -26t-26 -11h-41q-15 0 -26 11t-11 26v238l-94 -117q-17 -20 -41 -20q-26 0 -41 20z
" />
    <glyph glyph-name="afii10079" unicode="&#x43d;" horiz-adv-x="555"
d="M413 450h41q15 0 26 -11t11 -26v-376q0 -15 -11 -26t-26 -11h-41q-15 0 -26 11t-11 26v135h-197v-135q0 -15 -11 -26t-26 -11h-41q-15 0 -26 11t-11 26v376q0 15 11 26t26 11h41q15 0 26 -11t11 -26v-133h197v133q0 15 11 26t26 11z" />
    <glyph glyph-name="afii10080" unicode="&#x43e;" horiz-adv-x="562"
d="M281 -11q-110 0 -177.5 66.5t-67.5 169.5t67.5 169.5t177.5 66.5t177.5 -66.5t67.5 -169.5t-67.5 -169.5t-177.5 -66.5zM281 353q-52 0 -87 -35.5t-35 -92.5q0 -56 34.5 -92.5t87.5 -36.5q54 0 88.5 35.5t34.5 93.5q0 56 -35 92t-88 36z" />
    <glyph glyph-name="afii10081" unicode="&#x43f;" horiz-adv-x="550"
d="M101 450h348q15 0 26 -11t11 -26v-376q0 -15 -11 -26t-26 -11h-41q-15 0 -26 11t-11 26v305h-192v-305q0 -15 -11 -26t-26 -11h-41q-15 0 -26 11t-11 26v376q0 15 11 26t26 11z" />
    <glyph glyph-name="afii10082" unicode="&#x440;" horiz-adv-x="558"
d="M522 232q0 -105 -66 -174t-172 -69q-67 0 -105 22v-174q0 -15 -11 -26t-26 -11h-41q-15 0 -26 11t-11 26v576q0 15 11 26t26 11h41q15 0 26 -11.5t11 -28.5q22 22 60 36.5t79 14.5q92 0 148 -64t56 -165zM179 304v-182q40 -26 95 -26q58 0 92 37.5t34 95.5q0 55 -31 89.5
t-87 34.5q-59 0 -103 -49z" />
    <glyph glyph-name="afii10083" unicode="&#x441;" horiz-adv-x="491"
d="M382 331q-9 0 -18 4q-37 18 -80 18q-50 0 -87.5 -35.5t-37.5 -92.5q0 -58 38.5 -93.5t91.5 -35.5q47 0 87 26q13 8 24 8q19 0 31 -15l17 -21q7 -7 7 -20q0 -21 -14 -32q-67 -53 -158 -53q-112 0 -179.5 64.5t-67.5 171.5q0 100 66 168t167 68q86 0 148 -34q18 -10 18 -33
q0 -9 -4 -16l-15 -26q-13 -21 -34 -21z" />
    <glyph glyph-name="afii10084" unicode="&#x442;" horiz-adv-x="444"
d="M243 0h-41q-15 0 -26 11t-11 26v298h-111q-15 0 -26 11t-11 26v41q0 15 11 26t26 11h336q15 0 26 -11t11 -26v-41q0 -15 -11 -26t-26 -11h-110v-298q0 -15 -11 -26t-26 -11z" />
    <glyph glyph-name="afii10085" unicode="&#x443;" horiz-adv-x="495"
d="M243 204q6 -15 22 -65q8 44 16 66l69 210q12 35 49 35h29q18 0 31 -13t13 -31q0 -8 -3 -17l-153 -389q-47 -120 -84 -160t-90 -40q-38 0 -76 19q-18 9 -18 29q0 7 3 13l13 27q10 22 29 22q9 0 23 -3q4 -1 13 -1q41 0 69 70l10 24l-181 391q-4 10 -4 17q0 17 12 29.5
t30 12.5h43q30 0 42 -28z" />
    <glyph glyph-name="afii10086" unicode="&#x444;" horiz-adv-x="687"
d="M402 461q116 0 182.5 -67t66.5 -169q0 -105 -64 -170.5t-185 -65.5v-152q0 -15 -11.5 -26t-26.5 -11h-41q-15 0 -26.5 11t-11.5 26v152q-117 0 -183 66t-66 170q0 97 67 166.5t182 69.5v202q0 15 11.5 26t26.5 11h41q15 0 26.5 -11t11.5 -26v-202zM403 96q62 0 93.5 35
t31.5 94q0 54 -32.5 91t-92.5 37v-257zM285 96v257q-63 0 -94.5 -36t-31.5 -92q0 -59 32 -94t94 -35z" />
    <glyph glyph-name="afii10087" unicode="&#x445;" horiz-adv-x="504"
d="M91 450h38q30 0 46 -26l79 -123l81 124q17 25 47 25h30q17 0 27.5 -11t10.5 -27q0 -12 -7 -22l-108 -155l119 -174q7 -10 7 -22q0 -16 -11 -27.5t-28 -11.5h-37q-31 0 -47 26l-88 136l-92 -137q-17 -25 -47 -25h-30q-17 0 -27.5 11t-10.5 27q0 12 7 22l118 169l-109 160
q-7 10 -7 22q0 16 11 27.5t28 11.5z" />
    <glyph glyph-name="afii10088" unicode="&#x446;" horiz-adv-x="566"
d="M517 -105h-34q-15 0 -26 11t-11 26v68h-345q-15 0 -26 11t-11 26v376q0 15 11 26t26 11h41q15 0 26 -11t11 -26v-306h185v306q0 15 11 26t26 11h41q15 0 26 -11t11 -26v-306h38q15 0 26 -11t11 -26v-138q0 -15 -11 -26t-26 -11z" />
    <glyph glyph-name="afii10089" unicode="&#x447;" horiz-adv-x="491"
d="M160 320q0 -83 73 -83q48 0 79 18v158q0 15 11 26t26 11h41q15 0 26 -11t11 -26v-376q0 -15 -11 -26t-26 -11h-41q-15 0 -26 11t-11 26v118q-49 -26 -112 -26q-85 0 -124 44.5t-39 132.5v107q0 15 11 26t26 11h49q15 0 26 -11t11 -26v-93z" />
    <glyph glyph-name="afii10090" unicode="&#x448;" horiz-adv-x="728"
d="M586 450h41q15 0 26 -11t11 -26v-376q0 -15 -11 -26t-26 -11h-526q-15 0 -26 11t-11 26v376q0 15 11 26t26 11h41q15 0 26 -11t11 -26v-306h127v306q0 15 11 26t26 11h41q15 0 26 -11t11 -26v-306h128v306q0 15 11 26t26 11z" />
    <glyph glyph-name="afii10091" unicode="&#x449;" horiz-adv-x="751"
d="M702 -105h-34q-15 0 -26 11t-11 26v68h-530q-15 0 -26 11t-11 26v376q0 15 11 26t26 11h41q15 0 26 -11t11 -26v-306h127v306q0 15 11 26t26 11h41q15 0 26 -11t11 -26v-306h128v306q0 15 11 26t26 11h41q15 0 26 -11t11 -26v-306h38q15 0 26 -11t11 -26v-138
q0 -15 -11 -26t-26 -11z" />
    <glyph glyph-name="afii10092" unicode="&#x44a;" horiz-adv-x="536"
d="M301 0h-132q-15 0 -26 11t-11 26v305h-80q-15 0 -26 11t-11 26v34q0 15 11 26t26 11h158q15 0 26 -11t11 -26v-86h63q106 0 152 -44t46 -112q0 -73 -50 -122t-157 -49zM247 235v-135h52q86 0 86 67q0 68 -85 68h-53z" />
    <glyph glyph-name="afii10093" unicode="&#x44b;" horiz-adv-x="676"
d="M179 327h56q106 0 152 -44t46 -112q0 -73 -50 -122t-157 -49h-125q-15 0 -26 11t-11 26v376q0 15 11 26t26 11h41q15 0 26 -11t11 -26v-86zM534 450h41q15 0 26 -11t11 -26v-376q0 -15 -11 -26t-26 -11h-41q-15 0 -26 11t-11 26v376q0 15 11 26t26 11zM179 235v-135h45
q87 0 87 67q0 68 -86 68h-46z" />
    <glyph glyph-name="afii10094" unicode="&#x44c;" horiz-adv-x="467"
d="M179 327h62q106 0 152 -44t46 -112q0 -73 -50 -122t-157 -49h-131q-15 0 -26 11t-11 26v376q0 15 11 26t26 11h41q15 0 26 -11t11 -26v-86zM179 235v-135h51q87 0 87 67q0 68 -86 68h-52z" />
    <glyph glyph-name="afii10095" unicode="&#x44d;" horiz-adv-x="489"
d="M43 87l13 18q12 16 28 16q11 0 25 -7q48 -25 97 -25q52 0 85.5 25.5t42.5 74.5h-164q-15 0 -26 11.5t-11 27.5t11 27t26 11h163q-11 47 -46 71t-83 24t-100 -26q-10 -5 -19 -5q-22 0 -33 20l-9 14q-5 10 -5 19q0 21 17 32q77 46 153 46q111 0 178 -64t67 -172
q0 -102 -64.5 -169t-175.5 -67q-93 0 -162 48q-15 10 -15 28q0 12 7 22z" />
    <glyph glyph-name="afii10096" unicode="&#x44e;" horiz-adv-x="772"
d="M264 172h-78v-135q0 -15 -11 -26t-26 -11h-48q-15 0 -26 11t-11 26v376q0 15 11 26t26 11h48q15 0 26 -11t11 -26v-126h80q18 79 78.5 126.5t149.5 47.5q108 0 175 -66.5t67 -169.5q0 -102 -67.5 -169t-174.5 -67q-92 0 -153 50t-77 133zM497 346q-48 0 -78 -33t-30 -88
q0 -56 30 -88.5t78 -32.5q49 0 79 32.5t30 88.5t-29.5 88.5t-79.5 32.5z" />
    <glyph glyph-name="afii10097" unicode="&#x44f;" horiz-adv-x="485"
d="M119 0h-37q-14 0 -23 10t-9 23q0 10 6 19l81 108q-34 12 -60.5 45.5t-26.5 84.5q0 71 54.5 115.5t169.5 44.5h110q15 0 26 -11t11 -26v-376q0 -15 -11 -26t-26 -11h-41q-15 0 -26 11t-11 26v98h-64l-76 -110q-17 -25 -47 -25zM246 220h60v130h-51q-39 0 -60.5 -20
t-21.5 -48q0 -27 22.5 -44.5t50.5 -17.5z" />
    <glyph glyph-name="afii10071" unicode="&#x451;" horiz-adv-x="523"
d="M151 267h221v2q0 42 -27.5 69t-75.5 27q-98 0 -118 -98zM290 85q48 0 88 19q14 7 23 7q17 0 29 -17l9 -13q6 -9 6 -20q0 -20 -16 -30q-67 -42 -151 -42q-109 0 -175.5 65t-66.5 171q0 101 65 168.5t173 67.5q89 0 151 -58.5t62 -150.5q0 -18 -1 -26q-1 -13 -13.5 -24.5
t-25.5 -11.5h-292q7 -50 44 -77.5t91 -27.5zM174 532q-27 0 -46 18t-19 49q0 29 19 46.5t46 17.5q24 0 42 -17.5t18 -46.5q0 -31 -18 -49t-42 -18zM372 532q-27 0 -45.5 18t-18.5 49q0 29 18.5 46.5t45.5 17.5q24 0 42 -17.5t18 -46.5q0 -31 -17.5 -49t-42.5 -18z" />
    <glyph glyph-name="afii10099" unicode="&#x452;" horiz-adv-x="590"
d="M203 0h-41q-15 0 -26 11t-11 26v395h-81q-15 0 -26 11t-11 26v19q0 15 11 26t26 11h81v138q0 15 11 26t26 11h41q15 0 26 -11t11 -26v-138h121q15 0 26 -11t11 -26v-19q0 -15 -11 -26t-26 -11h-121v-118q51 49 129 49q87 0 136 -47t49 -146q0 -120 -44 -210.5
t-139 -178.5q-10 -10 -26 -10t-26 11l-12 13q-10 10 -10 24t12 28q75 77 102 141t27 154q0 113 -98 113q-59 0 -100 -41v-177q0 -15 -11 -26t-26 -11z" />
    <glyph glyph-name="afii10100" unicode="&#x453;" horiz-adv-x="374"
d="M329 342h-150v-305q0 -15 -11 -26t-26 -11h-41q-15 0 -26 11t-11 26v376q0 15 11 26t26 11h228q15 0 26 -11t11 -26v-34q0 -15 -11 -26t-26 -11zM188 600l61 95q11 17 32 17q13 0 23 -7l24 -18q15 -11 15 -31q0 -14 -9 -25l-72 -83q-14 -15 -34 -15q-14 0 -27 8
q-19 13 -19 37q0 12 6 22z" />
    <glyph glyph-name="afii10101" unicode="&#x454;" horiz-adv-x="488"
d="M385 335q-52 26 -100 26t-83 -24t-46 -71h163q15 0 26 -11t11 -27t-11 -27.5t-26 -11.5h-164q9 -49 42.5 -74.5t85.5 -25.5q49 0 97 25q12 6 23 6q18 0 31 -17l12 -16q6 -8 6 -20q0 -21 -14 -30q-69 -48 -162 -48q-111 0 -175.5 67t-64.5 169q0 108 67 172t178 64
q76 0 153 -46q17 -11 17 -32q0 -9 -5 -19l-9 -14q-11 -20 -33 -20q-9 0 -19 5z" />
    <glyph glyph-name="afii10102" unicode="&#x455;" horiz-adv-x="437"
d="M45 97l15 19q10 13 24 13t30 -11q50 -33 111 -33q26 0 42.5 11t16.5 31t-25 32.5t-61 22t-71.5 23t-60.5 43.5t-25 76q0 64 46.5 100.5t118.5 36.5q84 0 150 -42q15 -10 15 -30q0 -11 -6 -20l-11 -16q-12 -16 -28 -16q-9 0 -25 7q-41 21 -89 21q-25 0 -40.5 -11.5
t-15.5 -27.5q0 -17 18 -29.5t45 -18.5t58.5 -17t58.5 -24t45 -40t18 -64q0 -66 -49.5 -105t-132.5 -39q-97 0 -168 62q-11 10 -11 25q0 13 7 21z" />
    <glyph glyph-name="afii10103" unicode="&#x456;" horiz-adv-x="277"
d="M118 450h41q15 0 26 -11t11 -26v-376q0 -15 -11 -26t-26 -11h-41q-15 0 -26 11t-11 26v376q0 15 11 26t26 11zM141 679q26 0 46 -18.5t20 -48.5q0 -33 -20 -52.5t-46 -19.5q-31 0 -51.5 19.5t-20.5 52.5q0 30 21 48.5t51 18.5z" />
    <glyph glyph-name="afii10104" unicode="&#x457;" horiz-adv-x="315"
d="M84 538q-26 0 -42.5 15.5t-16.5 43.5q0 26 17 41t42 15q21 0 37.5 -15.5t16.5 -40.5q0 -27 -16 -43t-38 -16zM236 538q-25 0 -42 16t-17 43q0 25 17 40.5t42 15.5q22 0 38 -15.5t16 -40.5q0 -27 -16 -43t-38 -16zM150 450h41q15 0 26 -11t11 -26v-376q0 -15 -11 -26
t-26 -11h-41q-15 0 -26 11t-11 26v376q0 15 11 26t26 11z" />
    <glyph glyph-name="afii10105" unicode="&#x458;" horiz-adv-x="292"
d="M26 -100q5 -1 15 -1q54 0 54 78v436q0 15 11 26t26 11h41q15 0 26 -11t11 -26v-446q0 -175 -141 -175q-49 0 -93 19q-18 7 -18 26q0 9 2 13l11 30q9 23 29 23q4 0 13.5 -1.5t12.5 -1.5zM156 679q26 0 46 -18.5t20 -48.5q0 -33 -20 -52.5t-46 -19.5q-31 0 -51.5 19.5
t-20.5 52.5q0 30 21 48.5t51 18.5z" />
    <glyph glyph-name="afii10106" unicode="&#x459;" horiz-adv-x="733"
d="M470 327h42q106 0 152 -44t46 -112q0 -73 -50 -122t-157 -49h-111q-15 0 -26 11t-11 26v298h-119l-3 -48q-14 -159 -52.5 -222t-113.5 -72h-3q-13 0 -24 9.5t-13 22.5l-3 36q-1 5 -1 13q0 13 5.5 19.5t21.5 15.5q62 31 72 201l5 103q1 16 12 26.5t27 10.5h267
q15 0 26 -11t11 -26v-86zM470 235v-135h31q86 0 86 67q0 68 -85 68h-32z" />
    <glyph glyph-name="afii10107" unicode="&#x45a;" horiz-adv-x="759"
d="M491 322h42q106 0 152 -42.5t46 -110.5q0 -73 -50 -121t-157 -48h-111q-15 0 -26 11t-11 26v140h-197v-140q0 -15 -11 -26t-26 -11h-41q-15 0 -26 11t-11 26v376q0 15 11 26t26 11h41q15 0 26 -11t11 -26v-128h197v128q0 15 11 26t26 11h41q15 0 26 -11t11 -26v-91z
M491 230v-130h31q87 0 87 65t-86 65h-32z" />
    <glyph glyph-name="afii10108" unicode="&#x45b;" horiz-adv-x="590"
d="M203 0h-41q-15 0 -26 11t-11 26v395h-81q-15 0 -26 11t-11 26v19q0 15 11 26t26 11h81v138q0 15 11 26t26 11h41q15 0 26 -11t11 -26v-138h121q15 0 26 -11t11 -26v-19q0 -15 -11 -26t-26 -11h-121v-118q51 49 129 49q87 0 136 -47.5t49 -149.5v-129q0 -15 -11 -26
t-26 -11h-41q-15 0 -26 11t-11 26v114q0 50 -26 77t-73 27q-59 0 -100 -41v-177q0 -15 -11 -26t-26 -11z" />
    <glyph glyph-name="afii10109" unicode="&#x45c;" horiz-adv-x="508"
d="M342 24l-136 174q-11 14 -11 30q0 14 10 29l122 168q18 25 48 25h42q15 0 25 -10.5t10 -24.5q0 -11 -8 -22l-127 -157l147 -179q8 -9 8 -22q0 -14 -9.5 -24.5t-24.5 -10.5h-47q-30 0 -49 24zM101 450h41q15 0 26 -11t11 -26v-376q0 -15 -11 -26t-26 -11h-41q-15 0 -26 11
t-11 26v376q0 15 11 26t26 11zM211 600l61 95q11 17 32 17q13 0 23 -7l24 -18q15 -11 15 -31q0 -14 -9 -25l-72 -83q-13 -15 -34 -15q-14 0 -27 8q-19 13 -19 37q0 12 6 22z" />
    <glyph glyph-name="afii10110" unicode="&#x45e;" horiz-adv-x="495"
d="M243 204q6 -15 22 -65q8 44 16 66l69 210q12 35 49 35h29q18 0 31 -13t13 -31q0 -8 -3 -17l-153 -389q-47 -120 -84 -160t-90 -40q-38 0 -76 19q-18 9 -18 29q0 7 3 13l13 27q10 22 29 22q9 0 23 -3q4 -1 13 -1q41 0 69 70l10 24l-181 391q-4 10 -4 17q0 17 12 29.5
t30 12.5h43q30 0 42 -28zM355 710q25 0 39 -15t14 -39q0 -60 -40 -98t-113 -38q-80 0 -118.5 37t-38.5 99q0 25 13 39.5t37 14.5q26 0 40.5 -14.5t14.5 -39.5q0 -23 12.5 -38.5t39.5 -15.5q24 0 36 15.5t12 38.5q0 54 52 54z" />
    <glyph glyph-name="afii10193" unicode="&#x45f;" horiz-adv-x="540"
d="M287 -118h-34q-15 0 -26 11t-11 26v81h-115q-15 0 -26 11t-11 26v376q0 15 11 26t26 11h41q15 0 26 -11t11 -26v-306h182v306q0 15 11 26t26 11h41q15 0 26 -11t11 -26v-376q0 -15 -11 -26t-26 -11h-115v-81q0 -15 -11 -26t-26 -11z" />
    <glyph glyph-name="afii10146" unicode="&#x462;" horiz-adv-x="648"
d="M136 620v43q0 15 11 26t26 11h48q15 0 26 -11t11 -26v-43h111q15 0 26 -11t11 -26v-41q0 -15 -11 -26t-26 -11h-111v-75q40 5 81 5q264 0 264 -211q0 -110 -75 -168t-216 -58q-61 0 -139 2q-16 0 -26.5 11t-10.5 26v468h-84q-15 0 -26 11t-11 26v41q0 15 11 26t26 11h84z
M258 315v-199l69 -3q73 0 109.5 23.5t36.5 84.5q0 56 -36.5 77.5t-107.5 21.5q-24 0 -71 -5z" />
    <glyph glyph-name="afii10194" unicode="&#x463;" horiz-adv-x="517"
d="M282 0h-120q-15 0 -26 11t-11 26v320h-81q-15 0 -26 11t-11 26v19q0 15 11 26t26 11h81v213q0 15 11 26t26 11h41q15 0 26 -11t11 -26v-213h99q15 0 26 -11t11 -26v-19q0 -15 -11 -26t-26 -11h-99v-60h51q198 0 198 -141q0 -70 -49.5 -113t-157.5 -43zM240 212v-120h40
q46 0 66.5 14.5t20.5 45.5t-20 45.5t-66 14.5h-41z" />
    <glyph glyph-name="afii10147" unicode="&#x472;" horiz-adv-x="819"
d="M45 350q0 154 102.5 257.5t261.5 103.5q158 0 261.5 -100t103.5 -261q0 -157 -104 -259t-261 -102q-158 0 -261 100t-103 261zM182 285q20 -81 82.5 -131t144.5 -50q94 0 155 54.5t76 142.5q-63 -36 -116 -36q-47 0 -113.5 37t-106.5 37q-59 0 -122 -54zM637 414
q-19 82 -82 132t-146 50q-87 0 -149.5 -52.5t-79.5 -138.5q64 41 124 41q48 0 116.5 -36.5t112.5 -36.5q53 0 104 41z" />
    <glyph glyph-name="afii10195" unicode="&#x473;" horiz-adv-x="577"
d="M289 -11q-116 0 -184.5 66.5t-68.5 169.5t68.5 169.5t184.5 66.5q115 0 183.5 -66.5t68.5 -169.5t-68.5 -169.5t-183.5 -66.5zM217 211q-32 0 -61 -29q11 -49 48 -75t85 -26q49 0 86 27.5t47 80.5q-32 -28 -71 -28q-32 0 -72.5 25t-61.5 25zM366 239q33 0 56 24
q-11 51 -48.5 78t-84.5 27q-49 0 -87 -27.5t-48 -80.5q35 28 68 28q34 0 80 -24.5t64 -24.5z" />
    <glyph glyph-name="afii10148" unicode="&#x474;" horiz-adv-x="661"
d="M674 669l-8 -45q-3 -15 -11 -20t-30 -8q-22 -4 -32.5 -20.5t-32.5 -76.5l-172 -466q-13 -35 -50 -35h-26q-30 0 -42 28l-254 621q-3 7 -3 15q0 15 11.5 26.5t27.5 11.5h43q31 0 41 -28l196 -490l130 378q27 78 59.5 113.5t88.5 35.5q21 0 39 -5q26 -6 26 -29
q0 -1 -0.5 -3t-0.5 -3z" />
    <glyph glyph-name="afii10196" unicode="&#x475;" horiz-adv-x="493"
d="M440 458q22 0 50 -7q11 -3 18.5 -13.5t7.5 -21.5q0 -3 -2 -9l-12 -37q-9 -26 -39 -26q-21 0 -33.5 -16.5t-30.5 -59.5l-99 -242q-10 -28 -41 -28h-26q-30 0 -43 28l-169 365q-4 10 -4 17q0 17 12 29.5t30 12.5h42q30 0 42 -28l73 -165q21 -43 34 -101q13 56 31 103l30 79
q23 63 50.5 91.5t78.5 28.5z" />
    <glyph glyph-name="afii10050" unicode="&#x490;" horiz-adv-x="507"
d="M220 585v-548q0 -15 -11 -26t-26 -11h-49q-15 0 -26 11t-11 26v626q0 15 11 26t26 11h243v80q0 15 11 26t26 11h41q15 0 26 -11t11 -26v-158q0 -15 -11 -26t-26 -11h-235z" />
    <glyph glyph-name="afii10098" unicode="&#x491;" horiz-adv-x="374"
d="M329 342h-150v-305q0 -15 -11 -26t-26 -11h-41q-15 0 -26 11t-11 26v376q0 15 11 26t26 11h158v60q0 15 11 26t26 11h33q15 0 26 -11t11 -26v-131q0 -15 -11 -26t-26 -11z" />
    <glyph glyph-name="uni1E9E" unicode="&#x1e9e;" horiz-adv-x="674"
d="M282 70l18 35q9 18 30 18q10 0 20 -5q29 -14 65 -14q32 0 54 22t22 58q0 45 -44.5 84.5t-129.5 90.5q-17 9 -17 29q0 10 7 20l110 151q-11 16 -36 26.5t-54 10.5q-49 0 -78 -30t-29 -91v-439q0 -15 -11 -26t-26 -11h-49q-15 0 -26 11t-11 26v431q0 124 63.5 184t171.5 60
q56 0 111.5 -24.5t98.5 -70.5q10 -10 10 -29q0 -18 -8 -27l-114 -145q82 -44 136.5 -107.5t54.5 -142.5q0 -77 -55.5 -126.5t-123.5 -49.5q-85 0 -146 35q-18 10 -18 31q0 5 4 15z" />
    <glyph glyph-name="uni2010" unicode="&#x2010;" horiz-adv-x="376"
d="M314 290v-33q0 -15 -11 -26t-26 -11h-178q-15 0 -26 11t-11 26v33q0 15 11 26t26 11h178q15 0 26 -11t11 -26z" />
    <glyph glyph-name="uni2011" unicode="&#x2011;" horiz-adv-x="376"
d="M314 290v-33q0 -15 -11 -26t-26 -11h-178q-15 0 -26 11t-11 26v33q0 15 11 26t26 11h178q15 0 26 -11t11 -26z" />
    <glyph glyph-name="figuredash" unicode="&#x2012;" horiz-adv-x="599"
d="M514 367v-26q0 -15 -11 -26t-26 -11h-355q-15 0 -26 11t-11 26v26q0 15 11 26t26 11h355q15 0 26 -11t11 -26z" />
    <glyph glyph-name="endash" unicode="&#x2013;" horiz-adv-x="599"
d="M514 283v-26q0 -15 -11 -26t-26 -11h-355q-15 0 -26 11t-11 26v26q0 15 11 26t26 11h355q15 0 26 -11t11 -26z" />
    <glyph glyph-name="emdash" unicode="&#x2014;" horiz-adv-x="814"
d="M729 283v-26q0 -15 -11 -26t-26 -11h-570q-15 0 -26 11t-11 26v26q0 15 11 26t26 11h570q15 0 26 -11t11 -26z" />
    <glyph glyph-name="afii00208" unicode="&#x2015;" horiz-adv-x="814"
d="M729 283v-26q0 -15 -11 -26t-26 -11h-570q-15 0 -26 11t-11 26v26q0 15 11 26t26 11h570q15 0 26 -11t11 -26z" />
    <glyph glyph-name="quoteleft" unicode="&#x2018;" horiz-adv-x="232"
d="M185 710q0 -13 -9 -28q-21 -30 -21 -70q0 -15 5 -30q4 -16 4 -21q0 -18 -26 -34l-30 -17q-7 -4 -16 -4q-23 0 -31 19q-14 30 -14 62q0 93 70 151q12 9 29 9q16 0 24 -7q15 -11 15 -30z" />
    <glyph glyph-name="quoteright" unicode="&#x2019;" horiz-adv-x="232"
d="M47 540q0 12 9 26q21 32 21 70q0 15 -5 30q-4 16 -4 21q0 20 26 34l30 18q7 4 16 4q23 0 31 -19q14 -30 14 -62q0 -93 -70 -151q-9 -9 -27 -9t-27 9q-14 14 -14 29z" />
    <glyph glyph-name="quotesinglbase" unicode="&#x201a;" horiz-adv-x="232"
d="M47 -125q0 13 9 26q21 31 21 70q0 15 -5 30q-4 16 -4 21q0 20 26 34l30 18q7 4 16 4q23 0 31 -19q14 -30 14 -62q0 -93 -70 -151q-9 -9 -27 -9t-27 9q-14 14 -14 29z" />
    <glyph glyph-name="quotedblleft" unicode="&#x201c;" horiz-adv-x="394"
d="M347 710q0 -13 -9 -28q-21 -30 -21 -70q0 -15 5 -30q4 -16 4 -21q0 -18 -26 -34l-30 -17q-7 -4 -16 -4q-23 0 -31 19q-14 30 -14 62q0 93 70 151q12 9 29 9q16 0 24 -7q15 -11 15 -30zM185 710q0 -13 -9 -28q-21 -30 -21 -70q0 -15 5 -30q4 -16 4 -21q0 -18 -26 -34
l-30 -17q-7 -4 -16 -4q-23 0 -31 19q-14 30 -14 62q0 93 70 151q12 9 29 9q16 0 24 -7q15 -11 15 -30z" />
    <glyph glyph-name="quotedblright" unicode="&#x201d;" horiz-adv-x="394"
d="M209 540q0 12 9 26q21 32 21 70q0 15 -5 30q-4 16 -4 21q0 20 26 34l30 18q7 4 16 4q23 0 31 -19q14 -30 14 -62q0 -93 -70 -151q-9 -9 -27 -9t-27 9q-14 14 -14 29zM47 540q0 12 9 26q21 32 21 70q0 15 -5 30q-4 16 -4 21q0 20 26 34l30 18q7 4 16 4q23 0 31 -19
q14 -30 14 -62q0 -93 -70 -151q-9 -9 -27 -9t-27 9q-14 14 -14 29z" />
    <glyph glyph-name="quotedblbase" unicode="&#x201e;" horiz-adv-x="403"
d="M218 -125q0 13 9 26q21 31 21 70q0 15 -5 30q-4 16 -4 21q0 20 26 34l30 18q7 4 16 4q23 0 31 -19q14 -30 14 -62q0 -93 -70 -151q-9 -9 -27 -9t-27 9q-14 14 -14 29zM47 -125q0 13 9 26q21 31 21 70q0 15 -5 30q-4 16 -4 21q0 20 26 34l30 18q7 4 16 4q23 0 31 -19
q14 -30 14 -62q0 -93 -70 -151q-9 -9 -27 -9t-27 9q-14 14 -14 29z" />
    <glyph glyph-name="dagger" unicode="&#x2020;" horiz-adv-x="491"
d="M192 -63v458h-115q-15 0 -26 11t-11 26v26q0 15 11 26t26 11h115v168q0 15 11 26t26 11h33q15 0 26 -11t11 -26v-168h115q15 0 26 -11t11 -26v-26q0 -15 -11 -26t-26 -11h-115v-458q0 -15 -11 -26t-26 -11h-33q-15 0 -26 11t-11 26z" />
    <glyph glyph-name="daggerdbl" unicode="&#x2021;" horiz-adv-x="491"
d="M192 235v160h-115q-15 0 -26 11t-11 26v26q0 15 11 26t26 11h115v168q0 15 11 26t26 11h33q15 0 26 -11t11 -26v-168h115q15 0 26 -11t11 -26v-26q0 -15 -11 -26t-26 -11h-115v-160h115q15 0 26 -11t11 -26v-26q0 -15 -11 -26t-26 -11h-115v-198q0 -15 -11 -26t-26 -11
h-33q-15 0 -26 11t-11 26v198h-115q-15 0 -26 11t-11 26v26q0 15 11 26t26 11h115z" />
    <glyph glyph-name="bullet" unicode="&#x2022;" horiz-adv-x="285"
d="M142 147q-48 0 -82.5 35t-34.5 82q0 49 34.5 83.5t82.5 34.5t83 -34.5t35 -83.5q0 -47 -35 -82t-83 -35z" />
    <glyph glyph-name="ellipsis" unicode="&#x2026;" horiz-adv-x="863"
d="M735 149q31 0 52 -23t21 -51q0 -32 -21 -56t-52 -24q-36 0 -58 24t-22 56q0 28 22 51t58 23zM435 149q31 0 52 -23t21 -51q0 -32 -21 -56t-52 -24q-36 0 -58 24t-22 56q0 28 22 51t58 23zM135 149q31 0 52 -23t21 -51q0 -32 -21 -56t-52 -24q-36 0 -58 24t-22 56
q0 28 22 51t58 23z" />
    <glyph glyph-name="perthousand" unicode="&#x2030;" horiz-adv-x="1344"
d="M1110 -10q-86 0 -141.5 49.5t-55.5 129.5t55.5 129t141.5 49t141.5 -49t55.5 -129t-55.5 -129.5t-141.5 -49.5zM1110 254q-38 0 -63.5 -23.5t-25.5 -61.5q0 -39 25.5 -62.5t63.5 -23.5q40 0 65 23.5t25 62.5q0 38 -25.5 61.5t-64.5 23.5zM718 633l-460 -615
q-12 -15 -31 -15q-13 0 -21 7l-6 4q-15 10 -15 29q0 13 7 21l461 618q11 14 28 14q13 0 27 -9q17 -14 17 -33q0 -13 -7 -21zM234 352q-86 0 -141.5 49.5t-55.5 129.5t55.5 129t141.5 49t141.5 -49t55.5 -129t-55.5 -129.5t-141.5 -49.5zM234 616q-38 0 -63.5 -23.5
t-25.5 -61.5q0 -39 25.5 -62.5t63.5 -23.5q40 0 65 23.5t25 62.5q0 38 -25.5 61.5t-64.5 23.5zM676 -10q-86 0 -141.5 49.5t-55.5 129.5t55.5 129t141.5 49t141.5 -49t55.5 -129t-55.5 -129.5t-141.5 -49.5zM676 254q-38 0 -63.5 -23.5t-25.5 -61.5q0 -39 25.5 -62.5
t63.5 -23.5q40 0 65 23.5t25 62.5q0 38 -25.5 61.5t-64.5 23.5z" />
    <glyph glyph-name="guilsinglleft" unicode="&#x2039;" horiz-adv-x="329"
d="M162 250l114 -135q9 -11 9 -24q0 -17 -13 -28l-22 -17q-10 -9 -24 -9q-17 0 -28 13l-145 172q-10 11 -10 28t10 28l149 172q10 12 27 12q13 0 24 -9l21 -17q12 -10 12 -28q0 -14 -9 -25z" />
    <glyph glyph-name="guilsinglright" unicode="&#x203a;" horiz-adv-x="329"
d="M55 436l21 17q8 9 23 9q18 0 28 -12l149 -172q11 -13 11 -29t-11 -29l-145 -170q-11 -13 -28 -13q-13 0 -24 9l-22 17q-13 11 -13 28q0 13 9 24l114 135l-115 133q-9 11 -9 25q0 18 12 28z" />
    <glyph glyph-name="fraction" unicode="&#x2044;" horiz-adv-x="210"
d="M368 633l-460 -615q-12 -15 -31 -15q-13 0 -21 7l-6 4q-15 10 -15 29q0 13 7 21l461 618q11 14 28 14q13 0 27 -9q17 -14 17 -33q0 -13 -7 -21z" />
    <glyph glyph-name="uni2070" unicode="&#x2070;" horiz-adv-x="398"
d="M199 704q78 0 121 -51t43 -128t-42.5 -128t-120.5 -51q-79 0 -122 49t-43 130q0 78 43 128.5t121 50.5zM200 431q29 0 42 22t13 72t-13.5 72t-42.5 22q-57 0 -57 -94t58 -94z" />
    <glyph glyph-name="uni2074" unicode="&#x2074;" horiz-adv-x="373"
d="M297 420v-38q0 -14 -9.5 -23t-22.5 -9h-28q-13 0 -22.5 9t-9.5 23v38h-171q-14 0 -23 9.5t-9 24.5q0 16 31 59l115 161q20 26 44 26q16 0 25.5 -9t9.5 -23q0 -16 -12 -33l-99 -137h89v45q0 13 9.5 22.5t22.5 9.5h28q13 0 22.5 -9.5t9.5 -22.5v-45h24q13 0 22.5 -9
t9.5 -23v-14q0 -14 -9.5 -23t-22.5 -9h-24z" />
    <glyph glyph-name="uni2075" unicode="&#x2075;" horiz-adv-x="343"
d="M141 421q62 0 62 43q0 42 -76 42q-21 0 -41 -3h-4q-25 0 -25 26v2l14 137q2 14 12 23t23 9h162q14 0 23 -9t9 -23v-14q0 -14 -9 -23t-23 -9h-124l-8 -54q21 8 48 8q57 0 91.5 -29t34.5 -78q0 -59 -42 -92t-110 -33q-80 0 -118 29q-17 12 -17 29q0 10 6 16l10 13
q10 13 25 13q11 0 24 -8q25 -15 53 -15z" />
    <glyph glyph-name="uni2076" unicode="&#x2076;" horiz-adv-x="396"
d="M235 569q59 0 94.5 -29t35.5 -78q0 -52 -45.5 -85t-113.5 -33q-84 0 -129.5 38t-45.5 102q0 83 62 144t161 74q2 0 4.5 0.5t3.5 0.5q30 0 36 -27q0 -1 0.5 -3t0.5 -3q0 -13 -9.5 -23t-24.5 -13q-90 -20 -126 -97q38 32 96 32zM206 421q24 0 38 11.5t14 27.5q0 17 -14 28
t-40 11q-41 0 -65 -30q1 -19 18.5 -33.5t48.5 -14.5z" />
    <glyph glyph-name="uni2077" unicode="&#x2077;" horiz-adv-x="332"
d="M82 400l118 215h-154q-14 0 -23 9.5t-9 22.5v21q0 14 9 23t23 9h234q17 0 27.5 -10t10.5 -27q0 -20 -17 -52l-123 -233q-15 -28 -47 -28h-19q-15 0 -25 10t-10 24q0 8 5 16z" />
    <glyph glyph-name="uni2078" unicode="&#x2078;" horiz-adv-x="411"
d="M258 597q0 14 -14.5 23t-38.5 9q-23 0 -37 -9t-14 -24q0 -14 14 -22.5t39 -8.5t38 9t13 23zM142 458q0 -37 64 -37q29 0 46 10t17 27q0 37 -62 37q-29 0 -47 -10t-18 -27zM358 614q0 -60 -62 -83q33 -8 53 -29.5t20 -53.5q0 -50 -44 -77t-119 -27q-74 0 -119 26t-45 71
q0 65 66 89q-54 24 -54 84q0 41 42.5 66.5t109.5 25.5t109.5 -25.5t42.5 -66.5z" />
    <glyph glyph-name="uni2079" unicode="&#x2079;" horiz-adv-x="394"
d="M160 473q-57 0 -93.5 32t-36.5 78q0 55 45 89t114 34q85 0 130 -40.5t45 -112.5q0 -88 -64.5 -143.5t-172.5 -65.5h-4q-12 0 -21.5 8t-12.5 22q-1 2 -1 7q0 14 10.5 24t24.5 12q58 10 94 36t39 60q-33 -40 -96 -40zM189 629q-24 0 -38 -11.5t-14 -27.5q0 -18 14.5 -32.5
t39.5 -14.5q41 0 65 30q-2 26 -19 41t-48 15z" />
    <glyph glyph-name="uni207A" unicode="&#x207a;" horiz-adv-x="359"
d="M140 432v59h-61q-15 0 -26 11.5t-11 27.5t11 27.5t26 11.5h61v57q0 15 11.5 26t27.5 11t27.5 -11t11.5 -26v-57h62q15 0 26 -11.5t11 -27.5t-11 -27.5t-26 -11.5h-62v-59q0 -15 -11.5 -26t-27.5 -11t-27.5 11t-11.5 26z" />
    <glyph glyph-name="uni207B" unicode="&#x207b;" horiz-adv-x="359"
d="M280 569q15 0 26 -11.5t11 -27.5t-11 -27.5t-26 -11.5h-201q-15 0 -26 11.5t-11 27.5t11 27.5t26 11.5h201z" />
    <glyph glyph-name="uni207C" unicode="&#x207c;" horiz-adv-x="359"
d="M280 494q15 0 26 -11.5t11 -27.5t-11 -27.5t-26 -11.5h-201q-15 0 -26 11.5t-11 27.5t11 27.5t26 11.5h201zM280 644q15 0 26 -11.5t11 -27.5t-11 -27.5t-26 -11.5h-201q-15 0 -26 11.5t-11 27.5t11 27.5t26 11.5h201z" />
    <glyph glyph-name="uni207D" unicode="&#x207d;" horiz-adv-x="231"
d="M206 694q0 -22 -17 -36q-59 -53 -59 -135q0 -76 69 -140q13 -13 13 -31q0 -15 -8 -24q-13 -16 -33 -16q-14 0 -25 8q-55 39 -85.5 95t-30.5 108q0 115 111 198q12 9 28 9q19 0 30 -14q7 -10 7 -22z" />
    <glyph glyph-name="uni207E" unicode="&#x207e;" horiz-adv-x="224"
d="M28 357q0 18 16 33q57 52 57 132q0 77 -62 132q-16 14 -16 31q0 15 12 28q13 14 32 14q17 0 34 -11q100 -72 100 -194q0 -113 -103 -192q-13 -11 -30 -11q-18 0 -30 13q-10 10 -10 25z" />
    <glyph glyph-name="uni2080" unicode="&#x2080;" horiz-adv-x="398"
d="M199 354q78 0 121 -51t43 -128t-42.5 -128t-120.5 -51q-79 0 -122 49t-43 130q0 78 43 128.5t121 50.5zM200 81q29 0 42 22t13 72t-13.5 72t-42.5 22q-57 0 -57 -94t58 -94z" />
    <glyph glyph-name="uni2081" unicode="&#x2081;" horiz-adv-x="265"
d="M97 236l-17 -10q-9 -6 -20 -6q-21 0 -34 19q-6 9 -6 20q0 20 16 30l58 40q19 14 31 17t36 3q36 0 36 -37v-275q0 -15 -11 -26t-26 -11h-26q-15 0 -26 11t-11 26v199z" />
    <glyph glyph-name="uni2082" unicode="&#x2082;" horiz-adv-x="354"
d="M331 53v-21q0 -14 -9.5 -23t-22.5 -9h-244q-14 0 -23 10t-9 26q0 30 32 52l34.5 23.5t33 23l27.5 20t24.5 19.5t17.5 18t12.5 19.5t3.5 18.5q0 18 -11.5 28.5t-31.5 10.5q-24 0 -39 -18q-25 -29 -39 -29q-6 0 -18 5l-16 8q-21 11 -21 28q0 7 5 17q38 74 138 74
q67 0 103.5 -30.5t36.5 -80.5q0 -92 -159 -158h143q13 0 22.5 -9.5t9.5 -22.5z" />
    <glyph glyph-name="uni2083" unicode="&#x2083;" horiz-adv-x="356"
d="M309 267q0 -32 -20.5 -53t-56.5 -29q43 -4 66 -27t23 -57q0 -48 -44 -77.5t-107 -29.5q-85 0 -136 50q-10 10 -10 23q0 12 9 21l12 12q10 10 22 10t26 -11q29 -24 60 -24q61 0 61 35q0 32 -59 32q-13 0 -21.5 8.5t-8.5 20.5v14q0 11 8 19t20 8q22 0 35 9.5t13 24.5
q0 29 -45 29q-33 0 -62 -21q-12 -7 -22 -7q-17 0 -28 14q-9 11 -9 24q0 17 14 28q57 43 127 43q59 0 96 -24t37 -65z" />
    <glyph glyph-name="uni2084" unicode="&#x2084;" horiz-adv-x="373"
d="M297 70v-38q0 -14 -9.5 -23t-22.5 -9h-28q-13 0 -22.5 9t-9.5 23v38h-171q-14 0 -23 9.5t-9 24.5q0 16 31 59l115 161q20 26 44 26q16 0 25.5 -9t9.5 -23q0 -16 -12 -33l-99 -137h89v45q0 13 9.5 22.5t22.5 9.5h28q13 0 22.5 -9.5t9.5 -22.5v-45h24q13 0 22.5 -9t9.5 -23
v-14q0 -14 -9.5 -23t-22.5 -9h-24z" />
    <glyph glyph-name="uni2085" unicode="&#x2085;" horiz-adv-x="343"
d="M141 71q62 0 62 43q0 42 -76 42q-21 0 -41 -3h-4q-25 0 -25 26v2l14 137q2 14 12 23t23 9h162q14 0 23 -9t9 -23v-14q0 -14 -9 -23t-23 -9h-124l-8 -54q21 8 48 8q57 0 91.5 -29t34.5 -78q0 -59 -42 -92t-110 -33q-80 0 -118 29q-17 12 -17 29q0 10 6 16l10 13
q10 13 25 13q11 0 24 -8q25 -15 53 -15z" />
    <glyph glyph-name="uni2086" unicode="&#x2086;" horiz-adv-x="396"
d="M235 219q59 0 94.5 -29t35.5 -78q0 -52 -45.5 -85t-113.5 -33q-84 0 -129.5 38t-45.5 102q0 83 62 144t161 74q2 0 4.5 0.5t3.5 0.5q30 0 36 -27q0 -1 0.5 -3t0.5 -3q0 -13 -9.5 -23t-24.5 -13q-90 -20 -126 -97q38 32 96 32zM206 71q24 0 38 11.5t14 27.5q0 17 -14 28
t-40 11q-41 0 -65 -30q1 -19 18.5 -33.5t48.5 -14.5z" />
    <glyph glyph-name="uni2087" unicode="&#x2087;" horiz-adv-x="332"
d="M82 50l118 215h-154q-14 0 -23 9.5t-9 22.5v21q0 14 9 23t23 9h234q17 0 27.5 -10t10.5 -27q0 -20 -17 -52l-123 -233q-15 -28 -47 -28h-19q-15 0 -25 10t-10 24q0 8 5 16z" />
    <glyph glyph-name="uni2088" unicode="&#x2088;" horiz-adv-x="411"
d="M258 247q0 14 -14.5 23t-38.5 9q-23 0 -37 -9t-14 -24q0 -14 14 -22.5t39 -8.5t38 9t13 23zM142 108q0 -37 64 -37q29 0 46 10t17 27q0 37 -62 37q-29 0 -47 -10t-18 -27zM358 264q0 -60 -62 -83q33 -8 53 -29.5t20 -53.5q0 -50 -44 -77t-119 -27q-74 0 -119 26t-45 71
q0 65 66 89q-54 24 -54 84q0 41 42.5 66.5t109.5 25.5t109.5 -25.5t42.5 -66.5z" />
    <glyph glyph-name="uni2089" unicode="&#x2089;" horiz-adv-x="394"
d="M160 123q-57 0 -93.5 32t-36.5 78q0 55 45 89t114 34q85 0 130 -40.5t45 -112.5q0 -88 -64.5 -143.5t-172.5 -65.5h-4q-12 0 -21.5 8t-12.5 22q-1 2 -1 7q0 14 10.5 24t24.5 12q58 10 94 36t39 60q-33 -40 -96 -40zM189 279q-24 0 -38 -11.5t-14 -27.5q0 -18 14.5 -32.5
t39.5 -14.5q41 0 65 30q-2 26 -19 41t-48 15z" />
    <glyph glyph-name="uni208A" unicode="&#x208a;" horiz-adv-x="359"
d="M140 82v59h-61q-15 0 -26 11.5t-11 27.5t11 27.5t26 11.5h61v57q0 15 11.5 26t27.5 11t27.5 -11t11.5 -26v-57h62q15 0 26 -11.5t11 -27.5t-11 -27.5t-26 -11.5h-62v-59q0 -15 -11.5 -26t-27.5 -11t-27.5 11t-11.5 26z" />
    <glyph glyph-name="uni208B" unicode="&#x208b;" horiz-adv-x="359"
d="M280 219q15 0 26 -11.5t11 -27.5t-11 -27.5t-26 -11.5h-201q-15 0 -26 11.5t-11 27.5t11 27.5t26 11.5h201z" />
    <glyph glyph-name="uni208C" unicode="&#x208c;" horiz-adv-x="359"
d="M280 144q15 0 26 -11.5t11 -27.5t-11 -27.5t-26 -11.5h-201q-15 0 -26 11.5t-11 27.5t11 27.5t26 11.5h201zM280 294q15 0 26 -11.5t11 -27.5t-11 -27.5t-26 -11.5h-201q-15 0 -26 11.5t-11 27.5t11 27.5t26 11.5h201z" />
    <glyph glyph-name="uni208D" unicode="&#x208d;" horiz-adv-x="231"
d="M206 344q0 -22 -17 -36q-59 -53 -59 -135q0 -76 69 -140q13 -13 13 -31q0 -15 -8 -24q-13 -16 -33 -16q-14 0 -25 8q-55 39 -85.5 95t-30.5 108q0 115 111 198q12 9 28 9q19 0 30 -14q7 -10 7 -22z" />
    <glyph glyph-name="uni208E" unicode="&#x208e;" horiz-adv-x="224"
d="M28 7q0 18 16 33q57 52 57 132q0 77 -62 132q-16 14 -16 31q0 15 12 28q13 14 32 14q17 0 34 -11q100 -72 100 -194q0 -113 -103 -192q-13 -11 -30 -11q-18 0 -30 13q-10 10 -10 25z" />
    <glyph glyph-name="Euro" unicode="&#x20ac;" horiz-adv-x="586"
d="M68 315h32q-1 11 -1 35q0 15 2 47h-33q-15 0 -26 11t-11 26v19q0 15 11 26t26 11h54q35 101 119 161t204 60q50 0 98 -15q24 -8 24 -31q0 -10 -2 -15l-13 -40q-7 -23 -33 -23q-10 0 -19 3q-28 6 -56 6q-58 0 -106 -27.5t-77 -78.5h180q15 0 26 -11t11 -26v-19
q0 -15 -11 -26t-26 -11h-209q-3 -23 -3 -47t2 -35h210q15 0 26 -11t11 -26v-19q0 -15 -11 -26t-26 -11h-182q29 -56 82 -87t119 -31q19 0 45 4q4 1 12 1q32 0 39 -27l9 -36q1 -4 1 -11q0 -26 -25 -34q-35 -12 -91 -12q-121 0 -209 62t-123 171h-50q-15 0 -26 11t-11 26v19
q0 15 11 26t26 11z" />
    </font>
</defs>
</svg>
