<?xml version="1.0" standalone="no"?>
<!DOCTYPE svg PUBLIC "-//W3C//DTD SVG 1.1//EN" "http://www.w3.org/Graphics/SVG/1.1/DTD/svg11.dtd" >
<svg>
<metadata>
Created by FontForge 20110222 at Tue Feb 21 02:45:42 2012
 By www-data
(c) 2009, 2010, 2011, 2012 JVEnaguas Productions, Inc. Some Rights Reserved.
</metadata>
<defs>
<font id="DynoBold" horiz-adv-x="1100" >
  <font-face 
    font-family="Dyno"
    font-weight="700"
    font-stretch="normal"
    units-per-em="2048"
    panose-1="2 11 8 3 6 1 1 1 1 1"
    ascent="1638"
    descent="-410"
    x-height="1105"
    cap-height="1405"
    bbox="-125 -415 2470 1958"
    underline-thickness="150"
    underline-position="-142"
    unicode-range="U+0020-2122"
  />
    <missing-glyph />
    <glyph glyph-name="space" unicode=" " horiz-adv-x="400" 
 />
    <glyph glyph-name="exclam" unicode="!" horiz-adv-x="500" 
d="M130 395l-30 1010h320l-30 -1010h-260zM260 -5q-68 0 -114 46t-46 109t46 109t114 46t114 -46t46 -109t-46 -109t-114 -46z" />
    <glyph glyph-name="quotedbl" unicode="&#x22;" horiz-adv-x="824" 
d="M390 1505q0 -305 -104 -512l-186 54q40 253 40 458h250zM740 1505q0 -305 -104 -512l-186 54q40 253 40 458h250z" />
    <glyph glyph-name="numbersign" unicode="#" horiz-adv-x="1400" 
d="M1201 1405l-54 -300h173v-220h-212l-66 -370h218v-220h-258l-53 -300h-220l53 300h-280l-53 -300h-220l53 300h-182v220h222l66 370h-228v220h267l54 300h220l-54 -300h280l54 300h220zM542 515h280l66 370h-280z" />
    <glyph glyph-name="dollar" unicode="$" horiz-adv-x="1150" 
d="M100 289q131 -44 303 -46l61 370q-8 3 -23 8q-321 96 -321 389q0 402 475 405l36 222l220 -33l-34 -208q75 -13 153 -44v-241q-101 33 -194 41l-57 -348q12 -4 31 -10q320 -112 320 -404q0 -380 -485 -403l-36 -224l-220 33l32 195q-148 11 -261 57v241zM750 410
q0 64 -77 112l-43 -264q120 27 120 152zM509 897l42 252q-111 -18 -111 -159q4 -77 69 -93z" />
    <glyph glyph-name="percent" unicode="%" horiz-adv-x="1800" 
d="M820 1050q0 -146 -104.5 -250.5t-255.5 -104.5t-255.5 104.5t-104.5 250.5t104.5 250.5t255.5 104.5t255.5 -104.5t104.5 -250.5zM460 1195q-56 0 -98 -42t-42 -103t42 -103t98 -42t98 42t42 103t-42 103t-98 42zM1720 350q0 -146 -104.5 -250.5t-255.5 -104.5
t-255.5 104.5t-104.5 250.5t104.5 250.5t255.5 104.5t255.5 -104.5t104.5 -250.5zM1360 495q-56 0 -98 -42t-42 -103t42 -103t98 -42t98 42t42 103t-42 103t-98 42zM397 -5l756 1410h270l-756 -1410h-270z" />
    <glyph glyph-name="ampersand" unicode="&#x26;" horiz-adv-x="1300" 
d="M625 -14q-17 -1 -45 -1q-480 0 -480 415q0 242 241 300q-221 60 -221 300q0 415 460 415q233 0 440 -73v-241q-183 55 -379 55q-30 0 -61 -1q-140 0 -140 -155q0 -176 140 -185h220v150h320v-150h100v-230h-100v-446q-197 -148 -495 -154v1zM625 244h7q89 0 168 47v294
h-220q-160 -9 -160 -185q0 -155 160 -155q29 -1 45 -2v1z" />
    <glyph glyph-name="quotesingle" unicode="'" horiz-adv-x="470" 
d="M390 1505q0 -305 -104 -512l-186 54q40 253 40 458h250z" />
    <glyph glyph-name="parenleft" unicode="(" horiz-adv-x="750" 
d="M455 -207q-355 407 -355 907t355 907l217 -55q-252 -352 -252 -852t252 -852z" />
    <glyph glyph-name="parenright" unicode=")" horiz-adv-x="750" 
d="M100 -152q252 352 252 852t-252 852l217 55q355 -407 355 -907t-355 -907z" />
    <glyph glyph-name="asterisk" unicode="*" horiz-adv-x="934" 
d="M772 1354l84 -140l-208 -111l208 -111l-84 -140l-198 94l1 -196l-189 -1l-3 197l-198 -94l-85 140l208 111l-208 111l85 140l198 -94l1 196h189v-196z" />
    <glyph glyph-name="plus" unicode="+" horiz-adv-x="1000" 
d="M390 815v290h240v-290h290v-230h-290v-290h-240v290h-290v230h290z" />
    <glyph glyph-name="comma" unicode="," horiz-adv-x="470" 
d="M390 305q0 -305 -104 -512l-186 54q40 253 40 458h250z" />
    <glyph glyph-name="hyphen" unicode="-" horiz-adv-x="800" 
d="M720 815v-230h-620v230h620z" />
    <glyph glyph-name="hyphen" unicode="&#xad;" horiz-adv-x="800" 
d="M720 815v-230h-620v230h620z" />
    <glyph glyph-name="period" unicode="." horiz-adv-x="500" 
d="M420 150q0 -63 -46 -109t-114 -46t-114 46t-46 109t46 109t114 46t114 -46t46 -109z" />
    <glyph glyph-name="slash" unicode="/" horiz-adv-x="750" 
d="M672 1605l-352 -1810h-220l352 1810h220z" />
    <glyph glyph-name="zero" unicode="0" horiz-adv-x="1250" 
d="M630 1155q-210 0 -210 -255v-400q0 -255 210 -255q220 0 220 255v400q0 255 -220 255zM1170 900v-400q0 -515 -540 -515q-530 0 -530 515v400q0 515 530 515q540 0 540 -515z" />
    <glyph glyph-name="one" unicode="1" horiz-adv-x="700" 
d="M621 1405v-1410h-320v1160h-201l52 250h469z" />
    <glyph glyph-name="two" unicode="2" horiz-adv-x="1150" 
d="M480 1415q560 0 560 -405q0 -292 -310 -427t-310 -283v-55h650v-260h-970v305q0 292 310 412t310 288q0 165 -240 165q-31 2 -61 2q-162 0 -299 -46v241q157 63 360 63z" />
    <glyph glyph-name="three" unicode="3" 
d="M700 400q0 175 -160 175l-210 10v230l210 10q140 0 140 175q0 155 -140 155q-228 0 -440 -53v241q208 62 440 72q460 0 460 -415q0 -240 -221 -300q241 -58 241 -300q0 -415 -480 -415q-232 0 -440 62v241q178 -45 368 -45q36 0 72 2q160 0 160 155z" />
    <glyph glyph-name="four" unicode="4" horiz-adv-x="1200" 
d="M700 -5v350h-600v255l553 805h367v-800h100v-260h-100v-350h-320zM424 605h276v415z" />
    <glyph glyph-name="five" unicode="5" horiz-adv-x="1150" 
d="M100 48v241q137 -46 335 -46q36 0 75 2q240 0 240 215v4q0 135 -118 182q-43 16 -89 16q-87 0 -189 -57h-254l20 800h850v-260h-540l-10 -287q136 31 243 31q407 0 407 -449q0 -455 -560 -455q-253 0 -410 63z" />
    <glyph glyph-name="six" unicode="6" horiz-adv-x="1220" 
d="M1140 460q0 -459 -522 -475h-8q-510 0 -510 515v400q0 515 540 515q223 0 380 -63v-241q-162 54 -370 54q-220 -10 -220 -265v-41q137 47 258 47q128 0 238 -52q214 -102 214 -394zM430 500q0 -252 174 -255q216 15 216 215v4q0 135 -118 182q-44 17 -92 17
q-84 0 -180 -54v-109z" />
    <glyph glyph-name="seven" unicode="7" 
d="M1020 1405v-255l-392 -1155h-330l390 1150h-588v260h920z" />
    <glyph glyph-name="eight" unicode="8" horiz-adv-x="1204" 
d="M594 1405q10 0 18 -1q8 1 18 1h41v-3q433 -26 433 -402q0 -243 -218 -300q238 -57 238 -300q0 -385 -450 -404v-1h-124v1q-450 19 -450 404q0 243 238 300q-218 57 -218 300q0 376 433 402v3h41zM420 420q0 -165 190 -165h14q180 4 180 165q0 155 -190 155h-4
q-190 0 -190 -155zM440 980q0 -157 172 -165q172 8 172 165t-172 164q-172 -7 -172 -164z" />
    <glyph glyph-name="nine" unicode="9" horiz-adv-x="1220" 
d="M100 940q0 459 522 475h8q510 0 510 -515v-400q0 -515 -540 -515q-223 0 -380 63v241q162 -54 370 -54q220 10 220 265v41q-137 -47 -258 -47q-128 0 -237 52q-215 102 -215 394zM810 900q0 251 -174 255q-216 -15 -216 -215v-4q0 -135 119 -181q43 -18 91 -18
q84 0 180 54v109z" />
    <glyph glyph-name="colon" unicode=":" horiz-adv-x="500" 
d="M420 150q0 -63 -46 -109t-114 -46t-114 46t-46 109t46 109t114 46t114 -46t46 -109zM420 950q0 -63 -46 -109t-114 -46t-114 46t-46 109t46 109t114 46t114 -46t46 -109z" />
    <glyph glyph-name="semicolon" unicode=";" horiz-adv-x="500" 
d="M390 305q0 -305 -104 -512l-186 54q40 253 40 458h250zM420 950q0 -63 -46 -109t-114 -46t-114 46t-46 109t46 109t114 46t114 -46t46 -109z" />
    <glyph glyph-name="less" unicode="&#x3c;" horiz-adv-x="900" 
d="M820 502v-264l-720 360v204l720 360v-264l-446 -198z" />
    <glyph glyph-name="equal" unicode="=" horiz-adv-x="800" 
d="M720 1015v-230h-620v230h620zM720 615v-230h-620v230h620z" />
    <glyph glyph-name="greater" unicode="&#x3e;" horiz-adv-x="900" 
d="M546 700l-446 198v264l720 -360v-204l-720 -360v264z" />
    <glyph glyph-name="question" unicode="?" horiz-adv-x="1000" 
d="M460 1415q460 0 460 -405q0 -231 -160 -341t-170 -274h-260q-1 16 -1 32q0 222 131 329q140 115 140 234q0 165 -140 165q-27 2 -54 2q-144 0 -306 -45v240q188 63 360 63zM620 150q0 -63 -46 -109t-114 -46t-114 46t-46 109t46 109t114 46t114 -46t46 -109z" />
    <glyph glyph-name="at" unicode="@" horiz-adv-x="1582" 
d="M1162 1094q-100 -648 -100 -649q-2 -18 -2 -25h-1q0 -7 17 -7q49 0 103 43q64 54 108 144q48 101 48 228q0 213 -138 354q-129 132 -346 132q-253 0 -415 -169q-168 -178 -168 -462q0 -272 165 -441q156 -159 405 -159q61 0 118.5 10.5t111.5 28.5q116 43 262 167
l95 -128q-72 -109 -238 -184h-1q-166 -77 -348 -77q-313 0 -531 216q-207 207 -207 559q0 349 193 580q202 242 554 242q208 0 345 -83q130 -78 225 -228q85 -141 85 -358q0 -291 -155 -448q-164 -168 -326 -168q-128 0 -144 68q-59 -68 -210 -68q-139 0 -231 116
q-81 103 -81 290q0 207 112 365q122 172 292 172q177 0 205 -66l15 43zM576 567q0 -73 35 -131q27 -45 79 -45q53 0 87 36q47 49 81 149q39 114 39 234q0 38 -9 67.5t-24 49t-34 29t-43 9.5q-99 0 -153 -123q-58 -139 -58 -275z" />
    <glyph glyph-name="A" unicode="A" horiz-adv-x="1010" 
d="M-50 -5l362 1410h418l352 -1410h-330l-62 270h-346l-64 -270h-330zM406 525h225l-110 482z" />
    <glyph glyph-name="B" unicode="B" horiz-adv-x="1200" 
d="M100 -5v1410h490q510 0 510 -405q0 -243 -218 -300q238 -57 238 -300q0 -405 -510 -405h-510zM420 575v-320h190q190 0 190 165q0 155 -190 155h-190zM420 815h170q190 0 190 165t-190 165h-170v-330z" />
    <glyph glyph-name="C" unicode="C" 
d="M620 1155q-190 0 -190 -255v-400q0 -255 190 -255q189 0 400 42v-239q-157 -63 -410 -63q-510 0 -510 515v400q0 515 510 515q253 0 410 -63v-241q-137 46 -327 46q-36 0 -73 -2z" />
    <glyph glyph-name="D" unicode="D" horiz-adv-x="1200" 
d="M610 1405q510 0 510 -405v-600q0 -405 -510 -405h-510v1410h510zM420 255h190q190 0 190 195v500q0 195 -190 195h-190v-890z" />
    <glyph glyph-name="E" unicode="E" horiz-adv-x="1050" 
d="M970 1405v-260h-550v-320h450v-260h-450v-310h550v-260h-870v1410h870z" />
    <glyph glyph-name="F" unicode="F" horiz-adv-x="1050" 
d="M970 1405v-260h-550v-320h450v-260h-450v-570h-320v1410h870z" />
    <glyph glyph-name="G" unicode="G" horiz-adv-x="1200" 
d="M1020 1352v-241q-137 46 -335 46q-36 0 -75 -2q-190 0 -190 -195v-520q0 -195 191 -195q15 -2 29 -2q81 0 160 48v464h320v-616q-205 -154 -510 -154q-510 0 -510 405v620q0 405 510 405q253 0 410 -63z" />
    <glyph glyph-name="H" unicode="H" horiz-adv-x="1200" 
d="M420 1405v-590h380v590h320v-1410h-320v570h-380v-570h-320v1410h320z" />
    <glyph glyph-name="I" unicode="I" horiz-adv-x="500" 
d="M420 1405v-1410h-320v1410h320z" />
    <glyph glyph-name="J" unicode="J" horiz-adv-x="900" 
d="M820 1405v-1015q0 -405 -511 -405q-101 10 -209 32v252q86 -26 164 -26q23 0 45 2q191 0 191 195v965h320z" />
    <glyph glyph-name="K" unicode="K" horiz-adv-x="1200" 
d="M420 1405v-665l332 665h371l-353 -705l353 -705h-371l-332 665v-665h-320v1410h320z" />
    <glyph glyph-name="L" unicode="L" horiz-adv-x="1000" 
d="M100 -5v1410h320v-1150h500v-260h-820z" />
    <glyph glyph-name="M" unicode="M" horiz-adv-x="1500" 
d="M100 -5v1410h429l231 -867l231 867h429v-1410h-320v781l-211 -781h-268l-201 778v-778h-320z" />
    <glyph glyph-name="N" unicode="N" horiz-adv-x="1200" 
d="M418 1405l382 -803v803h320v-1410h-318l-382 803v-803h-320v1410h318z" />
    <glyph glyph-name="O" unicode="O" horiz-adv-x="1250" 
d="M630 1155q-210 0 -210 -255v-400q0 -255 210 -255q220 0 220 255v400q0 255 -220 255zM1170 900v-400q0 -515 -540 -515q-530 0 -530 515v400q0 515 530 515q540 0 540 -515z" />
    <glyph glyph-name="P" unicode="P" horiz-adv-x="1200" 
d="M100 -5v1410h510q510 0 510 -405v-100q0 -405 -510 -405h-190v-500h-320zM420 755h190q190 0 190 195t-190 195h-190v-390z" />
    <glyph glyph-name="Q" unicode="Q" horiz-adv-x="1250" 
d="M1170 500q0 -305 -187 -428l135 -181l-260 -202l-205 297q-7 -1 -23 -1q-530 0 -530 515v400q0 515 530 515q540 0 540 -515v-400zM630 1155q-210 0 -210 -255v-400q0 -255 210 -255q220 0 220 255v400q0 255 -220 255z" />
    <glyph glyph-name="R" unicode="R" horiz-adv-x="1200" 
d="M100 -5v1410h510q510 0 510 -405v-100q0 -232 -249 -351l251 -554h-340l-200 500h-162v-500h-320zM420 755h190q190 0 190 195t-190 195h-190v-390z" />
    <glyph glyph-name="S" unicode="S" horiz-adv-x="1150" 
d="M100 48v241q137 -46 335 -46q36 0 75 2q240 0 240 165q0 117 -315 212t-315 388q0 405 490 405q203 0 360 -63v-241q-137 46 -299 46q-30 0 -61 -2q-170 0 -170 -165q0 -88 315 -198t315 -402q0 -405 -560 -405q-253 0 -410 63z" />
    <glyph glyph-name="T" unicode="T" horiz-adv-x="1200" 
d="M1120 1405v-260h-350v-1150h-320v1150h-350v260h1020z" />
    <glyph glyph-name="U" unicode="U" horiz-adv-x="1200" 
d="M420 1405v-965q0 -195 190 -195t190 195v965h320v-1015q0 -405 -510 -405t-510 405v1015h320z" />
    <glyph glyph-name="V" unicode="V" horiz-adv-x="1010" 
d="M300 1405l221 -1008l211 1008h350l-352 -1410h-418l-362 1410h350z" />
    <glyph glyph-name="W" unicode="W" horiz-adv-x="1600" 
d="M280 1405l152 -949l190 949h368l200 -951l152 951h330l-272 -1410h-418l-171 855l-171 -855h-418l-272 1410h330z" />
    <glyph glyph-name="X" unicode="X" horiz-adv-x="1300" 
d="M460 1405l202 -481l202 481h360l-332 -705l332 -705h-360l-202 481l-202 -481h-360l333 705l-333 705h360z" />
    <glyph glyph-name="Y" unicode="Y" horiz-adv-x="1000" 
d="M310 1405l202 -529l202 529h360l-402 -855v-555h-320v555l-402 855h360z" />
    <glyph glyph-name="Z" unicode="Z" 
d="M1020 1405v-255l-547 -895h547v-260h-920v255l547 895h-547v260h920z" />
    <glyph glyph-name="bracketleft" unicode="[" horiz-adv-x="800" 
d="M720 1605v-260h-320v-1290h320v-260h-620v1810h620z" />
    <glyph glyph-name="backslash" unicode="\" horiz-adv-x="750" 
d="M320 1605l352 -1810h-220l-352 1810h220z" />
    <glyph glyph-name="bracketright" unicode="]" horiz-adv-x="800" 
d="M720 1605v-1810h-620v260h320v1290h-320v260h620z" />
    <glyph glyph-name="asciicircum" unicode="^" horiz-adv-x="900" 
d="M320 1045h-220l256 410h214l256 -410h-219l-144 191z" />
    <glyph glyph-name="underscore" unicode="_" horiz-adv-x="900" 
d="M820 -235v-180h-720v180h720z" />
    <glyph glyph-name="grave" unicode="`" horiz-adv-x="550" 
d="M255 1245l-155 310h271l104 -310h-220z" />
    <glyph glyph-name="a" unicode="a" 
d="M150 1052q173 69 368 69q95 0 196 -16q306 -51 306 -405v-715h-460q-460 0 -460 335t600 335v45q0 155 -131 155q-30 4 -64 4q-143 0 -355 -68v261zM700 445q-280 0 -280 -105q0 -95 140 -95h140v200z" />
    <glyph glyph-name="b" unicode="b" 
d="M420 245h160q120 0 120 145v320q0 145 -120 145q-88 0 -160 -27v-583zM420 1063q86 52 240 52q360 0 360 -415v-300q0 -415 -460 -415l-460 10v1410h320v-342z" />
    <glyph glyph-name="c" unicode="c" horiz-adv-x="1000" 
d="M920 1052v-241q-137 46 -299 46q-30 0 -61 -2q-140 0 -140 -145v-320q0 -145 140 -145q31 -2 61 -2q162 0 299 46v-241q-157 -63 -360 -63q-460 0 -460 405v320q0 405 460 405q203 0 360 -63z" />
    <glyph glyph-name="d" unicode="d" 
d="M700 828q-72 27 -160 27q-120 0 -120 -145v-320q0 -145 120 -145h160v583zM700 1405h320v-1410l-460 -10q-460 0 -460 415v300q0 415 360 415q154 0 240 -52v342z" />
    <glyph glyph-name="e" unicode="e" 
d="M1020 47q-209 -62 -430 -62q-490 0 -490 405v310q0 415 460 415t460 -415v-255h-600v-55q0 -145 170 -145q35 -2 69 -2q183 0 361 45v-241zM420 655h280v44q0 156 -137 156q-143 -5 -143 -156v-44z" />
    <glyph glyph-name="f" unicode="f" horiz-adv-x="950" 
d="M250 845h-150v260h150v95q0 355 360 355q153 0 260 -53v-229q-111 22 -180 22q-120 0 -120 -125v-65h300v-260h-300v-850h-320v850z" />
    <glyph glyph-name="g" unicode="g" 
d="M700 27q-72 -44 -193 -44q-23 0 -48 2q-359 10 -359 415v300q0 405 460 405l460 -10v-1095q0 -405 -460 -405q-28 -1 -56 -1q-171 0 -304 54v241q118 -39 255 -39q51 0 104 5q141 0 141 145v27zM700 846l-160 9q-120 0 -120 -155v-300q0 -155 120 -155q88 0 160 27v574z
" />
    <glyph glyph-name="h" unicode="h" 
d="M420 -4l-320 -1v1410h320v-342q86 52 240 52q360 0 360 -415v-705h-320v715q0 145 -120 145q-88 0 -160 -27v-832z" />
    <glyph glyph-name="i" unicode="i" horiz-adv-x="500" 
d="M420 1105v-1110h-320v1110h320zM420 1350q0 -63 -46 -109t-114 -46t-114 46t-46 109t46 109t114 46t114 -46t46 -109z" />
    <glyph glyph-name="j" unicode="j" horiz-adv-x="800" 
d="M720 -50q0 -355 -360 -355q-153 0 -260 53v229q111 -22 180 -22q120 0 120 125v1125h320v-1155zM720 1350q0 -63 -46 -109t-114 -46t-114 46t-46 109t46 109t114 46t114 -46t46 -109z" />
    <glyph glyph-name="k" unicode="k" horiz-adv-x="1170" 
d="M420 1405v-831l313 531h360l-353 -565l353 -545h-360l-313 512v-512h-320v1410h320z" />
    <glyph glyph-name="l" unicode="l" horiz-adv-x="500" 
d="M420 1405v-1410h-320v1410h320z" />
    <glyph glyph-name="m" unicode="m" horiz-adv-x="1600" 
d="M650 -5v705q0 145 -120 145h-110v-850h-320v1100l410 10q212 0 320 -84q132 84 230 84q460 0 460 -415v-695h-320v705q0 145 -120 145q-73 0 -124 -26q14 -57 14 -129v-695h-320z" />
    <glyph glyph-name="n" unicode="n" 
d="M700 -5v705q0 145 -120 145h-160v-850h-320v1100l460 10q460 0 460 -415v-695h-320z" />
    <glyph glyph-name="o" unicode="o" horiz-adv-x="1150" 
d="M590 875q-170 0 -170 -175v-300q0 -175 170 -175q160 0 160 175v300q0 175 -160 175zM1070 700v-300q0 -435 -480 -435q-490 0 -490 435v300q0 435 490 435q480 0 480 -435z" />
    <glyph glyph-name="p" unicode="p" 
d="M420 262q72 -27 160 -27q120 0 120 145v320q0 145 -120 145h-160v-583zM420 -315h-320v1410l460 10q460 0 460 -415v-300q0 -415 -360 -415q-154 0 -240 52v-342z" />
    <glyph glyph-name="q" unicode="q" 
d="M700 845h-160q-121 0 -121 -134q0 -10 1 -21v-310q0 -145 120 -145q88 0 160 27v583zM700 27q-86 -52 -240 -52q-360 0 -360 415v300q0 415 460 415l460 -10v-1410h-320v342z" />
    <glyph glyph-name="r" unicode="r" horiz-adv-x="749" 
d="M669 845h-109q-96 0 -140 -26v-824h-320v996q104 114 460 114l109 -2v-258z" />
    <glyph glyph-name="s" unicode="s" 
d="M100 289q163 -54 410 -64q190 0 190 95q0 87 -213 125q-367 82 -367 335q0 355 490 355q184 -10 340 -83v-241q-163 54 -340 64q-170 0 -170 -85q0 -77 194 -135q386 -82 386 -335q0 -355 -511 -355q-252 20 -409 83v241z" />
    <glyph glyph-name="t" unicode="t" horiz-adv-x="950" 
d="M250 1405h320v-300h300v-260h-300v-465q0 -125 120 -125q69 0 180 22v-229q-107 -53 -260 -53q-360 0 -360 355v495h-150v260h150v300z" />
    <glyph glyph-name="u" unicode="u" 
d="M420 1105v-705q0 -145 120 -145h160v850h320v-1100l-460 -10q-460 0 -460 415v695h320z" />
    <glyph glyph-name="v" unicode="v" horiz-adv-x="910" 
d="M270 1105l201 -766l191 766h320l-302 -1110h-418l-312 1110h320z" />
    <glyph glyph-name="w" unicode="w" horiz-adv-x="1340" 
d="M270 1105l83 -647l139 647h368l148 -649l84 649h320l-192 -1110h-408l-131 655l-131 -655h-408l-192 1110h320z" />
    <glyph glyph-name="x" unicode="x" horiz-adv-x="1160" 
d="M450 1105l142 -332l142 332h350l-262 -555l262 -555h-350l-142 332l-142 -332h-350l263 555l-263 555h350z" />
    <glyph glyph-name="y" unicode="y" 
d="M1020 1105v-1105q0 -405 -460 -405q-28 -1 -56 -1q-171 0 -304 54v241q118 -39 255 -39q51 0 104 5q141 0 141 145v27q-72 -44 -193 -44q-23 0 -48 2q-359 10 -359 415v705h320v-705q0 -155 120 -155q88 0 160 27v833h320z" />
    <glyph glyph-name="z" unicode="z" horiz-adv-x="1000" 
d="M920 1105v-255l-446 -595h446v-260h-820v255l446 595h-446v260h820z" />
    <glyph glyph-name="braceleft" unicode="{" horiz-adv-x="900" 
d="M820 -205h-60q-440 0 -440 405v200q0 195 -220 195v210q220 0 220 195v300q0 305 440 305h60v-210q-200 0 -200 -195v-200q0 -253 -188 -300q188 -47 188 -300v-200q0 -195 200 -195v-210z" />
    <glyph glyph-name="bar" unicode="|" horiz-adv-x="450" 
d="M370 1605v-1810h-270v1810h270z" />
    <glyph glyph-name="braceright" unicode="}" horiz-adv-x="900" 
d="M100 5q200 0 200 195v200q0 253 188 300q-188 47 -188 300v200q0 195 -200 195v210h60q440 0 440 -305v-300q0 -195 220 -195v-210q-220 0 -220 -195v-200q0 -405 -440 -405h-60v210z" />
    <glyph glyph-name="asciitilde" unicode="~" horiz-adv-x="983" 
d="M342 905q43 0 85.5 -18.5t84.5 -52.5q39 -29 71 -44t55 -15q60 0 69 131l196 -12q0 -319 -211 -319q-114 0 -203 65q-74 55 -123 55q-60 0 -70 -121l-196 12q0 319 242 319z" />
    <glyph glyph-name="uni00A0" unicode="&#xa0;" horiz-adv-x="400" 
 />
    <glyph glyph-name="exclamdown" unicode="&#xa1;" horiz-adv-x="500" 
d="M390 629l30 -1010h-320l30 1010h260zM260 1029q68 0 114 -46t46 -109t-46 -109t-114 -46t-114 46t-46 109t46 109t114 46z" />
    <glyph glyph-name="cent" unicode="&#xa2;" horiz-adv-x="1000" 
d="M920 961q-90 29 -169 38l-99 -606q136 2 268 46v-241q-142 -57 -311 -63l-60 -372l-220 33l59 357q-288 63 -288 387v320q0 405 460 405h10l61 372l220 -33l-60 -362q62 -14 129 -40v-241zM420 540q0 -71 16 -89l91 552q-107 -9 -107 -143v-320z" />
    <glyph glyph-name="sterling" unicode="&#xa3;" horiz-adv-x="1150" 
d="M250 545h-150v260h150v95q0 505 560 505q153 0 260 -53v-229q-111 22 -230 22q-270 0 -270 -275v-65h300v-260h-300v-290h500v-260h-970v260h150v290z" />
    <glyph glyph-name="yen" unicode="&#xa5;" horiz-adv-x="1300" 
d="M460 1405l202 -529l202 529h360l-301 -640h249v-230h-350v-120h350v-230h-350v-190h-320v190h-350v230h350v120h-350v230h249l-301 640h360z" />
    <glyph glyph-name="brokenbar" unicode="&#xa6;" horiz-adv-x="450" 
d="M370 1605v-810h-270v810h270zM370 605v-810h-270v810h270z" />
    <glyph glyph-name="dieresis" unicode="&#xa8;" horiz-adv-x="950" 
d="M420 1400q0 -63 -46 -109t-114 -46t-114 46t-46 109t46 109t114 46t114 -46t46 -109zM870 1400q0 -63 -46 -109t-114 -46t-114 46t-46 109t46 109t114 46t114 -46t46 -109z" />
    <glyph glyph-name="copyright" unicode="&#xa9;" horiz-adv-x="1393" 
d="M704 338q-266 0 -435 164t-169 416q0 249 173.5 418t436.5 169q261 0 432 -165t171 -418q0 -249 -174.5 -416.5t-434.5 -167.5zM707 1365q-189 0 -315 -126.5t-126 -317.5q0 -193 127.5 -318t313.5 -125q183 0 311.5 125.5t128.5 316.5q0 193 -126.5 319t-313.5 126z
M699 1126q-82 0 -82 -114v-184q0 -115 82 -115q85 0 189 21v-115q-76 -31 -194 -31q-240 0 -240 240v184q0 239 240 239q118 0 194 -30v-117q-68 23 -156 23q-16 0 -33 -1z" />
    <glyph glyph-name="guillemotleft" unicode="&#xab;" horiz-adv-x="1266" 
d="M546 700l333 505h310l-323 -505l323 -505h-310zM100 700l333 505h310l-323 -505l323 -505h-310z" />
    <glyph glyph-name="logicalnot" unicode="&#xac;" horiz-adv-x="1000" 
d="M920 815v-520h-240v290h-580v230h820z" />
    <glyph glyph-name="registered" unicode="&#xae;" horiz-adv-x="1393" 
d="M704 338q-266 0 -435 164t-169 416q0 249 173.5 418t436.5 169q261 0 432 -165t171 -418q0 -249 -174.5 -416.5t-434.5 -167.5zM707 1365q-189 0 -315 -126.5t-126 -317.5q0 -193 127.5 -318t313.5 -125q183 0 311.5 125.5t128.5 316.5q0 193 -126.5 319t-313.5 126z
M466 602v667h245q244 0 244 -193v-47q0 -94 -116 -165l118 -262h-170l-94 235h-66v-235h-161zM627 964h84q84 0 84 89t-84 89h-84v-178z" />
    <glyph glyph-name="degree" unicode="&#xb0;" horiz-adv-x="700" 
d="M620 1150q0 -105 -75 -180t-185 -75t-185 75t-75 180t75 180t185 75t185 -75t75 -180zM360 1245q-35 0 -62.5 -27.5t-27.5 -67.5t27.5 -67.5t62.5 -27.5t62.5 27.5t27.5 67.5t-27.5 67.5t-62.5 27.5z" />
    <glyph glyph-name="plusminus" unicode="&#xb1;" horiz-adv-x="1000" 
d="M390 995v290h240v-290h290v-230h-290v-290h-240v290h-290v230h290zM920 345v-230h-820v230h820z" />
    <glyph glyph-name="acute" unicode="&#xb4;" horiz-adv-x="550" 
d="M100 1245l104 310h271l-155 -310h-220z" />
    <glyph glyph-name="mu" unicode="&#xb5;" 
d="M1020 1105v-715q0 -415 -360 -415q-154 0 -240 52v-342h-320v1420h320v-843q72 -27 160 -27q120 0 120 145v725h320z" />
    <glyph glyph-name="paragraph" unicode="&#xb6;" horiz-adv-x="1350" 
d="M600 495q-500 0 -500 455t510 455h660v-1710h-270v1500h-130v-1500h-270v800z" />
    <glyph glyph-name="periodcentered" unicode="&#xb7;" horiz-adv-x="455" 
d="M375 717q0 -54 -39.5 -93t-97.5 -39q-59 0 -98.5 39t-39.5 93t39.5 93.5t98.5 39.5q58 0 97.5 -39.5t39.5 -93.5z" />
    <glyph glyph-name="periodcentered" unicode="&#x2219;" horiz-adv-x="455" 
d="M375 717q0 -54 -39.5 -93t-97.5 -39q-59 0 -98.5 39t-39.5 93t39.5 93.5t98.5 39.5q58 0 97.5 -39.5t39.5 -93.5z" />
    <glyph glyph-name="cedilla" unicode="&#xb8;" horiz-adv-x="550" 
d="M475 -95l-104 -310h-271l155 310h220z" />
    <glyph glyph-name="guillemotright" unicode="&#xbb;" horiz-adv-x="1266" 
d="M410 195h-310l323 505l-323 505h310l333 -505zM856 195h-310l323 505l-323 505h310l333 -505z" />
    <glyph glyph-name="questiondown" unicode="&#xbf;" horiz-adv-x="1000" 
d="M560 -391q-460 0 -460 405q0 231 160 341t170 274h260q1 -16 1 -32q0 -222 -131 -329q-140 -115 -140 -234q0 -165 140 -165q27 -2 54 -2q144 0 306 45v-240q-188 -63 -360 -63zM400 874q0 63 46 109t114 46t114 -46t46 -109t-46 -109t-114 -46t-114 46t-46 109z" />
    <glyph glyph-name="Agrave" unicode="&#xc0;" horiz-adv-x="1010" 
d="M-50 -5l362 1410h418l352 -1410h-330l-62 270h-346l-64 -270h-330zM425 1545l-155 310h271l104 -310h-220zM406 525h225l-110 482z" />
    <glyph glyph-name="Aacute" unicode="&#xc1;" horiz-adv-x="1010" 
d="M-50 -5l362 1410h418l352 -1410h-330l-62 270h-346l-64 -270h-330zM387 1545l104 310h271l-155 -310h-220zM406 525h225l-110 482z" />
    <glyph glyph-name="Acircumflex" unicode="&#xc2;" horiz-adv-x="1010" 
d="M-50 -5l362 1410h418l352 -1410h-330l-62 270h-346l-64 -270h-330zM894 1708l-98 -183l-278 150h-1q-30 -15 -62 -32.5t-64.5 -34.5t-64 -33.5t-89.5 -49.5l-98 183l378 207zM406 525h225l-110 482z" />
    <glyph glyph-name="Atilde" unicode="&#xc3;" horiz-adv-x="1010" 
d="M-50 -5l362 1410h418l352 -1410h-330l-62 270h-346l-64 -270h-330zM357 1905q43 0 85.5 -18.5t84.5 -52.5q39 -29 71 -44t55 -15q80 0 89 131l176 -12q0 -319 -211 -319q-114 0 -203 65q-74 55 -123 55q-80 0 -90 -121l-176 12q0 319 242 319zM406 525h225l-110 482z" />
    <glyph glyph-name="Adieresis" unicode="&#xc4;" horiz-adv-x="1010" 
d="M-50 -5l362 1410h418l352 -1410h-330l-62 270h-346l-64 -270h-330zM901 1700q0 -63 -46 -109t-114 -46t-114 46t-46 109t46 109t114 46t114 -46t46 -109zM451 1700q0 -63 -46 -109t-114 -46t-114 46t-46 109t46 109t114 46t114 -46t46 -109zM406 525h225l-110 482z" />
    <glyph glyph-name="Aring" unicode="&#xc5;" horiz-adv-x="1010" 
d="M-50 -5l362 1410h418l352 -1410h-330l-62 270h-346l-64 -270h-330zM753 1727q0 -95 -68.5 -163.5t-167.5 -68.5q-100 0 -168.5 68.5t-68.5 163.5q0 94 68.5 162.5t168.5 68.5q99 0 167.5 -68.5t68.5 -162.5zM406 525h225l-110 482zM517 1822q-36 0 -63 -27.5t-27 -67.5
q0 -41 27 -68t63 -27q35 0 62.5 27t27.5 68q0 40 -27.5 67.5t-62.5 27.5z" />
    <glyph glyph-name="AE" unicode="&#xc6;" horiz-adv-x="1855" 
d="M100 -5l362 1410h1314v-260h-550v-320h450v-260h-450v-310h550v-260h-870v270h-403l-73 -270h-330zM573 525h333v570h-176z" />
    <glyph glyph-name="Ccedilla" unicode="&#xc7;" 
d="M620 1155q-190 0 -190 -255v-400q0 -255 190 -255q189 0 400 42v-239q-157 -63 -410 -63q-510 0 -510 515v400q0 515 510 515q253 0 410 -63v-241q-137 46 -327 46q-36 0 -73 -2zM747 -95l-104 -310h-271l155 310h220z" />
    <glyph glyph-name="Egrave" unicode="&#xc8;" horiz-adv-x="1050" 
d="M970 1405v-260h-550v-320h450v-260h-450v-310h550v-260h-870v1410h870zM444 1545l-155 310h271l104 -310h-220z" />
    <glyph glyph-name="Eacute" unicode="&#xc9;" horiz-adv-x="1050" 
d="M970 1405v-260h-550v-320h450v-260h-450v-310h550v-260h-870v1410h870zM406 1545l104 310h271l-155 -310h-220z" />
    <glyph glyph-name="Ecircumflex" unicode="&#xca;" horiz-adv-x="1050" 
d="M970 1405v-260h-550v-320h450v-260h-450v-310h550v-260h-870v1410h870zM913 1708l-98 -183l-278 150h-1q-30 -15 -62 -32.5t-64.5 -34.5t-64 -33.5t-89.5 -49.5l-98 183l378 207z" />
    <glyph glyph-name="Edieresis" unicode="&#xcb;" horiz-adv-x="1050" 
d="M970 1405v-260h-550v-320h450v-260h-450v-310h550v-260h-870v1410h870zM470 1700q0 -63 -46 -109t-114 -46t-114 46t-46 109t46 109t114 46t114 -46t46 -109zM920 1700q0 -63 -46 -109t-114 -46t-114 46t-46 109t46 109t114 46t114 -46t46 -109z" />
    <glyph glyph-name="Igrave" unicode="&#xcc;" horiz-adv-x="500" 
d="M423 1405v-1410h-320v1410h320zM172 1545l-155 310h271l104 -310h-220z" />
    <glyph glyph-name="Iacute" unicode="&#xcd;" horiz-adv-x="500" 
d="M420 1405v-1410h-320v1410h320zM131 1545l104 310h271l-155 -310h-220z" />
    <glyph glyph-name="Icircumflex" unicode="&#xce;" horiz-adv-x="500" 
d="M422 1405v-1410h-320v1410h320zM639 1708l-98 -183l-278 150h-1q-30 -15 -62 -32.5t-64.5 -34.5t-64 -33.5t-89.5 -49.5l-98 183l378 207z" />
    <glyph glyph-name="Idieresis" unicode="&#xcf;" horiz-adv-x="500" 
d="M420 1405v-1410h-320v1410h320zM195 1700q0 -63 -46 -109t-114 -46t-114 46t-46 109t46 109t114 46t114 -46t46 -109zM645 1700q0 -63 -46 -109t-114 -46t-114 46t-46 109t46 109t114 46t114 -46t46 -109z" />
    <glyph glyph-name="Eth" unicode="&#xd0;" horiz-adv-x="1350" 
d="M760 1405q510 0 510 -405v-600q0 -405 -510 -405h-510v590h-150v230h150v590h510zM570 815h150v-230h-150v-330h190q190 0 190 195v500q0 195 -190 195h-190v-330z" />
    <glyph glyph-name="Ntilde" unicode="&#xd1;" horiz-adv-x="1200" 
d="M418 1405l382 -803v803h320v-1410h-318l-382 803v-803h-320v1410h318zM451 1905q43 0 85.5 -18.5t84.5 -52.5q39 -29 71 -44t55 -15q80 0 89 131l176 -12q0 -319 -211 -319q-114 0 -203 65q-74 55 -123 55q-80 0 -90 -121l-176 12q0 319 242 319z" />
    <glyph glyph-name="Ograve" unicode="&#xd2;" horiz-adv-x="1250" 
d="M630 1155q-210 0 -210 -255v-400q0 -255 210 -255q220 0 220 255v400q0 255 -220 255zM1170 900v-400q0 -515 -540 -515q-530 0 -530 515v400q0 515 530 515q540 0 540 -515zM544 1545l-155 310h271l104 -310h-220z" />
    <glyph glyph-name="Oacute" unicode="&#xd3;" horiz-adv-x="1250" 
d="M630 1155q-210 0 -210 -255v-400q0 -255 210 -255q220 0 220 255v400q0 255 -220 255zM1170 900v-400q0 -515 -540 -515q-530 0 -530 515v400q0 515 530 515q540 0 540 -515zM506 1545l104 310h271l-155 -310h-220z" />
    <glyph glyph-name="Ocircumflex" unicode="&#xd4;" horiz-adv-x="1250" 
d="M630 1155q-210 0 -210 -255v-400q0 -255 210 -255q220 0 220 255v400q0 255 -220 255zM1170 900v-400q0 -515 -540 -515q-530 0 -530 515v400q0 515 530 515q540 0 540 -515zM1013 1708l-98 -183l-278 150h-1q-30 -15 -62 -32.5t-64.5 -34.5t-64 -33.5t-89.5 -49.5
l-98 183l378 207z" />
    <glyph glyph-name="Otilde" unicode="&#xd5;" horiz-adv-x="1250" 
d="M630 1155q-210 0 -210 -255v-400q0 -255 210 -255q220 0 220 255v400q0 255 -220 255zM1170 900v-400q0 -515 -540 -515q-530 0 -530 515v400q0 515 530 515q540 0 540 -515zM476 1905q43 0 85.5 -18.5t84.5 -52.5q39 -29 71 -44t55 -15q80 0 89 131l176 -12
q0 -319 -211 -319q-114 0 -203 65q-74 55 -123 55q-80 0 -90 -121l-176 12q0 319 242 319z" />
    <glyph glyph-name="Odieresis" unicode="&#xd6;" horiz-adv-x="1250" 
d="M630 1155q-210 0 -210 -255v-400q0 -255 210 -255q220 0 220 255v400q0 255 -220 255zM1170 900v-400q0 -515 -540 -515q-530 0 -530 515v400q0 515 530 515q540 0 540 -515zM570 1700q0 -63 -46 -109t-114 -46t-114 46t-46 109t46 109t114 46t114 -46t46 -109z
M1020 1700q0 -63 -46 -109t-114 -46t-114 46t-46 109t46 109t114 46t114 -46t46 -109z" />
    <glyph glyph-name="multiply" unicode="&#xd7;" horiz-adv-x="1082" 
d="M100 981l167 169l284 -282l281 285l170 -168l-282 -284l284 -282l-167 -169l-284 282l-281 -285l-169 168l281 284z" />
    <glyph glyph-name="Oslash" unicode="&#xd8;" horiz-adv-x="1250" 
d="M1170 500q0 -515 -540 -515h5l-36 -222l-220 33l36 216q-315 87 -315 488v400q0 515 530 515h15l36 222l220 -33l-37 -221q306 -93 306 -483v-400zM420 500q0 -137 44 -184l138 838q-182 -9 -182 -254v-400zM850 900q0 125 -37 170l-135 -822q172 18 172 252v400z" />
    <glyph glyph-name="Ugrave" unicode="&#xd9;" horiz-adv-x="1200" 
d="M420 1405v-965q0 -195 190 -195t190 195v965h320v-1015q0 -405 -510 -405t-510 405v1015h320zM519 1545l-155 310h271l104 -310h-220z" />
    <glyph glyph-name="Uacute" unicode="&#xda;" horiz-adv-x="1200" 
d="M420 1405v-965q0 -195 190 -195t190 195v965h320v-1015q0 -405 -510 -405t-510 405v1015h320zM481 1545l104 310h271l-155 -310h-220z" />
    <glyph glyph-name="Ucircumflex" unicode="&#xdb;" horiz-adv-x="1200" 
d="M420 1405v-965q0 -195 190 -195t190 195v965h320v-1015q0 -405 -510 -405t-510 405v1015h320zM988 1708l-98 -183l-278 150h-1q-30 -15 -62 -32.5t-64.5 -34.5t-64 -33.5t-89.5 -49.5l-98 183l378 207z" />
    <glyph glyph-name="Udieresis" unicode="&#xdc;" horiz-adv-x="1200" 
d="M420 1405v-965q0 -195 190 -195t190 195v965h320v-1015q0 -405 -510 -405t-510 405v1015h320zM545 1700q0 -63 -46 -109t-114 -46t-114 46t-46 109t46 109t114 46t114 -46t46 -109zM995 1700q0 -63 -46 -109t-114 -46t-114 46t-46 109t46 109t114 46t114 -46t46 -109z
" />
    <glyph glyph-name="Yacute" unicode="&#xdd;" horiz-adv-x="1000" 
d="M310 1405l202 -529l202 529h360l-402 -855v-555h-320v555l-402 855h360zM383 1545l104 310h271l-155 -310h-220z" />
    <glyph glyph-name="Thorn" unicode="&#xde;" horiz-adv-x="1200" 
d="M100 -5v1410h320v-200h190q510 0 510 -405v-100q0 -405 -510 -405h-190v-300h-320zM420 555h190q190 0 190 195t-190 195h-190v-390z" />
    <glyph glyph-name="germandbls" unicode="&#xdf;" horiz-adv-x="1200" 
d="M100 -5v1015q0 405 490 405q510 0 510 -405q0 -253 -218 -310q238 -57 238 -300q0 -405 -510 -405h-60v260h60q190 0 190 165q0 155 -190 155h-60v240h40q190 0 190 175q0 165 -190 165q-170 0 -170 -165v-995h-320z" />
    <glyph glyph-name="agrave" unicode="&#xe0;" 
d="M150 1052q173 69 368 69q95 0 196 -16q306 -51 306 -405v-715h-460q-460 0 -460 335t600 335v45q0 155 -131 155q-30 4 -64 4q-143 0 -355 -68v261zM700 445q-280 0 -280 -105q0 -95 140 -95h140v200zM469 1245l-155 310h271l104 -310h-220z" />
    <glyph glyph-name="aacute" unicode="&#xe1;" 
d="M150 1052q173 69 368 69q95 0 196 -16q306 -51 306 -405v-715h-460q-460 0 -460 335t600 335v45q0 155 -131 155q-30 4 -64 4q-143 0 -355 -68v261zM700 445q-280 0 -280 -105q0 -95 140 -95h140v200zM431 1245l104 310h271l-155 -310h-220z" />
    <glyph glyph-name="acircumflex" unicode="&#xe2;" 
d="M150 1052q173 69 368 69q95 0 196 -16q306 -51 306 -405v-715h-460q-460 0 -460 335t600 335v45q0 155 -131 155q-30 4 -64 4q-143 0 -355 -68v261zM700 445q-280 0 -280 -105q0 -95 140 -95h140v200zM938 1408l-98 -183l-278 150h-1q-30 -15 -62 -32.5t-64.5 -34.5
t-64 -33.5t-89.5 -49.5l-98 183l378 207z" />
    <glyph glyph-name="atilde" unicode="&#xe3;" 
d="M150 1052q173 69 368 69q95 0 196 -16q306 -51 306 -405v-715h-460q-460 0 -460 335t600 335v45q0 155 -131 155q-30 4 -64 4q-143 0 -355 -68v261zM700 445q-280 0 -280 -105q0 -95 140 -95h140v200zM401 1605q43 0 85.5 -18.5t84.5 -52.5q39 -29 71 -44t55 -15
q80 0 89 131l176 -12q0 -319 -211 -319q-114 0 -203 65q-74 55 -123 55q-80 0 -90 -121l-176 12q0 319 242 319z" />
    <glyph glyph-name="adieresis" unicode="&#xe4;" 
d="M150 1052q173 69 368 69q95 0 196 -16q306 -51 306 -405v-715h-460q-460 0 -460 335t600 335v45q0 155 -131 155q-30 4 -64 4q-143 0 -355 -68v261zM700 445q-280 0 -280 -105q0 -95 140 -95h140v200zM495 1400q0 -63 -46 -109t-114 -46t-114 46t-46 109t46 109t114 46
t114 -46t46 -109zM945 1400q0 -63 -46 -109t-114 -46t-114 46t-46 109t46 109t114 46t114 -46t46 -109z" />
    <glyph glyph-name="aring" unicode="&#xe5;" 
d="M150 1052q173 69 368 69q95 0 196 -16q306 -51 306 -405v-715h-460q-460 0 -460 335t600 335v45q0 155 -131 155q-30 4 -64 4q-143 0 -355 -68v261zM700 445q-280 0 -280 -105q0 -95 140 -95h140v200zM797 1427q0 -95 -68.5 -163.5t-167.5 -68.5q-100 0 -168.5 68.5
t-68.5 163.5q0 94 68.5 162.5t168.5 68.5q99 0 167.5 -68.5t68.5 -162.5zM561 1522q-36 0 -63 -27.5t-27 -67.5q0 -41 27 -68t63 -27q35 0 62.5 27t27.5 68q0 40 -27.5 67.5t-62.5 27.5z" />
    <glyph glyph-name="ae" unicode="&#xe6;" horiz-adv-x="1705" 
d="M150 1052q174 69 368 69q95 0 194 -16q97 -17 156 -58q105 68 297 68q460 0 460 -415v-255h-600v-55q0 -145 170 -145q35 -2 69 -2q183 0 361 45v-241q-209 -62 -430 -62t-337 78q-135 -78 -298 -78q-460 0 -460 335t600 335v45q0 155 -131 155q-30 4 -64 4
q-143 0 -355 -68v261zM1025 655h280v44q0 156 -137 156q-143 -5 -143 -156v-44zM700 445q-280 0 -280 -105q0 -95 140 -95q96 0 140 26v174z" />
    <glyph glyph-name="ccedilla" unicode="&#xe7;" horiz-adv-x="1000" 
d="M920 1052v-241q-137 46 -299 46q-30 0 -61 -2q-140 0 -140 -145v-320q0 -145 140 -145q31 -2 61 -2q162 0 299 46v-241q-157 -63 -360 -63q-460 0 -460 405v320q0 405 460 405q203 0 360 -63zM697 -95l-104 -310h-271l155 310h220z" />
    <glyph glyph-name="egrave" unicode="&#xe8;" 
d="M1020 47q-209 -62 -430 -62q-490 0 -490 405v310q0 415 460 415t460 -415v-255h-600v-55q0 -145 170 -145q35 -2 69 -2q183 0 361 45v-241zM420 655h280v44q0 156 -137 156q-143 -5 -143 -156v-44zM469 1245l-155 310h271l104 -310h-220z" />
    <glyph glyph-name="eacute" unicode="&#xe9;" 
d="M1020 47q-209 -62 -430 -62q-490 0 -490 405v310q0 415 460 415t460 -415v-255h-600v-55q0 -145 170 -145q35 -2 69 -2q183 0 361 45v-241zM420 655h280v44q0 156 -137 156q-143 -5 -143 -156v-44zM431 1245l104 310h271l-155 -310h-220z" />
    <glyph glyph-name="ecircumflex" unicode="&#xea;" 
d="M1020 47q-209 -62 -430 -62q-490 0 -490 405v310q0 415 460 415t460 -415v-255h-600v-55q0 -145 170 -145q35 -2 69 -2q183 0 361 45v-241zM420 655h280v44q0 156 -137 156q-143 -5 -143 -156v-44zM938 1408l-98 -183l-278 150h-1q-30 -15 -62 -32.5t-64.5 -34.5
t-64 -33.5t-89.5 -49.5l-98 183l378 207z" />
    <glyph glyph-name="edieresis" unicode="&#xeb;" 
d="M1020 47q-209 -62 -430 -62q-490 0 -490 405v310q0 415 460 415t460 -415v-255h-600v-55q0 -145 170 -145q35 -2 69 -2q183 0 361 45v-241zM420 655h280v44q0 156 -137 156q-143 -5 -143 -156v-44zM495 1400q0 -63 -46 -109t-114 -46t-114 46t-46 109t46 109t114 46
t114 -46t46 -109zM945 1400q0 -63 -46 -109t-114 -46t-114 46t-46 109t46 109t114 46t114 -46t46 -109z" />
    <glyph glyph-name="igrave" unicode="&#xec;" horiz-adv-x="500" 
d="M423 1105v-1110h-320v1110h320zM172 1245l-155 310h271l104 -310h-220z" />
    <glyph glyph-name="iacute" unicode="&#xed;" horiz-adv-x="500" 
d="M420 1105v-1110h-320v1110h320zM131 1245l104 310h271l-155 -310h-220z" />
    <glyph glyph-name="icircumflex" unicode="&#xee;" horiz-adv-x="500" 
d="M422 1105v-1110h-320v1110h320zM639 1408l-98 -183l-278 150h-1q-30 -15 -62 -32.5t-64.5 -34.5t-64 -33.5t-89.5 -49.5l-98 183l378 207z" />
    <glyph glyph-name="idieresis" unicode="&#xef;" horiz-adv-x="500" 
d="M420 1105v-1110h-320v1110h320zM195 1400q0 -63 -46 -109t-114 -46t-114 46t-46 109t46 109t114 46t114 -46t46 -109zM645 1400q0 -63 -46 -109t-114 -46t-114 46t-46 109t46 109t114 46t114 -46t46 -109z" />
    <glyph glyph-name="eth" unicode="&#xf0;" horiz-adv-x="1220" 
d="M810 1000q0 234 -174 260l-38 -189l-197 44l29 142q-103 -11 -210 -46v241q118 47 262 58l29 147l197 -44l-21 -102q453 -35 453 -511v-500q0 -515 -510 -515h-4q-526 14 -526 525q0 342 215 444q109 52 237 52q121 0 258 -47v41zM636 245q174 3 174 255v209
q-96 54 -180 54q-48 0 -91 -17q-119 -47 -119 -230v-6q0 -250 216 -265z" />
    <glyph glyph-name="ntilde" unicode="&#xf1;" 
d="M700 -5v705q0 145 -120 145h-160v-850h-320v1100l460 10q460 0 460 -415v-695h-320zM401 1605q43 0 85.5 -18.5t84.5 -52.5q39 -29 71 -44t55 -15q80 0 89 131l176 -12q0 -319 -211 -319q-114 0 -203 65q-74 55 -123 55q-80 0 -90 -121l-176 12q0 319 242 319z" />
    <glyph glyph-name="ograve" unicode="&#xf2;" horiz-adv-x="1150" 
d="M590 875q-170 0 -170 -175v-300q0 -175 170 -175q160 0 160 175v300q0 175 -160 175zM1070 700v-300q0 -435 -480 -435q-490 0 -490 435v300q0 435 490 435q480 0 480 -435zM494 1245l-155 310h271l104 -310h-220z" />
    <glyph glyph-name="oacute" unicode="&#xf3;" horiz-adv-x="1150" 
d="M590 875q-170 0 -170 -175v-300q0 -175 170 -175q160 0 160 175v300q0 175 -160 175zM1070 700v-300q0 -435 -480 -435q-490 0 -490 435v300q0 435 490 435q480 0 480 -435zM456 1245l104 310h271l-155 -310h-220z" />
    <glyph glyph-name="ocircumflex" unicode="&#xf4;" horiz-adv-x="1150" 
d="M590 875q-170 0 -170 -175v-300q0 -175 170 -175q160 0 160 175v300q0 175 -160 175zM1070 700v-300q0 -435 -480 -435q-490 0 -490 435v300q0 435 490 435q480 0 480 -435zM963 1408l-98 -183l-278 150h-1q-30 -15 -62 -32.5t-64.5 -34.5t-64 -33.5t-89.5 -49.5l-98 183
l378 207z" />
    <glyph glyph-name="otilde" unicode="&#xf5;" horiz-adv-x="1150" 
d="M590 875q-170 0 -170 -175v-300q0 -175 170 -175q160 0 160 175v300q0 175 -160 175zM1070 700v-300q0 -435 -480 -435q-490 0 -490 435v300q0 435 490 435q480 0 480 -435zM426 1605q43 0 85.5 -18.5t84.5 -52.5q39 -29 71 -44t55 -15q80 0 89 131l176 -12
q0 -319 -211 -319q-114 0 -203 65q-74 55 -123 55q-80 0 -90 -121l-176 12q0 319 242 319z" />
    <glyph glyph-name="odieresis" unicode="&#xf6;" horiz-adv-x="1150" 
d="M590 875q-170 0 -170 -175v-300q0 -175 170 -175q160 0 160 175v300q0 175 -160 175zM1070 700v-300q0 -435 -480 -435q-490 0 -490 435v300q0 435 490 435q480 0 480 -435zM520 1400q0 -63 -46 -109t-114 -46t-114 46t-46 109t46 109t114 46t114 -46t46 -109zM970 1400
q0 -63 -46 -109t-114 -46t-114 46t-46 109t46 109t114 46t114 -46t46 -109z" />
    <glyph glyph-name="divide" unicode="&#xf7;" horiz-adv-x="1000" 
d="M920 805v-230h-820v230h820zM670 310q0 -63 -46 -109t-114 -46t-114 46t-46 109t46 109t114 46t114 -46t46 -109zM670 1110q0 -63 -46 -109t-114 -46t-114 46t-46 109t46 109t114 46t114 -46t46 -109z" />
    <glyph glyph-name="oslash" unicode="&#xf8;" horiz-adv-x="1150" 
d="M1070 400q0 -435 -480 -435h5l-56 -342l-220 33l56 337q-275 78 -275 407v300q0 426 462 434l59 363l220 -33l-59 -352q288 -73 288 -412v-300zM750 700q0 80 -18 102l-94 -573q112 16 112 171v300zM420 400q0 -66 8 -80l90 546q-98 -23 -98 -166v-300z" />
    <glyph glyph-name="ugrave" unicode="&#xf9;" 
d="M420 1105v-705q0 -145 120 -145h160v850h320v-1100l-460 -10q-460 0 -460 415v695h320zM469 1245l-155 310h271l104 -310h-220z" />
    <glyph glyph-name="uacute" unicode="&#xfa;" 
d="M420 1105v-705q0 -145 120 -145h160v850h320v-1100l-460 -10q-460 0 -460 415v695h320zM431 1245l104 310h271l-155 -310h-220z" />
    <glyph glyph-name="ucircumflex" unicode="&#xfb;" 
d="M420 1105v-705q0 -145 120 -145h160v850h320v-1100l-460 -10q-460 0 -460 415v695h320zM938 1408l-98 -183l-278 150h-1q-30 -15 -62 -32.5t-64.5 -34.5t-64 -33.5t-89.5 -49.5l-98 183l378 207z" />
    <glyph glyph-name="udieresis" unicode="&#xfc;" 
d="M420 1105v-705q0 -145 120 -145h160v850h320v-1100l-460 -10q-460 0 -460 415v695h320zM495 1400q0 -63 -46 -109t-114 -46t-114 46t-46 109t46 109t114 46t114 -46t46 -109zM945 1400q0 -63 -46 -109t-114 -46t-114 46t-46 109t46 109t114 46t114 -46t46 -109z" />
    <glyph glyph-name="yacute" unicode="&#xfd;" 
d="M1020 1105v-1105q0 -405 -460 -405q-28 -1 -56 -1q-171 0 -304 54v241q118 -39 255 -39q51 0 104 5q141 0 141 145v27q-72 -44 -193 -44q-23 0 -48 2q-359 10 -359 415v705h320v-705q0 -155 120 -155q88 0 160 27v833h320zM431 1245l104 310h271l-155 -310h-220z" />
    <glyph glyph-name="thorn" unicode="&#xfe;" 
d="M420 262q72 -27 160 -27q120 0 120 145v320q0 145 -120 145h-160v-583zM420 -315h-320v1720h320v-300h140q460 0 460 -415v-300q0 -415 -360 -415q-154 0 -240 52v-342z" />
    <glyph glyph-name="ydieresis" unicode="&#xff;" 
d="M1020 1105v-1105q0 -405 -460 -405q-28 -1 -56 -1q-171 0 -304 54v241q118 -39 255 -39q51 0 104 5q141 0 141 145v27q-72 -44 -193 -44q-23 0 -48 2q-359 10 -359 415v705h320v-705q0 -155 120 -155q88 0 160 27v833h320zM495 1400q0 -63 -46 -109t-114 -46t-114 46
t-46 109t46 109t114 46t114 -46t46 -109zM945 1400q0 -63 -46 -109t-114 -46t-114 46t-46 109t46 109t114 46t114 -46t46 -109z" />
    <glyph glyph-name="OE" unicode="&#x152;" horiz-adv-x="1825" 
d="M1725 1405v-260h-550v-320h450v-260h-450v-310h550v-260h-870v36q-81 -46 -225 -46q-530 0 -530 515v400q0 515 530 515q144 0 225 -47v37h870zM630 1155q-210 0 -210 -255v-400q0 -255 210 -255q220 0 220 255v400q0 255 -220 255z" />
    <glyph glyph-name="oe" unicode="&#x153;" horiz-adv-x="1773" 
d="M1680 47q-209 -62 -430 -62q-210 0 -323 70q-113 -90 -337 -90q-490 0 -490 435v300q0 435 490 435q221 0 334 -89q104 69 296 69q460 0 460 -415v-255h-600v-55q0 -145 170 -145q35 -2 69 -2q183 0 361 45v-241zM590 875q-170 0 -170 -175v-300q0 -175 170 -175
q160 0 160 175v300q0 175 -160 175zM1080 655h280v44q0 156 -137 156q-143 -5 -143 -156v-44z" />
    <glyph glyph-name="Scaron" unicode="&#x160;" horiz-adv-x="1150" 
d="M100 48v241q137 -46 335 -46q36 0 75 2q240 0 240 165q0 117 -315 212t-315 388q0 405 490 405q203 0 360 -63v-241q-137 46 -299 46q-30 0 -61 -2q-170 0 -170 -165q0 -88 315 -198t315 -402q0 -405 -560 -405q-253 0 -410 63zM586 1531l-378 207l98 183
q58 -33 89.5 -49.5t64 -33.5t64.5 -34.5t62 -32.5h1l278 150l98 -183z" />
    <glyph glyph-name="scaron" unicode="&#x161;" 
d="M100 289q163 -54 410 -64q190 0 190 95q0 87 -213 125q-367 82 -367 335q0 355 490 355q184 -10 340 -83v-241q-163 54 -340 64q-170 0 -170 -85q0 -77 194 -135q386 -82 386 -335q0 -355 -511 -355q-252 20 -409 83v241zM561 1231l-378 207l98 183q58 -33 89.5 -49.5
t64 -33.5t64.5 -34.5t62 -32.5h1l278 150l98 -183z" />
    <glyph glyph-name="Ydieresis" unicode="&#x178;" horiz-adv-x="1000" 
d="M310 1405l202 -529l202 529h360l-402 -855v-555h-320v555l-402 855h360zM447 1700q0 -63 -46 -109t-114 -46t-114 46t-46 109t46 109t114 46t114 -46t46 -109zM897 1700q0 -63 -46 -109t-114 -46t-114 46t-46 109t46 109t114 46t114 -46t46 -109z" />
    <glyph glyph-name="Zcaron" unicode="&#x17d;" 
d="M1020 1405v-255l-547 -895h547v-260h-920v255l547 895h-547v260h920zM561 1531l-378 207l98 183q58 -33 89.5 -49.5t64 -33.5t64.5 -34.5t62 -32.5h1l278 150l98 -183z" />
    <glyph glyph-name="zcaron" unicode="&#x17e;" horiz-adv-x="1000" 
d="M920 1105v-255l-446 -595h446v-260h-820v255l446 595h-446v260h820zM511 1231l-378 207l98 183q58 -33 89.5 -49.5t64 -33.5t64.5 -34.5t62 -32.5h1l278 150l98 -183z" />
    <glyph glyph-name="florin" unicode="&#x192;" horiz-adv-x="950" 
d="M130 -145q120 0 120 125v865h-150v260h150v95q0 355 360 355q153 0 260 -53v-229q-111 22 -180 22q-120 0 -120 -125v-65h300v-260h-300v-895q0 -355 -360 -355q-153 0 -260 53v229q111 -22 180 -22z" />
    <glyph glyph-name="circumflex" unicode="&#x2c6;" horiz-adv-x="933" 
d="M855 1408l-98 -183l-278 150h-1q-30 -15 -62 -32.5t-64.5 -34.5t-64 -33.5t-89.5 -49.5l-98 183l378 207z" />
    <glyph glyph-name="tilde" unicode="&#x2dc;" horiz-adv-x="983" 
d="M342 1605q43 0 85.5 -18.5t84.5 -52.5q39 -29 71 -44t55 -15q80 0 89 131l176 -12q0 -319 -211 -319q-114 0 -203 65q-74 55 -123 55q-80 0 -90 -121l-176 12q0 319 242 319z" />
    <glyph glyph-name="endash" unicode="&#x2013;" horiz-adv-x="800" 
d="M720 815v-230h-620v230h620z" />
    <glyph glyph-name="emdash" unicode="&#x2014;" horiz-adv-x="1000" 
d="M920 815v-230h-820v230h820z" />
    <glyph glyph-name="quoteleft" unicode="&#x2018;" horiz-adv-x="470" 
d="M350 1505q0 -205 40 -458l-186 -54q-104 207 -104 512h250z" />
    <glyph glyph-name="quoteright" unicode="&#x2019;" horiz-adv-x="470" 
d="M390 1505q0 -305 -104 -512l-186 54q40 253 40 458h250z" />
    <glyph glyph-name="quotesinglbase" unicode="&#x201a;" horiz-adv-x="470" 
d="M390 255q0 -305 -104 -512l-186 54q40 253 40 458h250z" />
    <glyph glyph-name="quotedblleft" unicode="&#x201c;" horiz-adv-x="824" 
d="M700 1505q0 -205 40 -458l-186 -54q-104 207 -104 512h250zM350 1505q0 -205 40 -458l-186 -54q-104 207 -104 512h250z" />
    <glyph glyph-name="quotedblright" unicode="&#x201d;" horiz-adv-x="824" 
d="M390 1505q0 -305 -104 -512l-186 54q40 253 40 458h250zM740 1505q0 -305 -104 -512l-186 54q40 253 40 458h250z" />
    <glyph glyph-name="quotedblbase" unicode="&#x201e;" horiz-adv-x="824" 
d="M390 255q0 -305 -104 -512l-186 54q40 253 40 458h250zM740 255q0 -305 -104 -512l-186 54q40 253 40 458h250z" />
    <glyph glyph-name="dagger" unicode="&#x2020;" 
d="M400 -205v1140h-300v250h300v420h320v-420h300v-250h-300v-1140h-320z" />
    <glyph glyph-name="daggerdbl" unicode="&#x2021;" 
d="M400 -205v420h-300v250h300v470h-300v250h300v420h320v-420h300v-250h-300v-470h300v-250h-300v-420h-320z" />
    <glyph glyph-name="bullet" unicode="&#x2022;" horiz-adv-x="600" 
d="M520 700q0 -84 -60.5 -144.5t-149.5 -60.5t-149.5 60.5t-60.5 144.5t60.5 144.5t149.5 60.5t149.5 -60.5t60.5 -144.5z" />
    <glyph glyph-name="ellipsis" unicode="&#x2026;" horiz-adv-x="1506" 
d="M420 150q0 -63 -46 -109t-114 -46t-114 46t-46 109t46 109t114 46t114 -46t46 -109zM923 150q0 -63 -46 -109t-114 -46t-114 46t-46 109t46 109t114 46t114 -46t46 -109zM1426 150q0 -63 -46 -109t-114 -46t-114 46t-46 109t46 109t114 46t114 -46t46 -109z" />
    <glyph glyph-name="perthousand" unicode="&#x2030;" horiz-adv-x="2548" 
d="M820 1050q0 -146 -104.5 -250.5t-255.5 -104.5t-255.5 104.5t-104.5 250.5t104.5 250.5t255.5 104.5t255.5 -104.5t104.5 -250.5zM460 1195q-56 0 -98 -42t-42 -103t42 -103t98 -42t98 42t42 103t-42 103t-98 42zM1720 350q0 -146 -104.5 -250.5t-255.5 -104.5
t-255.5 104.5t-104.5 250.5t104.5 250.5t255.5 104.5t255.5 -104.5t104.5 -250.5zM1360 495q-56 0 -98 -42t-42 -103t42 -103t98 -42t98 42t42 103t-42 103t-98 42zM397 -5l756 1410h270l-756 -1410h-270zM2470 350q0 -146 -104.5 -250.5t-255.5 -104.5t-255.5 104.5
t-104.5 250.5t104.5 250.5t255.5 104.5t255.5 -104.5t104.5 -250.5zM2110 495q-56 0 -98 -42t-42 -103t42 -103t98 -42t98 42t42 103t-42 103t-98 42z" />
    <glyph glyph-name="guilsinglleft" unicode="&#x2039;" horiz-adv-x="820" 
d="M100 700l333 505h310l-323 -505l323 -505h-310z" />
    <glyph glyph-name="guilsinglright" unicode="&#x203a;" horiz-adv-x="820" 
d="M410 195h-310l323 505l-323 505h310l333 -505z" />
    <glyph glyph-name="Euro" unicode="&#x20ac;" horiz-adv-x="1250" 
d="M770 1155q-167 0 -186 -190h436v-180h-440v-170h440v-180h-436q19 -190 186 -190q189 0 400 42v-239q-157 -63 -410 -63q-480 0 -508 450h-152v180h150v170h-150v180h152q28 450 508 450q253 0 410 -63v-241q-137 46 -327 46q-36 0 -73 -2z" />
    <glyph glyph-name="trademark" unicode="&#x2122;" horiz-adv-x="1362" 
d="M583 1401v-136h-162v-522h-159v522h-162v136h483zM657 742v661h210l102 -386l103 386h210v-661h-160v326l-88 -326h-134l-83 323v-323h-160z" />
  </font>
</defs>
</svg>
