<?xml version="1.0" standalone="no"?>
<!DOCTYPE svg PUBLIC "-//W3C//DTD SVG 1.1//EN" "http://www.w3.org/Graphics/SVG/1.1/DTD/svg11.dtd" >
<svg xmlns="http://www.w3.org/2000/svg" xmlns:xlink="http://www.w3.org/1999/xlink" version="1.1">
<metadata>
Created by FontForge 20170731 at Mon Sep 27 10:42:09 2021
 By Aleksey,,,
Copyright 2020 The Open Sans Project Authors (https://github.com/googlefonts/opensans)
</metadata>
<defs>
<font id="OpenSans-Regular" horiz-adv-x="1138" >
  <font-face 
    font-family="Open Sans"
    font-weight="400"
    font-stretch="normal"
    units-per-em="2048"
    panose-1="0 0 0 0 0 0 0 0 0 0"
    ascent="1638"
    descent="-410"
    x-height="1096"
    cap-height="1462"
    bbox="-1124 -493 1861 2146"
    underline-thickness="50"
    underline-position="-175"
    unicode-range="U+0020-20AB"
  />
<missing-glyph horiz-adv-x="1229" 
 />
    <glyph glyph-name="f_f" unicode="ff" horiz-adv-x="1378" 
d="M663 966h-273v-966h-166v966h-194v80l194 55v73q0 138 41 224.5t119 127.5t190 41q63 0 115.5 -11t92.5 -25l-43 -131q-34 11 -76.5 20.5t-86.5 9.5q-95 0 -140.5 -61.5t-45.5 -192.5v-80h273v-130zM1352 966h-273v-966h-166v966h-194v80l194 55v73q0 138 41 224.5
t119 127.5t190 41q63 0 115.5 -11t92.5 -25l-43 -131q-34 11 -76.5 20.5t-86.5 9.5q-95 0 -140.5 -61.5t-45.5 -192.5v-80h273v-130z" />
    <glyph glyph-name="fi" unicode="fi" horiz-adv-x="1206" 
d="M663 966h-273v-966h-166v966h-194v80l194 55v73q0 138 41 224.5t119 127.5t190 41q63 0 115.5 -11t92.5 -25l-43 -131q-34 11 -76.5 20.5t-86.5 9.5q-95 0 -140.5 -61.5t-45.5 -192.5v-80h273v-130zM1030 1096v-1096h-166v1096h166zM949 1506q41 0 70.5 -26.5t29.5 -82.5
q0 -55 -29.5 -82t-70.5 -27q-43 0 -71.5 27t-28.5 82q0 56 28.5 82.5t71.5 26.5z" />
    <glyph glyph-name="fl" unicode="fl" horiz-adv-x="1206" 
d="M663 966h-273v-966h-166v966h-194v80l194 55v73q0 138 41 224.5t119 127.5t190 41q63 0 115.5 -11t92.5 -25l-43 -131q-34 11 -76.5 20.5t-86.5 9.5q-95 0 -140.5 -61.5t-45.5 -192.5v-80h273v-130zM1031 0h-167v1556h167v-1556z" />
    <glyph glyph-name="f_f_i" unicode="ffi" horiz-adv-x="1894" 
d="M663 966h-273v-966h-166v966h-194v80l194 55v73q0 138 41 224.5t119 127.5t190 41q63 0 115.5 -11t92.5 -25l-43 -131q-34 11 -76.5 20.5t-86.5 9.5q-95 0 -140.5 -61.5t-45.5 -192.5v-80h273v-130zM1352 966h-273v-966h-166v966h-194v80l194 55v73q0 138 41 224.5
t119 127.5t190 41q63 0 115.5 -11t92.5 -25l-43 -131q-34 11 -76.5 20.5t-86.5 9.5q-95 0 -140.5 -61.5t-45.5 -192.5v-80h273v-130zM1719 1096v-1096h-166v1096h166zM1638 1506q41 0 70.5 -26.5t29.5 -82.5q0 -55 -29.5 -82t-70.5 -27q-43 0 -71.5 27t-28.5 82
q0 56 28.5 82.5t71.5 26.5z" />
    <glyph glyph-name="f_f_l" unicode="ffl" horiz-adv-x="1894" 
d="M663 966h-273v-966h-166v966h-194v80l194 55v73q0 138 41 224.5t119 127.5t190 41q63 0 115.5 -11t92.5 -25l-43 -131q-34 11 -76.5 20.5t-86.5 9.5q-95 0 -140.5 -61.5t-45.5 -192.5v-80h273v-130zM1352 966h-273v-966h-166v966h-194v80l194 55v73q0 138 41 224.5
t119 127.5t190 41q63 0 115.5 -11t92.5 -25l-43 -131q-34 11 -76.5 20.5t-86.5 9.5q-95 0 -140.5 -61.5t-45.5 -192.5v-80h273v-130zM1720 0h-167v1556h167v-1556z" />
    <glyph glyph-name=".notdef" horiz-adv-x="1229" 
 />
    <glyph glyph-name=".null" horiz-adv-x="0" 
 />
    <glyph glyph-name="nonmarkingreturn" horiz-adv-x="682" 
 />
    <glyph glyph-name="NULL" horiz-adv-x="0" 
 />
    <glyph glyph-name="space" unicode=" " horiz-adv-x="532" 
 />
    <glyph glyph-name="zero" unicode="0" horiz-adv-x="1171" 
d="M1067 733q0 -178 -27 -318t-85 -237t-150 -147.5t-221 -50.5q-163 0 -269.5 89t-159 257.5t-52.5 406.5q0 234 47.5 402.5t153.5 259t280 90.5q165 0 272 -89.5t159 -258t52 -404.5zM270 733q0 -204 31 -340t100.5 -203.5t182.5 -67.5t182.5 67t101 203t31.5 341
q0 201 -31 336.5t-100 204t-184 68.5t-184 -68.5t-99.5 -204t-30.5 -336.5z" />
    <glyph glyph-name="one" unicode="1" horiz-adv-x="1171" 
d="M719 0h-162v1036q0 59 0.5 101.5t2 78t4.5 72.5q-31 -32 -58 -54.5t-67 -55.5l-167 -134l-87 113l396 305h138v-1462z" />
    <glyph glyph-name="two" unicode="2" horiz-adv-x="1171" 
d="M1059 0h-958v139l391 397q109 110 183.5 196t113.5 169.5t39 183.5q0 124 -73.5 189.5t-193.5 65.5q-105 0 -186 -36t-166 -102l-89 112q58 49 126.5 87t147 60t167.5 22q135 0 233 -47t151.5 -134t53.5 -207q0 -116 -46 -215.5t-129 -197t-194 -206.5l-318 -317v-7h747
v-152z" />
    <glyph glyph-name="three" unicode="3" horiz-adv-x="1171" 
d="M1005 1121q0 -98 -38 -170t-106 -117.5t-160 -63.5v-8q174 -22 261.5 -112t87.5 -236q0 -127 -59.5 -225t-182 -153.5t-313.5 -55.5q-116 0 -214.5 18.5t-188.5 61.5v156q91 -45 198 -70.5t207 -25.5q200 0 289 79.5t89 217.5q0 95 -49.5 153.5t-142 86t-222.5 27.5h-146
v142h147q119 0 202 35t126.5 98.5t43.5 150.5q0 111 -74 171.5t-201 60.5q-78 0 -142 -16t-120 -44t-112 -65l-84 114q80 62 195 107t261 45q224 0 336 -102t112 -260z" />
    <glyph glyph-name="four" unicode="4" horiz-adv-x="1171" 
d="M1132 339h-219v-339h-162v339h-707v140l696 991h173v-981h219v-150zM751 489v478q0 55 1 99.5t3 83t3.5 73.5t2.5 69h-8q-19 -40 -43.5 -84.5t-49.5 -79.5l-451 -639h542z" />
    <glyph glyph-name="five" unicode="5" horiz-adv-x="1171" 
d="M563 894q149 0 259 -50.5t170.5 -146.5t60.5 -233q0 -150 -65 -258.5t-187 -167t-292 -58.5q-114 0 -212 20t-165 60v158q73 -44 177 -70t202 -26q111 0 194.5 35.5t130 108t46.5 182.5q0 146 -89.5 225.5t-282.5 79.5q-62 0 -136 -10t-122 -22l-84 55l56 686h727v-152
h-585l-37 -441q38 8 98 16.5t136 8.5z" />
    <glyph glyph-name="six" unicode="6" horiz-adv-x="1171" 
d="M116 625q0 132 18.5 258t62.5 234.5t120 190.5t189.5 128.5t272.5 46.5q45 0 97 -4.5t86 -14.5v-143q-37 13 -84.5 19t-95.5 6q-186 0 -292.5 -81t-153.5 -219.5t-54 -311.5h11q31 50 79 90.5t116.5 64.5t159.5 24q128 0 223.5 -52t148 -151t52.5 -240q0 -151 -56 -261
t-159.5 -169.5t-246.5 -59.5q-107 0 -197 41t-156.5 122t-103.5 201.5t-37 280.5zM608 120q136 0 218 87t82 263q0 144 -73 228t-220 84q-100 0 -174 -41.5t-115 -104.5t-41 -128q0 -66 19.5 -134t59.5 -126t101 -93t143 -35z" />
    <glyph glyph-name="seven" unicode="7" horiz-adv-x="1171" 
d="M290 0l600 1310h-797v152h975v-128l-596 -1334h-182z" />
    <glyph glyph-name="eight" unicode="8" horiz-adv-x="1171" 
d="M584 1483q127 0 225 -40t153.5 -117.5t55.5 -190.5q0 -89 -38.5 -155.5t-103.5 -116t-144 -88.5q94 -43 169.5 -97t119.5 -127t44 -173q0 -123 -59.5 -212.5t-166.5 -137.5t-251 -48q-155 0 -263.5 46.5t-165 134t-56.5 210.5q0 101 43 175.5t114 128.5t155 91
q-73 40 -133.5 91t-96 119.5t-35.5 159.5q0 111 56.5 188.5t155 118t222.5 40.5zM266 370q0 -112 79 -184.5t239 -72.5q152 0 235 72.5t83 190.5q0 73 -38 128.5t-108 99.5t-165 80l-36 13q-92 -38 -156.5 -84.5t-98.5 -105.5t-34 -137zM582 1347q-118 0 -193 -56.5
t-75 -162.5q0 -76 36.5 -128.5t99.5 -90t141 -69.5q76 32 135 70.5t93 91.5t34 127q0 106 -74.5 162t-196.5 56z" />
    <glyph glyph-name="nine" unicode="9" horiz-adv-x="1171" 
d="M1061 839q0 -133 -18.5 -259t-63 -235t-120.5 -191t-190.5 -128.5t-273.5 -46.5q-43 0 -98 5.5t-90 15.5v144q37 -13 87 -20.5t98 -7.5q187 0 294 80.5t154 219t53 311.5h-12q-30 -48 -78.5 -88.5t-117.5 -65t-161 -24.5q-127 0 -221.5 52t-147 151t-52.5 239
q0 151 57.5 261.5t161.5 170.5t245 60q108 0 198 -41t156.5 -122.5t103 -201.5t36.5 -279zM567 1342q-133 0 -215.5 -87t-82.5 -262q0 -145 71 -229t219 -84q102 0 176.5 41t115 104t40.5 129t-19.5 134t-59.5 125.5t-101 93t-144 35.5z" />
    <glyph glyph-name="A" unicode="A" horiz-adv-x="1295" 
d="M1117 0l-180 464h-586l-179 -464h-172l572 1468h153l568 -1468h-176zM886 615l-171 461q-6 18 -19.5 59t-27.5 85t-23 71q-10 -41 -21.5 -81.5t-22.5 -75t-19 -58.5l-174 -461h478z" />
    <glyph glyph-name="B" unicode="B" horiz-adv-x="1323" 
d="M200 1462h414q274 0 412 -82t138 -279q0 -85 -32.5 -152.5t-94.5 -111.5t-153 -61v-10q96 -15 170 -55t116 -112t42 -183q0 -135 -62.5 -228t-176.5 -140.5t-270 -47.5h-503v1462zM370 835h280q191 0 264.5 63t73.5 184q0 125 -87.5 180t-278.5 55h-252v-482zM370 692
v-547h304q195 0 276 76.5t81 206.5q0 83 -36.5 142t-118 90.5t-217.5 31.5h-289z" />
    <glyph glyph-name="C" unicode="C" horiz-adv-x="1290" 
d="M825 1333q-121 0 -217.5 -41.5t-164 -120t-103.5 -189.5t-36 -250q0 -184 57.5 -319.5t172 -209.5t286.5 -74q98 0 184.5 16.5t168.5 41.5v-148q-80 -30 -168 -44.5t-209 -14.5q-223 0 -372.5 92.5t-224 261.5t-74.5 399q0 166 46.5 303.5t136 237.5t220 154.5
t299.5 54.5q111 0 214 -22t186 -63l-68 -144q-70 32 -153.5 55.5t-180.5 23.5z" />
    <glyph glyph-name="D" unicode="D" horiz-adv-x="1486" 
d="M1361 745q0 -247 -90 -412.5t-260.5 -249t-413.5 -83.5h-397v1462h441q223 0 384 -81.5t248.5 -241t87.5 -394.5zM1182 739q0 197 -65.5 325t-192 190.5t-309.5 62.5h-245v-1171h207q302 0 453.5 149t151.5 444z" />
    <glyph glyph-name="E" unicode="E" 
d="M1014 0h-814v1462h814v-150h-644v-473h607v-148h-607v-541h644v-150z" />
    <glyph glyph-name="F" unicode="F" horiz-adv-x="1057" 
d="M370 0h-170v1462h814v-150h-644v-536h605v-149h-605v-627z" />
    <glyph glyph-name="G" unicode="G" horiz-adv-x="1489" 
d="M825 766h511v-709q-115 -39 -236.5 -58t-271.5 -19q-228 0 -384.5 91t-237.5 259.5t-81 400.5q0 227 89.5 396t259 262.5t407.5 93.5q122 0 231.5 -22.5t203.5 -63.5l-65 -148q-81 35 -178.5 60t-201.5 25q-179 0 -306.5 -74t-195 -209t-67.5 -320q0 -183 59 -318.5
t184 -210.5t322 -75q99 0 170 11.5t129 27.5v448h-341v152z" />
    <glyph glyph-name="H" unicode="H" horiz-adv-x="1510" 
d="M1308 0h-170v689h-768v-689h-170v1462h170v-623h768v623h170v-1462z" />
    <glyph glyph-name="I" unicode="I" horiz-adv-x="572" 
d="M200 0v1462h170v-1462h-170z" />
    <glyph glyph-name="J" unicode="J" horiz-adv-x="550" 
d="M-11 -385q-50 0 -88 7t-65 19v145q32 -10 69 -15.5t80 -5.5q56 0 103 22t75 75t28 146v1454h171v-1441q0 -137 -45.5 -227t-129 -134.5t-198.5 -44.5z" />
    <glyph glyph-name="K" unicode="K" horiz-adv-x="1254" 
d="M1254 0h-201l-527 711l-156 -140v-571h-170v1462h170v-729q57 65 117 129.5t119 130.5l427 469h199l-582 -634z" />
    <glyph glyph-name="L" unicode="L" horiz-adv-x="1069" 
d="M200 0v1462h170v-1310h649v-152h-819z" />
    <glyph glyph-name="M" unicode="M" horiz-adv-x="1842" 
d="M843 0l-491 1294h-8q4 -41 7 -100t5 -128.5t2 -141.5v-924h-158v1462h252l463 -1216h7l470 1216h250v-1462h-168v936q0 65 2 130.5t5 124t6 101.5h-8l-497 -1292h-139z" />
    <glyph glyph-name="N" unicode="N" horiz-adv-x="1542" 
d="M1343 0h-196l-797 1228h-8q3 -49 7 -111.5t6.5 -133t2.5 -143.5v-840h-158v1462h195l794 -1224h7q-2 35 -5 99.5t-5.5 139t-2.5 138.5v847h160v-1462z" />
    <glyph glyph-name="O" unicode="O" horiz-adv-x="1593" 
d="M1468 733q0 -169 -43 -307.5t-127.5 -238t-209.5 -153.5t-290 -54q-170 0 -296.5 54t-210 154t-125 239t-41.5 308q0 224 74 393t224.5 263t377.5 94q217 0 365.5 -93t225 -261.5t76.5 -397.5zM304 733q0 -186 53 -322t162.5 -210t278.5 -74q170 0 278.5 74t160.5 210
t52 322q0 283 -118.5 442.5t-369.5 159.5q-170 0 -280 -73t-163.5 -207.5t-53.5 -321.5z" />
    <glyph glyph-name="P" unicode="P" horiz-adv-x="1232" 
d="M582 1462q283 0 413.5 -110.5t130.5 -316.5q0 -93 -30.5 -176.5t-98.5 -147t-178.5 -100t-270.5 -36.5h-178v-575h-170v1462h382zM566 1317h-196v-596h159q140 0 233.5 30t140.5 97.5t47 179.5q0 146 -93 217.5t-291 71.5z" />
    <glyph glyph-name="Q" unicode="Q" horiz-adv-x="1593" 
d="M1468 733q0 -180 -49 -326t-145.5 -247t-240.5 -147l344 -361h-243l-283 330q-13 0 -26.5 -1t-26.5 -1q-170 0 -296.5 54t-210 154t-125 239t-41.5 308q0 224 74 393t224.5 263t377.5 94q217 0 365.5 -93t225 -261.5t76.5 -397.5zM304 733q0 -186 53 -322t162.5 -210
t278.5 -74q170 0 278.5 74t160.5 210t52 322q0 283 -118.5 442.5t-369.5 159.5q-170 0 -280 -73t-163.5 -207.5t-53.5 -321.5z" />
    <glyph glyph-name="R" unicode="R" horiz-adv-x="1264" 
d="M595 1462q180 0 297.5 -44.5t175.5 -135.5t58 -232q0 -116 -42 -193.5t-110 -125.5t-145 -74l401 -657h-198l-358 610h-304v-610h-170v1462h395zM585 1315h-215v-561h232q179 0 263.5 73t84.5 215q0 149 -89.5 211t-275.5 62z" />
    <glyph glyph-name="S" unicode="S" horiz-adv-x="1123" 
d="M1025 389q0 -130 -64.5 -221.5t-180.5 -139.5t-273 -48q-83 0 -157 8t-136 23t-109 37v163q75 -31 183 -57.5t226 -26.5q110 0 186 29.5t115.5 85t39.5 133.5q0 75 -33 125.5t-109.5 92t-208.5 88.5q-93 33 -164 72.5t-119 89.5t-72.5 116t-24.5 151q0 117 59.5 200.5
t165 128t242.5 44.5q117 0 216.5 -22t182.5 -59l-53 -146q-79 33 -167.5 55t-182.5 22t-158.5 -27.5t-98.5 -77.5t-34 -119q0 -77 32.5 -128t104 -90.5t189.5 -82.5q129 -47 219 -99.5t137 -128t47 -191.5z" />
    <glyph glyph-name="T" unicode="T" horiz-adv-x="1128" 
d="M649 0h-171v1312h-460v150h1089v-150h-458v-1312z" />
    <glyph glyph-name="U" unicode="U" horiz-adv-x="1493" 
d="M1306 1462v-946q0 -155 -62.5 -276t-188.5 -190.5t-316 -69.5q-271 0 -412.5 147t-141.5 393v942h171v-947q0 -186 98.5 -287t294.5 -101q134 0 219.5 48.5t127 136t41.5 202.5v948h169z" />
    <glyph glyph-name="V" unicode="V" horiz-adv-x="1221" 
d="M1221 1462l-525 -1462h-171l-525 1462h178l342 -963q21 -58 37.5 -111t29.5 -102t23 -95q10 46 23 95.5t30 103t38 112.5l340 960h180z" />
    <glyph glyph-name="W" unicode="W" horiz-adv-x="1891" 
d="M1861 1462l-391 -1462h-171l-290 984q-13 42 -24.5 84.5t-21.5 81t-16.5 68t-9.5 44.5q-2 -15 -7.5 -44t-14 -67t-20 -81t-24.5 -87l-282 -983h-171l-388 1462h177l235 -917q12 -46 22.5 -90.5t19 -86.5t15.5 -82t13 -78q5 39 13 81.5t17.5 86.5t21 89t24.5 90l263 907
h175l274 -914q14 -47 26 -93t21.5 -89.5t17 -83t13.5 -74.5q7 49 17 103t23.5 113t29.5 122l235 916h178z" />
    <glyph glyph-name="X" unicode="X" horiz-adv-x="1183" 
d="M1176 0h-193l-395 644l-401 -644h-181l487 762l-453 700h189l365 -583l367 583h180l-452 -697z" />
    <glyph glyph-name="Y" unicode="Y" horiz-adv-x="1145" 
d="M573 729l389 733h183l-487 -895v-567h-170v559l-488 903h186z" />
    <glyph glyph-name="Z" unicode="Z" horiz-adv-x="1172" 
d="M1093 0h-1015v128l787 1182h-760v152h967v-128l-788 -1182h809v-152z" />
    <glyph glyph-name="underscore" horiz-adv-x="897" 
d="M901 -307h-905v123h905v-123z" />
    <glyph glyph-name="grave" horiz-adv-x="568" 
d="M280 1569q24 -46 59.5 -102.5t75 -110t72.5 -91.5v-24h-113q-36 29 -78.5 69t-84.5 84.5t-76 85t-53 69.5v20h198z" />
    <glyph glyph-name="a" unicode="a" 
d="M585 1114q196 0 291 -88t95 -281v-745h-121l-32 162h-8q-46 -60 -96 -100.5t-115.5 -61t-160.5 -20.5q-100 0 -177.5 35t-122 106t-44.5 180q0 164 130 252t396 96l189 8v67q0 142 -61 199t-172 57q-86 0 -164 -25t-148 -59l-51 126q74 38 170 65t202 27zM807 540
l-167 -7q-205 -8 -289 -67t-84 -167q0 -94 57 -139t151 -45q146 0 239 81t93 243v101z" />
    <glyph glyph-name="b" unicode="b" horiz-adv-x="1253" 
d="M341 1556v-389q0 -67 -3.5 -130t-5.5 -98h9q45 74 130 125t217 51q206 0 328.5 -142.5t122.5 -423.5q0 -185 -56 -312t-158 -192t-241 -65q-130 0 -213.5 48.5t-128.5 118.5h-13l-34 -147h-120v1556h166zM661 976q-119 0 -189 -46.5t-100.5 -140t-30.5 -236.5v-9
q0 -207 69 -316.5t251 -109.5q153 0 229.5 112t76.5 320q0 212 -75.5 319t-230.5 107z" />
    <glyph glyph-name="c" unicode="c" horiz-adv-x="981" 
d="M614 -20q-148 0 -261 61t-176 186t-63 315q0 199 66.5 325.5t183.5 187.5t266 61q82 0 158.5 -16.5t125.5 -41.5l-50 -139q-50 20 -115.5 36t-122.5 16q-114 0 -189.5 -49t-113 -144t-37.5 -234q0 -133 36.5 -227t109 -143.5t181.5 -49.5q87 0 157 18.5t127 43.5v-148
q-55 -28 -122.5 -43t-160.5 -15z" />
    <glyph glyph-name="d" unicode="d" horiz-adv-x="1253" 
d="M565 -20q-208 0 -329.5 142t-121.5 422q0 283 124 427.5t330 144.5q87 0 152 -23t112 -61.5t79 -87.5h12q-4 31 -8 85t-4 88v439h166v-1556h-134l-25 156h-7q-31 -49 -78.5 -89t-113 -63.5t-154.5 -23.5zM591 118q176 0 249 100t73 297v30q0 209 -69.5 321t-252.5 112
q-153 0 -229 -117.5t-76 -320.5q0 -202 75.5 -312t229.5 -110z" />
    <glyph glyph-name="e" unicode="e" horiz-adv-x="1150" 
d="M597 1116q140 0 240 -62t153 -173.5t53 -260.5v-103h-757q3 -193 96 -294t262 -101q104 0 184 19t166 56v-146q-83 -37 -164.5 -54t-192.5 -17q-158 0 -275.5 64.5t-182.5 189.5t-65 306q0 177 59.5 306.5t168 199.5t255.5 70zM595 980q-133 0 -212 -87t-94 -243h580
q-1 98 -30.5 172.5t-89.5 116t-154 41.5z" />
    <glyph glyph-name="f" unicode="f" horiz-adv-x="689" 
d="M663 966h-273v-966h-166v966h-194v80l194 55v73q0 138 41 224.5t119 127.5t190 41q63 0 115.5 -11t92.5 -25l-43 -131q-34 11 -76.5 20.5t-86.5 9.5q-95 0 -140.5 -61.5t-45.5 -192.5v-80h273v-130z" />
    <glyph glyph-name="g" unicode="g" horiz-adv-x="1112" 
d="M481 -492q-216 0 -333 80.5t-117 225.5q0 103 65.5 176t181.5 97q-43 20 -73.5 60t-30.5 92q0 60 33.5 105.5t102.5 87.5q-86 35 -139.5 118.5t-53.5 194.5q0 118 49 201.5t142 127.5t225 44q29 0 58.5 -2.5t56.5 -7t47 -10.5h376v-107l-202 -25q30 -39 50 -94t20 -122
q0 -164 -111 -260.5t-305 -96.5q-46 0 -94 8q-49 -27 -74.5 -60t-25.5 -76q0 -32 19.5 -51t56.5 -27.5t89 -8.5h193q179 0 274.5 -75t95.5 -219q0 -182 -148 -279t-428 -97zM486 -362q136 0 225.5 27.5t134 79t44.5 122.5q0 66 -30 99.5t-88 45t-142 11.5h-190
q-74 0 -129 -23t-84.5 -68t-29.5 -112q0 -89 75 -135.5t214 -46.5zM529 514q119 0 179 60t60 175q0 123 -61 184.5t-180 61.5q-114 0 -175.5 -63.5t-61.5 -185.5q0 -112 62 -172t177 -60z" />
    <glyph glyph-name="h" unicode="h" horiz-adv-x="1256" 
d="M341 1556v-465q0 -40 -2 -80.5t-7 -74.5h11q34 58 86.5 97.5t119.5 60t142 20.5q132 0 220.5 -42t133 -130t44.5 -228v-714h-164v703q0 137 -62.5 205t-191.5 68q-122 0 -194.5 -46.5t-104 -136.5t-31.5 -220v-573h-166v1556h166z" />
    <glyph glyph-name="i" unicode="i" horiz-adv-x="517" 
d="M341 1096v-1096h-166v1096h166zM260 1506q41 0 70.5 -26.5t29.5 -82.5q0 -55 -29.5 -82t-70.5 -27q-43 0 -71.5 27t-28.5 82q0 56 28.5 82.5t71.5 26.5z" />
    <glyph glyph-name="j" unicode="j" horiz-adv-x="517" 
d="M43 -492q-51 0 -89 7.5t-66 17.5v135q31 -10 63 -15.5t72 -5.5q68 0 110 38t42 138v1273h166v-1269q0 -100 -32 -171.5t-98 -109.5t-168 -38zM160 1397q0 56 28.5 82.5t71.5 26.5q41 0 70.5 -26.5t29.5 -82.5q0 -55 -29.5 -82t-70.5 -27q-43 0 -71.5 27t-28.5 82z" />
    <glyph glyph-name="k" unicode="k" horiz-adv-x="1076" 
d="M340 1556v-808q0 -40 -3 -97.5t-5 -101.5h7q21 26 61.5 77t68.5 82l364 388h195l-441 -468l473 -628h-200l-387 519l-133 -122v-397h-165v1556h165z" />
    <glyph glyph-name="l" unicode="l" horiz-adv-x="517" 
d="M342 0h-167v1556h167v-1556z" />
    <glyph glyph-name="m" unicode="m" horiz-adv-x="1896" 
d="M1365 1116q181 0 273 -94.5t92 -303.5v-718h-164v710q0 133 -57.5 199.5t-170.5 66.5q-159 0 -231 -92t-72 -271v-613h-165v710q0 89 -25.5 148t-76 88.5t-127.5 29.5q-109 0 -175 -45t-95.5 -133.5t-29.5 -217.5v-580h-166v1096h134l25 -155h9q33 57 83 96t112 59
t132 20q125 0 209.5 -46.5t122.5 -141.5h9q54 95 148 141.5t206 46.5z" />
    <glyph glyph-name="n" unicode="n" horiz-adv-x="1256" 
d="M694 1116q195 0 295 -95.5t100 -306.5v-714h-164v703q0 137 -62.5 205t-191.5 68q-182 0 -256 -103t-74 -299v-574h-166v1096h134l25 -158h9q35 58 89 97.5t121 60t141 20.5z" />
    <glyph glyph-name="o" unicode="o" horiz-adv-x="1232" 
d="M1120 550q0 -135 -35 -241t-101 -179t-159.5 -111.5t-211.5 -38.5q-110 0 -201.5 38.5t-158 111.5t-103 179t-36.5 241q0 180 61 306.5t174.5 193t270.5 66.5q150 0 262.5 -67t175 -193.5t62.5 -305.5zM286 550q0 -132 35 -229t108 -150t188 -53q114 0 187.5 53
t108.5 150t35 229q0 131 -35 226.5t-108 147.5t-189 52q-171 0 -250.5 -113t-79.5 -313z" />
    <glyph glyph-name="p" unicode="p" horiz-adv-x="1253" 
d="M690 1116q205 0 327 -141t122 -424q0 -187 -56 -314t-157.5 -192t-239.5 -65q-87 0 -153 23t-113 62t-78 85h-12q3 -39 7.5 -94t4.5 -96v-450h-167v1586h137l22 -162h8q32 50 78 91.5t112.5 66t157.5 24.5zM661 976q-114 0 -183.5 -44t-101.5 -131.5t-34 -219.5v-32
q0 -139 30.5 -235t101 -146t189.5 -50q102 0 170 55t101.5 153.5t33.5 226.5q0 194 -75.5 308.5t-231.5 114.5z" />
    <glyph glyph-name="q" unicode="q" horiz-adv-x="1253" 
d="M910 -490v470q0 39 2 90t7 88h-11q-46 -76 -131 -127t-219 -51q-201 0 -323 142t-122 424q0 185 56 312t158.5 192.5t239.5 65.5q131 0 214 -51.5t130 -125.5h8l25 157h132v-1586h-166zM589 118q116 0 186 43.5t102.5 131.5t34.5 219v35q0 212 -72 321.5t-251 109.5
q-154 0 -229 -117.5t-75 -318.5t75 -312.5t229 -111.5z" />
    <glyph glyph-name="r" unicode="r" horiz-adv-x="837" 
d="M673 1116q33 0 69 -3.5t64 -9.5l-21 -154q-27 7 -60 11t-62 4q-66 0 -124.5 -26.5t-102.5 -76t-69 -119t-25 -154.5v-588h-167v1096h138l18 -202h7q34 61 82 111.5t111.5 80.5t141.5 30z" />
    <glyph glyph-name="s" unicode="s" horiz-adv-x="976" 
d="M884 300q0 -105 -52.5 -176.5t-150 -107.5t-232.5 -36q-115 0 -199 18t-147 51v153q67 -33 160 -60t190 -27q142 0 206 46t64 125q0 45 -25.5 79.5t-85.5 67t-166 71.5q-105 40 -181.5 79.5t-118 96.5t-41.5 148q0 139 112.5 213.5t295.5 74.5q99 0 185.5 -19.5
t161.5 -52.5l-56 -133q-68 29 -145 49t-157 20q-115 0 -176.5 -38t-61.5 -104q0 -51 28.5 -84t91.5 -62t166 -68q103 -38 178 -78.5t115.5 -98t40.5 -147.5z" />
    <glyph glyph-name="t" unicode="t" horiz-adv-x="730" 
d="M529 116q41 0 84 7t70 17v-129q-29 -13 -80.5 -22t-100.5 -9q-87 0 -158 30.5t-113.5 103.5t-42.5 202v650h-156v81l157 65l66 238h100v-254h321v-130h-321v-645q0 -103 47.5 -154t126.5 -51z" />
    <glyph glyph-name="u" unicode="u" horiz-adv-x="1256" 
d="M1080 1096v-1096h-136l-24 154h-9q-34 -57 -88 -96t-121.5 -58.5t-143.5 -19.5q-130 0 -218 42t-132.5 130t-44.5 226v718h168v-706q0 -137 62 -204.5t189 -67.5q122 0 194.5 46t104.5 135.5t32 219.5v577h167z" />
    <glyph glyph-name="v" unicode="v" horiz-adv-x="1023" 
d="M416 0l-416 1096h178l241 -663q25 -68 51 -150t36 -132h7q12 50 40 132.5t51 149.5l241 663h178l-417 -1096h-190z" />
    <glyph glyph-name="w" unicode="w" horiz-adv-x="1587" 
d="M1067 2l-195 638q-13 41 -24.5 80.5t-21 76t-17 68t-12.5 54.5h-7q-4 -23 -11 -54.5t-16.5 -68.5t-20.5 -77.5t-25 -81.5l-204 -635h-187l-302 1096h172l158 -605q16 -60 30.5 -118.5t25 -110t15.5 -89.5h8q6 25 13.5 60t17 74.5t20.5 79t22 74.5l202 635h179l195 -634
q15 -48 29.5 -100t26.5 -100.5t17 -86.5h8q4 34 15 84t25.5 110t30.5 122l160 605h169l-303 -1096h-193z" />
    <glyph glyph-name="x" unicode="x" horiz-adv-x="1072" 
d="M436 561l-379 535h190l289 -422l288 422h188l-379 -535l400 -561h-190l-307 447l-309 -447h-188z" />
    <glyph glyph-name="y" unicode="y" horiz-adv-x="1026" 
d="M2 1096h178l242 -636q21 -56 39 -107.5t32 -98.5t22 -91h7q14 50 40 131.5t56 166.5l229 635h179l-477 -1257q-38 -101 -88.5 -176t-122.5 -115.5t-174 -40.5q-47 0 -83 5.5t-62 12.5v133q22 -5 53.5 -9t65.5 -4q62 0 107.5 23.5t78.5 68.5t57 107l60 154z" />
    <glyph glyph-name="z" unicode="z" horiz-adv-x="960" 
d="M879 0h-799v110l601 856h-563v130h748v-123l-593 -844h606v-129z" />
    <glyph glyph-name="uni00B2" horiz-adv-x="712" 
d="M627 852h-577v104l237 232q82 80 126 131t60.5 92t16.5 88q0 66 -39 101.5t-105 35.5q-61 0 -112.5 -23.5t-104.5 -64.5l-67 89q60 50 130 80t156 30q130 0 204 -64.5t74 -176.5q0 -68 -27.5 -125t-81 -115t-130.5 -131l-170 -164h410v-119z" />
    <glyph glyph-name="uni00B3" horiz-adv-x="712" 
d="M339 1747q143 0 216 -63t73 -161q0 -84 -44.5 -137t-106.5 -72v-6q81 -16 128.5 -68.5t47.5 -135.5q0 -119 -85.5 -193t-263.5 -74q-75 0 -140.5 13t-126.5 43v121q68 -32 137 -50t131 -18q108 0 159.5 43.5t51.5 118.5q0 76 -59.5 110.5t-167.5 34.5h-119v106h119
q104 0 152.5 41t48.5 108q0 65 -42.5 97t-106.5 32t-119.5 -21.5t-110.5 -56.5l-68 89q62 45 132 72t164 27z" />
    <glyph glyph-name="acute" horiz-adv-x="568" 
d="M487 1569v-20q-20 -29 -54.5 -69.5t-76.5 -85t-84.5 -84.5t-78.5 -69h-111v24q32 38 70 91.5t74 110t60 102.5h201z" />
    <glyph glyph-name="uni00B9" horiz-adv-x="712" 
d="M481 1729v-877h-135v566q0 36 1 67.5t2.5 62t3.5 59.5q-21 -19 -47 -40t-55 -40l-109 -77l-66 94l267 185h138z" />
    <glyph glyph-name="Agrave" unicode="&#xc0;" horiz-adv-x="1295" 
d="M1117 0l-180 464h-586l-179 -464h-172l572 1468h153l568 -1468h-176zM886 615l-171 461q-6 18 -19.5 59t-27.5 85t-23 71q-10 -41 -21.5 -81.5t-22.5 -75t-19 -58.5l-174 -461h478zM577 1936q24 -46 59.5 -102.5t75 -110t72.5 -91.5v-24h-113q-36 29 -78.5 69t-84.5 84.5
t-76 85t-53 69.5v20h198z" />
    <glyph glyph-name="Aacute" unicode="&#xc1;" horiz-adv-x="1295" 
d="M1117 0l-180 464h-586l-179 -464h-172l572 1468h153l568 -1468h-176zM886 615l-171 461q-6 18 -19.5 59t-27.5 85t-23 71q-10 -41 -21.5 -81.5t-22.5 -75t-19 -58.5l-174 -461h478zM935 1936v-20q-20 -29 -54.5 -69.5t-76.5 -85t-84.5 -84.5t-78.5 -69h-111v24
q32 38 70 91.5t74 110t60 102.5h201z" />
    <glyph glyph-name="Acircumflex" unicode="&#xc2;" horiz-adv-x="1295" 
d="M1117 0l-180 464h-586l-179 -464h-172l572 1468h153l568 -1468h-176zM886 615l-171 461q-6 18 -19.5 59t-27.5 85t-23 71q-10 -41 -21.5 -81.5t-22.5 -75t-19 -58.5l-174 -461h478zM732 1935q25 -45 70 -101.5t95 -110.5t89 -93v-22h-118q-54 35 -111 86t-111 106
q-54 -55 -109.5 -105.5t-109.5 -86.5h-114v22q38 40 86.5 94t93 110t70.5 101h169z" />
    <glyph glyph-name="Atilde" unicode="&#xc3;" horiz-adv-x="1295" 
d="M1117 0l-180 464h-586l-179 -464h-172l572 1468h153l568 -1468h-176zM886 615l-171 461q-6 18 -19.5 59t-27.5 85t-23 71q-10 -41 -21.5 -81.5t-22.5 -75t-19 -58.5l-174 -461h478zM269 1611q6 60 23 107t45 80t66.5 50.5t85.5 17.5q46 0 88 -18.5t80 -42t73.5 -42
t68.5 -18.5q48 0 74.5 29.5t40.5 93.5h98q-13 -117 -69 -186.5t-151 -69.5q-44 0 -85 18.5t-79 42t-74.5 42t-71.5 18.5q-49 0 -75 -29.5t-40 -92.5h-98z" />
    <glyph glyph-name="Egrave" unicode="&#xc8;" 
d="M1014 0h-814v1462h814v-150h-644v-473h607v-148h-607v-541h644v-150zM557 1936q24 -46 59.5 -102.5t75 -110t72.5 -91.5v-24h-113q-36 29 -78.5 69t-84.5 84.5t-76 85t-53 69.5v20h198z" />
    <glyph glyph-name="Eacute" unicode="&#xc9;" 
d="M1014 0h-814v1462h814v-150h-644v-473h607v-148h-607v-541h644v-150zM916 1936v-20q-20 -29 -54.5 -69.5t-76.5 -85t-84.5 -84.5t-78.5 -69h-111v24q32 38 70 91.5t74 110t60 102.5h201z" />
    <glyph glyph-name="Ecircumflex" unicode="&#xca;" 
d="M1014 0h-814v1462h814v-150h-644v-473h607v-148h-607v-541h644v-150zM712 1935q25 -45 70 -101.5t95 -110.5t89 -93v-22h-118q-54 35 -111 86t-111 106q-54 -55 -109.5 -105.5t-109.5 -86.5h-114v22q38 40 86.5 94t93 110t70.5 101h169z" />
    <glyph glyph-name="Igrave" unicode="&#xcc;" horiz-adv-x="572" 
d="M200 0v1462h170v-1462h-170zM186 1936q24 -46 59.5 -102.5t75 -110t72.5 -91.5v-24h-113q-36 29 -78.5 69t-84.5 84.5t-76 85t-53 69.5v20h198z" />
    <glyph glyph-name="Iacute" unicode="&#xcd;" horiz-adv-x="572" 
d="M200 0v1462h170v-1462h-170zM585 1936v-20q-20 -29 -54.5 -69.5t-76.5 -85t-84.5 -84.5t-78.5 -69h-111v24q32 38 70 91.5t74 110t60 102.5h201z" />
    <glyph glyph-name="Eth" horiz-adv-x="1486" 
d="M641 1462q222 0 383.5 -81.5t249 -241t87.5 -394.5q0 -247 -90 -412.5t-261 -249t-415 -83.5h-382v649h-155v149h155v664h428zM615 1317h-233v-519h372v-149h-372v-503h195q303 0 454 149t151 444q0 197 -66 325t-192.5 190.5t-308.5 62.5z" />
    <glyph glyph-name="Ograve" unicode="&#xd2;" horiz-adv-x="1593" 
d="M1468 733q0 -169 -43 -307.5t-127.5 -238t-209.5 -153.5t-290 -54q-170 0 -296.5 54t-210 154t-125 239t-41.5 308q0 224 74 393t224.5 263t377.5 94q217 0 365.5 -93t225 -261.5t76.5 -397.5zM304 733q0 -186 53 -322t162.5 -210t278.5 -74q170 0 278.5 74t160.5 210
t52 322q0 283 -118.5 442.5t-369.5 159.5q-170 0 -280 -73t-163.5 -207.5t-53.5 -321.5zM730 1936q24 -46 59.5 -102.5t75 -110t72.5 -91.5v-24h-113q-36 29 -78.5 69t-84.5 84.5t-76 85t-53 69.5v20h198z" />
    <glyph glyph-name="Oacute" unicode="&#xd3;" horiz-adv-x="1593" 
d="M1468 733q0 -169 -43 -307.5t-127.5 -238t-209.5 -153.5t-290 -54q-170 0 -296.5 54t-210 154t-125 239t-41.5 308q0 224 74 393t224.5 263t377.5 94q217 0 365.5 -93t225 -261.5t76.5 -397.5zM304 733q0 -186 53 -322t162.5 -210t278.5 -74q170 0 278.5 74t160.5 210
t52 322q0 283 -118.5 442.5t-369.5 159.5q-170 0 -280 -73t-163.5 -207.5t-53.5 -321.5zM1087 1936v-20q-20 -29 -54.5 -69.5t-76.5 -85t-84.5 -84.5t-78.5 -69h-111v24q32 38 70 91.5t74 110t60 102.5h201z" />
    <glyph glyph-name="Ocircumflex" unicode="&#xd4;" horiz-adv-x="1593" 
d="M1468 733q0 -169 -43 -307.5t-127.5 -238t-209.5 -153.5t-290 -54q-170 0 -296.5 54t-210 154t-125 239t-41.5 308q0 224 74 393t224.5 263t377.5 94q217 0 365.5 -93t225 -261.5t76.5 -397.5zM304 733q0 -186 53 -322t162.5 -210t278.5 -74q170 0 278.5 74t160.5 210
t52 322q0 283 -118.5 442.5t-369.5 159.5q-170 0 -280 -73t-163.5 -207.5t-53.5 -321.5zM884 1935q25 -45 70 -101.5t95 -110.5t89 -93v-22h-118q-54 35 -111 86t-111 106q-54 -55 -109.5 -105.5t-109.5 -86.5h-114v22q38 40 86.5 94t93 110t70.5 101h169z" />
    <glyph glyph-name="Otilde" unicode="&#xd5;" horiz-adv-x="1593" 
d="M1468 733q0 -169 -43 -307.5t-127.5 -238t-209.5 -153.5t-290 -54q-170 0 -296.5 54t-210 154t-125 239t-41.5 308q0 224 74 393t224.5 263t377.5 94q217 0 365.5 -93t225 -261.5t76.5 -397.5zM304 733q0 -186 53 -322t162.5 -210t278.5 -74q170 0 278.5 74t160.5 210
t52 322q0 283 -118.5 442.5t-369.5 159.5q-170 0 -280 -73t-163.5 -207.5t-53.5 -321.5zM420 1611q6 60 23 107t45 80t66.5 50.5t85.5 17.5q46 0 88 -18.5t80 -42t73.5 -42t68.5 -18.5q48 0 74.5 29.5t40.5 93.5h98q-13 -117 -69 -186.5t-151 -69.5q-44 0 -85 18.5t-79 42
t-74.5 42t-71.5 18.5q-49 0 -75 -29.5t-40 -92.5h-98z" />
    <glyph glyph-name="Ugrave" unicode="&#xd9;" horiz-adv-x="1493" 
d="M1306 1462v-946q0 -155 -62.5 -276t-188.5 -190.5t-316 -69.5q-271 0 -412.5 147t-141.5 393v942h171v-947q0 -186 98.5 -287t294.5 -101q134 0 219.5 48.5t127 136t41.5 202.5v948h169zM679 1936q24 -46 59.5 -102.5t75 -110t72.5 -91.5v-24h-113q-36 29 -78.5 69
t-84.5 84.5t-76 85t-53 69.5v20h198z" />
    <glyph glyph-name="Uacute" unicode="&#xda;" horiz-adv-x="1493" 
d="M1306 1462v-946q0 -155 -62.5 -276t-188.5 -190.5t-316 -69.5q-271 0 -412.5 147t-141.5 393v942h171v-947q0 -186 98.5 -287t294.5 -101q134 0 219.5 48.5t127 136t41.5 202.5v948h169zM1037 1936v-20q-20 -29 -54.5 -69.5t-76.5 -85t-84.5 -84.5t-78.5 -69h-111v24
q32 38 70 91.5t74 110t60 102.5h201z" />
    <glyph glyph-name="Yacute" unicode="&#xdd;" horiz-adv-x="1145" 
d="M573 729l389 733h183l-487 -895v-567h-170v559l-488 903h186zM863 1936v-20q-20 -29 -54.5 -69.5t-76.5 -85t-84.5 -84.5t-78.5 -69h-111v24q32 38 70 91.5t74 110t60 102.5h201z" />
    <glyph glyph-name="agrave" unicode="&#xe0;" 
d="M585 1114q196 0 291 -88t95 -281v-745h-121l-32 162h-8q-46 -60 -96 -100.5t-115.5 -61t-160.5 -20.5q-100 0 -177.5 35t-122 106t-44.5 180q0 164 130 252t396 96l189 8v67q0 142 -61 199t-172 57q-86 0 -164 -25t-148 -59l-51 126q74 38 170 65t202 27zM807 540
l-167 -7q-205 -8 -289 -67t-84 -167q0 -94 57 -139t151 -45q146 0 239 81t93 243v101zM500 1569q24 -46 59.5 -102.5t75 -110t72.5 -91.5v-24h-113q-36 29 -78.5 69t-84.5 84.5t-76 85t-53 69.5v20h198z" />
    <glyph glyph-name="aacute" unicode="&#xe1;" 
d="M585 1114q196 0 291 -88t95 -281v-745h-121l-32 162h-8q-46 -60 -96 -100.5t-115.5 -61t-160.5 -20.5q-100 0 -177.5 35t-122 106t-44.5 180q0 164 130 252t396 96l189 8v67q0 142 -61 199t-172 57q-86 0 -164 -25t-148 -59l-51 126q74 38 170 65t202 27zM807 540
l-167 -7q-205 -8 -289 -67t-84 -167q0 -94 57 -139t151 -45q146 0 239 81t93 243v101zM859 1569v-20q-20 -29 -54.5 -69.5t-76.5 -85t-84.5 -84.5t-78.5 -69h-111v24q32 38 70 91.5t74 110t60 102.5h201z" />
    <glyph glyph-name="acircumflex" unicode="&#xe2;" 
d="M585 1114q196 0 291 -88t95 -281v-745h-121l-32 162h-8q-46 -60 -96 -100.5t-115.5 -61t-160.5 -20.5q-100 0 -177.5 35t-122 106t-44.5 180q0 164 130 252t396 96l189 8v67q0 142 -61 199t-172 57q-86 0 -164 -25t-148 -59l-51 126q74 38 170 65t202 27zM807 540
l-167 -7q-205 -8 -289 -67t-84 -167q0 -94 57 -139t151 -45q146 0 239 81t93 243v101zM655 1568q25 -45 70 -101.5t95 -110.5t89 -93v-22h-118q-54 35 -111 86t-111 106q-54 -55 -109.5 -105.5t-109.5 -86.5h-114v22q38 40 86.5 94t93 110t70.5 101h169z" />
    <glyph glyph-name="atilde" unicode="&#xe3;" 
d="M585 1114q196 0 291 -88t95 -281v-745h-121l-32 162h-8q-46 -60 -96 -100.5t-115.5 -61t-160.5 -20.5q-100 0 -177.5 35t-122 106t-44.5 180q0 164 130 252t396 96l189 8v67q0 142 -61 199t-172 57q-86 0 -164 -25t-148 -59l-51 126q74 38 170 65t202 27zM807 540
l-167 -7q-205 -8 -289 -67t-84 -167q0 -94 57 -139t151 -45q146 0 239 81t93 243v101zM191 1244q6 60 23 107t45 80t66.5 50.5t85.5 17.5q46 0 88 -18.5t80 -42t73.5 -42t68.5 -18.5q48 0 74.5 29.5t40.5 93.5h98q-13 -117 -69 -186.5t-151 -69.5q-44 0 -85 18.5t-79 42
t-74.5 42t-71.5 18.5q-49 0 -75 -29.5t-40 -92.5h-98z" />
    <glyph glyph-name="egrave" unicode="&#xe8;" horiz-adv-x="1150" 
d="M597 1116q140 0 240 -62t153 -173.5t53 -260.5v-103h-757q3 -193 96 -294t262 -101q104 0 184 19t166 56v-146q-83 -37 -164.5 -54t-192.5 -17q-158 0 -275.5 64.5t-182.5 189.5t-65 306q0 177 59.5 306.5t168 199.5t255.5 70zM595 980q-133 0 -212 -87t-94 -243h580
q-1 98 -30.5 172.5t-89.5 116t-154 41.5zM514 1569q24 -46 59.5 -102.5t75 -110t72.5 -91.5v-24h-113q-36 29 -78.5 69t-84.5 84.5t-76 85t-53 69.5v20h198z" />
    <glyph glyph-name="eacute" unicode="&#xe9;" horiz-adv-x="1150" 
d="M597 1116q140 0 240 -62t153 -173.5t53 -260.5v-103h-757q3 -193 96 -294t262 -101q104 0 184 19t166 56v-146q-83 -37 -164.5 -54t-192.5 -17q-158 0 -275.5 64.5t-182.5 189.5t-65 306q0 177 59.5 306.5t168 199.5t255.5 70zM595 980q-133 0 -212 -87t-94 -243h580
q-1 98 -30.5 172.5t-89.5 116t-154 41.5zM872 1569v-20q-20 -29 -54.5 -69.5t-76.5 -85t-84.5 -84.5t-78.5 -69h-111v24q32 38 70 91.5t74 110t60 102.5h201z" />
    <glyph glyph-name="ecircumflex" unicode="&#xea;" horiz-adv-x="1150" 
d="M597 1116q140 0 240 -62t153 -173.5t53 -260.5v-103h-757q3 -193 96 -294t262 -101q104 0 184 19t166 56v-146q-83 -37 -164.5 -54t-192.5 -17q-158 0 -275.5 64.5t-182.5 189.5t-65 306q0 177 59.5 306.5t168 199.5t255.5 70zM595 980q-133 0 -212 -87t-94 -243h580
q-1 98 -30.5 172.5t-89.5 116t-154 41.5zM669 1568q25 -45 70 -101.5t95 -110.5t89 -93v-22h-118q-54 35 -111 86t-111 106q-54 -55 -109.5 -105.5t-109.5 -86.5h-114v22q38 40 86.5 94t93 110t70.5 101h169z" />
    <glyph glyph-name="igrave" unicode="&#xec;" horiz-adv-x="517" 
d="M341 0h-166v1096h166v-1096zM190 1569q24 -46 59.5 -102.5t75 -110t72.5 -91.5v-24h-113q-36 29 -78.5 69t-84.5 84.5t-76 85t-53 69.5v20h198z" />
    <glyph glyph-name="iacute" unicode="&#xed;" horiz-adv-x="517" 
d="M341 0h-166v1096h166v-1096zM548 1569v-20q-20 -29 -54.5 -69.5t-76.5 -85t-84.5 -84.5t-78.5 -69h-111v24q32 38 70 91.5t74 110t60 102.5h201z" />
    <glyph glyph-name="ograve" unicode="&#xf2;" horiz-adv-x="1232" 
d="M1120 550q0 -135 -35 -241t-101 -179t-159.5 -111.5t-211.5 -38.5q-110 0 -201.5 38.5t-158 111.5t-103 179t-36.5 241q0 180 61 306.5t174.5 193t270.5 66.5q150 0 262.5 -67t175 -193.5t62.5 -305.5zM286 550q0 -132 35 -229t108 -150t188 -53q114 0 187.5 53
t108.5 150t35 229q0 131 -35 226.5t-108 147.5t-189 52q-171 0 -250.5 -113t-79.5 -313zM548 1569q24 -46 59.5 -102.5t75 -110t72.5 -91.5v-24h-113q-36 29 -78.5 69t-84.5 84.5t-76 85t-53 69.5v20h198z" />
    <glyph glyph-name="oacute" unicode="&#xf3;" horiz-adv-x="1232" 
d="M1120 550q0 -135 -35 -241t-101 -179t-159.5 -111.5t-211.5 -38.5q-110 0 -201.5 38.5t-158 111.5t-103 179t-36.5 241q0 180 61 306.5t174.5 193t270.5 66.5q150 0 262.5 -67t175 -193.5t62.5 -305.5zM286 550q0 -132 35 -229t108 -150t188 -53q114 0 187.5 53
t108.5 150t35 229q0 131 -35 226.5t-108 147.5t-189 52q-171 0 -250.5 -113t-79.5 -313zM907 1569v-20q-20 -29 -54.5 -69.5t-76.5 -85t-84.5 -84.5t-78.5 -69h-111v24q32 38 70 91.5t74 110t60 102.5h201z" />
    <glyph glyph-name="ocircumflex" unicode="&#xf4;" horiz-adv-x="1232" 
d="M1120 550q0 -135 -35 -241t-101 -179t-159.5 -111.5t-211.5 -38.5q-110 0 -201.5 38.5t-158 111.5t-103 179t-36.5 241q0 180 61 306.5t174.5 193t270.5 66.5q150 0 262.5 -67t175 -193.5t62.5 -305.5zM286 550q0 -132 35 -229t108 -150t188 -53q114 0 187.5 53
t108.5 150t35 229q0 131 -35 226.5t-108 147.5t-189 52q-171 0 -250.5 -113t-79.5 -313zM703 1568q25 -45 70 -101.5t95 -110.5t89 -93v-22h-118q-54 35 -111 86t-111 106q-54 -55 -109.5 -105.5t-109.5 -86.5h-114v22q38 40 86.5 94t93 110t70.5 101h169z" />
    <glyph glyph-name="otilde" unicode="&#xf5;" horiz-adv-x="1232" 
d="M1120 550q0 -135 -35 -241t-101 -179t-159.5 -111.5t-211.5 -38.5q-110 0 -201.5 38.5t-158 111.5t-103 179t-36.5 241q0 180 61 306.5t174.5 193t270.5 66.5q150 0 262.5 -67t175 -193.5t62.5 -305.5zM286 550q0 -132 35 -229t108 -150t188 -53q114 0 187.5 53
t108.5 150t35 229q0 131 -35 226.5t-108 147.5t-189 52q-171 0 -250.5 -113t-79.5 -313zM240 1244q6 60 23 107t45 80t66.5 50.5t85.5 17.5q46 0 88 -18.5t80 -42t73.5 -42t68.5 -18.5q48 0 74.5 29.5t40.5 93.5h98q-13 -117 -69 -186.5t-151 -69.5q-44 0 -85 18.5t-79 42
t-74.5 42t-71.5 18.5q-49 0 -75 -29.5t-40 -92.5h-98z" />
    <glyph glyph-name="ugrave" unicode="&#xf9;" horiz-adv-x="1256" 
d="M1080 1096v-1096h-136l-24 154h-9q-34 -57 -88 -96t-121.5 -58.5t-143.5 -19.5q-130 0 -218 42t-132.5 130t-44.5 226v718h168v-706q0 -137 62 -204.5t189 -67.5q122 0 194.5 46t104.5 135.5t32 219.5v577h167zM560 1569q24 -46 59.5 -102.5t75 -110t72.5 -91.5v-24h-113
q-36 29 -78.5 69t-84.5 84.5t-76 85t-53 69.5v20h198z" />
    <glyph glyph-name="uacute" unicode="&#xfa;" horiz-adv-x="1256" 
d="M1080 1096v-1096h-136l-24 154h-9q-34 -57 -88 -96t-121.5 -58.5t-143.5 -19.5q-130 0 -218 42t-132.5 130t-44.5 226v718h168v-706q0 -137 62 -204.5t189 -67.5q122 0 194.5 46t104.5 135.5t32 219.5v577h167zM918 1569v-20q-20 -29 -54.5 -69.5t-76.5 -85t-84.5 -84.5
t-78.5 -69h-111v24q32 38 70 91.5t74 110t60 102.5h201z" />
    <glyph glyph-name="Abreve" unicode="&#x102;" horiz-adv-x="1295" 
d="M1117 0l-180 464h-586l-179 -464h-172l572 1468h153l568 -1468h-176zM886 615l-171 461q-6 18 -19.5 59t-27.5 85t-23 71q-10 -41 -21.5 -81.5t-22.5 -75t-19 -58.5l-174 -461h478zM964 1878q-7 -81 -45.5 -141.5t-106.5 -94.5t-164 -34q-147 0 -222.5 73t-83.5 197h104
q6 -56 31 -85t69 -39.5t106 -10.5q55 0 99 11.5t72 41t35 82.5h106z" />
    <glyph glyph-name="abreve" unicode="&#x103;" 
d="M585 1114q196 0 291 -88t95 -281v-745h-121l-32 162h-8q-46 -60 -96 -100.5t-115.5 -61t-160.5 -20.5q-100 0 -177.5 35t-122 106t-44.5 180q0 164 130 252t396 96l189 8v67q0 142 -61 199t-172 57q-86 0 -164 -25t-148 -59l-51 126q74 38 170 65t202 27zM807 540
l-167 -7q-205 -8 -289 -67t-84 -167q0 -94 57 -139t151 -45q146 0 239 81t93 243v101zM887 1511q-7 -81 -45.5 -141.5t-106.5 -94.5t-164 -34q-147 0 -222.5 73t-83.5 197h104q6 -56 31 -85t69 -39.5t106 -10.5q55 0 99 11.5t72 41t35 82.5h106z" />
    <glyph glyph-name="Dcroat" unicode="&#x110;" horiz-adv-x="1486" 
d="M641 1462q222 0 383.5 -81.5t249 -241t87.5 -394.5q0 -247 -90 -412.5t-261 -249t-415 -83.5h-382v649h-155v149h155v664h428zM615 1317h-233v-519h372v-149h-372v-503h195q303 0 454 149t151 444q0 197 -66 325t-192.5 190.5t-308.5 62.5z" />
    <glyph glyph-name="dcroat" unicode="&#x111;" horiz-adv-x="1256" 
d="M565 -20q-208 0 -329.5 141.5t-121.5 418.5q0 287 124 429t329 142q87 0 152 -23t112.5 -62t79.5 -87h12q-5 31 -8.5 85t-3.5 90v131h-443v125h443v186h166v-186h155v-125h-155v-1245h-136l-24 156h-8q-31 -49 -78 -89t-112.5 -63.5t-153.5 -23.5zM592 118
q176 0 248 98.5t72 294.5v32q0 210 -69 320t-252 110q-153 0 -228.5 -115t-75.5 -319q0 -202 75 -311.5t230 -109.5z" />
    <glyph glyph-name="Itilde" unicode="&#x128;" horiz-adv-x="572" 
d="M200 0v1462h170v-1462h-170zM-83 1611q6 60 23 107t45 80t66.5 50.5t85.5 17.5q46 0 88 -18.5t80 -42t73.5 -42t68.5 -18.5q48 0 74.5 29.5t40.5 93.5h98q-13 -117 -69 -186.5t-151 -69.5q-44 0 -85 18.5t-79 42t-74.5 42t-71.5 18.5q-49 0 -75 -29.5t-40 -92.5h-98z" />
    <glyph glyph-name="itilde" unicode="&#x129;" horiz-adv-x="517" 
d="M341 0h-166v1096h166v-1096zM-119 1244q6 60 23 107t45 80t66.5 50.5t85.5 17.5q46 0 88 -18.5t80 -42t73.5 -42t68.5 -18.5q48 0 74.5 29.5t40.5 93.5h98q-13 -117 -69 -186.5t-151 -69.5q-44 0 -85 18.5t-79 42t-74.5 42t-71.5 18.5q-49 0 -75 -29.5t-40 -92.5h-98z
" />
    <glyph glyph-name="dotlessi" horiz-adv-x="517" 
d="M341 0h-166v1096h166v-1096z" />
    <glyph glyph-name="Utilde" unicode="&#x168;" horiz-adv-x="1493" 
d="M1306 1462v-946q0 -155 -62.5 -276t-188.5 -190.5t-316 -69.5q-271 0 -412.5 147t-141.5 393v942h171v-947q0 -186 98.5 -287t294.5 -101q134 0 219.5 48.5t127 136t41.5 202.5v948h169zM376 1611q6 60 23 107t45 80t66.5 50.5t85.5 17.5q46 0 88 -18.5t80 -42t73.5 -42
t68.5 -18.5q48 0 74.5 29.5t40.5 93.5h98q-13 -117 -69 -186.5t-151 -69.5q-44 0 -85 18.5t-79 42t-74.5 42t-71.5 18.5q-49 0 -75 -29.5t-40 -92.5h-98z" />
    <glyph glyph-name="utilde" unicode="&#x169;" horiz-adv-x="1256" 
d="M1080 1096v-1096h-136l-24 154h-9q-34 -57 -88 -96t-121.5 -58.5t-143.5 -19.5q-130 0 -218 42t-132.5 130t-44.5 226v718h168v-706q0 -137 62 -204.5t189 -67.5q122 0 194.5 46t104.5 135.5t32 219.5v577h167zM255 1244q6 60 23 107t45 80t66.5 50.5t85.5 17.5
q46 0 88 -18.5t80 -42t73.5 -42t68.5 -18.5q48 0 74.5 29.5t40.5 93.5h98q-13 -117 -69 -186.5t-151 -69.5q-44 0 -85 18.5t-79 42t-74.5 42t-71.5 18.5q-49 0 -75 -29.5t-40 -92.5h-98z" />
    <glyph glyph-name="Ohorn" unicode="&#x1a0;" horiz-adv-x="1599" 
d="M1466 733q0 -169 -42.5 -307.5t-127 -238t-209 -153.5t-289.5 -54q-171 0 -297.5 54t-210 154t-124.5 239t-41 308q0 224 74 393t224 263t378 94q167 0 293.5 -57t211.5 -159q56 16 85 55.5t40 98.5t11 133h178l14 -21q-21 -125 -79 -224t-183 -146q47 -88 70.5 -196.5
t23.5 -235.5zM304 733q0 -186 52.5 -322t162 -210t279.5 -74q171 0 279 74t159 210t51 322q0 282 -117 442t-369 160q-171 0 -281 -73t-163 -208t-53 -321z" />
    <glyph glyph-name="ohorn" unicode="&#x1a1;" horiz-adv-x="1251" 
d="M1120 550q0 -180 -61.5 -307.5t-175 -195t-270.5 -67.5q-146 0 -259 67.5t-176.5 195t-63.5 307.5q0 270 135.5 418t370.5 148q109 0 199.5 -37t155.5 -105q59 19 89 59.5t40 99.5t10 131h176l14 -21q-16 -94 -47 -167t-81.5 -124t-126.5 -80q34 -65 52.5 -146t18.5 -176
zM286 550q0 -140 34.5 -236.5t108 -146t188.5 -49.5q116 0 189 50t107.5 146.5t34.5 235.5q0 138 -34.5 233t-107.5 144t-190 49q-172 0 -251 -108.5t-79 -317.5z" />
    <glyph glyph-name="Uhorn" unicode="&#x1af;" horiz-adv-x="1582" 
d="M1306 1462v-200q65 11 99.5 49t48 100t13.5 145h175l14 -21q-12 -73 -34.5 -137.5t-62 -116t-101.5 -86.5t-152 -51v-628q0 -155 -58.5 -276t-180.5 -190.5t-314 -69.5q-277 0 -422.5 147t-145.5 393v942h171v-949q0 -184 100.5 -285t300.5 -101q134 0 218 48.5
t123 135.5t39 201v950h169z" />
    <glyph glyph-name="uhorn" unicode="&#x1b0;" horiz-adv-x="1357" 
d="M1409 1266l14 -22q-11 -72 -33.5 -138t-61.5 -119t-99.5 -88t-148.5 -45v-854h-136l-24 154h-9q-34 -57 -87 -96t-120 -58.5t-142 -19.5q-132 0 -221 42t-133.5 130t-44.5 226v716h168v-704q0 -137 62 -204.5t189 -67.5q182 0 256.5 103t74.5 298v575h167v-122
q64 12 97 51t45 101t12 142h175z" />
    <glyph glyph-name="circumflex" horiz-adv-x="837" 
d="M501 1568q25 -45 70 -101.5t95 -110.5t89 -93v-22h-118q-54 35 -111 86t-111 106q-54 -55 -109.5 -105.5t-109.5 -86.5h-114v22q38 40 86.5 94t93 110t70.5 101h169z" />
    <glyph glyph-name="breve" horiz-adv-x="786" 
d="M704 1511q-7 -81 -45.5 -141.5t-106.5 -94.5t-164 -34q-147 0 -222.5 73t-83.5 197h104q6 -56 31 -85t69 -39.5t106 -10.5q55 0 99 11.5t72 41t35 82.5h106z" />
    <glyph glyph-name="tilde" horiz-adv-x="906" 
d="M82 1244q6 60 23 107t45 80t66.5 50.5t85.5 17.5q46 0 88 -18.5t80 -42t73.5 -42t68.5 -18.5q48 0 74.5 29.5t40.5 93.5h98q-13 -117 -69 -186.5t-151 -69.5q-44 0 -85 18.5t-79 42t-74.5 42t-71.5 18.5q-49 0 -75 -29.5t-40 -92.5h-98z" />
    <glyph glyph-name="dotbelowcomb" horiz-adv-x="0" 
d="M-610 -351q-42 0 -71 27t-29 82q0 56 29 82.5t71 26.5q43 0 72 -26.5t29 -82.5q0 -55 -29 -82t-72 -27z" />
    <glyph glyph-name="uni1EA0" unicode="&#x1ea0;" horiz-adv-x="1295" 
d="M1117 0l-180 464h-586l-179 -464h-172l572 1468h153l568 -1468h-176zM886 615l-171 461q-6 18 -19.5 59t-27.5 85t-23 71q-10 -41 -21.5 -81.5t-22.5 -75t-19 -58.5l-174 -461h478zM653 -351q-42 0 -71 27t-29 82q0 56 29 82.5t71 26.5q43 0 72 -26.5t29 -82.5
q0 -55 -29 -82t-72 -27z" />
    <glyph glyph-name="uni1EA1" unicode="&#x1ea1;" 
d="M585 1114q196 0 291 -88t95 -281v-745h-121l-32 162h-8q-46 -60 -96 -100.5t-115.5 -61t-160.5 -20.5q-100 0 -177.5 35t-122 106t-44.5 180q0 164 130 252t396 96l189 8v67q0 142 -61 199t-172 57q-86 0 -164 -25t-148 -59l-51 126q74 38 170 65t202 27zM807 540
l-167 -7q-205 -8 -289 -67t-84 -167q0 -94 57 -139t151 -45q146 0 239 81t93 243v101zM568 -351q-42 0 -71 27t-29 82q0 56 29 82.5t71 26.5q43 0 72 -26.5t29 -82.5q0 -55 -29 -82t-72 -27z" />
    <glyph glyph-name="uni1EA2" unicode="&#x1ea2;" horiz-adv-x="1295" 
d="M1117 0l-180 464h-586l-179 -464h-172l572 1468h153l568 -1468h-176zM886 615l-171 461q-6 18 -19.5 59t-27.5 85t-23 71q-10 -41 -21.5 -81.5t-22.5 -75t-19 -58.5l-174 -461h478zM876 1836q0 -77 -47 -119.5t-120 -59.5l-9 -111h-104l-13 173q77 13 120.5 37.5
t43.5 73.5t-38.5 67t-97.5 18q-28 0 -55.5 -2.5t-45.5 -6.5v100q20 6 48 9.5t67 3.5q121 0 186 -45.5t65 -137.5z" />
    <glyph glyph-name="uni1EA3" unicode="&#x1ea3;" 
d="M585 1114q196 0 291 -88t95 -281v-745h-121l-32 162h-8q-46 -60 -96 -100.5t-115.5 -61t-160.5 -20.5q-100 0 -177.5 35t-122 106t-44.5 180q0 164 130 252t396 96l189 8v67q0 142 -61 199t-172 57q-86 0 -164 -25t-148 -59l-51 126q74 38 170 65t202 27zM807 540
l-167 -7q-205 -8 -289 -67t-84 -167q0 -94 57 -139t151 -45q146 0 239 81t93 243v101zM786 1498q0 -77 -47 -119.5t-120 -59.5l-9 -111h-104l-13 173q77 13 120.5 37.5t43.5 73.5t-38.5 67t-97.5 18q-28 0 -55.5 -2.5t-45.5 -6.5v100q20 6 48 9.5t67 3.5q121 0 186 -45.5
t65 -137.5z" />
    <glyph glyph-name="uni1EA4" unicode="&#x1ea4;" horiz-adv-x="1295" 
d="M1117 0l-180 464h-586l-179 -464h-172l572 1468h153l568 -1468h-176zM886 615l-171 461q-6 18 -19.5 59t-27.5 85t-23 71q-10 -41 -21.5 -81.5t-22.5 -75t-19 -58.5l-174 -461h478zM950 1579h-94q-51 35 -105.5 78t-105.5 92q-53 -49 -106.5 -92t-104.5 -78h-95v24
q35 38 74 81t77 89t69 91h172q31 -45 68.5 -91t76.5 -89t74 -81v-24zM871 1797q41 50 69.5 95t60.5 109h167v-21q-43 -58 -95.5 -110.5t-105.5 -95.5h-96v23z" />
    <glyph glyph-name="uni1EA5" unicode="&#x1ea5;" 
d="M585 1114q196 0 291 -88t95 -281v-745h-121l-32 162h-8q-46 -60 -96 -100.5t-115.5 -61t-160.5 -20.5q-100 0 -177.5 35t-122 106t-44.5 180q0 164 130 252t396 96l189 8v67q0 142 -61 199t-172 57q-86 0 -164 -25t-148 -59l-51 126q74 38 170 65t202 27zM807 540
l-167 -7q-205 -8 -289 -67t-84 -167q0 -94 57 -139t151 -45q146 0 239 81t93 243v101zM868 1241h-94q-51 35 -105.5 78t-105.5 92q-53 -49 -106.5 -92t-104.5 -78h-95v24q35 38 74 81t77 89t69 91h172q31 -45 68.5 -91t76.5 -89t74 -81v-24zM789 1459q41 50 69.5 95
t60.5 109h167v-21q-43 -58 -95.5 -110.5t-105.5 -95.5h-96v23z" />
    <glyph glyph-name="uni1EA6" unicode="&#x1ea6;" horiz-adv-x="1295" 
d="M1117 0l-180 464h-586l-179 -464h-172l572 1468h153l568 -1468h-176zM886 615l-171 461q-6 18 -19.5 59t-27.5 85t-23 71q-10 -41 -21.5 -81.5t-22.5 -75t-19 -58.5l-174 -461h478zM338 1579v22q34 38 73 81t77.5 89t69.5 91h174q32 -45 69.5 -91t76 -89t73.5 -81v-22
h-96q-52 35 -105 78t-106 92q-52 -49 -106 -92t-106 -78h-94zM326 1774q-57 43 -108.5 95.5t-95.5 110.5v21h165q32 -64 61 -109.5t69 -96.5v-21h-91z" />
    <glyph glyph-name="uni1EA7" unicode="&#x1ea7;" 
d="M585 1114q196 0 291 -88t95 -281v-745h-121l-32 162h-8q-46 -60 -96 -100.5t-115.5 -61t-160.5 -20.5q-100 0 -177.5 35t-122 106t-44.5 180q0 164 130 252t396 96l189 8v67q0 142 -61 199t-172 57q-86 0 -164 -25t-148 -59l-51 126q74 38 170 65t202 27zM807 540
l-167 -7q-205 -8 -289 -67t-84 -167q0 -94 57 -139t151 -45q146 0 239 81t93 243v101zM261 1241v22q34 38 73 81t77.5 89t69.5 91h174q32 -45 69.5 -91t76 -89t73.5 -81v-22h-96q-52 35 -105 78t-106 92q-52 -49 -106 -92t-106 -78h-94zM249 1436q-57 43 -108.5 95.5
t-95.5 110.5v21h165q32 -64 61 -109.5t69 -96.5v-21h-91z" />
    <glyph glyph-name="uni1EA8" unicode="&#x1ea8;" horiz-adv-x="1295" 
d="M1117 0l-180 464h-586l-179 -464h-172l572 1468h153l568 -1468h-176zM886 615l-171 461q-6 18 -19.5 59t-27.5 85t-23 71q-10 -41 -21.5 -81.5t-22.5 -75t-19 -58.5l-174 -461h478zM723 1864q31 -45 68.5 -91t76.5 -89t74 -81v-24h-94q-51 35 -105.5 78t-105.5 92
q-53 -49 -106.5 -92t-104.5 -78h-95v24q35 38 74 81t77 89t69 91h172zM925 2121q91 0 141 -34.5t50 -105.5q0 -58 -37.5 -88t-91.5 -42l-6 -81h-79l-9 129q60 9 91.5 25t31.5 53q0 36 -27.5 50t-73.5 14q-22 0 -41.5 -2t-32.5 -5v79q14 4 35 6t49 2z" />
    <glyph glyph-name="uni1EA9" unicode="&#x1ea9;" 
d="M585 1114q196 0 291 -88t95 -281v-745h-121l-32 162h-8q-46 -60 -96 -100.5t-115.5 -61t-160.5 -20.5q-100 0 -177.5 35t-122 106t-44.5 180q0 164 130 252t396 96l189 8v67q0 142 -61 199t-172 57q-86 0 -164 -25t-148 -59l-51 126q74 38 170 65t202 27zM807 540
l-167 -7q-205 -8 -289 -67t-84 -167q0 -94 57 -139t151 -45q146 0 239 81t93 243v101zM656 1526q31 -45 68.5 -91t76.5 -89t74 -81v-24h-94q-51 35 -105.5 78t-105.5 92q-53 -49 -106.5 -92t-104.5 -78h-95v24q35 38 74 81t77 89t69 91h172zM858 1783q91 0 141 -34.5
t50 -105.5q0 -58 -37.5 -88t-91.5 -42l-6 -81h-79l-9 129q60 9 91.5 25t31.5 53q0 36 -27.5 50t-73.5 14q-22 0 -41.5 -2t-32.5 -5v79q14 4 35 6t49 2z" />
    <glyph glyph-name="uni1EAA" unicode="&#x1eaa;" horiz-adv-x="1295" 
d="M1117 0l-180 464h-586l-179 -464h-172l572 1468h153l568 -1468h-176zM886 615l-171 461q-6 18 -19.5 59t-27.5 85t-23 71q-10 -41 -21.5 -81.5t-22.5 -75t-19 -58.5l-174 -461h478zM733 1861q32 -45 70 -91t77 -88.5t74 -80.5v-22h-92q-53 35 -106.5 77t-106.5 91
q-52 -49 -107.5 -91t-106.5 -77h-92v22q34 38 73.5 80.5t78 88.5t69.5 91h169zM970 2146q-6 -64 -29.5 -113.5t-63 -77t-93.5 -27.5q-37 0 -72 15t-68 34.5t-64.5 34.5t-60.5 15q-41 0 -63.5 -24.5t-35.5 -77.5h-88q11 95 59 157t128 62q38 0 74 -15t69.5 -35t64.5 -35
t59 -15q41 0 63 25t34 77h87z" />
    <glyph glyph-name="uni1EAB" unicode="&#x1eab;" 
d="M585 1114q196 0 291 -88t95 -281v-745h-121l-32 162h-8q-46 -60 -96 -100.5t-115.5 -61t-160.5 -20.5q-100 0 -177.5 35t-122 106t-44.5 180q0 164 130 252t396 96l189 8v67q0 142 -61 199t-172 57q-86 0 -164 -25t-148 -59l-51 126q74 38 170 65t202 27zM807 540
l-167 -7q-205 -8 -289 -67t-84 -167q0 -94 57 -139t151 -45q146 0 239 81t93 243v101zM650 1523q32 -45 70 -91t77 -88.5t74 -80.5v-22h-92q-53 35 -106.5 77t-106.5 91q-52 -49 -107.5 -91t-106.5 -77h-92v22q34 38 73.5 80.5t78 88.5t69.5 91h169zM887 1808
q-6 -64 -29.5 -113.5t-63 -77t-93.5 -27.5q-37 0 -72 15t-68 34.5t-64.5 34.5t-60.5 15q-41 0 -63.5 -24.5t-35.5 -77.5h-88q11 95 59 157t128 62q38 0 74 -15t69.5 -35t64.5 -35t59 -15q41 0 63 25t34 77h87z" />
    <glyph glyph-name="uni1EAC" unicode="&#x1eac;" horiz-adv-x="1295" 
d="M1117 0l-180 464h-586l-179 -464h-172l572 1468h153l568 -1468h-176zM886 615l-171 461q-6 18 -19.5 59t-27.5 85t-23 71q-10 -41 -21.5 -81.5t-22.5 -75t-19 -58.5l-174 -461h478zM653 -351q-42 0 -71 27t-29 82q0 56 29 82.5t71 26.5q43 0 72 -26.5t29 -82.5
q0 -55 -29 -82t-72 -27zM732 1935q25 -45 70 -101.5t95 -110.5t89 -93v-22h-118q-54 35 -111 86t-111 106q-54 -55 -109.5 -105.5t-109.5 -86.5h-114v22q38 40 86.5 94t93 110t70.5 101h169z" />
    <glyph glyph-name="uni1EAD" unicode="&#x1ead;" 
d="M585 1114q196 0 291 -88t95 -281v-745h-121l-32 162h-8q-46 -60 -96 -100.5t-115.5 -61t-160.5 -20.5q-100 0 -177.5 35t-122 106t-44.5 180q0 164 130 252t396 96l189 8v67q0 142 -61 199t-172 57q-86 0 -164 -25t-148 -59l-51 126q74 38 170 65t202 27zM807 540
l-167 -7q-205 -8 -289 -67t-84 -167q0 -94 57 -139t151 -45q146 0 239 81t93 243v101zM655 1568q25 -45 70 -101.5t95 -110.5t89 -93v-22h-118q-54 35 -111 86t-111 106q-54 -55 -109.5 -105.5t-109.5 -86.5h-114v22q38 40 86.5 94t93 110t70.5 101h169zM557 -351
q-42 0 -71 27t-29 82q0 56 29 82.5t71 26.5q43 0 72 -26.5t29 -82.5q0 -55 -29 -82t-72 -27z" />
    <glyph glyph-name="uni1EAE" unicode="&#x1eae;" horiz-adv-x="1295" 
d="M1117 0l-180 464h-586l-179 -464h-172l572 1468h153l568 -1468h-176zM886 615l-171 461q-6 18 -19.5 59t-27.5 85t-23 71q-10 -41 -21.5 -81.5t-22.5 -75t-19 -58.5l-174 -461h478zM947 1843q-11 -122 -85.5 -193t-214.5 -71q-143 0 -215 69.5t-80 194.5h102
q8 -85 57.5 -111.5t137.5 -26.5q79 0 132.5 28.5t63.5 109.5h102zM878 2068v-21q-29 -38 -62 -75.5t-68.5 -70.5t-71.5 -61h-93v22q39 50 69 96t60 110h166z" />
    <glyph glyph-name="uni1EAF" unicode="&#x1eaf;" 
d="M585 1114q196 0 291 -88t95 -281v-745h-121l-32 162h-8q-46 -60 -96 -100.5t-115.5 -61t-160.5 -20.5q-100 0 -177.5 35t-122 106t-44.5 180q0 164 130 252t396 96l189 8v67q0 142 -61 199t-172 57q-86 0 -164 -25t-148 -59l-51 126q74 38 170 65t202 27zM807 540
l-167 -7q-205 -8 -289 -67t-84 -167q0 -94 57 -139t151 -45q146 0 239 81t93 243v101zM867 1505q-11 -122 -85.5 -193t-214.5 -71q-143 0 -215 69.5t-80 194.5h102q8 -85 57.5 -111.5t137.5 -26.5q79 0 132.5 28.5t63.5 109.5h102zM798 1730v-21q-29 -38 -62 -75.5
t-68.5 -70.5t-71.5 -61h-93v22q39 50 69 96t60 110h166z" />
    <glyph glyph-name="uni1EB0" unicode="&#x1eb0;" horiz-adv-x="1295" 
d="M1117 0l-180 464h-586l-179 -464h-172l572 1468h153l568 -1468h-176zM886 615l-171 461q-6 18 -19.5 59t-27.5 85t-23 71q-10 -41 -21.5 -81.5t-22.5 -75t-19 -58.5l-174 -461h478zM946 1843q-11 -122 -85 -193t-215 -71q-143 0 -214.5 69.5t-80.5 194.5h102
q8 -85 57.5 -111.5t137.5 -26.5q80 0 133 28t63 110h102zM574 2068q31 -64 59.5 -110t68.5 -96v-22h-91q-35 28 -71 61t-69 70.5t-62 75.5v21h165z" />
    <glyph glyph-name="uni1EB1" unicode="&#x1eb1;" 
d="M585 1114q196 0 291 -88t95 -281v-745h-121l-32 162h-8q-46 -60 -96 -100.5t-115.5 -61t-160.5 -20.5q-100 0 -177.5 35t-122 106t-44.5 180q0 164 130 252t396 96l189 8v67q0 142 -61 199t-172 57q-86 0 -164 -25t-148 -59l-51 126q74 38 170 65t202 27zM807 540
l-167 -7q-205 -8 -289 -67t-84 -167q0 -94 57 -139t151 -45q146 0 239 81t93 243v101zM865 1505q-11 -122 -85 -193t-215 -71q-143 0 -214.5 69.5t-80.5 194.5h102q8 -85 57.5 -111.5t137.5 -26.5q80 0 133 28t63 110h102zM493 1730q31 -64 59.5 -110t68.5 -96v-22h-91
q-35 28 -71 61t-69 70.5t-62 75.5v21h165z" />
    <glyph glyph-name="uni1EB2" unicode="&#x1eb2;" horiz-adv-x="1295" 
d="M1117 0l-180 464h-586l-179 -464h-172l572 1468h153l568 -1468h-176zM886 615l-171 461q-6 18 -19.5 59t-27.5 85t-23 71q-10 -41 -21.5 -81.5t-22.5 -75t-19 -58.5l-174 -461h478zM946 1843q-11 -122 -85 -193t-215 -71q-143 0 -214.5 69.5t-80.5 194.5h102
q8 -85 57.5 -111.5t137.5 -26.5q80 0 133 28t63 110h102zM607 2136q91 0 139.5 -34t48.5 -105q0 -58 -37 -87.5t-90 -40.5l-6 -45h-79l-9 94q59 9 90 25t31 52q0 35 -27.5 49t-71.5 14q-23 0 -43 -2.5t-33 -4.5v76q15 5 36.5 7t50.5 2z" />
    <glyph glyph-name="uni1EB3" unicode="&#x1eb3;" 
d="M585 1114q196 0 291 -88t95 -281v-745h-121l-32 162h-8q-46 -60 -96 -100.5t-115.5 -61t-160.5 -20.5q-100 0 -177.5 35t-122 106t-44.5 180q0 164 130 252t396 96l189 8v67q0 142 -61 199t-172 57q-86 0 -164 -25t-148 -59l-51 126q74 38 170 65t202 27zM807 540
l-167 -7q-205 -8 -289 -67t-84 -167q0 -94 57 -139t151 -45q146 0 239 81t93 243v101zM872 1505q-11 -122 -85 -193t-215 -71q-143 0 -214.5 69.5t-80.5 194.5h102q8 -85 57.5 -111.5t137.5 -26.5q80 0 133 28t63 110h102zM533 1798q91 0 139.5 -34t48.5 -105
q0 -58 -37 -87.5t-90 -40.5l-6 -45h-79l-9 94q59 9 90 25t31 52q0 35 -27.5 49t-71.5 14q-23 0 -43 -2.5t-33 -4.5v76q15 5 36.5 7t50.5 2z" />
    <glyph glyph-name="uni1EB4" unicode="&#x1eb4;" horiz-adv-x="1295" 
d="M1117 0l-180 464h-586l-179 -464h-172l572 1468h153l568 -1468h-176zM886 615l-171 461q-6 18 -19.5 59t-27.5 85t-23 71q-10 -41 -21.5 -81.5t-22.5 -75t-19 -58.5l-174 -461h478zM940 1840q-11 -121 -85 -191t-215 -70q-143 0 -214.5 68.5t-80.5 192.5h102
q8 -84 57.5 -109.5t137.5 -25.5q80 0 133 26.5t63 108.5h102zM970 2140q-6 -63 -29.5 -111.5t-63 -76t-93.5 -27.5q-37 0 -72.5 15t-68.5 35t-64.5 35t-60.5 15q-41 0 -63 -24.5t-36 -77.5h-88q11 95 59 155t129 60q38 0 74 -15t69.5 -34.5t64.5 -34.5t59 -15q41 0 63 25
t33 76h88z" />
    <glyph glyph-name="uni1EB5" unicode="&#x1eb5;" 
d="M585 1114q196 0 291 -88t95 -281v-745h-121l-32 162h-8q-46 -60 -96 -100.5t-115.5 -61t-160.5 -20.5q-100 0 -177.5 35t-122 106t-44.5 180q0 164 130 252t396 96l189 8v67q0 142 -61 199t-172 57q-86 0 -164 -25t-148 -59l-51 126q74 38 170 65t202 27zM807 540
l-167 -7q-205 -8 -289 -67t-84 -167q0 -94 57 -139t151 -45q146 0 239 81t93 243v101zM865 1502q-11 -121 -85 -191t-215 -70q-143 0 -214.5 68.5t-80.5 192.5h102q8 -84 57.5 -109.5t137.5 -25.5q80 0 133 26.5t63 108.5h102zM895 1802q-6 -63 -29.5 -111.5t-63 -76
t-93.5 -27.5q-37 0 -72.5 15t-68.5 35t-64.5 35t-60.5 15q-41 0 -63 -24.5t-36 -77.5h-88q11 95 59 155t129 60q38 0 74 -15t69.5 -34.5t64.5 -34.5t59 -15q41 0 63 25t33 76h88z" />
    <glyph glyph-name="uni1EB6" unicode="&#x1eb6;" horiz-adv-x="1295" 
d="M1117 0l-180 464h-586l-179 -464h-172l572 1468h153l568 -1468h-176zM886 615l-171 461q-6 18 -19.5 59t-27.5 85t-23 71q-10 -41 -21.5 -81.5t-22.5 -75t-19 -58.5l-174 -461h478zM964 1878q-7 -81 -45.5 -141.5t-106.5 -94.5t-164 -34q-147 0 -222.5 73t-83.5 197h104
q6 -56 31 -85t69 -39.5t106 -10.5q55 0 99 11.5t72 41t35 82.5h106zM653 -351q-42 0 -71 27t-29 82q0 56 29 82.5t71 26.5q43 0 72 -26.5t29 -82.5q0 -55 -29 -82t-72 -27z" />
    <glyph glyph-name="uni1EB7" unicode="&#x1eb7;" 
d="M585 1114q196 0 291 -88t95 -281v-745h-121l-32 162h-8q-46 -60 -96 -100.5t-115.5 -61t-160.5 -20.5q-100 0 -177.5 35t-122 106t-44.5 180q0 164 130 252t396 96l189 8v67q0 142 -61 199t-172 57q-86 0 -164 -25t-148 -59l-51 126q74 38 170 65t202 27zM807 540
l-167 -7q-205 -8 -289 -67t-84 -167q0 -94 57 -139t151 -45q146 0 239 81t93 243v101zM887 1511q-7 -81 -45.5 -141.5t-106.5 -94.5t-164 -34q-147 0 -222.5 73t-83.5 197h104q6 -56 31 -85t69 -39.5t106 -10.5q55 0 99 11.5t72 41t35 82.5h106zM537 -351q-42 0 -71 27
t-29 82q0 56 29 82.5t71 26.5q43 0 72 -26.5t29 -82.5q0 -55 -29 -82t-72 -27z" />
    <glyph glyph-name="uni1EB8" unicode="&#x1eb8;" 
d="M1014 0h-814v1462h814v-150h-644v-473h607v-148h-607v-541h644v-150zM611 -351q-42 0 -71 27t-29 82q0 56 29 82.5t71 26.5q43 0 72 -26.5t29 -82.5q0 -55 -29 -82t-72 -27z" />
    <glyph glyph-name="uni1EB9" unicode="&#x1eb9;" horiz-adv-x="1150" 
d="M597 1116q140 0 240 -62t153 -173.5t53 -260.5v-103h-757q3 -193 96 -294t262 -101q104 0 184 19t166 56v-146q-83 -37 -164.5 -54t-192.5 -17q-158 0 -275.5 64.5t-182.5 189.5t-65 306q0 177 59.5 306.5t168 199.5t255.5 70zM595 980q-133 0 -212 -87t-94 -243h580
q-1 98 -30.5 172.5t-89.5 116t-154 41.5zM612 -351q-42 0 -71 27t-29 82q0 56 29 82.5t71 26.5q43 0 72 -26.5t29 -82.5q0 -55 -29 -82t-72 -27z" />
    <glyph glyph-name="uni1EBA" unicode="&#x1eba;" 
d="M1014 0h-814v1462h814v-150h-644v-473h607v-148h-607v-541h644v-150zM830 1836q0 -77 -47 -119.5t-120 -59.5l-9 -111h-104l-13 173q77 13 120.5 37.5t43.5 73.5t-38.5 67t-97.5 18q-28 0 -55.5 -2.5t-45.5 -6.5v100q20 6 48 9.5t67 3.5q121 0 186 -45.5t65 -137.5z" />
    <glyph glyph-name="uni1EBB" unicode="&#x1ebb;" horiz-adv-x="1150" 
d="M597 1116q140 0 240 -62t153 -173.5t53 -260.5v-103h-757q3 -193 96 -294t262 -101q104 0 184 19t166 56v-146q-83 -37 -164.5 -54t-192.5 -17q-158 0 -275.5 64.5t-182.5 189.5t-65 306q0 177 59.5 306.5t168 199.5t255.5 70zM595 980q-133 0 -212 -87t-94 -243h580
q-1 98 -30.5 172.5t-89.5 116t-154 41.5zM823 1498q0 -77 -47 -119.5t-120 -59.5l-9 -111h-104l-13 173q77 13 120.5 37.5t43.5 73.5t-38.5 67t-97.5 18q-28 0 -55.5 -2.5t-45.5 -6.5v100q20 6 48 9.5t67 3.5q121 0 186 -45.5t65 -137.5z" />
    <glyph glyph-name="uni1EBC" unicode="&#x1ebc;" 
d="M1014 0h-814v1462h814v-150h-644v-473h607v-148h-607v-541h644v-150zM248 1611q6 60 23 107t45 80t66.5 50.5t85.5 17.5q46 0 88 -18.5t80 -42t73.5 -42t68.5 -18.5q48 0 74.5 29.5t40.5 93.5h98q-13 -117 -69 -186.5t-151 -69.5q-44 0 -85 18.5t-79 42t-74.5 42
t-71.5 18.5q-49 0 -75 -29.5t-40 -92.5h-98z" />
    <glyph glyph-name="uni1EBD" unicode="&#x1ebd;" horiz-adv-x="1150" 
d="M597 1116q140 0 240 -62t153 -173.5t53 -260.5v-103h-757q3 -193 96 -294t262 -101q104 0 184 19t166 56v-146q-83 -37 -164.5 -54t-192.5 -17q-158 0 -275.5 64.5t-182.5 189.5t-65 306q0 177 59.5 306.5t168 199.5t255.5 70zM595 980q-133 0 -212 -87t-94 -243h580
q-1 98 -30.5 172.5t-89.5 116t-154 41.5zM205 1244q6 60 23 107t45 80t66.5 50.5t85.5 17.5q46 0 88 -18.5t80 -42t73.5 -42t68.5 -18.5q48 0 74.5 29.5t40.5 93.5h98q-13 -117 -69 -186.5t-151 -69.5q-44 0 -85 18.5t-79 42t-74.5 42t-71.5 18.5q-49 0 -75 -29.5t-40 -92.5
h-98z" />
    <glyph glyph-name="uni1EBE" unicode="&#x1ebe;" 
d="M1014 0h-814v1462h814v-150h-644v-473h607v-148h-607v-541h644v-150zM912 1579h-94q-51 35 -105.5 78t-105.5 92q-53 -49 -106.5 -92t-104.5 -78h-95v24q35 38 74 81t77 89t69 91h172q31 -45 68.5 -91t76.5 -89t74 -81v-24zM833 1797q41 50 69.5 95t60.5 109h167v-21
q-43 -58 -95.5 -110.5t-105.5 -95.5h-96v23z" />
    <glyph glyph-name="uni1EBF" unicode="&#x1ebf;" horiz-adv-x="1150" 
d="M597 1116q140 0 240 -62t153 -173.5t53 -260.5v-103h-757q3 -193 96 -294t262 -101q104 0 184 19t166 56v-146q-83 -37 -164.5 -54t-192.5 -17q-158 0 -275.5 64.5t-182.5 189.5t-65 306q0 177 59.5 306.5t168 199.5t255.5 70zM595 980q-133 0 -212 -87t-94 -243h580
q-1 98 -30.5 172.5t-89.5 116t-154 41.5zM894 1241h-94q-51 35 -105.5 78t-105.5 92q-53 -49 -106.5 -92t-104.5 -78h-95v24q35 38 74 81t77 89t69 91h172q31 -45 68.5 -91t76.5 -89t74 -81v-24zM815 1459q41 50 69.5 95t60.5 109h167v-21q-43 -58 -95.5 -110.5
t-105.5 -95.5h-96v23z" />
    <glyph glyph-name="uni1EC0" unicode="&#x1ec0;" 
d="M1014 0h-814v1462h814v-150h-644v-473h607v-148h-607v-541h644v-150zM308 1579v22q34 38 73 81t77.5 89t69.5 91h174q32 -45 69.5 -91t76 -89t73.5 -81v-22h-96q-52 35 -105 78t-106 92q-52 -49 -106 -92t-106 -78h-94zM296 1774q-57 43 -108.5 95.5t-95.5 110.5v21h165
q32 -64 61 -109.5t69 -96.5v-21h-91z" />
    <glyph glyph-name="uni1EC1" unicode="&#x1ec1;" horiz-adv-x="1150" 
d="M597 1116q140 0 240 -62t153 -173.5t53 -260.5v-103h-757q3 -193 96 -294t262 -101q104 0 184 19t166 56v-146q-83 -37 -164.5 -54t-192.5 -17q-158 0 -275.5 64.5t-182.5 189.5t-65 306q0 177 59.5 306.5t168 199.5t255.5 70zM595 980q-133 0 -212 -87t-94 -243h580
q-1 98 -30.5 172.5t-89.5 116t-154 41.5zM289 1241v22q34 38 73 81t77.5 89t69.5 91h174q32 -45 69.5 -91t76 -89t73.5 -81v-22h-96q-52 35 -105 78t-106 92q-52 -49 -106 -92t-106 -78h-94zM277 1436q-57 43 -108.5 95.5t-95.5 110.5v21h165q32 -64 61 -109.5t69 -96.5v-21
h-91z" />
    <glyph glyph-name="uni1EC2" unicode="&#x1ec2;" 
d="M1014 0h-814v1462h814v-150h-644v-473h607v-148h-607v-541h644v-150zM692 1864q31 -45 68.5 -91t76.5 -89t74 -81v-24h-94q-51 35 -105.5 78t-105.5 92q-53 -49 -106.5 -92t-104.5 -78h-95v24q35 38 74 81t77 89t69 91h172zM894 2121q91 0 141 -34.5t50 -105.5
q0 -58 -37.5 -88t-91.5 -42l-6 -81h-79l-9 129q60 9 91.5 25t31.5 53q0 36 -27.5 50t-73.5 14q-22 0 -41.5 -2t-32.5 -5v79q14 4 35 6t49 2z" />
    <glyph glyph-name="uni1EC3" unicode="&#x1ec3;" horiz-adv-x="1150" 
d="M597 1116q140 0 240 -62t153 -173.5t53 -260.5v-103h-757q3 -193 96 -294t262 -101q104 0 184 19t166 56v-146q-83 -37 -164.5 -54t-192.5 -17q-158 0 -275.5 64.5t-182.5 189.5t-65 306q0 177 59.5 306.5t168 199.5t255.5 70zM595 980q-133 0 -212 -87t-94 -243h580
q-1 98 -30.5 172.5t-89.5 116t-154 41.5zM667 1526q31 -45 68.5 -91t76.5 -89t74 -81v-24h-94q-51 35 -105.5 78t-105.5 92q-53 -49 -106.5 -92t-104.5 -78h-95v24q35 38 74 81t77 89t69 91h172zM869 1783q91 0 141 -34.5t50 -105.5q0 -58 -37.5 -88t-91.5 -42l-6 -81h-79
l-9 129q60 9 91.5 25t31.5 53q0 36 -27.5 50t-73.5 14q-22 0 -41.5 -2t-32.5 -5v79q14 4 35 6t49 2z" />
    <glyph glyph-name="uni1EC4" unicode="&#x1ec4;" 
d="M1014 0h-814v1462h814v-150h-644v-473h607v-148h-607v-541h644v-150zM691 1861q32 -45 70 -91t77 -88.5t74 -80.5v-22h-92q-53 35 -106.5 77t-106.5 91q-52 -49 -107.5 -91t-106.5 -77h-92v22q34 38 73.5 80.5t78 88.5t69.5 91h169zM928 2146q-6 -64 -29.5 -113.5
t-63 -77t-93.5 -27.5q-37 0 -72 15t-68 34.5t-64.5 34.5t-60.5 15q-41 0 -63.5 -24.5t-35.5 -77.5h-88q11 95 59 157t128 62q38 0 74 -15t69.5 -35t64.5 -35t59 -15q41 0 63 25t34 77h87z" />
    <glyph glyph-name="uni1EC5" unicode="&#x1ec5;" horiz-adv-x="1150" 
d="M597 1116q140 0 240 -62t153 -173.5t53 -260.5v-103h-757q3 -193 96 -294t262 -101q104 0 184 19t166 56v-146q-83 -37 -164.5 -54t-192.5 -17q-158 0 -275.5 64.5t-182.5 189.5t-65 306q0 177 59.5 306.5t168 199.5t255.5 70zM595 980q-133 0 -212 -87t-94 -243h580
q-1 98 -30.5 172.5t-89.5 116t-154 41.5zM671 1523q32 -45 70 -91t77 -88.5t74 -80.5v-22h-92q-53 35 -106.5 77t-106.5 91q-52 -49 -107.5 -91t-106.5 -77h-92v22q34 38 73.5 80.5t78 88.5t69.5 91h169zM908 1808q-6 -64 -29.5 -113.5t-63 -77t-93.5 -27.5q-37 0 -72 15
t-68 34.5t-64.5 34.5t-60.5 15q-41 0 -63.5 -24.5t-35.5 -77.5h-88q11 95 59 157t128 62q38 0 74 -15t69.5 -35t64.5 -35t59 -15q41 0 63 25t34 77h87z" />
    <glyph glyph-name="uni1EC6" unicode="&#x1ec6;" 
d="M1014 0h-814v1462h814v-150h-644v-473h607v-148h-607v-541h644v-150zM611 -351q-42 0 -71 27t-29 82q0 56 29 82.5t71 26.5q43 0 72 -26.5t29 -82.5q0 -55 -29 -82t-72 -27zM712 1935q25 -45 70 -101.5t95 -110.5t89 -93v-22h-118q-54 35 -111 86t-111 106
q-54 -55 -109.5 -105.5t-109.5 -86.5h-114v22q38 40 86.5 94t93 110t70.5 101h169z" />
    <glyph glyph-name="uni1EC7" unicode="&#x1ec7;" horiz-adv-x="1150" 
d="M597 1116q140 0 240 -62t153 -173.5t53 -260.5v-103h-757q3 -193 96 -294t262 -101q104 0 184 19t166 56v-146q-83 -37 -164.5 -54t-192.5 -17q-158 0 -275.5 64.5t-182.5 189.5t-65 306q0 177 59.5 306.5t168 199.5t255.5 70zM595 980q-133 0 -212 -87t-94 -243h580
q-1 98 -30.5 172.5t-89.5 116t-154 41.5zM669 1568q25 -45 70 -101.5t95 -110.5t89 -93v-22h-118q-54 35 -111 86t-111 106q-54 -55 -109.5 -105.5t-109.5 -86.5h-114v22q38 40 86.5 94t93 110t70.5 101h169zM612 -351q-42 0 -71 27t-29 82q0 56 29 82.5t71 26.5
q43 0 72 -26.5t29 -82.5q0 -55 -29 -82t-72 -27z" />
    <glyph glyph-name="uni1EC8" unicode="&#x1ec8;" horiz-adv-x="572" 
d="M200 0v1462h170v-1462h-170zM508 1836q0 -77 -47 -119.5t-120 -59.5l-9 -111h-104l-13 173q77 13 120.5 37.5t43.5 73.5t-38.5 67t-97.5 18q-28 0 -55.5 -2.5t-45.5 -6.5v100q20 6 48 9.5t67 3.5q121 0 186 -45.5t65 -137.5z" />
    <glyph glyph-name="uni1EC9" unicode="&#x1ec9;" horiz-adv-x="517" 
d="M341 0h-166v1096h166v-1096zM485 1498q0 -77 -47 -119.5t-120 -59.5l-9 -111h-104l-13 173q77 13 120.5 37.5t43.5 73.5t-38.5 67t-97.5 18q-28 0 -55.5 -2.5t-45.5 -6.5v100q20 6 48 9.5t67 3.5q121 0 186 -45.5t65 -137.5z" />
    <glyph glyph-name="uni1ECA" unicode="&#x1eca;" horiz-adv-x="572" 
d="M200 0v1462h170v-1462h-170zM284 -351q-42 0 -71 27t-29 82q0 56 29 82.5t71 26.5q43 0 72 -26.5t29 -82.5q0 -55 -29 -82t-72 -27z" />
    <glyph glyph-name="uni1ECB" unicode="&#x1ecb;" horiz-adv-x="517" 
d="M341 1096v-1096h-166v1096h166zM260 1506q41 0 70.5 -26.5t29.5 -82.5q0 -55 -29.5 -82t-70.5 -27q-43 0 -71.5 27t-28.5 82q0 56 28.5 82.5t71.5 26.5zM260 -351q-42 0 -71 27t-29 82q0 56 29 82.5t71 26.5q43 0 72 -26.5t29 -82.5q0 -55 -29 -82t-72 -27z" />
    <glyph glyph-name="uni1ECC" unicode="&#x1ecc;" horiz-adv-x="1593" 
d="M1468 733q0 -169 -43 -307.5t-127.5 -238t-209.5 -153.5t-290 -54q-170 0 -296.5 54t-210 154t-125 239t-41.5 308q0 224 74 393t224.5 263t377.5 94q217 0 365.5 -93t225 -261.5t76.5 -397.5zM304 733q0 -186 53 -322t162.5 -210t278.5 -74q170 0 278.5 74t160.5 210
t52 322q0 283 -118.5 442.5t-369.5 159.5q-170 0 -280 -73t-163.5 -207.5t-53.5 -321.5zM798 -351q-42 0 -71 27t-29 82q0 56 29 82.5t71 26.5q43 0 72 -26.5t29 -82.5q0 -55 -29 -82t-72 -27z" />
    <glyph glyph-name="uni1ECD" unicode="&#x1ecd;" horiz-adv-x="1232" 
d="M1120 550q0 -135 -35 -241t-101 -179t-159.5 -111.5t-211.5 -38.5q-110 0 -201.5 38.5t-158 111.5t-103 179t-36.5 241q0 180 61 306.5t174.5 193t270.5 66.5q150 0 262.5 -67t175 -193.5t62.5 -305.5zM286 550q0 -132 35 -229t108 -150t188 -53q114 0 187.5 53
t108.5 150t35 229q0 131 -35 226.5t-108 147.5t-189 52q-171 0 -250.5 -113t-79.5 -313zM611 -351q-42 0 -71 27t-29 82q0 56 29 82.5t71 26.5q43 0 72 -26.5t29 -82.5q0 -55 -29 -82t-72 -27z" />
    <glyph glyph-name="uni1ECE" unicode="&#x1ece;" horiz-adv-x="1593" 
d="M1468 733q0 -169 -43 -307.5t-127.5 -238t-209.5 -153.5t-290 -54q-170 0 -296.5 54t-210 154t-125 239t-41.5 308q0 224 74 393t224.5 263t377.5 94q217 0 365.5 -93t225 -261.5t76.5 -397.5zM304 733q0 -186 53 -322t162.5 -210t278.5 -74q170 0 278.5 74t160.5 210
t52 322q0 283 -118.5 442.5t-369.5 159.5q-170 0 -280 -73t-163.5 -207.5t-53.5 -321.5zM1020 1836q0 -77 -47 -119.5t-120 -59.5l-9 -111h-104l-13 173q77 13 120.5 37.5t43.5 73.5t-38.5 67t-97.5 18q-28 0 -55.5 -2.5t-45.5 -6.5v100q20 6 48 9.5t67 3.5q121 0 186 -45.5
t65 -137.5z" />
    <glyph glyph-name="uni1ECF" unicode="&#x1ecf;" horiz-adv-x="1232" 
d="M1120 550q0 -135 -35 -241t-101 -179t-159.5 -111.5t-211.5 -38.5q-110 0 -201.5 38.5t-158 111.5t-103 179t-36.5 241q0 180 61 306.5t174.5 193t270.5 66.5q150 0 262.5 -67t175 -193.5t62.5 -305.5zM286 550q0 -132 35 -229t108 -150t188 -53q114 0 187.5 53
t108.5 150t35 229q0 131 -35 226.5t-108 147.5t-189 52q-171 0 -250.5 -113t-79.5 -313zM838 1498q0 -77 -47 -119.5t-120 -59.5l-9 -111h-104l-13 173q77 13 120.5 37.5t43.5 73.5t-38.5 67t-97.5 18q-28 0 -55.5 -2.5t-45.5 -6.5v100q20 6 48 9.5t67 3.5q121 0 186 -45.5
t65 -137.5z" />
    <glyph glyph-name="uni1ED0" unicode="&#x1ed0;" horiz-adv-x="1593" 
d="M1468 733q0 -169 -43 -307.5t-127.5 -238t-209.5 -153.5t-290 -54q-170 0 -296.5 54t-210 154t-125 239t-41.5 308q0 224 74 393t224.5 263t377.5 94q217 0 365.5 -93t225 -261.5t76.5 -397.5zM304 733q0 -186 53 -322t162.5 -210t278.5 -74q170 0 278.5 74t160.5 210
t52 322q0 283 -118.5 442.5t-369.5 159.5q-170 0 -280 -73t-163.5 -207.5t-53.5 -321.5zM1101 1579h-94q-51 35 -105.5 78t-105.5 92q-53 -49 -106.5 -92t-104.5 -78h-95v24q35 38 74 81t77 89t69 91h172q31 -45 68.5 -91t76.5 -89t74 -81v-24zM1022 1797q41 50 69.5 95
t60.5 109h167v-21q-43 -58 -95.5 -110.5t-105.5 -95.5h-96v23z" />
    <glyph glyph-name="uni1ED1" unicode="&#x1ed1;" horiz-adv-x="1232" 
d="M1120 550q0 -135 -35 -241t-101 -179t-159.5 -111.5t-211.5 -38.5q-110 0 -201.5 38.5t-158 111.5t-103 179t-36.5 241q0 180 61 306.5t174.5 193t270.5 66.5q150 0 262.5 -67t175 -193.5t62.5 -305.5zM286 550q0 -132 35 -229t108 -150t188 -53q114 0 187.5 53
t108.5 150t35 229q0 131 -35 226.5t-108 147.5t-189 52q-171 0 -250.5 -113t-79.5 -313zM919 1241h-94q-51 35 -105.5 78t-105.5 92q-53 -49 -106.5 -92t-104.5 -78h-95v24q35 38 74 81t77 89t69 91h172q31 -45 68.5 -91t76.5 -89t74 -81v-24zM840 1459q41 50 69.5 95
t60.5 109h167v-21q-43 -58 -95.5 -110.5t-105.5 -95.5h-96v23z" />
    <glyph glyph-name="uni1ED2" unicode="&#x1ed2;" horiz-adv-x="1593" 
d="M1468 733q0 -169 -43 -307.5t-127.5 -238t-209.5 -153.5t-290 -54q-170 0 -296.5 54t-210 154t-125 239t-41.5 308q0 224 74 393t224.5 263t377.5 94q217 0 365.5 -93t225 -261.5t76.5 -397.5zM304 733q0 -186 53 -322t162.5 -210t278.5 -74q170 0 278.5 74t160.5 210
t52 322q0 283 -118.5 442.5t-369.5 159.5q-170 0 -280 -73t-163.5 -207.5t-53.5 -321.5zM494 1579v22q34 38 73 81t77.5 89t69.5 91h174q32 -45 69.5 -91t76 -89t73.5 -81v-22h-96q-52 35 -105 78t-106 92q-52 -49 -106 -92t-106 -78h-94zM482 1774q-57 43 -108.5 95.5
t-95.5 110.5v21h165q32 -64 61 -109.5t69 -96.5v-21h-91z" />
    <glyph glyph-name="uni1ED3" unicode="&#x1ed3;" horiz-adv-x="1232" 
d="M1120 550q0 -135 -35 -241t-101 -179t-159.5 -111.5t-211.5 -38.5q-110 0 -201.5 38.5t-158 111.5t-103 179t-36.5 241q0 180 61 306.5t174.5 193t270.5 66.5q150 0 262.5 -67t175 -193.5t62.5 -305.5zM286 550q0 -132 35 -229t108 -150t188 -53q114 0 187.5 53
t108.5 150t35 229q0 131 -35 226.5t-108 147.5t-189 52q-171 0 -250.5 -113t-79.5 -313zM312 1241v22q34 38 73 81t77.5 89t69.5 91h174q32 -45 69.5 -91t76 -89t73.5 -81v-22h-96q-52 35 -105 78t-106 92q-52 -49 -106 -92t-106 -78h-94zM300 1436q-57 43 -108.5 95.5
t-95.5 110.5v21h165q32 -64 61 -109.5t69 -96.5v-21h-91z" />
    <glyph glyph-name="uni1ED4" unicode="&#x1ed4;" horiz-adv-x="1593" 
d="M1468 733q0 -169 -43 -307.5t-127.5 -238t-209.5 -153.5t-290 -54q-170 0 -296.5 54t-210 154t-125 239t-41.5 308q0 224 74 393t224.5 263t377.5 94q217 0 365.5 -93t225 -261.5t76.5 -397.5zM304 733q0 -186 53 -322t162.5 -210t278.5 -74q170 0 278.5 74t160.5 210
t52 322q0 283 -118.5 442.5t-369.5 159.5q-170 0 -280 -73t-163.5 -207.5t-53.5 -321.5zM880 1864q31 -45 68.5 -91t76.5 -89t74 -81v-24h-94q-51 35 -105.5 78t-105.5 92q-53 -49 -106.5 -92t-104.5 -78h-95v24q35 38 74 81t77 89t69 91h172zM1082 2121q91 0 141 -34.5
t50 -105.5q0 -58 -37.5 -88t-91.5 -42l-6 -81h-79l-9 129q60 9 91.5 25t31.5 53q0 36 -27.5 50t-73.5 14q-22 0 -41.5 -2t-32.5 -5v79q14 4 35 6t49 2z" />
    <glyph glyph-name="uni1ED5" unicode="&#x1ed5;" horiz-adv-x="1232" 
d="M1120 550q0 -135 -35 -241t-101 -179t-159.5 -111.5t-211.5 -38.5q-110 0 -201.5 38.5t-158 111.5t-103 179t-36.5 241q0 180 61 306.5t174.5 193t270.5 66.5q150 0 262.5 -67t175 -193.5t62.5 -305.5zM286 550q0 -132 35 -229t108 -150t188 -53q114 0 187.5 53
t108.5 150t35 229q0 131 -35 226.5t-108 147.5t-189 52q-171 0 -250.5 -113t-79.5 -313zM700 1526q31 -45 68.5 -91t76.5 -89t74 -81v-24h-94q-51 35 -105.5 78t-105.5 92q-53 -49 -106.5 -92t-104.5 -78h-95v24q35 38 74 81t77 89t69 91h172zM902 1783q91 0 141 -34.5
t50 -105.5q0 -58 -37.5 -88t-91.5 -42l-6 -81h-79l-9 129q60 9 91.5 25t31.5 53q0 36 -27.5 50t-73.5 14q-22 0 -41.5 -2t-32.5 -5v79q14 4 35 6t49 2z" />
    <glyph glyph-name="uni1ED6" unicode="&#x1ed6;" horiz-adv-x="1593" 
d="M1468 733q0 -169 -43 -307.5t-127.5 -238t-209.5 -153.5t-290 -54q-170 0 -296.5 54t-210 154t-125 239t-41.5 308q0 224 74 393t224.5 263t377.5 94q217 0 365.5 -93t225 -261.5t76.5 -397.5zM304 733q0 -186 53 -322t162.5 -210t278.5 -74q170 0 278.5 74t160.5 210
t52 322q0 283 -118.5 442.5t-369.5 159.5q-170 0 -280 -73t-163.5 -207.5t-53.5 -321.5zM881 1861q32 -45 70 -91t77 -88.5t74 -80.5v-22h-92q-53 35 -106.5 77t-106.5 91q-52 -49 -107.5 -91t-106.5 -77h-92v22q34 38 73.5 80.5t78 88.5t69.5 91h169zM1118 2146
q-6 -64 -29.5 -113.5t-63 -77t-93.5 -27.5q-37 0 -72 15t-68 34.5t-64.5 34.5t-60.5 15q-41 0 -63.5 -24.5t-35.5 -77.5h-88q11 95 59 157t128 62q38 0 74 -15t69.5 -35t64.5 -35t59 -15q41 0 63 25t34 77h87z" />
    <glyph glyph-name="uni1ED7" unicode="&#x1ed7;" horiz-adv-x="1232" 
d="M1120 550q0 -135 -35 -241t-101 -179t-159.5 -111.5t-211.5 -38.5q-110 0 -201.5 38.5t-158 111.5t-103 179t-36.5 241q0 180 61 306.5t174.5 193t270.5 66.5q150 0 262.5 -67t175 -193.5t62.5 -305.5zM286 550q0 -132 35 -229t108 -150t188 -53q114 0 187.5 53
t108.5 150t35 229q0 131 -35 226.5t-108 147.5t-189 52q-171 0 -250.5 -113t-79.5 -313zM700 1523q32 -45 70 -91t77 -88.5t74 -80.5v-22h-92q-53 35 -106.5 77t-106.5 91q-52 -49 -107.5 -91t-106.5 -77h-92v22q34 38 73.5 80.5t78 88.5t69.5 91h169zM937 1808
q-6 -64 -29.5 -113.5t-63 -77t-93.5 -27.5q-37 0 -72 15t-68 34.5t-64.5 34.5t-60.5 15q-41 0 -63.5 -24.5t-35.5 -77.5h-88q11 95 59 157t128 62q38 0 74 -15t69.5 -35t64.5 -35t59 -15q41 0 63 25t34 77h87z" />
    <glyph glyph-name="uni1ED8" unicode="&#x1ed8;" horiz-adv-x="1593" 
d="M1468 733q0 -169 -43 -307.5t-127.5 -238t-209.5 -153.5t-290 -54q-170 0 -296.5 54t-210 154t-125 239t-41.5 308q0 224 74 393t224.5 263t377.5 94q217 0 365.5 -93t225 -261.5t76.5 -397.5zM304 733q0 -186 53 -322t162.5 -210t278.5 -74q170 0 278.5 74t160.5 210
t52 322q0 283 -118.5 442.5t-369.5 159.5q-170 0 -280 -73t-163.5 -207.5t-53.5 -321.5zM798 -351q-42 0 -71 27t-29 82q0 56 29 82.5t71 26.5q43 0 72 -26.5t29 -82.5q0 -55 -29 -82t-72 -27zM884 1935q25 -45 70 -101.5t95 -110.5t89 -93v-22h-118q-54 35 -111 86
t-111 106q-54 -55 -109.5 -105.5t-109.5 -86.5h-114v22q38 40 86.5 94t93 110t70.5 101h169z" />
    <glyph glyph-name="uni1ED9" unicode="&#x1ed9;" horiz-adv-x="1232" 
d="M1120 550q0 -135 -35 -241t-101 -179t-159.5 -111.5t-211.5 -38.5q-110 0 -201.5 38.5t-158 111.5t-103 179t-36.5 241q0 180 61 306.5t174.5 193t270.5 66.5q150 0 262.5 -67t175 -193.5t62.5 -305.5zM286 550q0 -132 35 -229t108 -150t188 -53q114 0 187.5 53
t108.5 150t35 229q0 131 -35 226.5t-108 147.5t-189 52q-171 0 -250.5 -113t-79.5 -313zM611 -351q-42 0 -71 27t-29 82q0 56 29 82.5t71 26.5q43 0 72 -26.5t29 -82.5q0 -55 -29 -82t-72 -27zM703 1568q25 -45 70 -101.5t95 -110.5t89 -93v-22h-118q-54 35 -111 86
t-111 106q-54 -55 -109.5 -105.5t-109.5 -86.5h-114v22q38 40 86.5 94t93 110t70.5 101h169z" />
    <glyph glyph-name="uni1EDA" unicode="&#x1eda;" horiz-adv-x="1599" 
d="M1466 733q0 -169 -42.5 -307.5t-127 -238t-209 -153.5t-289.5 -54q-171 0 -297.5 54t-210 154t-124.5 239t-41 308q0 224 74 393t224 263t378 94q167 0 293.5 -57t211.5 -159q56 16 85 55.5t40 98.5t11 133h178l14 -21q-21 -125 -79 -224t-183 -146q47 -88 70.5 -196.5
t23.5 -235.5zM304 733q0 -186 52.5 -322t162 -210t279.5 -74q171 0 279 74t159 210t51 322q0 282 -117 442t-369 160q-171 0 -281 -73t-163 -208t-53 -321zM1087 1936v-20q-20 -29 -54.5 -69.5t-76.5 -85t-84.5 -84.5t-78.5 -69h-111v24q32 38 70 91.5t74 110t60 102.5h201z
" />
    <glyph glyph-name="uni1EDB" unicode="&#x1edb;" horiz-adv-x="1251" 
d="M1120 550q0 -180 -61.5 -307.5t-175 -195t-270.5 -67.5q-146 0 -259 67.5t-176.5 195t-63.5 307.5q0 270 135.5 418t370.5 148q109 0 199.5 -37t155.5 -105q59 19 89 59.5t40 99.5t10 131h176l14 -21q-16 -94 -47 -167t-81.5 -124t-126.5 -80q34 -65 52.5 -146t18.5 -176
zM286 550q0 -140 34.5 -236.5t108 -146t188.5 -49.5q116 0 189 50t107.5 146.5t34.5 235.5q0 138 -34.5 233t-107.5 144t-190 49q-172 0 -251 -108.5t-79 -317.5zM907 1569v-20q-20 -29 -54.5 -69.5t-76.5 -85t-84.5 -84.5t-78.5 -69h-111v24q32 38 70 91.5t74 110t60 102.5
h201z" />
    <glyph glyph-name="uni1EDC" unicode="&#x1edc;" horiz-adv-x="1599" 
d="M1466 733q0 -169 -42.5 -307.5t-127 -238t-209 -153.5t-289.5 -54q-171 0 -297.5 54t-210 154t-124.5 239t-41 308q0 224 74 393t224 263t378 94q167 0 293.5 -57t211.5 -159q56 16 85 55.5t40 98.5t11 133h178l14 -21q-21 -125 -79 -224t-183 -146q47 -88 70.5 -196.5
t23.5 -235.5zM304 733q0 -186 52.5 -322t162 -210t279.5 -74q171 0 279 74t159 210t51 322q0 282 -117 442t-369 160q-171 0 -281 -73t-163 -208t-53 -321zM730 1936q24 -46 59.5 -102.5t75 -110t72.5 -91.5v-24h-113q-36 29 -78.5 69t-84.5 84.5t-76 85t-53 69.5v20h198z
" />
    <glyph glyph-name="uni1EDD" unicode="&#x1edd;" horiz-adv-x="1251" 
d="M1120 550q0 -180 -61.5 -307.5t-175 -195t-270.5 -67.5q-146 0 -259 67.5t-176.5 195t-63.5 307.5q0 270 135.5 418t370.5 148q109 0 199.5 -37t155.5 -105q59 19 89 59.5t40 99.5t10 131h176l14 -21q-16 -94 -47 -167t-81.5 -124t-126.5 -80q34 -65 52.5 -146t18.5 -176
zM286 550q0 -140 34.5 -236.5t108 -146t188.5 -49.5q116 0 189 50t107.5 146.5t34.5 235.5q0 138 -34.5 233t-107.5 144t-190 49q-172 0 -251 -108.5t-79 -317.5zM548 1569q24 -46 59.5 -102.5t75 -110t72.5 -91.5v-24h-113q-36 29 -78.5 69t-84.5 84.5t-76 85t-53 69.5v20
h198z" />
    <glyph glyph-name="uni1EDE" unicode="&#x1ede;" horiz-adv-x="1599" 
d="M1466 733q0 -169 -42.5 -307.5t-127 -238t-209 -153.5t-289.5 -54q-171 0 -297.5 54t-210 154t-124.5 239t-41 308q0 224 74 393t224 263t378 94q167 0 293.5 -57t211.5 -159q56 16 85 55.5t40 98.5t11 133h178l14 -21q-21 -125 -79 -224t-183 -146q47 -88 70.5 -196.5
t23.5 -235.5zM304 733q0 -186 52.5 -322t162 -210t279.5 -74q171 0 279 74t159 210t51 322q0 282 -117 442t-369 160q-171 0 -281 -73t-163 -208t-53 -321zM1021 1836q0 -77 -47 -119.5t-120 -59.5l-9 -111h-104l-13 173q77 13 120.5 37.5t43.5 73.5t-38.5 67t-97.5 18
q-28 0 -55.5 -2.5t-45.5 -6.5v100q20 6 48 9.5t67 3.5q121 0 186 -45.5t65 -137.5z" />
    <glyph glyph-name="uni1EDF" unicode="&#x1edf;" horiz-adv-x="1251" 
d="M1120 550q0 -180 -61.5 -307.5t-175 -195t-270.5 -67.5q-146 0 -259 67.5t-176.5 195t-63.5 307.5q0 270 135.5 418t370.5 148q109 0 199.5 -37t155.5 -105q59 19 89 59.5t40 99.5t10 131h176l14 -21q-16 -94 -47 -167t-81.5 -124t-126.5 -80q34 -65 52.5 -146t18.5 -176
zM286 550q0 -140 34.5 -236.5t108 -146t188.5 -49.5q116 0 189 50t107.5 146.5t34.5 235.5q0 138 -34.5 233t-107.5 144t-190 49q-172 0 -251 -108.5t-79 -317.5zM838 1498q0 -77 -47 -119.5t-120 -59.5l-9 -111h-104l-13 173q77 13 120.5 37.5t43.5 73.5t-38.5 67t-97.5 18
q-28 0 -55.5 -2.5t-45.5 -6.5v100q20 6 48 9.5t67 3.5q121 0 186 -45.5t65 -137.5z" />
    <glyph glyph-name="uni1EE0" unicode="&#x1ee0;" horiz-adv-x="1599" 
d="M1466 733q0 -169 -42.5 -307.5t-127 -238t-209 -153.5t-289.5 -54q-171 0 -297.5 54t-210 154t-124.5 239t-41 308q0 224 74 393t224 263t378 94q167 0 293.5 -57t211.5 -159q56 16 85 55.5t40 98.5t11 133h178l14 -21q-21 -125 -79 -224t-183 -146q47 -88 70.5 -196.5
t23.5 -235.5zM304 733q0 -186 52.5 -322t162 -210t279.5 -74q171 0 279 74t159 210t51 322q0 282 -117 442t-369 160q-171 0 -281 -73t-163 -208t-53 -321zM420 1611q6 60 23 107t45 80t66.5 50.5t85.5 17.5q46 0 88 -18.5t80 -42t73.5 -42t68.5 -18.5q48 0 74.5 29.5
t40.5 93.5h98q-13 -117 -69 -186.5t-151 -69.5q-44 0 -85 18.5t-79 42t-74.5 42t-71.5 18.5q-49 0 -75 -29.5t-40 -92.5h-98z" />
    <glyph glyph-name="uni1EE1" unicode="&#x1ee1;" horiz-adv-x="1251" 
d="M1120 550q0 -180 -61.5 -307.5t-175 -195t-270.5 -67.5q-146 0 -259 67.5t-176.5 195t-63.5 307.5q0 270 135.5 418t370.5 148q109 0 199.5 -37t155.5 -105q59 19 89 59.5t40 99.5t10 131h176l14 -21q-16 -94 -47 -167t-81.5 -124t-126.5 -80q34 -65 52.5 -146t18.5 -176
zM286 550q0 -140 34.5 -236.5t108 -146t188.5 -49.5q116 0 189 50t107.5 146.5t34.5 235.5q0 138 -34.5 233t-107.5 144t-190 49q-172 0 -251 -108.5t-79 -317.5zM240 1244q6 60 23 107t45 80t66.5 50.5t85.5 17.5q46 0 88 -18.5t80 -42t73.5 -42t68.5 -18.5q48 0 74.5 29.5
t40.5 93.5h98q-13 -117 -69 -186.5t-151 -69.5q-44 0 -85 18.5t-79 42t-74.5 42t-71.5 18.5q-49 0 -75 -29.5t-40 -92.5h-98z" />
    <glyph glyph-name="uni1EE2" unicode="&#x1ee2;" horiz-adv-x="1599" 
d="M1466 733q0 -169 -42.5 -307.5t-127 -238t-209 -153.5t-289.5 -54q-171 0 -297.5 54t-210 154t-124.5 239t-41 308q0 224 74 393t224 263t378 94q167 0 293.5 -57t211.5 -159q56 16 85 55.5t40 98.5t11 133h178l14 -21q-21 -125 -79 -224t-183 -146q47 -88 70.5 -196.5
t23.5 -235.5zM304 733q0 -186 52.5 -322t162 -210t279.5 -74q171 0 279 74t159 210t51 322q0 282 -117 442t-369 160q-171 0 -281 -73t-163 -208t-53 -321zM792 -351q-42 0 -71 27t-29 82q0 56 29 82.5t71 26.5q43 0 72 -26.5t29 -82.5q0 -55 -29 -82t-72 -27z" />
    <glyph glyph-name="uni1EE3" unicode="&#x1ee3;" horiz-adv-x="1251" 
d="M1120 550q0 -180 -61.5 -307.5t-175 -195t-270.5 -67.5q-146 0 -259 67.5t-176.5 195t-63.5 307.5q0 270 135.5 418t370.5 148q109 0 199.5 -37t155.5 -105q59 19 89 59.5t40 99.5t10 131h176l14 -21q-16 -94 -47 -167t-81.5 -124t-126.5 -80q34 -65 52.5 -146t18.5 -176
zM286 550q0 -140 34.5 -236.5t108 -146t188.5 -49.5q116 0 189 50t107.5 146.5t34.5 235.5q0 138 -34.5 233t-107.5 144t-190 49q-172 0 -251 -108.5t-79 -317.5zM613 -351q-42 0 -71 27t-29 82q0 56 29 82.5t71 26.5q43 0 72 -26.5t29 -82.5q0 -55 -29 -82t-72 -27z" />
    <glyph glyph-name="uni1EE4" unicode="&#x1ee4;" horiz-adv-x="1493" 
d="M1306 1462v-946q0 -155 -62.5 -276t-188.5 -190.5t-316 -69.5q-271 0 -412.5 147t-141.5 393v942h171v-947q0 -186 98.5 -287t294.5 -101q134 0 219.5 48.5t127 136t41.5 202.5v948h169zM742 -351q-42 0 -71 27t-29 82q0 56 29 82.5t71 26.5q43 0 72 -26.5t29 -82.5
q0 -55 -29 -82t-72 -27z" />
    <glyph glyph-name="uni1EE5" unicode="&#x1ee5;" horiz-adv-x="1256" 
d="M1080 1096v-1096h-136l-24 154h-9q-34 -57 -88 -96t-121.5 -58.5t-143.5 -19.5q-130 0 -218 42t-132.5 130t-44.5 226v718h168v-706q0 -137 62 -204.5t189 -67.5q122 0 194.5 46t104.5 135.5t32 219.5v577h167zM598 -351q-42 0 -71 27t-29 82q0 56 29 82.5t71 26.5
q43 0 72 -26.5t29 -82.5q0 -55 -29 -82t-72 -27z" />
    <glyph glyph-name="uni1EE6" unicode="&#x1ee6;" horiz-adv-x="1493" 
d="M1306 1462v-946q0 -155 -62.5 -276t-188.5 -190.5t-316 -69.5q-271 0 -412.5 147t-141.5 393v942h171v-947q0 -186 98.5 -287t294.5 -101q134 0 219.5 48.5t127 136t41.5 202.5v948h169zM962 1836q0 -77 -47 -119.5t-120 -59.5l-9 -111h-104l-13 173q77 13 120.5 37.5
t43.5 73.5t-38.5 67t-97.5 18q-28 0 -55.5 -2.5t-45.5 -6.5v100q20 6 48 9.5t67 3.5q121 0 186 -45.5t65 -137.5z" />
    <glyph glyph-name="uni1EE7" unicode="&#x1ee7;" horiz-adv-x="1256" 
d="M1080 1096v-1096h-136l-24 154h-9q-34 -57 -88 -96t-121.5 -58.5t-143.5 -19.5q-130 0 -218 42t-132.5 130t-44.5 226v718h168v-706q0 -137 62 -204.5t189 -67.5q122 0 194.5 46t104.5 135.5t32 219.5v577h167zM838 1498q0 -77 -47 -119.5t-120 -59.5l-9 -111h-104
l-13 173q77 13 120.5 37.5t43.5 73.5t-38.5 67t-97.5 18q-28 0 -55.5 -2.5t-45.5 -6.5v100q20 6 48 9.5t67 3.5q121 0 186 -45.5t65 -137.5z" />
    <glyph glyph-name="uni1EE8" unicode="&#x1ee8;" horiz-adv-x="1582" 
d="M1306 1462v-200q65 11 99.5 49t48 100t13.5 145h175l14 -21q-12 -73 -34.5 -137.5t-62 -116t-101.5 -86.5t-152 -51v-628q0 -155 -58.5 -276t-180.5 -190.5t-314 -69.5q-277 0 -422.5 147t-145.5 393v942h171v-949q0 -184 100.5 -285t300.5 -101q134 0 218 48.5
t123 135.5t39 201v950h169zM1037 1936v-20q-20 -29 -54.5 -69.5t-76.5 -85t-84.5 -84.5t-78.5 -69h-111v24q32 38 70 91.5t74 110t60 102.5h201z" />
    <glyph glyph-name="uni1EE9" unicode="&#x1ee9;" horiz-adv-x="1357" 
d="M1409 1266l14 -22q-11 -72 -33.5 -138t-61.5 -119t-99.5 -88t-148.5 -45v-854h-136l-24 154h-9q-34 -57 -87 -96t-120 -58.5t-142 -19.5q-132 0 -221 42t-133.5 130t-44.5 226v716h168v-704q0 -137 62 -204.5t189 -67.5q182 0 256.5 103t74.5 298v575h167v-122
q64 12 97 51t45 101t12 142h175zM918 1569v-20q-20 -29 -54.5 -69.5t-76.5 -85t-84.5 -84.5t-78.5 -69h-111v24q32 38 70 91.5t74 110t60 102.5h201z" />
    <glyph glyph-name="uni1EEA" unicode="&#x1eea;" horiz-adv-x="1582" 
d="M1306 1462v-200q65 11 99.5 49t48 100t13.5 145h175l14 -21q-12 -73 -34.5 -137.5t-62 -116t-101.5 -86.5t-152 -51v-628q0 -155 -58.5 -276t-180.5 -190.5t-314 -69.5q-277 0 -422.5 147t-145.5 393v942h171v-949q0 -184 100.5 -285t300.5 -101q134 0 218 48.5
t123 135.5t39 201v950h169zM679 1936q24 -46 59.5 -102.5t75 -110t72.5 -91.5v-24h-113q-36 29 -78.5 69t-84.5 84.5t-76 85t-53 69.5v20h198z" />
    <glyph glyph-name="uni1EEB" unicode="&#x1eeb;" horiz-adv-x="1357" 
d="M1409 1266l14 -22q-11 -72 -33.5 -138t-61.5 -119t-99.5 -88t-148.5 -45v-854h-136l-24 154h-9q-34 -57 -87 -96t-120 -58.5t-142 -19.5q-132 0 -221 42t-133.5 130t-44.5 226v716h168v-704q0 -137 62 -204.5t189 -67.5q182 0 256.5 103t74.5 298v575h167v-122
q64 12 97 51t45 101t12 142h175zM560 1569q24 -46 59.5 -102.5t75 -110t72.5 -91.5v-24h-113q-36 29 -78.5 69t-84.5 84.5t-76 85t-53 69.5v20h198z" />
    <glyph glyph-name="uni1EEC" unicode="&#x1eec;" horiz-adv-x="1582" 
d="M1306 1462v-200q65 11 99.5 49t48 100t13.5 145h175l14 -21q-12 -73 -34.5 -137.5t-62 -116t-101.5 -86.5t-152 -51v-628q0 -155 -58.5 -276t-180.5 -190.5t-314 -69.5q-277 0 -422.5 147t-145.5 393v942h171v-949q0 -184 100.5 -285t300.5 -101q134 0 218 48.5
t123 135.5t39 201v950h169zM972 1836q0 -77 -47 -119.5t-120 -59.5l-9 -111h-104l-13 173q77 13 120.5 37.5t43.5 73.5t-38.5 67t-97.5 18q-28 0 -55.5 -2.5t-45.5 -6.5v100q20 6 48 9.5t67 3.5q121 0 186 -45.5t65 -137.5z" />
    <glyph glyph-name="uni1EED" unicode="&#x1eed;" horiz-adv-x="1357" 
d="M1409 1266l14 -22q-11 -72 -33.5 -138t-61.5 -119t-99.5 -88t-148.5 -45v-854h-136l-24 154h-9q-34 -57 -87 -96t-120 -58.5t-142 -19.5q-132 0 -221 42t-133.5 130t-44.5 226v716h168v-704q0 -137 62 -204.5t189 -67.5q182 0 256.5 103t74.5 298v575h167v-122
q64 12 97 51t45 101t12 142h175zM843 1498q0 -77 -47 -119.5t-120 -59.5l-9 -111h-104l-13 173q77 13 120.5 37.5t43.5 73.5t-38.5 67t-97.5 18q-28 0 -55.5 -2.5t-45.5 -6.5v100q20 6 48 9.5t67 3.5q121 0 186 -45.5t65 -137.5z" />
    <glyph glyph-name="uni1EEE" unicode="&#x1eee;" horiz-adv-x="1582" 
d="M1306 1462v-200q65 11 99.5 49t48 100t13.5 145h175l14 -21q-12 -73 -34.5 -137.5t-62 -116t-101.5 -86.5t-152 -51v-628q0 -155 -58.5 -276t-180.5 -190.5t-314 -69.5q-277 0 -422.5 147t-145.5 393v942h171v-949q0 -184 100.5 -285t300.5 -101q134 0 218 48.5
t123 135.5t39 201v950h169zM370 1611q6 60 23 107t45 80t66.5 50.5t85.5 17.5q46 0 88 -18.5t80 -42t73.5 -42t68.5 -18.5q48 0 74.5 29.5t40.5 93.5h98q-13 -117 -69 -186.5t-151 -69.5q-44 0 -85 18.5t-79 42t-74.5 42t-71.5 18.5q-49 0 -75 -29.5t-40 -92.5h-98z" />
    <glyph glyph-name="uni1EEF" unicode="&#x1eef;" horiz-adv-x="1357" 
d="M1409 1266l14 -22q-11 -72 -33.5 -138t-61.5 -119t-99.5 -88t-148.5 -45v-854h-136l-24 154h-9q-34 -57 -87 -96t-120 -58.5t-142 -19.5q-132 0 -221 42t-133.5 130t-44.5 226v716h168v-704q0 -137 62 -204.5t189 -67.5q182 0 256.5 103t74.5 298v575h167v-122
q64 12 97 51t45 101t12 142h175zM250 1244q6 60 23 107t45 80t66.5 50.5t85.5 17.5q46 0 88 -18.5t80 -42t73.5 -42t68.5 -18.5q48 0 74.5 29.5t40.5 93.5h98q-13 -117 -69 -186.5t-151 -69.5q-44 0 -85 18.5t-79 42t-74.5 42t-71.5 18.5q-49 0 -75 -29.5t-40 -92.5h-98z
" />
    <glyph glyph-name="uni1EF0" unicode="&#x1ef0;" horiz-adv-x="1582" 
d="M1306 1462v-200q65 11 99.5 49t48 100t13.5 145h175l14 -21q-12 -73 -34.5 -137.5t-62 -116t-101.5 -86.5t-152 -51v-628q0 -155 -58.5 -276t-180.5 -190.5t-314 -69.5q-277 0 -422.5 147t-145.5 393v942h171v-949q0 -184 100.5 -285t300.5 -101q134 0 218 48.5
t123 135.5t39 201v950h169zM751 -351q-42 0 -71 27t-29 82q0 56 29 82.5t71 26.5q43 0 72 -26.5t29 -82.5q0 -55 -29 -82t-72 -27z" />
    <glyph glyph-name="uni1EF1" unicode="&#x1ef1;" horiz-adv-x="1357" 
d="M1409 1266l14 -22q-11 -72 -33.5 -138t-61.5 -119t-99.5 -88t-148.5 -45v-854h-136l-24 154h-9q-34 -57 -87 -96t-120 -58.5t-142 -19.5q-132 0 -221 42t-133.5 130t-44.5 226v716h168v-704q0 -137 62 -204.5t189 -67.5q182 0 256.5 103t74.5 298v575h167v-122
q64 12 97 51t45 101t12 142h175zM597 -351q-42 0 -71 27t-29 82q0 56 29 82.5t71 26.5q43 0 72 -26.5t29 -82.5q0 -55 -29 -82t-72 -27z" />
    <glyph glyph-name="Ygrave" unicode="&#x1ef2;" horiz-adv-x="1145" 
d="M573 729l389 733h183l-487 -895v-567h-170v559l-488 903h186zM504 1936q24 -46 59.5 -102.5t75 -110t72.5 -91.5v-24h-113q-36 29 -78.5 69t-84.5 84.5t-76 85t-53 69.5v20h198z" />
    <glyph glyph-name="ygrave" unicode="&#x1ef3;" horiz-adv-x="1026" 
d="M2 1096h178l242 -636q21 -56 39 -107.5t32 -98.5t22 -91h7q14 50 40 131.5t56 166.5l229 635h179l-477 -1257q-38 -101 -88.5 -176t-122.5 -115.5t-174 -40.5q-47 0 -83 5.5t-62 12.5v133q22 -5 53.5 -9t65.5 -4q62 0 107.5 23.5t78.5 68.5t57 107l60 154zM445 1569
q24 -46 59.5 -102.5t75 -110t72.5 -91.5v-24h-113q-36 29 -78.5 69t-84.5 84.5t-76 85t-53 69.5v20h198z" />
    <glyph glyph-name="uni1EF4" unicode="&#x1ef4;" horiz-adv-x="1145" 
d="M573 729l389 733h183l-487 -895v-567h-170v559l-488 903h186zM569 -351q-42 0 -71 27t-29 82q0 56 29 82.5t71 26.5q43 0 72 -26.5t29 -82.5q0 -55 -29 -82t-72 -27z" />
    <glyph glyph-name="uni1EF5" unicode="&#x1ef5;" horiz-adv-x="1026" 
d="M2 1096h178l242 -636q21 -56 39 -107.5t32 -98.5t22 -91h7q14 50 40 131.5t56 166.5l229 635h179l-477 -1257q-38 -101 -88.5 -176t-122.5 -115.5t-174 -40.5q-47 0 -83 5.5t-62 12.5v133q22 -5 53.5 -9t65.5 -4q62 0 107.5 23.5t78.5 68.5t57 107l60 154zM770 -381
q-42 0 -71 27t-29 82q0 56 29 82.5t71 26.5q43 0 72 -26.5t29 -82.5q0 -55 -29 -82t-72 -27z" />
    <glyph glyph-name="uni1EF6" unicode="&#x1ef6;" horiz-adv-x="1145" 
d="M573 729l389 733h183l-487 -895v-567h-170v559l-488 903h186zM794 1836q0 -77 -47 -119.5t-120 -59.5l-9 -111h-104l-13 173q77 13 120.5 37.5t43.5 73.5t-38.5 67t-97.5 18q-28 0 -55.5 -2.5t-45.5 -6.5v100q20 6 48 9.5t67 3.5q121 0 186 -45.5t65 -137.5z" />
    <glyph glyph-name="uni1EF7" unicode="&#x1ef7;" horiz-adv-x="1026" 
d="M2 1096h178l242 -636q21 -56 39 -107.5t32 -98.5t22 -91h7q14 50 40 131.5t56 166.5l229 635h179l-477 -1257q-38 -101 -88.5 -176t-122.5 -115.5t-174 -40.5q-47 0 -83 5.5t-62 12.5v133q22 -5 53.5 -9t65.5 -4q62 0 107.5 23.5t78.5 68.5t57 107l60 154zM727 1498
q0 -77 -47 -119.5t-120 -59.5l-9 -111h-104l-13 173q77 13 120.5 37.5t43.5 73.5t-38.5 67t-97.5 18q-28 0 -55.5 -2.5t-45.5 -6.5v100q20 6 48 9.5t67 3.5q121 0 186 -45.5t65 -137.5z" />
    <glyph glyph-name="uni1EF8" unicode="&#x1ef8;" horiz-adv-x="1145" 
d="M573 729l389 733h183l-487 -895v-567h-170v559l-488 903h186zM195 1611q6 60 23 107t45 80t66.5 50.5t85.5 17.5q46 0 88 -18.5t80 -42t73.5 -42t68.5 -18.5q48 0 74.5 29.5t40.5 93.5h98q-13 -117 -69 -186.5t-151 -69.5q-44 0 -85 18.5t-79 42t-74.5 42t-71.5 18.5
q-49 0 -75 -29.5t-40 -92.5h-98z" />
    <glyph glyph-name="uni1EF9" unicode="&#x1ef9;" horiz-adv-x="1026" 
d="M2 1096h178l242 -636q21 -56 39 -107.5t32 -98.5t22 -91h7q14 50 40 131.5t56 166.5l229 635h179l-477 -1257q-38 -101 -88.5 -176t-122.5 -115.5t-174 -40.5q-47 0 -83 5.5t-62 12.5v133q22 -5 53.5 -9t65.5 -4q62 0 107.5 23.5t78.5 68.5t57 107l60 154zM135 1244
q6 60 23 107t45 80t66.5 50.5t85.5 17.5q46 0 88 -18.5t80 -42t73.5 -42t68.5 -18.5q48 0 74.5 29.5t40.5 93.5h98q-13 -117 -69 -186.5t-151 -69.5q-44 0 -85 18.5t-79 42t-74.5 42t-71.5 18.5q-49 0 -75 -29.5t-40 -92.5h-98z" />
    <glyph glyph-name="uni2070" horiz-adv-x="712" 
d="M354 836q-157 0 -235 116.5t-78 339.5q0 219 75 336.5t238 117.5q157 0 236.5 -116t79.5 -338q0 -218 -75 -337t-241 -119zM354 956q92 0 135 82.5t43 253.5q0 170 -43 252.5t-135 82.5q-90 0 -132.5 -82.5t-42.5 -254.5q0 -169 42 -251.5t133 -82.5z" />
    <glyph glyph-name="uni2074" horiz-adv-x="712" 
d="M693 1057h-128v-205h-142v205h-402v98l405 580h139v-564h128v-114zM423 1171v207q0 44 1.5 99t4.5 104q-11 -25 -41.5 -72t-53.5 -81l-177 -257h266z" />
    <glyph glyph-name="uni2075" horiz-adv-x="712" 
d="M610 1729v-106h-380l-19 -233q26 5 56.5 9t66.5 4q137 0 227 -71t90 -199q0 -142 -86 -220.5t-250 -78.5q-67 0 -137 14t-116 40v128q56 -33 125 -52t124 -19q95 0 151 43t56 133q0 81 -54.5 125.5t-155.5 44.5q-54 0 -92 -8t-69 -16l-60 38l33 424h490z" />
    <glyph glyph-name="uni2076" horiz-adv-x="712" 
d="M478 1745q31 0 66 -4t59 -10v-114q-23 8 -58.5 13.5t-73.5 5.5q-111 0 -175.5 -43t-93.5 -116.5t-35 -165.5h8q29 44 85.5 74t141.5 30q121 0 196 -71.5t75 -202.5q0 -94 -37.5 -162.5t-106.5 -105.5t-162 -37t-166.5 42.5t-116.5 129.5t-43 218q0 103 19.5 196.5t68 166
t133.5 114.5t216 42zM370 1310q-59 0 -103.5 -22t-69 -56.5t-24.5 -73.5q0 -53 21.5 -102t64.5 -80t105 -31q80 0 129.5 48.5t49.5 144.5q0 80 -44 126t-129 46z" />
    <glyph glyph-name="uni2077" horiz-adv-x="712" 
d="M163 852l353 762h-458v115h600v-94l-354 -783h-141z" />
    <glyph glyph-name="uni2078" horiz-adv-x="712" 
d="M357 1744q113 0 193.5 -54.5t80.5 -164.5q0 -76 -43 -126t-108 -82q83 -34 131.5 -90t48.5 -140q0 -113 -84 -181.5t-219 -68.5q-97 0 -165.5 29.5t-104 84.5t-35.5 130q0 57 21 100t58 75t83 55q-66 40 -100.5 85t-34.5 123q0 108 82.5 166.5t195.5 58.5zM328 1259
q-48 -21 -80.5 -46.5t-49 -58t-16.5 -73.5q0 -60 43 -98.5t129 -38.5q89 0 131.5 38t42.5 99q0 60 -45.5 100.5t-128.5 67.5zM355 1639q-68 0 -106.5 -31t-38.5 -87t42.5 -92t106.5 -61q65 24 104 59.5t39 93.5q0 56 -39.5 87t-107.5 31z" />
    <glyph glyph-name="uni2079" horiz-adv-x="712" 
d="M341 1749q92 0 166 -41.5t117.5 -127t43.5 -219.5q0 -103 -19.5 -197.5t-67 -168.5t-131.5 -116.5t-214 -42.5q-35 0 -71 4t-59 10v116q22 -9 55 -15t82 -6q112 0 175 45.5t91.5 120.5t33.5 163h-10q-28 -40 -81 -72.5t-136 -32.5q-130 0 -205.5 73t-75.5 206t83.5 217
t222.5 84zM341 1639q-76 0 -126 -47t-50 -139q0 -81 42 -129.5t130 -48.5q58 0 102.5 21.5t69.5 56t25 73.5q0 61 -21 109t-63.5 76t-108.5 28z" />
    <glyph glyph-name="uni20AB" unicode="&#x20ab;" horiz-adv-x="1256" 
d="M565 -20q-208 0 -329.5 141.5t-121.5 418.5q0 287 124 429t329 142q87 0 152 -23t112.5 -62t79.5 -87h12q-5 31 -8.5 85t-3.5 90v131h-443v125h443v186h166v-186h155v-125h-155v-1245h-136l-24 156h-8q-31 -49 -78 -89t-112.5 -63.5t-153.5 -23.5zM592 118
q176 0 248 98.5t72 294.5v32q0 210 -69 320t-252 110q-153 0 -228.5 -115t-75.5 -319q0 -202 75 -311.5t230 -109.5zM1141 -307h-905v123h905v-123z" />
    <glyph glyph-name="hook" horiz-adv-x="0" 
d="M-397 1498q0 -77 -47 -119.5t-120 -59.5l-9 -111h-104l-13 173q77 13 120.5 37.5t43.5 73.5t-38.5 67t-97.5 18q-28 0 -55.5 -2.5t-45.5 -6.5v100q20 6 48 9.5t67 3.5q121 0 186 -45.5t65 -137.5z" />
    <glyph glyph-name="circumflexacutecomb" horiz-adv-x="0" 
d="M-301 1241h-94q-51 35 -105.5 78t-105.5 92q-53 -49 -106.5 -92t-104.5 -78h-95v24q35 38 74 81t77 89t69 91h172q31 -45 68.5 -91t76.5 -89t74 -81v-24zM-380 1459q41 50 69.5 95t60.5 109h167v-21q-43 -58 -95.5 -110.5t-105.5 -95.5h-96v23z" />
    <glyph glyph-name="circumflexgravecomb" horiz-adv-x="0" 
d="M-908 1241v22q34 38 73 81t77.5 89t69.5 91h174q32 -45 69.5 -91t76 -89t73.5 -81v-22h-96q-52 35 -105 78t-106 92q-52 -49 -106 -92t-106 -78h-94zM-920 1436q-57 43 -108.5 95.5t-95.5 110.5v21h165q32 -64 61 -109.5t69 -96.5v-21h-91z" />
    <glyph glyph-name="circumflexhookcomb" horiz-adv-x="0" 
d="M-520 1526q31 -45 68.5 -91t76.5 -89t74 -81v-24h-94q-51 35 -105.5 78t-105.5 92q-53 -49 -106.5 -92t-104.5 -78h-95v24q35 38 74 81t77 89t69 91h172zM-318 1783q91 0 141 -34.5t50 -105.5q0 -58 -37.5 -88t-91.5 -42l-6 -81h-79l-9 129q60 9 91.5 25t31.5 53
q0 36 -27.5 50t-73.5 14q-22 0 -41.5 -2t-32.5 -5v79q14 4 35 6t49 2z" />
    <glyph glyph-name="circumflextildecomb" horiz-adv-x="0" 
d="M-518 1523q32 -45 70 -91t77 -88.5t74 -80.5v-22h-92q-53 35 -106.5 77t-106.5 91q-52 -49 -107.5 -91t-106.5 -77h-92v22q34 38 73.5 80.5t78 88.5t69.5 91h169zM-281 1808q-6 -64 -29.5 -113.5t-63 -77t-93.5 -27.5q-37 0 -72 15t-68 34.5t-64.5 34.5t-60.5 15
q-41 0 -63.5 -24.5t-35.5 -77.5h-88q11 95 59 157t128 62q38 0 74 -15t69.5 -35t64.5 -35t59 -15q41 0 63 25t34 77h87z" />
    <glyph glyph-name="breveacutecomb" horiz-adv-x="0" 
d="M-312 1505q-11 -122 -85.5 -193t-214.5 -71q-143 0 -215 69.5t-80 194.5h102q8 -85 57.5 -111.5t137.5 -26.5q79 0 132.5 28.5t63.5 109.5h102zM-381 1730v-21q-29 -38 -62 -75.5t-68.5 -70.5t-71.5 -61h-93v22q39 50 69 96t60 110h166z" />
    <glyph glyph-name="brevegravecomb" horiz-adv-x="0" 
d="M-312 1505q-11 -122 -85 -193t-215 -71q-143 0 -214.5 69.5t-80.5 194.5h102q8 -85 57.5 -111.5t137.5 -26.5q80 0 133 28t63 110h102zM-684 1730q31 -64 59.5 -110t68.5 -96v-22h-91q-35 28 -71 61t-69 70.5t-62 75.5v21h165z" />
    <glyph glyph-name="brevehookcomb" horiz-adv-x="0" 
d="M-312 1505q-11 -122 -85 -193t-215 -71q-143 0 -214.5 69.5t-80.5 194.5h102q8 -85 57.5 -111.5t137.5 -26.5q80 0 133 28t63 110h102zM-651 1798q91 0 139.5 -34t48.5 -105q0 -58 -37 -87.5t-90 -40.5l-6 -45h-79l-9 94q59 9 90 25t31 52q0 35 -27.5 49t-71.5 14
q-23 0 -43 -2.5t-33 -4.5v76q15 5 36.5 7t50.5 2z" />
    <glyph glyph-name="brevetildecomb" horiz-adv-x="0" 
d="M-312 1502q-11 -121 -85 -191t-215 -70q-143 0 -214.5 68.5t-80.5 192.5h102q8 -84 57.5 -109.5t137.5 -25.5q80 0 133 26.5t63 108.5h102zM-282 1802q-6 -63 -29.5 -111.5t-63 -76t-93.5 -27.5q-37 0 -72.5 15t-68.5 35t-64.5 35t-60.5 15q-41 0 -63 -24.5t-36 -77.5
h-88q11 95 59 155t129 60q38 0 74 -15t69.5 -34.5t64.5 -34.5t59 -15q41 0 63 25t33 76h88z" />
    <glyph glyph-name="zero.dnom" horiz-adv-x="712" 
d="M354 -16q-157 0 -235 116.5t-78 339.5q0 219 75 336.5t238 117.5q157 0 236.5 -116t79.5 -338q0 -218 -75 -337t-241 -119zM354 104q92 0 135 82.5t43 253.5q0 170 -43 252.5t-135 82.5q-90 0 -132.5 -82.5t-42.5 -254.5q0 -169 42 -251.5t133 -82.5z" />
    <glyph glyph-name="one.dnom" horiz-adv-x="712" 
d="M481 877v-877h-135v566q0 36 1 67.5t2.5 62t3.5 59.5q-21 -19 -47 -40t-55 -40l-109 -77l-66 94l267 185h138z" />
    <glyph glyph-name="two.dnom" horiz-adv-x="712" 
d="M627 0h-577v104l237 232q82 80 126 131t60.5 92t16.5 88q0 66 -39 101.5t-105 35.5q-61 0 -112.5 -23.5t-104.5 -64.5l-67 89q60 50 130 80t156 30q130 0 204 -64.5t74 -176.5q0 -68 -27.5 -125t-81 -115t-130.5 -131l-170 -164h410v-119z" />
    <glyph glyph-name="three.dnom" horiz-adv-x="712" 
d="M339 895q143 0 216 -63t73 -161q0 -84 -44.5 -137t-106.5 -72v-6q81 -16 128.5 -68.5t47.5 -135.5q0 -119 -85.5 -193t-263.5 -74q-75 0 -140.5 13t-126.5 43v121q68 -32 137 -50t131 -18q108 0 159.5 43.5t51.5 118.5q0 76 -59.5 110.5t-167.5 34.5h-119v106h119
q104 0 152.5 41t48.5 108q0 65 -42.5 97t-106.5 32t-119.5 -21.5t-110.5 -56.5l-68 89q62 45 132 72t164 27z" />
    <glyph glyph-name="four.dnom" horiz-adv-x="712" 
d="M693 205h-128v-205h-142v205h-402v98l405 580h139v-564h128v-114zM423 319v207q0 44 1.5 99t4.5 104q-11 -25 -41.5 -72t-53.5 -81l-177 -257h266z" />
    <glyph glyph-name="five.dnom" horiz-adv-x="712" 
d="M610 877v-106h-380l-19 -233q26 5 56.5 9t66.5 4q137 0 227 -71t90 -199q0 -142 -86 -220.5t-250 -78.5q-67 0 -137 14t-116 40v128q56 -33 125 -52t124 -19q95 0 151 43t56 133q0 81 -54.5 125.5t-155.5 44.5q-54 0 -92 -8t-69 -16l-60 38l33 424h490z" />
    <glyph glyph-name="six.dnom" horiz-adv-x="712" 
d="M478 893q31 0 66 -4t59 -10v-114q-23 8 -58.5 13.5t-73.5 5.5q-111 0 -175.5 -43t-93.5 -116.5t-35 -165.5h8q29 44 85.5 74t141.5 30q121 0 196 -71.5t75 -202.5q0 -94 -37.5 -162.5t-106.5 -105.5t-162 -37t-166.5 42.5t-116.5 129.5t-43 218q0 103 19.5 196.5t68 166
t133.5 114.5t216 42zM370 458q-59 0 -103.5 -22t-69 -56.5t-24.5 -73.5q0 -53 21.5 -102t64.5 -80t105 -31q80 0 129.5 48.5t49.5 144.5q0 80 -44 126t-129 46z" />
    <glyph glyph-name="seven.dnom" horiz-adv-x="712" 
d="M163 0l353 762h-458v115h600v-94l-354 -783h-141z" />
    <glyph glyph-name="eight.dnom" horiz-adv-x="712" 
d="M357 892q113 0 193.5 -54.5t80.5 -164.5q0 -76 -43 -126t-108 -82q83 -34 131.5 -90t48.5 -140q0 -113 -84 -181.5t-219 -68.5q-97 0 -165.5 29.5t-104 84.5t-35.5 130q0 57 21 100t58 75t83 55q-66 40 -100.5 85t-34.5 123q0 108 82.5 166.5t195.5 58.5zM328 407
q-48 -21 -80.5 -46.5t-49 -58t-16.5 -73.5q0 -60 43 -98.5t129 -38.5q89 0 131.5 38t42.5 99q0 60 -45.5 100.5t-128.5 67.5zM355 787q-68 0 -106.5 -31t-38.5 -87t42.5 -92t106.5 -61q65 24 104 59.5t39 93.5q0 56 -39.5 87t-107.5 31z" />
    <glyph glyph-name="nine.dnom" horiz-adv-x="712" 
d="M341 897q92 0 166 -41.5t117.5 -127t43.5 -219.5q0 -103 -19.5 -197.5t-67 -168.5t-131.5 -116.5t-214 -42.5q-35 0 -71 4t-59 10v116q22 -9 55 -15t82 -6q112 0 175 45.5t91.5 120.5t33.5 163h-10q-28 -40 -81 -72.5t-136 -32.5q-130 0 -205.5 73t-75.5 206t83.5 217
t222.5 84zM341 787q-76 0 -126 -47t-50 -139q0 -81 42 -129.5t130 -48.5q58 0 102.5 21.5t69.5 56t25 73.5q0 61 -21 109t-63.5 76t-108.5 28z" />
    <glyph glyph-name="zero.numr" horiz-adv-x="712" 
d="M354 570q-157 0 -235 116.5t-78 339.5q0 219 75 336.5t238 117.5q157 0 236.5 -116t79.5 -338q0 -218 -75 -337t-241 -119zM354 690q92 0 135 82.5t43 253.5q0 170 -43 252.5t-135 82.5q-90 0 -132.5 -82.5t-42.5 -254.5q0 -169 42 -251.5t133 -82.5z" />
    <glyph glyph-name="one.numr" horiz-adv-x="712" 
d="M481 1463v-877h-135v566q0 36 1 67.5t2.5 62t3.5 59.5q-21 -19 -47 -40t-55 -40l-109 -77l-66 94l267 185h138z" />
    <glyph glyph-name="two.numr" horiz-adv-x="712" 
d="M627 586h-577v104l237 232q82 80 126 131t60.5 92t16.5 88q0 66 -39 101.5t-105 35.5q-61 0 -112.5 -23.5t-104.5 -64.5l-67 89q60 50 130 80t156 30q130 0 204 -64.5t74 -176.5q0 -68 -27.5 -125t-81 -115t-130.5 -131l-170 -164h410v-119z" />
    <glyph glyph-name="three.numr" horiz-adv-x="712" 
d="M339 1481q143 0 216 -63t73 -161q0 -84 -44.5 -137t-106.5 -72v-6q81 -16 128.5 -68.5t47.5 -135.5q0 -119 -85.5 -193t-263.5 -74q-75 0 -140.5 13t-126.5 43v121q68 -32 137 -50t131 -18q108 0 159.5 43.5t51.5 118.5q0 76 -59.5 110.5t-167.5 34.5h-119v106h119
q104 0 152.5 41t48.5 108q0 65 -42.5 97t-106.5 32t-119.5 -21.5t-110.5 -56.5l-68 89q62 45 132 72t164 27z" />
    <glyph glyph-name="four.numr" horiz-adv-x="712" 
d="M693 791h-128v-205h-142v205h-402v98l405 580h139v-564h128v-114zM423 905v207q0 44 1.5 99t4.5 104q-11 -25 -41.5 -72t-53.5 -81l-177 -257h266z" />
    <glyph glyph-name="five.numr" horiz-adv-x="712" 
d="M610 1463v-106h-380l-19 -233q26 5 56.5 9t66.5 4q137 0 227 -71t90 -199q0 -142 -86 -220.5t-250 -78.5q-67 0 -137 14t-116 40v128q56 -33 125 -52t124 -19q95 0 151 43t56 133q0 81 -54.5 125.5t-155.5 44.5q-54 0 -92 -8t-69 -16l-60 38l33 424h490z" />
    <glyph glyph-name="six.numr" horiz-adv-x="712" 
d="M478 1479q31 0 66 -4t59 -10v-114q-23 8 -58.5 13.5t-73.5 5.5q-111 0 -175.5 -43t-93.5 -116.5t-35 -165.5h8q29 44 85.5 74t141.5 30q121 0 196 -71.5t75 -202.5q0 -94 -37.5 -162.5t-106.5 -105.5t-162 -37t-166.5 42.5t-116.5 129.5t-43 218q0 103 19.5 196.5t68 166
t133.5 114.5t216 42zM370 1044q-59 0 -103.5 -22t-69 -56.5t-24.5 -73.5q0 -53 21.5 -102t64.5 -80t105 -31q80 0 129.5 48.5t49.5 144.5q0 80 -44 126t-129 46z" />
    <glyph glyph-name="seven.numr" horiz-adv-x="712" 
d="M163 586l353 762h-458v115h600v-94l-354 -783h-141z" />
    <glyph glyph-name="eight.numr" horiz-adv-x="712" 
d="M357 1478q113 0 193.5 -54.5t80.5 -164.5q0 -76 -43 -126t-108 -82q83 -34 131.5 -90t48.5 -140q0 -113 -84 -181.5t-219 -68.5q-97 0 -165.5 29.5t-104 84.5t-35.5 130q0 57 21 100t58 75t83 55q-66 40 -100.5 85t-34.5 123q0 108 82.5 166.5t195.5 58.5zM328 993
q-48 -21 -80.5 -46.5t-49 -58t-16.5 -73.5q0 -60 43 -98.5t129 -38.5q89 0 131.5 38t42.5 99q0 60 -45.5 100.5t-128.5 67.5zM355 1373q-68 0 -106.5 -31t-38.5 -87t42.5 -92t106.5 -61q65 24 104 59.5t39 93.5q0 56 -39.5 87t-107.5 31z" />
    <glyph glyph-name="nine.numr" horiz-adv-x="712" 
d="M341 1483q92 0 166 -41.5t117.5 -127t43.5 -219.5q0 -103 -19.5 -197.5t-67 -168.5t-131.5 -116.5t-214 -42.5q-35 0 -71 4t-59 10v116q22 -9 55 -15t82 -6q112 0 175 45.5t91.5 120.5t33.5 163h-10q-28 -40 -81 -72.5t-136 -32.5q-130 0 -205.5 73t-75.5 206t83.5 217
t222.5 84zM341 1373q-76 0 -126 -47t-50 -139q0 -81 42 -129.5t130 -48.5q58 0 102.5 21.5t69.5 56t25 73.5q0 61 -21 109t-63.5 76t-108.5 28z" />
  </font>
</defs>
</svg>
