<?xml version="1.0" standalone="no"?>
<!DOCTYPE svg PUBLIC "-//W3C//DTD SVG 1.1//EN" "http://www.w3.org/Graphics/SVG/1.1/DTD/svg11.dtd" >
<svg xmlns="http://www.w3.org/2000/svg">
<metadata>Generated by IcoMoon</metadata>
<defs>
<font id="Sandcastle" horiz-adv-x="1024">
<font-face units-per-em="1024" ascent="960" descent="-64" />
<missing-glyph horiz-adv-x="1024" />
<glyph unicode="&#x20;" horiz-adv-x="512" d="" />
<glyph unicode="&#xe60d;" glyph-name="blog" horiz-adv-x="1026" d="M268.438 465.602c-41.841 0-81.445-9.595-116.735-26.687v215.318c0 41.887-33.953 75.84-75.84 75.84s-75.863-33.976-75.863-75.84v-454.832c0-1.338 0.138-2.606 0.208-3.921 0.992-147.32 120.68-266.455 268.231-266.455 148.174 0 268.3 120.103 268.3 268.3-0.023 148.151-120.126 268.277-268.3 268.277zM268.438 83.012c-63.108 0-114.29 51.183-114.29 114.29s51.183 114.29 114.29 114.29 114.29-51.183 114.29-114.29c0-63.108-51.183-114.29-114.29-114.29zM703.687 214.74c-41.887 0-75.84 33.976-75.84 75.84 0 143.030-116.366 259.373-259.373 259.373-41.91 0-75.84 33.976-75.84 75.84 0 41.887 33.953 75.84 75.84 75.84 226.666 0 411.053-184.387 411.053-411.053 0-41.864-33.953-75.84-75.84-75.84zM950.167 227.633c-41.887 0-75.84 33.976-75.84 75.84 0 271.829-221.154 492.959-492.959 492.959-41.887 0-75.84 33.976-75.84 75.84 0 41.887 33.953 75.84 75.84 75.84 355.465 0 644.662-289.174 644.662-644.662-0.023-41.841-33.976-75.817-75.863-75.817z" />
<glyph unicode="&#xe614;" glyph-name="facebook" d="M577.6 615.369l0.256 88.32c0 46.016 3.136 70.656 69.12 70.656h121.984v176.512h-174.848c-169.536 0-208.576-87.616-208.576-231.552l0.192-103.936-128.704-0.064v-176.448h128.704v-512h191.936l0.128 512 174.272 0.064 18.688 176.448h-193.152z" />
<glyph unicode="&#xe621;" glyph-name="pinterest" d="M789.432 829.764c-130.662 142.172-351.165 132.664-497.777 22.989-124.979-93.491-213.284-301.087-108.257-442.358 21.468-28.877 52.925-46.49 87.752-53.642 9.298-1.91 16.768 2.627 20.024 11.372 7.045 18.893 14.561 36.634 16.184 56.863 0.62 7.716-5.576 12.058-12.012 12.39-95.252 104.617-30.551 234.808 62.275 315.32 82.068 71.173 232.771 137.866 329.231 55.859 66.565-56.591 71.639-162.34 68.449-242.237-4.004-100.204-39.014-205.824-143.048-237.696-34.258-10.496-73.887-6.328-96.625 23.834-25.687 34.074-17.449 75.146-7.716 112.722 14.986 57.856 50.504 139.761 16.865 196.992-40.724 69.294-122.752 6.287-146.442-40.376-14.428-28.421-40.417-119.46-2.063-142.802-40.755-103.081-68.25-216.356-86.845-325.079-8.351-48.824-16.041-102.554-6.794-151.808 0.492-2.606 11.034-39.649 21.581-54.129-1.644-9.339 12.134-12.713 17.623-5.366 37.524 50.227 75.96 98.335 96.66 158.275 10.998 31.841 15.084 66.734 21.668 99.681 4.613 23.081 14.060 49.331 16.451 73.933 0.148 0.026 0.287 0.082 0.44 0.108 32.394-24.888 75.981-45.952 114.473-53.432 60.529-11.761 131.876 10.772 181.315 44.943 7.552 5.222 15.114 11.51 22.4 18.534 22.851 15.222 43.684 34.97 61.491 59.868 102.426 143.222 67.645 360.161-47.304 485.243zM273.751 413.702c0.819-0.876 1.679-1.597 2.55-2.227-0.543-1.213-1.147-2.396-1.715-3.599-1.229 1.608-2.519 3.164-3.773 4.751 0.276 1.485 0.251 2.99-0.087 4.506 1.029-1.137 1.961-2.294 3.026-3.43zM210.156 697.427c-9.58-16.63-17.705-33.741-24.397-51.405 5.315 19.016 12.472 37.417 21.356 55.132 1.29-0.543 2.693-0.886 4.157-1.075-0.389-0.876-0.742-1.772-1.116-2.652zM792.535 768.406c-1.521 1.971-3.343 3.523-5.335 4.726-0.445 0.64-1.009 1.096-1.51 1.659-0.64 2.156-1.403 4.183-2.089 6.287 5.796-7.45 11.372-15.104 16.548-23.066-2.458 3.497-4.972 6.968-7.613 10.394z" />
<glyph unicode="&#xe622;" glyph-name="plane-inbound" d="M21.853 645.368c9.868 32.244 104.204 76.183 204.567 45.184 11.089-3.433 79.732-24.599 168.087-51.921l280.925 181.783c9.274 6.016 25.53 8.25 36.108 4.98l53.248-16.442c10.566-3.247 13.626-13.056 6.772-21.748l-167.622-213.225c76.137-23.494 147.631-45.58 196.259-60.591 0.803-0.233 1.664-0.512 2.49-0.826l138.205 68.305c9.926 4.899 21.853 7.727 32.419 4.468l22.167-6.842c10.566-3.27 9.542-12.125 3.619-21.492l-62.929-99.34c-0.954-1.385-2.060-2.7-3.281-3.933 15.86-11.194 25.414-22.342 22.47-31.919-5.376-17.676-46.988-22.423-46.988-22.423s-139.857-22.353-247.61 10.915c-107.776 33.292-444.812 137.332-521.088 160.861-76.3 23.599-128.396 39.668-117.818 74.205zM179.77 154.255h663.447v-103.436h-663.447v103.436z" />
<glyph unicode="&#xe623;" glyph-name="plane-outbound" d="M1002.147 645.368c-9.868 32.244-104.215 76.183-204.579 45.184-11.078-3.433-79.721-24.599-168.087-51.921l-280.913 181.772c-9.274 6.016-25.53 8.25-36.096 4.98l-53.248-16.442c-10.566-3.247-13.626-13.056-6.784-21.748l167.61-213.213c-76.125-23.494-147.619-45.58-196.259-60.591-0.803-0.233-1.664-0.512-2.49-0.826l-138.205 68.305c-9.914 4.899-21.853 7.727-32.419 4.468l-22.156-6.842c-10.566-3.27-9.542-12.125-3.607-21.492l62.929-99.34c0.954-1.385 2.060-2.7 3.281-3.933-15.86-11.194-25.414-22.342-22.47-31.919 5.364-17.676 46.988-22.423 46.988-22.423s139.857-22.353 247.61 10.915c107.764 33.292 444.812 137.332 521.088 160.861 76.288 23.599 128.384 39.668 117.807 74.205zM180.783 154.255h663.436v-103.436h-663.436v103.436z" />
<glyph unicode="&#xe625;" glyph-name="quote" d="M414.4 696.457c24.8 10.4 35.2 40 24 64l-39.2 82.4c-11.2 23.2-38.4 33.6-62.4 23.2-68-28.8-126.4-66.4-172.8-112-56.8-53.6-95.2-115.2-116-183.2-20.8-68.8-32-162.4-32-281.6v-245.6c0-26.4 21.6-48 48-48h314.4c26.4 0 48 21.6 48 48v314.4c0 26.4-21.6 48-48 48h-150.4c1.6 80.8 20.8 145.6 56 194.4 28.8 39.2 72 71.2 130.4 96zM979.2 696.457c24.8 10.4 35.2 40 24 64l-39.2 81.6c-11.2 23.2-38.4 33.6-62.4 23.2-67.2-28.8-124.8-66.4-172-111.2-56.8-54.4-96-116-116.8-184-20.8-67.2-31.2-160.8-31.2-280.8v-245.6c0-26.4 21.6-48 48-48h314.4c26.4 0 48 21.6 48 48v314.4c0 26.4-21.6 48-48 48h-151.2c1.6 80.8 20.8 145.6 56 194.4 28.8 39.2 72 71.2 130.4 96z" />
<glyph unicode="&#xe632;" glyph-name="twitter" d="M1024.064 756.425c-37.696-16.704-78.144-28.032-120.64-33.088 43.392 25.984 76.608 67.2 92.352 116.16-40.64-24.064-85.632-41.536-133.504-51.008-38.272 40.896-92.864 66.368-153.28 66.368-116.032 0-210.112-94.080-210.112-210.048 0-16.448 1.856-32.512 5.44-47.872-174.592 8.768-329.408 92.416-433.024 219.52-18.112-30.976-28.416-67.072-28.416-105.6 0-72.896 37.12-137.216 93.44-174.848-34.432 1.152-66.816 10.624-95.168 26.368v-2.624c0-101.76 72.448-186.688 168.512-206.016-17.6-4.736-36.16-7.36-55.36-7.36-13.568 0-26.688 1.344-39.552 3.84 26.752-83.456 104.32-144.192 196.224-145.92-71.872-56.32-162.496-89.856-260.928-89.856-16.96 0-33.664 1.024-50.112 2.88 92.992-59.648 203.392-94.464 322.048-94.464 386.432 0 597.76 320.128 597.76 597.76l-0.704 27.2c41.216 29.504 76.928 66.496 105.024 108.608z" />
<glyph unicode="&#xe636;" glyph-name="validated" d="M511.976-73.143c-282.307 0-511.976 229.669-511.976 512s229.669 512 511.976 512c282.331 0 512.024-229.669 512.024-512s-229.693-512-512.024-512zM511.976 902.095c-255.415 0-463.214-207.799-463.214-463.238s207.799-463.238 463.214-463.238c255.439 0 463.262 207.799 463.262 463.238s-207.823 463.238-463.262 463.238zM401.213 223.988c-6.242 0-12.483 2.389-17.237 7.144l-159.451 159.451c-9.533 9.533-9.533 24.942 0 34.475s24.942 9.533 34.475 0l142.214-142.214 363.764 363.739c9.533 9.533 24.942 9.533 34.475 0s9.533-24.942 0-34.475l-381.001-381.001c-4.754-4.754-10.996-7.119-17.237-7.119z" />
<glyph unicode="&#xe637;" glyph-name="arrow-left" d="M976.387 486.472h-813.82l223.435 223.443c18.596 18.596 18.596 48.741 0 67.336-18.6 18.592-48.744 18.592-67.336 0l-304.717-304.724c-18.6-18.596-18.6-48.741 0-67.336l304.724-304.724c9.29-9.29 21.483-13.945 33.668-13.945s24.367 4.655 33.668 13.945c18.596 18.596 18.596 48.741 0 67.336l-223.443 223.443h813.82c26.294 0 47.613 21.323 47.613 47.613 0 26.294-21.319 47.613-47.613 47.613z" />
<glyph unicode="&#xe638;" glyph-name="arrow-right" d="M1010.055 472.525l-304.726 304.726c-18.592 18.592-48.745 18.592-67.337 0-18.596-18.596-18.596-48.741 0-67.337l223.444-223.444h-813.823c-26.294 0-47.613-21.319-47.613-47.613 0-26.29 21.319-47.613 47.613-47.613h813.823l-223.436-223.444c-18.596-18.596-18.596-48.741 0-67.337 9.294-9.29 21.483-13.945 33.668-13.945s24.37 4.655 33.668 13.945l304.718 304.726c18.596 18.596 18.596 48.741 0 67.337z" />
<glyph unicode="&#xe639;" glyph-name="exclamation" d="M512 950.857c-282.462 0-511.38-228.919-511.38-511.38s228.919-512.62 511.38-512.62 511.38 230.282 511.38 511.38c0 282.462-228.919 512.62-511.38 512.62zM512-23.567c-254.327 0-461.804 207.477-461.804 461.804s207.477 463.167 461.804 463.167 461.804-207.477 461.804-463.167-207.477-461.804-461.804-461.804zM537.407 229.397c0-14.75-12.023-26.771-26.771-26.771-14.75 0-26.771 12.023-26.771 26.771 0 14.75 12.023 26.771 26.771 26.771s26.771-12.023 26.771-26.771zM485.229 360.65v301.176c0 13.386 10.659 24.045 24.045 24.045s24.045-10.659 24.045-24.045v-301.176c0-13.386-10.659-24.045-24.045-24.045-13.386-1.487-24.045 10.659-24.045 24.045z" />
<glyph unicode="&#xe63f;" glyph-name="instagram" d="M131.434 950.857h761.132c72.283 0 131.424-53.516 131.424-131.424v-761.153c0-77.908-59.141-131.424-131.424-131.424h-761.132c-72.304 0-131.434 53.516-131.434 131.424v761.153c0 77.908 59.13 131.424 131.434 131.424v0zM745.939 837.086c-25.359 0-46.082-20.733-46.082-46.103v-110.343c0-25.359 20.723-46.103 46.082-46.103h115.737c25.359 0 46.103 20.744 46.103 46.103v110.343c0 25.37-20.744 46.103-46.103 46.103h-115.737zM908.263 517.811h-90.125c8.527-27.841 13.142-57.332 13.142-87.844 0-170.325-142.526-308.393-318.308-308.393-175.771 0-318.276 138.068-318.276 308.393 0 30.532 4.605 60.013 13.142 87.844h-94.047v-432.552c0-22.384 18.315-40.71 40.71-40.71h713.073c22.395 0 40.71 18.315 40.71 40.71v432.552h-0.021zM512.962 640.35c-113.571 0-205.652-89.21-205.652-199.27s92.081-199.27 205.652-199.27c113.582 0 205.673 89.21 205.673 199.27s-92.081 199.27-205.673 199.27z" />
<glyph unicode="&#xe900;" glyph-name="child" d="M508.608 934.329c-76.752 0-139.168-62.432-139.168-139.168s62.432-139.168 139.168-139.168c76.72 0 139.168 62.432 139.168 139.168s-62.448 139.168-139.168 139.168zM417.888 637.961c-59.392 0-112.768-40.448-126.752-96.304 0 0-61.776-244.896-62.128-246.656-4.816-24 8.832-46.816 32.304-54.672 0.8-0.32 1.664-0.464 2.48-0.624 3.472-0.688 7.184-1.248 10.56-1.248 22.032 0 41.088 14.080 45.36 35.408 0.224 1.152 49.088 190.128 49.088 190.128h0.624v-86.368h278.352v86.368h0.624c0 0 49.504-189.184 49.712-190.128 4.288-21.328 23.312-35.408 45.36-35.408 3.376 0 6.448 0.544 9.936 1.248 0.816 0.16 1.664 0.4 2.48 0.624 23.488 7.808 37.152 30.672 32.304 54.672-0.56 2.928-63.376 246.656-63.376 246.656-14.256 56.864-66.4 96.304-126.752 96.304h-180.176zM369.424 357.753v-139.168h278.352v139.168h-278.352zM369.424 198.697v-208.752c0-27.344 22.368-49.712 49.712-49.712s49.712 22.368 49.712 49.712v208.752h-99.424zM548.368 198.697v-208.752c0-27.344 22.368-49.712 49.712-49.712s49.712 22.368 49.712 49.712v208.752h-99.424z" />
<glyph unicode="&#xe901;" glyph-name="adult" d="M537.904 928.505c-64.784 0-117.488-52.704-117.488-117.488s52.704-117.488 117.488-117.488c64.784 0 117.488 52.704 117.488 117.488s-52.704 117.488-117.488 117.488zM431.088 672.169c-64.784 0-117.488-52.704-117.488-117.488v-267.024c0-23.584 19.168-42.72 42.72-42.72s42.72 19.136 42.72 42.72v203.6c0 5.792 4.896 10.688 10.688 10.688s10.688-4.896 10.688-10.688v-487.984c0-33.408 17.968-57.408 51.408-57.408 31.664 0 55.408 24.528 55.408 57.408v274.368c0 5.904 4.784 10.688 10.688 10.688 5.888 0 10.688-4.784 10.688-10.688v-280.368c0.080-0.128 0.576 0.128 0.672 0 2.928-29.536 25.216-51.408 54.736-51.408 33.408 0 51.408 24 51.408 57.408v483.984c0 5.792 4.896 10.672 10.688 10.672s10.688-4.896 10.688-10.672v-199.6c0-23.584 19.168-42.72 42.72-42.72s42.72 19.136 42.72 42.72v267.024c0 64.784-52.704 117.488-117.488 117.488h-213.664z" />
<glyph unicode="&#xe902;" glyph-name="lowest-price-gbp" d="M227.904 934.841c-10.304-1.968-17.696-11.072-17.504-21.552v-452.624h-172.352c-11.888 0.272-21.76-9.136-22.048-21.040-0.144-6.016 2.24-11.824 6.56-16l473.952-474.176c8.272-8.56 21.92-8.784 30.464-0.496 0.176 0.16 0.336 0.336 0.496 0.496l473.952 474.176c8.56 8.272 8.784 21.92 0.512 30.48-4.176 4.32-9.984 6.704-16 6.56h-172.352v452.624c0 11.904-9.648 21.552-21.536 21.552h-560.128c-0.672 0.032-1.344 0.032-2.016 0-0.656 0.016-1.328 0.016-2 0zM253.488 891.721h517.040v-452.624c0-11.904 9.648-21.552 21.536-21.552h141.376l-421.44-421.648-421.44 421.648h141.376c11.904 0 21.536 9.648 21.536 21.552v452.624zM512 695.721c-90.208 0-117.808-66.368-117.808-105.072 0-38.992 17.36-69.104 24.24-80.832h-30.288v-23.568h44.432c3.104-6.896 12.784-30.544 12.784-47.824 0-51.584-49.984-87.456-57.216-92.272l24.912-33.68c7.92 5.168 26.192 17.52 51.168 17.52 31.52 0 74.528-20.88 105.696-20.88 39.872 0 65.088 14.48 75.408 23.568l-22.224 34.352c-6.208-4.832-25.056-18.864-45.776-18.864-21.2 0-64.784 16.16-92.912 16.16-22.64 0-44.896-11.024-53.856-14.816l-1.344 0.672c7.568 6.208 59.92 40.768 59.92 97.664 0 14.608-7.344 32.88-10.096 38.4h70.688v23.568h-82.128c-3.104 6.208-26.928 43.136-26.928 78.8 0 15.536 12.16 68.032 74.048 68.032 68.272 0 74.704-63.952 75.408-94.304h43.76c0.64 44.496-11.328 133.376-121.888 133.376z" />
<glyph unicode="&#xe903;" glyph-name="lowest-price-eur" d="M227.904 934.841c-10.304-1.968-17.696-11.072-17.504-21.552v-452.624h-172.352c-11.888 0.272-21.76-9.136-22.048-21.040-0.144-6.016 2.24-11.824 6.56-16l473.952-474.176c8.272-8.56 21.92-8.784 30.464-0.496 0.176 0.16 0.336 0.336 0.496 0.496l473.952 474.176c8.56 8.272 8.784 21.92 0.512 30.48-4.176 4.32-9.984 6.704-16 6.56h-172.352v452.624c0 11.904-9.648 21.552-21.536 21.552h-560.128c-0.672 0.032-1.344 0.032-2.016 0-0.656 0.016-1.328 0.016-2 0zM253.488 891.721h517.040v-452.624c0-11.904 9.648-21.552 21.536-21.552h141.376l-421.44-421.648-421.44 421.648h141.376c11.904 0 21.536 9.648 21.536 21.552v452.624zM541.616 693.033c-40.672 0-73.792-13.824-99.632-41.76-23.12-24.48-38.848-57.936-47.12-100.352h-27.6l-13.472-31.664h37.696c-0.352-2.416-0.672-4.656-0.672-7.408v-14.144c0-1.728 0.304-3.664 0.672-5.392h-23.568l-14.144-31.664h39.728c14.48-100.352 63.664-150.208 148.112-150.208 29.984 0 57.024 7.392 80.112 22.224v54.56c-14.48-13.456-26.368-22.784-35.68-27.616-12.752-6.56-27.872-10.096-44.432-10.096-54.112 0-86.256 36.992-97.616 111.136h112.432l13.472 31.664h-128.592c-0.352 1.728-0.672 3.664-0.672 5.392v13.472c0 2.752 0.304 5.328 0.672 8.080h135.984l13.472 31.664h-146.096c5.856 28.624 15.504 51.808 28.944 69.376 16.912 22.064 38.112 33.008 63.952 33.008 25.136 0 49.92-11.904 74.048-35.696l23.568 43.104c-31.008 21.728-62.192 32.32-93.568 32.32z" />
<glyph unicode="&#xe904;" glyph-name="pay-at-hotel-eur" d="M75.52 595.673c-32.64 0-59.52-26.272-59.52-58.176v-581.808h119.040v96.96h753.92v-96.96h119.040v368.48c0 31.92-26.88 58.176-59.52 58.176-7.952 0-15.36-2.032-22.32-4.848-6.784 24.832-29.632 43.632-57.040 43.632h-456.32c-25.84 0-47.664-16.704-55.808-39.392-16.688 23.968-40.24 48.128-72.544 63.024-20.592 9.504-42.176 13.696-62.624 15.152-34.848 2.464-65.6-3.712-86.8-9.696v87.28c0.016 31.904-26.864 58.176-59.504 58.176zM75.52 556.889c11.008 0 19.84-8.64 19.84-19.392v-110.912c-0.464-2.4-0.464-4.864 0-7.28v-130.304c-0.112-1.216-0.112-2.432 0-3.632v-77.584c-0.032-0.608-0.032-1.216 0-1.824v-17.584h833.28v16.368c0.080 1.008 0.080 2.016 0 3.024v116.368c0 10.752 8.832 19.392 19.84 19.392s19.84-8.64 19.84-19.392v-329.696h-39.68v96.976h-833.28v-96.976h-39.68v543.024c0 10.784 8.832 19.424 19.84 19.424zM194.56 420.521c7.536 0.48 15.888 0.496 24.8 0 16.384-0.912 33.232-3.936 48.352-10.912 48.288-22.288 69.488-71.6 78.112-93.936-23.344-7.248-76.208-21.232-124.624 2.432-0.208 0.208-0.416 0.416-0.624 0.608-48.080 22.192-68.688 69.248-77.504 91.52 12.288 3.792 28.864 8.848 51.488 10.288zM412.8 382.329h456.32c11.008 0 19.84-8.64 19.84-19.392v-135.76h-496v58.176c0.032 0.608 0.032 1.216 0 1.824v12.128c0.256 1.808 0.256 3.648 0 5.456v58.176c0 10.752 8.832 19.392 19.84 19.392zM135.040 340.521c9.664-12.736 21.872-24.688 35.952-35.76h-35.952v35.76zM135.040 265.977h218.24v-38.784h-218.24v38.784zM529.648 892.681c-111.952 0-203.024-91.072-203.024-203.008 0-111.952 91.072-203.024 203.024-203.024 111.936 0 203.008 91.072 203.008 203.024 0 111.936-91.072 203.008-203.008 203.008zM700.4 689.673c0-94.176-76.608-170.784-170.768-170.784-94.176 0-170.784 76.608-170.784 170.784 0 94.16 76.608 170.768 170.784 170.768 94.16 0 170.768-76.608 170.768-170.768zM541.056 765.465c15.072 0 27.44-6.032 37.776-18.448l8.288-9.936 14.288 32.608-3.12 3.792c-13.264 16.080-32.512 24.24-57.216 24.24-16.096 0-68.672-3.568-85.44-74.352h-12.688l-11.168-26.8h20.816c0-0.080-1.152-4.784-1.152-4.864h-9.648l-10.016-27.040h22.688c12.752-73.856 63.232-82.016 84.832-82.016 20.48 0 37.872 6.192 54.736 19.488l3.040 2.4v44.752l-13.744-14.24c-20.448-21.168-33.584-21.168-42.256-21.168-19.12 0-42.96 9.088-51.488 50.784h73.168l10.016 27.040h-87.488c0.016 0.080 1.168 4.784 1.168 4.864h85.952l11.136 26.8h-92.56c10.192 36.224 32.496 42.096 50.080 42.096z" />
<glyph unicode="&#xe905;" glyph-name="pay-at-hotel-gbp" d="M79.472 595.673c-32.64 0-59.52-26.272-59.52-58.176v-581.808h119.040v96.96h753.92v-96.96h119.040v368.48c0 31.92-26.88 58.176-59.52 58.176-7.952 0-15.36-2.032-22.32-4.848-6.784 24.832-29.632 43.632-57.040 43.632h-456.32c-25.84 0-47.664-16.704-55.808-39.392-16.688 23.968-40.24 48.128-72.544 63.024-20.592 9.504-42.176 13.696-62.624 15.152-34.848 2.464-65.6-3.712-86.8-9.696v87.28c0.016 31.904-26.864 58.176-59.504 58.176zM79.472 556.889c11.008 0 19.84-8.64 19.84-19.392v-110.912c-0.464-2.4-0.464-4.864 0-7.28v-130.304c-0.112-1.216-0.112-2.432 0-3.632v-77.584c-0.032-0.608-0.032-1.216 0-1.824v-17.584h833.28v16.368c0.080 1.008 0.080 2.016 0 3.024v116.368c0 10.752 8.832 19.392 19.84 19.392s19.84-8.64 19.84-19.392v-329.696h-39.68v96.976h-833.28v-96.976h-39.68v543.024c0 10.784 8.832 19.424 19.84 19.424zM198.512 420.521c7.536 0.48 15.888 0.496 24.8 0 16.384-0.912 33.232-3.936 48.352-10.912 48.288-22.288 69.488-71.6 78.128-93.936-23.344-7.248-76.208-21.232-124.624 2.432-0.208 0.208-0.416 0.416-0.624 0.608-48.080 22.192-68.688 69.248-77.504 91.52 12.256 3.792 28.832 8.848 51.472 10.288zM416.752 382.329h456.32c11.008 0 19.84-8.64 19.84-19.392v-135.76h-496v58.176c0.032 0.608 0.032 1.216 0 1.824v12.128c0.256 1.808 0.256 3.648 0 5.456v58.176c0 10.752 8.832 19.392 19.84 19.392zM138.992 340.521c9.664-12.736 21.872-24.688 35.952-35.76h-35.952v35.76zM138.992 265.977h218.24v-38.784h-218.24v38.784zM512.832 487.897c-110.288 0-200 89.712-200 200s89.712 200 200 200c110.272 0 200-89.712 200-200s-89.728-200-200-200zM328.832 687.897c0-101.456 82.544-184 184-184s184 82.544 184 184c0-101.456-82.544-184-184-184s-184 82.56-184 184zM512.832 855.897c-92.64 0-168-75.36-168-168s75.36-168 168-168 168 75.36 168 168-75.36 168-168 168zM454.528 576.825l-17.872 27.28 5.68 4.544c3.648 2.928 7.088 5.664 9.76 8.992l1.264 1.328c3.408 3.424 6.112 6.112 7.872 9.024 2.128 3.568 4.16 7.088 5.52 11.168 1.424 4.272 2.080 8.32 2.080 12.72 0 3.072-0.736 7.216-2.192 12.304-0.784 2.736-1.616 5.488-2.512 7.696h-24.8v24.752h10.224c-1.648 3.28-3.136 6.704-4.32 10.224-3.856 8.576-4.4 17.52-4.4 25.024 0 11.552 2.064 20.64 6.512 28.64 3.2 7.296 8.88 14.224 16.096 19.376 5.488 4.736 12.656 8.656 21.36 11.584 7.264 2.416 15.6 3.664 24.784 3.664 21.936 0 39.488-6.416 52.16-19.088 12.336-12.352 18.336-29.664 18.336-52.912v-8h-32.752v8c0 12.192-3.264 22.624-9.44 30.192-6 7.184-14.768 10.56-27.552 10.56-4.64 0-9.408-0.752-13.472-2.096-4.992-1.424-8.32-3.264-11.12-6.064-3.392-2.784-6.096-6.368-8.256-10.672-1.808-4.272-3.152-8.624-3.152-14.672 0-3.728 0.704-6.896 1.504-10.048 0.64-2.576 1.936-5.824 2.896-7.264l5.248-10.352c0.528-1.040 1.136-2.112 1.76-3.2 0.544-0.944 1.072-1.888 1.616-2.88h46.224v-24.752h-34.576c0.256-0.832 0.512-1.664 0.752-2.544 0.992-5.664 1.808-11.216 1.808-15.952 0-5.92-0.864-11.424-2.672-16.784-1.744-5.232-4.336-9.536-6.624-13.328-0.544-0.928-1.104-1.792-1.648-2.64 7.696-0.144 14.048-1.008 17.248-1.664 4.64-0.928 8.976-2.656 13.168-4.336 2.064-0.816 3.744-1.376 5.408-1.92 1.952-0.656 3.904-1.296 6.064-2.16 2.768-0.624 6.528-1.184 9.040-1.184 3.952 0 8.144 1.296 12.784 3.936 4.688 2.688 9.088 5.344 11.472 8.32l6.736 8.416 18.928-27.584-5.456-4.672c-5.104-4.352-11.232-8.576-18.736-12.864-9.456-3.664-17.024-5.056-25.712-5.056-5.408 0-11.536 0.608-16.816 1.664-5.248 0.864-9.776 2.672-13.776 4.272-2.464 0.992-4.56 1.568-6.784 2.208-1.856 0.528-3.808 1.088-5.904 1.776-2.704 0.464-7.488 1.232-12.56 1.344-2.4 0-4.688-0.016-5.648-0.336l-8.608-3.28c-0.944-0.608-2.192-1.392-3.76-2.048l-13.184-8.656zM459.040 599.145l0.096-0.16 0.032 0.016-0.128 0.144z" />
<glyph unicode="&#xe906;" glyph-name="sale-gbp" d="M586.364 911.107c-6.993-0.091-14.078-0.366-21.177-1.28-14.199-1.843-29.724-6.627-41.715-18.617l-466.491-466.522c-23.036-23.005-23.036-61.063 0-84.069l356.782-356.796c23.005-23.005 61.048-23.005 84.053 0l466.507 466.537c11.883 11.869 16.759 27.561 18.602 41.715s1.28 28.094 1.28 41.715v305.454c0 39.459-32.421 71.88-71.865 71.88h-305.438c-6.643-0.015-13.545 0.076-20.537-0.015zM587.018 870.048c6.048 0.167 12.889 0 19.898 0h305.438c17.262 0 30.806-13.529 30.806-30.806v-305.454c0-14.321-0.061-27.195-1.28-36.58s-3.153-14.062-6.414-17.323l-466.507-467.176c-7.297-7.297-19.014-7.297-26.311 0l-2.56 3.215-354.237 353.567c-7.313 7.297-7.313 19.014 0 26.311l467.147 466.537c3.169 3.169 8.486 5.195 17.963 6.414 4.753 0.625 10.010 1.127 16.058 1.295zM799.415 808.437c-45.112 0-82.134-37.022-82.134-82.134s37.022-82.134 82.134-82.134 82.134 37.022 82.134 82.134-37.022 82.134-82.134 82.134zM799.415 767.362c22.929 0 41.075-18.145 41.075-41.075s-18.145-41.075-41.075-41.075-41.075 18.145-41.075 41.075 18.145 41.075 41.075 41.075zM563.907 588.331c-9.644-0.107-19.41-1.95-28.871-5.134-12.584-4.296-24.499-11.655-35.285-22.457-10.802-10.802-18.45-22-23.736-33.365-5.302-11.381-9.689-23.143-12.828-35.3l-19.898 19.898-14.763-15.403 28.231-28.871c-2.483-6.551-5.165-13.117-8.989-20.537-3.794-7.45-8.303-14.078-13.468-19.258-6.551-6.551-13.925-11.579-21.817-15.403s-16.363-6.658-25.032-8.349c-8.684-1.691-17.521-2.149-26.311-1.919-8.745 0.244-16.515 0.991-24.377 2.56l-6.414-37.86c8.547-1.783 16.85-4.418 24.377-7.694 7.542-3.245 14.641-8.227 21.177-14.763 6.505-6.505 11.777-13.331 16.043-20.537 4.296-7.192 8.379-14.382 12.188-21.817 4.296-7.435 8.151-14.443 12.188-21.177 4.052-6.734 9.126-12.981 14.763-18.617 8.776-8.79 18.724-16.576 29.511-23.096 10.802-6.505 22.015-10.010 34.646-10.908l7.694 36.58c-7.221 0.929-14.58 2.423-22.457 5.134-7.861 2.696-14.489 6.764-19.898 12.188-5.195 5.18-9.583 10.711-12.828 16.683-3.291 5.972-6.49 12.142-9.629 17.963-3.383 5.622-6.871 11.64-10.908 17.963-4.052 6.308-9.537 12.737-16.043 19.258-6.75 6.75-13.636 11.914-21.177 15.403s-15.433 6.902-23.736 10.269v1.28c9.019-0.884 17.932-1.493 26.952-1.919 8.973-0.473 17.642-0.167 26.311 1.28 8.669 1.462 17.459 3.976 25.671 7.694 8.196 3.733 16.089 9.674 23.736 17.323 4.723 4.723 8.593 9.781 11.548 15.403 2.941 5.622 5.271 11.259 7.054 16.683l46.209-46.209 15.403 14.763-53.903 53.903c2.011 6.079 3.961 12.097 5.775 17.963 1.813 5.835 4.037 11.594 6.414 17.323s4.829 11.594 8.349 17.323c3.474 5.744 8.075 11.259 13.468 16.683 6.308 6.308 13.27 11.182 21.177 14.123 7.861 2.941 16.043 3.641 24.377 3.215 8.319-0.487 16.272-2.163 24.377-5.775s15.708-8.638 22.457-15.403c16.196-16.196 23.143-33.853 20.537-52.623-2.56-18.816-13.362-38.149-32.725-58.397l28.231-28.871c29.48 28.581 44.685 57.193 44.913 85.988 0.198 28.856-12.234 55.868-37.22 80.854-10.345 10.375-21.634 18.282-34.005 24.392-12.402 6.079-24.925 9.674-37.86 10.908-3.215 0.335-6.384 0.701-9.598 0.67z" />
<glyph unicode="&#xe907;" glyph-name="restaurant" d="M366.64 934.697c-47.088 0.016-78.352-4.992-98.592-10.544-10.128-2.768-17.664-5.664-22.752-8.064s-8.848-4.96-8.848-4.96l-6.96-5.584-1.264-8.064c0 0-20.224-158.624-20.224-260.352 0.016-61.216 30.768-97.536 58.144-119.648 13.68-11.056 26.416-19.296 34.128-26.032s8.848-9.664 8.848-13.024c-0.016-18.704-5.040-73.824-10.112-135.136s-10.176-130.048-10.112-182.256c0-94.352 6.608-145.040 20.224-176.672 6.816-15.808 16.192-27.552 27.808-34.096s23.856-7.424 32.864-7.44c9.056-0.032 21.216 0.896 32.864 7.44s20.992 18.272 27.808 34.096c13.632 31.648 20.272 82.336 20.224 176.672 0 52.176-5.056 120.928-10.112 182.256-5.056 61.312-10.096 116.384-10.112 135.136 0 3.344 1.168 5.792 8.848 12.4s20.4 15.056 34.128 26.032c27.456 21.952 58.144 58.352 58.144 120.256 0 69.184-20.224 259.744-20.224 259.744l-1.264 9.92-8.224 4.96c0 0-12.576 6.992-34.128 12.4-21.536 5.424-54.016 10.544-101.104 10.56zM773.024 934.697c-1.76-0.4-3.456-1.024-5.056-1.856-75.536-31.744-120.576-84.768-145.36-137.616s-30.304-104.912-30.336-139.472c0.048-61.76 27.792-116 53.728-162.416s48.688-86.352 48.672-114.064c0-15.584-8.576-38.944-18.96-71.296s-21.472-73.856-21.488-127.088c-0.016-94.64 12.752-151.408 31.6-187.216s47.088-50.192 69.52-50.208c9.792 0.016 21.12 1.824 30.976 8.672s16.304 17.488 20.224 29.76c7.856 24.544 9.488 59.6 9.488 119.648 0 41.488-5.184 123.888-10.752 202.096s-11.392 153.408-11.376 171.712c0.016 42.704 1.872 207.376 1.888 221.312v218.208c0.080 10.96-8.896 19.904-20.064 19.984-0.912 0-1.808-0.048-2.704-0.16zM366.64 895.017c8.496 0 15.936-0.304 23.392-0.624v-197.744c-0.16-10.96 8.768-19.968 19.936-20.112 11.168-0.16 20.352 8.608 20.512 19.552 0 0.192 0 0.368 0 0.56v194.032c11.024-1.568 20.656-3.168 27.808-4.96 11.184-2.816 10.944-3.008 13.904-4.336 1.68-16.464 18.96-185.92 18.96-244.24 0-50.192-19.856-71.392-42.976-89.888-11.568-9.248-24.112-16.944-35.392-26.656s-22.784-23.728-22.752-42.16c0.016-24.736 5.072-77.184 10.112-138.24s10.112-129.552 10.112-179.152c0.048-92.272-8.064-140.272-17.072-161.168-4.496-10.448-8.096-14.016-10.752-15.504-2.64-1.488-6.24-1.872-12.64-1.856-6.416 0-9.984 0.368-12.64 1.856s-6.24 5.056-10.752 15.504c-8.992 20.896-17.072 68.896-17.072 161.168-0.064 49.6 5.056 118.096 10.112 179.152s10.096 113.488 10.112 138.24c0 18.416-11.504 32.336-22.752 42.16s-23.808 17.92-35.392 27.28c-23.184 18.72-42.96 39.904-42.976 89.264 0 90.896 16.912 228.32 18.96 244.864 2.976 1.216 5.664 2.16 11.376 3.712 7.344 2 17.632 3.872 30.336 5.584v-194.656c-0.16-10.96 8.768-19.968 19.936-20.112 11.168-0.16 20.352 8.608 20.512 19.552 0 0.192 0 0.368 0 0.56v197.744c5.584 0.192 10.88 0.624 17.088 0.624zM755.328 877.657v-181.008c-0.016-10.32-1.872-177.472-1.888-221.312-0.016-25.040 5.824-96.72 11.376-174.816s10.752-161.136 10.752-198.992c0-58.976-2.896-93.2-7.584-107.856-2.352-7.328-4.448-8.88-5.056-9.296s-2.016-1.232-7.584-1.248c-8.4 0-19.6 2.112-33.504 28.512s-27.184 78.080-27.184 169.232c0.016 48.048 9.744 83.984 19.6 114.688 9.84 30.688 20.864 55.984 20.864 83.68 0.032 45.808-28.352 87.872-53.728 133.28s-48.624 93.36-48.672 143.2c0.032 30.24 5.088 77.616 26.544 123.36 17.584 37.504 50.24 71.36 96.064 98.576z" />
<glyph unicode="&#xe908;" glyph-name="price-match-eur" d="M353.712 922.105c-172.64 0-313.040-140.4-313.040-313.040 0-166.128 129.808-302.368 293.472-312.384 11.52-0.72 21.456 8.032 22.176 19.568 0.72 11.52-8.032 21.456-19.568 22.176-142.112 8.704-254.352 126.24-254.352 270.656 0 150.080 121.216 271.296 271.312 271.296 144.416 0 261.936-112.24 270.656-254.352 0.72-11.52 10.64-20.288 22.176-19.568 11.52 0.72 20.288 10.656 19.568 22.176-10.032 163.664-146.256 293.472-312.4 293.472zM979.808 880.361c0-11.523-9.341-20.864-20.864-20.864s-20.864 9.341-20.864 20.864c0 11.523 9.341 20.864 20.864 20.864s20.864-9.341 20.864-20.864zM917.2 817.753c0-11.523-9.341-20.864-20.864-20.864s-20.864 9.341-20.864 20.864c0 11.523 9.341 20.864 20.864 20.864s20.864-9.341 20.864-20.864zM854.576 755.145c0-11.523-9.341-20.864-20.864-20.864s-20.864 9.341-20.864 20.864c0 11.523 9.341 20.864 20.864 20.864s20.864-9.341 20.864-20.864zM791.968 692.537c0-11.523-9.341-20.864-20.864-20.864s-20.864 9.341-20.864 20.864c0 11.523 9.341 20.864 20.864 20.864s20.864-9.341 20.864-20.864zM729.36 629.929c0-11.523-9.341-20.864-20.864-20.864s-20.864 9.341-20.864 20.864c0 11.523 9.341 20.864 20.864 20.864s20.864-9.341 20.864-20.864zM666.752 567.321c0-11.523-9.341-20.864-20.864-20.864s-20.864 9.341-20.864 20.864c0 11.523 9.341 20.864 20.864 20.864s20.864-9.341 20.864-20.864zM700.672 587.545c-11.52-1.088-20-11.296-18.912-22.832 1.088-11.52 11.296-20 22.832-18.912 142.112-8.704 254.352-126.24 254.352-270.656 0-150.080-121.216-271.312-271.312-271.312-144.416 0-261.936 112.24-270.656 254.352-0.72 11.52-10.64 20.288-22.176 19.568-11.52-0.72-20.288-10.64-19.568-22.176 10.032-163.68 146.256-293.472 312.384-293.472 172.64 0 313.040 140.4 313.040 313.040 0 166.128-129.808 302.352-293.472 312.384-0.864 0.048-1.744 0.048-2.608 0-0.656 0.032-1.312 0.032-1.952 0-0.64 0.048-1.296 0.048-1.952 0.016zM604.144 504.713c0-11.523-9.341-20.864-20.864-20.864s-20.864 9.341-20.864 20.864c0 11.523 9.341 20.864 20.864 20.864s20.864-9.341 20.864-20.864zM541.536 442.105c0-11.523-9.341-20.864-20.864-20.864s-20.864 9.341-20.864 20.864c0 11.523 9.341 20.864 20.864 20.864s20.864-9.341 20.864-20.864zM478.928 379.497c0-11.523-9.341-20.864-20.864-20.864s-20.864 9.341-20.864 20.864c0 11.523 9.341 20.864 20.864 20.864s20.864-9.341 20.864-20.864zM416.32 316.889c0-11.523-9.341-20.864-20.864-20.864s-20.864 9.341-20.864 20.864c0 11.523 9.341 20.864 20.864 20.864s20.864-9.341 20.864-20.864zM353.712 254.281c0-11.523-9.341-20.864-20.864-20.864s-20.864 9.341-20.864 20.864c0 11.523 9.341 20.864 20.864 20.864s20.864-9.341 20.864-20.864zM291.104 191.673c0-11.523-9.341-20.864-20.864-20.864s-20.864 9.341-20.864 20.864c0 11.523 9.341 20.864 20.864 20.864s20.864-9.341 20.864-20.864zM228.496 129.065c0-11.523-9.341-20.864-20.864-20.864s-20.864 9.341-20.864 20.864c0 11.523 9.341 20.864 20.864 20.864s20.864-9.341 20.864-20.864zM165.888 66.457c0-11.523-9.341-20.864-20.864-20.864s-20.864 9.341-20.864 20.864c0 11.523 9.341 20.864 20.864 20.864s20.864-9.341 20.864-20.864zM103.28 3.849c0-11.523-9.341-20.864-20.864-20.864s-20.864 9.341-20.864 20.864c0 11.523 9.341 20.864 20.864 20.864s20.864-9.341 20.864-20.864zM717.056 376.489c-17.968 0-33.056-4.336-45.248-12.992-7.264-5.136-13.84-12.4-19.728-21.824-5.984-9.744-9.52-18.976-10.592-27.76h109.424l-4.336-21.504h-107.648c-0.112-2.24-0.16-4.384-0.16-6.416 0-8.224 0.048-13.152 0.16-14.752h103.312l-4.496-21.504h-95.456c4.496-24.496 15.296-41.872 32.4-52.144 12.304-7.376 25.616-11.072 39.952-11.072 20 0 35.616 5.248 46.848 15.728v-33.056c-13.36-6.208-28.128-9.312-44.272-9.312-48.336 0-81.024 20.096-98.032 60.32-3.424 8.128-6.368 17.968-8.832 29.52h-24.544l4.496 21.504h16.848c-0.32 4.496-0.48 9.36-0.48 14.592 0 2.128 0.048 4.336 0.16 6.576h-21.024l4.496 21.504h18.608c6.624 34.864 23.904 59.888 51.824 75.088 17.216 9.424 36.208 14.112 56.96 14.112 19.888 0 36.624-4.336 50.208-12.992l-6.416-29.84c-13.040 10.816-27.872 16.224-44.432 16.224zM382.816 706.665c-17.968 0-33.056-4.336-45.248-12.992-7.264-5.136-13.84-12.4-19.728-21.824-5.984-9.744-9.52-18.976-10.592-27.76h109.424l-4.336-21.504h-107.648c-0.112-2.24-0.16-4.384-0.16-6.416 0-8.224 0.048-13.152 0.16-14.752h103.312l-4.496-21.504h-95.456c4.496-24.496 15.296-41.872 32.4-52.144 12.304-7.376 25.616-11.072 39.952-11.072 20 0 35.616 5.248 46.848 15.728v-33.056c-13.36-6.208-28.128-9.312-44.272-9.312-48.336 0-81.024 20.096-98.032 60.32-3.424 8.128-6.368 17.968-8.832 29.52h-24.544l4.496 21.504h16.848c-0.32 4.496-0.48 9.36-0.48 14.592 0 2.128 0.048 4.336 0.16 6.576h-21.024l4.496 21.504h18.608c6.624 34.864 23.904 59.888 51.824 75.088 17.216 9.424 36.208 14.112 56.96 14.112 19.888 0 36.624-4.336 50.208-12.992l-6.416-29.84c-13.040 10.816-27.856 16.224-44.432 16.224z" />
<glyph unicode="&#xe909;" glyph-name="price-match-gbp" d="M345.040 928.825c-172.64 0-313.040-140.4-313.040-313.040 0-166.128 129.808-302.352 293.472-312.384 11.52-0.72 21.456 8.032 22.176 19.568 0.72 11.52-8.032 21.456-19.568 22.176-142.112 8.704-254.352 126.24-254.352 270.656 0 150.080 121.216 271.312 271.312 271.312 144.416 0 261.936-112.24 270.656-254.352 0.72-11.52 10.64-20.288 22.176-19.568 11.52 0.72 20.288 10.656 19.568 22.176-10.032 163.648-146.272 293.456-312.4 293.456zM971.12 887.081c0-11.523-9.341-20.864-20.864-20.864s-20.864 9.341-20.864 20.864c0 11.523 9.341 20.864 20.864 20.864s20.864-9.341 20.864-20.864zM908.512 824.473c0-11.523-9.341-20.864-20.864-20.864s-20.864 9.341-20.864 20.864c0 11.523 9.341 20.864 20.864 20.864s20.864-9.341 20.864-20.864zM845.904 761.865c0-11.523-9.341-20.864-20.864-20.864s-20.864 9.341-20.864 20.864c0 11.523 9.341 20.864 20.864 20.864s20.864-9.341 20.864-20.864zM783.296 699.257c0-11.523-9.341-20.864-20.864-20.864s-20.864 9.341-20.864 20.864c0 11.523 9.341 20.864 20.864 20.864s20.864-9.341 20.864-20.864zM720.688 636.649c0-11.523-9.341-20.864-20.864-20.864s-20.864 9.341-20.864 20.864c0 11.523 9.341 20.864 20.864 20.864s20.864-9.341 20.864-20.864zM658.080 574.041c0-11.523-9.341-20.864-20.864-20.864s-20.864 9.341-20.864 20.864c0 11.523 9.341 20.864 20.864 20.864s20.864-9.341 20.864-20.864zM692 594.265c-11.52-1.088-20-11.296-18.912-22.832 1.088-11.52 11.296-20 22.832-18.912 142.112-8.704 254.352-126.24 254.352-270.656 0-150.080-121.216-271.312-271.312-271.312-144.416 0-261.936 112.24-270.656 254.352-0.72 11.52-10.64 20.288-22.176 19.568-11.52-0.72-20.288-10.656-19.568-22.176 10.032-163.68 146.256-293.472 312.384-293.472 172.64 0 313.040 140.4 313.040 313.040 0 166.128-129.808 302.352-293.472 312.384-0.864 0.048-1.744 0.048-2.608 0-0.656 0.032-1.312 0.032-1.952 0-0.64 0.048-1.296 0.048-1.952 0.016zM595.472 511.433c0-11.523-9.341-20.864-20.864-20.864s-20.864 9.341-20.864 20.864c0 11.523 9.341 20.864 20.864 20.864s20.864-9.341 20.864-20.864zM532.864 448.825c0-11.523-9.341-20.864-20.864-20.864s-20.864 9.341-20.864 20.864c0 11.523 9.341 20.864 20.864 20.864s20.864-9.341 20.864-20.864zM470.256 386.217c0-11.523-9.341-20.864-20.864-20.864s-20.864 9.341-20.864 20.864c0 11.523 9.341 20.864 20.864 20.864s20.864-9.341 20.864-20.864zM407.648 323.609c0-11.523-9.341-20.864-20.864-20.864s-20.864 9.341-20.864 20.864c0 11.523 9.341 20.864 20.864 20.864s20.864-9.341 20.864-20.864zM345.040 261.001c0-11.523-9.341-20.864-20.864-20.864s-20.864 9.341-20.864 20.864c0 11.523 9.341 20.864 20.864 20.864s20.864-9.341 20.864-20.864zM282.432 198.393c0-11.523-9.341-20.864-20.864-20.864s-20.864 9.341-20.864 20.864c0 11.523 9.341 20.864 20.864 20.864s20.864-9.341 20.864-20.864zM219.824 119.785c0-11.523-9.341-20.864-20.864-20.864s-20.864 9.341-20.864 20.864c0 11.523 9.341 20.864 20.864 20.864s20.864-9.341 20.864-20.864zM157.216 57.177c0-11.523-9.341-20.864-20.864-20.864s-20.864 9.341-20.864 20.864c0 11.523 9.341 20.864 20.864 20.864s20.864-9.341 20.864-20.864zM94.608-5.431c0-11.523-9.341-20.864-20.864-20.864s-20.864 9.341-20.864 20.864c0 11.523 9.341 20.864 20.864 20.864s20.864-9.341 20.864-20.864zM653.136 296.521h50.544v-23.744h-45.568c2.032-4.704 3.056-9.424 3.056-14.112 0-9.312-2.208-19.136-6.656-29.52s-11.744-20.976-21.904-31.76c8.448 2.352 16.16 3.536 23.104 3.536 8.864 0 18.88-1.328 30-4.016 18.4-4.384 30.848-6.576 37.376-6.576 7.904 0 18.176 3.008 30.8 8.992l9.312-26.464c-9.84-4.176-17.456-6.896-22.864-8.176s-10.784-1.92-16.128-1.92c-4.496 0-9.040 0.432-13.632 1.28-2.88 0.528-9.824 2.48-20.784 5.856s-18.048 5.376-21.264 6.016c-5.024 0.848-10.064 1.28-15.088 1.28-7.696 0-15.92-1.328-24.624-4.016s-16.656-6.304-23.824-10.912l-11.072 27.76c10.272 5.664 18.976 13.76 26.144 24.304s10.752 23.392 10.752 38.576c0 6.528-0.912 13.152-2.72 19.888h-31.44v23.744h24.704c-3.536 11.984-5.776 20.736-6.736 26.224-0.96 5.504-1.44 10.88-1.44 16.128 0 22.256 8.224 39.632 24.704 52.144 13.264 9.952 29.312 14.928 48.128 14.928 19.36 0 35.328-5.328 47.888-15.968s20.288-25.584 23.184-44.848l-28.72-4.336c-1.6 12.832-6.384 22.944-14.352 30.32s-17.52 11.072-28.64 11.072c-11.872 0-21.744-3.824-29.6-11.472s-11.792-16.88-11.792-27.68c0-11.872 3.056-27.392 9.152-46.528zM316.336 624.425h50.544v-23.744h-45.568c2.032-4.704 3.056-9.424 3.056-14.112 0-9.312-2.208-19.136-6.656-29.52s-11.744-20.976-21.904-31.76c8.448 2.352 16.16 3.536 23.104 3.536 8.864 0 18.88-1.328 30-4.016 18.4-4.384 30.848-6.576 37.376-6.576 7.904 0 18.176 3.008 30.8 8.992l9.312-26.464c-9.84-4.176-17.456-6.896-22.864-8.176s-10.784-1.92-16.128-1.92c-4.496 0-9.040 0.432-13.632 1.28-2.88 0.528-9.824 2.48-20.784 5.856s-18.048 5.376-21.264 6.016c-5.024 0.848-10.064 1.28-15.088 1.28-7.696 0-15.92-1.328-24.624-4.016-8.704-2.672-16.656-6.304-23.824-10.912l-11.072 27.76c10.272 5.664 18.976 13.76 26.144 24.304s10.752 23.392 10.752 38.576c0 6.528-0.912 13.152-2.72 19.888h-31.44v23.744h24.704c-3.536 11.984-5.776 20.72-6.736 26.224s-1.44 10.88-1.44 16.128c0 22.256 8.224 39.632 24.704 52.144 13.264 9.952 29.312 14.928 48.128 14.928 19.36 0 35.328-5.328 47.888-15.968s20.288-25.584 23.184-44.848l-28.72-4.336c-1.6 12.832-6.384 22.944-14.352 30.32s-17.52 11.072-28.64 11.072c-11.872 0-21.744-3.824-29.6-11.472s-11.792-16.88-11.792-27.68c0.016-11.872 3.056-27.376 9.152-46.528z" />
<glyph unicode="&#xe90a;" glyph-name="villa" d="M19.44 918.857v-500h59.52v-460h872.96v460h59.52v500h-992zM59.12 878.857h912.64v-420h-267.216l-189.104 296.88-16.736-26.256-172.352-270.624h-223.824c-2.656 0.56-5.408 0.56-8.064 0h-35.344v420zM515.44 681.993l161.824-253.744 6.192-9.376h228.784v-420h-279.008v220c0 65.424-52.912 118.752-117.808 118.752s-117.792-53.328-117.792-118.752v-220h-279.008v420h228.784l6.208 9.376 161.824 253.744zM198 338.857v-240h158.72v240h-158.72zM674.16 338.857v-240h158.72v240h-158.72zM515.44 300.105c44.704 0 80.608-36.192 80.608-81.248v-220h-161.2v220c-0.016 45.072 35.888 81.248 80.592 81.248zM237.68 298.857h79.36v-160h-79.36v160zM713.84 298.857h79.36v-160h-79.36v160z" />
<glyph unicode="&#xe90b;" glyph-name="booking" d="M131.088 934.825c-11.056-2.16-18.976-12.128-18.784-23.616v-944.736c0-13.040 10.352-23.616 23.104-23.616h785.776c12.768 0 23.104 10.576 23.104 23.616v944.736c0 13.040-10.352 23.616-23.104 23.616h-785.776c-0.72 0.032-1.44 0.032-2.16 0-0.704 0.048-1.44 0.048-2.16 0zM158.544 887.593h739.552v-897.504h-739.552v897.504zM274.096 745.881v-47.232h69.328v47.232h-69.328zM412.752 745.881v-47.232h392.88v47.232h-392.88zM274.096 556.937v-47.232h69.328v47.232h-69.328zM412.752 556.937v-47.232h392.88v47.232h-392.88zM274.096 367.993v-47.232h69.328v47.232h-69.328zM412.752 367.993v-47.232h392.88v47.232h-392.88zM274.096 179.049v-47.232h69.328v47.232h-69.328zM412.752 179.049v-47.232h392.88v47.232h-392.88z" />
<glyph unicode="&#xe90c;" glyph-name="short-arrow-left" d="M444.432 136.313c11.6 1.776 20.080 11.52 19.936 22.864v182.96h520c13.056 0 23.632 10.24 23.632 22.864v182.96c0 12.624-10.576 22.864-23.632 22.864h-520v182.96c-0.304 12.624-11.136 22.624-24.192 22.336-4.864-0.112-9.568-1.664-13.488-4.464l-401.808-297.312c-10.192-7.888-11.856-22.272-3.712-32.144 1.088-1.328 2.336-2.528 3.712-3.584l401.808-297.312c4.976-3.92 11.376-5.728 17.744-4.992zM417.088 204.921l-339.776 251.568 339.776 251.568v-160.080c0-12.624 10.576-22.864 23.632-22.864h520v-137.216h-520c-13.056 0-23.632-10.24-23.632-22.864v-160.112z" />
<glyph unicode="&#xe90d;" glyph-name="short-arrow-right" d="M579.568 741.401c-11.6-1.776-20.080-11.52-19.936-22.864v-182.96h-520c-13.056 0-23.632-10.24-23.632-22.864v-182.96c0-12.624 10.576-22.864 23.632-22.864h520v-182.96c0.304-12.624 11.136-22.624 24.192-22.336 4.864 0.112 9.568 1.664 13.488 4.464l401.808 297.312c10.192 7.888 11.856 22.272 3.712 32.144-1.088 1.328-2.336 2.528-3.712 3.584l-401.808 297.312c-4.976 3.92-11.376 5.728-17.744 4.992zM606.912 672.793l339.776-251.568-339.776-251.568v160.080c0 12.624-10.576 22.864-23.632 22.864h-520v137.216h520c13.056 0 23.632 10.24 23.632 22.864v160.112z" />
<glyph unicode="&#xe90e;" glyph-name="thermometer" d="M496 934.857c-32.64 0-63.728-6.608-88-22.944s-40-43.504-40-76.256v-92.992c-1.28-3.84-1.28-7.936 0-11.776v-345.344c-76.128-41.248-128-116.88-128-204.592 0-131.248 114.864-238.080 256-238.080s256 106.832 256 238.080c0 87.712-51.872 163.36-128 204.592v13.648h64c11.776-0.16 21.472 8.608 21.632 19.552 0.16 10.96-9.248 19.968-21.024 20.128-0.208 0-0.4 0-0.608 0h-64v39.68h64c11.776-0.16 21.472 8.608 21.632 19.552 0.16 10.96-9.248 19.968-21.024 20.128-0.208 0-0.4 0-0.608 0h-64v39.68h64c11.776-0.16 21.472 8.608 21.632 19.552 0.16 10.96-9.248 19.968-21.024 20.128-0.208 0-0.4 0-0.608 0h-64v39.68h64c11.776-0.16 21.472 8.608 21.632 19.552 0.16 10.96-9.248 19.968-21.024 20.128-0.208 0-0.4 0-0.608 0h-64v39.68h64c11.776-0.16 21.472 8.608 21.632 19.552 0.16 10.96-9.248 19.968-21.024 20.128-0.208 0-0.4 0-0.608 0h-64v79.36c0 32.752-15.728 59.92-40 76.256s-55.344 22.928-88 22.928zM496 895.177c26.272 0 48.336-5.856 62.672-15.504s22.672-22 22.672-44.016v-79.36h-170.672v79.36c0 22.032 8.336 34.368 22.672 44.016 14.32 9.648 36.4 15.504 62.656 15.504zM410.672 716.617h170.672v-53.312c-1.28-3.84-1.28-7.952 0-11.776v-64.48c-2.848-5.488-2.848-11.872 0-17.36v-62c-2.848-5.488-2.848-11.872 0-17.36v-62c-2.848-5.488-2.848-11.872 0-17.36v-35.952c0.064-7.28 4.416-13.952 11.328-17.36 69.024-32.848 116.672-99.472 116.672-176.704 0-109.808-95.264-198.4-213.328-198.4s-213.328 88.592-213.328 198.4c0 77.216 47.632 143.856 116.672 176.704 6.912 3.408 11.264 10.080 11.328 17.36v341.6z" />
<glyph unicode="&#xe90f;" glyph-name="history" d="M507.904 931.705c-1.936-0.336-3.824-0.96-5.584-1.856l-440.208-210.128c-0.208-0.208-0.416-0.416-0.624-0.624-9.44-4.72-18.944-8.384-28.528-16.112-9.584-7.744-17.984-21.984-17.984-37.184v-35.328c0-24 17.52-41.296 39.056-48.976 3.76-5.536 10.048-8.784 16.736-8.672h3.712v-26.032c0-24.128 17.056-44.208 39.68-49.584v-420.272h-57.664v-1.856c-22.608 1.488-41.536-16.064-41.536-37.808v-53.92c0-23.328 18.608-43.392 41.536-43.392h907.056c22.928 0 41.536 18.608 41.536 41.536v53.936c0 22.912-18.608 41.536-41.536 41.536h-55.808v420.272c22.624 5.376 39.68 25.456 39.68 49.584v26.032h3.712c30.416 0 55.808 24.752 55.808 55.168v35.952c0 14.544-7.152 28.528-16.736 36.576s-19.552 12.432-30.384 17.36v-0.624l-440.208 212.608c-3.568 1.76-7.68 2.416-11.712 1.808zM511.008 889.561l432.144-207.648c0-0.208 0-0.416 0-0.624 10.992-4.992 18.88-8.784 21.696-11.152s2.48-0.912 2.48-6.192v-35.952c0-9.248-6.864-15.504-16.128-15.504h-14.256c-2.912 1.36-6.096 2-9.296 1.856h-238.080c-0.624 0.032-1.248 0.032-1.856 0-2.368-0.208-4.672-0.832-6.816-1.856h-41.536c-2.912 1.36-6.096 2-9.296 1.856h-238.080c-0.624 0.032-1.248 0.032-1.856 0-0.624 0.032-1.248 0.032-1.856 0-1.936-0.336-3.824-0.96-5.584-1.856h-40.928c-2.912 1.36-6.096 2-9.296 1.856h-238.080c-0.624 0.032-1.248 0.032-1.856 0-0.624 0.032-1.248 0.032-1.856 0-1.936-0.336-3.824-0.96-5.584-1.856h-5.584c-2.72 1.264-5.68 1.904-8.672 1.856-9.264 0-16.112 6.864-16.112 16.112v35.328c0 4.624-0.224 3.52 3.104 6.192 3.248 2.624 11.024 6.752 21.072 11.776h0.624l431.488 205.808zM114.208 572.809h198.4v-26.032c0-7.568-4.208-11.776-11.776-11.776h-174.832c-7.568 0-11.776 4.208-11.776 11.776v26.032zM352.288 572.809h19.84v-26.032c0-24.128 17.056-44.208 39.68-49.584v-420.272h-99.2v420.272c22.624 5.376 39.68 25.456 39.68 49.584v26.032zM411.808 572.809h198.4v-26.032c0-7.568-4.208-11.776-11.776-11.776h-174.832c-7.568 0-11.776 4.208-11.776 11.776v26.032zM649.888 572.809h19.84v-26.032c0-24.128 17.056-44.208 39.68-49.584v-420.272h-99.2v420.272c22.624 5.376 39.68 25.456 39.68 49.584v26.032zM709.408 572.809h198.4v-26.032c0-7.568-4.208-11.776-11.776-11.776h-174.848c-7.568 0-11.776 4.208-11.776 11.776v26.032zM153.888 495.321h119.040v-416.544h-119.040v416.544zM451.488 495.321h119.040v-416.544h-119.040v416.544zM749.088 495.321h119.040v-416.544h-119.040v416.544zM54.688 37.241c0.624-0.032 1.248-0.032 1.856 0h907.056c0.88 0 1.856-0.976 1.856-1.856v-53.936c0-0.88-0.976-1.856-1.856-1.856h-907.056c-0.88 0-1.856-0.72-1.856 3.728v53.92z" />
<glyph unicode="&#xe910;" glyph-name="business" d="M511.472 887.593c-47.504 0-89.904-14.256-121.184-38.352-26.032-20.048-44.336-47.376-49.792-78.528h-251.376c-31.584 0-57.6-26.4-57.6-58.432v-327.472c-0.112-1.216-0.112-2.432 0-3.648v-331.136c0-32.048 26.016-58.432 57.6-58.432h844.704c31.584 0 57.6 26.4 57.6 58.432v332.96c0.032 0.608 0.032 1.216 0 1.824v327.488c0 32.048-26.016 58.432-57.6 58.432h-251.376c-5.456 31.152-23.76 58.48-49.792 78.528-31.28 24.096-73.68 38.336-121.184 38.336zM511.472 848.649c39.952 0 74.16-12.24 97.792-30.432 17.536-13.504 29.344-29.552 34.192-47.472h-263.968c4.848 17.936 16.656 33.968 34.192 47.472 23.632 18.192 57.84 30.432 97.792 30.432zM89.12 731.769h844.704c10.848 0 19.2-8.48 19.2-19.472v-327.472c-0.048-0.816-0.048-1.632 0-2.432v-1.216c0-11.008-8.352-19.472-19.2-19.472h-326.368c0 32.048-26.016 58.432-57.6 58.432h-76.784c-31.584 0-57.6-26.4-57.6-58.432h-326.368c-10.848 0-19.2 8.48-19.2 19.472 0.112 1.216 0.112 2.432 0 3.648v327.472c0.016 11.008 8.368 19.472 19.216 19.472zM473.072 381.161h76.784c10.848 0 19.2-8.48 19.2-19.472v-15.824c-0.032-0.608-0.032-1.216 0-1.824v-1.824c-0.16-1.424-0.16-2.848 0-4.256v-15.216c0-11.008-8.352-19.472-19.2-19.472h-76.784c-10.848 0-19.2 8.48-19.2 19.472v15.824c0.528 2.608 0.528 5.296 0 7.92v15.216c0 10.992 8.352 19.456 19.2 19.456zM69.92 326.377c6.064-2.224 12.416-3.648 19.2-3.648h326.368c0-32.048 26.016-58.432 57.6-58.432h76.784c31.584 0 57.6 26.4 57.6 58.432h326.368c6.784 0 13.136 1.424 19.2 3.648v-276.352c0-11.008-8.352-19.472-19.2-19.472h-844.704c-10.848 0-19.2 8.48-19.2 19.472v276.352z" />
<glyph unicode="&#xe911;" glyph-name="infant" d="M510.8 934.857c-81.392 0-147.376-64.816-147.376-144.784s65.984-144.784 147.376-144.784 147.376 64.816 147.376 144.784-65.984 144.784-147.376 144.784zM510.8 645.305h-94.736c-35.056 0-48.672-11.536-71.712-27.792-14.256-10.048-207.232-149.296-207.232-149.296-15.92-11.248-26.32-29.648-26.32-50.416 0-34.272 28.272-62.048 63.152-62.048 14.512 0 27.488 4.864 38.16 12.928l151.312 107.296v-78.848h0.656c0 0-49.856-111.696-53.952-120.864-0.064 0.064-0.592-0.048-0.656 0-17.184-25.44-48.080-71.456-55.264-82.080-20.416-30.24-26.624-40.512 1.312-76.912 22.8-29.696 104.704-135.184 117.76-148.016 13.056-12.816 42.512-38.24 71.712-20.032 31.584 19.696 21.472 51.136 12.496 67.872-8.048 15.008-90.784 115.040-90.784 115.040l76.976 66.576c15.664-5.088 31.968-8.4 46.704-8.4h41.44c14.656 0 30.48 3.36 46.048 8.4l77.632-66.576c0 0-82.768-100.032-90.784-115.040-8.976-16.752-19.744-48.176 11.84-67.872 29.2-18.208 58.656 7.216 71.712 20.032 13.024 12.816 94.96 118.336 117.76 148.016 27.936 36.4 21.696 46.672 1.312 76.912-7.2 10.624-38.080 56.624-55.264 82.080l-53.952 120.864v78.848l151.312-107.296c10.672-8.064 23.648-12.928 38.16-12.928 34.88 0 63.152 27.776 63.152 62.048 0 20.928-10.832 39.184-26.976 50.416-0.8 0.576-192.336 139.264-206.576 149.296-23.024 16.256-36.672 27.792-71.712 27.792h-94.688zM391.072 355.753h239.488l30.256-66.576c-30.784-22.128-89.536-57.52-128.944-57.52h-42.096c-39.408 0-98.176 35.392-128.944 57.52l30.24 66.576z" />
<glyph unicode="&#xe912;" glyph-name="payment" d="M123.52 766.857c-59.309-0.181-107.339-48.212-107.52-107.503v-472.977c0.181-59.309 48.212-107.339 107.503-107.52h773.937c59.309 0.181 107.339 48.212 107.52 107.503v472.977c-0.181 59.309-48.212 107.339-107.503 107.52h-773.937zM123.52 723.817h773.92c35.346 0 64-28.654 64-64v-43.040h-902.4v42.56c-0.001 0.143-0.002 0.312-0.002 0.482 0 35.346 28.654 64 64 64 0.169 0 0.339-0.001 0.508-0.002zM59.52 508.777h902.56v-322.4c0-35.346-28.654-64-64-64h-774.56c-35.346 0-64 28.654-64 64v322.4zM167.040 444.777v-43.040h344v42.56h-344.48z" />
<glyph unicode="&#xe913;" glyph-name="tv" d="M16 775.881v-639.92h992v639.92h-992zM55.68 735.881h912.64v-559.936h-912.64v559.936zM230.528 95.961c-10.96-1.040-19.008-10.832-17.984-21.872s10.736-19.152 21.696-18.128h555.52c10.96-0.16 19.968 8.672 20.128 19.712s-8.608 20.128-19.552 20.288c-0.192 0-0.368 0-0.56 0h-555.52c-0.624 0.032-1.248 0.032-1.856 0-0.64 0.032-1.264 0.032-1.872 0z" />
<glyph unicode="&#xe914;" glyph-name="hold-luggage-illustration" horiz-adv-x="598" d="M543.37 669.237c-11.981 40.895-105.754 52.92-179.283 52.498-1.655 20.826-28.126 22.848-46.767 22.902-1.6 31.489-3.471 74.514-5.061 106.013-0.259 0.768 3.136 2.087 5.721 2.919 4.347 7.137 1.525 40.387 0.292 47.611-6.844 14.36-35.251 16.912-52.498 21.011-39.295 9.3-137.934 28.666-188.993 15.268-9.83-5.158-5.753-41.869-5.753-62.89 0-1.482 4.639-4.639 5.753-4.887 3.828-55.991 7.526-114.944 11.343-170.935-3.169-1.049-65.766-10.943-75.292-71.508-5.558-35.327 0.638-554.424 80.18-587.038-4.272-21.529 9.764-59.98 23.854-66.804 2.768-1.319 4.25-0.292 6.163-0.605 0-1.59 0.249-3.352 1.406-5.018 2.963-4.617 10.272-7.959 13.916-8.618 3.298-0.605 23 0.076 35.781 2.778 13.938 9.808 13.43 32.017 10.284 41.967 1.492 2.811 2.984 4.639 4.033 5.764 5.395-2.541 10.824-5.093 16.231-7.634 9.732-18.068 12.543-46.518 18.133-63.95 3.526-4.488 20.361-9.548 22.751-10.402 2.314-0.822 21.215 7.461 24.979 8.499 3.46 0.952 4.023 44.582 11.322 54.65 12.824 17.691 150.855 42.539 159.581 39.273 8.878-5.925 8.672-20.989 12.37-31.866 6.683-3.265 18.567-7.105 20.934-7.904 2.487-0.822 11.44 2.487 22.005 5.99 1.276 19.409 2.552 38.82 3.817 58.229 16.576 3.73 32.807 7.937 45.815 14.316 21.323 10.456 27.79 33.824 32.451 60.133 11.603 65.301-25.821 507.258-35.467 540.238zM161.729 733.175c-4.541-10.813 4.098-15.388 7.634-16.231-20.047-5.093-40.096-10.175-60.133-15.268-3.179 56.315-6.359 112.641-9.548 168.956l4.779 2.866c2.67 12.068-7.040 28.265 5.721 35.316 10.672 3.33 27.563-12.013 49.633-9.548 12.208 1.362 18.696-6.997 32.451-9.537 11.43-2.12 29.542 0.487 37.187 2.325 19.409-8.446 47.849 11.419 54.228-4.574 4.423-9.039 3.871-22.837 4.822-33.651 2.866-1.276 3.039-1.968 5.893-3.233 2.228-35.316 4.455-70.643 6.683-105.958-42.961 0.66-124.719 18.080-139.35-11.462zM301.923 723.638c-96.108 0.768-107.397 2.281-110.316 8.002 13.971-1.017 40.755 1.222 57.937 2.498 18.058 0 35.954-0.151 52.39-1.406v-9.094zM319.223 722.687c0.314 2.541 0.638 5.093 0.952 7.634 10.824-0.952 21.637-1.914 32.451-2.866 0.314-2.228 0.638-4.455 0.952-6.683-11.44 0.638-22.902 1.276-34.353 1.914z" />
<glyph unicode="&#xe915;" glyph-name="reviews" d="M123.824 877.033c-59.2 0-107.824-48.096-107.824-106.672v-512c0-58.576 48.624-106.672 107.824-106.672h88.288c2.944-25.696 2.608-49.392-4.048-69.328-8.176-24.496-23.376-45.072-51.888-62-10.048-6.32-13.024-19.504-6.64-29.44 3.808-5.936 10.336-9.632 17.424-9.888 91.52 0 196.384 47.248 249.344 170.672h483.872c59.2 0 107.824 48.096 107.824 106.672v512c0 58.576-48.624 106.672-107.824 106.672h-776.352zM123.824 834.361h776.352c35.68 0 64.688-28.704 64.688-64v-512c0-35.296-29.008-64-64.688-64h-496c-9.040-0.016-17.104-5.6-20.224-14-33.536-90.48-93.408-133.584-155.68-149.328 8.448 11.952 16.4 24.528 20.896 38 11.232 33.648 10.272 70.48 3.376 108-1.92 9.952-10.656 17.2-20.896 17.328h-107.824c-35.68 0-64.688 28.704-64.688 64v512c0 35.296 29.008 64 64.688 64z" />
<glyph unicode="&#xe916;" glyph-name="waterpark" d="M764.4 933.945c-10.848-1.568-18.368-11.648-16.8-22.512 1.184-8.272 7.408-14.912 15.568-16.624 71.040-20.544 112.16-49.616 133.856-79.504s25.072-61.168 17.968-91.936c-7.104-30.768-25.728-60.624-48.96-81.984s-50.64-33.536-71.888-33.536c-10.96 0.16-19.952-8.624-20.112-19.6s8.592-20 19.552-20.16c0.192 0 0.368 0 0.56 0 35.28 0 69.824 17.696 98.528 44.096s52.096 62.448 61.344 102.496c4.528 19.616 5.392 40.144 1.856 60.864 8.672-18.576 14.88-38.912 14.88-63.984 0-79.76-39.088-132.656-82.416-167.088-21.664-17.216-44.32-29.408-62.592-37.264-9.136-3.936-17.44-6.32-23.552-8.080-6.112-1.744-11.216-2.48-9.92-2.48-10.96 0.16-19.952-8.624-20.112-19.6s8.592-20 19.552-20.16c0.192 0 0.368 0 0.56 0 7.248 0 13.072 1.44 21.072 3.728s17.312 5.392 27.888 9.936c21.136 9.088 46.336 23.056 71.264 42.864 49.872 39.616 97.92 104.976 97.92 198.144 0 94.016-62.016 151.424-120.848 182.608-29.408 15.6-58.608 25.744-80.56 31.68-10.976 2.96-20.016 4.928-26.64 6.208-3.312 0.64-6.096 0.928-8.064 1.248-0.224 0.032-0.416-0.032-0.624 0-0.688 0.112-1.36 0.544-1.856 0.624-0.336 0.048-0.288-0.032-0.624 0-0.336 0.048-2.448 0-2.48 0-0.832 0.048-1.648 0.048-2.48 0-0.592 0.048-1.216 0.048-1.84 0.016zM296.528 874.313c-82.544 0-150.752-20.080-199.536-54.032-48.8-33.968-78.080-82.896-78.080-136.656 0-88.032 52.432-147.664 120.224-181.376 50.576-25.152 109.264-35.536 166.704-40.368-80.368-50.32-174.864-96.224-271.424-127.328-8.048-2.656-13.52-10.144-13.632-18.64 0-140.208 117.712-226.72 237.968-226.72 40.288 0 71.392 7.872 92.336 16.144 19.696 7.792 29.616 15.744 30.992 16.768 0.080 0.064 1.856 1.248 1.856 1.248 63.008 39.168 153.44 99.872 229.296 176.4 76.496 77.184 139.44 170.96 139.44 276.4 0 79.584-41.44 144.24-102.864 192.56-0.224 0.176-0.4 0.448-0.624 0.624-10.144 9.856-21.968 18.784-35.328 26.704-1.728 1.104-3.6 1.952-5.584 2.48-0.656 0.384-1.2 0.864-1.856 1.248-27.408 15.808-57.968 28.304-89.856 39.136-1.296 0.624-2.4 1.264-3.712 1.856-2.896 1.36-6.096 2-9.296 1.856-64.704 20.32-135.504 31.696-207.024 31.696zM296.528 834.569c71.248 0 141.792-12.048 204.496-32.928 48.432-23.632 73.632-55.472 80.56-93.168 7.2-39.136-5.136-86.64-38.416-137.264-66.576-101.264-216.016-210.352-430.688-273.92-8.512-2.496-14.336-10.368-14.256-19.248 0-32.4 21.888-60.304 50.192-81.984s64.736-37.264 102.256-37.264c23.952 0 51.008 1.808 76.848 14.912 23.856 12.096 45.2 35.072 61.968 68.944 106.8 46.432 211.504 147.728 268.336 255.296 26.32 49.808 40.128 100.992 39.664 149.696 9.184-22.112 15.488-45.584 15.488-71.424 0-89.344-54.928-175.072-127.664-248.464s-161.84-133.664-223.712-172.048c-0.64-0.384-1.264-0.8-1.856-1.248 0 0-6.816-5.184-23.552-11.808s-42.4-13.664-77.456-13.664c-97.648 0-188.368 64.528-195.824 173.92 114.128 38.56 224.512 94.944 312.336 157.152 0.64 0.384 1.264 0.8 1.856 1.248 37.392 26.608 71.456 53.552 98.528 81.376 5.648 5.792 8.496 11.568 13.632 17.392 0.208 0.224 0.416 0.384 0.624 0.624 0.928 0.944 1.76 1.984 2.48 3.104 0.928 0.944 1.76 1.984 2.48 3.104 0.24 0.608 0.448 1.232 0.624 1.856 33.408 39.888 57.76 80.032 57.008 120.496-0.464 24.624-9.792 48.624-27.888 68.32-18.096 19.712-44.416 35.408-78.704 47.824-0.4 0.224-0.816 0.432-1.232 0.624-49.536 14.48-98.8 20.496-149.968 20.496-76.416 0-125.776-17.68-156.16-42.864s-40.288-56.72-40.288-80.128c0-23.328 8.448-46.512 24.784-65.216s39.856-33.376 70.64-45.344c53.6-20.848 135.088-31.328 239.824-34.16-21.472-20.576-45.472-41.152-73.744-61.488-68.256 0.464-145.328 11.568-203.264 40.368-59.12 29.392-97.92 72.992-97.92 145.968 0 39.664 20.288 76.208 60.736 104.352 40.448 28.128 101.136 46.56 177.232 46.56zM294.672 786.729c47.984 0 93.168-5.904 138.816-19.248 29.584-10.848 49.84-23.424 61.968-36.64 12.272-13.376 17.056-26.704 17.344-42.24 0.464-24.704-17.616-57.504-45.232-91.936-121.728 0.72-207.76 13.36-259.648 33.536-26.72 10.384-44.48 22.56-55.152 34.784s-14.88 24.080-14.88 38.512c0 12.368 4.848 32.144 26.032 49.696 21.168 17.552 60.416 33.536 130.752 33.536zM610.72 746.361c29.184-23.856 46.144-52.128 48.96-86.96 3.408-42.128-10.624-92.576-37.184-142.864-53.12-100.56-156.768-199.44-254.080-239.76-4.752-2.016-8.528-5.808-10.528-10.56-14.48-32.656-31.040-48.384-48.336-57.152s-37.216-10.56-58.864-10.56c-25.952 0-55.824 12.128-78.080 29.2-16.256 12.464-24.944 26.272-29.744 37.888 210.784 66.304 361.872 173.84 433.792 283.248 37.12 56.448 53.648 114.608 44 167.088-2 10.688-5.728 20.464-9.936 30.432zM623.728 254.425c-10.8-1.856-18.048-12.128-16.208-22.944 0.848-4.96 3.536-9.408 7.536-12.464 37.712-30.72 88.192-38.512 121.456-38.512 29.84 0 73.152 8.896 109.072 32.304 36-23.664 79.104-32.304 109.072-32.304 15.776 0 30.496 2.288 43.376 7.456 10.272 4.112 15.264 15.792 11.152 26.080s-15.76 15.296-26.032 11.184c-6.96-2.784-16.512-4.976-28.512-4.976-26.224 0-70.32 8.224-96.048 29.2-7.36 6.144-18.048 6.144-25.408 0-25.744-20.96-70.448-29.2-96.672-29.2s-70.32 8.224-96.048 29.2c-4.064 3.632-9.44 5.424-14.88 4.976-0.608 0.016-1.232 0.016-1.856 0zM625.584 135.161c-3.936-0.56-7.6-2.288-10.528-4.976-25.744-20.96-70.448-29.2-96.672-29.2-19.408 0-45.184 3.568-68.16 12.416-9.52 5.44-21.632 2.112-27.056-7.44-5.424-9.536-2.096-21.68 7.424-27.12 1.68-0.96 3.488-1.664 5.376-2.096 28.576-11.024 58.208-15.536 82.416-15.536 29.84 0 73.152 8.896 109.072 32.304 36-23.664 79.104-32.304 109.072-32.304 29.84 0 73.152 8.896 109.072 32.304 36-23.664 79.104-32.304 109.072-32.304 15.776 0 30.496 2.288 43.376 7.456 10.272 4.112 15.264 15.792 11.152 26.080s-15.76 15.296-26.032 11.184c-6.96-2.784-16.512-4.976-28.512-4.976-26.224 0-70.32 8.224-96.048 29.2-7.36 6.144-18.048 6.144-25.408 0-25.744-20.96-70.448-29.2-96.672-29.2s-70.32 8.224-96.048 29.2c-3.6 3.184-8.224 4.944-13.008 4.976-0.64 0.064-1.264 0.064-1.888 0.032zM119.296 105.353c-0.624-0.176-1.248-0.384-1.856-0.624-16.784-3.744-30.768-5.584-42.752-5.584-12 0-23.376 1.856-35.936 1.856-10.96 0.16-19.952-8.624-20.112-19.6s8.592-20 19.552-20.16c0.192 0 0.368 0 0.56 0 7.264 0 20.176-1.856 35.936-1.856 15.776 0 32.528 2 51.44 6.208 10.944 1.376 18.72 11.376 17.344 22.368-1.376 10.976-11.36 18.768-22.304 17.392-0.64 0.016-1.248 0.016-1.872 0zM189.312 15.897c-3.936-0.56-7.6-2.288-10.528-4.976-25.744-20.96-70.448-29.2-96.672-29.2-12 0-22.768 1.856-35.328 1.856-10.944 0.16-19.952-8.624-20.112-19.6s8.592-20 19.552-20.16c0.192 0 0.368 0 0.56 0 7.264 0 19.552-1.856 35.328-1.856 29.84 0 73.152 8.896 109.072 32.304 36-23.664 79.104-32.304 109.072-32.304 29.84 0 73.152 8.896 109.072 32.304 36-23.664 79.104-32.304 109.072-32.304 29.84 0 73.152 8.896 109.072 32.304 36-23.664 79.104-32.304 109.072-32.304 29.84 0 73.152 8.896 109.072 32.304 36-23.664 79.104-32.304 109.072-32.304 15.776 0 30.496 2.288 43.376 7.456 10.272 4.112 15.264 15.792 11.152 26.080s-15.76 15.296-26.032 11.184c-6.96-2.784-16.512-4.976-28.512-4.976-26.224 0-70.32 8.224-96.048 29.2-7.36 6.144-18.048 6.144-25.408 0-25.744-20.96-70.448-29.2-96.672-29.2s-70.32 8.224-96.048 29.2c-7.36 6.144-18.048 6.144-25.408 0-25.744-20.96-70.448-29.2-96.672-29.2s-70.32 8.224-96.048 29.2c-7.36 6.144-18.048 6.144-25.408 0-25.744-20.96-70.448-29.2-96.672-29.2s-70.32 8.224-96.048 29.2c-3.6 3.184-8.224 4.944-13.008 4.976-0.672 0.048-1.296 0.048-1.92 0.016z" />
<glyph unicode="&#xe917;" glyph-name="disabled" d="M529.632 934.857c-65.888 0-119.712-53.536-119.712-119.040s53.84-119.040 119.712-119.040c65.888 0 119.712 53.536 119.712 119.040s-53.824 119.040-119.712 119.040zM529.632 895.177c44.32 0 79.808-35.296 79.808-79.36s-35.504-79.36-79.808-79.36c-44.32 0-79.808 35.296-79.808 79.36s35.488 79.36 79.808 79.36zM437.968 676.937c-11.104 0-22.224-3.088-32.432-8.064-0.192-0.096-0.432 0.096-0.624 0l-172.72-76.88c-20.288-8.64-31.696-26.912-36.784-44.64l-44.272-155.008c-8.816-32.128 12.144-64.736 44.272-73.168-28.048-38.992-44.896-86.784-44.896-138.256 0-131.248 107.44-238.080 239.44-238.080 99.904 0 185.52 61.52 221.36 148.176l123.456-122.752c3.84-3.696 9.008-5.696 14.336-5.584h99.76c11.024-0.16 20.080 8.608 20.24 19.552 0.16 10.96-8.656 19.968-19.664 20.128-0.192 0-0.384 0-0.56 0h-91.040l-133.44 132.688c2.96 14.928 4.992 30.112 4.992 45.872 0 13.6-1.52 26.688-3.744 39.68h42.4l64.224-151.904c0.096-0.288 0.512-0.336 0.624-0.624 11.568-30.432 43.056-51.552 77.312-45.872 0.208 0.208 0.416 0.416 0.624 0.624 43.008 8.016 68.24 53.136 52.384 93.616v0.624l-83.552 217.616c-0.192 0.416-0.4 0.832-0.624 1.248-10.928 24.464-34.336 43.408-63.6 43.408h-130.32l26.192 169.872c9.6 66.816-42.288 127.712-111.616 127.712h-61.728zM437.968 637.257h61.728c46.4 0 78.688-38.176 72.336-82.464l-29.936-190.336c-34.864 28.624-78.112 47.408-125.328 52.704l20.576 127.712c1.76 10.816-5.648 21.008-16.528 22.752-3.456 0.56-7.008 0.192-10.288-1.056l-132.192-53.936c-5.536-2.432-9.664-7.216-11.216-13.024l-36.16-124.624c-3.328-11.008-15.040-19.456-22.448-17.984-0.208 0-0.416 0-0.624 0-12.592 2.080-20.736 15.152-18.080 24.8l43.648 155.008c2.88 10.048 7.328 15.344 14.96 18.592l173.344 77.504c0.416 0.192 0.832 0.4 1.248 0.624 5.6 2.8 10.304 3.728 14.96 3.728zM392.448 515.737l-15.584-97.344c-35.648-1.936-69.296-11.44-99.136-27.28l24.944 88.656 89.776 35.968zM389.968 379.337c110.432 0 199.536-88.592 199.536-198.4s-89.104-198.4-199.536-198.4c-110.432 0-199.536 88.592-199.536 198.4s89.088 198.4 199.536 198.4zM567.664 339.657h147.776c10.368 0 21.568-8.384 26.816-19.216 0.144-0.288 0.496-0.336 0.624-0.624l83.552-217.616c7.472-18.576-2.496-36.064-22.448-40.304-13.312-2.208-29.632 7.712-34.288 20.464 0.016 0.416 0.016 0.832 0 1.248l-69.84 164.304c-3.072 7.568-10.496 12.48-18.704 12.4h-65.472c-10.592 29.6-27.28 56.416-48.016 79.344zM389.968 220.617c-22.032 0-39.904-17.76-39.904-39.68s17.872-39.68 39.904-39.68c22.032 0 39.904 17.76 39.904 39.68s-17.872 39.68-39.904 39.68z" />
<glyph unicode="&#xe918;" glyph-name="spa" d="M611.264 934.857c-65.504 0-119.024-53.536-119.024-119.040s53.52-119.040 119.024-119.040 119.024 53.536 119.024 119.040-53.52 119.040-119.024 119.040zM611.264 895.177c44.064 0 79.344-35.296 79.344-79.36s-35.296-79.36-79.344-79.36-79.344 35.296-79.344 79.36 35.28 79.36 79.344 79.36zM761.904 717.225c-13.328-0.208-26.848-2.56-39.68-8.064v-0.624l-77.488-35.344c-22.704-10.096-37.408-27.744-48.352-45.264v-0.624l-183.488-305.664c-35.040-20.672-59.504-57.264-59.504-101.056v-70.672l-68.192-68.208h-197.744c-34.944 0-68.432-24.8-71.296-62-2.672-40.16 28.208-76.88 69.424-76.88h251.68c15.216 0 30.704 6.544 42.16 17.984l121.504 120.896h269.040v-138.88h238.032v39.68h-198.368v317.44h198.368v44.016l-1.856 4.336-148.768 308.752c-0.064 0.16 0.064 0.448 0 0.624h-0.624c-16.912 38.512-55.136 60.192-94.848 59.552zM763.136 678.169c8.208 0.16 16.016-1.536 23.552-4.336 15.088-5.616 28-16.576 34.72-32.24v-1.248l144.432-300.704h-238.656l-58.272 127.104-15.504 34.72-19.216-32.864-77.488-128.96h-84.304c-1.104 0-2-0.592-3.104-0.624l160.56 267.84c0.176 0.288 0.448 0.336 0.624 0.624 8.72 13.776 17.648 24.096 30.368 29.76h0.624l76.864 35.344c8.016 3.44 16.608 5.424 24.8 5.584zM648.464 416.537l34.72-76.88h-80.592l45.872 76.88zM214.528 339.657c-65.504 0-119.024-53.536-119.024-119.040s53.52-119.040 119.024-119.040 119.024 53.536 119.024 119.040-53.52 119.040-119.024 119.040zM214.528 299.977c44.064 0 79.344-35.296 79.344-79.36s-35.296-79.36-79.344-79.36-79.344 35.296-79.344 79.36 35.296 79.36 79.344 79.36zM472.4 299.977h297.552v-178.56h-285.776l-6.192-5.584-126.464-127.104c-4.432-4.432-9.632-6.208-14.256-6.208h-251.68c-18.288 0-31.040 14.736-29.76 34.096 1.104 14.384 14.976 25.424 31.616 25.424h214.496l6.192 5.584 79.344 79.36 5.584 6.208v87.424c0 45.152 34.192 79.36 79.344 79.36z" />
<glyph unicode="&#xe919;" glyph-name="couples" d="M216.416 937.193c-65.696 0-119.392-53.536-119.392-119.040s53.696-119.040 119.392-119.040 119.392 53.536 119.392 119.040c0 65.52-53.68 119.040-119.392 119.040zM753.68 937.193c-65.696 0-119.392-53.536-119.392-119.040s53.696-119.040 119.392-119.040c65.696 0 119.392 53.536 119.392 119.040 0 65.52-53.696 119.040-119.392 119.040zM216.416 897.513c44.192 0 79.6-35.296 79.6-79.36s-35.392-79.36-79.6-79.36-79.6 35.296-79.6 79.36 35.408 79.36 79.6 79.36zM753.68 897.513c44.192 0 79.6-35.296 79.6-79.36s-35.392-79.36-79.6-79.36c-44.192 0-79.6 35.296-79.6 79.36s35.408 79.36 79.6 79.36zM447.12 800.169c-19.904 0-31.712-15.616-31.712-33.472 0-35.712 69.648-87.424 69.648-87.424s69.648 51.712 69.648 87.424c0 17.856-16.16 33.472-36.064 33.472s-35.44-17.984-35.44-17.984-16.176 17.984-36.080 17.984zM126.88 679.273c-60.352 0-109.44-48.944-109.44-109.12v-264.112c-0.112-1.232-0.112-2.48 0-3.728-0.064-1.872 0.144-3.76 0.624-5.584 2.928-30 28.272-53.936 59.072-53.936 7.024 0 13.616 1.456 19.904 3.712v-231.872c0-38.16 31.36-69.44 69.648-69.44 19.44 0 37.072 8.128 49.744 21.088 12.672-12.944 30.304-21.088 49.744-21.088 38.288 0 69.648 31.264 69.648 69.44v421.6l47.888-100.432c0-0.208 0-0.416 0-0.624 14.928-29.776 51.776-38.976 80.208-24.8 3.68 1.84 6.912 3.76 9.952 6.192 7.056-6.464 16.064-11.392 26.112-13.648 0.192-0.048 0.432 0.048 0.624 0 26.24-6.176 49.12 9.040 62.176 27.28 0.224 0.4 0.432 0.816 0.624 1.248l15.552 25.424-32.96-99.824c-3.664-10.976-4.16-24.48 4.352-37.2 7.936-11.872 21.936-16.736 32.336-16.736h71.504v-198.4c0-32.64 26.96-59.52 59.696-59.52 15.264 0 29.2 5.952 39.792 15.504 10.608-9.536 24.528-15.504 39.792-15.504 32.736 0 59.696 26.88 59.696 59.52v198.4h71.504c14.816 0 23.52 7.328 29.84 13.632 0.928 0.944 1.76 1.984 2.48 3.104 7.376 11.024 7.536 25.76 4.976 35.952-0.192 0.416-0.4 0.832-0.624 1.248l-8.704 25.424c20.080 0 38.16 9.904 47.888 25.424 9.616 15.344 11.488 35.248 4.976 53.936-0.048 0.128 0.048 0.496 0 0.624-18.128 56.224-79.6 243.664-79.6 243.664-3.616 10.816-11.296 28.32-26.112 44.016s-37.952 29.136-68.4 29.136h-141.152c-35.44 0-69.248-19.168-87.056-49.6-35.76-60.608-95.632-165.232-124.368-215.136l-80.832 194.672c-16.88 43.28-58.352 70.064-103.84 70.064h-167.264zM126.88 639.593h167.264c30.128 0 56.176-16.496 67.152-44.64 0-0.208 0-0.416 0-0.624l91.408-220.096c0.192-0.416 0.4-0.832 0.624-1.248 5.68-11.328 3.088-22.336-6.848-27.28-11.024-5.504-21.6-2.384-26.736 6.816-0.16 0.272-0.48 0.336-0.624 0.624l-83.328 176.080c-2.848 5.552-8.144 9.44-14.304 10.544-0.4 0.224-0.816 0.432-1.248 0.624-0.208 0-0.416 0-0.624 0-2.672 0.544-5.424 0.544-8.080 0-9.264-2.064-15.776-10.368-15.552-19.84v-505.92c0-17.392-12.416-29.76-29.84-29.76-17.44 0-29.84 12.368-29.84 29.76v1.856c0.032 0.624 0.032 1.248 0 1.856v244.272c0.384 10.944-8.192 20.144-19.184 20.528-0.864 0.032-1.728 0-2.592-0.080-0.848-0.16-1.68-0.352-2.48-0.624-9.264-2.064-15.776-10.368-15.552-19.84v-244.272c-0.048-0.832-0.048-1.648 0-2.48v-1.248c0-17.392-12.416-29.76-29.84-29.76-17.44 0-29.84 12.368-29.84 29.76v505.92c0.384 10.944-8.192 20.144-19.184 20.528-0.864 0.032-1.728 0-2.592-0.080-0.848-0.16-1.68-0.352-2.48-0.624-9.264-2.064-15.776-10.368-15.552-19.84v-215.136c-0.032-0.624-0.032-1.248 0-1.856v-1.248c0-11.008-8.864-19.84-19.904-19.84-10.608 0-19.248 8.208-19.904 18.592 0.016 0.416 0.016 0.832 0 1.248 0.112 1.232 0.112 2.48 0 3.728v264.112c0.032 39.072 30.544 69.488 69.68 69.488zM690.256 639.593h141.152c19.296 0 30.736-7.136 39.792-16.736s14.432-22.096 16.784-29.136c0 0 61.744-188.304 79.6-243.664 0-0.208 0-0.416 0-0.624 3.184-8.896 2.096-16.128-0.624-20.464-2.704-4.32-6.528-6.816-14.304-6.816-7.632 0-14.064 4.096-17.408 13.024-0.176 0.624-0.384 1.248-0.624 1.856l-56.592 169.872c-2.656 9.232-11.568 15.232-21.136 14.256-0.848-0.16-1.68-0.352-2.48-0.624-10.72-2.432-17.424-13.072-14.976-23.76 0.176-0.768 0.4-1.536 0.672-2.272l56.592-169.264c0.256-1.488 0.672-2.944 1.248-4.336 0.336-0.896 0.864-1.616 1.248-2.48l24.256-72.544c1.184-4.752 0.944-3.040 0.624-3.104h-340.768c0.096 0.384-0.24 1.168 0 1.856l83.952 249.856c2.304 6.912 0.64 14.528-4.352 19.84-0.4 0.432-0.816 0.848-1.248 1.232-0.576 0.656-1.2 1.28-1.872 1.856-0.4 0.224-0.816 0.432-1.248 0.624-1.168 0.752-2.432 1.376-3.728 1.856-9.472 4.16-20.544 0.384-25.488-8.672l-98.864-157.472c-6.72-9.376-15.2-13.728-20.528-12.4-0.208 0-0.416 0-0.624 0-8.112 1.728-10.832 4.608-12.432 9.296s-1.072 12.816 3.728 21.696c22.352 38.512 97.328 170.56 136.8 237.456 10.032 17.216 32.56 29.792 52.848 29.792zM693.984 203.113h39.792v-198.4c0-11.008-8.864-19.84-19.904-19.84s-19.904 8.832-19.904 19.84v198.4zM773.568 203.113h39.792v-198.4c0-11.008-8.864-19.84-19.904-19.84s-19.904 8.832-19.904 19.84v198.4z" />
<glyph unicode="&#xe91a;" glyph-name="hand-luggage-illustration" horiz-adv-x="1000" d="M989.071 191.227c-10.199 50.645-20.419 101.305-30.629 151.95-13.209 66.17 6.498 227.607-25.907 272.097-22.409 30.774-60.599 33.763-100.129 48.295-6.279 5.496-57.052 53.019-159.017 42.407-16.81 76.080-27.020 187.356-134.284 223.811-19.584 6.662-42.407 21.069-73.026 15.314-54.523-10.252-104.038-58.278-120.146-107.191-12.521-38.024-6.311-82.523-15.314-128.397-3.353-17.087-12.717-27.112-12.963-47.109-69.251-3.394-197.938-21.255-228.515-62.434-33.734-45.429-21.183-136.152-20.017-208.487 1.184-24.35 2.36-48.686 3.536-73.036-5.828-0.287-10.22-7.992-11.779-21.203-6.352 1.959-11.387 7.045-16.49 2.351-7.168-7.581-2.661-22.040-3.435-25.184-0.051-0.205-5.869-0.805-4.807-5.445 1.053-4.641 6.209-10.365 9.345-14.294-3.732-8.538-42.375-10.994-32.898-64.62 9.919-56.186 69.829-109.781 100.129-149.59 1.959-6.279 3.927-12.562 5.887-18.842 13.18-30.164 33.786-66.799 68.325-77.738 53.711-17.027 356.532 59.289 444.076 75.388 74.964 14.891 150.364 24.213 222.627 37.695 42.727 7.973 87.536 6.125 115.434 28.269 24.897 19.78 27.804 65.612 19.999 105.998zM377.739 678.886c-39.614 53.183-10.438 199.866 74.202 232.054-6.279-5.887-32.661-21.945-49.305-80.864-11.417-40.457-1.547-114.422 2.187-151.188h-27.083zM555.598 726.005c-3.126-12.366-12.686-18.627-14.13-34.156-36.912-4.32-72.284-8.188-109.194-12.509-10.406 51.484-22.409 137.925 26.743 199.793 9.755 12.271 34.321 33.144 62.434 24.742 35.158-10.521 47.347-125.664 34.146-177.868zM592.113 696.552c4.599 25.081-10.912 24.988-8.239 36.519 5.941 53.070-5.764 121.909-11.779 149.59 36.17-26.278 66.447-99.211 76.562-180.219l-56.546-5.887z" />
<glyph unicode="&#xe91b;" glyph-name="pets" d="M644.176 902.665c-9.088-1.072-16.256-8.224-17.328-17.28l-37.152-298.752h-414.176l-61.904 61.104c-17.072 17.024-45.68 25.808-70.576 11.104-0.384-0.224-0.848 0.24-1.232 0v-0.624c-34.448-19.808-41.264-67.632-13.008-93.824l0.624-0.624 62.528-60.496v-448.144c0-33.776 20.704-65.104 53.248-75.92 0.208 0 0.416 0 0.624 0 53.024-15.104 104.624 23.376 104.624 74.080v110.496l87.904-148.144c0.208-0.208 0.416-0.416 0.624-0.624 17.68-27.696 50.352-46.368 84.192-38.272 0.192 0.048 0.432-0.048 0.624 0 53.28 13.040 78.32 73.296 52 117.904l-104 175.92h255.072v-215.424c0-33.776 20.704-65.104 53.248-75.92 0.208 0 0.416 0 0.624 0 53.024-15.104 104.624 23.376 104.624 74.080v232.704l38.384 95.68c0.88 2.368 1.312 4.88 1.232 7.408v76.544c0.32 2.048 0.32 4.128 0 6.176v95.056h99.056c7.776 0.064 14.8 4.64 17.952 11.728l59.44 138.272c4.576 9.92 0.208 21.648-9.728 26.192-0.256 0.128-0.528 0.24-0.8 0.336l-198.112 79.008c-2.368 0.88-4.896 1.296-7.424 1.232h-50.768l-73.664 73.456c-4.416 4.368-10.608 6.432-16.752 5.568zM661.52 839.705l50.144-50c3.808-3.68 8.944-5.68 14.24-5.552h55.104l176.448-70.368-46.432-107.408h-105.872c-10.944 0-19.808-8.848-19.808-19.744v-86.416l-156.624 78.4 32.8 261.088zM795.248 744.649c-16.416 0-29.712-13.264-29.712-29.632s13.312-29.632 29.712-29.632 29.712 13.264 29.712 29.632-13.312 29.632-29.712 29.632zM68.432 626.745c5.856 0.688 12.512-1.968 17.328-6.784l67.488-67.28c3.808-3.68 8.944-5.68 14.24-5.552h434.608l183.248-91.36v-62.352l-38.384-95.68c-0.88-2.368-1.312-4.88-1.232-7.408v-237.024c0-24.176-23.392-44.496-53.248-36.416-0.16 0.048-0.464-0.048-0.624 0-14.768 5.168-25.376 20.88-25.376 38.272v235.184c0 10.912-8.864 19.744-19.808 19.76h-416.016c-10.944 0-19.808-8.848-19.808-19.76v-49.376c-0.544-2.64-0.544-5.376 0-8.032v-179.632c0-24.176-23.392-44.496-53.248-36.416-0.16 0.048-0.464-0.048-0.624 0-14.768 5.168-25.376 20.88-25.376 38.272v456.16c-0.048 5.376-2.272 10.496-6.192 14.192l-69.344 67.28c-0.208 0.208-0.416 0.416-0.624 0.624-10.16 9.12-9.216 22.592 6.192 30.864 0.416 0.192 0.832 0.4 1.232 0.624 1.632 1.008 3.616 1.616 5.568 1.84zM250.448 270.585h75.536l115.152-195.68c13.216-22.4 2.912-52.864-26.624-59.872-0.208 0-0.416 0-0.624 0-13.472-3.36-31.536 5.408-41.472 20.992l-121.968 206.784v27.776z" />
<glyph unicode="&#xe91c;" glyph-name="symbol-eur" d="M512 950.857c-282.752 0-512-229.248-512-512s229.248-512 512-512 512 229.248 512 512-229.248 512-512 512zM573.44 552.425l-16.512-78.88h-154.752c-0.928-12.096-1.152-25.376-1.152-38.624 0-13.952 0.224-27.008 1.152-39.328h144.992l-16.512-78.656h-110.784c4.192-10.464 9.088-19.552 14.656-27.936 22.56-32.352 51.2-48.416 86.112-48.416 35.616 0 62.592 13.952 80.992 41.664 10.464 14.656 19.072 37.248 25.824 66.784h100.544c-8.608-62.848-31.2-113.792-67.488-153.6-36.064-39.328-82.4-59.104-138.944-59.104-69.6 0-124.736 26.528-164.768 80.064-20.704 27.936-36.32 61.44-45.856 100.544h-125.92l16.512 78.656h97.28c-1.152 13.024-1.856 26.752-1.856 41.184 0 12.576 0.48 24.672 1.152 36.768h-113.12l16.512 78.88h107.52c11.168 46.784 29.568 86.112 56.32 117.76 39.328 47.232 89.6 71.2 150.816 71.2 81.696 0 141.28-31.872 179.2-95.872 20.96-35.616 32.352-71.456 33.984-107.52h-101.92c-6.272 27.68-14.656 48.416-25.12 62.592-18.624 25.12-45.856 37.696-82.144 37.696-36.768 0-66.080-17.92-87.264-53.28-6.048-9.76-10.72-20.704-15.136-32.576h155.68z" />
<glyph unicode="&#xe91d;" glyph-name="share" d="M603.52 833.209c-11.872-1.488-20.752-11.584-20.672-23.504v-165.984c-271.904-8.224-418.448-151.52-490.816-293.776-73.36-144.192-75.952-284.88-76.016-289.376 0-0.032 0-1.472 0-1.472v-1.472c-0.4-12.976 9.84-23.824 22.88-24.24 13.040-0.4 23.952 9.792 24.352 22.768 0 0 0 1.44 0 1.472 0.144 2.176 5.424 73.392 73.072 149.088 66.4 74.304 196.048 149.184 446.528 154.24v-162.32c0-12.976 10.56-23.504 23.616-23.52 5.376 0 10.576 1.808 14.768 5.152l377.888 305.536c10.192 8.112 11.856 22.896 3.712 33.040-1.088 1.36-2.336 2.592-3.712 3.68l-377.888 305.536c-4.96 4.048-11.36 5.904-17.712 5.152zM630.096 760.505l316.64-256.32-316.64-256.32v138.816c0 12.976-10.576 23.504-23.616 23.504-277.568 0-427.248-84.944-505.584-172.592-2.96-3.312-4.624-6.224-7.376-9.552 9.952 32.32 23.056 66.864 40.592 101.36 68.944 135.52 200.464 268.816 472.368 268.816 13.040 0 23.616 10.528 23.616 23.504v138.784z" />
<glyph unicode="&#xe91e;" glyph-name="sale-eur" d="M801.322 645.516c-45.589 0-82.663 37.074-82.663 82.663s37.074 82.663 82.663 82.663 82.663-37.074 82.663-82.663-37.074-82.663-82.663-82.663zM801.322 769.511c-22.794 0-41.332-18.538-41.332-41.332s18.538-41.332 41.332-41.332 41.332 18.538 41.332 41.332-18.538 41.332-41.332 41.332zM455.479-36.438c-15.955 0-30.979 6.22-42.241 17.504l-359.049 359.028c-11.283 11.242-17.504 26.266-17.504 42.221s6.22 30.979 17.525 42.262l469.693 469.693c20.149 20.129 48.999 19.942 77.166 19.881l6.468-0.020 307.446 0.042c39.885 0 72.331-32.446 72.331-72.331l-0.042-307.446 0.020-6.675c0.124-27.96 0.248-56.872-19.881-76.98l-469.693-469.693c-11.283-11.283-26.288-17.483-42.241-17.483zM594.602 872.84c-18.063 0-34.347-0.682-41.476-7.791l-469.714-469.693c-3.492-3.492-5.393-8.101-5.393-13.040 0-4.898 1.901-9.507 5.374-12.978l359.070-359.070c6.923-6.923 19.054-6.944 26.039 0l469.693 469.714c7.936 7.936 7.853 27.176 7.77 47.573l-0.020 6.841 0.042 307.446c0 17.090-13.908 30.998-30.998 30.998l-314.080-0.020c-2.128 0.020-4.216 0.020-6.303 0.020zM656.578 439.373c-0.227 31.495-8.617 55.529-25.15 72.041-16.988 16.988-38.293 23.766-63.878 20.377-20.398-2.708-41.91-11.552-64.561-26.514l96.138-96.138-29.882-11.552-89.36 89.36c-2.047-1.592-3.947-3.307-5.745-5.125-1.818-1.818-3.514-3.514-5.105-5.084-1.343-1.364-2.604-2.604-3.74-3.761-1.137-1.137-2.169-2.335-3.059-3.72l84.606-84.606-29.552-11.903-74.087 74.087c-41.229-56.191-44.060-102.048-8.494-137.614 10.849-10.849 22.65-18.373 35.339-22.423 9.3-2.976 23.105-4.733 41.456-5.435l-35.69-35.69c-24.902 5.435-47.222 18-66.937 37.695-55.488 55.508-55.033 120.978 1.364 196.408l-26.163 26.163 29.882 11.573 15.644-15.644c0.889 1.364 1.922 2.604 3.038 3.74s2.273 2.273 3.41 3.41c2.025 2.025 3.947 3.947 5.765 5.765s3.617 3.389 5.456 4.752l-24.819 24.779 29.573 11.903 18.351-18.351c33.292 22.423 65.552 34.079 96.84 34.988 35.359 1.343 66.379-11.325 93.121-38.046 20.604-20.624 33.975-48.255 40.072-82.932l-43.832-12.502z" />
<glyph unicode="&#xe91f;" glyph-name="aircon" d="M519.84 935.929c-211.792 0-384-176.064-384-392.672 0-187.856 129.904-345.184 302.528-383.632-1.856-24.336-9.12-38.832-18.944-49.088-11.376-11.872-28.256-19.088-47.376-25.184-19.12-6.112-39.792-10.576-58.736-20.672s-36-31.216-36-58.768v-41.328c0-11.408 9.056-20.672 20.208-20.672h444.624c11.168 0 20.208 9.248 20.208 20.672v41.328c0 27.552-17.056 48.688-36 58.768s-39.632 14.56-58.736 20.672-36 13.312-47.376 25.184c-9.824 10.256-17.104 24.752-18.944 49.088 172.592 38.432 302.528 195.76 302.528 383.632 0.016 216.656-172.32 392.672-383.984 392.672zM519.84 894.601c189.792 0 343.584-157.040 343.584-351.328 0-194.192-153.712-351.296-343.584-351.328-189.952 0.032-343.584 157.152-343.584 351.328 0.016 194.256 153.648 351.328 343.584 351.328zM439.008 832.601c-52.096 0-101.056-40.992-101.056-101.392 0-23.632 6.88-43.664 17.68-58.128s24.464-23.824 37.264-32.288c23.072-15.28 43.824-26.912 58.112-54.896-5.088-8.496-8.304-17.648-10.112-27.776-20.704-6-43.072-15.168-64.416-27.776-26.272-15.504-54.704-40.576-70.736-75.568-16.032-34.976-17.264-80.496 9.472-127.872 26.064-46.128 85.264-68.96 136.416-38.752 20 11.808 33.568 27.776 40.416 44.56s8.064 33.52 8.848 49.088c1.392 27.904 0.784 52.304 17.056 78.784 0.624-0.016 1.264 0 1.888 0 9.488 0 18.672 2.048 27.152 5.168 15.424-15.168 34.48-30.176 55.584-42.624 26.272-15.504 61.52-28.48 99.152-25.184s76.832 24.96 103.584 72.336c26.032 46.128 15.808 109.936-35.376 140.144-20 11.808-40.464 15.888-58.112 13.568-17.632-2.32-31.904-9.712-45.472-16.784-24.384-12.736-45.056-25.744-75.792-24.544-4.896 9.152-11.168 17.264-18.944 23.888 5.264 21.2 8.848 45.408 8.848 70.4 0 31.024-6.8 68.416-28.416 100.112-21.616 31.68-59.552 55.536-113.040 55.536zM439.008 791.273c42.608 0 65.216-16.128 80.208-38.112 14.992-21.968 20.848-51.552 20.848-76.208 0-18.064-2.336-36.832-5.68-52.96-4.832 0.912-9.44 1.936-14.528 1.936-14.288 0-27.472-4.24-39.152-10.976-19.648 31.344-46.64 47.68-66.32 60.704-12.032 7.968-20.784 14.912-26.528 22.608s-9.472 16.592-9.472 32.944c-0.016 38.368 28.272 60.064 60.624 60.064zM519.84 584.601c5.472 0 10.4-1.264 15.152-3.232 2.544-2.224 5.568-3.792 8.848-4.528 4.528-3.328 7.888-8.032 10.736-12.912 0.032-4.992 1.824-9.808 5.056-13.568 0.288-2.272 0.624-4.72 0.624-7.104 0-14.416-6.944-26.848-17.68-34.224-1.824-0.816-3.536-1.904-5.056-3.232-5.312-2.592-11.344-3.872-17.68-3.872-2.384 0-4.672 0.256-6.944 0.64-0.416 0.016-0.848 0.016-1.264 0-0.4 0.080-0.864-0.096-1.264 0-0.624 0.24-1.248 0.464-1.888 0.64-14.368 4.192-25.44 16.48-28.416 31.648 1.792 4.784 1.792 10.064 0 14.848 0.784 5.152 2.624 9.888 5.056 14.208 4.128 2.48 7.264 6.368 8.848 10.976 6.976 5.984 15.92 9.712 25.872 9.712zM724.48 583.305c7.136-0.096 14.896-2.272 25.264-8.4 32.496-19.184 37.008-55.312 20.848-83.952-21.296-37.728-46.528-50.032-72.624-52.32-26.112-2.288-54.272 7.696-75.152 20.016-15.392 9.088-29.728 20.592-41.68 31.648 11.744 14.128 19.28 31.888 19.584 51.664 36.080 1.776 63.216 17.552 84 28.416 12.752 6.656 23.456 11.040 32.848 12.272 2.304 0.32 4.528 0.688 6.912 0.656zM444.048 515.497c6.368-18.112 18.816-32.816 34.736-42.624-16.832-33.152-17.104-65.088-18.32-89.12-0.736-14.64-2.032-25.936-5.68-34.88s-9.536-16.368-23.376-24.544c-32.512-19.184-64.656-5.392-80.848 23.248-21.296 37.728-19.328 65.504-8.208 89.776 11.12 24.256 33.44 44.512 54.32 56.832 15.216 8.976 32.176 16.176 47.376 21.312zM478.16 153.177c13.744-1.536 27.552-2.576 41.68-2.576s27.952 1.056 41.68 2.576c3.040-31.216 13.68-54.976 29.68-71.68 18.944-19.776 42.48-29.36 63.792-36.16 21.312-6.816 41.056-11.376 52.416-17.44 11.376-6.064 14.528-8.176 14.528-21.952v-20.672h-404.208v20.672c0 13.776 3.152 15.904 14.528 21.952 11.376 6.064 31.12 10.624 52.416 17.44 21.312 6.816 44.848 16.4 63.792 36.16 16.016 16.704 26.656 40.48 29.696 71.68z" />
<glyph unicode="&#xe920;" glyph-name="sports" d="M733.856 934.857c-58.848 0-106.976-49.168-106.976-109.216 0-60.080 48.144-109.216 106.976-109.216 58.912 0 106.976 49.152 106.976 109.216 0 60.032-48.064 109.216-106.976 109.216zM733.856 895.145c37.904 0 68.080-30.928 68.080-69.504 0-38.624-30.16-69.504-68.080-69.504-37.792 0-68.080 30.88-68.080 69.504 0 38.56 30.288 69.504 68.080 69.504zM447.552 797.097c-4.288 0.144-8.608-0.432-12.768-1.248-8.32-1.632-16.512-4.976-23.712-9.936-0.416-0.192-0.816-0.4-1.216-0.624l-125.824-99.904c-0.416-0.192-0.816-0.4-1.216-0.624-11.072-9.792-22.464-21.024-30.4-35.376s-10.56-35.92 0.608-52.752c5.536-8.4 13.712-12.496 21.28-14.272s14.992-1.568 21.888-0.624c13.52 1.856 25.968 6.016 36.464 12.416l0.608 0.624 125.824 67.648 52.272-11.168-102.112-153.904c-0.224-0.4-0.416-0.816-0.608-1.248-14.112-24.928-25.52-49.024-24.928-75.712 0.016-0.624-0.032-1.232 0-1.856l-74.16-109.216c-12.976-0.912-125.248-8.528-169.584-11.168-20.272-1.216-38.032-5.296-52.272-14.896s-23.712-27.184-23.712-45.296c0-17.152 9.168-34.896 24.928-44.688 15.744-9.776 35.696-14.496 63.216-16.752 44.816-3.664 194.512-13.024 194.512-13.024 0.4-0.016 0.816-0.016 1.216 0h0.608c24.304 0 48.352 13.568 63.824 36.608l71.728 104.256 97.248-65.152-63.824-161.344c-13.792-33.776-20.24-60.208-20.064-81.92 0.176-21.696 9.184-42.048 26.752-49.648 14.64-6.336 35.344-4.288 52.88 8.688s34.576 35.456 54.096 71.984l106.368 207.264c0.224 0.4 0.416 0.816 0.608 1.248 14.192 32.512 3.2 71.072-25.536 91.216l-119.136 83.152 67.472 110.464 22.496-53.984c0-0.208 0-0.416 0-0.624 8.848-20.304 26.352-38.48 51.664-41.584 0.8-0.256 1.616-0.464 2.432-0.624 0 0 107.024 2.608 137.984 4.336 16.256 0.896 33.392 2.544 49.232 8.064 7.92 2.768 15.712 6.64 22.496 13.024s12.384 16.544 12.768 27.312c0.8 21.728-13.216 40.288-28.576 47.168-15.152 6.784-30.576 7.68-44.368 8.688h-0.608l-96.64 8.064-59.568 138.384c-0.768 1.792-1.792 3.472-3.040 4.96-0.368 0.64-0.784 1.264-1.216 1.856-2.224 3.792-5.504 7.648-9.728 10.544l-74.768 51.504c-0.528 0.464-1.28 0.784-1.824 1.248-7.168 5.888-15.44 10.784-25.536 13.024l-153.792 33.504c-4.176 0.944-8.448 1.776-12.736 1.92zM442.080 756.761c3.088 0.64 6.512 0.608 9.728 0h0.608l153.184-34.128c3.92-0.88 7.072-2.736 10.336-5.584 0.592-0.448 1.2-0.864 1.824-1.248l74.768-50.88c0.304-1.328 0.32-4.368 0-8.064-0.624-7.392-4.256-17.056-4.864-18 0-0.208 0-0.416 0-0.624l-136.768-223.392c-5.392-8.976-2.992-20.672 5.472-26.688l134.336-94.32c13.52-9.488 18.208-26.96 11.552-42.192l-105.76-206.016c-18-33.696-32.912-51.2-42.544-58.336-9.632-7.12-11.184-5.824-14.592-4.336-0.496 0.208-2.928 0.704-3.040 13.648s4.448 35.616 17.024 66.4l69.904 176.24c3.248 8.64 0.224 18.416-7.296 23.584l-165.328 111.696c-21.696 18.864-27.648 32.368-27.968 46.544-0.304 13.84 6.544 31.984 18.848 53.984l0.608 0.624c0.128 0.224-0.128 0.4 0 0.624l117.312 176.864c5.936 9.136 3.504 21.456-5.456 27.536-2.032 1.376-4.32 2.352-6.704 2.88l-87.536 19.856c-4.336 0.88-8.848 0.224-12.768-1.856l-132.512-71.984c-0.416-0.192-0.816-0.4-1.216-0.624-5.088-3.152-15.184-7.056-22.496-8.064-2.736-0.384-4.032-0.144-5.472 0-1.344 2.416-1.936 3.6 1.216 9.312 3.68 6.656 11.92 15.84 21.28 24.208 0.256 0.224 0.352 0.4 0.608 0.624l124.608 98.048h0.608c2.656 1.68 5.408 3.008 8.496 3.664zM716.832 610.921l41.936-97.424c2.912-6.736 9.232-11.264 16.416-11.792l108.192-9.312c0.208 0 0.4 0 0.608 0 13.856-1.024 26.592-3.072 32.208-5.584 5.328-2.384 5.152-1.040 4.864-8.688-0.896-0.832-3.84-2.72-8.512-4.336-9.36-3.264-24.896-5.392-39.504-6.208-27.168-1.52-128.48-4.24-133.12-4.336-5.488 0.672-16.912 10-20.672 18.624l-32.816 80.048 30.4 49.008zM400.144 372.633c6.624-9.856 15.056-19.44 25.536-28.544 0.592-0.448 1.2-0.864 1.824-1.248l24.32-16.128-71.12-104.256c-8.544-12.896-21.040-19.040-31.616-19.232h-1.216c-1.856 0.112-149.824 9.52-192.688 13.024-24.64 2.016-39.744 6.544-46.192 10.544-6.464 4.016-6.080 4.368-6.080 11.168 0 5.84 0.992 7.952 6.688 11.792 5.68 3.84 16.912 7.744 32.832 8.688 47.696 2.848 179.312 12.416 179.312 12.416 6.016 0.144 11.632 3.12 15.2 8.064l63.2 93.712z" />
<glyph unicode="&#xe921;" glyph-name="size" d="M725.168 934.825c-4.832-0.688-9.28-3.024-12.576-6.624l-690.464-690.32c-8.16-8.256-8.16-21.536 0-29.776l258.848-258.784c8.128-8.4 21.536-8.624 29.952-0.496 0.176 0.16 0.336 0.336 0.496 0.496l690.464 690.32c8.16 8.256 8.16 21.536 0 29.776l-258.848 258.784c-0.976 1.216-2.080 2.336-3.312 3.312-3.744 2.4-8.144 3.552-12.576 3.312-0.672 0.032-1.328 0.032-1.984 0zM727.808 883.193l229.056-229.008-660.672-659.872-229.056 228.336 60.24 60.224 51.632-51.632 30.448 30.448-51.632 51.632 54.288 54.272 115.184-115.168 30.448 30.448-115.184 115.168 54.288 54.272 51.632-51.632 30.448 30.448-51.632 51.632 54.288 54.272 115.184-115.168 30.448 30.448-115.184 115.168 54.288 54.272 51.632-51.632 30.448 30.448-51.632 51.632 54.288 54.272 115.184-115.168 30.448 30.448-115.184 115.168 54.288 54.272 51.632-51.632 30.448 30.448-51.632 51.632 61.568 61.552z" />
<glyph unicode="&#xe922;" glyph-name="sea-view" d="M151.36 799.241c-6.272-1.184-11.568-5.232-14.256-10.896 0 0-35.488-66.56-101.008-66.56-10.944 0.144-19.952-8.4-20.112-19.088s8.592-19.488 19.552-19.632c0.192 0 0.368 0 0.56 0 67.632 0 101.424 39.504 118.976 64.736 17.472-25.328 50.96-64.736 118.976-64.736s101.504 39.408 118.976 64.736c17.456-25.328 50.928-64.736 118.976-64.736s101.504 39.408 118.976 64.736c17.456-25.328 50.912-64.736 118.976-64.736s101.52 39.408 118.976 64.736c17.52-25.248 51.248-64.736 118.976-64.736 10.944-0.144 19.952 8.4 20.112 19.088s-8.592 19.488-19.552 19.632c-0.192 0-0.368 0-0.56 0-65.696 0-101.008 66.56-101.008 66.56-4.624 9.696-16.432 13.872-26.352 9.36-4.224-1.92-7.616-5.232-9.584-9.36 0 0-34.352-66.56-101.008-66.56s-101.008 66.56-101.008 66.56c-4.624 9.696-16.432 13.872-26.352 9.36-4.224-1.92-7.616-5.232-9.584-9.36 0 0-34.4-66.56-101.008-66.56s-101.008 66.56-101.008 66.56c-4.64 9.696-16.432 13.872-26.352 9.36-4.224-1.92-7.616-5.232-9.584-9.36 0 0-34.448-66.56-101.008-66.56s-101.008 66.56-101.008 66.56c-3.6 7.344-11.536 11.696-19.824 10.896-0.608 0.032-1.232 0.032-1.856 0zM151.36 489.465c-6.272-1.184-11.568-5.232-14.256-10.896 0 0-35.488-66.56-101.008-66.56-10.944 0.144-19.952-8.4-20.112-19.088s8.592-19.488 19.552-19.632c0.192 0 0.368 0 0.56 0 67.632 0 101.424 39.504 118.976 64.736 17.472-25.328 50.96-64.736 118.976-64.736s101.504 39.408 118.976 64.736c17.456-25.328 50.928-64.736 118.976-64.736s101.504 39.408 118.976 64.736c17.456-25.328 50.912-64.736 118.976-64.736s101.52 39.408 118.976 64.736c17.52-25.248 51.248-64.736 118.976-64.736 10.944-0.144 19.952 8.4 20.112 19.088s-8.592 19.488-19.552 19.632c-0.192 0-0.368 0-0.56 0-65.696 0-101.008 66.56-101.008 66.56-4.624 9.696-16.432 13.872-26.352 9.36-4.224-1.92-7.616-5.232-9.584-9.36 0 0-34.352-66.56-101.008-66.56s-101.008 66.56-101.008 66.56c-4.624 9.696-16.432 13.872-26.352 9.36-4.224-1.92-7.616-5.232-9.584-9.36 0 0-34.4-66.56-101.008-66.56s-101.008 66.56-101.008 66.56c-4.64 9.696-16.432 13.872-26.352 9.36-4.224-1.92-7.616-5.232-9.584-9.36 0 0-34.448-66.56-101.008-66.56s-101.008 66.56-101.008 66.56c-3.6 7.344-11.536 11.696-19.824 10.896-0.608 0.032-1.232 0.032-1.856 0zM151.36 179.705c-6.272-1.184-11.568-5.232-14.256-10.896 0 0-35.488-66.56-101.008-66.56-10.944 0.144-19.952-8.4-20.112-19.088s8.592-19.488 19.552-19.632c0.192 0 0.368 0 0.56 0 67.632 0 101.424 39.504 118.976 64.736 17.472-25.328 50.96-64.736 118.976-64.736s101.504 39.408 118.976 64.736c17.456-25.328 50.928-64.736 118.976-64.736s101.504 39.408 118.976 64.736c17.456-25.328 50.912-64.736 118.976-64.736s101.52 39.408 118.976 64.736c17.52-25.248 51.248-64.736 118.976-64.736 10.944-0.144 19.952 8.4 20.112 19.088s-8.592 19.488-19.552 19.632c-0.192 0-0.368 0-0.56 0-65.696 0-101.008 66.56-101.008 66.56-4.624 9.696-16.432 13.872-26.352 9.36-4.224-1.92-7.616-5.232-9.584-9.36 0 0-34.352-66.56-101.008-66.56s-101.008 66.56-101.008 66.56c-4.624 9.696-16.432 13.872-26.352 9.36-4.224-1.92-7.616-5.232-9.584-9.36 0 0-34.4-66.56-101.008-66.56s-101.008 66.56-101.008 66.56c-4.64 9.696-16.432 13.872-26.352 9.36-4.224-1.92-7.616-5.232-9.584-9.36 0 0-34.448-66.56-101.008-66.56s-101.008 66.56-101.008 66.56c-3.6 7.344-11.536 11.696-19.824 10.896-0.608 0.016-1.232 0.016-1.856 0z" />
<glyph unicode="&#xe923;" glyph-name="car-aircon" d="M943.996 225.795l-110.568 63.889 93.346 55.592c15.007 7.23 19.651 27.381 11.117 42.197-8.688 15.172-27.44 18.372-41.674 10.076l-124.457-72.897-197.798 115.095 197.796 113.909 124.457-72.779c3.887-2.844 8.888-4.504 14.45-4.504 10.548 0 19.996 4.978 27.225 14.461 8.334 15.054 3.89 34.967-11.117 42.197l-93.346 55.592 110.568 63.888c14.412 8.297 19.368 26.907 11.117 42.198-7.881 14.698-27.38 19.795-42.232 11.142l-111.125-64.481-1.66 111.184c-0.26 17.187-13.335 31.056-30.558 31.056-17.219 0-30.686-14.935-30.556-31.056l1.103-146.742-196.682-113.909v231.138l123.902 70.645c14.464 8.179 20.767 27.263 12.221 42.197-8.678 15.172-26.491 19.678-41.674 11.142l-94.448-53.34v126.12c0 17.187-13.892 31.055-31.115 31.055s-30.558-13.868-30.558-31.055v-127.303l-97.79 54.524c-15.232 8.416-32.573 3.675-41.119-11.142-8.676-15.172-3.283-33.782 11.664-42.197l127.245-71.713v-228.886l-201.136 116.043 1.114 143.424c1.671 16.12-12.778 31.056-30 31.056h-1.114c-16.109 0-30.379-13.869-30.558-31.056l-1.114-107.864-108.338 62.229c-15.125 8.771-33.794 3.556-41.676-11.023-8.251-15.409-3.983-33.545 11.118-42.316l109.452-63.296-95.571-57.252c-14.997-7.231-19.679-27.381-10.551-42.198 5.879-9.602 14.438-14.461 26.112-14.461 6.104 0 11.189 1.541 16.108 4.504l125.016 73.846 200.581-114.977-200.581-116.161-125.016 73.963c-15.007 8.771-34.351 4.623-42.221-10.076-8.251-15.29-3.77-33.664 10.549-42.197l95.573-56.658-109.454-63.889c-15.065-8.771-19.95-27.263-11.118-42.316 6.177-10.431 14.451-15.529 26.115-15.529 2.774 0 8.333 1.66 15.564 4.504l108.338 62.229 1.114-107.864c0.178-17.187 14.448-30.463 30.558-30.463h1.114c17.222 0 30.131 14.343 30 31.648l-1.114 143.306 201.136 114.975v-227.7l-127.245-71.711c-15.184-8.534-20.495-27.144-11.664-42.198 6.176-10.549 14.45-15.646 26.112-15.646 5.56 0 10.68 0.948 15.007 3.438l97.79 55.475v-129.438c0-17.187 13.335-30.581 30.558-30.581s31.115 13.394 31.115 30.581v127.305l94.448-53.341c4.324-2.489 9.445-3.438 14.45-3.438 12.218 0 21.228 4.978 27.225 15.646 8.439 14.935 2.988 33.665-12.221 42.198l-123.902 69.459v231.138l196.682-113.909-1.103-145.558c-0.143-17.306 13.335-31.648 30.558-31.648s30.296 13.275 30.556 30.463l1.66 111.776 111.125-65.074c4.291-2.489 10.003-3.32 16.12-3.32 11.665 0 20.222 4.859 26.111 14.461 9.119 14.817 3.298 33.901-11.114 42.198z" />
<glyph unicode="&#xe924;" glyph-name="symbol-gbp" d="M512 950.857c-282.752 0-512-229.248-512-512s229.248-512 512-512 512 229.248 512 512c0 282.752-229.248 512-512 512zM493.6 438.857h134.752v-69.824h-124.736c-3.488-46.56-30.24-69.824-67.264-93.088h261.824v-139.648h-395.648v134.528c46.56 20 59.808 51.68 66.56 98.208h-66.56v69.824h43.040c-6.752 10.016-10.016 20.256-13.504 30.24-6.752 23.52-13.504 47.008-13.504 70.528 0 111.008 90.752 197.92 201.76 197.92s201.76-89.248 201.76-205.6h-134.528c0 46.56-30.24 71.104-67.264 71.104s-67.264-28.32-67.264-65.344c3.488-36.992 23.52-68.576 40.48-98.848z" />
<glyph unicode="&#xe925;" glyph-name="deposit-eur" d="M512-44.343c-268.631 0-486.4 217.769-486.4 486.4s217.769 486.4 486.4 486.4c268.631 0 486.4-217.769 486.4-486.4-0.273-268.522-217.879-486.127-486.374-486.4zM512 883.657c-243.889 0-441.6-197.711-441.6-441.6s197.711-441.6 441.6-441.6c243.889 0 441.6 197.711 441.6 441.6-0.273 243.779-197.821 441.327-441.574 441.6zM462.88 579.657c-1.051 0.035-2.287 0.056-3.528 0.056-23.335 0-45.003-7.136-62.941-19.345-11.219-8.434-20.836-19.071-28.136-31.256-8.11-12.001-13.732-25.655-16.192-40.38l159.918-0.595-6.4-32h-156.8q0-4.96 0-9.44 0-18.080 0-21.6h150.88l-6.56-32h-139.52c4.004-32.15 21.99-59.425 47.584-75.909 16.88-10.302 36.799-16.253 58.109-16.253 0.249 0 0.497 0.001 0.746 0.002 1.22-0.059 2.695-0.093 4.178-0.093 24.529 0 46.909 9.199 63.878 24.336l-0.095-48.083c-18.448-8.592-40.049-13.605-62.82-13.605-0.415 0-0.829 0.002-1.243 0.005q-105.857 0-143.937 88.16c-5.125 12.208-9.597 26.668-12.689 41.632l-36.111 1.568 6.56 32h24.64q0 9.92 0 21.28 0 4.64 0 9.6h-31.2l6.56 32h27.2c6.863 47.527 35.319 87.23 74.926 109.373 23.532 12.429 50.541 19.498 79.201 19.498 1.728 0 3.45-0.026 5.165-0.077 0.707 0.031 1.835 0.045 2.966 0.045 25.861 0 50.008-7.339 70.472-20.048l-9.689-42.551c-17.182 14.723-39.678 23.684-64.268 23.684-0.3 0-0.599-0.001-0.898-0.004zM723.52 269.097h-42.24v268.96c-11.735-10.806-24.842-20.448-38.941-28.559-13.648-8.428-28.233-15.84-43.474-21.965l-1.905 40.444c23.694 11.050 44.090 24.534 62.189 40.554 14.86 12.669 27.383 28.102 36.756 45.484l27.615 0.842v-345.76z" />
<glyph unicode="&#xe926;" glyph-name="kids-club" d="M231.856 934.665c-4.448-0.48-8.592-2.448-11.776-5.584l-195.28-195.872c-1.12-0.72-2.144-1.552-3.104-2.48-0.432-0.4-0.848-0.816-1.232-1.248-0.448-0.592-0.864-1.216-1.232-1.856-0.752-1.168-1.376-2.416-1.856-3.712-0.688-1.792-1.104-3.664-1.232-5.584-0.16-1.44-0.16-2.896 0-4.336-0.032-0.624-0.032-1.248 0-1.856v-392.384c-0.032-0.624-0.032-1.232 0-1.856v-355.184c0-10.96 8.88-19.84 19.84-19.84h59.52c10.96 0 19.84 8.88 19.84 19.84v337.216h238.048v-39.664h-218.256v-39.68h218.208v-39.664h-218.208v-39.68h218.208v-39.664h-218.208v-39.68h218.208v-39.664h-218.208v-39.68h218.208v-19.84c0-10.96 8.88-19.84 19.84-19.84h59.52c10.96 0 19.84 8.88 19.84 19.84v353.952c0.080 1.024 0.080 2.064 0 3.104v393.632c0.080 1.040 0.080 2.064 0 3.104 0 0.208 0 0.416 0 0.624 0.016 0.416 0.016 0.832 0 1.232 0.016 0.416 0.016 0.832 0 1.248-0.16 0.832-0.368 1.664-0.624 2.48-0.32 1.072-0.736 2.096-1.232 3.104-0.208 0.208-0.416 0.416-0.624 0.624-0.688 1.328-1.52 2.576-2.48 3.712 0 0.208 0 0.416 0 0.624-0.208 0.208-0.416 0.416-0.624 0.624h-0.624c-0.4 0.432-0.816 0.848-1.232 1.232l-196.512 197.12c-4.4 4.336-10.592 6.4-16.736 5.536zM234.336 886.313l150.016-150.016h-300.048l150.032 150.016zM55.792 696.633h357.072v-357.056h-357.072v357.056zM234.336 656.953c-76.288 0-138.864-62.576-138.864-138.848s62.576-138.848 138.864-138.848 138.864 62.576 138.864 138.848-62.576 138.848-138.864 138.848zM234.336 617.289c54.64 0 99.184-44.544 99.184-99.184s-44.544-99.184-99.184-99.184c-54.64 0-99.184 44.544-99.184 99.184s44.528 99.184 99.184 99.184zM472.384 537.945v-39.664c74.192 0 116.416-24.752 148.16-62.608 31.76-37.856 51.504-90.912 70.672-146.288s37.92-112.592 72.528-158.064c34.608-45.472 87.424-77.488 164.896-77.488 21.28 0 39.68-21.648 39.68-45.248v-24.176c-109.456 2.608-184.944 22.32-234.336 51.456-52.816 31.152-80.848 71.52-101.056 114.064s-31.264 86.464-51.456 123.36c-20.192 36.896-54.864 66.32-109.104 66.32v-39.68c41.968 0 57.328-15.2 73.776-45.248s28.64-75.392 50.832-122.112c22.192-46.736 55.856-95.616 116.544-131.408s147.296-58.272 274.624-58.272c10.96 0 19.84 8.88 19.84 19.84v45.872c0 43.84-33.184 84.928-79.344 84.928-67.328 0-104.48 24.144-133.28 61.984s-47.056 91.216-66.336 146.912c-19.28 55.696-40 113.856-78.112 159.312s-95.024 76.208-178.528 76.208zM55.792 299.913h19.84v-317.376h-19.84v317.376zM393.040 299.913h19.84v-317.376h-19.84v317.376z" />
<glyph unicode="&#xe927;" glyph-name="edit-booking" d="M907.636 846.13h-104.727v58.182c0 18.618-16.291 34.909-34.909 34.909s-34.909-16.291-34.909-34.909v-58.182h-186.182v58.182c0 18.618-16.291 34.909-34.909 34.909s-34.909-16.291-34.909-34.909v-58.182h-186.182v58.182c0 18.618-16.291 34.909-34.909 34.909s-34.909-16.291-34.909-34.909v-58.182h-104.727c-65.164 0-116.364-51.2-116.364-116.364v-674.909c0-65.164 51.2-116.364 116.364-116.364h791.273c65.164 0 116.364 51.2 116.364 116.364v674.909c0 65.164-51.2 116.364-116.364 116.364zM954.182 54.857c0-25.6-20.945-46.545-46.545-46.545h-791.273c-25.6 0-46.545 20.945-46.545 46.545v674.909c0 25.6 20.945 46.545 46.545 46.545h104.727v-58.182c0-18.618 16.291-34.909 34.909-34.909s34.909 16.291 34.909 34.909v58.182h186.182v-58.182c0-18.618 16.291-34.909 34.909-34.909s34.909 16.291 34.909 34.909v58.182h186.182v-58.182c0-18.618 16.291-34.909 34.909-34.909s34.909 16.291 34.909 34.909v58.182h104.727c25.6 0 46.545-20.945 46.545-46.545v-674.909zM418.909 569.184l335.127-335.127-128-130.327-337.455 337.455zM656.291 73.475l130.327 130.327c23.273-23.273 23.273-60.509 0-86.109l-44.218-44.218c-25.6-23.273-62.836-23.273-86.109 0v0zM390.982 597.112l-151.273 39.564c-11.636 2.327-20.945-6.982-18.618-18.618l39.564-151.273 130.327 130.327z" />
<glyph unicode="&#xe928;" glyph-name="golf" d="M535.424 934.553c-70.976 0-129.184-58.32-127.216-128.864 0-0.208 0-0.416 0-0.624 0.208-41.728 20.080-79.296 51.376-102.848l-277.68-115.856v-0.624c-46.848-18-71.408-71.92-54.432-119.584v-0.624l9.792-27.264c17.536-48.192 71.808-73.472 119.264-55.76l1.216 0.624 0.608 0.624c14.832 7.504 24.368 25.152 20.176 42.128l-0.608 2.48-1.216 1.856-40.368 78.688c0.224 0.336 0.72 0.752 1.216 1.232l267.888 105.952c-2.848-15.456-2.080-32.032 4.288-47.712l80.736-209.408 7.952-145.6-77.072-172.864c0-0.208 0-0.416 0-0.624-13.792-33.536-0.176-73.632 33.024-90.464 0.192-0.208 0.4-0.416 0.608-0.624 35.152-16.432 76.368 0.848 92.352 35.936l76.448 180.912 65.44-179.056c0.064-0.176-0.064-0.448 0-0.624 11.312-33.392 48.544-50.24 81.344-37.168v-0.624c0.448 0.144 0.784 0.464 1.216 0.624 33.52 12.192 49.488 51.408 36.080 84.88v0.624l-146.784 397.152c-1.584 15.024-4.528 30.192-9.168 45.232l-43.424 137.552 62.384 28.496c0.208 0.208 0.416 0.416 0.608 0.624 7.424 3.76 16.848 9.184 24.464 19.2 7.616 10.032 12.064 25.408 9.168 41.504 0 0.208 0 0.416 0 0.624-19.984 103.248-99.328 185.056-220.192 219.952-15.136 6.592-32.096 9.92-49.488 9.92zM366.624 917.209c-1.040-0.128-2.064-0.336-3.056-0.624-2.416-0.592-4.704-1.648-6.72-3.104 0 0-27.984-17.536-54.432-56.384s-52.592-100.224-52.592-186.496c-0.16-10.944 8.48-19.952 19.296-20.112s19.696 8.592 19.856 19.552c0 0.192 0 0.368 0 0.56 0 78.304 22.784 130.544 45.264 163.568s43.424 45.856 43.424 45.856c9.488 5.232 13.008 17.28 7.84 26.896-3.76 6.928-11.152 10.96-18.88 10.288zM266.304 916.585c-3.664-0.672-7.056-2.4-9.792-4.96 0 0-123.264-109.392-143.728-291.824-1.344-10.944 6.32-20.944 17.12-22.304s20.672 6.4 22.016 17.344c18.672 166.512 130.272 267.040 130.272 267.040 8.256 7.072 9.296 19.584 2.32 27.936-4.448 5.376-11.376 7.952-18.208 6.768zM535.424 894.905c3.712 0 7.408-0.768 11.008-1.232 2.448-1.392 5.152-2.24 7.952-2.48 5.056-1.184 9.792-2.384 14.672-3.712 31.504-13.728 54.432-45.44 54.432-81.776 0-50.8-39.792-89.216-88.080-89.216-50.144 0-88.080 40.32-88.080 89.216v0.624c-1.568 48.096 37.952 88.576 88.096 88.576zM654.080 851.545c61.696-36.944 100.080-90.784 112.544-154.272 0.032-0.192-0.032-0.432 0-0.624 0.752-4.944 0.208-7.216-1.84-9.92-2.032-2.688-6.352-5.28-10.4-7.44-0.272-0.144-0.336-0.48-0.608-0.624l-77.68-35.312c-9.008-4.224-13.488-14.608-10.4-24.16l48.928-154.272c0.064-0.208-0.064-0.416 0-0.624 3.344-10.944 5.376-21.904 6.72-32.832-0.336-3.152 0.080-6.336 1.216-9.296 1.104-14.512 0.592-29.232-1.216-43.984h0.608l-26.912-179.056-83.792-198.256c-7.52-15.936-24.336-22.944-39.76-16.112-13.568 6.88-19.456 25.664-14.064 39.648 0.080 0.192-0.080 0.432 0 0.624l78.288 175.952c1.248 2.72 1.872 5.68 1.84 8.672l-7.952 154.896c-0.080 2.112-0.496 4.208-1.216 6.192l-82.576 211.888c0 0.208 0 0.416 0 0.624-9.744 23.984 0.992 48.832 23.856 57.008l27.52 9.92c1.072 0.528 2.096 1.152 3.056 1.856 0.208 0.208 0.416 0.416 0.608 0.624 1.424 0.72 0.656 0.208 1.216 0.624l120.496 46.464c8.624 3.392 13.728 12.432 12.24 21.68-2.752 16.736-11.424 35.888-25.072 54.528-11.76 16.048-27.584 31.28-47.712 41.504-1.088 11.856-3.808 23.312-7.936 34.080zM658.368 772.857c7.504-5.968 14.592-12.816 20.176-20.448 6.368-8.688 7.984-15.344 11.008-22.928l-91.136-35.936c-0.4 0.016-0.816 0.016-1.216 0 29.488 16.768 52.224 45.088 61.168 79.312zM507.904 679.913c8.912-2 17.968-3.104 27.52-3.104 7.984 0 15.632 0.416 23.248 1.856l-338.832-132.592-1.84-1.232c-8.352-5.072-15.168-12.080-18.96-21.68-3.728-9.424-3.408-21.872 2.448-32.224v-0.624l36.704-70.624c-25.504-6.624-54 6.608-63.616 31.6l-0.608 0.624-9.168 27.264h-0.608c-9.92 27.264 5.008 60.016 31.808 70.016h0.608l311.296 130.72zM754.992 334.809l116.208-315.36c0.192-0.208 0.4-0.416 0.608-0.624 5.568-13.536-1.104-28.672-13.456-32.832-0.624-0.176-1.232-0.384-1.84-0.624-13.728-5.792-26.16 0.192-30.576 13.632 0 0.208 0 0.416 0 0.624l-86.24 236.064 15.296 99.12z" />
<glyph unicode="&#xe929;" glyph-name="protection" d="M517.664 937.241c-48.832 0-90.048-27.024-151.232-58.496s-143.216-69.584-271.344-97.712l-15.552-3.728v-15.552c0-305.104 106.96-508.976 214.080-635.408s215.952-176.736 215.952-176.736l8.72-4.352 8.72 4.352c0 0 428.784 221.536 428.784 812.144v15.552l-15.552 3.728c-128.128 28.128-210.16 66.24-271.344 97.712s-102.4 58.496-151.232 58.496zM517.664 897.417c32.784 0 70.688-22 133.184-54.144 59.328-30.528 142.848-67.936 263.872-96.464-7.28-540.064-372.064-742.624-397.664-756.128-12.336 5.984-98.544 49.056-193.552 161.184-100.112 118.128-199.232 308.208-202.88 594.944 121.024 28.528 204.544 65.936 263.872 96.464 62.48 32.144 100.384 54.144 133.168 54.144z" />
</font>
</defs>
</svg>
