<?xml version="1.0" standalone="no"?>
<!DOCTYPE svg PUBLIC "-//W3C//DTD SVG 1.1//EN" "http://www.w3.org/Graphics/SVG/1.1/DTD/svg11.dtd" >
<svg xmlns="http://www.w3.org/2000/svg" xmlns:xlink="http://www.w3.org/1999/xlink" version="1.1">
<metadata>
Created by FontForge 20170731 at Sat Sep 11 12:45:57 2021
 By Aleksey,,,
Copyright (c) 2015 by Pangram Pangram. All rights reserved.
</metadata>
<defs>
<font id="PPPangramSans-Bold" horiz-adv-x="0" >
  <font-face 
    font-family="PP Pangram Sans Narrow"
    font-weight="400"
    font-stretch="normal"
    units-per-em="2048"
    panose-1="0 0 5 0 0 0 0 0 0 0"
    ascent="1638"
    descent="-410"
    x-height="1071"
    cap-height="1454"
    bbox="-854 -504 2865 2042"
    underline-thickness="40"
    underline-position="-204"
    unicode-range="U+0020-FB01"
  />
<missing-glyph horiz-adv-x="1003" 
d="M186 1536h637v-2007h-637v2007zM668 1335v66h-330v-66h129v-73h-131v-68h332v68h-131v73h131zM537 1001v142h-201v-209h332v67h-131zM401 1075h66v-74h-66v74zM668 813v68h-332v-68h131v-74h-131v-65h201v139h131zM668 559v201h-66v-133h-266v-68h332zM668 287v227h-201
v-113h70v48h65v-95h-201v160h-65v-227h332zM668 -59v227h-332v-227h332zM401 100h201v-94h-201v94zM668 -172v66h-332v-66h139l-139 -94v-66h332v66h-205l141 94h64z" />
    <glyph glyph-name="fi" unicode="fi" horiz-adv-x="1099" 
d="M987 1071v-1071h-289v842h-223v-842h-291v842h-127v229h127v76q0 109 32.5 190.5t88.5 126.5t122 66.5t142 21.5q99 0 185 -28v-234q-71 19 -129 19q-83 0 -122 -46.5t-28 -156.5v-35h512z" />
    <glyph glyph-name="f_f_i.liga" unicode="ffi" horiz-adv-x="1611" 
d="M1501 1071v-1071h-291v842h-223v-842h-289v842h-223v-842h-291v842h-127v229h127v76q0 88 21.5 158t57.5 114.5t84.5 74t99.5 42t106 12.5q77 0 129 -22v-230q-35 11 -66.5 13.5t-61 -7t-49 -31.5t-28.5 -64t-2 -101v-35h223v76q0 88 22 158t58 115.5t86 76t104 43
t113 12.5q98 0 187 -28v-234q-74 19 -131 19q-82 0 -121.5 -46.5t-28.5 -156.5v-35h514z" />
    <glyph glyph-name=".notdef" horiz-adv-x="1003" 
d="M186 1536h637v-2007h-637v2007zM668 1335v66h-330v-66h129v-73h-131v-68h332v68h-131v73h131zM537 1001v142h-201v-209h332v67h-131zM401 1075h66v-74h-66v74zM668 813v68h-332v-68h131v-74h-131v-65h201v139h131zM668 559v201h-66v-133h-266v-68h332zM668 287v227h-201
v-113h70v48h65v-95h-201v160h-65v-227h332zM668 -59v227h-332v-227h332zM401 100h201v-94h-201v94zM668 -172v66h-332v-66h139l-139 -94v-66h332v66h-205l141 94h64z" />
    <glyph glyph-name=".null" 
 />
    <glyph glyph-name="nonmarkingreturn" horiz-adv-x="682" 
 />
    <glyph glyph-name="space" unicode=" " horiz-adv-x="425" 
 />
    <glyph glyph-name="exclam" unicode="!" horiz-adv-x="557" 
d="M410 412h-265l-16 1044h297zM279 -20q-65 0 -111.5 45.5t-46.5 111.5q0 64 46.5 110t111.5 46t111 -46t46 -110q0 -66 -46 -111.5t-111 -45.5z" />
    <glyph glyph-name="quotedbl" unicode="&#x22;" horiz-adv-x="837" 
d="M133 971v483h229v-483h-229zM475 971v483h230v-483h-230z" />
    <glyph glyph-name="numbersign" unicode="#" horiz-adv-x="1515" 
d="M1448 1114v-246h-262l-33 -317h233v-246h-260l-32 -305h-281l33 305h-262l-33 -305h-281l33 305h-235v246h262l32 317h-233v246h260l37 340h281l-37 -340h262l37 340h280l-37 -340h236zM610 551h262l33 317h-262z" />
    <glyph glyph-name="dollar" unicode="$" horiz-adv-x="1167" 
d="M1110 401q0 -168 -110.5 -277t-292.5 -136v-176h-246v180q-193 37 -301 170t-111 303h305q3 -111 71 -172.5t173 -61.5q92 0 145.5 42.5t53.5 109.5q0 41 -24 76t-64 60.5t-92.5 50t-110.5 49t-115.5 52t-110 64.5t-92.5 82t-64 108.5t-24 139.5q0 155 98 262.5
t263 136.5v178h246v-180q166 -35 264 -155t102 -293l-299 -8q-4 103 -56 160t-138 57q-76 0 -125 -40t-49 -106q0 -59 39 -103.5t101 -74.5t137 -58t150 -64t137 -81.5t101 -121t39 -173.5z" />
    <glyph glyph-name="percent" unicode="%" horiz-adv-x="2037" 
d="M475 686q-178 0 -292.5 110t-114.5 281q0 172 114.5 282.5t292.5 110.5q177 0 291.5 -110.5t114.5 -282.5q0 -170 -114.5 -280.5t-291.5 -110.5zM1221 1454h239l-643 -1454h-239zM475 893q82 0 135.5 51.5t53.5 134.5q0 82 -53 134.5t-136 52.5q-80 0 -133 -53t-53 -134
q0 -82 53 -134t133 -52zM1563 -25q-177 0 -291.5 111t-114.5 281q0 172 114.5 282.5t291.5 110.5q178 0 292.5 -110.5t114.5 -282.5q0 -171 -114.5 -281.5t-292.5 -110.5zM1563 182q84 0 137 52t53 135q0 82 -53 134t-137 52q-80 0 -133.5 -52.5t-53.5 -133.5
q0 -82 53.5 -134.5t133.5 -52.5z" />
    <glyph glyph-name="ampersand" unicode="&#x26;" horiz-adv-x="1665" 
d="M1309 1071h301l-371 -579l348 -488l-338 -4l-172 250q-113 -151 -217.5 -210.5t-257.5 -59.5q-230 0 -379 146.5t-149 371.5q0 204 137 337.5t354 145.5l-356 473h995v-235h-485l358 -502zM606 258q97 0 158.5 43.5t155.5 177.5l-82 117q-55 81 -108 114t-124 33
q-110 0 -179 -65t-69 -178q0 -102 70 -172t178 -70z" />
    <glyph glyph-name="quotesingle" unicode="'" horiz-adv-x="495" 
d="M133 971v483h229v-483h-229z" />
    <glyph glyph-name="parenleft" unicode="(" horiz-adv-x="669" 
d="M627 1454v-254q-44 0 -83 -9.5t-78 -31.5t-62 -66t-23 -106v-829q0 -61 23 -105t61.5 -66.5t78.5 -32t83 -9.5v-254q-267 0 -397 118t-130 375v779q0 256 130 373.5t397 117.5z" />
    <glyph glyph-name="parenright" unicode=")" horiz-adv-x="669" 
d="M43 -307v254q44 0 83 9.5t78 31.5t62 66t23 106v829q0 61 -23 105t-61.5 66.5t-78.5 32t-83 9.5v254q267 0 396.5 -118t129.5 -375v-779q0 -256 -130 -373.5t-396 -117.5z" />
    <glyph glyph-name="asterisk" unicode="*" horiz-adv-x="946" 
d="M422 831l-103 -147l-161 117l110 143q53 63 78 80q-31 -2 -110 16l-177 50l66 190l168 -59q78 -30 98 -50q-11 37 -14 111l-4 172h198l-6 -174q-3 -74 -16 -111q21 21 100 50l174 61l62 -190l-176 -50q-79 -18 -111 -16q32 -21 78 -80l112 -143l-163 -117l-99 147
q-38 52 -53 99q-9 -40 -51 -99z" />
    <glyph glyph-name="plus" unicode="+" horiz-adv-x="1048" 
d="M666 678h292v-262h-292v-305h-281v305h-297v262h297v303h281v-303z" />
    <glyph glyph-name="comma" unicode="," horiz-adv-x="591" 
d="M96 -209l121 467h299l-192 -467h-228z" />
    <glyph glyph-name="hyphen" unicode="-" horiz-adv-x="1093" 
d="M111 416v262h870v-262h-870z" />
    <glyph glyph-name="period" unicode="." horiz-adv-x="557" 
d="M279 -20q-65 0 -111.5 45.5t-46.5 111.5q0 64 46.5 110t111.5 46t111 -46t46 -110q0 -66 -46 -111.5t-111 -45.5z" />
    <glyph glyph-name="slash" unicode="/" horiz-adv-x="782" 
d="M537 1536h254l-545 -1804h-254z" />
    <glyph glyph-name="zero" unicode="0" horiz-adv-x="1314" 
d="M657 -20q-111 0 -212 34.5t-182.5 99.5t-130 169.5t-48.5 234.5v418q0 130 48.5 234.5t130 170t183 100t211.5 34.5t211.5 -34.5t183.5 -100t130.5 -170t48.5 -234.5v-418q0 -104 -32 -193t-87 -151.5t-128 -107t-156 -65.5t-171 -21zM657 258q115 0 195 70.5t80 189.5
v418q0 119 -80 189.5t-195 70.5t-195.5 -70.5t-80.5 -189.5v-418q0 -119 80.5 -189.5t195.5 -70.5z" />
    <glyph glyph-name="one" unicode="1" horiz-adv-x="987" 
d="M659 262h302v-262h-902v262h303v858l-292 -63v268l589 129v-1192z" />
    <glyph glyph-name="two" unicode="2" horiz-adv-x="1150" 
d="M371 279h710v-279h-1018v195q0 86 24.5 159.5t66 127t95.5 99.5t114 81.5t119.5 68.5t113.5 64.5t95.5 64.5t66 74.5t24.5 89.5q0 77 -53.5 128.5t-148.5 51.5q-93 0 -153.5 -55t-66.5 -145h-297q0 130 67 237.5t188 170.5t270 63q135 0 245 -51.5t178 -157t68 -248.5
q0 -86 -27 -158t-71 -121.5t-102.5 -93t-120 -74.5t-124 -65t-115 -64.5t-92.5 -72.5t-56 -90z" />
    <glyph glyph-name="three" unicode="3" horiz-adv-x="1173" 
d="M928 772q87 -45 137.5 -132t50.5 -214q0 -84 -34 -162.5t-97.5 -142.5t-164 -102.5t-222.5 -38.5q-250 0 -400.5 137.5t-150.5 355.5h289q0 -60 21.5 -104.5t57.5 -69.5t78 -37t89 -12q111 0 174 51.5t63 140.5q0 176 -256 176h-112v256h120q54 3 94 19.5t61 42
t30.5 51.5t9.5 53q0 74 -53 119t-142 45q-94 0 -157.5 -56t-63.5 -151h-289q0 99 35.5 185.5t101 151.5t166 103t222.5 38q211 0 344 -116t133 -294t-135 -293z" />
    <glyph glyph-name="four" unicode="4" horiz-adv-x="1245" 
d="M997 514h201v-235h-201v-279h-288v279h-658v202l674 973h272v-940zM731 1075l-371 -561h351v274q0 170 20 287z" />
    <glyph glyph-name="five" unicode="5" horiz-adv-x="1204" 
d="M666 991q209 0 341 -136t132 -349q0 -142 -64.5 -260.5t-190 -192t-288.5 -73.5q-121 0 -223 40t-169.5 106.5t-105 152t-37.5 178.5h297q5 -86 72.5 -146.5t167.5 -60.5q102 0 173 67.5t71 178.5q0 110 -68 175.5t-172 65.5q-78 0 -144 -37.5t-93 -105.5h-293l133 860
h831v-262h-596l-43 -283q113 82 269 82z" />
    <glyph glyph-name="six" unicode="6" horiz-adv-x="1204" 
d="M688 979q124 0 227.5 -61t164.5 -171t61 -245q0 -108 -39 -203.5t-108.5 -166t-170.5 -111.5t-219 -41t-220.5 40.5t-172 109.5t-109 160.5t-39.5 192.5q0 154 97 326l370 645h326l-281 -489q46 14 113 14zM604 258q102 0 171 70t69 174q0 102 -69 171.5t-171 69.5
q-103 0 -173.5 -69.5t-70.5 -171.5q0 -104 70.5 -174t173.5 -70z" />
    <glyph glyph-name="seven" unicode="7" horiz-adv-x="1058" 
d="M27 1192v262h999v-225l-504 -1229h-315l504 1192h-684z" />
    <glyph glyph-name="eight" unicode="8" horiz-adv-x="1155" 
d="M911 770q91 -56 139 -144t48 -194q0 -198 -146.5 -325t-373.5 -127t-374 127t-147 325q0 107 47 195.5t138 146.5q-136 106 -136 285q0 183 134.5 299.5t339.5 116.5q203 0 336 -116.5t133 -299.5q0 -184 -138 -289zM580 1231q-81 0 -136 -47.5t-55 -128.5
q0 -78 55.5 -126t135.5 -48t135 48t55 126q0 81 -54.5 128.5t-135.5 47.5zM580 244q98 0 162.5 56t64.5 146q0 91 -64.5 148t-162.5 57q-99 0 -163.5 -57t-64.5 -148q0 -90 64.5 -146t163.5 -56z" />
    <glyph glyph-name="nine" unicode="9" horiz-adv-x="1206" 
d="M598 1475q119 0 221.5 -41t172 -110t108.5 -160.5t39 -192.5q0 -159 -97 -326l-368 -645h-326l283 492q-50 -17 -117 -17q-124 0 -227.5 61t-164.5 171t-61 245q0 144 67 263t190.5 189.5t279.5 70.5zM598 711q104 0 174 69t70 172q0 104 -70.5 174t-173.5 70
q-102 0 -171 -70t-69 -174q0 -102 69 -171.5t171 -69.5z" />
    <glyph glyph-name="colon" unicode=":" horiz-adv-x="514" 
d="M256 719q-66 0 -112 45.5t-46 112.5q0 65 46 110t112 45q65 0 111.5 -45.5t46.5 -109.5q0 -67 -46.5 -112.5t-111.5 -45.5zM256 -20q-66 0 -112 45.5t-46 111.5q0 65 46 110.5t112 45.5q65 0 111.5 -46t46.5 -110q0 -66 -46.5 -111.5t-111.5 -45.5z" />
    <glyph glyph-name="semicolon" unicode=";" horiz-adv-x="643" 
d="M365 719q-66 0 -112 45.5t-46 112.5q0 65 46 110t112 45q65 0 110 -45t45 -110q0 -67 -45 -112.5t-110 -45.5zM96 -209l121 467h299l-192 -467h-228z" />
    <glyph glyph-name="less" unicode="&#x3c;" horiz-adv-x="1081" 
d="M88 735l870 318v-254q-299 -110 -401.5 -145t-167.5 -48q68 -14 168 -48.5t401 -145.5v-252l-870 317v258z" />
    <glyph glyph-name="equal" unicode="=" horiz-adv-x="1204" 
d="M166 629v245h870v-245h-870zM166 217v246h870v-246h-870z" />
    <glyph glyph-name="greater" unicode="&#x3e;" horiz-adv-x="1081" 
d="M121 803v252l872 -318v-258l-872 -317v254q294 108 399.5 143.5t171.5 48.5q-67 14 -167 48.5t-404 146.5z" />
    <glyph glyph-name="question" unicode="?" horiz-adv-x="1042" 
d="M524 1475q213 0 350.5 -117t137.5 -309q0 -162 -96 -281.5t-275 -159.5v-194h-266v407h76q126 0 195 53.5t69 143.5q0 76 -53.5 126t-139.5 50q-93 0 -151 -62.5t-58 -164.5h-297q0 223 141.5 365.5t366.5 142.5zM506 293q65 0 111.5 -46t46.5 -110q0 -66 -46.5 -111.5
t-111.5 -45.5t-111.5 45.5t-46.5 111.5q0 64 46.5 110t111.5 46z" />
    <glyph glyph-name="at" unicode="@" horiz-adv-x="1814" 
d="M911 1352q173 0 326 -59t262.5 -161.5t172.5 -246t63 -305.5q0 -226 -95.5 -359t-263.5 -133q-130 0 -203.5 84t-78.5 209q-13 -109 -86 -168t-181 -59q-156 0 -257 114.5t-101 276.5q0 167 103.5 277t265.5 110q75 0 136.5 -26t92.5 -77l41 86h207v-481
q0 -70 23.5 -101.5t56.5 -31.5q56 0 94 69t37 210q-3 248 -177.5 412.5t-437.5 164.5q-171 0 -311.5 -80.5t-220.5 -221t-80 -312.5q0 -170 75 -306t211.5 -214t309.5 -78q152 0 223 41v-193q-81 -41 -244 -41q-166 0 -313.5 61t-252 166t-165.5 252t-61 314q0 226 108 411
t298 290.5t423 105.5zM891 362q78 0 129 51.5t51 129.5q0 77 -51 127.5t-129 50.5q-77 0 -128.5 -51t-51.5 -127q0 -78 51.5 -129.5t128.5 -51.5z" />
    <glyph glyph-name="A" unicode="A" horiz-adv-x="1468" 
d="M1430 0h-322l-109 319h-544q-53 -153 -107 -319h-307l522 1454h338zM535 563h383q-114 343 -152 482t-43 221q-6 -89 -43 -230.5t-145 -472.5z" />
    <glyph glyph-name="B" unicode="B" horiz-adv-x="1337" 
d="M735 0h-598v1454h561q233 0 360.5 -93t127.5 -269q0 -124 -54.5 -200t-136.5 -104q120 -22 196.5 -119.5t76.5 -232.5q0 -194 -139 -315t-394 -121zM434 1200v-336h264q87 0 138 42.5t51 125.5q0 81 -51 124.5t-138 43.5h-264zM434 639v-385h301q107 0 170.5 51t63.5 137
q0 90 -62.5 143.5t-167.5 53.5h-305z" />
    <glyph glyph-name="C" unicode="C" horiz-adv-x="1327" 
d="M805 -20q-150 0 -285 57.5t-232.5 156.5t-154.5 238t-57 295t57 295t154.5 238.5t232.5 157t285 57.5q151 0 259 -38.5t165 -82.5v-289q-25 28 -68.5 56t-131.5 55.5t-187 27.5q-128 0 -234.5 -60t-170.5 -170t-64 -247t64 -247t170.5 -170t234.5 -60q99 0 187.5 28
t131 56t68.5 55v-289q-57 -44 -165 -82t-259 -38z" />
    <glyph glyph-name="D" unicode="D" horiz-adv-x="1456" 
d="M639 0h-502v1454h502q171 0 311 -56t233.5 -154.5t144 -231t50.5 -285.5t-50.5 -285.5t-144 -231t-233.5 -154.5t-311 -56zM434 1186v-918h205q202 0 322 117.5t120 341.5t-120 341.5t-322 117.5h-205z" />
    <glyph glyph-name="E" unicode="E" horiz-adv-x="1146" 
d="M1073 1454v-268h-639v-322h527v-262h-527v-334h639v-268h-936v1454h936z" />
    <glyph glyph-name="F" unicode="F" horiz-adv-x="1103" 
d="M434 0h-297v1454h901v-270h-604v-338h533v-262h-533v-584z" />
    <glyph glyph-name="G" unicode="G" horiz-adv-x="1613" 
d="M657 561v264h887q0 -201 -55 -362.5t-153 -266.5t-230 -160.5t-287 -55.5q-161 0 -300.5 59t-236 160t-151.5 238.5t-55 291.5q0 204 91.5 373.5t262 271t385.5 101.5q191 0 354 -77t250 -200l-211 -188q-57 82 -158 136t-225 54q-201 0 -326.5 -134t-125.5 -343
q0 -205 120.5 -337t321.5 -132q155 0 263 83t147 224h-568z" />
    <glyph glyph-name="H" unicode="H" horiz-adv-x="1497" 
d="M1061 852v602h297v-1454h-297v590h-627v-590h-297v1454h297v-602h627z" />
    <glyph glyph-name="I" unicode="I" horiz-adv-x="573" 
d="M434 0h-297v1454h297v-1454z" />
    <glyph glyph-name="J" unicode="J" horiz-adv-x="907" 
d="M23 111l94 245q105 -81 192 -84q89 0 136 59t47 199v924h296v-940q0 -131 -35 -234.5t-97 -168t-143 -98t-175 -33.5q-113 0 -192 41.5t-123 89.5z" />
    <glyph glyph-name="K" unicode="K" horiz-adv-x="1320" 
d="M936 1454h348l-563 -711l555 -743h-361l-493 686q8 -90 10 -209t2 -477h-297v1454h297q0 -348 -2 -459t-10 -188z" />
    <glyph glyph-name="L" unicode="L" horiz-adv-x="1110" 
d="M1042 0h-905v1454h297v-1186h608v-268z" />
    <glyph glyph-name="M" unicode="M" horiz-adv-x="1759" 
d="M879 819l462 635h279v-1454h-297q0 530 2.5 719.5t13.5 273.5l-462 -643l-459 643q11 -84 13.5 -274.5t2.5 -718.5h-297v1454h281z" />
    <glyph glyph-name="N" unicode="N" horiz-adv-x="1529" 
d="M1102 1454h289v-1454h-277l-700 979q14 -146 14 -979h-291v1454h277l702 -989q-10 88 -12 275.5t-2 713.5z" />
    <glyph glyph-name="O" unicode="O" horiz-adv-x="1638" 
d="M819 -20q-212 0 -382 96t-265.5 267t-95.5 384t95.5 384t265.5 267.5t382 96.5t382.5 -96.5t266 -267.5t95.5 -384q0 -160 -56 -298.5t-154 -237t-236.5 -155t-297.5 -56.5zM819 258q129 0 232 63.5t159 170.5t56 235t-56 235t-159 170.5t-232 63.5q-128 0 -231 -63.5
t-159 -170.5t-56 -235t56 -235t159 -170.5t231 -63.5z" />
    <glyph glyph-name="P" unicode="P" horiz-adv-x="1329" 
d="M137 1454h588q239 0 389 -129.5t150 -359.5t-154 -368t-401 -138h-275v-459h-297v1454zM434 731h291q107 0 174.5 59.5t67.5 165.5t-67.5 167t-174.5 61h-291v-453z" />
    <glyph glyph-name="Q" unicode="Q" horiz-adv-x="1638" 
d="M1563 727q0 -193 -83.5 -350.5t-231 -247.5t-328.5 -90q-50 0 -86 8l421 -393h-358l-520 467q-301 269 -301 606q0 157 57 296t155 238t236 156.5t295 57.5q209 0 379.5 -97.5t267.5 -269t97 -381.5zM373 727q0 -195 126.5 -332t319.5 -137q129 0 232 63.5t159 170.5
t56 235t-56 235t-159 170.5t-232 63.5t-232 -63.5t-158.5 -170t-55.5 -235.5z" />
    <glyph glyph-name="R" unicode="R" horiz-adv-x="1337" 
d="M1274 0h-363l-493 618q11 -62 13.5 -189t2.5 -429h-297v1454h596q240 0 377 -118t137 -330q0 -93 -28.5 -170.5t-74 -128t-106 -85.5t-120.5 -51t-121 -18q23 -24 50.5 -55t75.5 -86.5t85 -99t122 -143.5t144 -169zM950 979q0 96 -61.5 151.5t-175.5 55.5h-279v-420h279
q114 0 175.5 57.5t61.5 155.5z" />
    <glyph glyph-name="S" unicode="S" horiz-adv-x="1167" 
d="M596 -20q-104 0 -193 26.5t-152.5 72.5t-109 108t-68.5 132.5t-24 145.5h305q3 -111 71 -172.5t173 -61.5q92 0 145.5 42.5t53.5 109.5q0 41 -24 76t-64 60.5t-92.5 50t-110.5 49t-115.5 52t-110 64.5t-92.5 82t-64 108.5t-24 139.5q0 182 131.5 296t343.5 114
q222 0 357.5 -127t140.5 -334l-299 -8q-4 103 -56 160t-138 57q-76 0 -125 -40t-49 -106q0 -59 39 -103.5t101 -74.5t137 -58t150 -64t137 -81.5t101 -121t39 -173.5q0 -129 -68 -225.5t-184 -146t-262 -49.5z" />
    <glyph glyph-name="T" unicode="T" horiz-adv-x="1193" 
d="M745 0h-296v1186h-381v268h1058v-268h-381v-1186z" />
    <glyph glyph-name="U" unicode="U" horiz-adv-x="1484" 
d="M741 -20q-283 0 -445.5 167t-162.5 474v833h297v-842q0 -178 83 -270t228 -92q146 0 229 91.5t83 270.5v842h299v-833q0 -307 -163 -474t-448 -167z" />
    <glyph glyph-name="V" unicode="V" horiz-adv-x="1427" 
d="M1098 1454h311l-522 -1454h-340l-527 1454h324q222 -653 294 -881.5t87 -330.5q13 107 86.5 345t286.5 867z" />
    <glyph glyph-name="W" unicode="W" horiz-adv-x="2019" 
d="M1694 1454h301l-393 -1454h-342q-134 529 -185 753t-63 347q-12 -124 -65 -344.5t-197 -755.5h-334l-389 1454h313q223 -899 260 -1132q14 131 64.5 351t191.5 781h324q226 -877 262 -1104q33 237 252 1104z" />
    <glyph glyph-name="X" unicode="X" horiz-adv-x="1419" 
d="M1018 1454h360l-501 -709l501 -745h-360q-157 236 -224.5 355t-86.5 184q-16 -62 -82.5 -180t-225.5 -359h-360l502 733l-502 721h360q279 -402 310 -522q32 112 309 522z" />
    <glyph glyph-name="Y" unicode="Y" horiz-adv-x="1335" 
d="M991 1454h332l-506 -864v-590h-297v590l-508 864h340q153 -267 223.5 -404t96.5 -219q26 80 96.5 217t222.5 406z" />
    <glyph glyph-name="Z" unicode="Z" horiz-adv-x="1302" 
d="M82 1454h1165l-706 -1192h682v-262h-1168l715 1192h-688v262z" />
    <glyph glyph-name="bracketleft" unicode="[" horiz-adv-x="694" 
d="M651 -313h-518v1767h518v-246h-245v-1276h245v-245z" />
    <glyph glyph-name="backslash" unicode="\" horiz-adv-x="782" 
d="M537 -268l-545 1804h254l545 -1804h-254z" />
    <glyph glyph-name="bracketright" unicode="]" horiz-adv-x="694" 
d="M43 1454h518v-1767h-518v245h246v1276h-246v246z" />
    <glyph glyph-name="asciicircum" unicode="^" horiz-adv-x="1120" 
d="M688 1454l377 -819h-258q-210 467 -248 606q-19 -77 -67.5 -194t-180.5 -412h-258l377 819h258z" />
    <glyph glyph-name="underscore" unicode="_" horiz-adv-x="1472" 
d="M111 -229v229h1249v-229h-1249z" />
    <glyph glyph-name="grave" unicode="`" horiz-adv-x="507" 
d="M317 1520l156 -334h-229l-228 334h301z" />
    <glyph glyph-name="a" unicode="a" horiz-adv-x="1359" 
d="M954 907l47 164h246v-1071h-293v184q-40 -95 -139 -149.5t-233 -54.5q-158 0 -277 76.5t-179 202.5t-60 280q0 243 144 399t388 156q105 0 201.5 -47t154.5 -134v-6zM657 240q129 0 212 84t83 213q0 128 -83 210t-212 82q-131 0 -215 -81.5t-84 -210.5q0 -130 84 -213.5
t215 -83.5z" />
    <glyph glyph-name="b" unicode="b" horiz-adv-x="1355" 
d="M774 1092q158 0 277 -77.5t179 -203.5t60 -279q0 -243 -144 -399t-388 -156q-105 0 -202 47t-155 134v-158h-290v1536h290v-651q40 96 140 151.5t233 55.5zM698 240q131 0 215 83t84 212q0 130 -84 212t-215 82q-129 0 -212 -82.5t-83 -211.5q0 -128 83 -211.5t212 -83.5
z" />
    <glyph glyph-name="c" unicode="c" horiz-adv-x="1052" 
d="M641 -23q-261 0 -418 156t-157 404q0 120 40.5 222.5t114.5 176.5t182 116t238 42q194 0 324 -103v-278q-122 116 -295 116q-135 0 -224.5 -84t-89.5 -210t89.5 -210.5t224.5 -84.5q171 0 295 118v-278q-130 -103 -324 -103z" />
    <glyph glyph-name="d" unicode="d" horiz-adv-x="1355" 
d="M954 913v623h291v-1536h-291v184q-40 -95 -139 -149.5t-233 -54.5q-158 0 -277 76.5t-179 202.5t-60 280q0 243 144 399t388 156q105 0 201.5 -47t154.5 -134zM657 240q129 0 212 84t83 213q0 128 -83 210t-212 82q-131 0 -215 -81.5t-84 -210.5q0 -130 84 -213.5
t215 -83.5z" />
    <glyph glyph-name="e" unicode="e" horiz-adv-x="1234" 
d="M618 1094q123 0 225.5 -41.5t177.5 -121.5t114 -204.5t34 -282.5h-813q11 -98 90 -161.5t191 -63.5q92 0 158 38.5t100 104.5l254 -26q-43 -154 -186 -255t-328 -101q-251 0 -410 152.5t-159 399.5q0 159 70 287.5t196.5 201.5t285.5 73zM618 860q-109 0 -182.5 -59.5
t-81.5 -153.5h520q-5 94 -76 153.5t-180 59.5z" />
    <glyph glyph-name="f" unicode="f" horiz-adv-x="794" 
d="M625 1309q-83 0 -122 -46.5t-28 -156.5v-35h279v-229h-279v-842h-291v842h-127v229h127v76q0 109 32.5 190.5t88.5 126.5t122 66.5t142 21.5q99 0 185 -28v-234q-71 19 -129 19z" />
    <glyph glyph-name="g" unicode="g" horiz-adv-x="1355" 
d="M954 907l54 164h237v-960q0 -286 -150.5 -450.5t-432.5 -164.5q-128 0 -263 35t-209 92v250q48 -26 80 -41.5t88.5 -38t118 -34t125.5 -11.5q352 0 352 363v73q-40 -95 -139 -149.5t-233 -54.5q-158 0 -277 76.5t-179 202.5t-60 280q0 243 144 399t388 156
q105 0 201.5 -47t154.5 -134v-6zM657 240q129 0 212 84t83 213q0 128 -83 210t-212 82q-131 0 -215 -81.5t-84 -210.5q0 -130 84 -213.5t215 -83.5z" />
    <glyph glyph-name="h" unicode="h" horiz-adv-x="1263" 
d="M731 1094q87 0 163 -28t137 -83t96.5 -147t35.5 -211v-625h-293v580q0 74 -19.5 128t-53.5 82.5t-72 41t-84 12.5q-109 0 -174.5 -70t-65.5 -205v-569h-290v1536h290v-614q107 172 330 172z" />
    <glyph glyph-name="i" unicode="i" horiz-adv-x="512" 
d="M256 1178q-68 0 -116 48t-48 115q0 69 48 116.5t116 47.5t116 -47.5t48 -116.5q0 -67 -48 -115t-116 -48zM111 1071h290v-1071h-290v1071z" />
    <glyph glyph-name="j" unicode="j" horiz-adv-x="514" 
d="M258 1178q-68 0 -116 48t-48 115q0 69 48 116.5t116 47.5t116 -47.5t48 -116.5q0 -67 -48 -115t-116 -48zM111 1071h292v-1542h-292v1542z" />
    <glyph glyph-name="k" unicode="k" horiz-adv-x="1169" 
d="M655 569l488 -569h-344l-412 498q14 -134 14 -498h-290v1536h290q0 -449 -2.5 -619.5t-13.5 -277.5l412 432h342z" />
    <glyph glyph-name="l" unicode="l" horiz-adv-x="512" 
d="M111 1536h290v-1536h-290v1536z" />
    <glyph glyph-name="m" unicode="m" horiz-adv-x="1884" 
d="M1376 1094q185 0 296.5 -112.5t111.5 -307.5v-674h-291v598q0 126 -53.5 186t-141.5 60q-90 0 -147 -61.5t-57 -184.5v-598h-291v598q0 126 -54.5 186t-140.5 60q-91 0 -149 -61.5t-58 -184.5v-598h-290v1071h237l49 -143q103 166 312 166q101 0 183.5 -43t133.5 -123
q122 166 350 166z" />
    <glyph glyph-name="n" unicode="n" horiz-adv-x="1265" 
d="M735 1094q87 0 163 -28t137 -83t96.5 -147t35.5 -211v-625h-295v580q0 74 -19 128t-52.5 82.5t-71.5 41t-84 12.5q-110 0 -174.5 -70t-64.5 -205v-569h-295v1071h245l45 -153q108 176 334 176z" />
    <glyph glyph-name="o" unicode="o" horiz-adv-x="1286" 
d="M643 -20q-252 0 -414.5 156.5t-162.5 400.5q0 119 43 222.5t119 177t183.5 115.5t231.5 42q166 0 298.5 -71.5t207 -199t74.5 -286.5q0 -161 -74.5 -288t-207 -198t-298.5 -71zM643 242q129 0 213 83.5t84 211.5q0 129 -84 211.5t-213 82.5q-128 0 -212.5 -83t-84.5 -211
q0 -127 84.5 -211t212.5 -84z" />
    <glyph glyph-name="p" unicode="p" horiz-adv-x="1355" 
d="M774 1092q158 0 277 -77.5t179 -203.5t60 -279q0 -243 -144 -399t-388 -156q-105 0 -202 47t-155 134v-629h-290v1542h239l51 -180v-6q40 96 140 151.5t233 55.5zM698 240q131 0 215 83t84 212q0 130 -84 212t-215 82q-129 0 -212 -82.5t-83 -211.5q0 -128 83 -211.5
t212 -83.5z" />
    <glyph glyph-name="q" unicode="q" horiz-adv-x="1355" 
d="M954 913l52 158h239v-1542h-291v655q-40 -95 -139 -149.5t-233 -54.5q-158 0 -277 76.5t-179 202.5t-60 280q0 243 144 399t388 156q105 0 201.5 -47t154.5 -134zM657 240q129 0 212 84t83 213q0 128 -83 210t-212 82q-131 0 -215 -81.5t-84 -210.5q0 -130 84 -213.5
t215 -83.5z" />
    <glyph glyph-name="r" unicode="r" horiz-adv-x="770" 
d="M348 1071l47 -137q93 166 322 139l-2 -250q-153 19 -233.5 -33.5t-80.5 -177.5v-612h-290v1071h237z" />
    <glyph glyph-name="s" unicode="s" horiz-adv-x="1052" 
d="M541 -20q-98 0 -183.5 21.5t-155 64.5t-111 114.5t-44.5 165.5l283 10q6 -67 66.5 -108t152.5 -41q72 0 117 25.5t45 70.5q0 32 -26.5 55t-70.5 36t-99.5 28t-114 29t-114 39.5t-99.5 58t-70.5 87.5t-26.5 126q0 152 123.5 242t306.5 90q194 0 320 -99.5t129 -242.5
l-277 -9q-8 58 -54.5 94.5t-121.5 36.5q-60 0 -101.5 -24.5t-41.5 -67.5q0 -35 35 -59t90.5 -38.5t122.5 -29t134.5 -38.5t123 -58t90.5 -96t35 -146q0 -159 -128 -248t-335 -89z" />
    <glyph glyph-name="t" unicode="t" horiz-adv-x="806" 
d="M516 1071h248v-229h-248v-842h-291v842h-174v229h174v313h291v-313z" />
    <glyph glyph-name="u" unicode="u" horiz-adv-x="1263" 
d="M858 500v571h293v-1071h-246l-41 158q-106 -181 -336 -181q-86 0 -161.5 28t-136.5 83t-96.5 147t-35.5 211v625h291v-579q0 -74 19.5 -128t53.5 -82.5t72.5 -41.5t83.5 -13q109 0 174.5 70t65.5 203z" />
    <glyph glyph-name="v" unicode="v" horiz-adv-x="1189" 
d="M854 1071h309l-409 -1071h-295l-432 1071h315q140 -387 193.5 -549.5t72.5 -253.5q15 101 64 261.5t182 541.5z" />
    <glyph glyph-name="w" unicode="w" horiz-adv-x="1732" 
d="M1391 1071h297l-326 -1071h-295q-116 392 -153 537t-44 237q-9 -91 -48 -238t-158 -536h-295l-324 1071h303q108 -397 142.5 -540t44.5 -238q10 98 45.5 239.5t148.5 538.5h291q106 -371 141 -511t47 -241q8 77 37.5 196.5t128.5 491.5q11 42 17 64z" />
    <glyph glyph-name="x" unicode="x" horiz-adv-x="1196" 
d="M838 1071h333l-409 -518l409 -553h-333q-114 151 -168.5 235.5t-75.5 145.5q-22 -61 -76 -148.5t-160 -232.5h-331l409 541l-409 530h331q111 -141 163.5 -218t74.5 -132q20 52 73.5 129t168.5 221z" />
    <glyph glyph-name="y" unicode="y" horiz-adv-x="1230" 
d="M897 1071h309l-606 -1542h-303l178 461l-448 1081h315q144 -355 205 -525.5t78 -269.5q17 99 75 268t197 527z" />
    <glyph glyph-name="z" unicode="z" horiz-adv-x="1011" 
d="M68 1071h901l-473 -825h448v-246h-901l477 825h-452v246z" />
    <glyph glyph-name="braceleft" unicode="{" horiz-adv-x="669" 
d="M629 1454v-237q-42 10 -83.5 5t-74.5 -20t-51 -51t-12 -88l30 -303q7 -71 -19.5 -118t-74.5 -69q48 -28 74.5 -76t19.5 -112l-30 -301q-6 -52 12 -88t51 -51t74.5 -20t83.5 5v-237q-118 -16 -212.5 -1.5t-159 54.5t-95.5 115.5t-21 181.5l31 303q11 115 -111 115h-24v229
h24q122 0 111 115l-31 299q-21 209 111 295.5t377 54.5z" />
    <glyph glyph-name="bar" unicode="|" horiz-adv-x="561" 
d="M395 -164h-229v1782h229v-1782z" />
    <glyph glyph-name="braceright" unicode="}" horiz-adv-x="669" 
d="M608 688h25v-229h-25q-121 0 -110 -115l30 -299q11 -107 -19.5 -183.5t-95.5 -116t-159.5 -54t-212.5 3.5v237q43 -10 84.5 -5t74 19.5t50.5 50.5t12 89l-31 303q-14 135 97 184q-49 28 -76.5 77.5t-20.5 113.5l31 301q6 52 -12 88t-50.5 51t-74 20t-84.5 -5v237
q118 16 212 1.5t159 -54.5t95.5 -115.5t20.5 -181.5l-30 -303q-11 -115 110 -115z" />
    <glyph glyph-name="asciitilde" unicode="~" horiz-adv-x="1216" 
d="M309 422l-196 65q16 109 90.5 188t191.5 79q67 0 148 -31t149 -61.5t103 -30.5q44 0 67 26.5t35 77.5l207 -63q-23 -123 -99 -194.5t-182 -71.5q-66 0 -150 30t-154.5 60t-104.5 30q-44 0 -68 -26.5t-37 -77.5z" />
    <glyph glyph-name="exclamdown" unicode="&#xa1;" horiz-adv-x="557" 
d="M279 1087q65 0 111 -45.5t46 -111.5t-46 -111t-111 -45t-111.5 45.5t-46.5 110.5q0 66 46.5 111.5t111.5 45.5zM147 655h265l16 -1044h-297z" />
    <glyph glyph-name="cent" unicode="&#xa2;" horiz-adv-x="1052" 
d="M670 829q-135 0 -224.5 -84t-89.5 -210t89.5 -210.5t224.5 -84.5q171 0 295 118v-278q-89 -71 -211 -92v-205h-246v207q-205 38 -323.5 186t-118.5 361q0 211 119 358.5t323 185.5v217h246v-215q122 -21 211 -92v-278q-122 116 -295 116z" />
    <glyph glyph-name="sterling" unicode="&#xa3;" horiz-adv-x="1220" 
d="M850 236q164 0 272 79v-260q-104 -69 -272 -69q-88 0 -222.5 37.5t-219.5 37.5q-165 0 -273 -79v260q140 65 197 118.5t57 122.5v13h-254v194h152q-35 48 -53.5 75.5t-44.5 76t-38 99.5t-12 108q0 195 138 310.5t350 115.5q214 0 349.5 -141.5t135.5 -364.5h-299
q0 116 -51.5 179.5t-143.5 63.5q-80 0 -131 -51t-51 -135q0 -46 18.5 -92.5t42.5 -79.5t57.5 -80.5t51.5 -83.5h367v-194h-328q-11 -108 -90 -193q30 -7 87.5 -26t107 -30t100.5 -11z" />
    <glyph glyph-name="currency" unicode="&#xa4;" horiz-adv-x="1314" 
d="M1124 723q0 -117 -51 -211l154 -158l-180 -180l-148 150q-113 -66 -240 -66t-243 66l-148 -150l-180 180l154 158q-52 99 -52 211q0 109 50 211l-152 156l180 180l146 -150q114 68 245 68t242 -68l146 150l180 -180l-152 -156q49 -100 49 -211zM659 506q93 0 155.5 62
t62.5 155t-62.5 156t-155.5 63q-94 0 -157.5 -62.5t-63.5 -156.5q0 -93 63.5 -155t157.5 -62z" />
    <glyph glyph-name="yen" unicode="&#xa5;" horiz-adv-x="1335" 
d="M991 1454h332l-397 -680h260v-194h-369v-117h369v-195h-369v-268h-297v268h-368v195h368v117h-368v194h260l-400 680h340q153 -267 223.5 -404t96.5 -219q26 80 96.5 217t222.5 406z" />
    <glyph glyph-name="brokenbar" unicode="&#xa6;" horiz-adv-x="561" 
d="M395 1024h-229v594h229v-594zM395 -164h-229v594h229v-594z" />
    <glyph glyph-name="section" unicode="&#xa7;" horiz-adv-x="1107" 
d="M874 518q113 -84 113 -215q0 -100 -58.5 -175t-152.5 -111.5t-207 -36.5q-218 0 -345 91.5t-126 272.5l281 8q5 -69 54.5 -112t125.5 -43q60 0 96.5 23t36.5 65q0 37 -31 61.5t-96 48.5l-190 66q-112 40 -189 115.5t-77 187.5q0 82 39 149.5t108 112.5q-121 85 -121 217
q0 97 56.5 170t147.5 109.5t202 36.5q191 0 307.5 -99t118.5 -243l-279 -7q-3 64 -47.5 104t-110.5 40q-45 0 -77.5 -23.5t-32.5 -62.5q0 -37 42.5 -64t129.5 -59l127 -45q153 -53 225 -139t72 -189q0 -77 -38 -142.5t-104 -111.5zM371 801q0 -52 45 -92.5t151 -71.5l68 -21
q51 12 80.5 46.5t29.5 80.5q0 52 -49.5 94.5t-160.5 77.5l-50 17q-52 -9 -83 -46t-31 -85z" />
    <glyph glyph-name="dieresis" unicode="&#xa8;" horiz-adv-x="876" 
d="M229 1202q-61 0 -103 42t-42 104t42 103.5t103 41.5q62 0 104 -42t42 -103q0 -62 -42.5 -104t-103.5 -42zM647 1202q-61 0 -103 42t-42 104t42 103.5t103 41.5q62 0 104 -42t42 -103q0 -62 -42.5 -104t-103.5 -42z" />
    <glyph glyph-name="copyright" unicode="&#xa9;" horiz-adv-x="1826" 
d="M913 -88q-138 0 -265.5 41t-229.5 116.5t-178 176.5t-117 227t-41 262q0 171 64.5 324t175 263t265 174.5t326.5 64.5t326 -64.5t265 -174.5t176 -263t65 -324q0 -170 -65 -322.5t-176 -262t-265.5 -174t-325.5 -64.5zM913 80q177 0 325.5 86.5t234.5 237t86 331.5
t-86 331.5t-234.5 237.5t-325.5 87t-325.5 -87t-234 -237.5t-85.5 -331.5q0 -135 50.5 -256.5t136.5 -209t205.5 -138.5t252.5 -51zM948 272q-189 0 -319.5 134t-130.5 329q0 196 130.5 329.5t319.5 133.5q168 0 275 -96v-264q-45 68 -103.5 107.5t-146.5 39.5
q-112 0 -182 -69.5t-70 -180.5q0 -110 70 -181t182 -71q88 0 145.5 41t104.5 111v-266q-18 -18 -46 -36.5t-92 -39.5t-137 -21z" />
    <glyph glyph-name="ordfeminine" unicode="&#xaa;" horiz-adv-x="999" 
d="M659 1358l37 96h193v-754h-230v119q-26 -63 -92.5 -98t-154.5 -35q-166 0 -263.5 114t-97.5 279q0 171 101 281t272 110q68 0 131.5 -28.5t103.5 -81.5v-2zM471 891q82 0 135 52t53 134q0 83 -53 135t-135 52q-83 0 -135.5 -52t-52.5 -135q0 -82 52.5 -134t135.5 -52z
" />
    <glyph glyph-name="guillemotleft" unicode="&#xab;" horiz-adv-x="1069" 
d="M295 889h293l-254 -389l254 -391h-293l-260 389zM743 889h293l-254 -389l254 -391h-293l-260 389z" />
    <glyph glyph-name="logicalnot" unicode="&#xac;" horiz-adv-x="1138" 
d="M102 485v246h871v-559h-273v313h-598z" />
    <glyph glyph-name="registered" unicode="&#xae;" horiz-adv-x="1161" 
d="M578 1470q218 0 362.5 -140.5t144.5 -352.5q0 -211 -144.5 -351.5t-362.5 -140.5q-214 0 -358 141t-144 351q0 212 144 352.5t358 140.5zM578 604q164 0 271 102.5t107 270.5q0 160 -108.5 267.5t-269.5 107.5t-268 -104t-107 -271q0 -159 108 -266t267 -107zM807 1085
q0 -80 -47 -119t-111 -48l170 -199h-151l-160 203v-203h-125v536h231q89 0 141 -45.5t52 -124.5zM606 1141h-98v-137h98q36 0 56 18t20 53q0 66 -76 66z" />
    <glyph glyph-name="macron" unicode="&#xaf;" horiz-adv-x="952" 
d="M111 1200v230h729v-230h-729z" />
    <glyph glyph-name="degree" unicode="&#xb0;" horiz-adv-x="915" 
d="M459 782q-149 0 -251 100t-102 246q0 145 102 246t251 101q147 0 248.5 -101t101.5 -246q0 -146 -101 -246t-249 -100zM459 979q60 0 101.5 43.5t41.5 105.5t-41.5 106t-101.5 44q-61 0 -102.5 -44t-41.5 -106t41.5 -105.5t102.5 -43.5z" />
    <glyph glyph-name="plusminus" unicode="&#xb1;" horiz-adv-x="1048" 
d="M666 1253v-303h292v-262h-292v-305h-281v305h-297v262h297v303h281zM958 37h-870v262h870v-262z" />
    <glyph glyph-name="uni00B2" unicode="&#xb2;" horiz-adv-x="778" 
d="M711 1368q0 -63 -20 -113t-53.5 -82t-74.5 -57t-85 -45t-82.5 -39.5t-69 -45.5t-43.5 -58h428v-205h-654v143q0 71 24 129t62.5 95t85 67.5t93.5 54t85.5 45.5t62.5 50t24 61q0 34 -26.5 60t-74.5 26q-51 0 -82 -30t-37 -85h-217q0 135 97.5 224.5t238.5 89.5
q134 0 226 -76t92 -209z" />
    <glyph glyph-name="uni00B3" unicode="&#xb3;" horiz-adv-x="776" 
d="M608 1206q117 -75 117 -211q0 -122 -89 -203t-245 -81q-161 0 -256.5 87.5t-95.5 225.5h211q0 -61 39 -93t94 -32q53 0 88 28.5t35 76.5q0 96 -139 96h-70v186h76q48 0 74 23t26 61q0 42 -29 67t-73 25q-48 0 -81.5 -28t-33.5 -82h-211q0 131 91.5 216t244.5 85
q137 0 224 -68.5t87 -185.5q0 -116 -84 -193z" />
    <glyph glyph-name="acute" unicode="&#xb4;" horiz-adv-x="507" 
d="M264 1186h-229l155 334h302z" />
    <glyph glyph-name="uni00B5" unicode="&#xb5;" horiz-adv-x="1349" 
d="M926 500v571h293v-1071h-246l-47 127q-94 -150 -264 -150q-137 0 -205 76v-524h-291v1542h291v-579q0 -74 19.5 -128t53.5 -82.5t72.5 -41.5t83.5 -13q109 0 174.5 70t65.5 203z" />
    <glyph glyph-name="paragraph" unicode="&#xb6;" horiz-adv-x="1398" 
d="M74 973q0 147 71.5 258t188.5 167t260 56h229v-1454h-229v494q-143 0 -260 56t-188.5 166.5t-71.5 256.5zM1004 0v1454h229v-1454h-229z" />
    <glyph glyph-name="periodcentered" unicode="&#xb7;" horiz-adv-x="557" 
d="M279 365q-65 0 -111.5 45t-46.5 112q0 64 46.5 109t111.5 45t111 -45t46 -109q0 -67 -46 -112t-111 -45z" />
    <glyph glyph-name="cedilla" unicode="&#xb8;" horiz-adv-x="552" 
d="M406 0l-46 -113q64 -14 104 -59t40 -113q0 -94 -77 -149t-204 -55q-78 0 -157 32l4 170q82 -26 135 -26q34 0 51.5 11.5t17.5 29.5q0 55 -180 55l86 217h226z" />
    <glyph glyph-name="uni00B9" unicode="&#xb9;" horiz-adv-x="694" 
d="M639 723h-580v192h181v490l-179 -39v195l398 77v-723h180v-192z" />
    <glyph glyph-name="ordmasculine" unicode="&#xba;" horiz-adv-x="909" 
d="M455 686q-178 0 -292 110t-114 281q0 172 114 282.5t292 110.5t292.5 -110.5t114.5 -282.5q0 -171 -114.5 -281t-292.5 -110zM455 893q84 0 137 51.5t53 134.5q0 82 -53 134.5t-137 52.5q-80 0 -133.5 -53t-53.5 -134q0 -82 53.5 -134t133.5 -52z" />
    <glyph glyph-name="guillemotright" unicode="&#xbb;" horiz-adv-x="1069" 
d="M35 889h291l260 -391l-260 -389h-291l254 391zM483 889h291l260 -391l-260 -389h-291l254 391z" />
    <glyph glyph-name="onequarter" unicode="&#xbc;" horiz-adv-x="1759" 
d="M459 731h180v-192h-580v192h181v490l-179 -39v194l398 78v-723zM449 0l645 1454h239l-645 -1454h-239zM1606 915v-575h116v-172h-116v-168h-211v168h-404v145l416 602h199zM1217 340h178q0 221 24 354q-37 -89 -79.5 -162.5t-122.5 -191.5z" />
    <glyph glyph-name="onehalf" unicode="&#xbd;" horiz-adv-x="1863" 
d="M459 731h180v-192h-580v192h181v490l-179 -39v194l398 78v-723zM449 0l645 1454h239l-645 -1454h-239zM1798 645q0 -63 -20 -113t-53.5 -82t-74.5 -57t-85 -45t-82.5 -39.5t-69 -45.5t-43.5 -58h428v-205h-653v143q0 71 24 129t62.5 95t85 67.5t93 54t85 45.5t62.5 50
t24 61q0 34 -26 60t-74 26q-51 0 -82 -30t-37 -85h-217q0 135 97.5 224.5t238.5 89.5q134 0 225.5 -76t91.5 -209z" />
    <glyph glyph-name="threequarters" unicode="&#xbe;" horiz-adv-x="1841" 
d="M725 811q0 -122 -89 -203.5t-245 -81.5q-160 0 -256 87.5t-96 226.5h211q0 -61 39 -93t94 -32q53 0 88 28t35 76q0 96 -139 96h-70v187h76q48 0 74 23t26 61q0 42 -29 67t-73 25q-48 0 -81.5 -28.5t-33.5 -82.5h-211q0 131 91.5 216t244.5 85q137 0 224 -68.5t87 -185.5
q0 -115 -84 -192q117 -75 117 -211zM530 0l646 1454h239l-645 -1454h-240zM1688 915v-575h116v-172h-116v-168h-211v168h-404v145l416 602h199zM1298 340h179q0 221 24 354q-36 -88 -79 -161t-124 -193z" />
    <glyph glyph-name="questiondown" unicode="&#xbf;" horiz-adv-x="1042" 
d="M537 774q-66 0 -112 45t-46 109q0 67 46 112t112 45q65 0 110 -45t45 -112q0 -64 -45 -109t-110 -45zM729 98h297q0 -223 -141.5 -365.5t-366.5 -142.5q-214 0 -350.5 116.5t-136.5 309.5q0 163 95.5 282.5t274.5 158.5v194h265v-405h-74q-126 0 -195 -54.5t-69 -144.5
q0 -76 53 -126t139 -50q93 0 151 62.5t58 164.5z" />
    <glyph glyph-name="Agrave" unicode="&#xc0;" horiz-adv-x="1468" 
d="M700 1903l156 -334h-229l-228 334h301zM1430 0h-322l-109 319h-544q-53 -153 -107 -319h-307l522 1454h338zM535 563h383q-114 343 -152 482t-43 221q-6 -89 -43 -230.5t-145 -472.5z" />
    <glyph glyph-name="Aacute" unicode="&#xc1;" horiz-adv-x="1468" 
d="M770 1905h301l-227 -334h-230zM1430 0h-322l-109 319h-544q-53 -153 -107 -319h-307l522 1454h338zM535 563h383q-114 343 -152 482t-43 221q-6 -89 -43 -230.5t-145 -472.5z" />
    <glyph glyph-name="Acircumflex" unicode="&#xc2;" horiz-adv-x="1468" 
d="M737 1726q-35 -66 -104 -172h-262l254 336h221l254 -336h-262q-71 115 -101 172zM1430 0h-322l-109 319h-544q-53 -153 -107 -319h-307l522 1454h338zM535 563h383q-114 343 -152 482t-43 221q-6 -89 -43 -230.5t-145 -472.5z" />
    <glyph glyph-name="Atilde" unicode="&#xc3;" horiz-adv-x="1468" 
d="M612 1659q-57 0 -77 -80l-195 63q22 99 85.5 168.5t170.5 69.5q60 0 141 -39t115 -39q57 0 76 82l202 -63q-25 -118 -89 -179t-162 -61q-53 0 -103.5 19.5t-92 39t-71.5 19.5zM1430 0h-322l-109 319h-544q-53 -153 -107 -319h-307l522 1454h338zM535 563h383
q-114 343 -152 482t-43 221q-6 -89 -43 -230.5t-145 -472.5z" />
    <glyph glyph-name="Adieresis" unicode="&#xc4;" horiz-adv-x="1468" 
d="M526 1585q-61 0 -103 42t-42 104q0 61 41.5 103t103.5 42t104 -42t42 -103t-42 -103.5t-104 -42.5zM944 1585q-61 0 -103 42t-42 104q0 61 41.5 103t103.5 42t104 -42t42 -103t-42 -103.5t-104 -42.5zM1430 0h-322l-109 319h-544q-53 -153 -107 -319h-307l522 1454h338z
M535 563h383q-114 343 -152 482t-43 221q-6 -89 -43 -230.5t-145 -472.5z" />
    <glyph glyph-name="Aring" unicode="&#xc5;" horiz-adv-x="1468" 
d="M735 1575q-97 0 -165 68t-68 165t68 165.5t165 68.5t165.5 -68.5t68.5 -165.5t-68.5 -165t-165.5 -68zM735 1894q-35 0 -59.5 -24.5t-24.5 -61.5q0 -35 24.5 -59.5t59.5 -24.5q37 0 61.5 24.5t24.5 59.5q0 37 -24.5 61.5t-61.5 24.5zM1430 0h-322l-109 319h-544
q-53 -153 -107 -319h-307l522 1454h338zM535 563h383q-114 343 -152 482t-43 221q-6 -89 -43 -230.5t-145 -472.5z" />
    <glyph glyph-name="AE" unicode="&#xc6;" horiz-adv-x="1914" 
d="M1841 1454v-268h-639v-322h527v-262h-527v-334h639v-268h-936v319h-444l-156 -319h-319l735 1454h1120zM897 1208l-315 -643h323v643h-8z" />
    <glyph glyph-name="Ccedilla" unicode="&#xc7;" horiz-adv-x="1327" 
d="M842 1204q-128 0 -234.5 -60t-170.5 -170t-64 -247t64 -247t170.5 -170t234.5 -60q99 0 187.5 28t131 56t68.5 55v-289q-118 -90 -311 -114l-39 -99q64 -14 103.5 -59t39.5 -113q0 -94 -77 -149t-204 -55q-78 0 -157 32l4 170q82 -26 135 -26q34 0 52 11.5t18 29.5
q0 55 -181 55l82 205q-131 20 -245 84t-196 160.5t-129.5 224.5t-47.5 270q0 156 57 295t154.5 238.5t232.5 157t285 57.5q151 0 259 -38.5t165 -82.5v-289q-25 28 -68.5 56t-131.5 55.5t-187 27.5z" />
    <glyph glyph-name="Egrave" unicode="&#xc8;" horiz-adv-x="1146" 
d="M575 1903l156 -334h-229l-228 334h301zM1073 1454v-268h-639v-322h527v-262h-527v-334h639v-268h-936v1454h936z" />
    <glyph glyph-name="Eacute" unicode="&#xc9;" horiz-adv-x="1146" 
d="M645 1905h301l-227 -334h-230zM1073 1454v-268h-639v-322h527v-262h-527v-334h639v-268h-936v1454h936z" />
    <glyph glyph-name="Ecircumflex" unicode="&#xca;" horiz-adv-x="1146" 
d="M612 1726q-35 -66 -104 -172h-262l254 336h221l254 -336h-262q-71 115 -101 172zM1073 1454v-268h-639v-322h527v-262h-527v-334h639v-268h-936v1454h936z" />
    <glyph glyph-name="Edieresis" unicode="&#xcb;" horiz-adv-x="1146" 
d="M399 1585q-61 0 -103 42t-42 104q0 61 42 103t103 42q62 0 104 -42t42 -103t-42.5 -103.5t-103.5 -42.5zM817 1585q-61 0 -103 42t-42 104q0 61 42 103t103 42q62 0 104 -42t42 -103t-42.5 -103.5t-103.5 -42.5zM1073 1454v-268h-639v-322h527v-262h-527v-334h639v-268
h-936v1454h936z" />
    <glyph glyph-name="Igrave" unicode="&#xcc;" horiz-adv-x="573" 
d="M252 1903l156 -334h-230l-227 334h301zM434 0h-297v1454h297v-1454z" />
    <glyph glyph-name="Iacute" unicode="&#xcd;" horiz-adv-x="573" 
d="M395 1571h-229l156 334h301zM434 0h-297v1454h297v-1454z" />
    <glyph glyph-name="Icircumflex" unicode="&#xce;" horiz-adv-x="573" 
d="M289 1726q-31 -58 -105 -172h-262l254 336h221l254 -336h-262q-63 103 -100 172zM434 0h-297v1454h297v-1454z" />
    <glyph glyph-name="Idieresis" unicode="&#xcf;" horiz-adv-x="573" 
d="M76 1585q-62 0 -104 42.5t-42 103.5t42 103t104 42t103.5 -42t41.5 -103q0 -62 -42 -104t-103 -42zM494 1585q-62 0 -104 42.5t-42 103.5t42 103t104 42t103.5 -42t41.5 -103q0 -62 -42 -104t-103 -42zM434 0h-297v1454h297v-1454z" />
    <glyph glyph-name="Eth" unicode="&#xd0;" horiz-adv-x="1533" 
d="M215 1454h502q171 0 311 -56t233.5 -154.5t144 -231t50.5 -285.5t-50.5 -285.5t-144 -231t-233.5 -154.5t-311 -56h-502v621h-215v210h215v623zM512 268h205q202 0 322 117.5t120 341.5t-120 341.5t-322 117.5h-205v-355h256v-210h-256v-353z" />
    <glyph glyph-name="Ntilde" unicode="&#xd1;" horiz-adv-x="1529" 
d="M651 1659q-58 0 -78 -80l-194 63q22 99 85.5 168.5t170.5 69.5q60 0 141 -39t115 -39q57 0 76 82l202 -63q-25 -118 -89 -179t-162 -61q-53 0 -103.5 19.5t-92 39t-71.5 19.5zM1102 1454h289v-1454h-277l-700 979q14 -146 14 -979h-291v1454h277l702 -989
q-10 88 -12 275.5t-2 713.5z" />
    <glyph glyph-name="Ograve" unicode="&#xd2;" horiz-adv-x="1638" 
d="M784 1903l156 -334h-229l-228 334h301zM819 -20q-212 0 -382 96t-265.5 267t-95.5 384t95.5 384t265.5 267.5t382 96.5t382.5 -96.5t266 -267.5t95.5 -384q0 -160 -56 -298.5t-154 -237t-236.5 -155t-297.5 -56.5zM819 258q129 0 232 63.5t159 170.5t56 235t-56 235
t-159 170.5t-232 63.5q-128 0 -231 -63.5t-159 -170.5t-56 -235t56 -235t159 -170.5t231 -63.5z" />
    <glyph glyph-name="Oacute" unicode="&#xd3;" horiz-adv-x="1638" 
d="M928 1571h-230l156 334h301zM819 -20q-212 0 -382 96t-265.5 267t-95.5 384t95.5 384t265.5 267.5t382 96.5t382.5 -96.5t266 -267.5t95.5 -384q0 -160 -56 -298.5t-154 -237t-236.5 -155t-297.5 -56.5zM819 258q129 0 232 63.5t159 170.5t56 235t-56 235t-159 170.5
t-232 63.5q-128 0 -231 -63.5t-159 -170.5t-56 -235t56 -235t159 -170.5t231 -63.5z" />
    <glyph glyph-name="Ocircumflex" unicode="&#xd4;" horiz-adv-x="1638" 
d="M821 1726q-35 -66 -104 -172h-262l254 336h221l254 -336h-262q-71 115 -101 172zM819 1475q212 0 382.5 -96.5t266 -267.5t95.5 -384q0 -160 -56 -298.5t-154 -237t-236.5 -155t-297.5 -56.5q-212 0 -382 96t-265.5 267t-95.5 384t95.5 384t265.5 267.5t382 96.5z
M819 258q129 0 232 63.5t159 170.5t56 235t-56 235t-159 170.5t-232 63.5q-128 0 -231 -63.5t-159 -170.5t-56 -235t56 -235t159 -170.5t231 -63.5z" />
    <glyph glyph-name="Otilde" unicode="&#xd5;" horiz-adv-x="1638" 
d="M618 1579l-194 63q22 99 85.5 168.5t170.5 69.5q60 0 141 -39t115 -39q57 0 76 82l202 -63q-25 -118 -89 -179t-162 -61q-53 0 -103.5 19.5t-92 39t-71.5 19.5q-58 0 -78 -80zM819 -20q-212 0 -382 96t-265.5 267t-95.5 384t95.5 384t265.5 267.5t382 96.5t382.5 -96.5
t266 -267.5t95.5 -384q0 -160 -56 -298.5t-154 -237t-236.5 -155t-297.5 -56.5zM819 258q129 0 232 63.5t159 170.5t56 235t-56 235t-159 170.5t-232 63.5q-128 0 -231 -63.5t-159 -170.5t-56 -235t56 -235t159 -170.5t231 -63.5z" />
    <glyph glyph-name="Odieresis" unicode="&#xd6;" horiz-adv-x="1638" 
d="M610 1585q-61 0 -103 42t-42 104q0 61 41.5 103t103.5 42t104 -42t42 -103t-42 -103.5t-104 -42.5zM1028 1585q-61 0 -103 42t-42 104q0 61 41.5 103t103.5 42t104 -42t42 -103t-42 -103.5t-104 -42.5zM819 -20q-212 0 -382 96t-265.5 267t-95.5 384t95.5 384
t265.5 267.5t382 96.5t382.5 -96.5t266 -267.5t95.5 -384q0 -160 -56 -298.5t-154 -237t-236.5 -155t-297.5 -56.5zM819 258q129 0 232 63.5t159 170.5t56 235t-56 235t-159 170.5t-232 63.5q-128 0 -231 -63.5t-159 -170.5t-56 -235t56 -235t159 -170.5t231 -63.5z" />
    <glyph glyph-name="multiply" unicode="&#xd7;" horiz-adv-x="964" 
d="M676 547l215 -215l-199 -199l-215 215l-207 -207l-186 185l207 209l-215 215l198 198l215 -215l211 211l185 -188z" />
    <glyph glyph-name="Oslash" unicode="&#xd8;" horiz-adv-x="1654" 
d="M1556 1495l-180 -244q95 -100 147 -234t52 -290q0 -160 -56 -298.5t-154 -237t-236.5 -155t-297.5 -56.5q-192 0 -346 77l-71 -98h-318l187 250q-195 208 -195 518q0 213 95.5 384t265.5 267.5t382 96.5q183 0 340 -74l70 94h315zM385 727q0 -152 80 -274l530 712
q-76 31 -164 31q-128 0 -231 -63.5t-159 -170.5t-56 -235zM831 258q194 0 320.5 136.5t126.5 332.5q0 157 -84 281l-532 -717q84 -33 169 -33z" />
    <glyph glyph-name="Ugrave" unicode="&#xd9;" horiz-adv-x="1484" 
d="M707 1903l155 -334h-229l-227 334h301zM741 -20q-283 0 -445.5 167t-162.5 474v833h297v-842q0 -178 83 -270t228 -92q146 0 229 91.5t83 270.5v842h299v-833q0 -307 -163 -474t-448 -167z" />
    <glyph glyph-name="Uacute" unicode="&#xda;" horiz-adv-x="1484" 
d="M850 1571h-229l155 334h301zM741 -20q-283 0 -445.5 167t-162.5 474v833h297v-842q0 -178 83 -270t228 -92q146 0 229 91.5t83 270.5v842h299v-833q0 -307 -163 -474t-448 -167z" />
    <glyph glyph-name="Ucircumflex" unicode="&#xdb;" horiz-adv-x="1484" 
d="M743 1726q-35 -66 -104 -172h-262l254 336h221l254 -336h-262q-71 115 -101 172zM1053 612v842h299v-833q0 -307 -163 -474t-448 -167q-283 0 -445.5 167t-162.5 474v833h297v-842q0 -178 83 -270t228 -92q146 0 229 91.5t83 270.5z" />
    <glyph glyph-name="Udieresis" unicode="&#xdc;" horiz-adv-x="1484" 
d="M532 1585q-61 0 -103 42t-42 104q0 61 41.5 103t103.5 42t104 -42t42 -103t-42 -103.5t-104 -42.5zM950 1585q-61 0 -103 42t-42 104q0 61 41.5 103t103.5 42t104 -42t42 -103t-42 -103.5t-104 -42.5zM741 -20q-283 0 -445.5 167t-162.5 474v833h297v-842q0 -178 83 -270
t228 -92q146 0 229 91.5t83 270.5v842h299v-833q0 -307 -163 -474t-448 -167z" />
    <glyph glyph-name="Yacute" unicode="&#xdd;" horiz-adv-x="1335" 
d="M702 1905h302l-228 -334h-229zM991 1454h332l-506 -864v-590h-297v590l-508 864h340q153 -267 223.5 -404t96.5 -219q26 80 96.5 217t222.5 406z" />
    <glyph glyph-name="Thorn" unicode="&#xde;" horiz-adv-x="1310" 
d="M434 1237h291q239 0 389 -129.5t150 -359.5t-154 -368t-401 -138h-275v-242h-297v1454h297v-217zM434 512h291q108 0 175 60t67 167q0 106 -67.5 167t-174.5 61h-291v-455z" />
    <glyph glyph-name="germandbls" unicode="&#xdf;" horiz-adv-x="1314" 
d="M999 856q131 -37 206 -147t75 -265q0 -87 -28 -166t-82.5 -143t-144.5 -102.5t-204 -38.5q-170 0 -270 74v280q113 -82 231 -82q101 0 155 50.5t54 134.5q0 102 -84.5 162.5t-226.5 60.5h-33v237h15q74 0 117.5 48.5t43.5 119.5q0 78 -50.5 126t-143.5 48
q-101 0 -164.5 -64.5t-63.5 -184.5v-1004h-290v1004q0 83 17.5 157.5t57.5 142t99 115.5t147.5 76.5t198.5 28.5q97 0 177.5 -22t136.5 -60t94.5 -89.5t56.5 -109t18 -119.5q0 -81 -29 -152.5t-86 -115.5z" />
    <glyph glyph-name="agrave" unicode="&#xe0;" horiz-adv-x="1359" 
d="M659 1520l156 -334h-229l-228 334h301zM954 907l47 164h246v-1071h-293v184q-40 -95 -139 -149.5t-233 -54.5q-158 0 -277 76.5t-179 202.5t-60 280q0 243 144 399t388 156q105 0 201.5 -47t154.5 -134v-6zM657 240q129 0 212 84t83 213q0 128 -83 210t-212 82
q-131 0 -215 -81.5t-84 -210.5q0 -130 84 -213.5t215 -83.5z" />
    <glyph glyph-name="aacute" unicode="&#xe1;" horiz-adv-x="1359" 
d="M729 1520h301l-227 -334h-230zM954 907l47 164h246v-1071h-293v184q-40 -95 -139 -149.5t-233 -54.5q-158 0 -277 76.5t-179 202.5t-60 280q0 243 144 399t388 156q105 0 201.5 -47t154.5 -134v-6zM657 240q129 0 212 84t83 213q0 128 -83 210t-212 82q-131 0 -215 -81.5
t-84 -210.5q0 -130 84 -213.5t215 -83.5z" />
    <glyph glyph-name="acircumflex" unicode="&#xe2;" horiz-adv-x="1359" 
d="M696 1341q-41 -78 -104 -170h-262l254 334h221l254 -334h-262q-67 105 -101 170zM954 907l47 164h246v-1071h-293v184q-40 -95 -139 -149.5t-233 -54.5q-158 0 -277 76.5t-179 202.5t-60 280q0 243 144 399t388 156q105 0 201.5 -47t154.5 -134v-6zM657 240q129 0 212 84
t83 213q0 128 -83 210t-212 82q-131 0 -215 -81.5t-84 -210.5q0 -130 84 -213.5t215 -83.5z" />
    <glyph glyph-name="atilde" unicode="&#xe3;" horiz-adv-x="1359" 
d="M571 1276q-57 0 -77 -80l-195 64q22 99 85.5 168t170.5 69q60 0 141 -39t115 -39q57 0 76 82l203 -63q-25 -118 -89 -179t-163 -61q-53 0 -103.5 19.5t-92 39t-71.5 19.5zM954 907l47 164h246v-1071h-293v184q-40 -95 -139 -149.5t-233 -54.5q-158 0 -277 76.5
t-179 202.5t-60 280q0 243 144 399t388 156q105 0 201.5 -47t154.5 -134v-6zM657 240q129 0 212 84t83 213q0 128 -83 210t-212 82q-131 0 -215 -81.5t-84 -210.5q0 -130 84 -213.5t215 -83.5z" />
    <glyph glyph-name="adieresis" unicode="&#xe4;" horiz-adv-x="1359" 
d="M485 1202q-61 0 -103 42t-42 104t42 103.5t103 41.5q62 0 104 -42t42 -103q0 -62 -42.5 -104t-103.5 -42zM903 1202q-61 0 -103 42t-42 104t42 103.5t103 41.5q62 0 104 -42t42 -103q0 -62 -42.5 -104t-103.5 -42zM954 907l47 164h246v-1071h-293v184
q-40 -95 -139 -149.5t-233 -54.5q-158 0 -277 76.5t-179 202.5t-60 280q0 243 144 399t388 156q105 0 201.5 -47t154.5 -134v-6zM657 240q129 0 212 84t83 213q0 128 -83 210t-212 82q-131 0 -215 -81.5t-84 -210.5q0 -130 84 -213.5t215 -83.5z" />
    <glyph glyph-name="aring" unicode="&#xe5;" horiz-adv-x="1359" 
d="M694 1194q-97 0 -165 67t-68 164t68 165.5t165 68.5t165.5 -68.5t68.5 -165.5q0 -96 -68.5 -163.5t-165.5 -67.5zM694 1511q-35 0 -59.5 -24.5t-24.5 -61.5q0 -35 24.5 -59.5t59.5 -24.5q37 0 61.5 24.5t24.5 59.5q0 37 -24.5 61.5t-61.5 24.5zM954 907l47 164h246v-1071
h-293v184q-40 -95 -139 -149.5t-233 -54.5q-158 0 -277 76.5t-179 202.5t-60 280q0 243 144 399t388 156q105 0 201.5 -47t154.5 -134v-6zM657 240q129 0 212 84t83 213q0 128 -83 210t-212 82q-131 0 -215 -81.5t-84 -210.5q0 -130 84 -213.5t215 -83.5z" />
    <glyph glyph-name="ae" unicode="&#xe6;" horiz-adv-x="1935" 
d="M1870 428h-813v-6q12 -96 90.5 -157.5t189.5 -61.5q92 0 158 38.5t100 104.5l254 -27q-43 -154 -186 -255t-328 -101q-141 0 -258 52t-194 147q-111 -182 -398 -182q-199 0 -320.5 94.5t-121.5 261.5t116.5 261.5t299.5 94.5q100 0 181.5 -29t125.5 -81v10
q0 256 -285 256q-197 0 -375 -78v244q189 80 431 80q274 0 409 -154q150 137 373 137q123 0 225.5 -41.5t177.5 -121t114 -204t34 -282.5zM1319 844q-107 0 -181 -58.5t-83 -152.5l2 -2h518q-5 94 -76 153.5t-180 59.5zM549 193q93 0 154.5 43t62.5 110q-2 62 -64 104
t-153 42q-90 0 -149.5 -41.5t-59.5 -108.5t59 -108t150 -41z" />
    <glyph glyph-name="ccedilla" unicode="&#xe7;" horiz-adv-x="1052" 
d="M670 829q-135 0 -224.5 -84t-89.5 -210t89.5 -210.5t224.5 -84.5q171 0 295 118v-278q-105 -83 -256 -98l-37 -95q64 -14 103.5 -59t39.5 -113q0 -94 -76.5 -149t-203.5 -55q-79 0 -158 32l4 170q82 -26 135 -26q34 0 52 11.5t18 29.5q0 55 -180 55l83 211
q-197 43 -310 189t-113 354q0 120 40.5 222.5t114.5 176.5t182 116t238 42q194 0 324 -103v-278q-122 116 -295 116z" />
    <glyph glyph-name="egrave" unicode="&#xe8;" horiz-adv-x="1234" 
d="M584 1520l155 -334h-229l-227 334h301zM618 1094q123 0 225.5 -41.5t177.5 -121.5t114 -204.5t34 -282.5h-813q11 -98 90 -161.5t191 -63.5q92 0 158 38.5t100 104.5l254 -26q-43 -154 -186 -255t-328 -101q-251 0 -410 152.5t-159 399.5q0 159 70 287.5t196.5 201.5
t285.5 73zM618 860q-109 0 -182.5 -59.5t-81.5 -153.5h520q-5 94 -76 153.5t-180 59.5z" />
    <glyph glyph-name="eacute" unicode="&#xe9;" horiz-adv-x="1234" 
d="M653 1520h301l-227 -334h-229zM618 1094q123 0 225.5 -41.5t177.5 -121.5t114 -204.5t34 -282.5h-813q11 -98 90 -161.5t191 -63.5q92 0 158 38.5t100 104.5l254 -26q-43 -154 -186 -255t-328 -101q-251 0 -410 152.5t-159 399.5q0 159 70 287.5t196.5 201.5t285.5 73z
M618 860q-109 0 -182.5 -59.5t-81.5 -153.5h520q-5 94 -76 153.5t-180 59.5z" />
    <glyph glyph-name="ecircumflex" unicode="&#xea;" horiz-adv-x="1234" 
d="M621 1341q-38 -72 -105 -170h-262l254 334h221l254 -334h-262q-60 95 -100 170zM618 1094q123 0 225.5 -41.5t177.5 -121.5t114 -204.5t34 -282.5h-813q11 -98 90 -161.5t191 -63.5q92 0 158 38.5t100 104.5l254 -26q-43 -154 -186 -255t-328 -101q-251 0 -410 152.5
t-159 399.5q0 159 70 287.5t196.5 201.5t285.5 73zM618 860q-109 0 -182.5 -59.5t-81.5 -153.5h520q-5 94 -76 153.5t-180 59.5z" />
    <glyph glyph-name="edieresis" unicode="&#xeb;" horiz-adv-x="1234" 
d="M410 1202q-62 0 -104 42t-42 104q0 61 42 103t104 42t103.5 -41.5t41.5 -103.5t-42 -104t-103 -42zM827 1202q-61 0 -103 42t-42 104t42 103.5t103 41.5q62 0 104 -42t42 -103q0 -62 -42.5 -104t-103.5 -42zM618 1094q123 0 225.5 -41.5t177.5 -121.5t114 -204.5
t34 -282.5h-813q11 -98 90 -161.5t191 -63.5q92 0 158 38.5t100 104.5l254 -26q-43 -154 -186 -255t-328 -101q-251 0 -410 152.5t-159 399.5q0 159 70 287.5t196.5 201.5t285.5 73zM618 860q-109 0 -182.5 -59.5t-81.5 -153.5h520q-5 94 -76 153.5t-180 59.5z" />
    <glyph glyph-name="igrave" unicode="&#xec;" horiz-adv-x="512" 
d="M221 1520l156 -334h-230l-227 334h301zM111 1071h290v-1071h-290v1071z" />
    <glyph glyph-name="iacute" unicode="&#xed;" horiz-adv-x="512" 
d="M365 1186h-230l156 334h301zM111 1071h290v-1071h-290v1071z" />
    <glyph glyph-name="icircumflex" unicode="&#xee;" horiz-adv-x="512" 
d="M258 1341q-41 -78 -104 -170h-263l254 334h222l254 -334h-263q-60 95 -100 170zM401 0h-290v1071h290v-1071z" />
    <glyph glyph-name="idieresis" unicode="&#xef;" horiz-adv-x="512" 
d="M47 1202q-61 0 -103 42t-42 104t42 103.5t103 41.5q62 0 104 -42t42 -103q0 -62 -42.5 -104t-103.5 -42zM465 1202q-61 0 -103.5 42t-42.5 104q0 61 42 103t104 42q61 0 103 -41.5t42 -103.5t-42 -104t-103 -42zM111 1071h290v-1071h-290v1071z" />
    <glyph glyph-name="eth" unicode="&#xf0;" horiz-adv-x="1230" 
d="M823 1282l168 -207q195 -245 195 -495q0 -175 -74.5 -313t-205.5 -214t-296 -76q-249 0 -409 152t-160 387q0 165 67.5 284t183 177.5t265.5 58.5q75 0 137 -30l-135 168l-342 -142v199l221 92l-174 213h354l84 -104l275 112v-198zM610 250q125 0 206 77.5t81 198.5
q0 123 -80.5 201t-206.5 78q-122 0 -201 -78t-79 -201q0 -121 79 -198.5t201 -77.5z" />
    <glyph glyph-name="ntilde" unicode="&#xf1;" horiz-adv-x="1265" 
d="M518 1276q-58 0 -78 -80l-194 64q22 99 85.5 168t170.5 69q60 0 141 -39t115 -39q57 0 76 82l202 -63q-25 -118 -89 -179t-163 -61q-53 0 -103 19.5t-91.5 39t-71.5 19.5zM735 1094q87 0 163 -28t137 -83t96.5 -147t35.5 -211v-625h-295v580q0 74 -19 128t-52.5 82.5
t-71.5 41t-84 12.5q-110 0 -174.5 -70t-64.5 -205v-569h-295v1071h245l45 -153q108 176 334 176z" />
    <glyph glyph-name="ograve" unicode="&#xf2;" horiz-adv-x="1286" 
d="M606 1520l156 -334h-230l-227 334h301zM643 -20q-252 0 -414.5 156.5t-162.5 400.5q0 119 43 222.5t119 177t183.5 115.5t231.5 42q166 0 298.5 -71.5t207 -199t74.5 -286.5q0 -161 -74.5 -288t-207 -198t-298.5 -71zM643 242q129 0 213 83.5t84 211.5q0 129 -84 211.5
t-213 82.5q-128 0 -212.5 -83t-84.5 -211q0 -127 84.5 -211t212.5 -84z" />
    <glyph glyph-name="oacute" unicode="&#xf3;" horiz-adv-x="1286" 
d="M750 1186h-230l156 334h301zM643 -20q-252 0 -414.5 156.5t-162.5 400.5q0 119 43 222.5t119 177t183.5 115.5t231.5 42q166 0 298.5 -71.5t207 -199t74.5 -286.5q0 -161 -74.5 -288t-207 -198t-298.5 -71zM643 242q129 0 213 83.5t84 211.5q0 129 -84 211.5t-213 82.5
q-128 0 -212.5 -83t-84.5 -211q0 -127 84.5 -211t212.5 -84z" />
    <glyph glyph-name="ocircumflex" unicode="&#xf4;" horiz-adv-x="1286" 
d="M643 1341q-41 -78 -104 -170h-263l254 334h222l254 -334h-263q-60 95 -100 170zM643 1094q166 0 298.5 -71.5t207 -199t74.5 -286.5q0 -161 -74.5 -288t-207 -198t-298.5 -71q-252 0 -414.5 156.5t-162.5 400.5q0 119 43 222.5t119 177t183.5 115.5t231.5 42zM643 242
q129 0 213 83.5t84 211.5q0 129 -84 211.5t-213 82.5q-128 0 -212.5 -83t-84.5 -211q0 -127 84.5 -211t212.5 -84z" />
    <glyph glyph-name="otilde" unicode="&#xf5;" horiz-adv-x="1286" 
d="M440 1196l-194 64q22 99 85.5 168t170.5 69q60 0 141 -39t115 -39q57 0 76 82l202 -63q-25 -118 -89 -179t-163 -61q-53 0 -103 19.5t-91.5 39t-71.5 19.5q-58 0 -78 -80zM643 -20q-252 0 -414.5 156.5t-162.5 400.5q0 119 43 222.5t119 177t183.5 115.5t231.5 42
q166 0 298.5 -71.5t207 -199t74.5 -286.5q0 -161 -74.5 -288t-207 -198t-298.5 -71zM643 242q129 0 213 83.5t84 211.5q0 129 -84 211.5t-213 82.5q-128 0 -212.5 -83t-84.5 -211q0 -127 84.5 -211t212.5 -84z" />
    <glyph glyph-name="odieresis" unicode="&#xf6;" horiz-adv-x="1286" 
d="M432 1202q-61 0 -103 42t-42 104t41.5 103.5t103.5 41.5t104 -42t42 -103q0 -62 -42 -104t-104 -42zM850 1202q-61 0 -103 42t-42 104t41.5 103.5t103.5 41.5t103.5 -41.5t41.5 -103.5t-42 -104t-103 -42zM643 -20q-252 0 -414.5 156.5t-162.5 400.5q0 119 43 222.5
t119 177t183.5 115.5t231.5 42q166 0 298.5 -71.5t207 -199t74.5 -286.5q0 -161 -74.5 -288t-207 -198t-298.5 -71zM643 242q129 0 213 83.5t84 211.5q0 129 -84 211.5t-213 82.5q-128 0 -212.5 -83t-84.5 -211q0 -127 84.5 -211t212.5 -84z" />
    <glyph glyph-name="divide" unicode="&#xf7;" horiz-adv-x="1040" 
d="M520 745q-61 0 -103 42t-42 104q0 61 41.5 103t103.5 42q60 0 102 -42t42 -103t-42 -103.5t-102 -42.5zM954 416h-870v264h870v-264zM520 57q-61 0 -103 42t-42 104q0 61 41.5 103t103.5 42q60 0 102 -42t42 -103t-42 -103.5t-102 -42.5z" />
    <glyph glyph-name="oslash" unicode="&#xf8;" horiz-adv-x="1286" 
d="M958 1128h265l-156 -200q156 -159 156 -391q0 -161 -74.5 -288t-207 -198t-298.5 -71q-145 0 -260 53l-72 -92h-264l164 213q-145 154 -145 383q0 119 43 222.5t119 177t183.5 115.5t231.5 42q131 0 250 -50zM346 537q0 -89 41 -154l336 438q-42 10 -80 10
q-128 0 -212.5 -83t-84.5 -211zM940 537q0 93 -45 163l-342 -446q41 -12 90 -12q129 0 213 83.5t84 211.5z" />
    <glyph glyph-name="ugrave" unicode="&#xf9;" horiz-adv-x="1263" 
d="M586 1520l155 -334h-229l-227 334h301zM858 500v571h293v-1071h-246l-41 158q-106 -181 -336 -181q-86 0 -161.5 28t-136.5 83t-96.5 147t-35.5 211v625h291v-579q0 -74 19.5 -128t53.5 -82.5t72.5 -41.5t83.5 -13q109 0 174.5 70t65.5 203z" />
    <glyph glyph-name="uacute" unicode="&#xfa;" horiz-adv-x="1263" 
d="M655 1520h301l-227 -334h-229zM858 500v571h293v-1071h-246l-41 158q-106 -181 -336 -181q-86 0 -161.5 28t-136.5 83t-96.5 147t-35.5 211v625h291v-579q0 -74 19.5 -128t53.5 -82.5t72.5 -41.5t83.5 -13q109 0 174.5 70t65.5 203z" />
    <glyph glyph-name="ucircumflex" unicode="&#xfb;" horiz-adv-x="1263" 
d="M621 1341q-38 -72 -105 -170h-262l254 334h221l254 -334h-262q-60 95 -100 170zM858 500v571h293v-1071h-246l-41 158q-106 -181 -336 -181q-86 0 -161.5 28t-136.5 83t-96.5 147t-35.5 211v625h291v-579q0 -74 19.5 -128t53.5 -82.5t72.5 -41.5t83.5 -13q109 0 174.5 70
t65.5 203z" />
    <glyph glyph-name="udieresis" unicode="&#xfc;" horiz-adv-x="1263" 
d="M410 1202q-62 0 -104 42t-42 104q0 61 42 103t104 42t103.5 -41.5t41.5 -103.5t-42 -104t-103 -42zM827 1202q-61 0 -103 42t-42 104t42 103.5t103 41.5q62 0 104 -42t42 -103q0 -62 -42.5 -104t-103.5 -42zM858 500v571h293v-1071h-246l-41 158q-106 -181 -336 -181
q-86 0 -161.5 28t-136.5 83t-96.5 147t-35.5 211v625h291v-579q0 -74 19.5 -128t53.5 -82.5t72.5 -41.5t83.5 -13q109 0 174.5 70t65.5 203z" />
    <glyph glyph-name="yacute" unicode="&#xfd;" horiz-adv-x="1230" 
d="M653 1520h301l-227 -334h-229zM897 1071h309l-606 -1542h-303l178 461l-448 1081h315q144 -355 205 -525.5t78 -269.5q17 99 75 268t197 527z" />
    <glyph glyph-name="thorn" unicode="&#xfe;" horiz-adv-x="1353" 
d="M772 1092q158 0 277 -77.5t179 -203.5t60 -279q0 -243 -144 -399t-388 -156q-104 0 -200.5 46.5t-154.5 132.5v-627h-290v2007h290v-647q41 94 140 148.5t231 54.5zM696 240q131 0 215 83t84 212q0 130 -84 212t-215 82q-129 0 -212 -82.5t-83 -211.5q0 -128 83 -211.5
t212 -83.5z" />
    <glyph glyph-name="ydieresis" unicode="&#xff;" horiz-adv-x="1230" 
d="M408 1202q-62 0 -104 42t-42 104q0 61 42 103t104 42t103.5 -41.5t41.5 -103.5t-42 -104t-103 -42zM825 1202q-61 0 -103 42t-42 104t42 103.5t103 41.5q62 0 104 -42t42 -103q0 -62 -42.5 -104t-103.5 -42zM897 1071h309l-606 -1542h-303l178 461l-448 1081h315
q144 -355 205 -525.5t78 -269.5q17 99 75 268t197 527z" />
    <glyph glyph-name="Amacron" unicode="&#x100;" horiz-adv-x="1468" 
d="M371 1812h729v-229h-729v229zM1430 0h-322l-109 319h-544q-53 -153 -107 -319h-307l522 1454h338zM535 563h383q-114 343 -152 482t-43 221q-6 -89 -43 -230.5t-145 -472.5z" />
    <glyph glyph-name="amacron" unicode="&#x101;" horiz-adv-x="1359" 
d="M330 1430h729v-230h-729v230zM954 907l47 164h246v-1071h-293v184q-40 -95 -139 -149.5t-233 -54.5q-158 0 -277 76.5t-179 202.5t-60 280q0 243 144 399t388 156q105 0 201.5 -47t154.5 -134v-6zM657 240q129 0 212 84t83 213q0 128 -83 210t-212 82q-131 0 -215 -81.5
t-84 -210.5q0 -130 84 -213.5t215 -83.5z" />
    <glyph glyph-name="Abreve" unicode="&#x102;" horiz-adv-x="1468" 
d="M735 1546q-52 0 -102 10.5t-98.5 35.5t-84.5 62t-58.5 94.5t-22.5 127.5h223q0 -56 35.5 -97.5t107.5 -41.5q73 0 108.5 41t35.5 98h225q0 -87 -33.5 -153.5t-88.5 -103.5t-117.5 -55t-129.5 -18zM1430 0h-322l-109 319h-544q-53 -153 -107 -319h-307l522 1454h338z
M535 563h383q-114 343 -152 482t-43 221q-6 -89 -43 -230.5t-145 -472.5z" />
    <glyph glyph-name="abreve" unicode="&#x103;" horiz-adv-x="1359" 
d="M694 1163q-52 0 -102 10.5t-98.5 35.5t-84.5 62t-58.5 94.5t-22.5 127.5h223q0 -56 35.5 -97.5t107.5 -41.5q73 0 108.5 41t35.5 98h225q0 -87 -33.5 -153.5t-88.5 -103.5t-117.5 -55t-129.5 -18zM954 907l47 164h246v-1071h-293v184q-40 -95 -139 -149.5t-233 -54.5
q-158 0 -277 76.5t-179 202.5t-60 280q0 243 144 399t388 156q105 0 201.5 -47t154.5 -134v-6zM657 240q129 0 212 84t83 213q0 128 -83 210t-212 82q-131 0 -215 -81.5t-84 -210.5q0 -130 84 -213.5t215 -83.5z" />
    <glyph glyph-name="Aogonek" unicode="&#x104;" horiz-adv-x="1468" 
d="M1303 -287q70 0 141 60v-191q-82 -67 -211 -67q-115 0 -181.5 62t-66.5 165q0 66 33 135t90 123l-109 319h-544q-53 -153 -107 -319h-307l522 1454h338l529 -1454h-84q-70 -49 -105 -102t-35 -93q0 -42 27 -67t70 -25zM535 563h383q-114 343 -152 482t-43 221
q-6 -89 -43 -230.5t-145 -472.5z" />
    <glyph glyph-name="aogonek" unicode="&#x105;" horiz-adv-x="1359" 
d="M1149 -287q70 0 141 60v-191q-82 -67 -211 -67q-115 0 -181.5 62t-66.5 165q0 66 33 135t90 123v184q-40 -95 -139 -149.5t-233 -54.5q-158 0 -277 76.5t-179 202.5t-60 280q0 243 144 399t388 156q105 0 201.5 -47t154.5 -134v-6l47 164h246v-1071h-55
q-70 -49 -104.5 -102t-34.5 -93q0 -42 26.5 -67t69.5 -25zM657 240q129 0 212 84t83 213q0 128 -83 210t-212 82q-131 0 -215 -81.5t-84 -210.5q0 -130 84 -213.5t215 -83.5z" />
    <glyph glyph-name="Cacute" unicode="&#x106;" horiz-adv-x="1327" 
d="M901 1571h-229l155 334h301zM805 -20q-150 0 -285 57.5t-232.5 156.5t-154.5 238t-57 295t57 295t154.5 238.5t232.5 157t285 57.5q151 0 259 -38.5t165 -82.5v-289q-25 28 -68.5 56t-131.5 55.5t-187 27.5q-128 0 -234.5 -60t-170.5 -170t-64 -247t64 -247t170.5 -170
t234.5 -60q99 0 187.5 28t131 56t68.5 55v-289q-57 -44 -165 -82t-259 -38z" />
    <glyph glyph-name="cacute" unicode="&#x107;" horiz-adv-x="1052" 
d="M721 1186h-229l155 334h301zM641 -23q-261 0 -418 156t-157 404q0 120 40.5 222.5t114.5 176.5t182 116t238 42q194 0 324 -103v-278q-122 116 -295 116q-135 0 -224.5 -84t-89.5 -210t89.5 -210.5t224.5 -84.5q171 0 295 118v-278q-130 -103 -324 -103z" />
    <glyph glyph-name="Cdotaccent" unicode="&#x10a;" horiz-adv-x="1327" 
d="M793 1561q-68 0 -116 48t-48 115q0 69 48 116.5t116 47.5t115.5 -47.5t47.5 -116.5q0 -68 -48 -115.5t-115 -47.5zM805 -20q-150 0 -285 57.5t-232.5 156.5t-154.5 238t-57 295t57 295t154.5 238.5t232.5 157t285 57.5q151 0 259 -38.5t165 -82.5v-289q-25 28 -68.5 56
t-131.5 55.5t-187 27.5q-128 0 -234.5 -60t-170.5 -170t-64 -247t64 -247t170.5 -170t234.5 -60q99 0 187.5 28t131 56t68.5 55v-289q-57 -44 -165 -82t-259 -38z" />
    <glyph glyph-name="cdotaccent" unicode="&#x10b;" horiz-adv-x="1052" 
d="M612 1178q-68 0 -115.5 48t-47.5 115q0 69 47.5 116.5t115.5 47.5t116 -47.5t48 -116.5q0 -67 -48 -115t-116 -48zM641 -23q-261 0 -418 156t-157 404q0 120 40.5 222.5t114.5 176.5t182 116t238 42q194 0 324 -103v-278q-122 116 -295 116q-135 0 -224.5 -84t-89.5 -210
t89.5 -210.5t224.5 -84.5q171 0 295 118v-278q-130 -103 -324 -103z" />
    <glyph glyph-name="Ccaron" unicode="&#x10c;" horiz-adv-x="1327" 
d="M1157 1894l-254 -333h-221l-254 333h262q86 -134 103 -211q17 86 102 211h262zM842 1204q-128 0 -234.5 -60t-170.5 -170t-64 -247t64 -247t170.5 -170t234.5 -60q99 0 187.5 28t131 56t68.5 55v-289q-57 -44 -165 -82t-259 -38q-150 0 -285 57.5t-232.5 156.5
t-154.5 238t-57 295t57 295t154.5 238.5t232.5 157t285 57.5q151 0 259 -38.5t165 -82.5v-289q-25 28 -68.5 56t-131.5 55.5t-187 27.5z" />
    <glyph glyph-name="ccaron" unicode="&#x10d;" horiz-adv-x="1052" 
d="M977 1511l-254 -335h-221l-254 335h262q84 -130 102 -213q10 51 33 96.5t70 116.5h262zM66 537q0 120 40.5 222.5t114.5 176.5t182 116t238 42q194 0 324 -103v-278q-122 116 -295 116q-135 0 -224.5 -84t-89.5 -210t89.5 -210.5t224.5 -84.5q171 0 295 118v-278
q-130 -103 -324 -103q-261 0 -418 156t-157 404z" />
    <glyph glyph-name="Dcaron" unicode="&#x10e;" horiz-adv-x="1456" 
d="M973 1894l-254 -333h-221l-254 333h262q46 -72 69 -118.5t33 -92.5q10 50 33.5 96.5t69.5 114.5h262zM137 1454h502q171 0 311 -56t233.5 -154.5t144 -231t50.5 -285.5t-50.5 -285.5t-144 -231t-233.5 -154.5t-311 -56h-502v1454zM434 268h205q202 0 322 117.5t120 341.5
t-120 341.5t-322 117.5h-205v-918z" />
    <glyph glyph-name="dcaron" unicode="&#x10f;" horiz-adv-x="1622" 
d="M954 913v623h291v-1536h-291v184q-40 -95 -139 -149.5t-233 -54.5q-158 0 -277 76.5t-179 202.5t-60 280q0 243 144 399t388 156q105 0 201.5 -47t154.5 -134zM1290 1069l121 467h299l-192 -467h-228zM657 240q129 0 212 84t83 213q0 128 -83 210t-212 82
q-131 0 -215 -81.5t-84 -210.5q0 -130 84 -213.5t215 -83.5z" />
    <glyph glyph-name="Dcroat" unicode="&#x110;" horiz-adv-x="1533" 
d="M215 1454h502q171 0 311 -56t233.5 -154.5t144 -231t50.5 -285.5t-50.5 -285.5t-144 -231t-233.5 -154.5t-311 -56h-502v621h-215v210h215v623zM512 268h205q202 0 322 117.5t120 341.5t-120 341.5t-322 117.5h-205v-355h256v-210h-256v-353z" />
    <glyph glyph-name="dcroat" unicode="&#x111;" horiz-adv-x="1355" 
d="M1245 1360h238v-211h-238v-1149h-291v184q-40 -95 -139 -149.5t-233 -54.5q-158 0 -277 76.5t-179 202.5t-60 280q0 243 144 399t388 156q105 0 201.5 -47t154.5 -134v236h-239v211h239v176h291v-176zM657 240q129 0 212 84t83 213q0 128 -83 210t-212 82
q-131 0 -215 -81.5t-84 -210.5q0 -130 84 -213.5t215 -83.5z" />
    <glyph glyph-name="Emacron" unicode="&#x112;" horiz-adv-x="1146" 
d="M244 1812h729v-229h-729v229zM1073 1454v-268h-639v-322h527v-262h-527v-334h639v-268h-936v1454h936z" />
    <glyph glyph-name="emacron" unicode="&#x113;" horiz-adv-x="1234" 
d="M252 1430h729v-230h-729v230zM618 1094q123 0 225.5 -41.5t177.5 -121.5t114 -204.5t34 -282.5h-813q11 -98 90 -161.5t191 -63.5q92 0 158 38.5t100 104.5l254 -26q-43 -154 -186 -255t-328 -101q-251 0 -410 152.5t-159 399.5q0 159 70 287.5t196.5 201.5t285.5 73z
M618 860q-109 0 -182.5 -59.5t-81.5 -153.5h520q-5 94 -76 153.5t-180 59.5z" />
    <glyph glyph-name="Edotaccent" unicode="&#x116;" horiz-adv-x="1146" 
d="M610 1561q-68 0 -116 48t-48 115q0 69 48 116.5t116 47.5t116 -47.5t48 -116.5q0 -67 -48 -115t-116 -48zM1073 1454v-268h-639v-322h527v-262h-527v-334h639v-268h-936v1454h936z" />
    <glyph glyph-name="edotaccent" unicode="&#x117;" horiz-adv-x="1234" 
d="M618 1178q-68 0 -115.5 48t-47.5 115q0 69 47.5 116.5t115.5 47.5t116 -47.5t48 -116.5q0 -67 -48 -115t-116 -48zM618 1094q123 0 225.5 -41.5t177.5 -121.5t114 -204.5t34 -282.5h-813q11 -98 90 -161.5t191 -63.5q92 0 158 38.5t100 104.5l254 -26q-43 -154 -186 -255
t-328 -101q-251 0 -410 152.5t-159 399.5q0 159 70 287.5t196.5 201.5t285.5 73zM618 860q-109 0 -182.5 -59.5t-81.5 -153.5h520q-5 94 -76 153.5t-180 59.5z" />
    <glyph glyph-name="Eogonek" unicode="&#x118;" horiz-adv-x="1146" 
d="M1022 -287q70 0 141 60v-191q-82 -67 -211 -67q-115 0 -181 62t-66 165q0 66 32.5 135t89.5 123h-690v1454h936v-268h-639v-322h527v-262h-527v-334h639v-268h-8q-70 -49 -104.5 -102t-34.5 -93q0 -42 26.5 -67t69.5 -25z" />
    <glyph glyph-name="eogonek" unicode="&#x119;" horiz-adv-x="1234" 
d="M618 1094q123 0 225.5 -41.5t177.5 -121.5t114 -204.5t34 -282.5h-813q11 -98 90 -161.5t191 -63.5q92 0 158 38.5t100 104.5l254 -26q-35 -124 -137.5 -216t-243.5 -126q-65 -47 -98 -99t-33 -90q0 -42 26.5 -67t69.5 -25q70 0 141 60v-191q-82 -67 -210 -67
q-115 0 -181.5 62t-66.5 165q0 63 29.5 128t80.5 118q-208 33 -334 179t-126 365q0 159 70 287.5t196.5 201.5t285.5 73zM618 860q-109 0 -182.5 -59.5t-81.5 -153.5h520q-5 94 -76 153.5t-180 59.5z" />
    <glyph glyph-name="Ecaron" unicode="&#x11a;" horiz-adv-x="1146" 
d="M975 1894l-254 -333h-221l-254 333h262q46 -72 69 -118.5t33 -92.5q10 50 33.5 96.5t69.5 114.5h262zM1073 1454v-268h-639v-322h527v-262h-527v-334h639v-268h-936v1454h936z" />
    <glyph glyph-name="ecaron" unicode="&#x11b;" horiz-adv-x="1234" 
d="M983 1511l-254 -335h-221l-254 335h262q84 -130 102 -213q10 51 33 96.5t70 116.5h262zM618 1094q123 0 225.5 -41.5t177.5 -121.5t114 -204.5t34 -282.5h-813q11 -98 90 -161.5t191 -63.5q92 0 158 38.5t100 104.5l254 -26q-43 -154 -186 -255t-328 -101
q-251 0 -410 152.5t-159 399.5q0 159 70 287.5t196.5 201.5t285.5 73zM618 860q-109 0 -182.5 -59.5t-81.5 -153.5h520q-5 94 -76 153.5t-180 59.5z" />
    <glyph glyph-name="Gbreve" unicode="&#x11e;" horiz-adv-x="1613" 
d="M823 1546q-52 0 -102 10.5t-98.5 35.5t-84.5 62t-58.5 94.5t-22.5 127.5h223q0 -56 35.5 -97.5t107.5 -41.5q73 0 108.5 41t35.5 98h225q0 -87 -33.5 -153.5t-88.5 -103.5t-117.5 -55t-129.5 -18zM657 561v264h887q0 -201 -55 -362.5t-153 -266.5t-230 -160.5t-287 -55.5
q-161 0 -300.5 59t-236 160t-151.5 238.5t-55 291.5q0 204 91.5 373.5t262 271t385.5 101.5q191 0 354 -77t250 -200l-211 -188q-57 82 -158 136t-225 54q-201 0 -326.5 -134t-125.5 -343q0 -205 120.5 -337t321.5 -132q155 0 263 83t147 224h-568z" />
    <glyph glyph-name="gbreve" unicode="&#x11f;" horiz-adv-x="1355" 
d="M694 1163q-52 0 -102 10.5t-98.5 35.5t-84.5 62t-58.5 94.5t-22.5 127.5h223q0 -56 35.5 -97.5t107.5 -41.5q73 0 108.5 41t35.5 98h225q0 -87 -33.5 -153.5t-88.5 -103.5t-117.5 -55t-129.5 -18zM954 907l54 164h237v-960q0 -286 -150.5 -450.5t-432.5 -164.5
q-128 0 -263 35t-209 92v250q48 -26 80 -41.5t88.5 -38t118 -34t125.5 -11.5q352 0 352 363v73q-40 -95 -139 -149.5t-233 -54.5q-158 0 -277 76.5t-179 202.5t-60 280q0 243 144 399t388 156q105 0 201.5 -47t154.5 -134v-6zM657 240q129 0 212 84t83 213q0 128 -83 210
t-212 82q-131 0 -215 -81.5t-84 -210.5q0 -130 84 -213.5t215 -83.5z" />
    <glyph glyph-name="Gdotaccent" unicode="&#x120;" horiz-adv-x="1613" 
d="M823 1561q-68 0 -116 48t-48 115q0 69 48 116.5t116 47.5t116 -47.5t48 -116.5q0 -67 -48 -115t-116 -48zM657 561v264h887q0 -201 -55 -362.5t-153 -266.5t-230 -160.5t-287 -55.5q-161 0 -300.5 59t-236 160t-151.5 238.5t-55 291.5q0 204 91.5 373.5t262 271
t385.5 101.5q191 0 354 -77t250 -200l-211 -188q-57 82 -158 136t-225 54q-201 0 -326.5 -134t-125.5 -343q0 -205 120.5 -337t321.5 -132q155 0 263 83t147 224h-568z" />
    <glyph glyph-name="gdotaccent" unicode="&#x121;" horiz-adv-x="1355" 
d="M694 1178q-68 0 -116 48t-48 115q0 69 48 116.5t116 47.5t116 -47.5t48 -116.5q0 -67 -48 -115t-116 -48zM954 907l54 164h237v-960q0 -286 -150.5 -450.5t-432.5 -164.5q-128 0 -263 35t-209 92v250q48 -26 80 -41.5t88.5 -38t118 -34t125.5 -11.5q352 0 352 363v73
q-40 -95 -139 -149.5t-233 -54.5q-158 0 -277 76.5t-179 202.5t-60 280q0 243 144 399t388 156q105 0 201.5 -47t154.5 -134v-6zM657 240q129 0 212 84t83 213q0 128 -83 210t-212 82q-131 0 -215 -81.5t-84 -210.5q0 -130 84 -213.5t215 -83.5z" />
    <glyph glyph-name="uni0122" unicode="&#x122;" horiz-adv-x="1613" 
d="M657 561v264h887q0 -201 -55 -362.5t-153 -266.5t-230 -160.5t-287 -55.5q-161 0 -300.5 59t-236 160t-151.5 238.5t-55 291.5q0 204 91.5 373.5t262 271t385.5 101.5q191 0 354 -77t250 -200l-211 -188q-57 82 -158 136t-225 54q-201 0 -326.5 -134t-125.5 -343
q0 -205 120.5 -337t321.5 -132q155 0 263 83t147 224h-568zM801 -473h-228l109 385h299z" />
    <glyph glyph-name="uni0123" unicode="&#x123;" horiz-adv-x="1355" 
d="M725 1520h229l-123 -332h-301zM954 907l54 164h237v-960q0 -286 -150.5 -450.5t-432.5 -164.5q-128 0 -263 35t-209 92v250q48 -26 80 -41.5t88.5 -38t118 -34t125.5 -11.5q352 0 352 363v73q-40 -95 -139 -149.5t-233 -54.5q-158 0 -277 76.5t-179 202.5t-60 280
q0 243 144 399t388 156q105 0 201.5 -47t154.5 -134v-6zM657 240q129 0 212 84t83 213q0 128 -83 210t-212 82q-131 0 -215 -81.5t-84 -210.5q0 -130 84 -213.5t215 -83.5z" />
    <glyph glyph-name="Hbar" unicode="&#x126;" horiz-adv-x="1497" 
d="M1358 1237h194v-211h-194v-1026h-297v590h-627v-590h-297v1026h-198v211h198v217h297v-217h627v217h297v-217zM434 852h627v174h-627v-174z" />
    <glyph glyph-name="hbar" unicode="&#x127;" horiz-adv-x="1251" 
d="M731 1094q87 0 163 -28t137 -83t96.5 -147t35.5 -211v-625h-293v580q0 74 -19.5 128t-53.5 82.5t-72 41t-84 12.5q-109 0 -174.5 -70t-65.5 -205v-569h-290v1149h-238v211h238v176h290v-176h240v-211h-240v-227q107 172 330 172z" />
    <glyph glyph-name="Imacron" unicode="&#x12a;" horiz-adv-x="573" 
d="M-80 1583v229h729v-229h-729zM434 0h-297v1454h297v-1454z" />
    <glyph glyph-name="imacron" unicode="&#x12b;" horiz-adv-x="512" 
d="M-109 1200v230h730v-230h-730zM111 1071h290v-1071h-290v1071z" />
    <glyph glyph-name="Iogonek" unicode="&#x12e;" horiz-adv-x="573" 
d="M334 -287q70 0 141 60v-191q-82 -67 -211 -67q-115 0 -181.5 62t-66.5 165q0 66 33 135t90 123h-2v1454h297v-1454h-57q-70 -49 -104.5 -102t-34.5 -93q0 -42 26.5 -67t69.5 -25z" />
    <glyph glyph-name="iogonek" unicode="&#x12f;" horiz-adv-x="512" 
d="M256 1178q-68 0 -116 48t-48 115q0 69 48 116.5t116 47.5t116 -47.5t48 -116.5q0 -67 -48 -115t-116 -48zM307 -287q71 0 142 60v-191q-82 -67 -211 -67q-115 0 -181.5 62t-66.5 165q0 66 33 135t90 123h-2v1071h290v-1071h-51q-70 -49 -104.5 -102t-34.5 -93
q0 -42 26.5 -67t69.5 -25z" />
    <glyph glyph-name="Idotaccent" unicode="&#x130;" horiz-adv-x="573" 
d="M287 1561q-68 0 -116 48t-48 115q0 69 48 116.5t116 47.5t116 -47.5t48 -116.5q0 -67 -48 -115t-116 -48zM434 0h-297v1454h297v-1454z" />
    <glyph glyph-name="dotlessi" unicode="&#x131;" horiz-adv-x="512" 
d="M111 1071h290v-1071h-290v1071z" />
    <glyph glyph-name="uni0136" unicode="&#x136;" horiz-adv-x="1320" 
d="M936 1454h348l-563 -711l555 -743h-361l-493 686q8 -90 10 -209t2 -477h-297v1454h297q0 -348 -2 -459t-10 -188zM612 -473h-227l109 385h299z" />
    <glyph glyph-name="uni0137" unicode="&#x137;" horiz-adv-x="1169" 
d="M1139 1071l-484 -502l488 -569h-344l-412 498q14 -134 14 -498h-290v1536h290q0 -449 -2.5 -619.5t-13.5 -277.5l412 432h342zM530 -473h-227l109 385h299z" />
    <glyph glyph-name="kgreenlandic" unicode="&#x138;" horiz-adv-x="1136" 
d="M655 569l488 -569h-344l-412 498q14 -134 14 -498h-290v1071h290q0 -348 -10 -426l406 426h342z" />
    <glyph glyph-name="Lacute" unicode="&#x139;" horiz-adv-x="1110" 
d="M399 1571h-229l156 334h301zM1042 0h-905v1454h297v-1186h608v-268z" />
    <glyph glyph-name="lacute" unicode="&#x13a;" horiz-adv-x="512" 
d="M373 1651h-230l156 334h301zM111 1536h290v-1536h-290v1536z" />
    <glyph glyph-name="uni013B" unicode="&#x13b;" horiz-adv-x="1110" 
d="M1042 0h-905v1454h297v-1186h608v-268zM342 -473l109 385h299l-181 -385h-227z" />
    <glyph glyph-name="uni013C" unicode="&#x13c;" horiz-adv-x="512" 
d="M111 1536h290v-1536h-290v1536zM2 -473l109 385h299l-181 -385h-227z" />
    <glyph glyph-name="Lcaron" unicode="&#x13d;" horiz-adv-x="1095" 
d="M1042 0h-905v1454h297v-1186h608v-268zM608 987l121 467h299l-192 -467h-228z" />
    <glyph glyph-name="lcaron" unicode="&#x13e;" horiz-adv-x="733" 
d="M66 1536h290v-1536h-290v1536zM401 1069l121 467h299l-192 -467h-228z" />
    <glyph glyph-name="Ldot" unicode="&#x13f;" horiz-adv-x="1110" 
d="M1042 0h-905v1454h297v-1186h608v-268zM791 569q-65 0 -111.5 45.5t-46.5 112.5q0 64 46.5 109t111.5 45q66 0 111.5 -44.5t45.5 -109.5q0 -67 -45.5 -112.5t-111.5 -45.5z" />
    <glyph glyph-name="ldot" unicode="&#x140;" horiz-adv-x="888" 
d="M111 1536h290v-1536h-290v1536zM700 569q-66 0 -111.5 45.5t-45.5 112.5q0 65 45.5 109.5t111.5 44.5q65 0 110.5 -45t45.5 -109q0 -67 -45.5 -112.5t-110.5 -45.5z" />
    <glyph glyph-name="Lslash" unicode="&#x141;" horiz-adv-x="1110" 
d="M434 776v-508h608v-268h-905v590l-141 -90v264l141 90v600h297v-412l162 103v-266z" />
    <glyph glyph-name="lslash" unicode="&#x142;" horiz-adv-x="632" 
d="M467 1010l156 98v-264l-156 -99v-745h-291v561l-153 -98v266l153 96v711h291v-526z" />
    <glyph glyph-name="Nacute" unicode="&#x143;" horiz-adv-x="1529" 
d="M811 1905h301l-227 -334h-230zM1102 1454h289v-1454h-277l-700 979q14 -146 14 -979h-291v1454h277l702 -989q-10 88 -12 275.5t-2 713.5z" />
    <glyph glyph-name="nacute" unicode="&#x144;" horiz-adv-x="1265" 
d="M676 1520h301l-227 -334h-230zM735 1094q87 0 163 -28t137 -83t96.5 -147t35.5 -211v-625h-295v580q0 74 -19 128t-52.5 82.5t-71.5 41t-84 12.5q-110 0 -174.5 -70t-64.5 -205v-569h-295v1071h245l45 -153q108 176 334 176z" />
    <glyph glyph-name="uni0145" unicode="&#x145;" horiz-adv-x="1529" 
d="M1102 1454h289v-1454h-277l-700 979q14 -146 14 -979h-291v1454h277l702 -989q-10 88 -12 275.5t-2 713.5zM754 -473h-228l109 385h299z" />
    <glyph glyph-name="uni0146" unicode="&#x146;" horiz-adv-x="1265" 
d="M735 1094q87 0 163 -28t137 -83t96.5 -147t35.5 -211v-625h-295v580q0 74 -19 128t-52.5 82.5t-71.5 41t-84 12.5q-110 0 -174.5 -70t-64.5 -205v-569h-295v1071h245l45 -153q108 176 334 176zM618 -473h-227l109 385h299z" />
    <glyph glyph-name="Ncaron" unicode="&#x147;" horiz-adv-x="1529" 
d="M1141 1894l-254 -333h-221l-254 333h262q46 -72 69 -118.5t33 -92.5q10 50 33.5 96.5t69.5 114.5h262zM1102 1454h289v-1454h-277l-700 979q14 -146 14 -979h-291v1454h277l702 -989q-10 88 -12 275.5t-2 713.5z" />
    <glyph glyph-name="ncaron" unicode="&#x148;" horiz-adv-x="1265" 
d="M1006 1511l-254 -335h-222l-254 335h263q84 -130 102 -213q10 51 33 97t69 116h263zM735 1094q87 0 163 -28t137 -83t96.5 -147t35.5 -211v-625h-295v580q0 74 -19 128t-52.5 82.5t-71.5 41t-84 12.5q-110 0 -174.5 -70t-64.5 -205v-569h-295v1071h245l45 -153
q108 176 334 176z" />
    <glyph glyph-name="Eng" unicode="&#x14a;" horiz-adv-x="1529" 
d="M1391 1454v-1454h2v-471h-291v487l-688 963q14 -146 14 -979h-291v1454h277l702 -989q-10 88 -12 275.5t-2 713.5h289z" />
    <glyph glyph-name="eng" unicode="&#x14b;" horiz-adv-x="1265" 
d="M735 1094q87 0 163 -28t137 -83t96.5 -147t35.5 -211v-1096h-295v1051q0 74 -19 128t-52.5 82.5t-71.5 41t-84 12.5q-110 0 -174.5 -70t-64.5 -205v-569h-295v1071h245l45 -153q108 176 334 176z" />
    <glyph glyph-name="Omacron" unicode="&#x14c;" horiz-adv-x="1638" 
d="M453 1583v229h729v-229h-729zM819 -20q-212 0 -382 96t-265.5 267t-95.5 384t95.5 384t265.5 267.5t382 96.5t382.5 -96.5t266 -267.5t95.5 -384q0 -160 -56 -298.5t-154 -237t-236.5 -155t-297.5 -56.5zM819 258q129 0 232 63.5t159 170.5t56 235t-56 235t-159 170.5
t-232 63.5q-128 0 -231 -63.5t-159 -170.5t-56 -235t56 -235t159 -170.5t231 -63.5z" />
    <glyph glyph-name="omacron" unicode="&#x14d;" horiz-adv-x="1286" 
d="M276 1200v230h730v-230h-730zM643 -20q-252 0 -414.5 156.5t-162.5 400.5q0 119 43 222.5t119 177t183.5 115.5t231.5 42q166 0 298.5 -71.5t207 -199t74.5 -286.5q0 -161 -74.5 -288t-207 -198t-298.5 -71zM643 242q129 0 213 83.5t84 211.5q0 129 -84 211.5t-213 82.5
q-128 0 -212.5 -83t-84.5 -211q0 -127 84.5 -211t212.5 -84z" />
    <glyph glyph-name="Ohungarumlaut" unicode="&#x150;" horiz-adv-x="1638" 
d="M776 1569h-229l155 334h302zM1124 1569h-227l156 334h301zM819 -20q-212 0 -382 96t-265.5 267t-95.5 384t95.5 384t265.5 267.5t382 96.5t382.5 -96.5t266 -267.5t95.5 -384q0 -160 -56 -298.5t-154 -237t-236.5 -155t-297.5 -56.5zM819 258q129 0 232 63.5t159 170.5
t56 235t-56 235t-159 170.5t-232 63.5q-128 0 -231 -63.5t-159 -170.5t-56 -235t56 -235t159 -170.5t231 -63.5z" />
    <glyph glyph-name="ohungarumlaut" unicode="&#x151;" horiz-adv-x="1286" 
d="M598 1186h-229l155 334h301zM946 1186h-227l155 334h302zM643 -20q-252 0 -414.5 156.5t-162.5 400.5q0 119 43 222.5t119 177t183.5 115.5t231.5 42q166 0 298.5 -71.5t207 -199t74.5 -286.5q0 -161 -74.5 -288t-207 -198t-298.5 -71zM643 242q129 0 213 83.5t84 211.5
q0 129 -84 211.5t-213 82.5q-128 0 -212.5 -83t-84.5 -211q0 -127 84.5 -211t212.5 -84z" />
    <glyph glyph-name="OE" unicode="&#x152;" horiz-adv-x="1851" 
d="M1780 0h-936q-240 -2 -419 90t-272.5 256.5t-93.5 380.5t93.5 380.5t272.5 256.5t419 90h936v-268h-639v-322h526v-262h-526v-334h639v-268zM844 262v930q-120 1 -214.5 -34.5t-153.5 -100t-89.5 -148.5t-30.5 -182t30.5 -182t89.5 -148.5t153.5 -100t214.5 -34.5z" />
    <glyph glyph-name="oe" unicode="&#x153;" horiz-adv-x="2109" 
d="M1493 1094q123 0 225.5 -41.5t177.5 -121.5t114 -204.5t34 -282.5h-813q11 -98 89.5 -161.5t190.5 -63.5q92 0 158 38.5t100 104.5l254 -26q-43 -154 -186 -255t-328 -101q-133 0 -244 45.5t-188 130.5q-77 -84 -189.5 -130t-244.5 -46q-252 0 -414.5 156.5t-162.5 400.5
q0 119 43 222.5t119 177t183.5 115.5t231.5 42q131 0 244 -47t192 -132q75 85 181 132t233 47zM1493 860q-109 0 -182.5 -59.5t-81.5 -153.5h520q-5 94 -76 153.5t-180 59.5zM643 242q129 0 213 83.5t84 211.5q0 129 -84 211.5t-213 82.5q-128 0 -212.5 -83t-84.5 -211
q0 -127 84.5 -211t212.5 -84z" />
    <glyph glyph-name="Racute" unicode="&#x154;" horiz-adv-x="1337" 
d="M686 1905h301l-227 -334h-230zM1274 0h-363l-493 618q11 -62 13.5 -189t2.5 -429h-297v1454h596q240 0 377 -118t137 -330q0 -93 -28.5 -170.5t-74 -128t-106 -85.5t-120.5 -51t-121 -18q23 -24 50.5 -55t75.5 -86.5t85 -99t122 -143.5t144 -169zM950 979
q0 96 -61.5 151.5t-175.5 55.5h-279v-420h279q114 0 175.5 57.5t61.5 155.5z" />
    <glyph glyph-name="racute" unicode="&#x155;" horiz-adv-x="770" 
d="M389 1520h301l-227 -334h-230zM348 1071l47 -137q93 166 322 139l-2 -250q-153 19 -233.5 -33.5t-80.5 -177.5v-612h-290v1071h237z" />
    <glyph glyph-name="uni0156" unicode="&#x156;" horiz-adv-x="1337" 
d="M797 553q23 -24 50.5 -55t75.5 -86.5t85 -99t122 -143.5t144 -169h-363l-493 618q11 -62 13.5 -189t2.5 -429h-297v1454h596q240 0 377 -118t137 -330q0 -93 -28.5 -170.5t-74 -128t-106 -85.5t-120.5 -51t-121 -18zM950 979q0 96 -61.5 151.5t-175.5 55.5h-279v-420h279
q114 0 175.5 57.5t61.5 155.5zM629 -473h-228l109 385h299z" />
    <glyph glyph-name="uni0157" unicode="&#x157;" horiz-adv-x="770" 
d="M348 1071l47 -137q93 166 322 139l-2 -250q-153 19 -233.5 -33.5t-80.5 -177.5v-612h-290v1071h237zM330 -473h-228l109 385h299z" />
    <glyph glyph-name="Rcaron" unicode="&#x158;" horiz-adv-x="1337" 
d="M1016 1894l-254 -333h-221l-254 333h262q46 -72 69 -118.5t33 -92.5q10 50 33.5 96.5t69.5 114.5h262zM1274 0h-363l-493 618q11 -62 13.5 -189t2.5 -429h-297v1454h596q240 0 377 -118t137 -330q0 -93 -28.5 -170.5t-74 -128t-106 -85.5t-120.5 -51t-121 -18
q23 -24 50.5 -55t75.5 -86.5t85 -99t122 -143.5t144 -169zM950 979q0 96 -61.5 151.5t-175.5 55.5h-279v-420h279q114 0 175.5 57.5t61.5 155.5z" />
    <glyph glyph-name="rcaron" unicode="&#x159;" horiz-adv-x="770" 
d="M719 1511l-254 -335h-221l-254 335h262q84 -130 102 -213q10 51 33 96.5t70 116.5h262zM348 1071l47 -137q93 166 322 139l-2 -250q-153 19 -233.5 -33.5t-80.5 -177.5v-612h-290v1071h237z" />
    <glyph glyph-name="Sacute" unicode="&#x15a;" horiz-adv-x="1167" 
d="M694 1571h-229l156 334h301zM596 -20q-104 0 -193 26.5t-152.5 72.5t-109 108t-68.5 132.5t-24 145.5h305q3 -111 71 -172.5t173 -61.5q92 0 145.5 42.5t53.5 109.5q0 41 -24 76t-64 60.5t-92.5 50t-110.5 49t-115.5 52t-110 64.5t-92.5 82t-64 108.5t-24 139.5
q0 182 131.5 296t343.5 114q222 0 357.5 -127t140.5 -334l-299 -8q-4 103 -56 160t-138 57q-76 0 -125 -40t-49 -106q0 -59 39 -103.5t101 -74.5t137 -58t150 -64t137 -81.5t101 -121t39 -173.5q0 -129 -68 -225.5t-184 -146t-262 -49.5z" />
    <glyph glyph-name="sacute" unicode="&#x15b;" horiz-adv-x="1052" 
d="M639 1186h-229l155 334h301zM541 -20q-98 0 -183.5 21.5t-155 64.5t-111 114.5t-44.5 165.5l283 10q6 -67 66.5 -108t152.5 -41q72 0 117 25.5t45 70.5q0 32 -26.5 55t-70.5 36t-99.5 28t-114 29t-114 39.5t-99.5 58t-70.5 87.5t-26.5 126q0 152 123.5 242t306.5 90
q194 0 320 -99.5t129 -242.5l-277 -9q-8 58 -54.5 94.5t-121.5 36.5q-60 0 -101.5 -24.5t-41.5 -67.5q0 -35 35 -59t90.5 -38.5t122.5 -29t134.5 -38.5t123 -58t90.5 -96t35 -146q0 -159 -128 -248t-335 -89z" />
    <glyph glyph-name="Scedilla" unicode="&#x15e;" horiz-adv-x="1167" 
d="M1110 401q0 -173 -117 -283t-305 -132l-39 -99q64 -14 104 -59t40 -113q0 -94 -77 -149t-204 -55q-79 0 -158 32l4 170q82 -26 136 -26q34 0 51.5 11.5t17.5 29.5q0 55 -180 55l82 209q-130 24 -225.5 96.5t-142 169.5t-48.5 207h305q3 -111 71 -172.5t173 -61.5
q92 0 145.5 42.5t53.5 109.5q0 41 -24 76t-64 60.5t-92.5 50t-110.5 49t-115.5 52t-110 64.5t-92.5 82t-64 108.5t-24 139.5q0 182 131.5 296t343.5 114q222 0 357.5 -127t140.5 -334l-299 -8q-4 103 -56 160t-138 57q-76 0 -125 -40t-49 -106q0 -59 39 -103.5t101 -74.5
t137 -58t150 -64t137 -81.5t101 -121t39 -173.5z" />
    <glyph glyph-name="scedilla" unicode="&#x15f;" horiz-adv-x="1052" 
d="M1004 317q0 -139 -101 -225.5t-270 -107.5l-39 -97q64 -14 103.5 -59t39.5 -113q0 -94 -76.5 -149t-203.5 -55q-79 0 -158 32l4 170q82 -26 135 -26q34 0 52 11.5t18 29.5q0 55 -180 55l82 207q-159 27 -259 116t-104 240l283 10q6 -67 66.5 -108t152.5 -41
q72 0 117 25.5t45 70.5q0 32 -26.5 55t-70.5 36t-99.5 28t-114 29t-114 39.5t-99.5 58t-70.5 87.5t-26.5 126q0 152 123.5 242t306.5 90q194 0 320 -99.5t129 -242.5l-277 -9q-8 58 -54.5 94.5t-121.5 36.5q-60 0 -101.5 -24.5t-41.5 -67.5q0 -35 35 -59t90.5 -38.5
t122.5 -29t134.5 -38.5t123 -58t90.5 -96t35 -146z" />
    <glyph glyph-name="Scaron" unicode="&#x160;" horiz-adv-x="1167" 
d="M950 1894l-254 -333h-221l-254 333h262q86 -134 103 -211q17 86 102 211h262zM406 1077q0 -59 39 -103.5t101 -74.5t137 -58t150 -64t137 -81.5t101 -121t39 -173.5q0 -129 -68 -225.5t-184 -146t-262 -49.5q-104 0 -193 26.5t-152.5 72.5t-109 108t-68.5 132.5
t-24 145.5h305q3 -111 71 -172.5t173 -61.5q92 0 145.5 42.5t53.5 109.5q0 41 -24 76t-64 60.5t-92.5 50t-110.5 49t-115.5 52t-110 64.5t-92.5 82t-64 108.5t-24 139.5q0 182 131.5 296t343.5 114q222 0 357.5 -127t140.5 -334l-299 -8q-4 103 -56 160t-138 57
q-76 0 -125 -40t-49 -106z" />
    <glyph glyph-name="scaron" unicode="&#x161;" horiz-adv-x="1052" 
d="M895 1511l-254 -335h-221l-254 335h262q84 -130 102 -213q10 51 33 96.5t70 116.5h262zM373 782q0 -35 35 -59t90.5 -38.5t122.5 -29t134.5 -38.5t123 -58t90.5 -96t35 -146q0 -159 -128 -248t-335 -89q-98 0 -183.5 21.5t-155 64.5t-111 114.5t-44.5 165.5l283 10
q6 -67 66.5 -108t152.5 -41q72 0 117 25.5t45 70.5q0 32 -26.5 55t-70.5 36t-99.5 28t-114 29t-114 39.5t-99.5 58t-70.5 87.5t-26.5 126q0 152 123.5 242t306.5 90q194 0 320 -99.5t129 -242.5l-277 -9q-8 58 -54.5 94.5t-121.5 36.5q-60 0 -101.5 -24.5t-41.5 -67.5z" />
    <glyph glyph-name="uni0162" unicode="&#x162;" horiz-adv-x="1193" 
d="M745 1186v-1186h-38l-45 -113q64 -14 103.5 -59t39.5 -113q0 -94 -77 -149t-204 -55q-78 0 -157 32l4 170q82 -26 135 -26q34 0 51.5 11.5t17.5 29.5q0 55 -180 55l86 217h-32v1186h-381v268h1058v-268h-381z" />
    <glyph glyph-name="uni0163" unicode="&#x163;" horiz-adv-x="806" 
d="M516 842v-842h-39l-45 -113q64 -14 103.5 -59t39.5 -113q0 -94 -76.5 -149t-203.5 -55q-79 0 -158 32l4 170q82 -26 135 -26q34 0 52 11.5t18 29.5q0 55 -180 55l86 217h-27v842h-174v229h174v313h291v-313h248v-229h-248z" />
    <glyph glyph-name="Tcaron" unicode="&#x164;" horiz-adv-x="1193" 
d="M963 1894l-254 -333h-222l-254 333h263q46 -72 69 -118.5t33 -92.5q17 86 102 211h263zM68 1186v268h1058v-268h-381v-1186h-296v1186h-381z" />
    <glyph glyph-name="tcaron" unicode="&#x165;" horiz-adv-x="737" 
d="M608 1188l121 467h299l-192 -467h-228zM225 1384h291v-313h248v-229h-248v-842h-291v842h-174v229h174v313z" />
    <glyph glyph-name="Tbar" unicode="&#x166;" horiz-adv-x="1193" 
d="M1126 1454v-268h-381v-348h242v-211h-242v-627h-296v627h-230v211h230v348h-381v268h1058z" />
    <glyph glyph-name="tbar" unicode="&#x167;" horiz-adv-x="806" 
d="M764 1071v-229h-248v-277h238v-211h-238v-354h-291v354h-172v211h172v277h-174v229h174v313h291v-313h248z" />
    <glyph glyph-name="Utilde" unicode="&#x168;" horiz-adv-x="1484" 
d="M541 1579l-195 63q22 99 85.5 168.5t170.5 69.5q60 0 141 -39t115 -39q57 0 76 82l203 -63q-25 -118 -89 -179t-163 -61q-53 0 -103.5 19.5t-92 39t-71.5 19.5q-57 0 -77 -80zM741 -20q-283 0 -445.5 167t-162.5 474v833h297v-842q0 -178 83 -270t228 -92q146 0 229 91.5
t83 270.5v842h299v-833q0 -307 -163 -474t-448 -167z" />
    <glyph glyph-name="utilde" unicode="&#x169;" horiz-adv-x="1263" 
d="M496 1276q-58 0 -78 -80l-195 64q22 99 85.5 168t170.5 69q60 0 141 -39t115 -39q57 0 76 82l203 -63q-25 -118 -89 -179t-163 -61q-53 0 -103 19.5t-91.5 39t-71.5 19.5zM858 500v571h293v-1071h-246l-41 158q-106 -181 -336 -181q-86 0 -161.5 28t-136.5 83t-96.5 147
t-35.5 211v625h291v-579q0 -74 19.5 -128t53.5 -82.5t72.5 -41.5t83.5 -13q109 0 174.5 70t65.5 203z" />
    <glyph glyph-name="Umacron" unicode="&#x16a;" horiz-adv-x="1484" 
d="M377 1583v229h729v-229h-729zM741 -20q-283 0 -445.5 167t-162.5 474v833h297v-842q0 -178 83 -270t228 -92q146 0 229 91.5t83 270.5v842h299v-833q0 -307 -163 -474t-448 -167z" />
    <glyph glyph-name="umacron" unicode="&#x16b;" horiz-adv-x="1263" 
d="M254 1430h729v-230h-729v230zM858 500v571h293v-1071h-246l-41 158q-106 -181 -336 -181q-86 0 -161.5 28t-136.5 83t-96.5 147t-35.5 211v625h291v-579q0 -74 19.5 -128t53.5 -82.5t72.5 -41.5t83.5 -13q109 0 174.5 70t65.5 203z" />
    <glyph glyph-name="Uring" unicode="&#x16e;" horiz-adv-x="1484" 
d="M741 1575q-97 0 -165 68t-68 165t68 165.5t165 68.5t165.5 -68.5t68.5 -165.5t-68.5 -165t-165.5 -68zM741 1724q37 0 61.5 24.5t24.5 59.5q0 37 -24.5 61.5t-61.5 24.5q-35 0 -59.5 -24.5t-24.5 -61.5q0 -35 24.5 -59.5t59.5 -24.5zM741 -20q-283 0 -445.5 167
t-162.5 474v833h297v-842q0 -178 83 -270t228 -92q146 0 229 91.5t83 270.5v842h299v-833q0 -307 -163 -474t-448 -167z" />
    <glyph glyph-name="uring" unicode="&#x16f;" horiz-adv-x="1263" 
d="M618 1194q-97 0 -165 67t-68 164t68 165.5t165 68.5t165.5 -68.5t68.5 -165.5q0 -96 -68.5 -163.5t-165.5 -67.5zM618 1511q-35 0 -59 -24.5t-24 -61.5q0 -35 24 -59.5t59 -24.5q37 0 62 24.5t25 59.5q0 37 -25 61.5t-62 24.5zM858 500v571h293v-1071h-246l-41 158
q-106 -181 -336 -181q-86 0 -161.5 28t-136.5 83t-96.5 147t-35.5 211v625h291v-579q0 -74 19.5 -128t53.5 -82.5t72.5 -41.5t83.5 -13q109 0 174.5 70t65.5 203z" />
    <glyph glyph-name="Uhungarumlaut" unicode="&#x170;" horiz-adv-x="1484" 
d="M698 1569h-229l156 334h301zM1047 1569h-228l156 334h301zM741 -20q-283 0 -445.5 167t-162.5 474v833h297v-842q0 -178 83 -270t228 -92q146 0 229 91.5t83 270.5v842h299v-833q0 -307 -163 -474t-448 -167z" />
    <glyph glyph-name="uhungarumlaut" unicode="&#x171;" horiz-adv-x="1263" 
d="M502 1520h301l-228 -334h-229zM1153 1520l-229 -334h-228l156 334h301zM858 500v571h293v-1071h-246l-41 158q-106 -181 -336 -181q-86 0 -161.5 28t-136.5 83t-96.5 147t-35.5 211v625h291v-579q0 -74 19.5 -128t53.5 -82.5t72.5 -41.5t83.5 -13q109 0 174.5 70
t65.5 203z" />
    <glyph glyph-name="Uogonek" unicode="&#x172;" horiz-adv-x="1484" 
d="M1053 612v842h299v-833q0 -254 -112.5 -413.5t-315.5 -207.5h39q-70 -49 -105 -102t-35 -93q0 -42 27 -67t70 -25q70 0 141 60v-191q-82 -67 -211 -67q-115 0 -181.5 62t-66.5 165q0 59 27.5 122t75.5 116q-266 11 -419 178t-153 463v833h297v-842q0 -178 83 -270
t228 -92q146 0 229 91.5t83 270.5z" />
    <glyph glyph-name="uogonek" unicode="&#x173;" horiz-adv-x="1263" 
d="M1100 -287q70 0 141 60v-191q-82 -67 -211 -67q-115 0 -181.5 62t-66.5 165q0 66 33 135t90 123l-41 158q-106 -181 -336 -181q-86 0 -161.5 28t-136.5 83t-96.5 147t-35.5 211v625h291v-579q0 -74 19.5 -128t53.5 -82.5t72.5 -41.5t83.5 -13q109 0 174.5 70t65.5 203
v571h293v-1071h-8q-70 -49 -104.5 -102t-34.5 -93q0 -42 26.5 -67t69.5 -25z" />
    <glyph glyph-name="Wcircumflex" unicode="&#x174;" horiz-adv-x="2019" 
d="M1012 1726q-31 -58 -105 -172h-262l254 336h221l254 -336h-262q-63 103 -100 172zM1694 1454h301l-393 -1454h-342q-134 529 -185 753t-63 347q-12 -124 -65 -344.5t-197 -755.5h-334l-389 1454h313q223 -899 260 -1132q14 131 64.5 351t191.5 781h324
q226 -877 262 -1104q33 237 252 1104z" />
    <glyph glyph-name="wcircumflex" unicode="&#x175;" horiz-adv-x="1732" 
d="M868 1341q-41 -78 -104 -170h-262l254 334h221l254 -334h-262q-67 105 -101 170zM1391 1071h297l-326 -1071h-295q-116 392 -153 537t-44 237q-9 -91 -48 -238t-158 -536h-295l-324 1071h303q108 -397 142.5 -540t44.5 -238q10 98 45.5 239.5t148.5 538.5h291
q106 -371 141 -511t47 -241q8 77 37.5 196.5t128.5 491.5q11 42 17 64z" />
    <glyph glyph-name="Ycircumflex" unicode="&#x176;" horiz-adv-x="1335" 
d="M670 1726q-31 -58 -105 -172h-262l254 336h221l254 -336h-262q-63 103 -100 172zM991 1454h332l-506 -864v-590h-297v590l-508 864h340q153 -267 223.5 -404t96.5 -219q26 80 96.5 217t222.5 406z" />
    <glyph glyph-name="ycircumflex" unicode="&#x177;" horiz-adv-x="1230" 
d="M618 1341q-41 -78 -104 -170h-262l254 334h221l254 -334h-262q-67 105 -101 170zM897 1071h309l-606 -1542h-303l178 461l-448 1081h315q144 -355 205 -525.5t78 -269.5q17 99 75 268t197 527z" />
    <glyph glyph-name="Ydieresis" unicode="&#x178;" horiz-adv-x="1335" 
d="M459 1585q-61 0 -103.5 42.5t-42.5 103.5t42 103t104 42q61 0 103 -42t42 -103q0 -62 -42 -104t-103 -42zM877 1585q-61 0 -103.5 42.5t-42.5 103.5t42 103t104 42q61 0 103 -42t42 -103q0 -62 -42 -104t-103 -42zM991 1454h332l-506 -864v-590h-297v590l-508 864h340
q153 -267 223.5 -404t96.5 -219q26 80 96.5 217t222.5 406z" />
    <glyph glyph-name="Zacute" unicode="&#x179;" horiz-adv-x="1302" 
d="M688 1905h301l-227 -334h-230zM82 1454h1165l-706 -1192h682v-262h-1168l715 1192h-688v262z" />
    <glyph glyph-name="zacute" unicode="&#x17a;" horiz-adv-x="1011" 
d="M541 1520h301l-228 -334h-229zM68 1071h901l-473 -825h448v-246h-901l477 825h-452v246z" />
    <glyph glyph-name="Zdotaccent" unicode="&#x17b;" horiz-adv-x="1302" 
d="M653 1561q-68 0 -116 48t-48 115q0 69 48 116.5t116 47.5t116 -47.5t48 -116.5q0 -67 -48 -115t-116 -48zM82 1454h1165l-706 -1192h682v-262h-1168l715 1192h-688v262z" />
    <glyph glyph-name="zdotaccent" unicode="&#x17c;" horiz-adv-x="1011" 
d="M506 1178q-68 0 -116 48t-48 115q0 69 48 116.5t116 47.5t116 -47.5t48 -116.5q0 -67 -48 -115t-116 -48zM68 1071h901l-473 -825h448v-246h-901l477 825h-452v246z" />
    <glyph glyph-name="Zcaron" unicode="&#x17d;" horiz-adv-x="1302" 
d="M1018 1894l-254 -333h-221l-254 333h262q46 -72 69 -118.5t33 -92.5q10 50 33.5 96.5t69.5 114.5h262zM82 1454h1165l-706 -1192h682v-262h-1168l715 1192h-688v262z" />
    <glyph glyph-name="zcaron" unicode="&#x17e;" horiz-adv-x="1011" 
d="M870 1511l-254 -335h-221l-254 335h262q85 -133 103 -213q10 51 33 97t69 116h262zM68 1071h901l-473 -825h448v-246h-901l477 825h-452v246z" />
    <glyph glyph-name="uni018F" unicode="&#x18f;" horiz-adv-x="1599" 
d="M795 1475q214 0 384.5 -96t265.5 -267t95 -385q0 -160 -55.5 -299t-153 -237.5t-235.5 -154.5t-297 -56q-172 0 -314.5 60.5t-242 170.5t-149 275t-36.5 366h1172q-37 155 -155 249.5t-279 94.5q-122 0 -224 -60.5t-157 -160.5l-303 41q80 205 266.5 332t417.5 127z
M799 258q165 0 282.5 97.5t149.5 256.5h-862q67 -354 430 -354z" />
    <glyph glyph-name="florin" unicode="&#x192;" horiz-adv-x="1040" 
d="M940 1446v-234q-48 13 -82.5 18.5t-75 1t-65 -24.5t-41.5 -65.5t-17 -115.5v-25h279v-227h-279v-387q0 -107 -32.5 -188t-87.5 -128t-128 -69.5t-154.5 -19t-166.5 29.5v234q48 -13 82 -18.5t74 -1.5t64.5 24.5t41.5 65.5t17 114v344h-246v227h246v68q0 107 32.5 188.5
t88 128.5t129 70t155 19.5t166.5 -29.5z" />
    <glyph glyph-name="uni019D" unicode="&#x19d;" horiz-adv-x="1529" 
d="M1102 1454h289v-1454h-277l-700 979q14 -146 14 -979v-471h-291v1925h277l702 -989q-10 88 -12 275.5t-2 713.5z" />
    <glyph glyph-name="uni0218" unicode="&#x218;" horiz-adv-x="1167" 
d="M596 -20q-104 0 -193 26.5t-152.5 72.5t-109 108t-68.5 132.5t-24 145.5h305q3 -111 71 -172.5t173 -61.5q92 0 145.5 42.5t53.5 109.5q0 41 -24 76t-64 60.5t-92.5 50t-110.5 49t-115.5 52t-110 64.5t-92.5 82t-64 108.5t-24 139.5q0 182 131.5 296t343.5 114
q222 0 357.5 -127t140.5 -334l-299 -8q-4 103 -56 160t-138 57q-76 0 -125 -40t-49 -106q0 -59 39 -103.5t101 -74.5t137 -58t150 -64t137 -81.5t101 -121t39 -173.5q0 -129 -68 -225.5t-184 -146t-262 -49.5zM334 -473l108 385h299l-180 -385h-227z" />
    <glyph glyph-name="uni0219" unicode="&#x219;" horiz-adv-x="1052" 
d="M541 -20q-98 0 -183.5 21.5t-155 64.5t-111 114.5t-44.5 165.5l283 10q6 -67 66.5 -108t152.5 -41q72 0 117 25.5t45 70.5q0 32 -26.5 55t-70.5 36t-99.5 28t-114 29t-114 39.5t-99.5 58t-70.5 87.5t-26.5 126q0 152 123.5 242t306.5 90q194 0 320 -99.5t129 -242.5
l-277 -9q-8 58 -54.5 94.5t-121.5 36.5q-60 0 -101.5 -24.5t-41.5 -67.5q0 -35 35 -59t90.5 -38.5t122.5 -29t134.5 -38.5t123 -58t90.5 -96t35 -146q0 -159 -128 -248t-335 -89zM279 -473l108 385h299l-180 -385h-227z" />
    <glyph glyph-name="uni021A" unicode="&#x21a;" horiz-adv-x="1193" 
d="M745 0h-296v1186h-381v268h1058v-268h-381v-1186zM346 -473l109 385h299l-181 -385h-227z" />
    <glyph glyph-name="uni021B" unicode="&#x21b;" horiz-adv-x="806" 
d="M516 1384v-313h248v-229h-248v-842h-291v842h-174v229h174v313h291zM344 -473h-227l108 385h299z" />
    <glyph glyph-name="uni0237" unicode="&#x237;" horiz-adv-x="514" 
d="M111 1071h292v-1542h-292v1542z" />
    <glyph glyph-name="uni0259" unicode="&#x259;" horiz-adv-x="1234" 
d="M600 1092q251 0 410 -153t159 -400q0 -159 -70 -287.5t-197 -201.5t-286 -73q-123 0 -225.5 41.5t-177 121.5t-113.5 204.5t-34 282.5h813q-11 98 -90 161.5t-191 63.5q-92 0 -158 -38.5t-100 -104.5l-254 26q43 155 186 256t328 101zM616 211q109 0 183.5 59.5
t81.5 153.5h-521q5 -94 76 -153.5t180 -59.5z" />
    <glyph glyph-name="uni0272" unicode="&#x272;" horiz-adv-x="1265" 
d="M735 1094q87 0 163 -28t137 -83t96.5 -147t35.5 -211v-625h-295v580q0 74 -19 128t-52.5 82.5t-71.5 41t-84 12.5q-110 0 -174.5 -70t-64.5 -205v-1040h-295v1542h245l45 -153q108 176 334 176z" />
    <glyph glyph-name="circumflex" unicode="&#x2c6;" horiz-adv-x="753" 
d="M487 1505l254 -334h-262q-60 95 -100 170q-38 -72 -105 -170h-262l254 334h221z" />
    <glyph glyph-name="caron" unicode="&#x2c7;" horiz-adv-x="753" 
d="M479 1511h262l-254 -335h-221l-254 335h262q85 -133 103 -213q10 51 33 97t69 116z" />
    <glyph glyph-name="breve" unicode="&#x2d8;" horiz-adv-x="847" 
d="M424 1163q-66 0 -128 18t-117 55t-88.5 103.5t-33.5 153.5h224q0 -56 35.5 -97.5t107.5 -41.5q73 0 108 41t35 98h226q0 -87 -33.5 -153.5t-88.5 -103.5t-117.5 -55t-129.5 -18z" />
    <glyph glyph-name="dotaccent" unicode="&#x2d9;" horiz-adv-x="475" 
d="M238 1178q-68 0 -116 48t-48 115q0 69 48 116.5t116 47.5t115.5 -47.5t47.5 -116.5q0 -67 -47.5 -115t-115.5 -48z" />
    <glyph glyph-name="ring" unicode="&#x2da;" horiz-adv-x="600" 
d="M299 1194q-97 0 -165 67t-68 164t68 165.5t165 68.5t165 -68.5t68 -165.5t-68 -164t-165 -67zM299 1341q37 0 61.5 24.5t24.5 59.5q0 37 -24.5 61.5t-61.5 24.5q-35 0 -59.5 -24.5t-24.5 -61.5q0 -35 24.5 -59.5t59.5 -24.5z" />
    <glyph glyph-name="ogonek" unicode="&#x2db;" horiz-adv-x="589" 
d="M528 -227v-191q-82 -67 -211 -67q-115 0 -181 62t-66 165q0 66 33 135t90 123h237q-70 -49 -104.5 -102t-34.5 -93q0 -42 26.5 -67t69.5 -25q70 0 141 60z" />
    <glyph glyph-name="tilde" unicode="&#x2dc;" horiz-adv-x="913" 
d="M254 1196l-195 64q22 99 85.5 168t170.5 69q60 0 141 -39t115 -39q57 0 76 82l203 -63q-25 -118 -89 -179t-163 -61q-53 0 -103 19.5t-91.5 39t-71.5 19.5q-58 0 -78 -80z" />
    <glyph glyph-name="hungarumlaut" unicode="&#x2dd;" horiz-adv-x="858" 
d="M264 1186h-229l155 334h302zM612 1186h-227l156 334h301z" />
    <glyph glyph-name="gravecomb" unicode="&#x300;" 
d="M-190 1520l155 -334h-229l-228 334h302z" />
    <glyph glyph-name="acutecomb" unicode="&#x301;" 
d="M-244 1186h-229l156 334h301z" />
    <glyph glyph-name="uni0302" unicode="&#x302;" 
d="M-266 1505l254 -334h-262q-67 105 -101 170q-41 -78 -104 -170h-262l254 334h221z" />
    <glyph glyph-name="tildecomb" unicode="&#x303;" 
d="M-659 1196l-195 64q22 99 85.5 168t170.5 69q60 0 141 -39t115 -39q57 0 76 82l203 -63q-25 -118 -89 -179t-163 -61q-53 0 -103.5 19.5t-92 39t-71.5 19.5q-57 0 -77 -80z" />
    <glyph glyph-name="uni0304" unicode="&#x304;" 
d="M-842 1200v230h729v-230h-729z" />
    <glyph glyph-name="uni0306" unicode="&#x306;" 
d="M-424 1163q-66 0 -128 18t-117 55t-88.5 103.5t-33.5 153.5h224q0 -56 35.5 -97.5t107.5 -41.5q73 0 108 41t35 98h226q0 -87 -33.5 -153.5t-88.5 -103.5t-117.5 -55t-129.5 -18z" />
    <glyph glyph-name="uni0307" unicode="&#x307;" 
d="M-238 1178q-68 0 -115.5 48t-47.5 115q0 69 47.5 116.5t115.5 47.5t116 -47.5t48 -116.5q0 -67 -48 -115t-116 -48z" />
    <glyph glyph-name="uni0308" unicode="&#x308;" 
d="M-647 1202q-61 0 -103.5 42t-42.5 104q0 61 42 103t104 42q61 0 103 -41.5t42 -103.5t-42 -104t-103 -42zM-229 1202q-61 0 -103.5 42t-42.5 104q0 61 42 103t104 42q61 0 103 -41.5t42 -103.5t-42 -104t-103 -42z" />
    <glyph glyph-name="uni030A" unicode="&#x30a;" 
d="M-301 1194q-97 0 -165.5 67.5t-68.5 163.5q0 97 68.5 165.5t165.5 68.5t165 -68.5t68 -165.5t-68 -164t-165 -67zM-301 1341q37 0 61.5 24.5t24.5 59.5q0 37 -24.5 61.5t-61.5 24.5q-35 0 -59.5 -24.5t-24.5 -61.5q0 -35 24.5 -59.5t59.5 -24.5z" />
    <glyph glyph-name="uni030B" unicode="&#x30b;" 
d="M-594 1186h-229l155 334h301zM-246 1186h-227l156 334h301z" />
    <glyph glyph-name="uni030C" unicode="&#x30c;" 
d="M-274 1511h262l-254 -335h-221l-254 335h262q84 -130 102 -213q10 51 33 96.5t70 116.5z" />
    <glyph glyph-name="uni0312" unicode="&#x312;" 
d="M-53 1985l-123 -332h-301l194 332h230z" />
    <glyph glyph-name="uni0326" unicode="&#x326;" 
d="M-438 -473l108 385h299l-180 -385h-227z" />
    <glyph glyph-name="uni0327" unicode="&#x327;" 
d="M-147 0l-46 -113q64 -14 104 -59t40 -113q0 -94 -77 -149t-204 -55q-78 0 -157 32l4 170q82 -26 135 -26q34 0 51.5 11.5t17.5 29.5q0 55 -180 55l86 217h226z" />
    <glyph glyph-name="uni0328" unicode="&#x328;" 
d="M-61 -227v-191q-82 -67 -211 -67q-115 0 -181.5 62t-66.5 165q0 66 33 135t90 123h237q-70 -49 -104.5 -102t-34.5 -93q0 -42 26.5 -67t69.5 -25q71 0 142 60z" />
    <glyph glyph-name="uni0394" unicode="&#x394;" horiz-adv-x="1318" 
d="M827 1454l449 -1202l2 -252h-1235l-2 246l453 1208h333zM657 1165l-327 -903h655z" />
    <glyph glyph-name="uni03A9" unicode="&#x3a9;" horiz-adv-x="1656" 
d="M1571 743q0 -163 -62 -288t-155 -199h213v-256h-682l-2 236q194 37 296.5 167.5t102.5 309.5q0 210 -129 346.5t-326 136.5q-196 0 -325 -136.5t-129 -346.5q0 -179 103.5 -309.5t297.5 -167.5l-2 -236h-684v256h213q-93 74 -155 199t-62 288q0 153 56.5 289t154 233.5
t236 154.5t296.5 57t297 -57t237 -154.5t154 -233.5t56 -289z" />
    <glyph glyph-name="pi" unicode="&#x3c0;" horiz-adv-x="1230" 
d="M1087 258q39 0 95 27v-232q-58 -67 -176 -67q-46 0 -88 10.5t-86 39t-75.5 72.5t-52 117t-20.5 166v408h-207v-799h-289v799h-172v272h1139v-272h-180v-369q0 -87 29.5 -129.5t82.5 -42.5z" />
    <glyph glyph-name="uni0400" unicode="&#x400;" horiz-adv-x="1146" 
d="M575 1903l156 -334h-229l-228 334h301zM1073 1454v-268h-639v-322h527v-262h-527v-334h639v-268h-936v1454h936z" />
    <glyph glyph-name="uni0401" unicode="&#x401;" horiz-adv-x="1146" 
d="M399 1585q-61 0 -103 42t-42 104q0 61 42 103t103 42q62 0 104 -42t42 -103t-42.5 -103.5t-103.5 -42.5zM817 1585q-61 0 -103 42t-42 104q0 61 42 103t103 42q62 0 104 -42t42 -103t-42.5 -103.5t-103.5 -42.5zM1073 1454v-268h-639v-322h527v-262h-527v-334h639v-268
h-936v1454h936z" />
    <glyph glyph-name="uni0402" unicode="&#x402;" horiz-adv-x="1605" 
d="M981 915q264 0 417.5 -157t153.5 -418q0 -46 -6.5 -95.5t-24 -111t-45.5 -117.5t-75 -110t-107.5 -93.5t-148.5 -64t-193 -24.5v262q72 0 127.5 22t87.5 55.5t53 79.5t28 88.5t7 87.5q0 149 -78 240.5t-239 91.5q-105 0 -193 -33v-618h-296v1186h-381v268h1058v-268h-381
v-312q101 41 236 41z" />
    <glyph glyph-name="uni0403" unicode="&#x403;" horiz-adv-x="1056" 
d="M553 1905h301l-227 -334h-230zM1026 1454v-268h-592v-1186h-297v1454h889z" />
    <glyph glyph-name="uni0404" unicode="&#x404;" horiz-adv-x="1327" 
d="M842 1204q-164 0 -290.5 -98t-164.5 -258h690v-246h-690q39 -159 165.5 -255.5t289.5 -96.5q99 0 187.5 28t131 56t68.5 55v-289q-57 -44 -165 -82t-259 -38q-150 0 -285 57.5t-232.5 156.5t-154.5 238t-57 295t57 295t154.5 238.5t232.5 157t285 57.5q151 0 259 -38.5
t165 -82.5v-289q-25 28 -68.5 56t-131.5 55.5t-187 27.5z" />
    <glyph glyph-name="uni0405" unicode="&#x405;" horiz-adv-x="1167" 
d="M596 -20q-104 0 -193 26.5t-152.5 72.5t-109 108t-68.5 132.5t-24 145.5h305q3 -111 71 -172.5t173 -61.5q92 0 145.5 42.5t53.5 109.5q0 41 -24 76t-64 60.5t-92.5 50t-110.5 49t-115.5 52t-110 64.5t-92.5 82t-64 108.5t-24 139.5q0 182 131.5 296t343.5 114
q222 0 357.5 -127t140.5 -334l-299 -8q-4 103 -56 160t-138 57q-76 0 -125 -40t-49 -106q0 -59 39 -103.5t101 -74.5t137 -58t150 -64t137 -81.5t101 -121t39 -173.5q0 -129 -68 -225.5t-184 -146t-262 -49.5z" />
    <glyph glyph-name="uni0406" unicode="&#x406;" horiz-adv-x="573" 
d="M434 0h-297v1454h297v-1454z" />
    <glyph glyph-name="uni0407" unicode="&#x407;" horiz-adv-x="573" 
d="M76 1585q-62 0 -104 42.5t-42 103.5t42 103t104 42t103.5 -42t41.5 -103q0 -62 -42 -104t-103 -42zM494 1585q-62 0 -104 42.5t-42 103.5t42 103t104 42t103.5 -42t41.5 -103q0 -62 -42 -104t-103 -42zM434 0h-297v1454h297v-1454z" />
    <glyph glyph-name="uni0408" unicode="&#x408;" horiz-adv-x="907" 
d="M23 111l94 245q105 -81 192 -84q89 0 136 59t47 199v924h296v-940q0 -131 -35 -234.5t-97 -168t-143 -98t-175 -33.5q-113 0 -192 41.5t-123 89.5z" />
    <glyph glyph-name="uni0409" unicode="&#x409;" horiz-adv-x="2189" 
d="M1315 995h272q247 0 401 -138t154 -368t-149.5 -359.5t-388.5 -129.5h-588v1186h-500v-676q0 -252 -137 -391t-348 -121l2 268q192 13 192 250v938h1090v-459zM1315 270h289q107 0 174 61t67 167t-67 165.5t-174 59.5h-289v-453z" />
    <glyph glyph-name="uni040A" unicode="&#x40a;" horiz-adv-x="2232" 
d="M1358 995h272q247 0 401 -138t154 -368t-149.5 -359.5t-388.5 -129.5h-588v590h-625v-590h-297v1454h297v-602h625v602h299v-459zM1358 270h289q107 0 174 61t67 167t-67 165.5t-174 59.5h-289v-453z" />
    <glyph glyph-name="uni040B" unicode="&#x40b;" horiz-adv-x="1562" 
d="M961 915q275 0 406.5 -136.5t131.5 -403.5v-375h-299v358q0 156 -64 224.5t-206 68.5q-124 0 -221 -35v-616h-297v1186h-381v268h1059v-268h-381v-312q101 41 252 41z" />
    <glyph glyph-name="uni040C" unicode="&#x40c;" horiz-adv-x="1320" 
d="M715 1905h301l-228 -334h-229zM936 1454h348l-563 -711l555 -743h-361l-493 686q8 -90 10 -209t2 -477h-297v1454h297q0 -348 -2 -459t-10 -188z" />
    <glyph glyph-name="uni040D" unicode="&#x40d;" horiz-adv-x="1525" 
d="M729 1903l156 -334h-230l-227 334h301zM1112 1454h277v-1454h-297q0 570 5 783t25 315q-60 -131 -194 -336t-514 -762h-277v1454h297q0 -550 -6 -778.5t-25 -329.5q54 125 183 324t526 784z" />
    <glyph glyph-name="uni040F" unicode="&#x40f;" horiz-adv-x="1474" 
d="M1038 1454h297v-1454h-467v-217h-262v217h-469v1454h297v-1186h604v1186z" />
    <glyph glyph-name="uni0410" unicode="&#x410;" horiz-adv-x="1468" 
d="M1430 0h-322l-109 319h-544q-53 -153 -107 -319h-307l522 1454h338zM535 563h383q-114 343 -152 482t-43 221q-6 -89 -43 -230.5t-145 -472.5z" />
    <glyph glyph-name="uni0411" unicode="&#x411;" horiz-adv-x="1296" 
d="M434 918h291q258 0 391 -121t133 -342q0 -214 -146.5 -334.5t-377.5 -120.5h-588v1454h985v-268h-688v-268zM434 270h291q101 0 163 50.5t62 142.5q0 91 -62 141.5t-163 50.5h-291v-385z" />
    <glyph glyph-name="uni0412" unicode="&#x412;" horiz-adv-x="1337" 
d="M735 0h-598v1454h561q233 0 360.5 -93t127.5 -269q0 -124 -54.5 -200t-136.5 -104q120 -22 196.5 -119.5t76.5 -232.5q0 -194 -139 -315t-394 -121zM434 1200v-336h264q87 0 138 42.5t51 125.5q0 81 -51 124.5t-138 43.5h-264zM434 639v-385h301q107 0 170.5 51t63.5 137
q0 90 -62.5 143.5t-167.5 53.5h-305z" />
    <glyph glyph-name="uni0413" unicode="&#x413;" horiz-adv-x="1056" 
d="M1026 1454v-268h-592v-1186h-297v1454h889z" />
    <glyph glyph-name="uni0414" unicode="&#x414;" horiz-adv-x="1546" 
d="M1317 1454v-1186h153v-485h-262v217h-940v-217h-264v485h146q39 0 62 71.5t26 197.5l20 917h1059zM465 268h553v918h-479l-15 -631q-2 -83 -14 -152.5t-24.5 -101.5t-20.5 -33z" />
    <glyph glyph-name="uni0415" unicode="&#x415;" horiz-adv-x="1146" 
d="M1073 1454v-268h-639v-322h527v-262h-527v-334h639v-268h-936v1454h936z" />
    <glyph glyph-name="uni0416" unicode="&#x416;" horiz-adv-x="1812" 
d="M1456 1454h336l-475 -711l467 -743h-348l-392 664q11 -99 11 -254v-410h-297v410q0 164 8 254l-391 -664h-346l467 743l-476 711h334l412 -625q-8 76 -8 232v393h297v-393q0 -158 -8 -234z" />
    <glyph glyph-name="uni0417" unicode="&#x417;" horiz-adv-x="1329" 
d="M1047 780q106 -40 164.5 -128.5t58.5 -213.5q0 -205 -161.5 -331.5t-442.5 -126.5q-309 0 -461 130t-152 363h289q0 -62 27 -107.5t74.5 -71t103 -37t119.5 -11.5q142 0 223.5 53t81.5 143q0 92 -83.5 134t-244.5 42h-131v256h139q65 2 113.5 14.5t75.5 29t44 39.5t22 42
t5 41q0 76 -72 122t-188 46q-125 0 -207 -56.5t-82 -154.5h-290q0 215 159 346.5t437 131.5q242 0 391 -109t149 -301q0 -99 -40 -173.5t-121 -111.5z" />
    <glyph glyph-name="uni0418" unicode="&#x418;" horiz-adv-x="1525" 
d="M1112 1454h277v-1454h-297q0 570 5 783t25 315q-60 -131 -194 -336t-514 -762h-277v1454h297q0 -550 -6 -778.5t-25 -329.5q54 125 183 324t526 784z" />
    <glyph glyph-name="uni0419" unicode="&#x419;" horiz-adv-x="1525" 
d="M764 1548q-66 0 -128 18t-117 55t-88.5 103.5t-33.5 153.5h224q0 -58 35.5 -99.5t107.5 -41.5q73 0 108 41.5t35 99.5h226q0 -87 -33.5 -153.5t-88.5 -103.5t-117.5 -55t-129.5 -18zM1112 1454h277v-1454h-297q0 570 5 783t25 315q-60 -131 -194 -336t-514 -762h-277
v1454h297q0 -550 -6 -778.5t-25 -329.5q54 125 183 324t526 784z" />
    <glyph glyph-name="uni041A" unicode="&#x41a;" horiz-adv-x="1320" 
d="M936 1454h348l-563 -711l555 -743h-361l-493 686q8 -90 10 -209t2 -477h-297v1454h297q0 -348 -2 -459t-10 -188z" />
    <glyph glyph-name="uni041B" unicode="&#x41b;" horiz-adv-x="1452" 
d="M31 -2l2 268q192 13 192 250v938h1090v-1454h-299v1186h-500v-676q0 -252 -137 -391t-348 -121z" />
    <glyph glyph-name="uni041C" unicode="&#x41c;" horiz-adv-x="1759" 
d="M879 819l462 635h279v-1454h-297q0 530 2.5 719.5t13.5 273.5l-462 -643l-459 643q11 -84 13.5 -274.5t2.5 -718.5h-297v1454h281z" />
    <glyph glyph-name="uni041D" unicode="&#x41d;" horiz-adv-x="1497" 
d="M1061 852v602h297v-1454h-297v590h-627v-590h-297v1454h297v-602h627z" />
    <glyph glyph-name="uni041E" unicode="&#x41e;" horiz-adv-x="1638" 
d="M819 -20q-212 0 -382 96t-265.5 267t-95.5 384t95.5 384t265.5 267.5t382 96.5t382.5 -96.5t266 -267.5t95.5 -384q0 -160 -56 -298.5t-154 -237t-236.5 -155t-297.5 -56.5zM819 258q129 0 232 63.5t159 170.5t56 235t-56 235t-159 170.5t-232 63.5q-128 0 -231 -63.5
t-159 -170.5t-56 -235t56 -235t159 -170.5t231 -63.5z" />
    <glyph glyph-name="uni041F" unicode="&#x41f;" horiz-adv-x="1474" 
d="M434 0h-297v1454h1198v-1454h-297v1186h-604v-1186z" />
    <glyph glyph-name="uni0420" unicode="&#x420;" horiz-adv-x="1329" 
d="M137 1454h588q239 0 389 -129.5t150 -359.5t-154 -368t-401 -138h-275v-459h-297v1454zM434 731h291q107 0 174.5 59.5t67.5 165.5t-67.5 167t-174.5 61h-291v-453z" />
    <glyph glyph-name="uni0421" unicode="&#x421;" horiz-adv-x="1327" 
d="M805 -20q-150 0 -285 57.5t-232.5 156.5t-154.5 238t-57 295t57 295t154.5 238.5t232.5 157t285 57.5q151 0 259 -38.5t165 -82.5v-289q-25 28 -68.5 56t-131.5 55.5t-187 27.5q-128 0 -234.5 -60t-170.5 -170t-64 -247t64 -247t170.5 -170t234.5 -60q99 0 187.5 28
t131 56t68.5 55v-289q-57 -44 -165 -82t-259 -38z" />
    <glyph glyph-name="uni0422" unicode="&#x422;" horiz-adv-x="1193" 
d="M745 0h-296v1186h-381v268h1058v-268h-381v-1186z" />
    <glyph glyph-name="uni0423" unicode="&#x423;" horiz-adv-x="1316" 
d="M989 1454h311l-655 -1454h-299l172 385l-504 1069h328q183 -417 245 -569.5t83 -243.5q21 92 83.5 250.5t235.5 562.5z" />
    <glyph glyph-name="uni0424" unicode="&#x424;" horiz-adv-x="1646" 
d="M971 1485v-154q280 0 456.5 -165t176.5 -421t-176.5 -420.5t-456.5 -164.5v-185h-297v185q-137 0 -254.5 45t-199.5 123t-128.5 186t-46.5 231t46.5 231t128.5 186t199.5 123.5t254.5 45.5v154h297zM336 745q0 -136 94.5 -229.5t243.5 -93.5v645q-151 0 -244.5 -90.5
t-93.5 -231.5zM971 1067v-645q152 1 246 92t94 231q0 138 -94.5 230t-245.5 92z" />
    <glyph glyph-name="uni0425" unicode="&#x425;" horiz-adv-x="1419" 
d="M1018 1454h360l-501 -709l501 -745h-360q-157 236 -224.5 355t-86.5 184q-16 -62 -82.5 -180t-225.5 -359h-360l502 733l-502 721h360q279 -402 310 -522q32 112 309 522z" />
    <glyph glyph-name="uni0426" unicode="&#x426;" horiz-adv-x="1556" 
d="M1335 1454v-1186h148v-485h-264v217h-1082v1454h297v-1186h604v1186h297z" />
    <glyph glyph-name="uni0427" unicode="&#x427;" horiz-adv-x="1329" 
d="M893 838v616h299v-1454h-299v578q-97 -39 -238 -39q-295 0 -443.5 137.5t-148.5 402.5v375h297v-358q0 -156 74 -224.5t236 -68.5q124 0 223 35z" />
    <glyph glyph-name="uni0428" unicode="&#x428;" horiz-adv-x="2099" 
d="M1198 268h465v1186h297v-1454h-1823v1454h297v-1186h467v1186h297v-1186z" />
    <glyph glyph-name="uni0429" unicode="&#x429;" horiz-adv-x="2187" 
d="M1960 1454v-1186h151v-485h-262v217h-1712v1454h297v-1186h467v1186h297v-1186h465v1186h297z" />
    <glyph glyph-name="uni042A" unicode="&#x42a;" horiz-adv-x="1361" 
d="M485 995h273q247 0 401 -138t154 -368t-150 -359.5t-389 -129.5h-586v1192h-188v262h485v-459zM485 270h289q107 0 174.5 61t67.5 167t-67.5 165.5t-174.5 59.5h-289v-453z" />
    <glyph glyph-name="uni042B" unicode="&#x42b;" horiz-adv-x="1884" 
d="M434 995h275q247 0 401 -138t154 -368t-150 -359.5t-389 -129.5h-588v1454h297v-459zM1448 0v1454h297v-1454h-297zM434 270h291q107 0 174.5 61t67.5 167t-67.5 165.5t-174.5 59.5h-291v-453z" />
    <glyph glyph-name="uni042C" unicode="&#x42c;" horiz-adv-x="1310" 
d="M434 995h275q247 0 401 -138t154 -368t-150 -359.5t-389 -129.5h-588v1454h297v-459zM434 270h291q107 0 174.5 61t67.5 167t-67.5 165.5t-174.5 59.5h-291v-453z" />
    <glyph glyph-name="uni042D" unicode="&#x42d;" horiz-adv-x="1327" 
d="M522 1475q150 0 285 -57.5t232.5 -157t154.5 -238.5t57 -295t-57 -295t-154.5 -238t-232.5 -156.5t-285 -57.5q-151 0 -259 38t-165 82v289q25 -28 68.5 -56t131.5 -55.5t187 -27.5q164 0 290.5 98t164.5 258h-690v246h690q-39 159 -165.5 255.5t-289.5 96.5
q-99 0 -187.5 -28t-131 -56t-68.5 -55v289q57 44 165 82.5t259 38.5z" />
    <glyph glyph-name="uni042E" unicode="&#x42e;" horiz-adv-x="2119" 
d="M1311 1475q152 0 286.5 -57.5t230 -156.5t151 -238t55.5 -296t-55.5 -296t-151 -238t-230 -156t-286.5 -57q-136 0 -259 46t-215.5 127.5t-155.5 196t-83 248.5h-164v-598h-297v1454h297v-610h162q25 182 123.5 325.5t253 224.5t338.5 81zM1311 258q181 0 302.5 134.5
t121.5 334.5t-121.5 334.5t-302.5 134.5q-183 0 -304.5 -134.5t-121.5 -334.5t121.5 -334.5t304.5 -134.5z" />
    <glyph glyph-name="uni042F" unicode="&#x42f;" horiz-adv-x="1318" 
d="M586 1454h596v-1454h-297q0 305 3.5 436t14.5 182l-493 -618h-363q314 370 386 447q72 76 116 106h-10q-61 0 -123.5 14.5t-125 49t-110.5 85t-78 129.5t-30 175q0 212 138 330t376 118zM369 979q0 -98 62.5 -155.5t174.5 -57.5h279v420h-279q-112 0 -174.5 -56
t-62.5 -151z" />
    <glyph glyph-name="uni0430" unicode="&#x430;" horiz-adv-x="1359" 
d="M954 907l47 164h246v-1071h-293v184q-40 -95 -139 -149.5t-233 -54.5q-158 0 -277 76.5t-179 202.5t-60 280q0 243 144 399t388 156q105 0 201.5 -47t154.5 -134v-6zM657 240q129 0 212 84t83 213q0 128 -83 210t-212 82q-131 0 -215 -81.5t-84 -210.5q0 -130 84 -213.5
t215 -83.5z" />
    <glyph glyph-name="uni0431" unicode="&#x431;" horiz-adv-x="1236" 
d="M682 1040q225 0 370.5 -144.5t145.5 -377.5q0 -236 -158 -386t-405 -150q-121 0 -224 39.5t-179 114.5t-119 191t-43 261v190q0 269 135 451t391 227l487 86v-248l-436 -80q-144 -26 -216 -111.5t-83 -238.5q53 95 142 135.5t192 40.5zM637 244q122 0 198 76.5t76 199.5
q0 122 -76.5 199.5t-197.5 77.5q-123 0 -201 -77.5t-78 -199.5q0 -123 78 -199.5t201 -76.5z" />
    <glyph glyph-name="uni0432" unicode="&#x432;" horiz-adv-x="1083" 
d="M836 582q93 -15 153 -85t60 -167q0 -144 -114 -237t-319 -93h-505v1067h473q188 0 291.5 -68t103.5 -198q0 -94 -41 -149t-102 -70zM598 848h-231v-205h231q56 0 90.5 27t34.5 75q0 51 -34.5 77t-90.5 26zM367 219h274q66 0 108 32.5t42 84.5q0 53 -41.5 85t-108.5 32
h-274v-234z" />
    <glyph glyph-name="uni0433" unicode="&#x433;" horiz-adv-x="878" 
d="M111 0v1071h753v-260h-467v-811h-286z" />
    <glyph glyph-name="uni0434" unicode="&#x434;" horiz-adv-x="1304" 
d="M1143 1071v-803h145v-485h-262v217h-745v-217h-265v485h146q62 0 65 172l17 631h899zM463 268h393v543h-342l-10 -354q-6 -158 -41 -189z" />
    <glyph glyph-name="uni0435" unicode="&#x435;" horiz-adv-x="1234" 
d="M618 1094q123 0 225.5 -41.5t177.5 -121.5t114 -204.5t34 -282.5h-813q11 -98 90 -161.5t191 -63.5q92 0 158 38.5t100 104.5l254 -26q-43 -154 -186 -255t-328 -101q-251 0 -410 152.5t-159 399.5q0 159 70 287.5t196.5 201.5t285.5 73zM618 860q-109 0 -182.5 -59.5
t-81.5 -153.5h520q-5 94 -76 153.5t-180 59.5z" />
    <glyph glyph-name="uni0436" unicode="&#x436;" horiz-adv-x="1624" 
d="M1200 569l428 -569h-334l-352 487q16 -148 16 -487h-290q0 341 16 489l-354 -489h-334l428 569l-426 502h334l350 -424q-14 157 -14 424h290q0 -266 -14 -420l348 420h332z" />
    <glyph glyph-name="uni0437" unicode="&#x437;" horiz-adv-x="1083" 
d="M883 571q157 -66 157 -235q0 -158 -130 -258.5t-373 -100.5q-244 0 -369 103t-133 272h278q0 -69 63.5 -111t168.5 -42q95 0 151 36.5t56 94.5t-57.5 88.5t-153.5 30.5h-127v200h104q31 0 59.5 4t59.5 14.5t49.5 33.5t18.5 55q0 55 -49.5 85.5t-135.5 30.5
q-90 0 -142 -37.5t-52 -99.5h-281q5 72 38 135t92 114t152 80.5t210 29.5q210 0 332 -89.5t122 -234.5q0 -133 -108 -199z" />
    <glyph glyph-name="uni0438" unicode="&#x438;" horiz-adv-x="1273" 
d="M397 406l500 665h264v-1071h-287v649l-497 -649h-266v1071h286v-665z" />
    <glyph glyph-name="uni0439" unicode="&#x439;" horiz-adv-x="1273" 
d="M637 1167q-66 0 -128 18t-117 55t-88.5 103.5t-33.5 153.5h224q0 -56 35.5 -97.5t107.5 -41.5q73 0 108 41t35 98h226q0 -87 -33.5 -153.5t-88.5 -103.5t-117.5 -55t-129.5 -18zM397 406l500 665h264v-1071h-287v649l-497 -649h-266v1071h286v-665z" />
    <glyph glyph-name="uni043A" unicode="&#x43a;" horiz-adv-x="1136" 
d="M655 569l488 -569h-344l-412 498q14 -134 14 -498h-290v1071h290q0 -348 -10 -426l406 426h342z" />
    <glyph glyph-name="uni043B" unicode="&#x43b;" horiz-adv-x="1200" 
d="M41 -8l2 258q66 2 109 47.5t43 144.5v629h895v-1071h-289v811h-326v-371q0 -220 -118 -337t-316 -111z" />
    <glyph glyph-name="uni043C" unicode="&#x43c;" horiz-adv-x="1378" 
d="M690 707l307 364h269v-1071h-287q0 343 7 482t32 266q-35 -68 -102 -153t-228 -267q-151 170 -216.5 254.5t-109.5 162.5q24 -118 29.5 -251t5.5 -494h-286v1071h270z" />
    <glyph glyph-name="uni043D" unicode="&#x43d;" horiz-adv-x="1253" 
d="M854 649v422h287v-1071h-287v397h-457v-397h-286v1071h286v-422h457z" />
    <glyph glyph-name="uni043E" unicode="&#x43e;" horiz-adv-x="1286" 
d="M643 -20q-252 0 -414.5 156.5t-162.5 400.5q0 119 43 222.5t119 177t183.5 115.5t231.5 42q166 0 298.5 -71.5t207 -199t74.5 -286.5q0 -161 -74.5 -288t-207 -198t-298.5 -71zM643 242q129 0 213 83.5t84 211.5q0 129 -84 211.5t-213 82.5q-128 0 -212.5 -83t-84.5 -211
q0 -127 84.5 -211t212.5 -84z" />
    <glyph glyph-name="uni043F" unicode="&#x43f;" horiz-adv-x="1228" 
d="M111 1071h1005v-1071h-287v811h-432v-811h-286v1071z" />
    <glyph glyph-name="uni0440" unicode="&#x440;" horiz-adv-x="1355" 
d="M774 1092q158 0 277 -77.5t179 -203.5t60 -279q0 -243 -144 -399t-388 -156q-105 0 -202 47t-155 134v-629h-290v1542h239l51 -180v-6q40 96 140 151.5t233 55.5zM698 240q131 0 215 83t84 212q0 130 -84 212t-215 82q-129 0 -212 -82.5t-83 -211.5q0 -128 83 -211.5
t212 -83.5z" />
    <glyph glyph-name="uni0441" unicode="&#x441;" horiz-adv-x="1052" 
d="M641 -23q-261 0 -418 156t-157 404q0 120 40.5 222.5t114.5 176.5t182 116t238 42q194 0 324 -103v-278q-122 116 -295 116q-135 0 -224.5 -84t-89.5 -210t89.5 -210.5t224.5 -84.5q171 0 295 118v-278q-130 -103 -324 -103z" />
    <glyph glyph-name="uni0442" unicode="&#x442;" horiz-adv-x="911" 
d="M600 0h-289v811h-297v260h885v-260h-299v-811z" />
    <glyph glyph-name="uni0443" unicode="&#x443;" horiz-adv-x="1230" 
d="M897 1071h309l-606 -1542h-303l178 461l-448 1081h315q144 -355 205 -525.5t78 -269.5q17 99 75 268t197 527z" />
    <glyph glyph-name="uni0444" unicode="&#x444;" horiz-adv-x="1404" 
d="M1364 539q0 -232 -147.5 -388.5t-380.5 -168.5v-453h-271v453q-230 12 -378 170t-148 387q0 227 147.5 383t378.5 168v446h271v-446q233 -12 380.5 -166t147.5 -385zM305 539q0 -122 72.5 -210.5t187.5 -105.5v625q-115 -10 -187.5 -96.5t-72.5 -212.5zM836 848v-625
q118 13 190 100.5t72 215.5q0 123 -73 210t-189 99z" />
    <glyph glyph-name="uni0445" unicode="&#x445;" horiz-adv-x="1220" 
d="M838 1071h333l-409 -518l409 -553h-333q-114 151 -168.5 235.5t-75.5 145.5q-22 -61 -76 -148.5t-160 -232.5h-331l409 541l-409 530h331q111 -141 163.5 -218t74.5 -132q20 52 73.5 129t168.5 221z" />
    <glyph glyph-name="uni0446" unicode="&#x446;" horiz-adv-x="1280" 
d="M1116 1071v-803h148v-485h-265v217h-888v1071h286v-811h432v811h287z" />
    <glyph glyph-name="uni0447" unicode="&#x447;" horiz-adv-x="1095" 
d="M698 653v418h287v-1071h-287v401q-68 -24 -172 -24q-240 0 -363.5 112.5t-123.5 309.5v272h287v-254q0 -93 51 -138.5t164 -45.5q83 0 157 20z" />
    <glyph glyph-name="uni0448" unicode="&#x448;" horiz-adv-x="1734" 
d="M1010 260h325v811h289v-1071h-1513v1071h286v-811h326v811h287v-811z" />
    <glyph glyph-name="uni0449" unicode="&#x449;" horiz-adv-x="1789" 
d="M1624 1071v-803h150v-485h-263v217h-1400v1071h286v-811h326v811h287v-811h325v811h289z" />
    <glyph glyph-name="uni044A" unicode="&#x44a;" horiz-adv-x="1187" 
d="M487 760h254q189 0 303.5 -103.5t114.5 -277.5q0 -172 -115 -275.5t-303 -103.5h-540v809h-187v262h473v-311zM487 246h222q76 0 119.5 35t43.5 98q0 65 -43.5 101t-119.5 36h-222v-270z" />
    <glyph glyph-name="uni044B" unicode="&#x44b;" horiz-adv-x="1611" 
d="M397 760h254q189 0 303.5 -103.5t114.5 -277.5q0 -172 -115 -275.5t-303 -103.5h-540v1071h286v-311zM1208 0v1071h291v-1071h-291zM397 246h221q76 0 120 35.5t44 97.5q0 65 -44 101t-120 36h-221v-270z" />
    <glyph glyph-name="uni044C" unicode="&#x44c;" horiz-adv-x="1097" 
d="M397 760h254q189 0 303.5 -103.5t114.5 -277.5q0 -172 -115 -275.5t-303 -103.5h-540v1071h286v-311zM397 246h221q76 0 120 35.5t44 97.5q0 65 -44 101t-120 36h-221v-270z" />
    <glyph glyph-name="uni044D" unicode="&#x44d;" horiz-adv-x="1009" 
d="M395 1090q258 0 416 -156t158 -402q0 -242 -158 -397t-416 -155q-196 0 -327 104l2 260q132 -119 299 -119q112 0 196 58t115 153h-457v193h459q-30 97 -114.5 156t-198.5 59q-171 0 -299 -121l-2 260q132 107 327 107z" />
    <glyph glyph-name="uni044E" unicode="&#x44e;" horiz-adv-x="1660" 
d="M1042 1092q241 0 397 -157t156 -400t-155.5 -399t-397.5 -156q-212 0 -360.5 121.5t-183.5 320.5h-101v-422h-286v1071h286v-412h103q39 195 186 314t356 119zM1042 244q122 0 199.5 82t77.5 211t-77.5 211.5t-199.5 82.5q-119 0 -195.5 -82.5t-76.5 -211.5t76.5 -211
t195.5 -82z" />
    <glyph glyph-name="uni044F" unicode="&#x44f;" horiz-adv-x="1103" 
d="M469 1071h524v-1071h-276q0 393 10 436l-360 -436h-338q161 181 240 264.5t122 116.5q-44 3 -88 15t-90 38.5t-80.5 64t-57 97t-22.5 131.5q0 165 111.5 254.5t304.5 89.5zM332 700q0 -59 40 -92t113 -33h232v246h-232q-72 0 -112.5 -32t-40.5 -89z" />
    <glyph glyph-name="uni0450" unicode="&#x450;" horiz-adv-x="1234" 
d="M584 1520l155 -334h-229l-227 334h301zM618 1094q123 0 225.5 -41.5t177.5 -121.5t114 -204.5t34 -282.5h-813q11 -98 90 -161.5t191 -63.5q92 0 158 38.5t100 104.5l254 -26q-43 -154 -186 -255t-328 -101q-251 0 -410 152.5t-159 399.5q0 159 70 287.5t196.5 201.5
t285.5 73zM618 860q-109 0 -182.5 -59.5t-81.5 -153.5h520q-5 94 -76 153.5t-180 59.5z" />
    <glyph glyph-name="uni0451" unicode="&#x451;" horiz-adv-x="1234" 
d="M410 1202q-62 0 -104 42t-42 104q0 61 42 103t104 42t103.5 -41.5t41.5 -103.5t-42 -104t-103 -42zM827 1202q-61 0 -103 42t-42 104t42 103.5t103 41.5q62 0 104 -42t42 -103q0 -62 -42.5 -104t-103.5 -42zM618 1094q123 0 225.5 -41.5t177.5 -121.5t114 -204.5
t34 -282.5h-813q11 -98 90 -161.5t191 -63.5q92 0 158 38.5t100 104.5l254 -26q-43 -154 -186 -255t-328 -101q-251 0 -410 152.5t-159 399.5q0 159 70 287.5t196.5 201.5t285.5 73zM618 860q-109 0 -182.5 -59.5t-81.5 -153.5h520q-5 94 -76 153.5t-180 59.5z" />
    <glyph glyph-name="uni0452" unicode="&#x452;" horiz-adv-x="1251" 
d="M1163 625v-625h2v-471h-295v1051q0 74 -19.5 128t-53.5 82.5t-72 41t-84 12.5q-109 0 -174.5 -70t-65.5 -205v-569h-290v1149h-238v211h238v176h290v-176h240v-211h-240v-227q107 172 330 172q87 0 163 -28t137 -83t96.5 -147t35.5 -211z" />
    <glyph glyph-name="uni0453" unicode="&#x453;" horiz-adv-x="878" 
d="M582 1186h-230l156 334h301zM111 0v1071h753v-260h-467v-811h-286z" />
    <glyph glyph-name="uni0454" unicode="&#x454;" horiz-adv-x="1009" 
d="M641 227q171 0 299 121l2 -260q-131 -106 -328 -106q-258 0 -415.5 155.5t-157.5 401.5q0 242 157.5 397.5t415.5 155.5q196 0 328 -105l-2 -260q-132 119 -299 119q-112 0 -196 -58t-115 -153h456v-193h-458q30 -97 114.5 -156t198.5 -59z" />
    <glyph glyph-name="uni0455" unicode="&#x455;" horiz-adv-x="1052" 
d="M541 -20q-98 0 -183.5 21.5t-155 64.5t-111 114.5t-44.5 165.5l283 10q6 -67 66.5 -108t152.5 -41q72 0 117 25.5t45 70.5q0 32 -26.5 55t-70.5 36t-99.5 28t-114 29t-114 39.5t-99.5 58t-70.5 87.5t-26.5 126q0 152 123.5 242t306.5 90q194 0 320 -99.5t129 -242.5
l-277 -9q-8 58 -54.5 94.5t-121.5 36.5q-60 0 -101.5 -24.5t-41.5 -67.5q0 -35 35 -59t90.5 -38.5t122.5 -29t134.5 -38.5t123 -58t90.5 -96t35 -146q0 -159 -128 -248t-335 -89z" />
    <glyph glyph-name="uni0456" unicode="&#x456;" horiz-adv-x="512" 
d="M256 1178q-68 0 -116 48t-48 115q0 69 48 116.5t116 47.5t116 -47.5t48 -116.5q0 -67 -48 -115t-116 -48zM111 1071h290v-1071h-290v1071z" />
    <glyph glyph-name="uni0457" unicode="&#x457;" horiz-adv-x="512" 
d="M47 1202q-61 0 -103 42t-42 104t42 103.5t103 41.5q62 0 104 -42t42 -103q0 -62 -42.5 -104t-103.5 -42zM465 1202q-61 0 -103.5 42t-42.5 104q0 61 42 103t104 42q61 0 103 -41.5t42 -103.5t-42 -104t-103 -42zM111 1071h290v-1071h-290v1071z" />
    <glyph glyph-name="uni0458" unicode="&#x458;" horiz-adv-x="514" 
d="M258 1178q-68 0 -116 48t-48 115q0 69 48 116.5t116 47.5t116 -47.5t48 -116.5q0 -67 -48 -115t-116 -48zM-84 -471l195 489v1053h292v-1071l-184 -471h-303z" />
    <glyph glyph-name="uni0459" unicode="&#x459;" horiz-adv-x="1787" 
d="M1090 760h251q189 0 303.5 -103.5t114.5 -277.5q0 -172 -115 -275.5t-303 -103.5h-540v811h-326v-371q0 -220 -118 -337t-316 -111l2 258q66 2 109 47.5t43 144.5v629h895v-311zM1090 246h219q76 0 120 35.5t44 97.5q0 65 -44 101t-120 36h-219v-270z" />
    <glyph glyph-name="uni045A" unicode="&#x45a;" horiz-adv-x="1841" 
d="M1141 760h254q188 0 302.5 -103.5t114.5 -277.5q0 -173 -114.5 -276t-302.5 -103h-541v397h-457v-397h-286v1071h286v-422h457v422h287v-311zM1141 246h221q76 0 120 35.5t44 97.5q0 65 -44 101t-120 36h-221v-270z" />
    <glyph glyph-name="uni045B" unicode="&#x45b;" horiz-adv-x="1251" 
d="M731 1094q87 0 163 -28t137 -83t96.5 -147t35.5 -211v-625h-293v580q0 74 -19.5 128t-53.5 82.5t-72 41t-84 12.5q-109 0 -174.5 -70t-65.5 -205v-569h-290v1149h-238v211h238v176h290v-176h240v-211h-240v-227q107 172 330 172z" />
    <glyph glyph-name="uni045C" unicode="&#x45c;" horiz-adv-x="1136" 
d="M590 1520h301l-227 -334h-230zM655 569l488 -569h-344l-412 498q14 -134 14 -498h-290v1071h290q0 -348 -10 -426l406 426h342z" />
    <glyph glyph-name="uni045D" unicode="&#x45d;" horiz-adv-x="1273" 
d="M604 1524l156 -334h-230l-227 334h301zM397 406l500 665h264v-1071h-287v649l-497 -649h-266v1071h286v-665z" />
    <glyph glyph-name="uni045F" unicode="&#x45f;" horiz-adv-x="1228" 
d="M829 1071h287v-1071h-368v-217h-265v217h-372v1071h286v-811h432v811z" />
    <glyph glyph-name="uni0490" unicode="&#x490;" horiz-adv-x="1056" 
d="M745 1454v174h281v-442h-592v-1186h-297v1454h608z" />
    <glyph glyph-name="uni0491" unicode="&#x491;" horiz-adv-x="878" 
d="M584 1071v174h280v-434h-467v-811h-286v1071h473z" />
    <glyph glyph-name="Wgrave" unicode="&#x1e80;" horiz-adv-x="2019" 
d="M975 1903l155 -334h-229l-227 334h301zM1694 1454h301l-393 -1454h-342q-134 529 -185 753t-63 347q-12 -124 -65 -344.5t-197 -755.5h-334l-389 1454h313q223 -899 260 -1132q14 131 64.5 351t191.5 781h324q226 -877 262 -1104q33 237 252 1104z" />
    <glyph glyph-name="wgrave" unicode="&#x1e81;" horiz-adv-x="1732" 
d="M831 1520l156 -334h-229l-228 334h301zM1391 1071h297l-326 -1071h-295q-116 392 -153 537t-44 237q-9 -91 -48 -238t-158 -536h-295l-324 1071h303q108 -397 142.5 -540t44.5 -238q10 98 45.5 239.5t148.5 538.5h291q106 -371 141 -511t47 -241q8 77 37.5 196.5
t128.5 491.5q11 42 17 64z" />
    <glyph glyph-name="Wacute" unicode="&#x1e82;" horiz-adv-x="2019" 
d="M1044 1905h302l-228 -334h-229zM1694 1454h301l-393 -1454h-342q-134 529 -185 753t-63 347q-12 -124 -65 -344.5t-197 -755.5h-334l-389 1454h313q223 -899 260 -1132q14 131 64.5 351t191.5 781h324q226 -877 262 -1104q33 237 252 1104z" />
    <glyph glyph-name="wacute" unicode="&#x1e83;" horiz-adv-x="1732" 
d="M901 1520h301l-227 -334h-230zM1391 1071h297l-326 -1071h-295q-116 392 -153 537t-44 237q-9 -91 -48 -238t-158 -536h-295l-324 1071h303q108 -397 142.5 -540t44.5 -238q10 98 45.5 239.5t148.5 538.5h291q106 -371 141 -511t47 -241q8 77 37.5 196.5t128.5 491.5
q11 42 17 64z" />
    <glyph glyph-name="Wdieresis" unicode="&#x1e84;" horiz-adv-x="2019" 
d="M801 1585q-61 0 -103.5 42.5t-42.5 103.5t42 103t104 42q61 0 103 -42t42 -103q0 -62 -42 -104t-103 -42zM1219 1585q-61 0 -103.5 42.5t-42.5 103.5t42 103t104 42q61 0 103 -42t42 -103q0 -62 -42 -104t-103 -42zM1694 1454h301l-393 -1454h-342q-134 529 -185 753
t-63 347q-12 -124 -65 -344.5t-197 -755.5h-334l-389 1454h313q223 -899 260 -1132q14 131 64.5 351t191.5 781h324q226 -877 262 -1104q33 237 252 1104z" />
    <glyph glyph-name="wdieresis" unicode="&#x1e85;" horiz-adv-x="1732" 
d="M655 1202q-61 0 -103 42t-42 104t42 103.5t103 41.5q62 0 104 -42t42 -103q0 -62 -42.5 -104t-103.5 -42zM1073 1202q-61 0 -103 42t-42 104t42 103.5t103 41.5q62 0 104 -42t42 -103q0 -62 -42.5 -104t-103.5 -42zM1391 1071h297l-326 -1071h-295q-116 392 -153 537
t-44 237q-9 -91 -48 -238t-158 -536h-295l-324 1071h303q108 -397 142.5 -540t44.5 -238q10 98 45.5 239.5t148.5 538.5h291q106 -371 141 -511t47 -241q8 77 37.5 196.5t128.5 491.5q11 42 17 64z" />
    <glyph glyph-name="uni1E9E" unicode="&#x1e9e;" horiz-adv-x="1380" 
d="M1309 1454l-297 -598q145 -27 230 -139.5t85 -267.5q0 -195 -129.5 -332t-325.5 -137q-180 0 -294 88v272q105 -96 233 -96q90 0 150.5 53.5t60.5 144.5q0 100 -75 157.5t-204 57.5h-129l275 549h-455v-1206h-297v1454h1172z" />
    <glyph glyph-name="uni1EBC" unicode="&#x1ebc;" horiz-adv-x="1146" 
d="M485 1659q-57 0 -77 -80l-195 63q22 99 85.5 168.5t170.5 69.5q60 0 141 -39t115 -39q57 0 76 82l203 -63q-25 -118 -89 -179t-163 -61q-53 0 -103.5 19.5t-92 39t-71.5 19.5zM1073 1454v-268h-639v-322h527v-262h-527v-334h639v-268h-936v1454h936z" />
    <glyph glyph-name="uni1EBD" unicode="&#x1ebd;" horiz-adv-x="1234" 
d="M496 1276q-58 0 -78 -80l-195 64q22 99 85.5 168t170.5 69q60 0 141 -39t115 -39q57 0 76 82l203 -63q-25 -118 -89 -179t-163 -61q-53 0 -103 19.5t-91.5 39t-71.5 19.5zM618 1094q123 0 225.5 -41.5t177.5 -121.5t114 -204.5t34 -282.5h-813q11 -98 90 -161.5
t191 -63.5q92 0 158 38.5t100 104.5l254 -26q-43 -154 -186 -255t-328 -101q-251 0 -410 152.5t-159 399.5q0 159 70 287.5t196.5 201.5t285.5 73zM618 860q-109 0 -182.5 -59.5t-81.5 -153.5h520q-5 94 -76 153.5t-180 59.5z" />
    <glyph glyph-name="Ygrave" unicode="&#x1ef2;" horiz-adv-x="1335" 
d="M633 1903l155 -334h-229l-227 334h301zM991 1454h332l-506 -864v-590h-297v590l-508 864h340q153 -267 223.5 -404t96.5 -219q26 80 96.5 217t222.5 406z" />
    <glyph glyph-name="ygrave" unicode="&#x1ef3;" horiz-adv-x="1230" 
d="M584 1520l155 -334h-229l-227 334h301zM897 1071h309l-606 -1542h-303l178 461l-448 1081h315q144 -355 205 -525.5t78 -269.5q17 99 75 268t197 527z" />
    <glyph glyph-name="uni1EF8" unicode="&#x1ef8;" horiz-adv-x="1335" 
d="M545 1659q-58 0 -78 -80l-195 63q22 99 85.5 168.5t170.5 69.5q60 0 141 -39t115 -39q57 0 76 82l203 -63q-25 -118 -89 -179t-163 -61q-53 0 -103 19.5t-91.5 39t-71.5 19.5zM991 1454h332l-506 -864v-590h-297v590l-508 864h340q153 -267 223.5 -404t96.5 -219
q26 80 96.5 217t222.5 406z" />
    <glyph glyph-name="uni1EF9" unicode="&#x1ef9;" horiz-adv-x="1230" 
d="M494 1276q-58 0 -78 -80l-195 64q22 99 85.5 168t170.5 69q60 0 141 -39t115 -39q57 0 76 82l203 -63q-25 -118 -89 -179t-163 -61q-53 0 -103 19.5t-91.5 39t-71.5 19.5zM897 1071h309l-606 -1542h-303l178 461l-448 1081h315q144 -355 205 -525.5t78 -269.5
q17 99 75 268t197 527z" />
    <glyph glyph-name="endash" unicode="&#x2013;" horiz-adv-x="1280" 
d="M0 414v264h1280v-264h-1280z" />
    <glyph glyph-name="emdash" unicode="&#x2014;" horiz-adv-x="1550" 
d="M0 414v264h1550v-264h-1550z" />
    <glyph glyph-name="quoteleft" unicode="&#x2018;" horiz-adv-x="591" 
d="M496 1452l-121 -467h-299l192 467h228z" />
    <glyph glyph-name="quoteright" unicode="&#x2019;" horiz-adv-x="591" 
d="M96 987l121 467h299l-192 -467h-228z" />
    <glyph glyph-name="quotesinglbase" unicode="&#x201a;" horiz-adv-x="591" 
d="M96 -209l121 467h299l-192 -467h-228z" />
    <glyph glyph-name="quotedblleft" unicode="&#x201c;" horiz-adv-x="1001" 
d="M496 1452l-121 -467h-299l192 467h228zM905 1452l-121 -467h-299l193 467h227z" />
    <glyph glyph-name="quotedblright" unicode="&#x201d;" horiz-adv-x="1001" 
d="M96 987l121 467h299l-192 -467h-228zM506 987l121 467h299l-193 -467h-227z" />
    <glyph glyph-name="quotedblbase" unicode="&#x201e;" horiz-adv-x="1001" 
d="M96 -209l121 467h299l-192 -467h-228zM506 -209l121 467h299l-193 -467h-227z" />
    <glyph glyph-name="dagger" unicode="&#x2020;" horiz-adv-x="985" 
d="M633 1128h295v-245h-295v-1047h-281v1047h-295v245h295v463h281v-463z" />
    <glyph glyph-name="daggerdbl" unicode="&#x2021;" horiz-adv-x="1044" 
d="M958 1130v-245h-296v-359h296v-245h-296v-445h-279v445h-297v245h297v359h-297v245h297v461h279v-461h296z" />
    <glyph glyph-name="bullet" unicode="&#x2022;" horiz-adv-x="837" 
d="M420 455q-99 0 -167.5 68t-68.5 167q0 97 69 165.5t167 68.5q97 0 166 -68.5t69 -165.5q0 -99 -69 -167t-166 -68z" />
    <glyph glyph-name="perthousand" unicode="&#x2030;" horiz-adv-x="2932" 
d="M475 686q-178 0 -292.5 110t-114.5 281q0 172 114.5 282.5t292.5 110.5q177 0 291.5 -110.5t114.5 -282.5q0 -170 -114.5 -280.5t-291.5 -110.5zM1221 1454h239l-643 -1454h-239zM475 893q82 0 135.5 51.5t53.5 134.5q0 82 -53 134.5t-136 52.5q-80 0 -133 -53t-53 -134
q0 -82 53 -134t133 -52zM1563 -25q-177 0 -291.5 111t-114.5 281q0 172 114.5 282.5t291.5 110.5q178 0 292.5 -110.5t114.5 -282.5q0 -171 -114.5 -281.5t-292.5 -110.5zM2458 -25q-177 0 -291.5 111t-114.5 281q0 172 114.5 282.5t291.5 110.5q178 0 292.5 -110.5
t114.5 -282.5q0 -171 -114.5 -281.5t-292.5 -110.5zM1563 182q84 0 137 52t53 135q0 82 -53 134t-137 52q-80 0 -133.5 -52.5t-53.5 -133.5q0 -82 53.5 -134.5t133.5 -52.5zM2458 182q84 0 137 52t53 135q0 82 -53 134t-137 52q-80 0 -133.5 -52.5t-53.5 -133.5
q0 -82 53.5 -134.5t133.5 -52.5z" />
    <glyph glyph-name="guilsinglleft" unicode="&#x2039;" horiz-adv-x="620" 
d="M295 889h293l-254 -389l254 -391h-293l-260 389z" />
    <glyph glyph-name="guilsinglright" unicode="&#x203a;" horiz-adv-x="620" 
d="M35 889h291l260 -391l-260 -389h-291l254 391z" />
    <glyph glyph-name="fraction" unicode="&#x2044;" horiz-adv-x="393" 
d="M399 1454h240l-645 -1454h-240z" />
    <glyph glyph-name="uni2070" unicode="&#x2070;" horiz-adv-x="866" 
d="M432 711q-70 0 -135 21t-118.5 62t-85.5 108.5t-32 152.5v252q0 86 32.5 154t86 109t118 62t134.5 21q71 0 136 -21.5t118 -62.5t85 -109t32 -153v-252q0 -85 -32 -152.5t-85 -108.5t-118 -62t-136 -21zM432 915q64 0 109 37t45 103v252q0 66 -45 102.5t-109 36.5
t-108.5 -36.5t-44.5 -102.5v-252q0 -66 45 -103t108 -37z" />
    <glyph glyph-name="uni2074" unicode="&#x2074;" horiz-adv-x="780" 
d="M625 1638v-575h116v-172h-116v-168h-211v168h-404v145l416 602h199zM236 1063h178q0 221 24 354q-37 -89 -79.5 -162.5t-122.5 -191.5z" />
    <glyph glyph-name="uni2075" unicode="&#x2075;" horiz-adv-x="794" 
d="M401 711q-153 0 -248.5 89.5t-95.5 209.5h217q5 -42 41 -72.5t86 -30.5q54 0 91.5 35.5t37.5 95.5q0 56 -36 91.5t-91 35.5q-40 0 -75 -21t-52 -57h-215l86 551h537v-190h-365l-20 -141q60 45 152 45q132 0 214.5 -87t82.5 -218q0 -139 -95.5 -237.5t-251.5 -98.5z" />
    <glyph glyph-name="uni2076" unicode="&#x2076;" horiz-adv-x="733" 
d="M434 1341q116 0 198.5 -85t82.5 -212q0 -141 -96.5 -237t-247.5 -96t-248.5 94.5t-97.5 224.5q0 99 57 205l225 403h238l-168 -303q27 6 57 6zM371 915q56 0 91.5 36t35.5 93q0 56 -36 91.5t-91 35.5q-57 0 -94 -36t-37 -91q0 -57 37 -93t94 -36z" />
    <glyph glyph-name="uni2077" unicode="&#x2077;" horiz-adv-x="659" 
d="M647 1638v-163l-309 -752h-232l310 725h-410v190h641z" />
    <glyph glyph-name="uni2078" unicode="&#x2078;" horiz-adv-x="770" 
d="M612 1206q105 -73 105 -205q0 -128 -94 -211t-240 -83q-144 0 -237 83t-93 211q0 131 103 207q-74 68 -74 176q0 116 85 191.5t218 75.5q132 0 217.5 -75.5t85.5 -191.5q0 -113 -76 -178zM385 1473q-42 0 -69 -26t-27 -67q0 -40 27 -66t69 -26q44 0 72 26t28 66t-28 66.5
t-72 26.5zM385 901q51 0 84 31.5t33 79.5q0 46 -33 77t-84 31q-49 0 -82 -31t-33 -77q0 -49 32.5 -80t82.5 -31z" />
    <glyph glyph-name="uni2079" unicode="&#x2079;" horiz-adv-x="735" 
d="M365 1653q150 0 247 -95.5t97 -226.5q0 -95 -58 -203l-225 -405h-238l168 303q-30 -6 -57 -6q-116 0 -198.5 86t-82.5 213q0 140 97.5 237t249.5 97zM365 1192q56 0 92.5 36t36.5 91t-36.5 91t-92.5 36t-92.5 -36t-36.5 -91t36.5 -91t92.5 -36z" />
    <glyph glyph-name="uni207D" unicode="&#x207d;" horiz-adv-x="522" 
d="M473 522v-194q-179 0 -274 90.5t-95 265.5v612q0 177 95 268t274 91v-195q-81 0 -126.5 -41t-45.5 -121v-614q0 -80 45.5 -121t126.5 -41z" />
    <glyph glyph-name="uni207E" unicode="&#x207e;" horiz-adv-x="522" 
d="M49 1460v195q178 0 273.5 -90.5t95.5 -266.5v-612q0 -177 -95 -267.5t-274 -90.5v194q81 0 126.5 41t45.5 121v614q0 81 -45 121.5t-127 40.5z" />
    <glyph glyph-name="uni2080" unicode="&#x2080;" horiz-adv-x="866" 
d="M432 -483q-70 0 -135 21t-118.5 62t-85.5 108.5t-32 152.5v252q0 86 32.5 154t86 109t118 62t134.5 21q71 0 136 -21.5t118 -62.5t85 -109t32 -153v-252q0 -85 -32 -152.5t-85 -108.5t-118 -62t-136 -21zM432 -279q64 0 109 37t45 103v252q0 66 -45 102.5t-109 36.5
t-108.5 -36.5t-44.5 -102.5v-252q0 -66 45 -103t108 -37z" />
    <glyph glyph-name="uni2081" unicode="&#x2081;" horiz-adv-x="694" 
d="M639 -471h-580v192h181v490l-179 -39v195l398 77v-723h180v-192z" />
    <glyph glyph-name="uni2082" unicode="&#x2082;" horiz-adv-x="778" 
d="M711 174q0 -63 -20 -113t-53.5 -82t-74.5 -57t-85 -45t-82.5 -39.5t-69 -45.5t-43.5 -58h428v-205h-654v143q0 71 24 129t62.5 95t85 67.5t93.5 54t85.5 45.5t62.5 50t24 61q0 34 -26.5 60t-74.5 26q-51 0 -82 -30t-37 -85h-217q0 135 97.5 224.5t238.5 89.5
q134 0 226 -76t92 -209z" />
    <glyph glyph-name="uni2083" unicode="&#x2083;" horiz-adv-x="776" 
d="M608 12q117 -75 117 -211q0 -122 -89 -203t-245 -81q-161 0 -256.5 87.5t-95.5 225.5h211q0 -61 39 -93t94 -32q53 0 88 28.5t35 76.5q0 96 -139 96h-70v186h76q48 0 74 23t26 61q0 42 -29 67t-73 25q-48 0 -81.5 -28t-33.5 -82h-211q0 131 91.5 216t244.5 85
q137 0 224 -68.5t87 -185.5q0 -116 -84 -193z" />
    <glyph glyph-name="uni2084" unicode="&#x2084;" horiz-adv-x="780" 
d="M625 444v-575h116v-172h-116v-168h-211v168h-404v145l416 602h199zM236 -131h178q0 221 24 354q-37 -89 -79.5 -162.5t-122.5 -191.5z" />
    <glyph glyph-name="uni2085" unicode="&#x2085;" horiz-adv-x="794" 
d="M401 -483q-153 0 -248.5 89.5t-95.5 209.5h217q5 -42 41 -72.5t86 -30.5q54 0 91.5 35.5t37.5 95.5q0 56 -36 91.5t-91 35.5q-41 0 -75.5 -20.5t-51.5 -56.5h-215l86 550h537v-190h-365l-20 -141q60 45 152 45q132 0 214.5 -87t82.5 -218q0 -139 -95.5 -237.5
t-251.5 -98.5z" />
    <glyph glyph-name="uni2086" unicode="&#x2086;" horiz-adv-x="733" 
d="M434 147q116 0 198.5 -85t82.5 -212q0 -141 -96.5 -237t-247.5 -96t-248.5 94.5t-97.5 224.5q0 99 57 205l225 403h238l-168 -303q27 6 57 6zM371 -279q56 0 91.5 36t35.5 93q0 56 -36 91.5t-91 35.5q-57 0 -94 -36t-37 -91q0 -57 37 -93t94 -36z" />
    <glyph glyph-name="uni2087" unicode="&#x2087;" horiz-adv-x="659" 
d="M647 444v-163l-309 -752h-232l310 725h-410v190h641z" />
    <glyph glyph-name="uni2088" unicode="&#x2088;" horiz-adv-x="770" 
d="M612 12q105 -74 105 -205q0 -128 -94 -211t-240 -83q-144 0 -237 83t-93 211q0 131 103 207q-74 68 -74 176q0 116 85 191.5t218 75.5q132 0 217.5 -75.5t85.5 -191.5q0 -113 -76 -178zM385 279q-42 0 -69 -26t-27 -67q0 -40 27 -66t69 -26q44 0 72 26t28 66t-28 66.5
t-72 26.5zM385 -293q51 0 84 31.5t33 79.5q0 46 -33 77t-84 31q-49 0 -82 -31t-33 -77q0 -49 32.5 -80t82.5 -31z" />
    <glyph glyph-name="uni2089" unicode="&#x2089;" horiz-adv-x="735" 
d="M365 459q150 0 247 -95.5t97 -226.5q0 -95 -58 -203l-225 -405h-238l168 303q-30 -6 -57 -6q-116 0 -198.5 86t-82.5 213q0 140 97.5 237t249.5 97zM365 -2q56 0 92.5 36t36.5 91t-36.5 91t-92.5 36t-92.5 -36t-36.5 -91t36.5 -91t92.5 -36z" />
    <glyph glyph-name="uni208D" unicode="&#x208d;" horiz-adv-x="522" 
d="M473 -18v-195q-179 0 -274 90.5t-95 265.5v613q0 177 95 267.5t274 90.5v-194q-81 0 -126.5 -41t-45.5 -121v-615q0 -81 45 -121t127 -40z" />
    <glyph glyph-name="uni208E" unicode="&#x208e;" horiz-adv-x="522" 
d="M49 920v194q179 0 274 -90.5t95 -265.5v-613q0 -177 -95 -267.5t-274 -90.5v195q81 0 126.5 40.5t45.5 120.5v615q0 80 -45.5 121t-126.5 41z" />
    <glyph glyph-name="Euro" unicode="&#x20ac;" horiz-adv-x="1501" 
d="M1008 1204q-127 0 -234.5 -61.5t-169.5 -167.5h653l-49 -178h-663q-4 -46 -4 -70q0 -33 2 -49h641l-49 -178h-541q59 -116 170 -183t244 -67q76 0 145 15.5t117 39.5t78 44.5t49 39.5v-289q-57 -44 -165.5 -82t-260.5 -38q-246 0 -436.5 144t-260.5 376h-172v178h142
q-2 16 -2 49q0 47 2 70h-142v178h179q74 224 262 362t428 138q152 0 260.5 -38.5t165.5 -82.5v-289q-46 48 -146.5 93.5t-242.5 45.5z" />
    <glyph glyph-name="uni20B4" unicode="&#x20b4;" horiz-adv-x="1482" 
d="M1153 971h229v-185h-1286v185h711q57 10 86 39.5t29 72.5q0 59 -49 96.5t-125 37.5q-83 0 -136.5 -45t-56.5 -119h-305q3 182 146 302t368 120q107 0 195 -28.5t143.5 -75.5t86 -105t30.5 -119q0 -106 -66 -176zM283 477h-187v185h1286v-185h-696q-143 -18 -143 -108
q0 -61 53.5 -96t151.5 -35q96 0 159 37t66 106h313q-2 -79 -38 -150t-103 -127.5t-172.5 -90t-235.5 -33.5q-239 0 -372.5 99t-133.5 249q0 85 52 149z" />
    <glyph glyph-name="uni20B8" unicode="&#x20b8;" horiz-adv-x="1243" 
d="M1151 1260h-1059v194h1059v-194zM770 0h-297v946h-381v195h1059v-195h-381v-946z" />
    <glyph glyph-name="uni20BD" unicode="&#x20bd;" horiz-adv-x="1509" 
d="M885 518h-248v-112h262v-195h-262v-211h-297v211h-244v195h244v112h-246v195h246v741h561q240 0 381 -121t141 -342t-144 -347t-394 -126zM901 1184h-264v-402h264q100 0 162.5 52.5t62.5 146.5q0 96 -62.5 149.5t-162.5 53.5z" />
    <glyph glyph-name="uni20BF" unicode="&#x20bf;" horiz-adv-x="1337" 
d="M1268 436q0 -164 -99.5 -277.5t-287.5 -146.5v-196h-179v184h-129v-184h-178v184h-258v1454h258v184h178v-184h125h4v184h179v-202q148 -31 226.5 -119t78.5 -225q0 -124 -54.5 -200t-136.5 -104q120 -22 196.5 -119.5t76.5 -232.5zM887 1032q0 81 -51 124.5t-138 43.5
h-264v-336h264q87 0 138 42.5t51 125.5zM434 254h301q107 0 170.5 51t63.5 137q0 90 -62.5 143.5t-167.5 53.5h-305v-385z" />
    <glyph glyph-name="uni2116" unicode="&#x2116;" horiz-adv-x="2439" 
d="M1985 686q-178 0 -292 110t-114 281q0 172 114 282.5t292 110.5t292.5 -110.5t114.5 -282.5q0 -171 -114.5 -281t-292.5 -110zM414 1454l702 -989q-10 88 -12 275.5t-2 713.5h289v-1454h-277l-700 979q14 -146 14 -979h-291v1454h277zM1985 1266q-80 0 -133.5 -53
t-53.5 -134q0 -82 53.5 -134t133.5 -52q84 0 137 51.5t53 134.5q0 82 -53 134.5t-137 52.5zM2367 375h-768v211h768v-211z" />
    <glyph glyph-name="trademark" unicode="&#x2122;" horiz-adv-x="1728" 
d="M266 1270h-194v184h594v-184h-195v-582h-205v582zM1155 1188l217 266h191v-766h-203q0 244 3.5 348t14.5 160q-45 -83 -223 -289q-101 119 -149 182t-78 119q14 -57 18 -161t4 -359h-202v766h190z" />
    <glyph glyph-name="uni2153" unicode="&#x2153;" horiz-adv-x="1861" 
d="M459 731h180v-192h-580v192h181v490l-179 -39v194l398 78v-723zM449 0l645 1454h239l-645 -1454h-239zM1696 483q116 -75 116 -211q0 -122 -88.5 -203t-244.5 -81q-161 0 -257 87.5t-96 225.5h211q0 -61 39 -93t94 -32q53 0 88 28.5t35 76.5q0 96 -139 96h-70v186h76
q48 0 74.5 23t26.5 61q0 42 -29.5 67t-73.5 25q-48 0 -81.5 -28t-33.5 -82h-210q0 131 91 216t244 85q138 0 225 -69t87 -185t-84 -193z" />
    <glyph glyph-name="uni2154" unicode="&#x2154;" horiz-adv-x="1945" 
d="M283 743h428v-204h-654v143q0 71 24 129t62.5 95t85 67.5t93.5 54t85.5 45.5t62.5 50t24 61q0 34 -26.5 60t-74.5 26q-51 0 -82 -30t-37 -85h-217q0 135 97.5 224t238.5 89q134 0 226 -75.5t92 -208.5q0 -63 -20 -113t-53.5 -82t-74.5 -57.5t-85 -45.5t-82.5 -39
t-69 -45.5t-43.5 -58.5zM532 0l646 1454h239l-645 -1454h-240zM1780 483q116 -75 116 -211q0 -122 -88.5 -203t-244.5 -81q-161 0 -257 87.5t-96 225.5h211q0 -61 39 -93t94 -32q53 0 88 28.5t35 76.5q0 96 -139 96h-70v186h76q48 0 74.5 23t26.5 61q0 42 -29.5 67t-73.5 25
q-48 0 -81.5 -28t-33.5 -82h-210q0 131 91 216t244 85q138 0 225 -69t87 -185t-84 -193z" />
    <glyph glyph-name="oneeighth" unicode="&#x215b;" horiz-adv-x="1857" 
d="M459 731h180v-192h-580v192h181v490l-179 -39v194l398 78v-723zM449 0l645 1454h239l-645 -1454h-239zM1700 483q104 -73 104 -204q0 -128 -94 -211.5t-240 -83.5q-144 0 -236.5 83.5t-92.5 211.5q0 131 102 206q-74 68 -74 177q0 116 85.5 191t218.5 75q132 0 217.5 -75
t85.5 -191q0 -114 -76 -179zM1473 750q-42 0 -69.5 -26t-27.5 -67q0 -40 27 -66t70 -26q44 0 72 26t28 66t-28 66.5t-72 26.5zM1473 178q51 0 83.5 31.5t32.5 79.5q0 46 -32.5 77t-83.5 31q-49 0 -82 -31t-33 -77q0 -49 32.5 -80t82.5 -31z" />
    <glyph glyph-name="threeeighths" unicode="&#x215c;" horiz-adv-x="1939" 
d="M725 811q0 -122 -89 -203.5t-245 -81.5q-160 0 -256 87.5t-96 226.5h211q0 -61 39 -93t94 -32q53 0 88 28t35 76q0 96 -139 96h-70v187h76q48 0 74 23t26 61q0 42 -29 67t-73 25q-48 0 -81.5 -28.5t-33.5 -82.5h-211q0 131 91.5 216t244.5 85q137 0 224 -68.5t87 -185.5
q0 -115 -84 -192q117 -75 117 -211zM530 0l646 1454h239l-645 -1454h-240zM1782 483q104 -73 104 -204q0 -128 -94 -211.5t-240 -83.5q-144 0 -236.5 83.5t-92.5 211.5q0 131 102 206q-74 68 -74 177q0 116 85 191t218 75q132 0 218 -75t86 -191q0 -114 -76 -179zM1554 750
q-42 0 -69 -26t-27 -67q0 -40 27 -66t69 -26q44 0 72.5 26t28.5 66t-28.5 66.5t-72.5 26.5zM1554 178q51 0 84 31.5t33 79.5q0 46 -33 77t-84 31q-49 0 -81.5 -31t-32.5 -77q0 -49 32 -80t82 -31z" />
    <glyph glyph-name="fiveeighths" unicode="&#x215d;" horiz-adv-x="1957" 
d="M748 862q0 -139 -95.5 -237.5t-251.5 -98.5q-153 0 -248.5 89.5t-95.5 209.5h217q5 -42 41 -72t86 -30q54 0 91.5 35.5t37.5 95.5q0 56 -36 91.5t-91 35.5q-40 0 -75 -21t-52 -57h-215l86 551h537v-190h-365l-20 -142q60 45 152 45q132 0 214.5 -87t82.5 -218zM549 0
l645 1454h240l-646 -1454h-239zM1800 483q105 -73 105 -204q0 -128 -94 -211.5t-240 -83.5q-144 0 -237 83.5t-93 211.5q0 131 102 206q-73 67 -73 177q0 116 85 191t218 75q132 0 217.5 -75t85.5 -191q0 -114 -76 -179zM1573 750q-42 0 -69 -26t-27 -67q0 -40 27 -66
t69 -26q44 0 72 26t28 66t-28 66.5t-72 26.5zM1573 178q51 0 84 31.5t33 79.5q0 46 -33 77t-84 31q-49 0 -82 -31t-33 -77q0 -49 32.5 -80t82.5 -31z" />
    <glyph glyph-name="seveneighths" unicode="&#x215e;" horiz-adv-x="1755" 
d="M6 1454h641v-164l-309 -751h-232l310 725h-410v190zM346 0l645 1454h240l-645 -1454h-240zM1597 483q105 -73 105 -204q0 -128 -94 -211.5t-240 -83.5q-144 0 -237 83.5t-93 211.5q0 130 103 206q-74 68 -74 177q0 116 85 191t218 75q132 0 217.5 -75t85.5 -191
q0 -114 -76 -179zM1370 750q-42 0 -69 -26t-27 -67q0 -40 27 -66t69 -26q44 0 72 26t28 66t-28 66.5t-72 26.5zM1370 178q51 0 84 31.5t33 79.5q0 46 -33 77t-84 31q-49 0 -82 -31t-33 -77q0 -49 32.5 -80t82.5 -31z" />
    <glyph glyph-name="arrowleft" unicode="&#x2190;" horiz-adv-x="1576" 
d="M1503 715v-262q-549 0 -736 2.5t-280 15.5l476 -473h-328l-588 584l586 585l330 -2l-474 -469q93 13 286.5 16t727.5 3z" />
    <glyph glyph-name="arrowup" unicode="&#x2191;" horiz-adv-x="1337" 
d="M668 1475l600 -601l-2 -329l-484 489q13 -94 16 -290t3 -744h-262q0 558 2.5 747.5t15.5 282.5l-483 -483l-4 327z" />
    <glyph glyph-name="arrowright" unicode="&#x2192;" horiz-adv-x="1576" 
d="M614 1167h328l588 -581l-588 -588l-330 2l473 471q-94 -13 -292.5 -16.5t-718.5 -3.5v264q531 0 724 -3t287 -16z" />
    <glyph glyph-name="arrowdown" unicode="&#x2193;" horiz-adv-x="1337" 
d="M782 424l482 487l4 -327l-598 -600l-600 600l2 329l483 -487q-13 92 -15.5 280.5t-2.5 749.5h262q0 -543 -3 -740.5t-14 -291.5z" />
    <glyph glyph-name="arrowboth" unicode="&#x2194;" horiz-adv-x="2097" 
d="M1133 1167h329l588 -585l-588 -582h-327l464 463q-145 -12 -551.5 -12t-551.5 12l465 -463h-328l-588 582l586 585h330l-467 -465q146 12 554 12t554 -12z" />
    <glyph glyph-name="arrowupdn" unicode="&#x2195;" horiz-adv-x="1155" 
d="M580 1489l477 -379v-287q-235 184 -355 285q8 -147 7.5 -377t-9.5 -377q92 81 357 287v-285l-477 -381h-5l-475 381v285q304 -240 357 -289q-7 154 -7 380t7 380q-81 -71 -357 -289v287l475 379h5z" />
    <glyph glyph-name="uni2196" unicode="&#x2196;" horiz-adv-x="1325" 
d="M1214 1016l-684 4q75 -58 215 -194t527 -523l-185 -186q-373 372 -515.5 519t-202.5 224l4 -688l-234 231v848h846z" />
    <glyph glyph-name="uni2197" unicode="&#x2197;" horiz-adv-x="1325" 
d="M109 1016l229 235h848v-848l-234 -231l2 688q-56 -77 -189.5 -214.5t-526.5 -528.5l-187 186q387 387 527 523t215 194z" />
    <glyph glyph-name="uni2198" unicode="&#x2198;" horiz-adv-x="1325" 
d="M954 633l-2 688l234 -231v-848h-848l-229 235l684 -4q-75 58 -215 194t-527 523l187 186q393 -391 526.5 -528.5t189.5 -214.5z" />
    <glyph glyph-name="uni2199" unicode="&#x2199;" horiz-adv-x="1325" 
d="M1087 1374l185 -186q-387 -387 -527 -523t-215 -194l684 4l-229 -235h-846v847l234 232l-4 -688q60 77 202.5 224t515.5 519z" />
    <glyph glyph-name="partialdiff" unicode="&#x2202;" horiz-adv-x="1226" 
d="M686 1454l369 -645q98 -169 98 -326q0 -101 -39.5 -192.5t-109 -160.5t-172 -109.5t-220.5 -40.5t-219.5 41t-171 111.5t-108.5 166t-39 203.5q0 205 131.5 341t322.5 136q66 0 115 -14l-283 489h326zM612 258q103 0 172.5 70t69.5 174q0 103 -69.5 172t-172.5 69
t-171 -69t-68 -172q0 -104 68 -174t171 -70z" />
    <glyph glyph-name="emptyset" unicode="&#x2205;" horiz-adv-x="1654" 
d="M1556 1495l-180 -244q95 -100 147 -234t52 -290q0 -160 -56 -298.5t-154 -237t-236.5 -155t-297.5 -56.5q-192 0 -346 77l-71 -98h-318l187 250q-195 208 -195 518q0 213 95.5 384t265.5 267.5t382 96.5q183 0 340 -74l70 94h315zM385 727q0 -152 80 -274l530 712
q-76 31 -164 31q-128 0 -231 -63.5t-159 -170.5t-56 -235zM831 258q194 0 320.5 136.5t126.5 332.5q0 157 -84 281l-532 -717q84 -33 169 -33z" />
    <glyph glyph-name="product" unicode="&#x220f;" horiz-adv-x="1286" 
d="M55 1454h1176v-235h-182v-1219h-281v1219h-250v-1219h-278v1219h-185v235z" />
    <glyph glyph-name="summation" unicode="&#x2211;" horiz-adv-x="1107" 
d="M86 1454h936v-252h-627q44 -41 107.5 -114.5t108 -129t180.5 -225.5q-36 -45 -109 -136.5t-98.5 -123t-69.5 -84.5t-71 -82t-54 -55h633v-252h-936v219l383 514l-383 500v221z" />
    <glyph glyph-name="minus" unicode="&#x2212;" horiz-adv-x="1204" 
d="M145 416v262h873v-262h-873z" />
    <glyph glyph-name="radical" unicode="&#x221a;" horiz-adv-x="1384" 
d="M799 1536h530v-236h-307l-340 -1300h-322l-303 1071h295q147 -575 168 -762q12 106 67 347t212 880z" />
    <glyph glyph-name="infinity" unicode="&#x221e;" horiz-adv-x="1622" 
d="M1128 1059q165 0 277.5 -112t112.5 -279q0 -165 -112.5 -275t-277.5 -110q-103 0 -188.5 43.5t-138.5 119.5q-60 -87 -134 -125t-171 -38q-166 0 -278 111t-112 276q0 167 112 278t278 111q110 0 196.5 -43t136.5 -121q114 164 299 164zM500 512q120 0 182 125l16 29
l-10 20q-65 143 -188 143q-73 0 -119.5 -45t-46.5 -114q0 -68 46.5 -113t119.5 -45zM1122 512q73 0 119.5 44.5t46.5 111.5q0 68 -46.5 114.5t-119.5 46.5q-112 0 -182 -141l-8 -14l10 -23q64 -139 180 -139z" />
    <glyph glyph-name="integral" unicode="&#x222b;" horiz-adv-x="827" 
d="M193 -485q-76 0 -142 28v234q36 -19 70 -19q76 0 111.5 39.5t35.5 130.5v1219q0 88 21.5 158.5t57 115.5t84 75.5t99 43t105.5 12.5q83 0 141 -28v-234q-36 19 -71 19q-76 0 -111 -39.5t-35 -130.5v-1219q0 -88 -21.5 -158.5t-57 -115.5t-83.5 -75.5t-98.5 -43
t-105.5 -12.5z" />
    <glyph glyph-name="approxequal" unicode="&#x2248;" horiz-adv-x="1216" 
d="M309 676l-196 65q16 109 90.5 188t191.5 79q67 0 148 -31t149 -61.5t103 -30.5q44 0 67 26.5t35 77.5l207 -63q-23 -123 -99 -196t-182 -73q-52 0 -116.5 19t-113.5 42.5t-100 42.5t-79 19q-44 0 -68 -26.5t-37 -77.5zM309 248l-196 65q16 109 90.5 188t191.5 79
q67 0 148 -31t149 -61.5t103 -30.5q44 0 67 26.5t35 77.5l207 -63q-23 -123 -99 -196t-182 -73q-52 0 -116.5 19t-113.5 42.5t-100 42.5t-79 19q-44 0 -68 -26.5t-37 -77.5z" />
    <glyph glyph-name="notequal" unicode="&#x2260;" horiz-adv-x="1204" 
d="M1036 874v-245h-280l-62 -166h342v-246h-434l-63 -170h-236l64 170h-201v246h293l61 166h-354v245h446l60 160h235l-59 -160h188z" />
    <glyph glyph-name="lessequal" unicode="&#x2264;" horiz-adv-x="1081" 
d="M88 922l870 317v-252q-415 -153 -491 -174q-44 -12 -82 -18q61 -13 144 -41.5t326 -117.5q66 -24 103 -38v-252l-870 318v258zM958 37h-870v262h870v-262z" />
    <glyph glyph-name="greaterequal" unicode="&#x2265;" horiz-adv-x="1081" 
d="M121 987v252l872 -317v-258l-872 -318v252q417 153 491 174q45 13 84 19q-68 14 -165 47.5t-410 148.5zM993 37h-872v262h872v-262z" />
    <glyph glyph-name="uni2460" unicode="&#x2460;" horiz-adv-x="1806" 
d="M903 -82q-136 0 -262 40.5t-226.5 114.5t-176 173.5t-116 224t-40.5 258.5q0 169 64 320.5t173 259.5t261.5 171.5t322.5 63.5t322.5 -63.5t261.5 -171.5t173 -259.5t64 -320.5q0 -134 -40.5 -258.5t-116 -224t-176 -173.5t-226.5 -114.5t-262 -40.5zM903 86
q175 0 321 85t230 233t84 325q0 178 -84 326.5t-230 233.5t-321 85t-320.5 -85t-229 -233.5t-83.5 -326.5q0 -177 83.5 -325t229 -233t320.5 -85zM1192 283h-580v192h181v490l-179 -39v194l398 78v-723h180v-192z" />
    <glyph glyph-name="uni2461" unicode="&#x2461;" horiz-adv-x="1806" 
d="M903 1544q170 0 322.5 -63.5t261.5 -171.5t173 -259.5t64 -320.5q0 -134 -40.5 -258.5t-116 -224t-176 -173.5t-226.5 -114.5t-262 -40.5t-262 40.5t-226.5 114.5t-176 173.5t-116 224t-40.5 258.5q0 169 64 320.5t173 259.5t261.5 171.5t322.5 63.5zM903 86
q175 0 321 85t230 233t84 325q0 178 -84 326.5t-230 233.5t-321 85t-320.5 -85t-229 -233.5t-83.5 -326.5q0 -177 83.5 -325t229 -233t320.5 -85zM1221 928q0 -63 -20 -113t-53.5 -82t-74.5 -57.5t-85 -45.5t-82.5 -39t-69 -45.5t-43.5 -58.5h428v-204h-654v143q0 71 24 129
t62.5 95t85 67.5t93.5 54t85.5 45.5t62.5 50t24 61q0 34 -26.5 60t-74.5 26q-51 0 -82 -30t-37 -85h-217q0 135 97.5 224t238.5 89q134 0 226 -75.5t92 -208.5z" />
    <glyph glyph-name="uni2462" unicode="&#x2462;" horiz-adv-x="1806" 
d="M903 1544q170 0 322.5 -63.5t261.5 -171.5t173 -259.5t64 -320.5q0 -134 -40.5 -258.5t-116 -224t-176 -173.5t-226.5 -114.5t-262 -40.5t-262 40.5t-226.5 114.5t-176 173.5t-116 224t-40.5 258.5q0 169 64 320.5t173 259.5t261.5 171.5t322.5 63.5zM903 86
q175 0 321 85t230 233t84 325q0 178 -84 326.5t-230 233.5t-321 85t-320.5 -85t-229 -233.5t-83.5 -326.5q0 -177 83.5 -325t229 -233t320.5 -85zM1122 766q117 -75 117 -211q0 -122 -89 -203.5t-245 -81.5q-160 0 -256 87.5t-96 226.5h211q0 -61 39 -93t94 -32q53 0 88 28
t35 76q0 96 -139 96h-70v187h76q48 0 74 23t26 61q0 42 -29 67t-73 25q-48 0 -81.5 -28.5t-33.5 -82.5h-211q0 131 91.5 216t244.5 85q137 0 224 -68.5t87 -185.5q0 -115 -84 -192z" />
    <glyph glyph-name="uni2463" unicode="&#x2463;" horiz-adv-x="1806" 
d="M903 1544q170 0 322.5 -63.5t261.5 -171.5t173 -259.5t64 -320.5q0 -134 -40.5 -258.5t-116 -224t-176 -173.5t-226.5 -114.5t-262 -40.5t-262 40.5t-226.5 114.5t-176 173.5t-116 224t-40.5 258.5q0 169 64 320.5t173 259.5t261.5 171.5t322.5 63.5zM903 86
q175 0 321 85t230 233t84 325q0 178 -84 326.5t-230 233.5t-321 85t-320.5 -85t-229 -233.5t-83.5 -326.5q0 -177 83.5 -325t229 -233t320.5 -85zM897 1198h199v-575h116v-172h-116v-168h-211v168h-404v145zM707 623h178q0 221 24 354q-37 -89 -79.5 -162.5t-122.5 -191.5z
" />
    <glyph glyph-name="uni2464" unicode="&#x2464;" horiz-adv-x="1806" 
d="M903 -82q-136 0 -262 40.5t-226.5 114.5t-176 173.5t-116 224t-40.5 258.5q0 169 64 320.5t173 259.5t261.5 171.5t322.5 63.5t322.5 -63.5t261.5 -171.5t173 -259.5t64 -320.5q0 -134 -40.5 -258.5t-116 -224t-176 -173.5t-226.5 -114.5t-262 -40.5zM903 86
q175 0 321 85t230 233t84 325q0 178 -84 326.5t-230 233.5t-321 85t-320.5 -85t-229 -233.5t-83.5 -326.5q0 -177 83.5 -325t229 -233t320.5 -85zM895 270q-153 0 -248.5 89.5t-95.5 209.5h217q5 -42 41 -72t86 -30q54 0 91.5 35.5t37.5 95.5q0 56 -36 91.5t-91 35.5
q-40 0 -75 -21t-52 -57h-215l86 551h537v-190h-365l-20 -142q60 45 151 45q132 0 214.5 -87t82.5 -218q0 -139 -95 -237.5t-251 -98.5z" />
    <glyph glyph-name="uni2465" unicode="&#x2465;" horiz-adv-x="1806" 
d="M903 1544q170 0 322.5 -63.5t261.5 -171.5t173 -259.5t64 -320.5q0 -134 -40.5 -258.5t-116 -224t-176 -173.5t-226.5 -114.5t-262 -40.5t-262 40.5t-226.5 114.5t-176 173.5t-116 224t-40.5 258.5q0 169 64 320.5t173 259.5t261.5 171.5t322.5 63.5zM903 86
q175 0 321 85t230 233t84 325q0 178 -84 326.5t-230 233.5t-321 85t-320.5 -85t-229 -233.5t-83.5 -326.5q0 -177 83.5 -325t229 -233t320.5 -85zM961 901q116 0 198 -85t82 -212q0 -141 -96.5 -237.5t-247.5 -96.5t-248.5 95t-97.5 225q0 99 57 205l226 403h237l-168 -303
q27 6 58 6zM897 475q56 0 91.5 36t35.5 93q0 56 -36 91.5t-91 35.5q-57 0 -94 -36t-37 -91q0 -57 37 -93t94 -36z" />
    <glyph glyph-name="uni2466" unicode="&#x2466;" horiz-adv-x="1806" 
d="M903 -82q-136 0 -262 40.5t-226.5 114.5t-176 173.5t-116 224t-40.5 258.5q0 169 64 320.5t173 259.5t261.5 171.5t322.5 63.5t322.5 -63.5t261.5 -171.5t173 -259.5t64 -320.5q0 -134 -40.5 -258.5t-116 -224t-176 -173.5t-226.5 -114.5t-262 -40.5zM903 86
q175 0 321 85t230 233t84 325q0 178 -84 326.5t-230 233.5t-321 85t-320.5 -85t-229 -233.5t-83.5 -326.5q0 -177 83.5 -325t229 -233t320.5 -85zM1217 1198v-164l-310 -751h-231l309 725h-410v190h642z" />
    <glyph glyph-name="uni2467" unicode="&#x2467;" horiz-adv-x="1806" 
d="M903 1544q170 0 322.5 -63.5t261.5 -171.5t173 -259.5t64 -320.5q0 -134 -40.5 -258.5t-116 -224t-176 -173.5t-226.5 -114.5t-262 -40.5t-262 40.5t-226.5 114.5t-176 173.5t-116 224t-40.5 258.5q0 169 64 320.5t173 259.5t261.5 171.5t322.5 63.5zM903 86
q175 0 321 85t230 233t84 325q0 178 -84 326.5t-230 233.5t-321 85t-320.5 -85t-229 -233.5t-83.5 -326.5q0 -177 83.5 -325t229 -233t320.5 -85zM1124 766q105 -74 105 -205q0 -128 -94 -211.5t-240 -83.5q-144 0 -237 83.5t-93 211.5q0 131 103 207q-74 68 -74 176
q0 116 85 191t218 75q132 0 217.5 -75t85.5 -191q0 -113 -76 -178zM897 1032q-42 0 -69 -25.5t-27 -66.5q0 -40 27 -66t69 -26q44 0 72 26t28 66t-28 66t-72 26zM897 461q51 0 84 31.5t33 78.5q0 46 -33 77.5t-84 31.5q-49 0 -82 -31.5t-33 -77.5q0 -49 32.5 -79.5
t82.5 -30.5z" />
    <glyph glyph-name="uni2468" unicode="&#x2468;" horiz-adv-x="1806" 
d="M903 1544q170 0 322.5 -63.5t261.5 -171.5t173 -259.5t64 -320.5q0 -134 -40.5 -258.5t-116 -224t-176 -173.5t-226.5 -114.5t-262 -40.5t-262 40.5t-226.5 114.5t-176 173.5t-116 224t-40.5 258.5q0 169 64 320.5t173 259.5t261.5 171.5t322.5 63.5zM903 86
q175 0 321 85t230 233t84 325q0 178 -84 326.5t-230 233.5t-321 85t-320.5 -85t-229 -233.5t-83.5 -326.5q0 -177 83.5 -325t229 -233t320.5 -85zM895 1212q150 0 247 -95t97 -226q0 -97 -57 -203l-226 -405h-237l168 303q-30 -6 -58 -6q-116 0 -198 86t-82 213
q0 140 97 236.5t249 96.5zM895 752q56 0 92.5 36t36.5 91t-36.5 91t-92.5 36t-92.5 -36t-36.5 -91t36.5 -91t92.5 -36z" />
    <glyph glyph-name="uni24EA" unicode="&#x24ea;" horiz-adv-x="1806" 
d="M903 -82q-136 0 -262 40.5t-226.5 114.5t-176 173.5t-116 224t-40.5 258.5q0 169 64 320.5t173 259.5t261.5 171.5t322.5 63.5t322.5 -63.5t261.5 -171.5t173 -259.5t64 -320.5q0 -134 -40.5 -258.5t-116 -224t-176 -173.5t-226.5 -114.5t-262 -40.5zM903 86
q175 0 321 85t230 233t84 325q0 178 -84 326.5t-230 233.5t-321 85t-320.5 -85t-229 -233.5t-83.5 -326.5q0 -177 83.5 -325t229 -233t320.5 -85zM895 270q-70 0 -135 21t-118.5 62t-85.5 108.5t-32 152.5v252q0 86 32.5 154t86 109t118 62t134.5 21q71 0 136 -21.5
t118 -62.5t85 -109t32 -153v-252q0 -85 -32 -152.5t-85 -108.5t-118 -62t-136 -21zM895 475q64 0 109 36.5t45 102.5v252q0 66 -45 103t-109 37t-109 -37t-45 -103v-252q0 -65 45.5 -102t108.5 -37z" />
    <glyph glyph-name="uni24FF" unicode="&#x24ff;" horiz-adv-x="1724" 
d="M860 -43q-215 0 -393.5 103t-281.5 281.5t-103 393.5q0 161 60.5 305.5t164.5 249t248 165.5t305 61t306.5 -61t249.5 -165.5t165 -249t61 -305.5q0 -215 -103.5 -393.5t-283 -281.5t-395.5 -103zM860 274q71 0 136 21t118 62t85 108.5t32 152.5v252q0 85 -32 153
t-85 109.5t-118 63t-136 21.5q-70 0 -134.5 -21.5t-118 -62.5t-86 -109t-32.5 -154v-252q0 -85 32 -152.5t85.5 -108.5t118.5 -62t135 -21zM860 479q-63 0 -108 37t-45 102v252q0 66 44.5 103t108.5 37t109 -37t45 -103v-252q0 -66 -45 -102.5t-109 -36.5z" />
    <glyph glyph-name="filledbox" unicode="&#x25a0;" horiz-adv-x="1738" 
d="M1282 0h-823q-133 0 -225.5 91.5t-92.5 223.5v824q0 132 92.5 223.5t225.5 91.5h823q132 0 223.5 -91.5t91.5 -223.5v-824q0 -132 -91.5 -223.5t-223.5 -91.5z" />
    <glyph glyph-name="uni25A1" unicode="&#x25a1;" horiz-adv-x="1828" 
d="M1327 -37h-823q-164 0 -264.5 100t-100.5 263v829q0 163 100.5 263t264.5 100h823q163 0 263 -100t100 -263v-829q0 -163 -100 -263t-263 -100zM504 135h823q83 0 128.5 49.5t45.5 141.5v829q0 92 -45.5 142.5t-128.5 50.5h-823q-85 0 -130.5 -50.5t-45.5 -142.5v-829
q0 -92 45.5 -141.5t130.5 -49.5z" />
    <glyph glyph-name="lozenge" unicode="&#x25ca;" horiz-adv-x="1120" 
d="M430 1522h258l377 -820l-377 -819h-258l-377 819zM559 78q22 97 75 230t175 394q-121 262 -174.5 392.5t-75.5 216.5q-20 -84 -71.5 -210t-176.5 -399q126 -275 177 -403t71 -221z" />
    <glyph glyph-name="circle" unicode="&#x25cb;" horiz-adv-x="1806" 
d="M903 -82q-136 0 -262 40.5t-226.5 114.5t-176 173.5t-116 224t-40.5 258.5q0 169 64 320.5t173 259.5t261.5 171.5t322.5 63.5t322.5 -63.5t261.5 -171.5t173 -259.5t64 -320.5q0 -134 -40.5 -258.5t-116 -224t-176 -173.5t-226.5 -114.5t-262 -40.5zM903 86
q175 0 321 85t230 233t84 325q0 178 -84 326.5t-230 233.5t-321 85t-320.5 -85t-229 -233.5t-83.5 -326.5q0 -177 83.5 -325t229 -233t320.5 -85z" />
    <glyph glyph-name="uni25CF" unicode="&#x25cf;" horiz-adv-x="1724" 
d="M860 -43q-215 0 -393.5 103t-281.5 281.5t-103 393.5q0 161 60.5 305.5t164.5 249t248 165.5t305 61t306.5 -61t249.5 -165.5t165 -249t61 -305.5q0 -215 -103.5 -393.5t-283 -281.5t-395.5 -103z" />
    <glyph glyph-name="smileface" unicode="&#x263a;" horiz-adv-x="1806" 
d="M903 -82q-136 0 -262 40.5t-226.5 114.5t-176 173.5t-116 224t-40.5 258.5q0 169 64 320.5t173 259.5t261.5 171.5t322.5 63.5t322.5 -63.5t261.5 -171.5t173 -259.5t64 -320.5q0 -134 -40.5 -258.5t-116 -224t-176 -173.5t-226.5 -114.5t-262 -40.5zM903 86
q175 0 321 85t230 233t84 325q0 178 -84 326.5t-230 233.5t-321 85t-320.5 -85t-229 -233.5t-83.5 -326.5q0 -177 83.5 -325t229 -233t320.5 -85zM668 795q-53 0 -91 38.5t-38 92.5t38 91.5t91 37.5q56 0 94.5 -37t38.5 -92q0 -54 -39 -92.5t-94 -38.5zM1147 795
q-53 0 -92 39.5t-39 91.5t39 90.5t92 38.5q51 0 90 -38.5t39 -90.5q0 -53 -38.5 -92t-90.5 -39zM903 326q-168 0 -271 102.5t-106 273.5h179q-1 -92 51.5 -144t146.5 -52q96 0 148 51.5t51 144.5h180q-3 -171 -106.5 -273.5t-272.5 -102.5z" />
    <glyph glyph-name="invsmileface" unicode="&#x263b;" horiz-adv-x="1808" 
d="M903 -82q-136 0 -262 40.5t-226.5 114.5t-176 173.5t-116 224t-40.5 258.5q0 169 64 320.5t173 259.5t261.5 171.5t322.5 63.5t322.5 -63.5t262.5 -171.5t174 -259.5t64 -320.5q0 -134 -41 -258.5t-116.5 -224t-176.5 -173.5t-227 -114.5t-262 -40.5zM659 827
q55 0 94.5 39.5t39.5 94.5q0 54 -39 91.5t-95 37.5q-53 0 -91 -38t-38 -91q0 -54 38.5 -94t90.5 -40zM1155 827q52 0 91.5 40.5t39.5 93.5q0 52 -39.5 90.5t-91.5 38.5t-91.5 -38.5t-39.5 -90.5q0 -53 39.5 -93.5t91.5 -40.5zM903 309q177 0 284.5 102.5t110.5 274.5h-178
q0 -97 -56.5 -151t-160.5 -54q-102 0 -159 54.5t-56 150.5h-178q3 -171 110.5 -274t282.5 -103z" />
    <glyph glyph-name="uni2776" unicode="&#x2776;" horiz-adv-x="1724" 
d="M860 -43q-215 0 -393.5 103t-281.5 281.5t-103 393.5q0 161 60.5 305.5t164.5 249t248 165.5t305 61t306.5 -61t249.5 -165.5t165 -249t61 -305.5q0 -215 -103.5 -393.5t-283 -281.5t-395.5 -103zM578 479v-192h579v192h-180v723l-397 -78v-194l178 39v-490h-180z" />
    <glyph glyph-name="uni2777" unicode="&#x2777;" horiz-adv-x="1724" 
d="M860 -43q-215 0 -393.5 103t-281.5 281.5t-103 393.5q0 161 60.5 305.5t164.5 249t248 165.5t305 61t306.5 -61t249.5 -165.5t165 -249t61 -305.5q0 -215 -103.5 -393.5t-283 -281.5t-395.5 -103zM532 430v-143h654v205h-426q13 32 43.5 58t68.5 45.5t82 39.5t84.5 45
t74 57t53.5 82t20 113q0 133 -92 209t-226 76q-141 0 -238.5 -89.5t-97.5 -224.5h218q6 56 36.5 85.5t81.5 29.5q48 0 74.5 -26t26.5 -60q0 -33 -24 -61t-62.5 -50t-85 -45.5t-93.5 -54t-85.5 -67.5t-62.5 -95t-24 -129z" />
    <glyph glyph-name="uni2778" unicode="&#x2778;" horiz-adv-x="1724" 
d="M860 -43q-215 0 -393.5 103t-281.5 281.5t-103 393.5q0 161 60.5 305.5t164.5 249t248 165.5t305 61t306.5 -61t249.5 -165.5t165 -249t61 -305.5q0 -215 -103.5 -393.5t-283 -281.5t-395.5 -103zM870 274q156 0 245 81.5t89 203.5q0 136 -117 211q84 77 84 193
q0 117 -87 185.5t-224 68.5q-153 0 -244.5 -85.5t-91.5 -216.5h211q0 54 33.5 82.5t81.5 28.5q44 0 73 -25t29 -67q0 -38 -26 -61t-74 -23h-76v-186h70q139 0 139 -97q0 -48 -35 -76t-88 -28q-55 0 -94 32t-39 93h-211q0 -139 96 -226.5t256 -87.5z" />
    <glyph glyph-name="uni2779" unicode="&#x2779;" horiz-adv-x="1724" 
d="M860 -43q-215 0 -393.5 103t-281.5 281.5t-103 393.5q0 161 60.5 305.5t164.5 249t248 165.5t305 61t306.5 -61t249.5 -165.5t165 -249t61 -305.5q0 -215 -103.5 -393.5t-283 -281.5t-395.5 -103zM848 455v-168h211v168h117v172h-117v575h-199l-416 -602v-145h404z
M848 627h-178q76 110 119 185t83 167q-24 -122 -24 -352z" />
    <glyph glyph-name="uni277A" unicode="&#x277a;" horiz-adv-x="1724" 
d="M860 -43q-215 0 -393.5 103t-281.5 281.5t-103 393.5q0 161 60.5 305.5t164.5 249t248 165.5t305 61t306.5 -61t249.5 -165.5t165 -249t61 -305.5q0 -215 -103.5 -393.5t-283 -281.5t-395.5 -103zM858 274q156 0 251 98.5t95 237.5q0 131 -82.5 218t-214.5 87
q-91 0 -151 -45l20 142h365v190h-537l-86 -551h215q17 36 52 57t75 21q56 0 91.5 -35.5t35.5 -91.5q0 -60 -37.5 -95.5t-91.5 -35.5q-50 0 -86 30t-41 72h-217q0 -120 95.5 -209.5t248.5 -89.5z" />
    <glyph glyph-name="uni277B" unicode="&#x277b;" horiz-adv-x="1724" 
d="M860 -43q-215 0 -393.5 103t-281.5 281.5t-103 393.5q0 161 60.5 305.5t164.5 249t248 165.5t305 61t306.5 -61t249.5 -165.5t165 -249t61 -305.5q0 -215 -103.5 -393.5t-283 -281.5t-395.5 -103zM860 274q151 0 247.5 96.5t96.5 237.5q0 127 -82 212t-198 85
q-31 0 -58 -6l168 303h-237l-226 -403q-57 -106 -57 -205q0 -130 97.5 -225t248.5 -95zM860 479q-57 0 -94 36t-37 93q0 55 37 91t94 36q56 0 91.5 -35.5t35.5 -91.5q0 -57 -35.5 -93t-91.5 -36z" />
    <glyph glyph-name="uni277C" unicode="&#x277c;" horiz-adv-x="1724" 
d="M860 -43q-215 0 -393.5 103t-281.5 281.5t-103 393.5q0 161 60.5 305.5t164.5 249t248 165.5t305 61t306.5 -61t249.5 -165.5t165 -249t61 -305.5q0 -215 -103.5 -393.5t-283 -281.5t-395.5 -103zM950 1012l-309 -725h231l310 751v164h-641v-190h409z" />
    <glyph glyph-name="uni277D" unicode="&#x277d;" horiz-adv-x="1724" 
d="M860 -43q-215 0 -393.5 103t-281.5 281.5t-103 393.5q0 161 60.5 305.5t164.5 249t248 165.5t305 61t306.5 -61t249.5 -165.5t165 -249t61 -305.5q0 -215 -103.5 -393.5t-283 -281.5t-395.5 -103zM860 270q146 0 240 83.5t94 211.5q0 130 -104 205q75 64 75 178
q0 116 -85.5 191t-217.5 75q-133 0 -218 -75t-85 -191q0 -108 74 -176q-103 -76 -103 -207q0 -128 93 -211.5t237 -83.5zM862 852q-42 0 -69 26t-27 66q0 41 27 66.5t69 25.5q44 0 72.5 -26t28.5 -66t-28.5 -66t-72.5 -26zM862 465q-50 0 -82 30.5t-32 79.5q0 46 32.5 77.5
t81.5 31.5q51 0 84 -31.5t33 -77.5q0 -47 -33 -78.5t-84 -31.5z" />
    <glyph glyph-name="uni277E" unicode="&#x277e;" horiz-adv-x="1724" 
d="M860 -43q-215 0 -393.5 103t-281.5 281.5t-103 393.5q0 161 60.5 305.5t164.5 249t248 165.5t305 61t306.5 -61t249.5 -165.5t165 -249t61 -305.5q0 -215 -103.5 -393.5t-283 -281.5t-395.5 -103zM852 590l-168 -303h238l225 405q57 106 57 203q0 131 -97 226.5
t-247 95.5q-152 0 -249 -97t-97 -237q0 -127 82.5 -213t198.5 -86q37 0 57 6zM860 756q-56 0 -92.5 36t-36.5 91t36.5 91t92.5 36t92.5 -36t36.5 -91t-36.5 -91t-92.5 -36z" />
    <glyph glyph-name="Q.ss01" horiz-adv-x="1626" 
d="M1544 774q0 -70 -15.5 -143t-48.5 -148.5t-95 -138.5t-144 -98l295 6v-252h-623q-197 0 -359.5 55.5t-270.5 153t-167 230.5t-59 288q0 209 97.5 380.5t268 269.5t378.5 98t378.5 -92t267.5 -252.5t97 -356.5zM801 279q128 0 231 60.5t159 163t56 224.5q0 128 -56 235
t-159 170.5t-231 63.5q-194 0 -321.5 -136.5t-127.5 -332.5q0 -187 127.5 -317.5t321.5 -130.5z" />
    <glyph glyph-name="J.ss03" horiz-adv-x="573" 
d="M244 -487l-267 79l160 654l8 1208l289 -242l-28 -1290z" />
    <glyph glyph-name="T_i.dlig" horiz-adv-x="1548" 
d="M745 0h-296v1186h-381v268h1058v-268h-381v-1186zM1145 1071h291v-1071h-291v1071z" />
    <glyph glyph-name="i.loclTRK" horiz-adv-x="512" 
d="M256 1178q-68 0 -116 48t-48 115q0 69 48 116.5t116 47.5t116 -47.5t48 -116.5q0 -67 -48 -115t-116 -48zM111 1071h290v-1071h-290v1071z" />
    <glyph glyph-name="m.ss01" horiz-adv-x="1841" 
d="M1280 1094q215 0 346 -126t131 -370v-598h-291v598q0 126 -54 186t-140 60q-91 0 -148 -61.5t-57 -184.5v-598h-291v598q0 122 -58 184t-147 62q-88 0 -142 -60t-54 -186v-598h-289v598q0 244 130 370t345 126q237 0 361 -158q121 158 358 158z" />
    <glyph glyph-name="n.ss01" horiz-adv-x="1202" 
d="M375 0h-293v580q0 235 143.5 374.5t376.5 139.5t376.5 -139.5t143.5 -374.5v-580h-295v580q0 123 -62.5 193.5t-162.5 70.5q-102 0 -164.5 -70t-62.5 -194v-580z" />
    <glyph glyph-name="nacute.ss01" horiz-adv-x="1202" 
d="M713 1186h-230l156 334h301zM375 0h-293v580q0 235 143.5 374.5t376.5 139.5t376.5 -139.5t143.5 -374.5v-580h-295v580q0 123 -62.5 193.5t-162.5 70.5q-102 0 -164.5 -70t-62.5 -194v-580z" />
    <glyph glyph-name="ncaron.ss01" horiz-adv-x="1202" 
d="M969 1511l-254 -335h-221l-254 335h262q84 -130 102 -213q10 51 33 96.5t70 116.5h262zM602 1094q233 0 376.5 -139.5t143.5 -374.5v-580h-295v580q0 123 -62.5 193.5t-162.5 70.5q-102 0 -164.5 -70t-62.5 -194v-580h-293v580q0 235 143.5 374.5t376.5 139.5z" />
    <glyph glyph-name="uni0146.ss01" horiz-adv-x="1202" 
d="M375 0h-293v580q0 235 143.5 374.5t376.5 139.5t376.5 -139.5t143.5 -374.5v-580h-295v580q0 123 -62.5 193.5t-162.5 70.5q-102 0 -164.5 -70t-62.5 -194v-580zM354 -473l109 385h299l-180 -385h-228z" />
    <glyph glyph-name="uni0272.ss01" horiz-adv-x="1202" 
d="M602 1094q233 0 376.5 -139.5t143.5 -374.5v-580h-295v580q0 123 -62.5 193.5t-162.5 70.5q-102 0 -164.5 -70t-62.5 -194v-580h2v-471h-295v1051q0 235 143.5 374.5t376.5 139.5z" />
    <glyph glyph-name="ntilde.ss01" horiz-adv-x="1202" 
d="M403 1196l-194 64q22 99 85.5 168t170.5 69q60 0 141 -39t115 -39q57 0 76 82l202 -63q-25 -118 -89 -179t-162 -61q-53 0 -103.5 19.5t-92 39t-71.5 19.5q-58 0 -78 -80zM375 0h-293v580q0 235 143.5 374.5t376.5 139.5t376.5 -139.5t143.5 -374.5v-580h-295v580
q0 123 -62.5 193.5t-162.5 70.5q-102 0 -164.5 -70t-62.5 -194v-580z" />
    <glyph glyph-name="eng.ss01" horiz-adv-x="1202" 
d="M602 1094q233 0 376.5 -139.5t143.5 -374.5v-1051h-295v1051q0 123 -62.5 193.5t-162.5 70.5q-102 0 -164.5 -70t-62.5 -194v-580h-293v580q0 235 143.5 374.5t376.5 139.5z" />
    <glyph glyph-name="u.ss01" horiz-adv-x="1204" 
d="M827 1071h293v-579q0 -235 -143.5 -375t-376.5 -140t-376.5 140t-143.5 375v579h295v-579q0 -124 62.5 -194.5t162.5 -70.5q102 0 164.5 70.5t62.5 194.5v579z" />
    <glyph glyph-name="uacute.ss01" horiz-adv-x="1204" 
d="M707 1186h-230l156 334h301zM827 1071h293v-579q0 -235 -143.5 -375t-376.5 -140t-376.5 140t-143.5 375v579h295v-579q0 -124 62.5 -194.5t162.5 -70.5q102 0 164.5 70.5t62.5 194.5v579z" />
    <glyph glyph-name="ucircumflex.ss01" horiz-adv-x="1204" 
d="M600 1341q-41 -78 -104 -170h-263l254 334h222l254 -334h-263q-60 95 -100 170zM827 492v579h293v-579q0 -235 -143.5 -375t-376.5 -140t-376.5 140t-143.5 375v579h295v-579q0 -124 62.5 -194.5t162.5 -70.5q102 0 164.5 70.5t62.5 194.5z" />
    <glyph glyph-name="udieresis.ss01" horiz-adv-x="1204" 
d="M389 1202q-61 0 -103 42t-42 104t42 103.5t103 41.5q62 0 104 -42t42 -103q0 -62 -42.5 -104t-103.5 -42zM807 1202q-61 0 -103 42t-42 104t42 103.5t103 41.5t103 -41.5t42 -103.5t-42 -104t-103 -42zM827 1071h293v-579q0 -235 -143.5 -375t-376.5 -140t-376.5 140
t-143.5 375v579h295v-579q0 -124 62.5 -194.5t162.5 -70.5q102 0 164.5 70.5t62.5 194.5v579z" />
    <glyph glyph-name="ugrave.ss01" horiz-adv-x="1204" 
d="M563 1520l156 -334h-230l-227 334h301zM827 1071h293v-579q0 -235 -143.5 -375t-376.5 -140t-376.5 140t-143.5 375v579h295v-579q0 -124 62.5 -194.5t162.5 -70.5q102 0 164.5 70.5t62.5 194.5v579z" />
    <glyph glyph-name="uhungarumlaut.ss01" horiz-adv-x="1204" 
d="M555 1186h-229l155 334h301zM903 1186h-227l155 334h302zM827 1071h293v-579q0 -235 -143.5 -375t-376.5 -140t-376.5 140t-143.5 375v579h295v-579q0 -124 62.5 -194.5t162.5 -70.5q102 0 164.5 70.5t62.5 194.5v579z" />
    <glyph glyph-name="umacron.ss01" horiz-adv-x="1204" 
d="M231 1200v230h730v-230h-730zM827 1071h293v-579q0 -235 -143.5 -375t-376.5 -140t-376.5 140t-143.5 375v579h295v-579q0 -124 62.5 -194.5t162.5 -70.5q102 0 164.5 70.5t62.5 194.5v579z" />
    <glyph glyph-name="uring.ss01" horiz-adv-x="1204" 
d="M598 1194q-97 0 -165 67t-68 164t68 165.5t165 68.5t165 -68.5t68 -165.5t-68 -164t-165 -67zM598 1341q37 0 61.5 24.5t24.5 59.5q0 37 -24.5 61.5t-61.5 24.5q-35 0 -59.5 -24.5t-24.5 -61.5q0 -35 24.5 -59.5t59.5 -24.5zM827 1071h293v-579q0 -235 -143.5 -375
t-376.5 -140t-376.5 140t-143.5 375v579h295v-579q0 -124 62.5 -194.5t162.5 -70.5q102 0 164.5 70.5t62.5 194.5v579z" />
    <glyph glyph-name="utilde.ss01" horiz-adv-x="1204" 
d="M397 1196l-194 64q22 99 85.5 168t170.5 69q60 0 141 -39t115 -39q57 0 76 82l202 -63q-25 -118 -89 -179t-163 -61q-53 0 -103 19.5t-91.5 39t-71.5 19.5q-58 0 -78 -80zM827 1071h293v-579q0 -235 -143.5 -375t-376.5 -140t-376.5 140t-143.5 375v579h295v-579
q0 -124 62.5 -194.5t162.5 -70.5q102 0 164.5 70.5t62.5 194.5v579z" />
    <glyph glyph-name="w.ss01" horiz-adv-x="1843" 
d="M1466 473v598h289v-598q0 -244 -130 -370t-345 -126q-236 0 -360 158q-121 -158 -359 -158q-215 0 -346 126t-131 370v598h291v-598q0 -126 54 -186t140 -60q91 0 148 61.5t57 184.5v598h291v-598q0 -122 58 -184t147 -62q88 0 142 60t54 186z" />
    <glyph glyph-name="wacute.ss01" horiz-adv-x="1843" 
d="M954 1520h301l-227 -334h-229zM1466 473v598h289v-598q0 -244 -130 -370t-345 -126q-236 0 -360 158q-121 -158 -359 -158q-215 0 -346 126t-131 370v598h291v-598q0 -126 54 -186t140 -60q91 0 148 61.5t57 184.5v598h291v-598q0 -122 58 -184t147 -62q88 0 142 60
t54 186z" />
    <glyph glyph-name="wcircumflex.ss01" horiz-adv-x="1843" 
d="M922 1341q-38 -72 -105 -170h-262l254 334h221l254 -334h-262q-60 95 -100 170zM1466 473v598h289v-598q0 -244 -130 -370t-345 -126q-236 0 -360 158q-121 -158 -359 -158q-215 0 -346 126t-131 370v598h291v-598q0 -126 54 -186t140 -60q91 0 148 61.5t57 184.5v598
h291v-598q0 -122 58 -184t147 -62q88 0 142 60t54 186z" />
    <glyph glyph-name="wdieresis.ss01" horiz-adv-x="1843" 
d="M711 1202q-61 0 -103.5 42t-42.5 104q0 61 42 103t104 42q61 0 103 -41.5t42 -103.5t-42 -104t-103 -42zM1128 1202q-61 0 -103 42t-42 104t41.5 103.5t103.5 41.5t104 -42t42 -103q0 -62 -42 -104t-104 -42zM1466 473v598h289v-598q0 -244 -130 -370t-345 -126
q-236 0 -360 158q-121 -158 -359 -158q-215 0 -346 126t-131 370v598h291v-598q0 -126 54 -186t140 -60q91 0 148 61.5t57 184.5v598h291v-598q0 -122 58 -184t147 -62q88 0 142 60t54 186z" />
    <glyph glyph-name="wgrave.ss01" horiz-adv-x="1843" 
d="M885 1520l155 -334h-229l-227 334h301zM1466 473v598h289v-598q0 -244 -130 -370t-345 -126q-236 0 -360 158q-121 -158 -359 -158q-215 0 -346 126t-131 370v598h291v-598q0 -126 54 -186t140 -60q91 0 148 61.5t57 184.5v598h291v-598q0 -122 58 -184t147 -62
q88 0 142 60t54 186z" />
    <glyph glyph-name="a.ss02" horiz-adv-x="1142" 
d="M539 1094q137 0 239 -38t162.5 -107.5t89.5 -159t29 -199.5v-590h-291v127q-43 -70 -129 -108.5t-205 -38.5q-105 0 -192.5 40.5t-142 123t-54.5 192.5q0 167 116.5 261.5t299.5 94.5q190 0 307 -102q0 126 -72 193t-213 67q-192 0 -374 -80v244q189 80 430 80zM551 193
q93 0 155 42.5t62 106.5t-63 107t-154 43q-90 0 -149.5 -41.5t-59.5 -108.5t59 -108t150 -41z" />
    <glyph glyph-name="aacute.ss02" horiz-adv-x="1142" 
d="M604 1520h301l-227 -334h-229zM539 1094q137 0 239 -38t162.5 -107.5t89.5 -159t29 -199.5v-590h-291v127q-43 -70 -129 -108.5t-205 -38.5q-105 0 -192.5 40.5t-142 123t-54.5 192.5q0 167 116.5 261.5t299.5 94.5q190 0 307 -102q0 126 -72 193t-213 67
q-192 0 -374 -80v244q189 80 430 80zM551 193q93 0 155 42.5t62 106.5t-63 107t-154 43q-90 0 -149.5 -41.5t-59.5 -108.5t59 -108t150 -41z" />
    <glyph glyph-name="abreve.ss02" horiz-adv-x="1142" 
d="M569 1163q-52 0 -102 10.5t-98.5 35.5t-84.5 62t-58.5 94.5t-22.5 127.5h223q0 -56 35.5 -97.5t107.5 -41.5q73 0 108.5 41t35.5 98h225q0 -87 -33.5 -153.5t-88.5 -103.5t-117.5 -55t-129.5 -18zM539 1094q137 0 239 -38t162.5 -107.5t89.5 -159t29 -199.5v-590h-291
v127q-43 -70 -129 -108.5t-205 -38.5q-105 0 -192.5 40.5t-142 123t-54.5 192.5q0 167 116.5 261.5t299.5 94.5q190 0 307 -102q0 126 -72 193t-213 67q-192 0 -374 -80v244q189 80 430 80zM551 193q93 0 155 42.5t62 106.5t-63 107t-154 43q-90 0 -149.5 -41.5
t-59.5 -108.5t59 -108t150 -41z" />
    <glyph glyph-name="acircumflex.ss02" horiz-adv-x="1142" 
d="M571 1341q-41 -78 -104 -170h-262l254 334h221l254 -334h-262q-67 105 -101 170zM539 1094q137 0 239 -38t162.5 -107.5t89.5 -159t29 -199.5v-590h-291v127q-43 -70 -129 -108.5t-205 -38.5q-105 0 -192.5 40.5t-142 123t-54.5 192.5q0 167 116.5 261.5t299.5 94.5
q190 0 307 -102q0 126 -72 193t-213 67q-192 0 -374 -80v244q189 80 430 80zM551 193q93 0 155 42.5t62 106.5t-63 107t-154 43q-90 0 -149.5 -41.5t-59.5 -108.5t59 -108t150 -41z" />
    <glyph glyph-name="adieresis.ss02" horiz-adv-x="1142" 
d="M358 1202q-61 0 -103 42t-42 104t41.5 103.5t103.5 41.5t104 -42t42 -103q0 -62 -42 -104t-104 -42zM776 1202q-61 0 -103 42t-42 104t41.5 103.5t103.5 41.5t104 -42t42 -103q0 -62 -42 -104t-104 -42zM539 1094q137 0 239 -38t162.5 -107.5t89.5 -159t29 -199.5v-590
h-291v127q-43 -70 -129 -108.5t-205 -38.5q-105 0 -192.5 40.5t-142 123t-54.5 192.5q0 167 116.5 261.5t299.5 94.5q190 0 307 -102q0 126 -72 193t-213 67q-192 0 -374 -80v244q189 80 430 80zM551 193q93 0 155 42.5t62 106.5t-63 107t-154 43q-90 0 -149.5 -41.5
t-59.5 -108.5t59 -108t150 -41z" />
    <glyph glyph-name="agrave.ss02" horiz-adv-x="1142" 
d="M535 1520l155 -334h-229l-228 334h302zM539 1094q137 0 239 -38t162.5 -107.5t89.5 -159t29 -199.5v-590h-291v127q-43 -70 -129 -108.5t-205 -38.5q-105 0 -192.5 40.5t-142 123t-54.5 192.5q0 167 116.5 261.5t299.5 94.5q190 0 307 -102q0 126 -72 193t-213 67
q-192 0 -374 -80v244q189 80 430 80zM551 193q93 0 155 42.5t62 106.5t-63 107t-154 43q-90 0 -149.5 -41.5t-59.5 -108.5t59 -108t150 -41z" />
    <glyph glyph-name="amacron.ss02" horiz-adv-x="1142" 
d="M203 1430h729v-230h-729v230zM539 1094q137 0 239 -38t162.5 -107.5t89.5 -159t29 -199.5v-590h-291v127q-43 -70 -129 -108.5t-205 -38.5q-105 0 -192.5 40.5t-142 123t-54.5 192.5q0 167 116.5 261.5t299.5 94.5q190 0 307 -102q0 126 -72 193t-213 67q-192 0 -374 -80
v244q189 80 430 80zM551 193q93 0 155 42.5t62 106.5t-63 107t-154 43q-90 0 -149.5 -41.5t-59.5 -108.5t59 -108t150 -41z" />
    <glyph glyph-name="aogonek.ss02" horiz-adv-x="1142" 
d="M963 -287q70 0 141 60v-191q-82 -67 -211 -67q-115 0 -181.5 62t-66.5 165q0 66 33 135t90 123v127q-43 -70 -129 -108.5t-205 -38.5q-105 0 -192.5 40.5t-142 123t-54.5 192.5q0 167 116.5 261.5t299.5 94.5q190 0 307 -102q0 126 -72 193t-213 67q-192 0 -374 -80v244
q189 80 430 80q137 0 239 -38t162.5 -107.5t89.5 -159t29 -199.5v-590h-53q-70 -49 -105 -102t-35 -93q0 -42 27 -67t70 -25zM551 193q93 0 155 42.5t62 106.5t-63 107t-154 43q-90 0 -149.5 -41.5t-59.5 -108.5t59 -108t150 -41z" />
    <glyph glyph-name="aring.ss02" horiz-adv-x="1142" 
d="M569 1194q-97 0 -165 67t-68 164t68 165.5t165 68.5t165.5 -68.5t68.5 -165.5q0 -96 -68.5 -163.5t-165.5 -67.5zM569 1511q-35 0 -59.5 -24.5t-24.5 -61.5q0 -35 24.5 -59.5t59.5 -24.5q37 0 61.5 24.5t24.5 59.5q0 37 -24.5 61.5t-61.5 24.5zM539 1094q137 0 239 -38
t162.5 -107.5t89.5 -159t29 -199.5v-590h-291v127q-43 -70 -129 -108.5t-205 -38.5q-105 0 -192.5 40.5t-142 123t-54.5 192.5q0 167 116.5 261.5t299.5 94.5q190 0 307 -102q0 126 -72 193t-213 67q-192 0 -374 -80v244q189 80 430 80zM551 193q93 0 155 42.5t62 106.5
t-63 107t-154 43q-90 0 -149.5 -41.5t-59.5 -108.5t59 -108t150 -41z" />
    <glyph glyph-name="atilde.ss02" horiz-adv-x="1142" 
d="M444 1276q-57 0 -77 -80l-195 64q22 99 85.5 168t170.5 69q60 0 141 -39t115 -39q57 0 76 82l203 -63q-25 -118 -89 -179t-163 -61q-53 0 -103.5 19.5t-92 39t-71.5 19.5zM539 1094q137 0 239 -38t162.5 -107.5t89.5 -159t29 -199.5v-590h-291v127q-43 -70 -129 -108.5
t-205 -38.5q-105 0 -192.5 40.5t-142 123t-54.5 192.5q0 167 116.5 261.5t299.5 94.5q190 0 307 -102q0 126 -72 193t-213 67q-192 0 -374 -80v244q189 80 430 80zM551 193q93 0 155 42.5t62 106.5t-63 107t-154 43q-90 0 -149.5 -41.5t-59.5 -108.5t59 -108t150 -41z" />
    <glyph glyph-name="e.ss02" horiz-adv-x="1153" 
d="M592 1094q245 0 388 -176t130 -486h-778q13 -101 109 -155t231 -54q171 0 360 92v-237q-76 -46 -182.5 -72t-212.5 -26q-266 0 -430 153t-164 408q0 248 151 400.5t398 152.5zM584 850q-107 0 -175 -62.5t-77 -158.5h495q-39 221 -243 221z" />
    <glyph glyph-name="eacute.ss02" horiz-adv-x="1153" 
d="M612 1520h301l-227 -334h-229zM592 1094q245 0 388 -176t130 -486h-778q13 -101 109 -155t231 -54q171 0 360 92v-237q-76 -46 -182.5 -72t-212.5 -26q-266 0 -430 153t-164 408q0 248 151 400.5t398 152.5zM584 850q-107 0 -175 -62.5t-77 -158.5h495q-39 221 -243 221z
" />
    <glyph glyph-name="ecaron.ss02" horiz-adv-x="1153" 
d="M942 1511l-254 -335h-221l-254 335h262q85 -133 103 -213q10 51 33 97t69 116h262zM592 1094q245 0 388 -176t130 -486h-778q13 -101 109 -155t231 -54q171 0 360 92v-237q-76 -46 -182.5 -72t-212.5 -26q-266 0 -430 153t-164 408q0 248 151 400.5t398 152.5zM584 850
q-107 0 -175 -62.5t-77 -158.5h495q-39 221 -243 221z" />
    <glyph glyph-name="ecircumflex.ss02" horiz-adv-x="1153" 
d="M580 1341q-38 -72 -105 -170h-262l254 334h221l254 -334h-262q-60 95 -100 170zM592 1094q245 0 388 -176t130 -486h-778q13 -101 109 -155t231 -54q171 0 360 92v-237q-76 -46 -182.5 -72t-212.5 -26q-266 0 -430 153t-164 408q0 248 151 400.5t398 152.5zM584 850
q-107 0 -175 -62.5t-77 -158.5h495q-39 221 -243 221z" />
    <glyph glyph-name="edieresis.ss02" horiz-adv-x="1153" 
d="M369 1202q-61 0 -103.5 42t-42.5 104q0 61 42 103t104 42q61 0 103 -41.5t42 -103.5t-42 -104t-103 -42zM786 1202q-61 0 -103 42t-42 104t41.5 103.5t103.5 41.5t104 -42t42 -103q0 -62 -42 -104t-104 -42zM592 1094q245 0 388 -176t130 -486h-778q13 -101 109 -155
t231 -54q171 0 360 92v-237q-76 -46 -182.5 -72t-212.5 -26q-266 0 -430 153t-164 408q0 248 151 400.5t398 152.5zM584 850q-107 0 -175 -62.5t-77 -158.5h495q-39 221 -243 221z" />
    <glyph glyph-name="edotaccent.ss02" horiz-adv-x="1153" 
d="M578 1178q-68 0 -116 48t-48 115q0 69 48 116.5t116 47.5t115.5 -47.5t47.5 -116.5q0 -67 -47.5 -115t-115.5 -48zM592 1094q245 0 388 -176t130 -486h-778q13 -101 109 -155t231 -54q171 0 360 92v-237q-76 -46 -182.5 -72t-212.5 -26q-266 0 -430 153t-164 408
q0 248 151 400.5t398 152.5zM584 850q-107 0 -175 -62.5t-77 -158.5h495q-39 221 -243 221z" />
    <glyph glyph-name="egrave.ss02" horiz-adv-x="1153" 
d="M543 1520l155 -334h-229l-227 334h301zM592 1094q245 0 388 -176t130 -486h-778q13 -101 109 -155t231 -54q171 0 360 92v-237q-76 -46 -182.5 -72t-212.5 -26q-266 0 -430 153t-164 408q0 248 151 400.5t398 152.5zM584 850q-107 0 -175 -62.5t-77 -158.5h495
q-39 221 -243 221z" />
    <glyph glyph-name="emacron.ss02" horiz-adv-x="1153" 
d="M211 1430h729v-230h-729v230zM592 1094q245 0 388 -176t130 -486h-778q13 -101 109 -155t231 -54q171 0 360 92v-237q-76 -46 -182.5 -72t-212.5 -26q-266 0 -430 153t-164 408q0 248 151 400.5t398 152.5zM584 850q-107 0 -175 -62.5t-77 -158.5h495q-39 221 -243 221z
" />
    <glyph glyph-name="eogonek.ss02" horiz-adv-x="1153" 
d="M592 1094q245 0 388 -176t130 -486h-778q13 -101 109 -155t231 -54q171 0 360 92v-237q-110 -66 -266 -88q-63 -47 -94 -97t-31 -88q0 -42 26.5 -67t69.5 -25q71 0 142 60v-191q-82 -67 -211 -67q-115 0 -181.5 62t-66.5 165q0 62 28.5 127t79.5 119
q-222 29 -353.5 177.5t-131.5 375.5q0 248 151 400.5t398 152.5zM584 850q-107 0 -175 -62.5t-77 -158.5h495q-39 221 -243 221z" />
    <glyph glyph-name="uni1EBD.ss02" horiz-adv-x="1153" 
d="M455 1276q-58 0 -78 -80l-195 64q22 99 85.5 168t170.5 69q60 0 141 -39t115 -39q57 0 76 82l203 -63q-25 -118 -89 -179t-163 -61q-53 0 -103 19.5t-91.5 39t-71.5 19.5zM592 1094q245 0 388 -176t130 -486h-778q13 -101 109 -155t231 -54q171 0 360 92v-237
q-76 -46 -182.5 -72t-212.5 -26q-266 0 -430 153t-164 408q0 248 151 400.5t398 152.5zM584 850q-107 0 -175 -62.5t-77 -158.5h495q-39 221 -243 221z" />
    <glyph glyph-name="j.ss02" horiz-adv-x="514" 
d="M258 1178q-68 0 -116 48t-48 115q0 69 48 116.5t116 47.5t116 -47.5t48 -116.5q0 -67 -48 -115t-116 -48zM-84 -471l195 489v1053h292v-1071l-184 -471h-303z" />
    <glyph glyph-name="y.ss02" horiz-adv-x="1259" 
d="M858 500v571h291v-960q0 -286 -143.5 -450.5t-413.5 -164.5q-126 0 -256 37.5t-193 89.5v250q45 -26 75 -41.5t83 -38t110.5 -34t118.5 -11.5q328 0 328 363v39q-108 -173 -330 -173q-86 0 -161.5 28t-136 83t-95.5 147t-35 211v625h289v-579q0 -74 19.5 -128t53.5 -82.5
t72.5 -41.5t83.5 -13q109 0 174.5 70t65.5 203z" />
    <glyph glyph-name="yacute.ss02" horiz-adv-x="1259" 
d="M672 1520h301l-228 -334h-229zM858 500v571h291v-960q0 -286 -143.5 -450.5t-413.5 -164.5q-126 0 -256 37.5t-193 89.5v250q45 -26 75 -41.5t83 -38t110.5 -34t118.5 -11.5q328 0 328 363v39q-108 -173 -330 -173q-86 0 -161.5 28t-136 83t-95.5 147t-35 211v625h289
v-579q0 -74 19.5 -128t53.5 -82.5t72.5 -41.5t83.5 -13q109 0 174.5 70t65.5 203z" />
    <glyph glyph-name="ycircumflex.ss02" horiz-adv-x="1259" 
d="M639 1341q-41 -78 -104 -170h-263l254 334h222l253 -334h-262q-60 95 -100 170zM858 500v571h291v-960q0 -286 -143.5 -450.5t-413.5 -164.5q-126 0 -256 37.5t-193 89.5v250q45 -26 75 -41.5t83 -38t110.5 -34t118.5 -11.5q328 0 328 363v39q-108 -173 -330 -173
q-86 0 -161.5 28t-136 83t-95.5 147t-35 211v625h289v-579q0 -74 19.5 -128t53.5 -82.5t72.5 -41.5t83.5 -13q109 0 174.5 70t65.5 203z" />
    <glyph glyph-name="ydieresis.ss02" horiz-adv-x="1259" 
d="M428 1202q-61 0 -103 42t-42 104t41.5 103.5t103.5 41.5t103.5 -41.5t41.5 -103.5t-42 -104t-103 -42zM846 1202q-62 0 -104 42t-42 104q0 61 42 103t104 42t103.5 -41.5t41.5 -103.5t-42 -104t-103 -42zM858 500v571h291v-960q0 -286 -143.5 -450.5t-413.5 -164.5
q-126 0 -256 37.5t-193 89.5v250q45 -26 75 -41.5t83 -38t110.5 -34t118.5 -11.5q328 0 328 363v39q-108 -173 -330 -173q-86 0 -161.5 28t-136 83t-95.5 147t-35 211v625h289v-579q0 -74 19.5 -128t53.5 -82.5t72.5 -41.5t83.5 -13q109 0 174.5 70t65.5 203z" />
    <glyph glyph-name="ygrave.ss02" horiz-adv-x="1259" 
d="M602 1520l156 -334h-230l-227 334h301zM858 500v571h291v-960q0 -286 -143.5 -450.5t-413.5 -164.5q-126 0 -256 37.5t-193 89.5v250q45 -26 75 -41.5t83 -38t110.5 -34t118.5 -11.5q328 0 328 363v39q-108 -173 -330 -173q-86 0 -161.5 28t-136 83t-95.5 147t-35 211
v625h289v-579q0 -74 19.5 -128t53.5 -82.5t72.5 -41.5t83.5 -13q109 0 174.5 70t65.5 203z" />
    <glyph glyph-name="uni1EF9.ss02" horiz-adv-x="1259" 
d="M514 1276q-58 0 -78 -80l-194 64q22 99 85.5 168t170.5 69q60 0 141 -39t115 -39q56 0 75 82l203 -63q-25 -118 -89 -179t-163 -61q-53 0 -103 19.5t-91.5 39t-71.5 19.5zM858 500v571h291v-960q0 -286 -143.5 -450.5t-413.5 -164.5q-126 0 -256 37.5t-193 89.5v250
q45 -26 75 -41.5t83 -38t110.5 -34t118.5 -11.5q328 0 328 363v39q-108 -173 -330 -173q-86 0 -161.5 28t-136 83t-95.5 147t-35 211v625h289v-579q0 -74 19.5 -128t53.5 -82.5t72.5 -41.5t83.5 -13q109 0 174.5 70t65.5 203z" />
    <glyph glyph-name="uni0237.ss03" horiz-adv-x="514" 
d="M111 18v1053h292v-1071l-184 -471h-303z" />
    <glyph glyph-name="uni0414.loclBGR" horiz-adv-x="1593" 
d="M965 1454l442 -1186h154v-485h-265v217h-1001v-217h-262v485h151l445 1186h336zM793 1167l-328 -905h655z" />
    <glyph glyph-name="uni041B.loclBGR" horiz-adv-x="1429" 
d="M881 1454l528 -1454h-326q-220 647 -292.5 878t-85.5 334q-15 -107 -88.5 -345t-284.5 -867h-312l523 1454h338z" />
    <glyph glyph-name="uni0424.loclBGR" horiz-adv-x="1697" 
d="M1638 727q0 -145 -48 -271.5t-132 -218t-203.5 -146.5t-259.5 -62v-150h-297v150q-184 9 -330.5 103t-227.5 250t-81 345q0 286 179 481t460 217v146h297v-141q186 -9 333 -101.5t228.5 -250t81.5 -351.5zM350 727q0 -172 98 -296.5t250 -137.5v870q-154 -14 -251 -135
t-97 -301zM995 1163v-870q156 15 253.5 135.5t97.5 298.5q0 175 -98 296t-253 140z" />
    <glyph glyph-name="uni0432.loclBGR" horiz-adv-x="1112" 
d="M860 811q101 -58 156 -150t55 -212q0 -207 -139 -338t-363 -131q-222 0 -354.5 135t-132.5 374v580q0 223 132.5 359.5t350.5 136.5q204 0 328.5 -119t124.5 -311q0 -207 -158 -324zM553 1305q-90 0 -142.5 -64.5t-52.5 -171.5v-162h170q93 5 150 60t57 143
q0 84 -52 139.5t-130 55.5zM569 240q100 0 162 62t62 157q0 101 -74.5 160t-198.5 59h-162v-189q0 -112 58 -180.5t153 -68.5z" />
    <glyph glyph-name="uni0433.loclBGR" horiz-adv-x="1026" 
d="M500 -20q-205 0 -333 89t-128 248q0 83 35 144t90.5 94.5t122.5 56.5t134.5 37t123 29t90.5 40.5t35 63.5q0 43 -42.5 67.5t-103.5 24.5q-75 0 -120.5 -36.5t-53.5 -94.5l-276 9q3 143 128.5 242.5t319.5 99.5q181 0 304.5 -90t123.5 -242q0 -69 -26.5 -124t-70 -89
t-99.5 -61.5t-114 -42.5t-114 -31t-99.5 -29t-70 -34t-26.5 -48q0 -45 45 -70.5t119 -25.5q92 0 151.5 41t65.5 108l284 -10q-3 -94 -44 -165.5t-110 -114.5t-155 -64.5t-186 -21.5z" />
    <glyph glyph-name="uni0434.loclBGR" horiz-adv-x="1355" 
d="M954 907l54 164h237v-960q0 -286 -150.5 -450.5t-432.5 -164.5q-128 0 -263 35t-209 92v250q48 -26 80 -41.5t88.5 -38t118 -34t125.5 -11.5q352 0 352 363v73q-40 -95 -139 -149.5t-233 -54.5q-158 0 -277 76.5t-179 202.5t-60 280q0 243 144 399t388 156
q105 0 201.5 -47t154.5 -134v-6zM657 240q129 0 212 84t83 213q0 128 -83 210t-212 82q-131 0 -215 -81.5t-84 -210.5q0 -130 84 -213.5t215 -83.5z" />
    <glyph glyph-name="uni0436.loclBGR" horiz-adv-x="1624" 
d="M1200 569l428 -569h-334l-352 487q16 -148 16 -487h-290q0 341 16 489l-354 -489h-334l428 569l-426 502h334l350 -424q-14 157 -14 424v500h290v-500q0 -266 -14 -420l348 420h332z" />
    <glyph glyph-name="uni0437.loclBGR" horiz-adv-x="1058" 
d="M821 338q96 -46 150.5 -139.5t54.5 -216.5q0 -223 -132 -350.5t-355 -127.5q-227 0 -368 135t-151 384h279q0 -129 62 -203t169 -74q99 0 153 62t54 169q0 103 -63 161.5t-166 58.5h-109v237h107q82 0 134 55.5t52 147.5q0 98 -49.5 152.5t-136.5 54.5q-92 0 -142.5 -70
t-50.5 -192h-280q12 244 145.5 374.5t349.5 130.5q206 0 328.5 -113.5t122.5 -316.5q0 -101 -41.5 -184t-116.5 -135z" />
    <glyph glyph-name="uni0438.loclBGR" horiz-adv-x="1263" 
d="M858 500v571h293v-1071h-246l-41 158q-106 -181 -336 -181q-86 0 -161.5 28t-136.5 83t-96.5 147t-35.5 211v625h291v-579q0 -74 19.5 -128t53.5 -82.5t72.5 -41.5t83.5 -13q109 0 174.5 70t65.5 203z" />
    <glyph glyph-name="uni0439.loclBGR" horiz-adv-x="1273" 
d="M637 1167q-66 0 -128 18t-117 55t-88.5 103.5t-33.5 153.5h224q0 -56 35.5 -97.5t107.5 -41.5q73 0 108 41t35 98h226q0 -87 -33.5 -153.5t-88.5 -103.5t-117.5 -55t-129.5 -18zM397 406l500 665h264v-1071h-287v649l-497 -649h-266v1071h286v-665z" />
    <glyph glyph-name="uni045D.loclBGR" horiz-adv-x="1273" 
d="M604 1524l156 -334h-230l-227 334h301zM397 406l500 665h264v-1071h-287v649l-497 -649h-266v1071h286v-665z" />
    <glyph glyph-name="uni043A.loclBGR" horiz-adv-x="1169" 
d="M655 569l488 -569h-344l-412 498q14 -134 14 -498h-290v1536h290q0 -449 -2.5 -619.5t-13.5 -277.5l412 432h342z" />
    <glyph glyph-name="uni043B.loclBGR" horiz-adv-x="1189" 
d="M731 1071l432 -1071h-315q-140 387 -193.5 549.5t-72.5 253.5q-15 -101 -64 -261.5t-182 -541.5h-309l409 1071h295z" />
    <glyph glyph-name="uni043F.loclBGR" horiz-adv-x="1265" 
d="M735 1094q87 0 163 -28t137 -83t96.5 -147t35.5 -211v-625h-295v580q0 74 -19 128t-52.5 82.5t-71.5 41t-84 12.5q-110 0 -174.5 -70t-64.5 -205v-569h-295v1071h245l45 -153q108 176 334 176z" />
    <glyph glyph-name="uni0442.loclBGR" horiz-adv-x="1884" 
d="M1376 1094q185 0 296.5 -112.5t111.5 -307.5v-674h-291v598q0 126 -53.5 186t-141.5 60q-90 0 -147 -61.5t-57 -184.5v-598h-291v598q0 126 -54.5 186t-140.5 60q-91 0 -149 -61.5t-58 -184.5v-598h-290v1071h237l49 -143q103 166 312 166q101 0 183.5 -43t133.5 -123
q122 166 350 166z" />
    <glyph glyph-name="uni0446.loclBGR" horiz-adv-x="1296" 
d="M1135 1071v-803h145v-485h-262v217h-129l-41 158q-106 -181 -336 -181q-86 0 -161.5 28t-136.5 83t-96.5 147t-35.5 211v625h291v-579q0 -74 19.5 -128t53.5 -82.5t72.5 -41.5t83.5 -13q109 0 174.5 70t65.5 203v571h293z" />
    <glyph glyph-name="uni0448.loclBGR" horiz-adv-x="1873" 
d="M1493 473v598h291v-1071h-238l-49 143q-103 -166 -311 -166q-101 0 -184 43.5t-134 122.5q-122 -166 -350 -166q-185 0 -296 112.5t-111 305.5v676h290v-598q0 -126 53.5 -186t141.5 -60q91 0 148 61t57 185v598h291v-598q0 -126 54 -186t140 -60q91 0 149 61t58 185z
" />
    <glyph glyph-name="uni0449.loclBGR" horiz-adv-x="1945" 
d="M1784 1071v-803h145v-485h-262v217h-121l-49 143q-103 -166 -311 -166q-101 0 -184 43.5t-134 122.5q-122 -166 -350 -166q-185 0 -296 112.5t-111 305.5v676h290v-598q0 -126 53.5 -186t141.5 -60q91 0 148 61t57 185v598h291v-598q0 -126 54 -186t140 -60q91 0 149 61
t58 185v598h291z" />
    <glyph glyph-name="uni044C.loclBGR" horiz-adv-x="1077" 
d="M377 760h262q185 0 297.5 -103.5t112.5 -277.5q0 -182 -127 -289.5t-347 -107.5q-246 0 -366.5 113.5t-120.5 320.5v655h289v-311zM575 227q85 0 135 40.5t50 111.5q0 65 -41 101t-111 36h-231v-88q0 -104 45 -152.5t153 -48.5z" />
    <glyph glyph-name="uni044A.loclBGR" horiz-adv-x="1187" 
d="M487 760h265q184 0 295.5 -103.5t111.5 -277.5q0 -183 -126 -290t-347 -107q-244 0 -364.5 113.5t-120.5 320.5v393h-187v262h473v-311zM686 227q86 0 136 40.5t50 111.5q0 65 -41 101t-112 36h-232v-88q0 -104 46 -152.5t153 -48.5z" />
    <glyph glyph-name="yucy.loclBGR" horiz-adv-x="1660" 
d="M1042 1092q241 0 397 -157t156 -400t-155.5 -399t-397.5 -156q-212 0 -360.5 121.5t-183.5 320.5h-101v-422h-286v1538h286v-879h103q39 195 186 314t356 119zM1042 244q122 0 199.5 82t77.5 211t-77.5 211.5t-199.5 82.5q-119 0 -195.5 -82.5t-76.5 -211.5t76.5 -211
t195.5 -82z" />
    <glyph glyph-name="uni0431.loclSRB" horiz-adv-x="1230" 
d="M520 1325l412 -311q260 -196 260 -477q0 -244 -162.5 -400.5t-413.5 -156.5q-252 0 -414.5 156.5t-162.5 400.5q0 132 54.5 243t161 179.5t245.5 68.5h12l-371 313v195h934v-211h-555zM616 242q129 0 213 83.5t84 211.5q0 129 -84 211.5t-213 82.5q-128 0 -211 -82.5
t-83 -211.5q0 -128 83.5 -211.5t210.5 -83.5z" />
    <glyph glyph-name="zero.osf" horiz-adv-x="1169" 
d="M584 -20q-78 0 -152 19t-139 58.5t-113.5 96t-77 135.5t-28.5 172v151q0 115 43 208t115.5 151.5t163 89.5t188.5 31q99 0 190 -31t163.5 -89.5t115.5 -151.5t43 -208v-151q0 -93 -28.5 -172t-77 -135.5t-114 -96t-139.5 -58.5t-153 -19zM584 240q99 0 167 60.5t68 160.5
v149q0 101 -68 162.5t-167 61.5q-98 0 -167 -61.5t-69 -162.5v-149q0 -99 69 -160t167 -61z" />
    <glyph glyph-name="one.osf" horiz-adv-x="1017" 
d="M983 0h-901v260h309v512l-303 -74v265l584 129v-832h311v-260z" />
    <glyph glyph-name="two.osf" horiz-adv-x="1093" 
d="M1016 0h-946v205q0 85 35.5 151.5t92 107.5t124.5 72.5t136.5 53.5t125 43.5t92 50t35.5 64.5q0 44 -39.5 74t-106.5 30q-91 0 -144.5 -49t-60.5 -111l-282 35q34 167 159 268t332 101q189 0 316 -88t127 -244q0 -74 -27.5 -135t-72 -101t-102 -73.5t-117.5 -54
t-117.5 -40t-102.5 -34t-73 -34t-29 -42.5h645v-250z" />
    <glyph glyph-name="three.osf" horiz-adv-x="1118" 
d="M983 858l-303 -317q182 -26 285.5 -143.5t103.5 -297.5q0 -135 -64 -245.5t-179.5 -175t-258.5 -64.5q-234 0 -383 134.5t-149 336.5h289q5 -90 70 -147.5t163 -57.5q96 0 159.5 59.5t63.5 153.5q0 95 -71 156.5t-185 62.5l-172 2l-8 201l281 301h-531v254h889v-213z" />
    <glyph glyph-name="four.osf" horiz-adv-x="1163" 
d="M924 1071v-835h204v-236h-204v-358h-269v358h-620v201l620 870h269zM678 756l-354 -520h331q0 387 23 520z" />
    <glyph glyph-name="five.osf" horiz-adv-x="1138" 
d="M604 590q205 0 340 -134.5t135 -346.5q0 -214 -142 -354t-359 -140q-235 0 -385 137.5t-150 345.5l293 2q5 -93 68 -155t159 -62t162 65t66 161q0 104 -65.5 167.5t-168.5 63.5q-67 0 -123 -31.5t-80 -85.5l-266 78l143 770h781v-264h-547l-51 -256q89 39 190 39z" />
    <glyph glyph-name="six.osf" horiz-adv-x="1191" 
d="M700 979q191 0 322 -136t131 -341q0 -108 -39 -203.5t-108.5 -166t-170.5 -111.5t-219 -41t-220.5 40.5t-171.5 109.5t-108.5 160.5t-39.5 192.5q0 156 96 326l371 645h325l-282 -489q49 14 114 14zM616 258q102 0 171 70t69 174q0 102 -69 171.5t-171 69.5
q-103 0 -173 -69t-70 -172q0 -104 70 -174t173 -70z" />
    <glyph glyph-name="seven.osf" horiz-adv-x="1062" 
d="M37 809v262h983v-229l-541 -1200h-307l524 1167h-659z" />
    <glyph glyph-name="eight.osf" horiz-adv-x="1155" 
d="M911 770q91 -56 139 -144t48 -194q0 -198 -146.5 -325t-373.5 -127t-374 127t-147 325q0 107 47 195.5t138 146.5q-136 106 -136 285q0 183 134.5 299.5t339.5 116.5q203 0 336 -116.5t133 -299.5q0 -184 -138 -289zM580 1231q-81 0 -136 -47.5t-55 -128.5
q0 -78 55.5 -126t135.5 -48t135 48t55 126q0 81 -54.5 128.5t-135.5 47.5zM580 244q98 0 162.5 56t64.5 146q0 91 -64.5 148t-162.5 57q-99 0 -163.5 -57t-64.5 -148q0 -90 64.5 -146t163.5 -56z" />
    <glyph glyph-name="nine.osf" horiz-adv-x="1204" 
d="M602 1085q119 0 221.5 -40.5t172 -109.5t108.5 -160.5t39 -192.5q0 -161 -96 -326l-369 -645h-326l283 489q-52 -14 -117 -14q-190 0 -321 136t-131 341q0 108 39.5 203.5t108.5 166t170 111.5t218 41zM602 322q104 0 174 69t70 172t-70.5 172.5t-173.5 69.5
q-101 0 -170.5 -69.5t-69.5 -172.5t69 -172t171 -69z" />
    <glyph glyph-name="zero.slash" horiz-adv-x="1314" 
d="M657 1475q110 0 211.5 -34.5t183.5 -100t130.5 -170t48.5 -234.5v-418q0 -104 -32 -193t-87 -151.5t-128 -107t-156 -65.5t-171 -21q-111 0 -212 34.5t-182.5 99.5t-130 169.5t-48.5 234.5v418q0 130 48.5 234.5t130 170t183 100t211.5 34.5zM381 936v-418q0 -84 41 -143
l321 809q-43 12 -86 12q-115 0 -195.5 -70.5t-80.5 -189.5zM932 518v418q0 82 -43 147l-322 -813q43 -12 90 -12q115 0 195 70.5t80 189.5z" />
    <glyph glyph-name="uni24FF.ss06" horiz-adv-x="1738" 
d="M1282 0h-823q-133 0 -225.5 91.5t-92.5 223.5v824q0 132 92.5 223.5t225.5 91.5h823q132 0 223.5 -91.5t91.5 -223.5v-824q0 -132 -91.5 -223.5t-223.5 -91.5zM866 274q71 0 136 21t118 62t85 108.5t32 152.5v252q0 85 -32 153t-85 109.5t-118 63t-136 21.5
q-70 0 -134.5 -21.5t-118 -62.5t-85.5 -109t-32 -154v-252q0 -85 32 -152.5t85 -108.5t118 -62t135 -21zM866 479q-63 0 -108 37t-45 102v252q0 66 44.5 103t108.5 37t109 -37t45 -103v-252q0 -66 -45 -102.5t-109 -36.5z" />
    <glyph glyph-name="uni2776.ss06" horiz-adv-x="1738" 
d="M1282 0h-823q-133 0 -225.5 91.5t-92.5 223.5v824q0 132 92.5 223.5t225.5 91.5h823q132 0 223.5 -91.5t91.5 -223.5v-824q0 -132 -91.5 -223.5t-223.5 -91.5zM584 479v-192h579v192h-180v723l-397 -78v-194l178 39v-490h-180z" />
    <glyph glyph-name="uni2777.ss06" horiz-adv-x="1738" 
d="M1282 0h-823q-133 0 -225.5 91.5t-92.5 223.5v824q0 132 92.5 223.5t225.5 91.5h823q132 0 223.5 -91.5t91.5 -223.5v-824q0 -132 -91.5 -223.5t-223.5 -91.5zM539 430v-143h653v205h-426q13 32 43.5 58t68.5 45.5t82 39.5t84.5 45t74 57t53.5 82t20 113q0 133 -92 209
t-226 76q-141 0 -238 -89.5t-97 -224.5h217q6 56 36.5 85.5t81.5 29.5q48 0 74.5 -26t26.5 -60q0 -33 -24 -61t-62.5 -50t-85 -45.5t-93 -54t-85 -67.5t-62.5 -95t-24 -129z" />
    <glyph glyph-name="uni2778.ss06" horiz-adv-x="1738" 
d="M1282 0h-823q-133 0 -225.5 91.5t-92.5 223.5v824q0 132 92.5 223.5t225.5 91.5h823q132 0 223.5 -91.5t91.5 -223.5v-824q0 -132 -91.5 -223.5t-223.5 -91.5zM874 274q156 0 245 81.5t89 203.5q0 136 -116 211q84 77 84 193t-87 185t-225 69q-153 0 -244.5 -85.5
t-91.5 -216.5h211q0 54 33.5 82.5t81.5 28.5q44 0 73 -25t29 -67q0 -38 -26 -61t-74 -23h-76v-186h70q139 0 139 -97q0 -48 -35 -76t-88 -28q-55 0 -94 32t-39 93h-211q0 -139 96 -226.5t256 -87.5z" />
    <glyph glyph-name="uni2779.ss06" horiz-adv-x="1738" 
d="M1282 0h-823q-133 0 -225.5 91.5t-92.5 223.5v824q0 132 92.5 223.5t225.5 91.5h823q132 0 223.5 -91.5t91.5 -223.5v-824q0 -132 -91.5 -223.5t-223.5 -91.5zM854 455v-168h211v168h117v172h-117v575h-199l-415 -602v-145h403zM854 627h-178q77 111 120.5 186t82.5 166
q-25 -127 -25 -352z" />
    <glyph glyph-name="uni277A.ss06" horiz-adv-x="1738" 
d="M1282 0h-823q-133 0 -225.5 91.5t-92.5 223.5v824q0 132 92.5 223.5t225.5 91.5h823q132 0 223.5 -91.5t91.5 -223.5v-824q0 -132 -91.5 -223.5t-223.5 -91.5zM864 274q156 0 251 98.5t95 237.5q0 131 -82.5 218t-214.5 87q-91 0 -151 -45l20 142h365v190h-537l-86 -551
h215q17 36 52 57t75 21q56 0 91.5 -35.5t35.5 -91.5q0 -60 -37.5 -95.5t-91.5 -35.5q-50 0 -86 30t-41 72h-217q0 -120 95.5 -209.5t248.5 -89.5z" />
    <glyph glyph-name="uni277B.ss06" horiz-adv-x="1738" 
d="M1282 0h-823q-133 0 -225.5 91.5t-92.5 223.5v824q0 132 92.5 223.5t225.5 91.5h823q132 0 223.5 -91.5t91.5 -223.5v-824q0 -132 -91.5 -223.5t-223.5 -91.5zM866 274q151 0 247.5 96.5t96.5 237.5q0 127 -82 212t-198 85q-31 0 -58 -6l168 303h-237l-225 -403
q-58 -108 -58 -205q0 -130 97.5 -225t248.5 -95zM866 479q-57 0 -94 36t-37 93q0 55 37 91t94 36q56 0 91.5 -35.5t35.5 -91.5q0 -57 -35.5 -93t-91.5 -36z" />
    <glyph glyph-name="uni277C.ss06" horiz-adv-x="1738" 
d="M1282 0h-823q-133 0 -225.5 91.5t-92.5 223.5v824q0 132 92.5 223.5t225.5 91.5h823q132 0 223.5 -91.5t91.5 -223.5v-824q0 -132 -91.5 -223.5t-223.5 -91.5zM956 1012l-309 -725h232l309 751v164h-641v-190h409z" />
    <glyph glyph-name="uni277D.ss06" horiz-adv-x="1738" 
d="M1282 0h-823q-133 0 -225.5 91.5t-92.5 223.5v824q0 132 92.5 223.5t225.5 91.5h823q132 0 223.5 -91.5t91.5 -223.5v-824q0 -132 -91.5 -223.5t-223.5 -91.5zM864 270q146 0 240 83.5t94 211.5q0 130 -104 205q75 64 75 178q0 116 -85.5 191t-217.5 75q-133 0 -218 -75
t-85 -191q0 -108 74 -176q-102 -75 -102 -207q0 -128 92.5 -211.5t236.5 -83.5zM866 852q-42 0 -69 26t-27 66q0 41 27 66.5t69 25.5q44 0 72.5 -26t28.5 -66t-28.5 -66t-72.5 -26zM866 465q-50 0 -82 30.5t-32 79.5q0 46 32.5 77.5t81.5 31.5q51 0 84 -31.5t33 -77.5
q0 -47 -33 -78.5t-84 -31.5z" />
    <glyph glyph-name="uni277E.ss06" horiz-adv-x="1738" 
d="M1282 0h-823q-133 0 -225.5 91.5t-92.5 223.5v824q0 132 92.5 223.5t225.5 91.5h823q132 0 223.5 -91.5t91.5 -223.5v-824q0 -132 -91.5 -223.5t-223.5 -91.5zM858 590l-168 -303h238l225 405q57 106 57 203q0 131 -97 226.5t-247 95.5q-152 0 -249 -97t-97 -237
q0 -127 82.5 -213t198.5 -86q37 0 57 6zM866 756q-56 0 -92.5 36t-36.5 91t36.5 91t92.5 36t92.5 -36t36.5 -91t-36.5 -91t-92.5 -36z" />
    <glyph glyph-name="uni24EA.ss06" horiz-adv-x="1828" 
d="M1327 -37h-823q-164 0 -264.5 100t-100.5 263v829q0 163 100.5 263t264.5 100h823q163 0 263 -100t100 -263v-829q0 -163 -100 -263t-263 -100zM504 135h823q83 0 128.5 49.5t45.5 141.5v829q0 92 -45.5 142.5t-128.5 50.5h-823q-85 0 -130.5 -50.5t-45.5 -142.5v-829
q0 -92 45.5 -141.5t130.5 -49.5zM911 274q-70 0 -135 21t-118 62t-85 108.5t-32 152.5v252q0 86 32 154t85.5 109t118 62.5t134.5 21.5q71 0 136 -21.5t118 -63t85 -109.5t32 -153v-252q0 -85 -32 -152.5t-85 -108.5t-118 -62t-136 -21zM911 479q64 0 109 36.5t45 102.5v252
q0 66 -45 103t-109 37t-108.5 -37t-44.5 -103v-252q0 -65 45 -102t108 -37z" />
    <glyph glyph-name="uni2460.ss06" horiz-adv-x="1828" 
d="M1327 -37h-823q-164 0 -264.5 100t-100.5 263v829q0 163 100.5 263t264.5 100h823q163 0 263 -100t100 -263v-829q0 -163 -100 -263t-263 -100zM504 135h823q83 0 128.5 49.5t45.5 141.5v829q0 92 -45.5 142.5t-128.5 50.5h-823q-85 0 -130.5 -50.5t-45.5 -142.5v-829
q0 -92 45.5 -141.5t130.5 -49.5zM1208 287h-579v192h180v490l-178 -39v194l397 78v-723h180v-192z" />
    <glyph glyph-name="uni2461.ss06" horiz-adv-x="1828" 
d="M504 1518h823q163 0 263 -100t100 -263v-829q0 -163 -100 -263t-263 -100h-823q-164 0 -264.5 100t-100.5 263v829q0 163 100.5 263t264.5 100zM1501 326v829q0 92 -45.5 142.5t-128.5 50.5h-823q-85 0 -130.5 -50.5t-45.5 -142.5v-829q0 -92 45.5 -141.5t130.5 -49.5
h823q83 0 128.5 49.5t45.5 141.5zM1237 932q0 -63 -20 -113t-53.5 -82t-74.5 -57t-85 -45t-82.5 -39.5t-69 -45.5t-43.5 -58h428v-205h-653v143q0 71 24 129t62.5 95t85 67.5t93 54t85 45.5t62.5 50t24 61q0 34 -26 60t-74 26q-51 0 -82 -30t-37 -85h-217q0 135 97.5 224.5
t238.5 89.5q134 0 225.5 -76t91.5 -209z" />
    <glyph glyph-name="uni2462.ss06" horiz-adv-x="1828" 
d="M504 1518h823q163 0 263 -100t100 -263v-829q0 -163 -100 -263t-263 -100h-823q-164 0 -264.5 100t-100.5 263v829q0 163 100.5 263t264.5 100zM1501 326v829q0 92 -45.5 142.5t-128.5 50.5h-823q-85 0 -130.5 -50.5t-45.5 -142.5v-829q0 -92 45.5 -141.5t130.5 -49.5
h823q83 0 128.5 49.5t45.5 141.5zM1139 770q116 -75 116 -211q0 -122 -88.5 -203.5t-244.5 -81.5q-161 0 -257 88t-96 226h211q0 -61 39 -93t94 -32q53 0 88 28t35 76q0 97 -139 97h-70v186h76q48 0 74.5 23t26.5 61q0 42 -29.5 67t-73.5 25q-48 0 -81.5 -28.5t-33.5 -82.5
h-211q0 131 91.5 216.5t244.5 85.5q138 0 225 -69t87 -185t-84 -193z" />
    <glyph glyph-name="uni2463.ss06" horiz-adv-x="1828" 
d="M504 1518h823q163 0 263 -100t100 -263v-829q0 -163 -100 -263t-263 -100h-823q-164 0 -264.5 100t-100.5 263v829q0 163 100.5 263t264.5 100zM1501 326v829q0 92 -45.5 142.5t-128.5 50.5h-823q-85 0 -130.5 -50.5t-45.5 -142.5v-829q0 -92 45.5 -141.5t130.5 -49.5
h823q83 0 128.5 49.5t45.5 141.5zM913 1202h199v-575h117v-172h-117v-168h-211v168h-403v145zM723 627h178q0 215 25 354q-36 -88 -79 -161t-124 -193z" />
    <glyph glyph-name="uni2464.ss06" horiz-adv-x="1828" 
d="M1327 -37h-823q-164 0 -264.5 100t-100.5 263v829q0 163 100.5 263t264.5 100h823q163 0 263 -100t100 -263v-829q0 -163 -100 -263t-263 -100zM504 135h823q83 0 128.5 49.5t45.5 141.5v829q0 92 -45.5 142.5t-128.5 50.5h-823q-85 0 -130.5 -50.5t-45.5 -142.5v-829
q0 -92 45.5 -141.5t130.5 -49.5zM911 274q-153 0 -248.5 89.5t-95.5 209.5h217q5 -42 41 -72t86 -30q54 0 91.5 35.5t37.5 95.5q0 56 -36 91.5t-91 35.5q-40 0 -75 -21t-52 -57h-215l86 551h537v-190h-365l-20 -142q60 45 152 45q132 0 214 -87t82 -218q0 -139 -95 -237.5
t-251 -98.5z" />
    </font>
</defs>
</svg>
