<?xml version="1.0" standalone="no"?>
<!DOCTYPE svg PUBLIC "-//W3C//DTD SVG 1.1//EN" "http://www.w3.org/Graphics/SVG/1.1/DTD/svg11.dtd" >
<svg xmlns="http://www.w3.org/2000/svg">
<metadata>
<json>
<![CDATA[
{
	"fontFamily": "techsevin",
	"majorVersion": 1,
	"minorVersion": 0,
	"fontURL": "https://www.techsevin.com",
	"designer": "Shashank Panwala",
	"designerURL": "https://www.sppanwala.com",
	"version": "Version 1.0",
	"fontId": "techsevin",
	"psName": "techsevin",
	"subFamily": "Regular",
	"fullName": "techsevin",
	"description": "Font generated by IcoMoon."
}
]]>
</json>
</metadata>
<defs>
<font id="techsevin" horiz-adv-x="1024">
<font-face units-per-em="1024" ascent="960" descent="-64" />
<missing-glyph horiz-adv-x="1024" />
<glyph unicode="&#x20;" horiz-adv-x="512" d="" />
<glyph unicode="&#xe900;" horiz-adv-x="2837" d="M550.095 396.956c38.346-7.328 72.476-50.994 77.294-97.070 7.328-49.187-19.474-85.726-60.531-80.406-42.060 5.521-81.109 53.002-85.325 104.096-4.316 51.195 30.014 84.221 68.561 73.379v0 0zM134.211 926.472c47.882-20.076 87.734-70.368 86.228-112.027 1.807-42.060-39.651-62.337-91.95-47.28-53.203 18.972-99.278 71.071-96.769 118.050 2.108 43.265 49.79 62.237 102.49 41.257v0 0zM661.319 715.87c32.624-12.749 60.029-50.292 65.55-84.723 5.119-34.431-13.25-57.017-45.674-44.971-33.227 8.633-64.245 50.091-66.453 88.537-5.722 35.435 16.262 54.307 46.577 41.157v0 0zM686.214 548.031c30.115-8.633 59.828-48.585 67.557-86.128 4.919-40.856-13.752-67.758-49.187-60.531-32.825 10.641-63.642 50.994-68.662 93.054-4.919 41.96 17.266 65.349 50.292 53.604v0 0zM530.119 598.925c37.945-12.247 72.677-53.905 74.684-96.166 4.919-42.261-21.281-70.167-59.627-62.538-38.748 11.142-74.484 56.616-79.704 100.282-1.606 43.666 28.81 67.658 64.646 58.423v0 0zM514.158 776.1c34.833-13.853 66.654-56.214 72.075-91.549 2.208-39.049-20.779-61.936-58.523-49.288-38.748 12.849-71.372 59.326-77.294 95.865-2.008 39.852 27.906 58.824 63.743 44.971v0 0zM339.995 844.46c43.867-18.27 78.198-59.326 80.205-99.68 2.208-40.053-29.211-63.642-73.781-49.89-44.971 17.467-83.719 66.252-85.526 107.811 1.405 41.458 37.242 56.917 79.101 41.759v0 0zM348.527 653.734c44.369-13.25 81.711-56.816 82.916-104.197 1.807-44.068-30.115-73.078-77.997-61.434-45.674 11.945-88.236 59.727-89.34 108.915-1.004 49.388 39.551 73.881 84.422 56.716v0 0zM126.482 724.302c55.813-18.27 95.965-67.858 97.070-117.347-2.008-46.377-45.373-79.904-101.888-67.156-61.635 16.162-107.811 70.87-104.498 122.667 2.911 51.697 55.913 76.792 109.316 61.836v0 0zM354.851 439.317c48.083-11.243 88.236-56.917 89.541-108.513 4.216-51.597-31.922-90.244-80.607-84.622-53.002 5.22-98.776 58.623-98.877 116.243-0.703 53.705 44.168 88.437 89.943 76.893v0 0zM364.689 192.778c51.797-8.131 91.95-56.013 95.464-115.339 0.502-60.129-37.041-112.93-89.742-114.737-57.218 1.305-102.791 56.917-102.39 123.37-2.911 65.851 43.466 111.424 96.668 106.706v0 0zM571.175 169.088c41.056-4.919 75.287-50.894 82.213-103.896 7.127-53.002-23.489-102.691-64.747-99.88-45.473-1.205-87.333 47.882-91.047 107.108-3.815 58.924 31.42 101.487 73.58 96.668v0 0z" />
<glyph unicode="&#xe901;" horiz-adv-x="2837" d="M785.492 355.899v-57.921h43.767v-63.241h-43.767v-155.191h-80.808v155.191h-42.863v63.241h42.863v57.921h80.808z" />
<glyph unicode="&#xe902;" horiz-adv-x="2837" d="M1111.935 184.547c0 24.794-2.409 41.358-8.733 56.917-16.061 40.856-59.828 67.156-111.926 67.156-82.213 0-133.308-44.269-133.308-115.339 0-72.978 49.589-117.748 130.397-117.748 42.361 0 78.298 14.555 102.691 41.358 8.733 9.737 13.15 16.563 18.972 34.030h-84.221c-9.235-17.968-20.88-25.296-39.852-25.296-28.207 0-48.184 21.381-50.091 52.5h176.171v6.424zM937.772 222.993c2.911 24.794 22.887 41.358 49.187 41.358 23.891 0 44.269-17.968 47.18-41.358h-96.367z" />
<glyph unicode="&#xe903;" horiz-adv-x="2837" d="M1330.367 90.187c-24.794-12.146-44.269-17.467-63.743-17.467-70.569 0-115.841 44.771-115.841 114.335 0 48.184 26.802 90.946 67.658 108.011 15.559 6.826 33.528 9.737 54.006 9.737s34.532-2.409 57.921-11.142v-72.476l-4.417 1.506c-17.968 5.32-30.617 7.83-42.361 7.83-26.3 0-47.18-17.467-47.18-39.852 0-22.887 20.478-40.856 46.678-40.856 12.648 0 28.207 3.915 47.18 12.146v-71.773z" />
<glyph unicode="&#xe904;" horiz-adv-x="2837" d="M1453.436 396.755v-129.393c42.863 27.706 67.156 37.443 92.954 37.443 37.443 0 70.569-31.62 70.569-68.16v-157.199h-80.808v125.578c0 21.883-16.061 36.941-38.948 36.941-25.296 0-43.767-16.563-43.767-38.446v-124.073h-80.808v317.208h80.808z" />
<glyph unicode="&#xe905;" horiz-adv-x="2837" d="M1682.608 148.61c28.709-12.648 46.176-17.968 58.423-17.968 13.15 0 21.381 5.32 21.381 13.652 0 8.733-8.733 14.555-33.126 21.883-17.968 5.32-31.62 11.142-42.361 17.467-5.32 2.911-7.83 4.818-14.154 10.741-7.83 8.733-12.648 22.385-12.648 34.030 0 47.682 36.941 76.893 95.865 76.893 24.794 0 43.767-3.915 66.654-14.154l-19.976-52.098c-2.911 1.004-3.915 1.004-7.328 1.907-20.478 5.822-28.207 7.328-40.856 7.83-11.142 0-17.467-4.417-17.467-12.146 0-9.235 6.826-13.652 28.207-17.968 16.061-3.413 29.211-8.231 39.45-13.652 4.417-2.409 6.826-4.417 12.146-9.235 14.154-14.154 18.47-24.794 18.47-43.265 0-45.774-41.358-79.804-96.367-79.804-28.709 0-58.423 8.733-92.452 28.207l27.706 51.095 8.432-3.413z" />
<glyph unicode="&#xe906;" horiz-adv-x="2837" d="M2123.989 147.606c-5.822-17.467-10.239-24.293-18.972-34.030-24.293-26.802-60.33-41.358-102.691-41.358-80.808 0-130.397 44.771-130.397 117.748 0 71.071 51.095 115.339 133.308 115.339 52.098 0 95.865-26.3 111.926-67.156 6.324-15.559 8.733-32.122 8.733-56.917v-6.324h-176.171c1.907-31.119 21.883-52.5 50.091-52.5 18.972 0 30.617 7.328 39.852 25.296h84.321zM2048 219.68c-2.911 23.389-23.389 41.358-47.18 41.358-26.3 0-46.176-16.563-49.187-41.358h96.367z" />
<glyph unicode="&#xe907;" horiz-adv-x="2837" d="M2211.523 297.979l51.095-109.517 50.091 109.517h77.897l-100.282-218.432h-56.415l-100.282 218.432h77.897z" />
<glyph unicode="&#xe908;" horiz-adv-x="2837" d="M2502.933 297.979v-218.432h-80.306v218.432h80.306z" />
<glyph unicode="&#xe909;" horiz-adv-x="2837" d="M2632.928 268.767c33.528 23.389 67.658 37.443 92.954 37.443 38.948 0 70.067-31.62 70.067-70.569v-156.195h-80.306v125.578c0 21.381-17.065 37.443-39.45 37.443-26.802 0-43.265-16.061-43.265-41.358v-121.663h-80.306v218.532h80.306v-29.211z" />
<glyph unicode="&#xe90a;" horiz-adv-x="2837" d="M2510.261 368.547c0-26.3-21.381-47.682-47.682-47.682s-47.682 21.381-47.682 47.682c0 26.3 21.381 47.682 47.682 47.682s47.682-21.281 47.682-47.682z" />
<glyph unicode="&#xe90b;" horiz-adv-x="2837" d="M730.382-45.229l-21.181 83.618h11.444l9.938-42.261c2.51-10.44 4.718-20.88 6.224-28.91h0.201c1.405 8.332 4.015 18.27 6.826 29.010l11.142 42.161h11.243l10.139-42.462c2.309-9.938 4.618-19.876 5.822-28.609h0.201c1.706 9.135 4.116 18.47 6.726 28.91l11.042 42.161h11.042l-23.69-83.618h-11.243l-10.54 43.566c-2.61 10.641-4.316 18.872-5.421 27.304h-0.201c-1.506-8.332-3.313-16.463-6.424-27.304l-11.945-43.566h-11.343z" />
<glyph unicode="&#xe90c;" horiz-adv-x="2837" d="M823.336-17.222c0.201-14.756 9.637-20.88 20.578-20.88 7.83 0 12.548 1.405 16.663 3.112l1.907-7.83c-3.815-1.706-10.44-3.714-19.976-3.714-18.47 0-29.512 12.146-29.512 30.215s10.641 32.323 28.107 32.323c19.575 0 24.794-17.266 24.794-28.308 0-2.208-0.201-4.015-0.402-5.119h-42.161zM855.257-9.392c0.1 6.926-2.811 17.768-15.158 17.768-11.042 0-15.86-10.139-16.764-17.768h31.922z" />
<glyph unicode="&#xe90d;" horiz-adv-x="2837" d="M916.792 29.155h-25.397v9.135h61.936v-9.135h-25.597v-74.383h-10.942v74.383z" />
<glyph unicode="&#xe90e;" horiz-adv-x="2837" d="M1006.835-28.866c0-6.224 0.1-11.644 0.502-16.362h-9.637l-0.602 9.837h-0.301c-2.811-4.818-9.135-11.142-19.876-11.142-9.436 0-20.679 5.22-20.679 26.3v35.134h10.942v-33.227c0-11.444 3.513-19.073 13.351-19.073 7.328 0 12.447 5.119 14.355 9.938 0.602 1.606 1.004 3.614 1.004 5.621v36.84h10.942v-43.867z" />
<glyph unicode="&#xe90f;" horiz-adv-x="2837" d="M1024.903-3.971c0 7.027-0.1 13.15-0.502 18.771h9.536l0.402-11.745h0.502c2.71 8.031 9.336 13.15 16.663 13.15 1.205 0 2.108-0.1 3.112-0.402v-10.339c-1.104 0.201-2.208 0.402-3.714 0.402-7.729 0-13.15-5.822-14.656-14.054-0.201-1.506-0.502-3.212-0.502-5.119v-32.022h-10.841v41.358z" />
<glyph unicode="&#xe910;" horiz-adv-x="2837" d="M1065.96-1.462c0 6.224-0.1 11.243-0.502 16.262h9.637l0.602-9.938h0.201c3.011 5.722 9.938 11.243 19.876 11.243 8.332 0 21.181-4.919 21.181-25.597v-35.836h-10.741v34.632c0 9.637-3.614 17.768-13.853 17.768-7.228 0-12.749-5.119-14.656-11.142-0.502-1.405-0.703-3.212-0.703-5.119v-36.138h-10.942v43.867z" />
<glyph unicode="&#xe911;" horiz-adv-x="2837" d="M1172.265 38.29v-83.618h-10.841v83.618h10.841z" />
<glyph unicode="&#xe912;" horiz-adv-x="2837" d="M1242.633 42.807v-72.576c0-5.32 0.1-11.444 0.502-15.459h-9.837l-0.502 10.44h-0.201c-3.313-6.726-10.641-11.745-20.478-11.745-14.555 0-25.698 12.247-25.698 30.516-0.1 19.976 12.247 32.223 26.902 32.223 9.135 0 15.358-4.316 18.069-9.135h0.201v35.836h11.042zM1231.691-9.693c0 1.405-0.1 3.212-0.502 4.618-1.606 6.926-7.529 12.648-15.76 12.648-11.243 0-17.968-9.938-17.968-23.188 0-12.146 5.923-22.184 17.768-22.184 7.328 0 14.054 4.818 15.961 13.050 0.402 1.506 0.502 3.011 0.502 4.718v10.339z" />
<glyph unicode="&#xe913;" horiz-adv-x="2837" d="M1266.825-17.222c0.201-14.756 9.637-20.88 20.578-20.88 7.83 0 12.548 1.405 16.663 3.112l1.907-7.83c-3.815-1.706-10.44-3.714-19.976-3.714-18.47 0-29.512 12.146-29.512 30.215s10.641 32.323 28.107 32.323c19.575 0 24.794-17.266 24.794-28.308 0-2.208-0.201-4.015-0.402-5.119h-42.161zM1298.847-9.392c0.1 6.926-2.811 17.768-15.158 17.768-11.042 0-15.86-10.139-16.764-17.768h31.922z" />
<glyph unicode="&#xe914;" horiz-adv-x="2837" d="M1356.065-45.229l-0.903 7.529h-0.402c-3.313-4.718-9.837-8.934-18.37-8.934-12.146 0-18.37 8.532-18.37 17.266 0 14.555 12.849 22.486 36.138 22.285v1.205c0 4.919-1.405 13.853-13.652 13.853-5.621 0-11.444-1.706-15.66-4.417l-2.51 7.228c4.919 3.212 12.146 5.32 19.675 5.32 18.37 0 22.787-12.548 22.787-24.594v-22.486c0-5.22 0.201-10.339 1.004-14.355h-9.737zM1354.459-14.612c-11.945 0.201-25.397-1.907-25.397-13.552 0-7.027 4.718-10.44 10.339-10.44 7.83 0 12.749 4.919 14.555 10.038 0.402 1.104 0.602 2.309 0.602 3.513v10.44z" />
<glyph unicode="&#xe915;" horiz-adv-x="2837" d="M1381.16-34.086c3.212-2.108 8.934-4.316 14.355-4.316 7.93 0 11.644 4.015 11.644 8.934 0 5.22-3.112 8.031-11.142 11.042-10.741 3.815-15.86 9.837-15.86 16.965 0 9.637 7.83 17.567 20.679 17.567 6.123 0 11.444-1.706 14.756-3.714l-2.71-7.93c-2.309 1.506-6.726 3.513-12.247 3.513-6.424 0-10.038-3.714-10.038-8.231 0-4.919 3.614-7.228 11.444-10.139 10.44-4.015 15.76-9.135 15.76-18.069 0-10.54-8.231-17.968-22.486-17.968-6.525 0-12.648 1.606-16.864 4.116l2.71 8.231z" />
<glyph unicode="&#xe916;" horiz-adv-x="2837" d="M1469.196 38.29v-83.618h-10.841v83.618h10.841z" />
<glyph unicode="&#xe917;" horiz-adv-x="2837" d="M1488.971-1.462c0 6.224-0.1 11.243-0.502 16.262h9.637l0.602-9.938h0.201c3.011 5.722 9.938 11.243 19.876 11.243 8.332 0 21.181-4.919 21.181-25.597v-35.836h-10.942v34.632c0 9.637-3.614 17.768-13.853 17.768-7.228 0-12.749-5.119-14.656-11.142-0.502-1.405-0.703-3.212-0.703-5.119v-36.138h-10.942v43.867z" />
<glyph unicode="&#xe918;" horiz-adv-x="2837" d="M1570.381 31.965v-17.266h15.66v-8.332h-15.66v-32.323c0-7.428 2.108-11.644 8.231-11.644 2.811 0 4.919 0.402 6.324 0.703l0.502-8.231c-2.108-0.903-5.421-1.506-9.637-1.506-5.119 0-9.135 1.606-11.745 4.618-3.112 3.212-4.216 8.532-4.216 15.66v32.725h-9.336v8.332h9.336v14.355l10.54 2.911z" />
<glyph unicode="&#xe919;" horiz-adv-x="2837" d="M1651.891-14.712c0-22.184-15.358-31.922-29.914-31.922-16.262 0-28.81 11.945-28.81 30.918 0 20.076 13.15 31.922 29.814 31.922 17.266-0.1 28.91-12.648 28.91-30.918zM1604.31-15.415c0-13.15 7.529-23.088 18.27-23.088 10.44 0 18.27 9.837 18.27 23.289 0 10.139-5.119 23.088-17.968 23.088-13.050 0.1-18.571-11.845-18.571-23.289z" />
<glyph unicode="&#xe91a;" horiz-adv-x="2837" d="M1692.345 37.185c4.718 1.004 12.146 1.706 19.675 1.706 10.841 0 17.768-1.907 22.988-6.123 4.316-3.212 6.926-8.231 6.926-14.756 0-8.031-5.32-15.158-14.154-18.37v-0.201c7.93-2.008 17.266-8.532 17.266-20.98 0-7.228-2.811-12.648-7.027-16.764-5.822-5.32-15.258-7.83-28.91-7.83-7.428 0-13.15 0.502-16.764 1.004v82.313zM1703.086 2.955h9.837c11.444 0 18.069 5.923 18.069 14.054 0 9.837-7.428 13.652-18.37 13.652-4.919 0-7.83-0.402-9.536-0.703v-27.003zM1703.086-37.098c2.108-0.402 5.22-0.502 9.034-0.502 11.142 0 21.482 4.116 21.482 16.262 0 11.444-9.837 16.162-21.582 16.162h-8.934v-31.922z" />
<glyph unicode="&#xe91b;" horiz-adv-x="2837" d="M1809.391-28.866c0-6.224 0.1-11.644 0.502-16.362h-9.637l-0.602 9.837h-0.201c-2.811-4.818-9.135-11.142-19.876-11.142-9.436 0-20.679 5.22-20.679 26.3v35.134h10.942v-33.227c0-11.444 3.513-19.073 13.351-19.073 7.328 0 12.447 5.119 14.355 9.938 0.602 1.606 1.004 3.614 1.004 5.621v36.84h10.942v-43.867z" />
<glyph unicode="&#xe91c;" horiz-adv-x="2837" d="M1826.055-34.086c3.212-2.108 8.934-4.316 14.355-4.316 7.93 0 11.644 4.015 11.644 8.934 0 5.22-3.112 8.031-11.142 11.042-10.841 3.815-15.86 9.837-15.86 16.965 0 9.637 7.83 17.567 20.679 17.567 6.123 0 11.444-1.706 14.756-3.714l-2.71-7.93c-2.309 1.506-6.726 3.513-12.247 3.513-6.424 0-10.038-3.714-10.038-8.231 0-4.919 3.614-7.228 11.444-10.139 10.44-4.015 15.76-9.135 15.76-18.069 0-10.54-8.231-17.968-22.486-17.968-6.525 0-12.648 1.606-16.864 4.116l2.71 8.231z" />
<glyph unicode="&#xe91d;" horiz-adv-x="2837" d="M1888.794 31.664c0.1-3.714-2.61-6.726-6.926-6.726-3.815 0-6.525 3.011-6.525 6.726 0 3.815 2.811 6.826 6.826 6.826s6.625-3.011 6.625-6.826zM1876.647-45.229v60.029h10.942v-60.029h-10.942z" />
<glyph unicode="&#xe91e;" horiz-adv-x="2837" d="M1905.658-1.462c0 6.224-0.1 11.243-0.502 16.262h9.637l0.602-9.938h0.201c3.011 5.722 9.938 11.243 19.876 11.243 8.332 0 21.181-4.919 21.181-25.597v-35.836h-10.942v34.632c0 9.637-3.614 17.768-13.853 17.768-7.228 0-12.749-5.119-14.656-11.142-0.502-1.405-0.703-3.212-0.703-5.119v-36.138h-10.942v43.867z" />
<glyph unicode="&#xe91f;" horiz-adv-x="2837" d="M1980.543-17.222c0.201-14.756 9.637-20.88 20.578-20.88 7.83 0 12.548 1.405 16.663 3.112l1.907-7.83c-3.815-1.706-10.44-3.714-19.976-3.714-18.47 0-29.512 12.146-29.512 30.215s10.641 32.323 28.107 32.323c19.575 0 24.794-17.266 24.794-28.308 0-2.208-0.201-4.015-0.402-5.119h-42.161zM2012.565-9.392c0.1 6.926-2.811 17.768-15.158 17.768-11.042 0-15.86-10.139-16.764-17.768h31.922z" />
<glyph unicode="&#xe920;" horiz-adv-x="2837" d="M2035.151-34.086c3.212-2.108 8.934-4.316 14.355-4.316 7.93 0 11.644 4.015 11.644 8.934 0 5.22-3.112 8.031-11.142 11.042-10.841 3.815-15.86 9.837-15.86 16.965 0 9.637 7.83 17.567 20.679 17.567 6.123 0 11.444-1.706 14.756-3.714l-2.71-7.93c-2.309 1.506-6.726 3.513-12.247 3.513-6.424 0-10.038-3.714-10.038-8.231 0-4.919 3.614-7.228 11.444-10.139 10.44-4.015 15.76-9.135 15.76-18.069 0-10.54-8.231-17.968-22.486-17.968-6.525 0-12.648 1.606-16.864 4.116l2.71 8.231z" />
<glyph unicode="&#xe921;" horiz-adv-x="2837" d="M2084.238-34.086c3.212-2.108 8.934-4.316 14.355-4.316 7.93 0 11.644 4.015 11.644 8.934 0 5.22-3.112 8.031-11.142 11.042-10.841 3.815-15.86 9.837-15.86 16.965 0 9.637 7.83 17.567 20.679 17.567 6.123 0 11.444-1.706 14.756-3.714l-2.71-7.93c-2.309 1.506-6.726 3.513-12.247 3.513-6.424 0-10.038-3.714-10.038-8.231 0-4.919 3.614-7.228 11.444-10.139 10.44-4.015 15.76-9.135 15.76-18.069 0-10.54-8.231-17.968-22.486-17.968-6.525 0-12.648 1.606-16.864 4.116l2.71 8.231z" />
<glyph unicode="&#xe922;" glyph-name="password" data-tags="1password" d="M448.427 532.779v115.797c0 13.056 10.581 23.637 23.637 23.637h81.536c13.056 0 23.637-10.581 23.637-23.637v-211.968c0-3.243-1.621-5.717-3.243-8.149l-20.395-20.395c-4.907-4.907-4.907-12.245 0-16.299l20.395-20.395c2.432-2.432 3.243-4.907 3.243-8.149v-115.755c0-13.056-10.581-23.637-23.637-23.637h-81.536c-13.056 0-23.637 10.581-23.637 23.637v211.968c0 3.243 1.621 5.717 3.243 8.149l20.395 20.395c4.907 4.907 4.907 12.245 0 16.299l-20.395 20.395c-2.432 2.432-3.243 4.864-3.243 8.107zM816.085 448c0 167.936-136.149 304.085-304.085 304.085s-304.085-136.149-304.085-304.085 136.149-304.085 304.085-304.085 304.085 136.149 304.085 304.085zM912.299 448c0-220.928-179.371-399.488-399.488-399.488-220.928 0-399.488 179.371-399.488 399.488 0 220.928 179.371 399.488 399.488 399.488s399.488-178.56 399.488-399.488zM32.597 448c0-264.96 214.4-479.403 479.403-479.403s479.403 214.443 479.403 479.403-214.443 479.403-479.403 479.403-479.403-214.443-479.403-479.403zM0 448c0 282.923 229.077 512 512 512s512-229.077 512-512-229.077-512-512-512-512 229.077-512 512z" />
<glyph unicode="&#xe923;" glyph-name="px" data-tags="500px" d="M317.397 575.573c-70.418-0.097-127.476-57.156-127.573-127.564v-0.009c0.073-70.427 57.146-127.501 127.566-127.573h0.007c70.418 0.097 127.476 57.156 127.573 127.564v0.009c-0.073 70.427-57.146 127.501-127.566 127.573h-0.007zM317.397 347.605c-55.339 0-100.437 45.056-100.437 100.395s45.099 100.395 100.437 100.395 100.395-45.056 100.395-100.395-45.056-100.395-100.395-100.395zM593.536 575.573c-70.418-0.097-127.476-57.156-127.573-127.564v-0.009c0.073-70.427 57.146-127.501 127.566-127.573h0.007c70.418 0.097 127.476 57.156 127.573 127.564v0.009c-0.097 70.418-57.156 127.476-127.564 127.573h-0.009zM593.536 347.605c-55.381 0-100.395 45.056-100.395 100.395s45.013 100.395 100.395 100.395c55.339 0 100.395-45.056 100.395-100.395s-45.056-100.395-100.395-100.395zM98.091 499.072c-3.889 0.598-8.375 0.94-12.941 0.94-20.89 0-40.11-7.149-55.347-19.133l0.193 0.146v67.627h114.645c3.968 0 6.827 0.725 6.827 12.459 0 11.477-4.608 11.947-7.68 11.947h-126.891c-7.424 0-11.307-5.973-11.307-12.544v-111.019c0-5.803 3.712-7.808 10.539-9.131 6.016-1.195 9.515-0.512 12.16 2.432l0.256 0.427c12.075 17.408 38.4 34.304 63.403 31.232 29.824-3.669 53.845-27.477 57.173-56.619 0.27-2.215 0.424-4.78 0.424-7.381 0-35.613-28.857-64.486-64.464-64.512h-0.003c-27.093 0-50.773 17.408-60.629 42.709-1.493 3.755-3.925 6.485-14.635 2.645-9.771-3.541-10.368-7.723-9.045-11.435 12.947-34.722 45.776-59.025 84.296-59.136h0.014c49.32 0.279 89.194 40.325 89.194 89.684 0 44.765-32.797 81.871-75.674 88.597l-0.506 0.065zM808.32 574.336c-34.347-2.645-61.184-32.811-61.184-68.693v-113.536c0-6.571 4.992-7.936 12.501-7.936s12.501 1.323 12.501 7.936v113.835c0 22.357 16.299 41.557 37.035 43.691 1.336 0.153 2.884 0.24 4.452 0.24 10.755 0 20.553-4.094 27.923-10.808l-0.033 0.030c8.454-7.708 13.739-18.768 13.739-31.062 0-0.015 0-0.029 0-0.044v0.002c0-3.413-1.664-14.507-9.259-24.789-5.76-7.765-16.683-17.024-36.011-17.024h-0.384c-4.907 0-9.173-0.213-9.984-11.947-0.555-7.936-0.512-11.477 6.315-12.373 12.203-1.707 24.576 0.683 36.907 7.083 20.992 10.923 35.072 31.616 36.736 54.059 0.122 1.514 0.192 3.277 0.192 5.056 0 18.382-7.442 35.027-19.478 47.084l0.001-0.001c-12.034 11.982-28.631 19.389-46.959 19.389-1.763 0-3.51-0.069-5.238-0.203l0.229 0.014zM975.531 507.819l46.293 46.293c1.707 1.664 5.632 5.632-2.347 13.824-3.413 3.541-6.528 5.333-9.259 5.333h-0.043c-2.071-0.049-3.912-0.995-5.154-2.464l-0.008-0.010-46.421-46.421-46.336 46.635c-3.755 3.755-8.107 2.859-13.739-2.773-5.76-5.803-6.699-10.24-2.944-13.995l46.336-46.592-45.696-45.696c-1.109-1.067-2.773-2.688-2.773-5.333-0.043-2.688 1.792-5.931 5.376-9.515 2.987-3.029 5.888-4.565 8.533-4.565 2.944 0 4.864 1.92 5.931 2.987l45.568 45.525 46.549-46.592c1.239-1.189 2.925-1.92 4.781-1.92 0.029 0 0.058 0 0.087 0.001h0.081c2.944 0 6.059 1.707 9.259 5.035 5.205 5.504 6.101 10.069 2.603 13.611z" />
<glyph unicode="&#xe924;" glyph-name="abbrobotstudio" data-tags="abbrobotstudio" d="M1024 428.373c0-226.216-183.384-409.6-409.6-409.6s-409.6 183.384-409.6 409.6v0h45.653c0-201.002 162.944-363.947 363.947-363.947s363.947 162.944 363.947 363.947c0 201.002-162.944 363.947-363.947 363.947v0 45.653c226.216 0 409.6-183.384 409.6-409.6v0zM614.4 564.907c-75.405 0-136.533-61.128-136.533-136.533s61.128-136.533 136.533-136.533c75.405 0 136.533 61.128 136.533 136.533v0c0 75.405-61.128 136.533-136.533 136.533v0zM529.067 564.907l-25.6 284.587-104.96-81.92-62.293 61.44c-34.725 30.159-80.384 48.54-130.335 48.54-40.74 0-78.625-12.227-110.184-33.212l0.733 0.458-86.187-55.467c-6.127-4.203-10.095-11.168-10.095-19.059 0-4.651 1.378-8.981 3.749-12.602l-0.054 0.088c4.203-6.127 11.168-10.095 19.059-10.095 4.651 0 8.981 1.378 12.602 3.749l-0.088-0.054 85.333 55.893c23.981 15.913 53.433 25.39 85.098 25.39 37.261 0 71.457-13.122 98.219-34.996l-0.278 0.22 58.453-58.88-97.707-77.653z" />
<glyph unicode="&#xe925;" glyph-name="about-dot-me" data-tags="about-dot-me" d="M833.536 569.6c-58.581 0-91.008-43.264-97.877-90.283h196.608c-5.333 44.8-36.992 90.24-98.731 90.24zM737.109 415.232c10.027-49.323 50.901-84.053 108.032-84.053 30.933 0 75.52 11.52 101.717 38.997l50.133-57.6c-45.397-47.36-113.195-60.843-159.573-60.843-112.64 0-200.405 81.323-200.405 196.523 0 108.16 80.811 197.12 194.987 197.12 110.293 0 192-84.48 192-196.437v-32.683h-286.848zM460.331 251.819v242.773c0 41.643-18.56 65.536-57.088 65.536-34.731 0-57.813-24.96-73.259-42.965v-266.24h-100.267v243.2c0 41.643-17.707 65.365-56.235 65.365-34.688 0-58.667-25.003-73.259-42.923v-266.24h-100.224v389.333h100.267v-49.067c17.067 19.797 55.552 53.76 115.627 53.76 53.205 0 89.429-22.4 105.685-67.84 22.357 32.512 64 67.84 124.16 67.84 72.533 0 114.773-43.093 114.773-126.379v-266.24h-100.395z" />
<glyph unicode="&#xe926;" glyph-name="abstract" data-tags="abstract" d="M512 960c409.643 0 512-102.357 512-512s-102.357-512-512-512-512 102.357-512 512 102.357 512 512 512zM427.989 167.936c107.691-0.128 196.437 88.32 196.651 196.053 0 107.563-88.491 196.053-196.053 196.053s-196.053-88.533-196.053-196.053c0-107.349 88.107-195.755 195.456-196.053zM784 176v544h-544v-95.872h447.915v-448.128zM427.989 463.915c55.193-0.024 99.925-44.772 99.925-99.968 0-55.211-44.757-99.968-99.968-99.968-0.015 0-0.030 0-0.045 0h0.002c-55.193 0.024-99.925 44.772-99.925 99.968 0 55.211 44.757 99.968 99.968 99.968 0.015 0 0.030 0 0.045 0h-0.002z" />
<glyph unicode="&#xe927;" glyph-name="academia" data-tags="academia" d="M940.075 56.32l-352.555 884.096h-251.776l44.757-111.915-302.165-772.181c-11.179-39.168-44.757-44.8-78.336-50.389v-50.347h290.987v50.347c-78.336 5.589-123.136 16.811-89.557 100.736 5.589 5.589 27.989 67.157 55.936 145.493h358.101l50.347-128.683c5.589-22.4 11.179-39.168 11.179-55.936 0-44.757-39.168-61.568-111.915-61.568v-50.347h458.923v50.347c-39.168 5.547-72.747 16.768-83.925 50.347zM290.987 347.264c55.936 139.904 117.504 302.165 139.904 363.733l145.493-363.733z" />
<glyph unicode="&#xe928;" glyph-name="accusoft" data-tags="accusoft" d="M771.328 262.613c-8.917 11.136-371.584 474.88-384.213 490.496-11.904 15.616-8.917 20.053-6.699 22.315 4.48 5.205 11.136 4.48 37.163 4.48 15.616 0 170.197 0.725 186.539 0.725 33.451 0 38.656-2.987 42.368-3.712 3.712-1.493 12.629-8.917 19.328-16.341 3.712-4.48 328.491-393.131 331.435-396.843 3.712-4.48 8.917-11.904 13.397-18.56 3.712-6.699 4.48-15.616-1.493-19.328-3.712-2.219-183.552-76.544-188.757-78.037-5.205-2.219-14.848-5.931-22.315-4.48-3.712-0.043-14.848 5.163-26.752 19.285zM954.88 271.531l13.397-2.219c0 0 43.093-8.192 47.573-9.643 4.437-0.768 8.149-4.48 8.149-5.973 0-3.712-2.219-5.205-5.931-7.424-2.987-2.219-197.675-121.856-201.387-124.117-3.712-2.219-8.192-4.48-18.56-5.931-19.328-3.712-55.723 6.699-67.627 8.917-11.136 2.219-489.003 108.501-492.715 109.995-4.48 1.493-7.424 1.493-7.424 5.931-0.725 6.699 9.643 8.917 17.835 11.904s232.619 83.968 240.768 87.68c8.192 3.712 17.835 4.48 23.040 4.48s36.395-4.48 50.517-6.699 54.229-8.192 54.229-8.192l91.392-118.144c15.616-18.56 26.027-26.027 39.381-26.752 6.699-0.725 14.123 1.493 19.328 3.712 3.755 1.451 188.032 82.475 188.032 82.475zM433.195 561.365c0 0 78.763-101.077 79.531-101.803 0.725-1.493 1.493-2.987 2.987-3.712v-1.493c-2.987-2.219-143.445-132.267-144.171-133.035l-147.883-54.229c0 0-4.48-1.493-6.699-2.987s-5.205-4.48-4.48-11.136c0-2.219 0.725-36.395 1.493-44.587-0.725-0.725 0 0-0.725-0.725 0 0-182.059-57.984-183.552-57.984-8.917-2.987-26.027-8.917-28.245-7.424-3.712 2.987 0.725 7.424 2.987 10.411 2.219 2.987 375.296 370.091 389.419 384.939 20.011 21.547 39.339 23.765 39.339 23.765z" />
<glyph unicode="&#xe929;" glyph-name="acm" data-tags="acm" d="M317.227 437.333c-3.413-1.067-6.4-3.072-8.619-5.76-2.048-3.072-3.115-6.741-2.987-10.453 0-6.4 1.621-10.752 5.12-13.141 3.285-2.389 8.277-3.499 15.019-3.499 3.712 0 7.424 0.853 11.264 2.56 3.84 1.621 7.424 4.053 10.453 7.040v28.16c-7.168-0.64-12.928-1.28-17.28-1.92-4.48-0.427-8.832-1.451-12.971-2.987zM512 960l-512-512 512-512 512 512zM512 134.101c-173.312 0.085-313.813 140.544-313.899 313.899 0.085 173.312 140.587 313.856 313.899 313.941 173.355-0.085 313.813-140.587 313.899-313.941-0.085-173.355-140.544-313.813-313.899-313.899zM512 730.581v-0.085c-155.904 0-282.453-126.549-282.453-282.453s126.549-282.453 282.453-282.453 282.453 126.549 282.453 282.453c0 155.989-126.464 282.453-282.453 282.539zM389.888 378.752h-42.453v14.336l-7.765-6.571c-6.059-4.608-12.971-8.021-20.352-9.941-3.499-0.853-8.619-1.493-15.019-1.493-11.179-0.299-21.973 4.139-29.781 12.16-7.979 8.107-11.819 18.176-11.819 30.549 0 10.155 1.963 18.219 5.973 24.491 4.267 6.4 10.24 11.52 17.28 14.848 8.747 3.84 18.048 6.485 27.563 7.68 10.667 1.408 22.016 2.56 34.261 3.328v0.725c0 7.509-2.816 12.672-8.363 15.488-5.547 2.987-13.739 4.352-24.747 4.352-4.992 0-10.837-0.853-17.493-2.688-6.741-1.877-13.141-4.267-19.541-6.997h-3.712v32.853c4.139 1.28 10.923 2.645 20.48 4.267 9.259 1.707 18.688 2.56 28.288 2.56 23.467 0 40.533-3.925 51.2-11.776 10.667-7.808 16-19.712 16-35.712zM527.275 385.877c-2.987-1.195-5.717-2.389-8.533-3.669-3.157-1.28-6.4-2.475-9.813-3.413-4.011-1.024-7.936-1.877-11.52-2.56-3.584-0.597-8.363-0.939-14.336-0.939-11.221 0-21.589 1.408-30.848 4.267-8.96 2.645-17.323 7.040-24.32 13.099-6.955 6.059-12.459 13.653-15.915 22.187-3.84 8.96-5.76 19.499-5.76 31.488-0.341 11.52 1.792 22.827 6.229 33.28 3.84 8.704 9.557 16.384 16.725 22.613 7.040 5.717 15.147 9.941 23.893 12.373 9.387 2.816 19.072 4.096 28.8 4.096 15.787 0 31.232-3.712 45.227-10.88v-36.437h-5.419c-2.048 1.835-4.096 3.627-6.272 5.291-2.56 2.048-5.205 3.84-8.021 5.376-7.125 4.053-15.232 6.144-23.467 5.973-10.837 0-19.2-3.669-25.173-11.221-5.888-7.552-8.96-17.664-8.96-30.464 0-13.653 3.2-23.893 9.6-30.507 6.4-6.699 14.805-10.027 25.259-10.027 4.693 0 9.472 0.555 14.080 1.792 6.528 1.835 12.587 5.12 17.707 9.6 2.048 1.707 3.755 3.499 5.248 4.693h5.547zM712.149 378.496v68.139c0 6.699 0 12.373-0.299 16.939-0.085 3.84-0.853 7.68-2.219 11.221-0.981 2.816-2.987 5.12-5.547 6.4-6.528 2.731-13.867 2.688-20.395-0.085-3.669-1.707-7.168-3.712-10.411-5.973v-96.555h-42.368v68.053c0 6.656-0.128 12.203-0.427 16.896-0.128 3.84-0.853 7.68-2.133 11.264-1.152 2.816-3.243 5.12-5.803 6.4-2.56 1.408-6.187 2.048-10.667 2.048-3.541 0-7.040-0.853-10.24-2.389-3.328-1.707-6.485-3.669-9.728-5.803v-96.512h-42.453v136.021h42.368v-15.189c6.144 5.333 12.629 9.941 19.627 13.781 6.315 3.413 13.397 5.12 20.651 5.12 7.765 0.171 15.36-1.92 21.931-5.973 6.528-4.267 11.52-10.411 14.507-17.664 8.107 7.552 15.787 13.397 23.040 17.493s14.507 6.187 21.973 6.187c5.803 0.085 11.52-0.981 16.896-3.2 4.907-1.877 9.387-4.949 12.8-8.96 3.84-4.523 6.827-9.813 8.533-15.531 1.92-6.059 2.816-13.995 2.816-23.595v-88.576z" />
<glyph unicode="&#xe92a;" glyph-name="addthis" data-tags="addthis" d="M768 384.171h-192.043v-191.317h-128v191.317h-191.957v127.573h192v191.36h128.043v-191.36h191.957zM896 958.251h-768c-70.485-0.085-127.659-57.088-128-127.573v-765.44c0.341-70.4 57.515-127.403 128-127.488h768c70.443 0.085 127.616 57.088 128 127.488v765.44c-0.384 70.485-57.515 127.445-128 127.573z" />
<glyph unicode="&#xe92b;" glyph-name="adguard" data-tags="adguard" d="M512 960c-148.523 0-323.157-35.328-472.277-112.128l-23.253-11.904v-26.283c0-158.336 3.029-580.821 473.643-860.544l21.888-13.141 21.888 13.141c470.613 279.723 473.6 702.208 473.6 860.587v25.941l-22.955 12.032c-147.328 77.099-324.011 112.299-472.533 112.299zM512 874.155c127.061 0 280.917-32.555 408.576-93.739-0.341-165.888-17.835-492.501-408.576-739.413-390.741 246.912-408.277 573.525-408.576 739.413 129.536 61.397 281.515 93.739 408.576 93.739zM726.827 636.715c-11.093-0.341-20.651-7.381-26.027-12.757l-229.547-238.080-85.845 102.955c-40.747 47.189-96.512 10.709-109.397 2.133l199.552-231.68 272.427 368.981c-5.373 5.227-12.719 8.45-20.817 8.45-0.122 0-0.243-0.001-0.364-0.002h0.018z" />
<glyph unicode="&#xe92c;" glyph-name="adobe" data-tags="adobe" d="M644.267 874.667h379.733v-853.333zM379.733 874.667h-379.733v-853.333zM512 558.933l238.933-537.6h-162.133l-68.267 170.667h-174.933z" />
<glyph unicode="&#xe92d;" glyph-name="adobeacrobatreader" data-tags="adobeacrobatreader" d="M1006.848 304.299c-30.293 32.427-92.331 51.072-180.224 51.072-46.933 0-101.333-4.693-160.427-15.787-33.365 32.853-66.645 71.253-98.432 116.053-22.613 31.573-42.368 64.853-60.587 97.707 34.688 108.373 51.456 196.693 51.456 260.267 0 71.339-25.728 145.749-99.84 145.749-22.741 0-45.483-13.867-57.6-34.133-33.408-60.075-18.347-191.701 39.125-321.707-21.461-64.853-44.16-126.848-72.533-196.48-24.661-58.709-53.077-119.211-82.048-174.763-166.571-67.584-274.347-146.517-284.459-208.384-4.437-23.339 3.157-44.8 19.499-61.867 5.675-4.693 27.136-23.253 63.147-23.253 110.507 0 226.987 182.613 286.165 292.693 45.44 15.36 90.88 29.312 136.235 43.307 49.835 13.781 99.84 24.875 145.28 32.64 116.693-106.837 219.563-123.733 271.275-123.733 63.659 0 86.357 26.325 93.995 47.872 11.947 27.733 2.987 58.453-10.752 74.24zM947.755 259.328c-4.437-23.211-27.221-38.656-59.136-38.656-8.96 0-16.64 1.579-25.728 3.072-58.027 13.867-112.341 43.349-166.528 89.856 53.333 9.131 98.56 10.667 127.147 10.667 31.573 0 58.88-1.365 77.227-6.144 20.907-4.523 54.187-18.56 46.72-58.88zM626.773 332.16c-39.253-8.107-81.664-17.664-125.611-29.568-34.816-9.515-71.083-20.224-107.52-32.853 19.755 38.485 36.437 75.691 51.541 111.061 18.261 43.52 33.28 88.32 48.427 129.963 14.933-26.027 31.573-52.48 48.213-75.947 27.307-37.12 55.893-72.533 84.48-103.253zM428.373 907.52c6.187 12.373 18.347 18.603 28.928 18.603 31.787 0 37.845-37.035 37.845-66.56 0-49.835-15.104-125.525-40.96-211.925-45.312 120.32-48.427 221.013-25.813 259.883zM261.888 186.581c-77.227-129.835-151.381-210.475-196.821-210.475-8.96 0-16.512 3.2-22.613 7.808-9.131 9.216-13.653 20.139-10.581 32.427 9.088 46.507 95.403 111.488 230.016 170.24z" />
<glyph unicode="&#xe92e;" glyph-name="adobeaftereffects" data-tags="adobeaftereffects" d="M0 947.2v-998.4h1024v998.4zM42.667 904.533h938.667v-913.067h-938.667zM289.451 381.867l-33.792-127.403c-0.725-3.541-2.133-4.821-6.315-4.821h-62.635c-4.267 0-4.949 1.493-4.267 6.4l121.173 423.808c2.133 7.68 3.499 13.867 4.181 34.987 0 2.816 1.408 4.267 3.541 4.267h89.429c2.816 0 4.267-0.768 4.949-4.267l135.808-459.52c0.683-3.499 0-5.547-3.541-5.547h-70.4c-3.499 0-5.547 1.28-6.272 4.096l-35.2 128.085zM409.173 451.157c-11.947 47.189-40.96 150.613-51.456 200.533h-0.683c-9.131-49.92-32.256-134.315-49.92-200.533zM637.867 407.467c0.725-57.728 28.16-96.427 92.928-96.427 25.344 0 47.061 3.328 69.547 13.227 2.859 1.365 4.992 0.64 4.992-2.859v-53.504c0-4.267-1.408-6.4-4.267-8.533-22.485-11.264-50.517-16.213-85.76-16.213-112.64 0-154.88 83.072-154.88 176 0 100.693 52.139 183.040 143.659 183.040 92.928 0 125.312-78.208 125.312-141.525 0-20.48-1.493-37.376-3.627-45.099-0.725-3.499-2.133-4.693-5.632-5.419-8.448-1.408-33.792-2.816-71.125-2.816zM724.48 466.133c21.845 0 29.568 0 31.659 0.683 0 2.901 0.725 5.333 0.725 7.424 0 23.253-11.349 65.877-55.723 65.877-40.832 0-58.453-35.925-62.635-73.899z" />
<glyph unicode="&#xe92f;" glyph-name="adobeaudition" data-tags="adobeaudition" d="M0 947.2v-998.4h1024v998.4zM42.667 904.533h938.667v-913.067h-938.667zM284.117 371.2l-32.939-122.155c-0.725-3.456-2.091-5.845-6.187-5.845h-61.141c-4.139 0-4.821 1.365-4.139 6.187l118.144 411.349c2.639 9.856 4.154 21.171 4.154 32.84 0 0.71-0.006 1.418-0.017 2.126l0.001-0.107c0 2.773 1.365 4.139 3.413 4.139h87.253c2.731 0 4.139-0.683 4.821-4.139l132.565-446.891c0.683-3.456 0-5.504-3.456-5.504h-68.693c-3.048 0.011-5.583 2.194-6.138 5.081l-0.006 0.039-34.347 122.88zM400.213 439.467c-11.691 46.037-39.168 146.304-49.451 195.072h-0.683c-8.917-48.768-30.933-130.517-48.085-195.072zM827.733 310.4c0-4.779 0.683-19.2 2.048-42.581 0-2.731-0.256-4.096-2.987-4.779-37.821-16.615-81.803-26.846-128.019-28.149l-0.493-0.011c-62.507 0-122.283 24.021-122.283 120.192v219.691c0 3.456 1.365 5.504 4.821 5.504h67.157c3.456 0 4.821-2.048 4.821-5.504v-210.773c0-40.533 17.707-62.507 60.288-62.507 0.265-0.002 0.578-0.003 0.891-0.003 14.816 0 28.984 2.772 42.014 7.826l-0.793-0.271v265.728c0 3.456 1.365 5.504 4.821 5.504h62.891c4.139 0 4.821-2.048 4.821-5.504z" />
<glyph unicode="&#xe930;" glyph-name="adobecreativecloud" data-tags="adobecreativecloud" d="M1024 465.109v-34.261c-0.341-1.877-0.725-3.712-0.939-5.547-1.707-14.933-2.859-29.909-5.291-44.715-8.49-50.523-26.062-95.677-51.082-135.698l0.906 1.554c-37.541-61.607-90.387-110.551-153.36-142.371l-2.16-0.989c-34.836-17.943-75.389-30.647-118.265-35.8l-1.713-0.168c-9.259-1.109-18.56-2.091-27.819-3.115h-359.723c-1.835 0.341-3.627 0.853-5.461 1.024-38.284 2.4-73.85 11.555-106.349 26.286l1.901-0.771c-72.405 32.213-126.421 84.48-161.749 156.331-14.806 29.385-25.347 63.555-29.719 99.626l-0.147 1.494-3.029 25.685v33.28c0.341 1.835 0.853 3.669 0.981 5.547 1.937 33.838 8.985 65.466 20.392 94.922l-0.723-2.122c30.549 80.213 83.883 139.776 159.488 178.304 36.336 18.777 79.007 30.673 124.23 32.827l0.698 0.026c4.786 0.24 10.394 0.377 16.033 0.377 16.966 0 33.643-1.238 49.946-3.629l-1.851 0.223c0.215-0.020 0.464-0.032 0.717-0.032 2.055 0 3.93 0.773 5.349 2.044l-0.008-0.007c29.644 30.923 64.298 56.747 102.712 76.231l2.163 0.995c34.997 18.014 75.732 30.788 118.795 36.010l1.738 0.172c9.984 1.152 19.925 2.133 29.867 3.157h30.72c1.963-0.299 4.011-0.683 5.973-0.896 15.232-1.835 30.507-2.987 45.568-5.547 49.486-8.694 93.599-26.395 132.528-51.454l-1.413 0.852c61.183-38.566 109.585-92.365 140.622-156.169l0.989-2.252c17.712-35.512 30.229-76.805 35.251-120.381l0.162-1.731c1.109-9.771 2.048-19.541 3.072-29.312zM451.413 686.976c0.64-0.853 0.811-1.237 1.067-1.365 21.035-10.539 41.173-22.955 60.16-36.992 1.195-0.853 4.181-0.512 5.632 0.427 52.139 33.579 108.672 45.184 169.387 34.219 59.52-10.709 107.947-40.96 144.939-89.259 41.899-54.613 57.899-116.48 46.336-185.173-7.765-46.080-25.941-87.467-56.747-122.069-56.32-63.147-126.848-89.259-209.835-78.208-51.072 6.827-95.147 29.227-131.669 66.731-46.848 48.128-94.037 95.915-141.013 143.915-6.272 6.4-13.227 11.52-22.229 12.672-1.417 0.202-3.054 0.317-4.718 0.317-14.231 0-26.492-8.435-32.056-20.577l-0.090-0.22c-6.059-12.8-5.291-27.307 7.893-40.448 52.352-52.309 104.277-105.045 156.587-157.44 8.96-8.96 18.56-17.28 28.757-24.832 38.229-28.203 81.323-43.819 128-50.091 36.608-4.949 72.96-3.84 109.013 4.352 68.779 15.744 125.781 51.413 170.667 106.539 35.376 42.941 59.48 96.403 67.079 155.043l0.163 1.544c1.796 12.578 2.822 27.103 2.822 41.869 0 20.807-2.037 41.138-5.921 60.806l0.326-1.981c-10.411 54.187-32.981 102.741-69.12 144.085-69.035 78.763-155.861 113.92-259.157 106.112-41.806-3.54-80.11-15.606-114.141-34.447l1.459 0.741c-20.342-10.857-37.89-22.891-53.958-36.61l0.412 0.343zM426.155 136.96c-1.786 1.664-3.175 2.972-4.559 4.286l0.292-0.275c-21.376 20.565-42.923 40.96-64.085 61.824-3.168 3.601-7.785 5.861-12.93 5.861-0.254 0-0.507-0.006-0.759-0.016l0.036 0.001c-21.419-0.512-42.88-0.597-64 4.267-105.003 24.107-165.973 140.203-127.275 242.347 30.507 80.597 115.029 129.621 198.357 114.517 37.333-6.784 70.144-22.869 97.024-51.072 32.853-34.475 66.645-67.925 99.84-102.016 7.509-7.765 16.213-11.307 26.667-9.813 13.483 1.963 24.277 8.533 29.141 22.016 4.779 13.227 2.475 25.813-7.381 36.011-34.816 35.84-68.821 72.619-105.045 106.965-70.272 66.603-153.088 86.443-244.736 58.112-123.221-38.101-195.371-167.509-167.211-295.211 25.685-116.352 125.739-197.973 242.816-198.101h98.091c1.621 0 3.243 0.171 5.717 0.299z" />
<glyph unicode="&#xe931;" glyph-name="adobedreamweaver" data-tags="adobedreamweaver" d="M0 947.2v-998.4h1024v998.4zM42.667 904.533h938.667v-913.067h-938.667zM133.333 712.107c0 3.584 0.725 4.992 4.949 5.675 16.213 0.725 62.72 2.133 110.805 2.133 142.933 0 214.016-92.245 214.016-227.413 0-187.947-123.307-244.907-218.24-244.907-35.925 0-88.064 0.683-107.093 1.365-2.773 0-4.181 2.133-4.181 5.632zM210.133 316.587c11.947-0.768 22.528-1.451 35.925-1.451 78.848 0 137.259 55.637 137.984 175.275 0.853 116.907-59.733 161.92-134.955 161.92-14.805 0-26.752-0.853-38.699-1.621zM751.488 249.6c-4.949 0-6.315 1.92-7.040 6.101-21.12 117.547-38.699 200.661-46.507 258.389h-0.683c-9.131-52.309-26.027-138.965-54.187-259.328-1.408-4.267-2.816-5.419-6.315-5.419h-68.992c-4.949 0-6.315 0.683-7.68 4.907l-75.392 336.256c-0.683 2.859 0.768 5.675 4.992 5.675h68.992c2.816 0 4.949-0.981 5.632-3.84 26.752-151.296 37.973-229.717 42.24-260.693h2.816c4.949 36.608 19.712 112.896 51.371 259.328 1.408 4.267 1.408 5.291 5.632 5.291h72.533c3.499 0 4.181-1.707 4.907-5.248 24.661-138.667 40.832-226.133 45.056-261.376h2.133c6.827 45.056 16.213 105.813 46.251 262.144 0.725 2.816 1.408 4.523 4.949 4.523h64.853c2.816 0 4.949-1.408 3.541-4.949l-83.755-336.811c-0.64-3.541-1.28-4.949-6.229-4.949z" />
<glyph unicode="&#xe932;" glyph-name="adobeillustrator" data-tags="adobeillustrator" d="M0 947.2v-998.4h1024v998.4zM42.667 904.533h938.667v-913.067h-938.667zM355.2 381.867l-33.792-127.915c-0.725-3.541-2.133-4.352-6.315-4.352h-62.635c-4.267 0-4.907 1.408-4.267 6.315l121.173 424.32c2.133 7.68 3.499 14.421 4.181 35.541 0 2.816 1.408 4.267 3.541 4.267h89.429c2.816 0 4.267-0.768 4.949-4.267l135.893-460.544c0.725-3.541 0-5.632-3.541-5.632h-70.4c-3.541 0-5.632 0.853-6.315 3.669l-35.2 128.64zM474.155 451.2c-11.947 47.189-40.107 150.528-50.688 200.533h-0.725c-9.131-49.92-31.659-134.4-49.28-200.533zM666.155 688.341c0 27.435 18.987 43.648 43.648 43.648 26.027 0 43.648-17.579 43.648-43.648 0-28.16-18.347-43.648-44.373-43.648-25.6 0-43.093 15.488-42.923 43.648zM670.933 591.317c0 3.413 1.408 4.693 4.949 4.693h66.987c3.755 0 5.12-1.408 5.12-4.949v-336.853c0-3.541-0.683-4.949-4.907-4.949h-66.133c-4.267 0-5.675 2.133-5.675 5.547z" />
<glyph unicode="&#xe933;" glyph-name="adobeindesign" data-tags="adobeindesign" d="M0 947.2v-998.4h1024v998.4zM42.667 904.533h938.667v-913.067h-938.667zM374.4 255.232c0-4.267-0.725-5.632-5.632-5.632h-65.536c-4.267 0-5.632 2.133-5.632 5.632v458.069c0 4.267 2.133 5.632 5.632 5.632h66.261c3.499 0 4.907-1.408 4.907-4.949zM449.92 420.437c0 102.101 67.328 181.632 175.019 181.632 9.131 0 14.080 0 22.528-0.64v113.237c0 2.816 2.133 4.267 4.267 4.267h69.333c3.584 0 4.267-1.451 4.267-3.584v-399.147c0-11.947 0-26.667 2.133-42.837 0-2.816-0.853-3.541-3.712-4.949-36.608-17.621-75.349-25.387-111.957-25.387-94.421 0-162.005 58.453-161.877 177.408zM647.467 532.395c-6.315 2.816-14.805 4.267-25.344 4.267-54.827 0-93.312-42.24-93.312-112.64 0-80.299 39.168-112.64 88.448-112.64 10.539 0 21.845 1.365 30.293 4.907z" />
<glyph unicode="&#xe934;" glyph-name="adobelightroomcc" data-tags="adobelightroomcc" d="M842.667 947.2h-661.333c-100.267 0-181.333-81.067-181.333-181.333v-635.733c0-100.267 81.067-181.333 181.333-181.333h661.333c100.267 0 181.333 81.067 181.333 181.333v635.733c0 100.267-81.067 181.333-181.333 181.333zM980.907 146.773c0.001-0.215 0.002-0.47 0.002-0.725 0-85.329-69.136-154.509-154.448-154.581h-628.914c-85.333 0-154.88 69.547-154.88 155.307v602.453c0 85.76 69.547 155.307 154.88 155.307h628.48c85.538 0 154.88-69.342 154.88-154.88v0zM283.733 250.453c-5.12 0-6.4 2.133-6.4 6.4v458.667c0 3.413 1.28 5.547 5.12 5.547h67.413c3.413 0 4.267-1.28 4.267-5.12v-395.093h175.787c3.413 0 4.693-1.28 3.84-5.12l-10.667-60.587c-0.853-3.413-2.987-5.12-6.4-5.12h-232.96zM603.733 526.933c0 5.12 0 17.493-2.133 41.387 0 3.413 0.853 4.267 3.413 5.547 26.027 10.667 87.893 29.44 157.013 29.44 3.413 0 5.12-0.853 5.12-4.267v-61.44c0-3.413-1.28-4.267-5.12-4.267-26.88 1.28-66.56-2.133-81.493-8.533v-269.227c0-3.413-1.28-5.12-5.12-5.12h-66.987c-3.413 0-5.12 1.28-5.12 5.12v271.36z" />
<glyph unicode="&#xe935;" glyph-name="adobelightroomclassic" data-tags="adobelightroomclassic" d="M0 947.2v-998.4h1024v998.4zM42.667 904.533h938.667v-913.067h-938.667zM283.648 250.667c-4.949 0-6.315 2.133-6.315 6.315v458.411c0 3.541 1.408 5.632 4.949 5.632h67.584c3.584 0 4.267-1.579 4.267-5.12v-395.093h176c3.541 0 4.523-1.408 3.84-4.949l-10.581-60.587c-0.683-3.499-2.816-4.907-6.315-4.907zM599.467 526.976c0 5.12 0 17.749-2.133 41.685 0 3.541 0.768 4.267 3.584 5.632 26.027 10.496 87.808 29.525 156.8 29.525 3.413 0 4.779-0.725 4.779-4.267v-61.952c0-3.584-1.408-4.267-4.949-4.267-26.795 1.408-66.731-2.133-81.493-8.448v-269.227c0-3.499-1.408-4.907-4.949-4.907h-66.987c-3.413 0-4.864 1.408-4.864 4.949z" />
<glyph unicode="&#xe936;" glyph-name="adobephotoshop" data-tags="adobephotoshop" d="M0 947.2v-998.4h1024v998.4zM42.667 904.533h938.667v-913.067h-938.667zM247.467 713.387c0 2.859 5.973 4.949 9.557 4.949 27.477 1.408 67.755 2.133 109.995 2.133 118.272 0 164.267-64.853 164.267-147.883 0-108.373-78.592-154.88-175.019-154.88-16.213 0-21.76 0.725-33.067 0.725v-163.925c0-3.541-1.408-4.949-4.907-4.949h-65.877c-3.541 0-4.907 1.28-4.907 4.821zM323.2 486.741c9.813-0.683 17.579-0.683 34.56-0.683 49.92 0 96.853 17.579 96.853 85.163 0 54.187-33.536 81.664-90.539 81.664-16.896 0-33.067-0.683-40.832-1.408zM690.432 537.429c-33.792 0-45.056-16.896-45.056-30.976 0-15.488 7.68-26.027 52.779-49.28 66.901-32.427 87.979-63.36 87.979-109.099 0-68.267-52.053-104.96-122.453-104.96-37.376 0-69.12 7.808-87.467 18.347-2.773 1.408-3.413 3.499-3.413 7.040v62.592c0 4.267 2.048 5.675 4.864 3.584 26.624-17.621 57.685-25.344 85.845-25.344 33.792 0 47.872 14.080 47.872 33.109 0 15.488-9.813 28.885-52.779 51.413-60.587 29.013-85.931 58.453-85.931 107.819 0 54.912 42.923 100.693 117.547 100.693 36.693 0 62.464-5.632 76.544-11.947 3.499-2.133 4.267-5.632 4.267-8.448v-58.453c0-3.541-2.133-5.675-6.4-4.267-18.944 11.264-46.933 18.347-74.197 18.176z" />
<glyph unicode="&#xe937;" glyph-name="adobepremiere" data-tags="adobepremiere" d="M0 947.2v-998.4h1024v998.4zM42.667 904.533h938.667v-913.067h-938.667zM268.672 713.472c0 2.816 0.725 4.949 4.267 4.949 27.435 1.408 67.541 2.133 109.781 2.133 118.272 0 169.685-64.811 169.685-147.883 0-108.373-78.464-154.88-174.891-154.88-16.213 0-21.845 0.725-33.109 0.725v-163.968c0-3.541-1.408-4.949-4.907-4.949h-65.877c-3.541 0-4.949 1.408-4.949 4.949zM344.405 486.784c9.856-0.683 17.621-0.683 34.517-0.683 49.963 0 96.725 17.579 96.725 85.163 0 54.187-33.365 81.664-90.411 81.664-16.896 0-33.067-0.683-40.832-1.408zM617.472 525.525c0 4.907 0 17.579-2.091 41.515 0 3.541 0.469 4.267 3.285 5.632 46.252 18.309 99.815 29.121 155.848 29.567l0.184 0.001c3.499 0 4.907-0.683 4.907-4.224v-61.952c0-3.499-1.109-4.224-4.651-4.224-4.552 0.302-9.867 0.475-15.222 0.475-23.285 0-45.808-3.258-67.14-9.343l1.723 0.42v-268.843c0-3.541-1.451-4.949-4.949-4.949h-66.987c-3.499 0-4.907 1.408-4.907 4.949z" />
<glyph unicode="&#xe938;" glyph-name="adobetypekit" data-tags="adobetypekit" d="M0 960v-1024h1024v1024zM42.667 916.224h938.667v-936.448h-938.667zM305.707 619.392h-118.229c-3.499 0-4.907 1.408-4.224 5.632l8.448 59.093c0.683 3.541 2.091 4.949 5.632 4.949h295.509c4.224 0 5.632-1.408 6.357-5.632l5.632-58.411c0.683-4.224-1.408-5.632-4.949-5.632h-117.504v-394.027c0-3.541-1.408-5.632-5.632-5.632h-65.451c-4.181 0-5.589 1.408-5.589 5.632zM627.968 416.043l107.648 145.664c2.816 3.499 3.499 4.907 7.040 4.907h71.765c4.224 0 5.632-2.816 2.816-6.315-16.896-21.803-94.293-117.504-119.637-148.48-0.323-0.614-0.513-1.341-0.513-2.112s0.19-1.498 0.525-2.137l-0.012 0.025 136.533-182.229c1.408-2.816 0.683-5.632-3.541-5.632h-83.029c-4.224 0-5.632 1.408-7.040 4.224-24.906 32.631-61.898 83.733-98.187 135.365l-14.367 21.563v-156.245c0-3.499-0.725-4.907-4.949-4.907h-66.133c-4.949 0-5.632 1.408-5.632 5.632v459.477c0 2.091 0.683 4.224 4.907 4.224h66.859c2.816 0 4.949-1.408 4.949-4.949z" />
<glyph unicode="&#xe939;" glyph-name="adobexd" data-tags="adobexd" d="M842.667 947.2h-661.333c-100.267 0-181.333-81.067-181.333-181.333v-635.733c0-100.267 81.067-181.333 181.333-181.333h661.333c100.267 0 181.333 81.067 181.333 181.333v635.733c0 100.267-81.067 181.333-181.333 181.333zM980.907 146.773c0.001-0.215 0.002-0.47 0.002-0.725 0-85.329-69.136-154.509-154.448-154.581h-628.914c-85.333 0-154.88 69.547-154.88 154.88v603.307c0 85.333 69.547 154.88 154.88 154.88h628.48c85.538 0 154.88-69.342 154.88-154.88v0zM404.907 480l119.467-229.547c2.133-3.413 0.853-6.827-2.56-6.827h-74.24c-4.693 0-6.827 1.28-8.96 5.547-27.307 56.32-55.040 112.64-83.627 173.227h-0.853c-25.6-57.173-53.76-117.333-81.067-173.653-2.133-3.413-4.267-4.693-7.68-4.693h-70.4c-4.267 0-4.693 3.413-2.56 5.973l116.907 222.72-113.067 225.28c-2.56 3.413 0 5.973 2.56 5.973h73.387c4.267 0 5.973-0.853 7.68-4.693 26.88-56.32 54.187-114.347 79.787-171.093h0.853c24.747 56.32 52.053 114.773 78.507 170.667 2.133 3.413 3.413 5.547 7.68 5.547h68.693c3.413 0 4.693-2.56 2.56-5.973zM545.28 410.453c0 99.413 66.133 177.067 171.093 177.067 8.96 0 13.653 0 22.187-0.853v113.067c0 2.56 2.133 4.267 4.267 4.267h67.413c3.413 0 4.267-1.28 4.267-3.413v-391.68c0-11.52 0-26.027 2.133-41.813 0-2.56-0.853-3.413-3.413-4.693-35.84-17.067-73.387-24.747-109.227-24.747-92.587-0.427-158.72 56.747-158.72 172.8zM738.56 519.68c-5.973 2.56-14.507 4.267-24.747 4.267-53.76 0-91.307-41.387-91.307-110.080 0-78.507 38.4-110.080 86.613-110.080 10.24 0 21.333 1.28 29.44 4.693z" />
<glyph unicode="&#xe93a;" glyph-name="airbnb" data-tags="airbnb" d="M511.915 180.608c-57.685 72.363-91.605 135.765-102.912 190.080-11.221 43.776-6.784 78.805 12.416 105.131 20.352 30.293 50.645 45.013 90.453 45.013s70.059-14.72 90.411-45.312c19.029-26.027 23.808-61.099 12.203-105.131-12.416-55.381-46.293-118.784-102.571-189.781zM921.387 131.968c-7.893-53.12-44.117-97.195-93.867-118.699-96.043-41.813-191.147 24.875-272.555 115.328 134.613 168.533 159.488 299.733 101.717 384.597-33.92 48.64-82.475 72.32-144.768 72.32-125.568 0-194.603-106.24-167.467-229.547 15.787-66.731 57.643-142.592 124.373-227.413-41.813-46.251-81.451-79.147-116.48-99.499-27.136-14.677-53.12-23.765-77.995-25.941-114.219-17.024-203.776 93.781-163.115 208.085 5.632 14.72 16.853 41.813 36.053 83.669l1.067 2.261c62.421 135.509 138.24 289.536 225.365 460.373l2.261 5.632 24.747 47.573c19.2 35.072 27.093 50.773 57.643 70.101 14.72 8.917 32.811 13.397 53.12 13.397 40.704 0 72.405-23.765 85.973-42.923 6.741-10.197 14.72-23.765 24.832-40.661l23.808-46.421 3.413-6.784c87.040-170.752 162.944-324.48 225.109-460.331l1.109-1.067 22.741-52.053 13.568-32.597c10.368-26.112 12.544-52.096 9.344-79.403zM973.397 233.899c-7.936 24.875-21.504 54.229-38.4 89.301v1.28c-80.512 170.88-155.307 324.48-226.304 462.507l-4.736 6.912c-50.603 103.765-86.827 166.101-192.043 166.101-104.021 0-148.224-72.277-193.408-166.272l-3.456-6.827c-71.168-137.984-145.92-291.797-226.176-462.592v-2.261l-23.808-52.011c-8.96-21.504-13.525-32.768-14.72-36.139-57.6-158.379 61.099-297.472 204.8-297.472 1.152 0 5.632 0 11.264 1.152h15.872c74.667 9.088 151.595 56.533 229.632 141.483 77.995-84.821 155.008-132.395 229.547-141.483h15.872c5.632-1.152 10.155-1.152 11.264-1.152 143.701-0.128 262.4 139.093 204.8 297.472z" />
<glyph unicode="&#xe93b;" glyph-name="airplayaudio" data-tags="airplayaudio" d="M508.083 952.166c-122.769-0.969-245.615-45.837-343.253-135.334-208.282-190.925-220.425-515.465-29.495-723.75 8.678-10.411 19.085-19.085 29.5-29.5 5.205-3.469 12.207-3.541 17.417 1.668l22.583 26.082c5.205 5.205 5.205 13.875 0 19.085-182.251 168.363-194.432 454.746-24.333 637.001 170.099 182.246 454.75 194.347 637.001 24.247 182.246-170.099 194.347-454.665 24.247-636.915-8.678-8.678-15.573-17.391-24.247-24.333-5.205-5.205-5.205-13.875 0-19.085l22.583-26.082c5.205-5.205 13.875-5.137 19.081-1.664 208.286 192.661 220.429 515.46 29.5 723.746-102.353 110.652-241.442 165.931-380.582 164.834zM524.582 802.082c-93.726 3.038-188.732-29.525-262.498-98.082-147.537-137.122-156.203-367.966-19.085-515.499 5.205-5.205 10.389-12.126 17.335-17.335 5.205-5.205 13.875-5.205 19.081 0l22.583 26.001c5.205 5.205 5.205 13.875 0 19.085-60.749 57.276-97.165 138.867-97.165 223.915 0 168.363 137.054 305.502 305.417 305.502s305.498-138.803 305.498-307.17c0-83.311-34.748-164.971-95.497-222.251-5.205-5.205-5.205-13.875 0-19.081l22.583-26.001c5.205-5.205 13.875-6.955 19.081-1.749 147.537 138.859 154.539 369.715 17.417 517.248-68.561 73.771-161.024 112.384-254.75 115.418zM513.25 660.582c-56.41 0.87-113.237-19.891-157.5-62.417-88.521-85.047-90.219-223.893-5.167-312.414l5.163-5.248c5.21-5.21 13.879-5.21 19.089 0l22.583 26.078c5.205 5.205 5.205 13.879 0 19.085-29.508 29.508-46.835 71.108-46.835 114.5 0 0.129-0.001 0.283-0.001 0.436 0 87.941 71.291 159.232 159.232 159.232 0.153 0 0.306 0 0.459-0.001h-0.024c0.129 0 0.283 0.001 0.436 0.001 87.941 0 159.232-71.291 159.232-159.232 0-0.153 0-0.306-0.001-0.459v0.024c0-43.392-17.34-83.255-48.585-114.5-5.205-5.205-5.205-13.875 0-19.085l22.583-26.082c5.205-5.205 13.875-5.205 19.085 0 86.784 85.052 90.3 223.898 5.248 312.418-42.526 44.258-98.59 66.799-154.999 67.665zM513.502 330.167c-5.858 0.213-11.959-1.911-17.169-6.251l-1.664-1.749-305.502-343.667c-6.942-8.678-6.929-20.821 1.749-29.5 3.473-3.473 8.614-5.248 12.083-5.248h612.749c10.415 0 20.834 8.683 20.834 20.83 0 5.205-1.694 10.445-5.163 13.918l-302.084 343.667c-4.343 5.205-9.975 7.782-15.834 8z" />
<glyph unicode="&#xe93c;" glyph-name="airplayvideo" data-tags="airplayvideo" d="M145.579 903.68c-50.261 0-67.584-5.205-86.656-15.616-18.54-9.954-33.362-24.748-43.076-42.711l-0.273-0.553c-10.368-19.115-15.573-36.395-15.573-88.363v-389.845c0-50.261 5.205-67.627 15.573-86.656 10.411-19.072 24.32-32.939 43.349-43.349 17.323-10.411 34.688-15.573 86.656-15.573h116.053l48.555 57.173h-181.931c-13.867-1.749-29.44 0.043-43.349 6.997-8.661 3.413-15.616 12.075-20.821 20.736-5.205 13.867-8.661 27.733-6.912 43.349v422.741c-1.707 13.867 0 29.44 6.912 43.307 3.456 8.661 12.16 15.573 20.821 20.779 13.867 5.205 27.733 8.704 43.349 6.997h762.325c13.867 1.707 29.44-0.085 43.349-6.997 8.661-3.499 15.531-12.117 20.736-20.779 5.205-13.824 8.661-27.733 6.912-43.307v-424.533c1.707-13.824 0-29.44-6.912-43.307-3.456-8.661-12.075-15.573-20.736-20.736-13.867-5.205-27.733-8.661-43.349-6.955h-181.931l48.512-57.216 119.595 1.707c51.968 0 69.248 5.205 88.32 15.616 18.55 9.975 33.374 24.8 43.076 42.794l0.274 0.555c10.368 17.323 15.573 34.688 15.573 86.613v389.931c0 51.968-5.205 69.248-15.573 88.32-9.981 18.533-24.805 33.342-42.794 43.033l-0.556 0.274c-19.072 10.411-36.352 15.616-88.32 15.616zM506.155 383.232c-6.389-0.273-12.018-3.31-15.755-7.938l-0.032-0.041-303.189-348.245c-3.256-3.524-5.253-8.253-5.253-13.448 0-0.162 0.002-0.324 0.006-0.485v0.024c-0.009-0.221-0.014-0.48-0.014-0.741 0-11.075 8.978-20.053 20.053-20.053 0.275 0 0.549 0.006 0.821 0.016l-0.039-0.001h609.835c5.205 0 10.453 1.707 13.909 5.163 8.661 6.955 8.704 20.864 1.749 29.525l-304.981 349.952c-4.434 3.897-10.287 6.275-16.695 6.275-0.146 0-0.291-0.001-0.437-0.004h0.022z" />
<glyph unicode="&#xe93d;" glyph-name="algolia" data-tags="algolia" d="M134.827 960c-0.051 0-0.111 0-0.171 0-74.308 0-134.559-60.19-134.656-134.476v-754.782c0.073-74.416 60.404-134.717 134.824-134.741h754.349c74.539 0 134.827 60.587 134.827 134.827v754.347c0 74.539-60.587 134.827-134.827 134.827zM470.613 810.923h103.637c0.013 0 0.028 0 0.043 0 24.507 0 44.373-19.867 44.373-44.373 0-0.015 0-0.030 0-0.045v0.002-35.072c0.002-0.053 0.003-0.116 0.003-0.18 0-3.299-2.674-5.973-5.973-5.973-0.516 0-1.017 0.065-1.495 0.189l0.041-0.009c-26.13 7.471-56.144 11.77-87.165 11.776h-0.003c-0.127 0-0.276 0-0.426 0-31.97 0-62.853-4.629-92.013-13.252l2.284 0.58c-4.053-0.896-7.765 1.92-7.765 5.973v35.968c0 0.013 0 0.028 0 0.043 0 24.477 19.894 44.325 44.454 44.373h0.005zM285.013 716.203c0.148 0.002 0.323 0.003 0.499 0.003 12.315 0 23.459-4.993 31.499-13.056l17.667-17.752c2.475-2.773 2.176-7.125-0.939-8.96-14.882-10.761-27.993-21.976-40.129-34.156l-0.020-0.020c-11.973-12.057-23.073-25.036-33.16-38.799l-0.675-0.966c-2.475-2.773-6.528-3.413-9.344-0.683l-17.408 17.451c-8.069 8.033-13.060 19.136-13.060 31.403s4.991 23.37 13.060 31.402l21.163 21.078c7.892 7.916 18.771 12.873 30.813 13.056h0.035zM523.819 701.269c0.165 0 0.36 0.001 0.555 0.001 159.624 0 289.024-129.4 289.024-289.024 0-0.060 0-0.12 0-0.18v0.009c-0.024-159.841-129.606-289.408-289.451-289.408-0.045 0-0.090 0-0.135 0h0.007c-159.915 0-289.664 129.195-289.664 289.152 0.049 159.87 129.66 289.451 289.536 289.451 0.045 0 0.090 0 0.135 0h-0.007zM523.819 615.595c0 0 0 0 0 0-112.602 0-203.904-91.197-204.074-203.76v-0.016c0.194-112.56 91.487-203.733 204.074-203.733v0c0.089 0 0.194 0 0.299 0 112.536 0 203.77 91.204 203.819 203.729v0.005c-0.146 112.574-91.438 203.776-204.032 203.776-0.030 0-0.060 0-0.090 0h0.005zM530.005 579.84c59.942-2.264 111.609-35.493 139.557-84.006l0.433-0.815c1.536-3.115 0.64-6.827-2.432-8.363l-135.083-69.888c-3.968-2.219-8.747 0.981-8.747 5.333v151.765h0.085c0 3.413 3.072 5.931 6.187 5.973z" />
<glyph unicode="&#xe93e;" glyph-name="alliedmodders" data-tags="alliedmodders" d="M25.685 914.048c-14.251-0.311-25.685-11.937-25.685-26.234 0-0.002 0-0.004 0-0.006v0-879.573c0-14.492 11.748-26.24 26.24-26.24v0h354.517c14.492 0 26.24 11.748 26.24 26.24v0 74.411l27.605-82.773c3.588-10.502 13.371-17.92 24.886-17.92 0.011 0 0.022 0 0.033 0h288.852c11.616 0.011 21.464 7.568 24.907 18.033l0.053 0.185 1.493 4.565c1.786-12.908 12.748-22.741 26.006-22.741 0.007 0 0.015 0 0.022 0h196.906c14.492 0 26.24 11.748 26.24 26.24v603.819c0 0.005 0 0.011 0 0.017 0 11.939-7.974 22.016-18.887 25.196l-0.185 0.046-183.765 52.608c-2.165 0.644-4.653 1.015-7.227 1.015-11.13 0-20.641-6.929-24.455-16.708l-0.061-0.179-80.512-209.323v236.757c0 0.020 0 0.043 0 0.066 0 11.877-7.891 21.911-18.716 25.145l-0.186 0.048-144.427 41.813c-2.198 0.665-4.724 1.047-7.339 1.047-14.485 0-26.229-11.737-26.24-26.219v-262.401l-119.851 319.147c-2.963 7.808-9.322 13.731-17.223 16.039l-0.185 0.046-341.333 96.853c-2.137 0.627-4.593 0.988-7.133 0.988-0.208 0-0.414-0.002-0.621-0.007l0.031 0.001zM52.48 853.035l295.168-83.712 166.016-442.155c3.834-10.042 13.387-17.044 24.576-17.044 14.492 0 26.24 11.748 26.24 26.24 0 0.007 0 0.014 0 0.022v-0.001 372.053l91.947-26.624v-358.485c-0.001-0.062-0.001-0.135-0.001-0.208 0-14.492 11.748-26.24 26.24-26.24 11.147 0 20.671 6.951 24.473 16.754l0.061 0.179 122.624 318.933 141.653-40.448v-557.824h-144.384v52.48h52.48c0 0 0 0 0 0 14.492 0 26.24 11.748 26.24 26.24 0 0.015 0 0.030 0 0.045v-0.002 301.909c0 0.003 0 0.007 0 0.011 0 14.492-11.748 26.24-26.24 26.24-11.598 0-21.439-7.525-24.907-17.959l-0.053-0.185-125.44-388.779h-250.752l-190.933 572.843c-3.56 10.552-13.367 18.015-24.918 18.015-14.492 0-26.24-11.748-26.24-26.24 0-0.033 0-0.067 0-0.1v0.005-472.576c0-0.038 0-0.083 0-0.128 0-14.492 11.748-26.24 26.24-26.24 0 0 0 0 0 0h91.989v-65.579h-302.080zM288.853 437.163l94.891-284.757c-0.87 0.132-1.901 0.224-2.949 0.255l-0.038 0.001h-91.904zM853.333 248.235v-108.757h-35.072z" />
<glyph unicode="&#xe93f;" glyph-name="amazon" data-tags="amazon" d="M1.92 191.147c3.072 4.949 7.979 5.291 14.848 0.939 155.136-90.027 324.011-135.083 506.453-135.083 121.685 0 241.835 22.741 360.405 68.053l13.44 5.973c5.888 2.56 9.984 4.267 12.501 5.547 9.643 3.755 16.64 1.963 22.4-5.547 5.12-7.424 3.84-14.336-5.12-20.48-10.923-8.107-25.6-17.493-42.923-27.904-53.077-31.701-112.64-56.149-178.56-73.643-65.28-17.323-129.92-26.027-192.683-26.027-96.64 0-188.16 16.896-274.56 50.645-86.187 33.877-162.987 81.493-231.68 142.933-4.267 3.157-6.4 6.4-6.4 9.387 0 2.005 0.853 3.84 1.877 5.205zM282.027 456.448c0 42.88 10.539 79.488 31.701 109.952 21.12 30.293 49.92 53.333 87.040 68.907 33.963 14.293 74.923 24.533 124.245 30.72 16.64 1.963 44.075 4.395 81.92 7.424v15.787c0 39.68-4.48 66.475-12.8 80-12.885 18.347-33.28 27.733-61.44 27.733h-7.765c-20.48-1.963-38.229-8.363-53.163-19.627-14.933-11.52-24.533-26.88-28.8-46.763-2.56-12.8-8.789-19.84-18.56-21.76l-107.52 13.44c-10.581 2.56-15.872 7.68-15.872 16.64 0 1.963 0.299 3.84 0.939 6.4 10.539 55.040 36.48 96 77.653 122.88 41.643 26.283 89.6 41.6 144.64 44.8h23.040c70.4 0 126.165-18.517 165.888-55.040 5.76-6.4 11.52-12.8 17.28-20.48 5.12-7.040 9.557-13.397 12.075-19.2 3.2-5.717 6.4-14.080 8.32-24.32 2.56-10.837 4.48-17.92 5.76-21.76 1.28-4.437 2.645-12.8 3.243-26.24 0.427-13.355 0.853-21.035 0.853-23.595v-225.28c0-16.043 2.56-30.72 7.040-44.203 4.48-13.355 8.96-23.040 13.44-28.757l21.76-28.757c3.84-5.803 5.803-10.923 5.803-15.36 0-5.12-2.56-9.643-7.68-13.397-51.2-44.8-79.36-69.12-83.755-72.96-7.040-5.76-16-6.4-26.88-1.92-8.32 7.083-16 14.165-22.443 21.163l-13.227 14.805c-2.56 3.157-7.083 8.96-13.525 17.92l-12.8 18.56c-34.56-37.803-68.395-61.44-102.4-71.040-21.077-6.4-46.635-9.685-78.080-9.685-47.36 0-87.040 14.635-117.76 44.117-30.72 29.44-46.080 71.040-46.080 125.44zM442.155 475.136c0-24.149 5.973-43.52 18.133-58.197 12.16-14.507 28.8-21.845 49.28-21.845 1.92 0 4.523 0.299 8.32 0.853 3.84 0.683 5.717 0.981 7.083 0.981 26.197 6.827 46.080 23.595 60.757 50.261 7.040 11.947 12.16 24.747 15.36 38.827 3.84 13.653 5.12 25.173 5.76 34.133 0.64 8.32 0.64 23.040 0.64 42.88v23.040c-35.84 0-63.317-2.56-81.92-7.68-54.4-15.36-81.92-49.92-81.92-103.68zM833.067 175.317c1.28 2.56 3.2 4.693 5.632 7.253 15.445 10.368 30.464 17.493 44.8 21.333 23.467 5.675 46.507 9.472 68.779 10.24 5.973 0.512 11.947 0 17.493-1.28 27.733-2.56 44.8-7.168 50.005-14.080 2.688-3.84 3.84-9.728 3.84-16.64v-6.4c0-21.76-5.973-47.36-17.707-76.8-11.861-29.44-28.331-53.248-49.323-71.68-3.115-2.56-5.973-3.84-8.405-3.84-1.28 0-2.56 0-3.84 0.512-3.84 1.877-4.565 5.12-2.731 10.24 23.040 53.76 34.389 91.435 34.389 112.64 0 6.4-1.28 11.52-3.712 14.677-6.187 7.083-23.467 10.965-52.224 10.965-10.368 0-22.741-0.683-37.12-1.963-15.488-1.92-29.867-3.84-42.667-5.76-3.84 0-6.315 0.597-7.68 1.877-1.28 1.28-1.536 2.005-0.853 3.285 0 0.725 0.256 1.28 0.853 2.688z" />
<glyph unicode="&#xe940;" glyph-name="amazonalexa" data-tags="amazonalexa" d="M512 960c-282.88 0-512-229.12-512-512 0-259.84 193.28-474.027 443.733-507.733v102.4c0.005 0.304 0.008 0.663 0.008 1.022 0 29.681-19.062 54.911-45.611 64.114l-0.476 0.144c-143.15 49.328-244.156 182.874-244.156 340.011 0 3.016 0.037 6.022 0.111 9.020l-0.009-0.444c4.047 194.103 162.352 349.904 357.047 349.904 1.826 0 3.648-0.014 5.467-0.041l-0.275 0.003c196.387-2.033 354.805-161.707 354.805-358.382 0-4.658-0.089-9.295-0.265-13.91l0.020 0.665-0.427-2.987c-0.378-6.642-0.835-12.244-1.415-17.809l0.135 1.595c0-2.987-0.427-5.973-0.853-8.533 0-3.413-0.427-6.827-0.853-9.813l-0.853-4.267c-43.947-289.28-420.267-451.413-422.4-452.693 22.187-2.987 45.227-4.267 68.267-4.267 282.88 0 512 229.12 512 512s-229.12 512-512 512z" />
<glyph unicode="&#xe941;" glyph-name="amazonaws" data-tags="amazonaws" d="M288.555 531.797c0-12.629 1.365-22.827 3.755-30.293 2.731-7.509 6.144-15.701 10.923-24.576 1.707-2.688 2.389-5.419 2.389-7.808 0-3.413-2.048-6.827-6.485-10.24l-21.461-14.293c-2.469-1.798-5.527-2.928-8.841-3.071l-0.034-0.001c-3.413 0-6.827 1.707-10.197 4.779-4.424 4.748-8.462 9.98-11.989 15.566l-0.256 0.434c-3.12 5.186-6.647 11.771-9.896 18.517l-0.686 1.579c-26.539-31.317-59.947-46.976-100.139-46.976-28.587 0-51.413 8.149-68.096 24.491-16.683 16.384-25.173 38.144-25.173 65.408 0 28.928 10.197 52.48 30.976 70.144 20.779 17.707 48.341 26.581 83.413 26.581 11.605 0 23.509-1.024 36.096-2.731 12.629-1.707 25.6-4.437 39.168-7.509v24.875c0 25.899-5.419 43.947-16 54.485-10.88 10.581-29.269 15.659-55.467 15.659-11.947 0-24.235-1.323-36.821-4.395s-24.875-6.827-36.779-11.605c-3.219-1.499-7.18-3.007-11.256-4.255l-0.691-0.182c-1.601-0.535-3.452-0.887-5.371-0.98l-0.048-0.002c-4.779 0-7.168 3.413-7.168 10.539v16.683c0 5.461 0.683 9.557 2.389 11.947 2.55 3.050 5.749 5.47 9.393 7.061l0.164 0.064c11.904 6.144 26.197 11.264 42.88 15.36 15.371 4.098 33.019 6.452 51.216 6.452 0.685 0 1.368-0.003 2.051-0.010l-0.105 0.001c40.533 0 70.144-9.216 89.216-27.605 18.731-18.347 28.245-46.293 28.245-83.755zM150.315 480c11.221 0 22.784 2.048 35.072 6.144 12.245 4.096 23.168 11.563 32.341 21.76 5.461 6.485 9.557 13.653 11.605 21.845 2.005 8.149 3.413 18.048 3.413 29.611v14.293c-8.452 2.192-19.091 4.225-29.921 5.648l-1.439 0.154c-9.595 1.287-20.702 2.031-31.979 2.048h-0.021c-22.827 0-39.509-4.437-50.773-13.653-11.221-9.173-16.64-22.101-16.64-39.125 0-16 4.053-27.947 12.587-36.096 8.149-8.533 20.053-12.629 35.755-12.629zM423.808 443.221c-6.144 0-10.24 1.024-12.971 3.413-2.731 2.048-5.12 6.827-7.168 13.269l-80 263.296c-1.452 3.971-2.534 8.596-3.049 13.391l-0.023 0.263c0 5.461 2.731 8.533 8.149 8.533h33.408c6.443 0 10.88-1.067 13.227-3.413 2.773-2.048 4.821-6.827 6.827-13.312l57.259-225.451 53.12 225.451c1.707 6.827 3.755 11.264 6.443 13.312 3.485 2.169 7.715 3.456 12.245 3.456 0.495 0 0.987-0.015 1.475-0.046l-0.067 0.003h27.221c6.485 0 10.923-1.067 13.653-3.413 2.688-2.048 5.12-6.827 6.443-13.312l53.803-228.181 58.923 228.181c2.048 6.827 4.437 11.264 6.827 13.312 3.367 2.168 7.479 3.456 11.892 3.456 0.485 0 0.966-0.016 1.443-0.046l-0.065 0.003h31.701c5.419 0 8.533-2.773 8.533-8.533 0-1.707-0.384-3.413-0.725-5.461-0.606-3.259-1.433-6.122-2.503-8.864l0.113 0.33-82.048-263.253c-2.048-6.827-4.437-11.221-7.168-13.269-3.322-2.16-7.386-3.445-11.75-3.445-0.414 0-0.826 0.012-1.235 0.034l0.057-0.003h-29.312c-6.443 0-10.88 1.024-13.653 3.413-2.688 2.389-5.077 6.827-6.4 13.653l-52.821 219.648-52.48-219.307c-1.707-6.827-3.712-11.264-6.4-13.653-2.773-2.389-7.552-3.413-13.653-3.413zM861.397 434.048c-17.707 0-35.413 2.048-52.437 6.101-17.024 4.096-30.293 8.533-39.168 13.653-5.461 3.029-9.173 6.443-10.539 9.515-1.274 2.811-2.026 6.094-2.048 9.549v17.373c0 7.125 2.731 10.539 7.808 10.539 2.048 0 4.096-0.341 6.144-1.024s5.12-2.048 8.533-3.413c11.563-5.12 24.149-9.173 37.461-11.904 13.611-2.731 26.88-4.096 40.533-4.096 21.419 0 38.144 3.755 49.707 11.264 10.692 6.54 17.719 18.153 17.719 31.406 0 0.329-0.004 0.657-0.013 0.983l0.001-0.048c0.009 0.281 0.013 0.612 0.013 0.944 0 8.892-3.5 16.965-9.198 22.919l0.012-0.012c-6.144 6.443-17.749 12.245-34.432 17.707l-49.365 15.36c-24.875 7.808-43.264 19.371-54.485 34.688-10.567 13.499-16.976 30.696-17.067 49.387v0.021c0 14.293 3.115 26.88 9.216 37.803 6.144 10.88 14.293 20.437 24.533 27.904 10.24 7.851 21.76 13.653 35.413 17.707 13.653 4.096 27.947 5.803 42.923 5.803 7.467 0 15.317-0.341 22.827-1.365 7.808-1.024 14.933-2.389 22.101-3.755 6.827-1.707 13.312-3.413 19.413-5.419 6.144-2.048 10.923-4.096 14.336-6.144 4.103-2.094 7.526-4.972 10.188-8.462l0.052-0.072c1.918-2.853 3.061-6.366 3.061-10.146 0-0.378-0.011-0.754-0.034-1.126l0.002 0.051v-16c0-7.168-2.731-10.923-7.851-10.923-4.817 0.566-9.191 2.016-13.109 4.188l0.181-0.092c-18.528 8.395-40.174 13.288-62.964 13.288-0.844 0-1.687-0.007-2.528-0.020l0.127 0.002c-19.413 0-34.773-3.029-45.312-9.515-10.581-6.485-16-16.341-16-30.293 0-9.557 3.413-17.749 10.24-24.192 6.784-6.485 19.371-12.971 37.419-18.773l48.384-15.275c24.491-7.851 42.24-18.773 52.779-32.725s15.659-29.952 15.659-47.659c0-14.635-3.072-27.947-8.832-39.509-6.144-11.605-14.336-21.803-24.875-29.995-10.581-8.533-23.168-14.635-37.803-19.072-15.36-4.736-31.317-7.125-48.725-7.125zM925.781 268.501c-112.043-82.773-274.859-126.677-414.805-126.677-196.181 0-372.907 72.533-506.453 193.109-10.539 9.515-1.024 22.485 11.605 14.976 144.384-83.755 322.517-134.528 506.752-134.528 124.331 0 260.864 25.899 386.56 79.019 18.731 8.533 34.731-12.245 16.341-25.899zM972.459 321.664c-14.336 18.347-94.72 8.832-131.157 4.395-10.88-1.365-12.587 8.192-2.688 15.36 64 44.928 169.259 32 181.504 17.024 12.245-15.36-3.413-120.576-63.36-170.965-9.173-7.851-18.048-3.755-13.952 6.443 13.653 33.707 43.947 109.653 29.653 127.744z" />
<glyph unicode="&#xe942;" glyph-name="amd" data-tags="amd" d="M781.824 570.155l66.517-66.56h109.056v-109.099l66.603-66.56v242.219zM85.333 553.813l-85.333-211.627h55.851l15.787 41.899h94.763l17.408-41.899h57.088l-94.464 211.627zM264.917 553.813v-211.413h52.821v131.925l57.088-66.645h8.021l57.088 66.389v-131.883h52.821v211.627h-46.037l-67.925-78.72-67.883 78.72zM532.992 553.813v-211.627h87.765c84.437 0 122.88 44.629 122.88 105.472 0 58.027-39.979 106.155-117.205 106.155zM585.771 514.987h33.792c49.92 0 69.547-30.336 69.547-66.987 0-31.061-15.872-67.072-68.949-67.072h-34.389zM117.077 503.339l33.749-82.432h-65.152zM848.256 490.24l-68.437-68.395v-96h95.829l68.437 68.565h-95.829z" />
<glyph unicode="&#xe943;" glyph-name="americanexpress" data-tags="americanexpress" d="M683.307 346.539c0 13.653-5.76 21.163-14.677 26.539-8.96 5.12-19.797 5.76-34.56 5.76h-65.835v-120.32h28.8v43.819h30.72c10.24 0 16.64-1.024 20.395-5.333 5.12-5.547 4.437-16.213 4.437-23.467v-14.933h28.16v23.68c-0.085 10.667-0.725 16.043-4.608 22.016-2.56 3.413-7.68 7.68-14.080 9.984l0.853 0.341c7.68 3.072 20.48 12.672 20.395 31.915zM646.187 329.173l-1.195 0.085c-3.84-2.261-8.32-2.475-14.080-2.475h-34.56v26.88h35.157c5.12 0 10.24 0 14.080-2.133 4.181-2.048 6.656-6.272 6.4-10.88 0-5.12-1.92-9.173-5.803-11.477zM866.005 284.288h-55.339v-25.6h55.637c28.843 0 44.8 11.861 44.8 37.717 0 11.947-2.816 19.115-7.979 24.832-6.528 5.675-16.725 8.235-31.147 8.832l-16.043 0.64c-4.437 0-7.68 0-10.88 1.28-3.84 1.28-6.4 4.48-6.4 8.96 0 3.84 0.725 7.083 3.84 8.96 3.541 1.963 7.552 2.816 11.605 2.56h52.48v25.685h-57.6c-30.037 0-40.875-18.645-40.875-35.84 0-38.4 33.109-36.48 60.032-37.12 4.437 0 7.68-0.64 9.6-2.56 1.963-1.28 3.499-4.523 3.499-7.68 0-3.285-1.493-6.4-3.413-7.68-2.56-2.261-6.4-2.987-11.819-2.987zM0 960v-430.763l34.56 80.043h74.667l9.6-19.797v19.797h87.168l19.2-43.52 18.645 43.221h277.419c12.587 0 23.893-2.432 32.256-10.069v9.813h76.245v-9.813c13.099 7.253 29.269 9.813 47.787 9.813h111.189l10.24-19.883v19.883h81.835l10.837-19.84v19.883h79.275v-168.448h-80.469l-15.36 25.6v-24.96h-100.395l-10.923 26.88h-24.875l-11.52-26.197h-51.755c-20.48 0-35.84 4.437-46.080 10.24v-10.24h-123.307v37.717c0 5.12-1.28 5.12-4.48 5.76h-4.48v-44.203h-238.421v20.48l-8.96-20.48h-49.792l-8.619 20.48v-19.84h-96.128l-10.923 26.624h-24.704l-10.923-26.624h-48.811v-505.557h1014.869v303.275c-11.52-5.76-26.155-7.68-41.515-7.68h-73.515v10.88c-8.96-7.040-24.32-10.88-38.997-10.88h-233.216v38.4c0 5.12-0.768 5.12-5.12 5.12h-3.2v-43.605h-76.8v45.483c-12.715-5.803-27.435-6.4-39.595-5.803h-9.131v-39.040h-93.013l-23.040 26.325-24.32-25.6h-151.083v167.68h154.027l22.101-25.685 23.637 25.6h102.912c11.947 0 31.573-1.28 40.192-9.6v10.24h92.885c8.619 0 27.477-1.92 38.528-9.6v10.24h139.307v-10.24c6.955 6.997 21.675 10.24 34.261 10.24h80.64v-10.24c8.277 6.4 19.797 10.24 35.84 10.24h50.176v558.251zM902.656 321.92c0.171-0.213 0.256-0.512 0.427-0.683 0.427-0.427 1.024-0.427 1.365-0.853zM1016.661 401.835h2.773v-23.68h-2.773zM1018.24 318.72v0.213c-1.28 1.067-1.963 2.048-3.2 2.987-6.4 6.528-16.64 9.173-32.597 9.6l-15.36 0.512c-5.12 0-8.277 0.299-11.52 1.28-3.84 1.28-6.4 4.48-6.4 8.96 0 3.84 1.28 6.827 3.84 8.704 3.243 1.92 6.4 2.133 11.52 2.133h52.181v25.088h-54.741c-29.44 0-40.96-18.645-40.96-35.84 0-38.4 33.28-36.48 60.16-37.12 4.437 0 7.68-0.64 9.557-2.56 1.963-1.28 3.243-4.523 3.243-7.68 0-2.987-1.451-5.888-3.84-7.68-1.92-2.389-5.803-2.987-11.52-2.987h-54.955v-25.813h54.912c17.92 0 31.317 5.035 38.4 15.36h1.28c3.84 5.717 5.76 12.8 5.76 22.315 0 10.24-1.92 16.64-5.76 22.528zM793.472 353.792v24.875h-95.36v-120.875h95.36v24.96h-66.987v24.32h65.408v24.917h-65.365v21.76zM576.427 585.088h29.227v-120.021h-29.184zM560.043 552.832l-0.299-0.256c0 13.397-5.547 21.333-14.507 26.624-9.259 5.333-20.053 5.76-34.56 5.76h-65.664v-120.32h28.757v44.117h30.72c10.24 0 16.64-1.28 20.779-5.12 5.205-5.803 4.565-16.128 4.565-23.381v-15.104h28.885v23.595c0 10.667-0.683 16-4.693 22.016-3.84 4.565-8.619 8.107-14.080 10.112 7.339 2.987 20.139 12.8 20.096 31.957zM523.563 535.936h-0.64c-3.84-2.304-8.32-2.389-14.080-2.389h-35.243v26.581h35.2c5.12 0 10.24-0.171 14.080-2.133 3.84-1.707 6.4-5.461 6.4-10.667s-2.005-9.387-5.717-11.392zM679.253 560.085h26.965v25.6h-27.477c-19.797 0-34.304-4.48-43.52-14.080-12.203-12.8-15.445-29.44-15.445-47.36 0-21.845 5.248-35.541 15.36-45.824 9.899-10.155 27.52-13.227 41.387-13.227h33.28l10.88 26.752h59.307l11.179-26.752h58.027v90.027l54.272-90.027h40.533l0.085-0.085v120.021h-29.184v-83.755l-50.347 83.627h-43.52v-111.403l-48.341 113.323h-42.837l-40.235-94.72h-12.8c-7.552 0-15.445 1.28-19.968 5.717-5.333 6.4-7.936 15.36-7.936 28.245 0 12.16 3.413 21.76 8.277 26.88 5.675 5.76 11.605 7.040 22.059 7.040zM750.421 564.693l19.797-47.701v-0.085h-39.68zM101.547 491.947l10.837-26.795h58.283v94.080l41.472-94.080h24.917l41.515 93.952 0.64-93.952h29.44v119.893h-47.616l-34.432-81.237-37.376 81.28h-46.592v-113.621l-48.555 113.621h-42.539l-51.115-119.893h30.72l11.093 26.709zM72.192 564.693l19.627-47.701-0.128-0.085h-39.040zM505.856 378.88h-91.392l-36.267-39.381-35.2 39.339h-114.901v-120.32h113.237l36.48 39.765 35.157-39.68h55.552v40.107h35.755c25.6 0 49.92 6.997 49.92 40.32l-0.256 0.128c0 33.28-25.515 39.68-48.085 39.723zM327.253 283.605l-0.597 0.085h-69.803v23.765h62.72v24.491h-62.72v21.76h71.68l31.275-34.987zM439.979 269.525l-43.947 48.939 43.947 47.275zM506.24 323.2h-37.76v30.592h37.76c10.24 0 17.92-4.181 17.92-14.677 0-10.368-6.4-15.872-17.92-15.915zM425.259 560.085v25.003h-95.445v-120.021h95.445v24.747h-66.859v24.064h65.152v24.576h-65.152v21.632z" />
<glyph unicode="&#xe944;" glyph-name="anaconda" data-tags="anaconda" d="M186.453 177.493c-38.4 3.84-76.8 11.093-114.347 21.333l-3.413 0.853 0.853 3.413c11.093 36.267 25.173 71.68 41.813 105.387l1.707 3.413 2.987-1.707c25.173-14.080 52.053-26.88 78.933-37.973l2.56-0.853-0.427-2.56c-4.267-28.587-6.4-58.027-7.253-87.467v-3.84zM269.227 694.187v0.853c-22.187-0.427-44.373-1.707-66.133-4.267 2.56-22.613 6.827-44.8 11.52-66.56 15.36 25.6 33.707 49.067 54.613 69.973zM190.293 151.467v2.987l-2.987 0.427c-32.427 2.987-65.28 8.533-97.707 16.213l-8.533 2.133 4.693-7.68c29.44-44.373 65.28-83.627 106.667-116.907l6.827-5.547-1.28 8.533c-4.693 34.133-7.253 67.84-7.68 99.84zM348.587 930.133c-39.68-13.653-77.227-32-111.787-54.613 26.027-4.693 52.053-10.667 77.227-18.347 10.24 25.173 21.76 49.067 34.56 72.96zM513.707 957.44c-19.627 0-38.827-1.28-58.027-3.413 26.88-18.773 52.907-39.253 77.227-61.867l20.48-18.773-20.053-19.2c-16.64-15.787-32.427-32.853-47.787-51.2l-0.853-0.853c0 0-2.987-3.413-7.68-8.96 11.947 1.28 24.32 2.133 36.693 2.133 191.573 0 347.307-155.307 347.307-347.307 0-191.573-155.307-347.307-347.307-347.307-66.56 0-128.853 18.773-181.333 51.2-26.027-2.987-52.053-4.267-78.507-4.267-12.373 0-24.32 0.427-36.693 0.853 0.853-39.68 4.693-80.213 11.093-122.88 81.493-55.040 179.627-87.467 285.44-87.467 281.6 0 509.44 228.267 509.44 509.44 0 281.6-227.84 509.867-509.44 509.867zM446.293 837.12c10.24 11.947 20.48 23.467 31.147 34.987-23.893 20.48-49.067 38.827-75.52 55.467-16.213-27.307-30.293-55.893-42.24-84.907 23.040-8.533 45.227-18.347 67.413-29.013 9.813 13.227 17.067 20.907 19.2 23.467zM100.267 546.133l2.133-2.987 2.987 2.133c23.467 17.067 48.213 32.853 73.813 46.933l2.56 0.853-0.853 2.987c-7.68 28.587-13.653 58.453-17.493 88.747l-0.427 3.413-3.413-0.853c-37.547-6.827-75.093-17.067-110.933-29.867l-3.413-1.28 1.28-3.413c14.933-36.693 32.853-72.533 53.76-106.667zM94.293 497.067l-2.987-2.133c-27.307-22.187-53.333-46.933-77.227-73.387l-2.56-2.56 2.56-2.133c26.453-23.040 55.040-44.373 84.907-63.147l2.987-2.133 1.707 2.987c13.227 23.893 28.587 47.36 44.8 69.973l1.707 2.133-1.707 2.133c-18.773 20.907-36.267 42.667-52.48 65.707zM294.4 175.787l8.96 0.427-6.827 5.547c-27.307 22.187-50.773 48.213-69.973 78.080v0.853l-5.547 2.56-0.853-4.693c-3.413-25.6-5.547-52.053-5.973-79.36v-3.413h3.413c11.947-0.853 24.32-0.853 36.267-0.853 13.227-0.427 26.88 0 40.533 0.853zM277.333 738.56c5.547 25.173 12.373 49.92 20.48 74.24-32 8.96-64.853 15.787-97.707 20.48-2.987-33.28-3.413-66.56-1.28-99.413 26.027 2.987 52.48 4.267 78.507 4.693zM326.4 740.267c22.187 14.080 46.080 26.027 71.253 34.987-17.92 8.107-35.84 15.787-54.613 22.613-6.4-18.773-11.947-38.4-16.64-57.6zM89.6 326.4l-2.56 1.707c-26.453 16.64-51.627 34.987-75.52 54.613l-6.827 5.547 1.28-8.96c6.4-49.067 20.053-96.427 40.107-141.653l3.413-8.107 2.987 8.107c9.813 29.013 22.187 57.6 35.84 84.907zM154.88 809.813c-30.293-30.293-57.173-64-78.933-101.12 26.453 7.68 52.907 14.080 79.787 18.773-1.707 27.307-2.133 54.613-0.853 82.347zM170.24 452.267l0.427 8.96c1.28 31.147 6.4 61.44 15.787 90.88l2.56 8.533-7.68-4.267c-20.053-11.52-39.68-24.32-58.453-37.973l-2.987-2.133 2.133-2.987c13.227-18.773 27.307-37.12 42.24-54.613zM173.653 400.213l-1.28 8.533-5.12-7.68c-14.080-20.053-27.307-40.533-39.253-61.867l-1.707-2.987 2.987-1.707c21.333-11.947 43.947-23.040 66.56-32.853l8.107-3.413-3.84 8.107c-13.227 29.867-22.187 61.44-26.453 93.867zM74.24 521.813l2.56 2.133-1.707 2.56c-15.787 25.6-30.293 52.48-43.093 79.787l-3.84 7.68-2.56-8.533c-14.933-46.080-23.040-94.293-24.32-142.933l-0.427-8.96 6.4 6.4c20.907 22.187 43.52 43.52 66.987 61.867z" />
<glyph unicode="&#xe945;" glyph-name="analogue" data-tags="analogue" d="M233.301 413.696c-4.108 0.274-8.905 0.43-13.739 0.43-121.24 0-219.524-98.284-219.524-219.524 0-116.406 90.604-211.65 205.137-219.060l0.648-0.034c4.108-0.274 8.905-0.43 13.739-0.43 121.24 0 219.524 98.284 219.524 219.524 0 116.406-90.604 211.65-205.137 219.060l-0.648 0.034zM994.517 304.384l-292.651 506.965c-38.683 66.056-109.304 109.718-190.123 109.718-121.273 0-219.584-98.311-219.584-219.584 0-40.455 10.94-78.354 30.022-110.901l-0.561 1.035 292.693-506.795c38.685-66.117 109.348-109.822 190.22-109.822 40.414 0 78.279 10.915 110.807 29.957l-1.038-0.561c66.043 38.681 109.694 109.291 109.694 190.096 0 40.466-10.947 78.375-30.041 110.927l0.561-1.034z" />
<glyph unicode="&#xe946;" glyph-name="anchor" data-tags="anchor" d="M526.293 422.144c-7.296-29.099-25.003-53.803-48.597-66.731l-18.261-9.984 33.28-56.32 17.493 9.643c25.817 14.698 46.611 35.56 60.813 60.646l0.414 0.794c14.767 25.792 23.653 56.61 24.105 89.467l0.001 0.133v0.683c-0.452 32.99-9.338 63.809-24.592 90.523l0.485-0.923c-14.607 25.874-35.385 46.735-60.4 61.028l-0.784 0.412-17.493 9.6-33.28-56.32 18.219-9.984c24.363-13.312 42.453-39.253 49.28-69.632h-217.899c-10.251 19.005-30.017 31.702-52.747 31.702-0.056 0-0.112 0-0.168 0h0.009c-32.853 0-59.563-26.325-59.563-58.752 0-32.384 26.709-58.752 59.563-58.752 0.035 0 0.077 0 0.118 0 23.153 0 43.23 13.173 53.144 32.433l0.157 0.335zM512-64c-239.275 0-433.237 229.248-433.237 512s193.963 512 433.237 512 433.237-229.248 433.237-512-193.963-512-433.237-512zM750.549 412.331c-12.373-120.533-79.659-222.123-173.227-272.085l35.371-58.368c121.429 65.109 206.080 203.392 208.896 364.288-2.816 160.896-87.467 299.179-208.896 364.331l-35.413-58.453c93.611-49.92 160.896-151.467 173.269-272l0.981-33.877zM552.064 184.661l8.277 4.565c42.453 23.339 78.549 59.648 104.363 104.96 25.64 44.806 41.056 98.347 41.811 155.426l0.002 0.222v0.341c-0.765 57.287-16.18 110.812-42.656 157.208l0.842-1.603c-25.813 45.355-61.909 81.664-104.363 104.96l-8.277 4.608-33.707-57.003 8.661-4.693c31.238-17.752 56.733-42.291 75.093-71.737l0.512-0.882c19.925-31.744 32.555-69.12 36.523-108.16l0.64-22.869-0.64-22.827c-4.041-40.517-17.103-77.295-37.139-109.256l0.616 1.053c-18.875-30.313-44.369-54.838-74.576-72.037l-1.029-0.539-8.661-4.736z" />
<glyph unicode="&#xe947;" glyph-name="android" data-tags="android" d="M1024 149.333h-1024c10.996 97.62 44.67 185.638 95.601 261.041l-1.308-2.054c40.353 61.72 92.677 112.273 154.028 149.415l19.626 11.012-86.187 145.493c-1.986 3.219-3.163 7.121-3.163 11.298 0 7.822 4.127 14.68 10.323 18.515l0.093 0.054c3.126 1.898 6.904 3.021 10.945 3.021 7.869 0 14.743-4.26 18.441-10.6l0.055-0.101 88.747-149.333c59.159 24.322 127.831 38.442 199.801 38.442 2.358 0 4.712-0.015 7.062-0.045l-0.356 0.004c1.888 0.025 4.118 0.039 6.351 0.039 70.774 0 138.25-14.125 199.761-39.709l-3.446 1.27 88.32 149.333c3.768 6.373 10.606 10.581 18.425 10.581 4.246 0 8.202-1.24 11.526-3.378l-0.085 0.051c6.114-3.921 10.107-10.683 10.107-18.377 0-4.256-1.222-8.226-3.334-11.58l0.053 0.090-86.187-145.92 21.333-11.947c63.108-39.707 115.018-91.482 153.705-152.471l1.175-1.982c46.839-71.889 79.601-157.201 92.224-248.938l0.363-3.222zM704 340.48c0-23.564 19.103-42.667 42.667-42.667v0c23.564 0 42.667 19.103 42.667 42.667v0c0 23.564-19.103 42.667-42.667 42.667v0c-23.564 0-42.667-19.103-42.667-42.667v0zM234.667 340.48c0-23.564 19.103-42.667 42.667-42.667v0c23.564 0 42.667 19.103 42.667 42.667v0c0 23.564-19.103 42.667-42.667 42.667v0c-23.564 0-42.667-19.103-42.667-42.667v0z" />
<glyph unicode="&#xe948;" glyph-name="angellist" data-tags="angellist" d="M702.507 535.296c31.36 85.333 55.893 155.733 73.515 211.371 17.493 55.467 26.368 89.6 26.368 102.4 0 13.44-2.987 24.064-8.96 31.488-5.76 7.424-13.824 11.264-24.192 11.264-13.227 0-26.88-10.88-40.107-32.64-13.653-21.76-28.587-56.917-45.227-105.259l-70.4-203.093 88.32-15.445zM608.939 346.069c-20.224 1.28-39.381 3.413-57.344 6.4-17.92 3.413-35.413 8.107-51.883 14.080 7.552-14.933 14.293-29.867 20.139-44.8 5.888-14.933 10.667-29.44 14.507-44.373 11.093 14.080 23.040 26.88 35.413 38.4 12.459 11.52 25.6 21.76 39.168 30.293zM529.493 559.403l-75.947 219.307c-19.797 55.893-34.987 92.16-45.867 109.653-10.667 17.067-22.4 25.6-35.072 25.6-9.813 0-17.792-3.413-23.893-11.093-6.144-7.68-9.131-17.493-9.131-29.867 0-21.333 8.107-58.88 24.32-112.64 16.213-53.333 40.96-123.307 73.813-210.347 2.56 5.12 6.827 8.96 11.947 11.093s11.947 3.413 20.907 3.413c2.56 0 8.107-0.427 16.64-0.427 8.107-0.853 22.187-1.707 41.387-3.84zM460.459 219.776c8.021 0 15.36 3.84 21.76 11.093 6.4 7.68 9.984 15.36 9.984 23.467 0 8.96-6.4 29.867-19.285 62.293-12.8 32.427-29.013 64.427-48.213 96-14.080 23.467-27.947 41.387-41.387 53.333-13.824 11.947-26.667 17.92-38.827 17.92-9.813 0-20.651-5.973-32.725-18.773-11.947-12.373-17.92-23.893-17.92-34.56 0-11.093 5.973-28.16 17.621-50.347 11.733-22.613 27.52-46.507 47.104-71.68 20.693-27.733 40.107-49.067 58.453-64.427 18.261-15.36 32.853-23.040 43.52-23.040h-0.085zM249.472 236.843c6.656-8.107 15.787-19.627 27.563-34.987 30.848-42.667 59.52-64 85.76-64 8.96 0 16.939 2.987 24.021 8.533 6.997 5.973 10.539 11.52 10.539 17.92 0 7.253-4.693 18.773-14.080 35.413-9.472 16.64-22.357 34.987-38.699 55.467-18.773 23.893-34.347 41.387-46.848 52.48-12.288 11.093-22.4 16.64-29.739 16.64-16.213 0-31.573-8.96-45.227-26.453-13.653-17.067-20.48-38.4-20.48-62.293 0-19.2 5.12-40.533 14.933-64.427 9.813-23.467 23.467-47.36 41.813-71.253 27.733-37.12 62.293-65.28 103.253-85.333 40.96-19.627 86.613-29.44 136.107-29.44 91.307 0 168.107 34.133 229.547 102.4 61.867 68.267 92.587 153.6 92.587 256.427 0 31.573-2.133 56.747-6.827 75.093s-12.373 32-23.040 40.533c-19.2 16.213-56.747 30.293-112.213 43.093s-113.493 19.2-174.080 19.2c-16.64 0-29.013-2.987-35.84-8.533s-10.24-15.36-10.24-28.715c0-32 17.92-55.040 53.76-69.376 35.84-14.507 93.44-21.76 173.227-21.76h28.843c6.4 0 11.947-2.56 15.787-7.424 3.84-4.693 6.4-11.947 7.68-22.187-8.107-7.253-24.32-15.787-49.237-25.6-25.173-9.387-43.947-19.2-57.173-28.373-28.16-20.651-50.773-45.227-67.84-73.557-17.067-28.16-25.6-55.040-25.6-80.341 0-15.36 3.669-34.133 11.008-55.893 7.253-21.76 11.093-35.115 11.093-40.533v-4.693l-1.28-6.4c-20.48 1.28-36.693 13.355-48.64 36.267-12.245 22.613-17.92 52.907-17.92 90.88v6.4c-3.84-3.2-7.509-5.76-11.093-7.040-3.669-1.451-7.595-2.133-11.52-2.133-4.267 0-8.448 0.256-12.373 0.853-3.84 0.683-7.68 1.707-12.373 3.2 1.28-5.12 2.432-10.24 3.243-15.061 0.427-5.12 0.853-8.96 0.853-11.52 0-17.323-6.827-32.427-20.48-44.8-13.653-12.245-29.867-18.347-48.64-18.347-29.44 0-59.605 14.507-90.027 43.093-30.507 28.757-45.653 57.173-45.653 84.693 0 5.12 0.64 9.813 1.707 13.781s3.2 7.253 5.973 10.24zM753.237 523.989c42.027-7.68 71.893-25.6 89.173-53.333 17.493-27.307 26.027-70.827 26.027-130.56 0-118.187-35.328-214.613-106.325-289.707-71.125-75.093-162.005-113.067-272.512-113.067-43.648 0-86.016 8.107-126.976 23.893-41.387 15.787-76.373 37.973-106.24 65.707-33.707 31.147-59.307 63.573-75.947 98.133-17.067 34.56-25.6 69.973-25.6 105.813 0 40.533 8.533 71.68 25.6 93.44 17.067 22.187 44.8 37.12 82.347 45.227-7.253 16.64-12.373 30.293-15.36 41.813-3.413 11.52-5.12 20.053-5.12 26.027 0 21.333 11.093 43.093 33.28 64.853 22.187 22.187 43.093 33.28 62.72 33.28 8.107 0 17.067-1.28 26.453-4.693 9.387-2.987 20.053-8.107 32-14.933-34.56 100.267-61.013 179.2-77.227 234.667-16.64 55.893-24.747 93.867-24.747 115.2 0 29.013 7.253 52.48 22.187 69.547 15.36 17.067 35.84 25.6 61.44 25.6 43.947 0 99.84-98.56 167.68-295.381 11.947-33.707 20.48-59.733 26.88-78.080l21.76 61.995c67.84 194.133 125.867 291.413 174.933 291.413 23.893 0 43.093-8.107 57.173-24.32 14.080-16.341 21.333-37.845 21.333-64.981 0-20.48-8.107-58.027-23.893-113.067-15.659-54.613-39.253-126.293-71.253-215.040z" />
<glyph unicode="&#xe949;" glyph-name="angular" data-tags="angular" d="M423.68 420.48h176.384l-88.235 209.28zM511.829 959.616l-482.56-169.771 73.6-629.76 408.96-223.701 409.088 223.488 73.557 629.888zM812.971 178.944h-112.469l-60.587 149.376h-256.128l-60.587-149.376h-112.555l301.227 667.648z" />
<glyph unicode="&#xe94a;" glyph-name="angularuniversal" data-tags="angularuniversal" d="M665.6 478.72v-61.44c0-11.311-9.169-20.48-20.48-20.48v0h-266.24c-11.311 0-20.48 9.169-20.48 20.48v0 61.44c0 11.311 9.169 20.48 20.48 20.48v0h266.24c11.311 0 20.48-9.169 20.48-20.48v0zM512 294.4c-28.277 0-51.2-22.923-51.2-51.2s22.923-51.2 51.2-51.2v0c28.277 0 51.2 22.923 51.2 51.2s-22.923 51.2-51.2 51.2v0zM645.12 652.8h-266.24c-11.311 0-20.48-9.169-20.48-20.48v0-61.44c0-11.307 9.173-20.48 20.48-20.48h266.24c11.311 0 20.48 9.169 20.48 20.48v0 61.44c0 11.311-9.169 20.48-20.48 20.48v0zM988.16 789.504l-73.216-628.736-403.968-224.768-403.456 224.768-71.68 628.736 475.136 170.496zM716.8 693.76c0 33.932-27.508 61.44-61.44 61.44v0h-286.72c-33.932 0-61.44-27.508-61.44-61.44v0-491.52c0-33.92 27.52-61.44 61.44-61.44h286.72c33.932 0 61.44 27.508 61.44 61.44v0z" />
<glyph unicode="&#xe94b;" glyph-name="ansible" data-tags="ansible" d="M452.992 470.485l199.936-157.653-132.352 326.912zM512 960c-282.837 0-512-229.163-512-512s229.163-512 512-512 512 229.163 512 512-229.163 512-512 512zM759.339 221.653c-0.469-20.096-17.195-35.925-37.333-35.413-10.069 0-17.749 3.84-28.331 12.501l-264.107 213.333-88.704-221.995h-76.715l223.872 537.813c5.291 13.397 18.219 22.187 32.597 21.589 13.909 0.597 26.88-8.064 31.659-21.589l203.691-490.411c1.92-4.736 3.413-9.984 3.413-14.848-0.043-0.384-0.043-0.384-0.043-0.981z" />
<glyph unicode="&#xe94c;" glyph-name="apache" data-tags="apache" d="M675.243 960c-6.377-0.008-12.33-1.817-17.379-4.946l0.142 0.082c-16.043-9.472-42.752-36.309-74.581-75.221l-6.656-8.192c-8.448-10.496-17.195-21.845-26.197-33.835-27.1-35.74-55.463-77.084-81.941-119.72l-4.075-7.043-2.816-4.608c-21.663-34.401-45.909-77.426-68.338-121.532l-4.579-9.924c-14.769-28.655-30.582-64.636-44.453-101.567l-2.481-7.532c-3.883-10.709-7.424-21.035-10.667-30.976-2.645-8.491-5.205-16.981-7.595-25.429-5.675-19.925-10.581-39.851-14.592-59.648l0.043-0.085-0.555-2.603c-4.318-20.299-7.842-44.995-9.811-70.127l-0.13-2.065-0.213-2.517c-11.947 19.157-43.904 37.803-43.861 37.632 22.912-33.195 40.277-66.133 42.837-98.475-12.245-2.517-29.056 1.109-48.469 8.277 20.224-18.603 35.413-23.723 41.344-25.088-18.603-1.152-37.931-13.952-57.429-28.629 28.501 11.648 51.541 16.213 68.053 12.501-16.305-40.601-43.11-121.322-68.114-202.83l-10.521-39.858c7.414 2.156 13.174 7.775 15.486 14.942l0.045 0.162c4.693 15.744 35.712 118.869 84.352 254.464l4.181 11.648 1.195 3.243c5.12 14.208 10.453 28.715 15.957 43.52l3.797 10.112 0.085 0.213-25.771 50.901 25.771-50.859c5.077 13.525 10.24 27.221 15.573 41.088l2.219 5.803 2.261 5.845 1.749 4.437-1.749-4.48-2.261-5.803-2.219-5.803c-5.333-13.867-10.496-27.563-15.573-41.088l4.523-8.875 4.011 0.427 0.427 1.195c6.528 17.792 12.971 35.157 19.371 52.053l0.213 0.597c3.55 12.81-3.065-4.616-9.573-22.093l-9.969-30.557-0.427-1.195-2.859-7.808c-5.035-13.867-10.112-27.947-15.189-42.368l-0.213-0.64-2.176-6.101c-3.413-9.728-6.4-18.475-13.184-38.357 11.221-5.12 20.224-18.603 28.757-33.877-0.88 16.757-8.347 31.615-19.837 42.156l-0.045 0.041c55.296-2.475 102.955 11.477 127.616 51.925 2.219 3.627 4.224 7.381 6.016 11.435-11.179-14.208-25.088-20.224-51.2-18.731 38.485 17.237 57.771 33.749 74.837 61.141 3.563 5.624 7.549 12.647 11.238 19.847l0.751 1.614c-33.664-34.56-72.619-44.373-113.707-36.907h-0.085l-1.749 0.299c36.821 4.565 85.76 32.085 117.419 66.048 14.592 15.659 27.819 34.133 40.064 55.723 9.131 16.085 17.664 33.92 25.813 53.675 7.125 17.237 13.952 35.925 20.565 56.192-10.011-5.241-21.64-9.136-33.923-11.054l-0.637-0.082c-0.702-0.165-2.705-0.494-4.718-0.795l-1.17-0.144 0.085 0.043 0.128 0.043c1.92 0.299 3.797 0.555 5.675 0.896 1.92 0.341 3.84 0.683 5.717 1.109l-5.675-1.024-5.632-0.981c34.219 13.227 55.808 38.699 71.509 69.845-11.799-8.13-25.608-14.377-40.466-17.923l-0.835-0.168c-1.547-0.365-4.021-0.827-6.518-1.221l-0.778-0.101-1.835-0.256 0.043 0.043 0.384 0.043 1.365 0.213c2.997 0.462 5.267 0.894 7.515 1.388l-0.816-0.15 0.597 0.128-0.683-0.128-8.277-1.408c11.861 4.992 21.888 10.539 30.592 17.109 6.494 5.079 12.235 10.55 17.405 16.528l0.131 0.155c3.413 4.053 6.613 8.448 9.6 13.227l2.731 4.437 3.285 6.485c4.851 9.424 10.139 21.395 14.817 33.667l0.885 2.642 1.323 3.755c1.195 3.627 2.219 6.869 2.987 9.685 1.152 4.224 1.877 7.595 2.261 10.069-1.174-0.948-2.484-1.851-3.861-2.651l-0.149-0.080c-10.368-6.187-28.16-11.819-42.496-14.464l-4.224-0.469-0.043-0.043-96.725-10.624-0.512-1.024-3.285-6.741-10.027-20.821c3.371 7.083 6.699 14.037 10.027 20.821l3.285 6.741c0.171 0.384 0.384 0.725 0.512 1.109l-3.584-0.384-2.859 5.632c0.608 2.371-4.776-8.307-10.080-19.031l-6.048-13.524-8.704-18.091c-8.209-15.135-23.832-48.893-38.854-82.976l-7.738-19.68c-5.030-8.402-20.561-45.025-35.602-81.901l-10.521-29.161 3.669 9.216c24.173 62.161 38.466 95.741 53.175 129.098l-10.721-27.252c22.888 54.069 38.512 87.843 54.715 121.284l-8.123-18.586 8.704 18.091c5.035 10.411 10.112 20.693 15.275 30.891l0.853 1.621c8.149 16.128 16.384 32 24.704 47.616 8.875 16.64 17.92 32.896 27.008 48.683 12.812 22.51 22.302 38.099 32.083 53.486l-3.411-5.742 1.707 2.731c9.557 15.104 19.2 29.653 28.885 43.563 20.936 30.229 42.267 56.666 65.34 81.46l-0.401-0.436-2.475-2.645c-6.827-7.509-27.477-31.616-58.667-79.488 30.037 1.493 76.16 7.637 113.792 14.080 11.179 62.72-10.965 91.392-10.965 91.392s-18.944 30.677-44.203 30.976zM604.928 639.701c28.16 12.971 40.789 24.704 52.992 41.643 3.243 4.693 6.528 9.557 9.771 14.635 9.941 15.488 19.669 32.597 28.373 49.579 8.405 16.384 15.829 32.64 21.504 47.317 2.762 6.642 5.675 15.158 8.119 23.87l0.415 1.73c1.749 6.699 3.157 13.099 4.224 19.157-37.675-6.4-83.797-12.587-113.835-14.037-7.177-10.601-16.994-26.223-26.477-42.068l-3.219-5.804c-8.704-14.72-18.005-30.848-27.733-48.512-12.175-20.836-29.139-52.976-45.297-85.586l-5.604-12.505zM759.723 866.219v-2.816h6.656v-18.731h3.072v18.731h6.699v2.816zM779.477 866.219v-21.589h2.816v17.109l7.339-14.848h1.963l7.339 14.848v-17.109h2.816v21.589h-3.712l-7.424-15.061-7.467 15.061zM608.469 640.043l-4.352-0.683 0.043 0.043zM604.629 639.531l-0.213-0.085zM487.723 586.539l-4.523-9.685-5.675-12.245c-5.053-8.725-18.245-38.002-31.022-67.502l-8.274-21.458c-4.822-8.279-19.186-42.712-33.080-77.385l-9.544-26.978c-6.315-16.128-12.715-32.64-19.157-49.621l-0.213-0.597c38.563 104.72 72.709 185.092 109.861 263.767l-8.571-20.183 5.675 12.245z" />
<glyph unicode="&#xe94d;" glyph-name="apacheairflow" data-tags="apacheairflow" d="M513.408 502.912c-29.483 0-53.888-24.064-53.888-53.547 0-29.44 24.405-53.845 53.888-53.845 29.655 0 53.696 24.041 53.696 53.696s-24.041 53.696-53.696 53.696v0zM513.408 468.907c11.008 0 19.499-8.533 19.499-19.541s-8.533-19.541-19.499-19.541c-11.051 0-19.541 8.533-19.541 19.541s8.491 19.541 19.541 19.541zM27.733 959.957c-3.115 0-4.523-0.512-14.933-1.707-10.539-1.237-13.952-13.781-11.52-26.965 2.347-13.227 3.072-8.747 8.363-16.384 5.291-7.68 180.395-176.811 271.019-265.216l-160.64-164.736c-53.333-54.699-81.493-138.709-97.963-231.808-16.512-93.056-20.779-196.011-22.059-289.408 0.12-13.606 10.331-24.79 23.506-26.44l0.132-0.013c0.754-0.063 1.631-0.098 2.517-0.098s1.764 0.036 2.632 0.106l-0.114-0.007c6.475 0.595 12.18 3.487 16.376 7.843l0.008 0.008h0.299l264.917 271.787c171.563-158.763 175.787-216.747 396.544-258.859 93.099-16.469 196.053-20.779 289.451-22.059 13.532 0.019 24.704 10.099 26.439 23.16l0.015 0.136 0.341 0.341c0.009 0.278 0.014 0.605 0.014 0.934 0 1.673-0.129 3.316-0.378 4.919l0.023-0.179c-0.702 6.207-3.454 11.668-7.553 15.788l0.001-0.001v0.341l-272.128 264.875 154.965 159.019c1.963 1.835 3.797 3.755 5.675 5.675l0.299 0.341c53.333 54.656 81.835 138.411 98.304 231.509 16.427 93.099 20.437 196.053 21.717 289.408-0.039 13.525-10.108 24.686-23.159 26.438l-0.137 0.015-0.341 0.427c-0.338 0.014-0.736 0.023-1.135 0.023-1.603 0-3.175-0.132-4.706-0.387l0.166 0.023c-6.207-0.677-11.664-3.453-15.741-7.591l-0.003-0.003h-0.299l-264.917-271.787-164.736 160.64c-54.656 53.291-138.667 81.792-231.808 98.219-96.171 10.624-192.725 20.267-289.451 21.675zM48.213 924.331c86.997-1.621 179.755-5.12 262.997-19.84 89.813-15.872 167.552-43.947 213.845-89.131h0.341l4.395-4.693c0.981-0.981 2.091-2.261 3.157-3.499 0.085-0.128 0.213-0.171 0.299-0.341l0.981-0.981c0-0.085-0.085-0.341 0-0.341 0.085-0.128 0.213-0.171 0.299-0.341 5.461-7.509 15.104-22.187 17.92-28.331 2.091-4.309 3.968-8.875 5.717-13.867 7.637-22.144 11.435-49.749 8.789-84.693v-0.341c-0.597-7.723-1.621-15.787-2.816-24.277-0.597-4.053-1.408-8.533-2.219-13.227-2.248-12.211-4.321-21.447-6.667-30.574l0.694 3.182c-1.195-4.907-2.389-9.899-3.797-14.805v-0.341c-5.547-19.968-12.8-41.643-21.76-64.853-2.219-5.888-4.395-11.605-6.869-17.664-1.963-4.736-4.224-9.6-6.315-14.507l-11.008-2.176c-37.333 70.613-78.123 119.467-114.688 147.413-18.432 14.080-35.712 23.040-52.267 26.752h-0.299c-16.512 3.584-34.133 1.152-45.653-10.709l1.621-3.2 13.653 10.197zM988.416 912.043c-1.621-87.040-5.12-179.968-19.84-263.253-15.872-89.813-43.989-167.595-89.173-213.888l-4.693-4.395c-1.28-1.109-2.645-2.517-4.096-3.755l-0.64-0.683h-0.299c-7.424-5.376-22.485-15.36-28.672-18.261-4.309-2.005-8.96-4.267-13.867-5.973h-0.299c-22.016-7.552-49.749-11.093-84.437-8.533-7.808 0.683-16 1.323-24.576 2.56l-12.885 2.219h-0.341c-12.253 2.26-21.489 4.333-30.617 6.675l3.225-0.702h-0.299c-4.992 1.28-9.984 2.773-14.805 4.096-26.88 7.407-48.47 14.716-69.55 23.038l4.654-1.62c-5.803 2.219-11.904 4.736-17.963 7.253-10.386 4.036-14.845 5.932-19.285 7.863l5.76-2.231c0.384 2.688-3.371-4.096 0 0 0.017 0.364 0.026 0.79 0.026 1.218 0 3.998-0.826 7.803-2.316 11.254l0.071-0.184c69.888 37.12 118.613 77.397 146.475 113.707 14.123 18.475 23.381 36.011 27.093 52.608 3.712 16.469 1.152 34.389-10.709 45.952l0.299-0.341 4.693-14.976zM593.067 748.928l109.312-106.496c1.621-1.621 3.328-4.693 1.28-14.165-0.939-4.053-6.229-11.264-8.832-16.683-3.499-7.083-4.949-12.8-11.691-21.419-23.296-29.867-68.949-66.816-133.845-101.419 1.963 4.565 3.84 9.088 5.675 13.525 2.56 6.272 4.907 12.544 7.253 18.603 9.301 24.235 17.067 47.061 22.955 68.352 3.418 11.437 7.029 26.712 9.927 42.239l0.483 3.116v0.299c0.811 4.565 1.835 9.045 2.517 13.824 1.086 7.028 2.102 16.237 2.785 25.539l0.074 1.255c2.133 28.885-2.987 51.029-7.893 73.429zM331.691 639.573c67.925-30.72 112.384-103.424 139.819-154.325-4.608 2.005-9.259 3.797-13.824 5.675-6.272 2.56-12.544 4.907-18.603 7.253-17.137 7.119-39.758 14.958-62.848 21.696l-5.205 1.302h-0.256c-5.333 1.451-10.411 2.859-15.445 4.096-10.24 2.517-20.309 4.523-29.909 6.315-4.608 0.768-9.387 1.451-14.165 2.176v0.427c-6.764 1.019-15.972 2.033-25.261 2.762l-1.534 0.097c-29.013 2.176-51.285-2.944-73.685-7.893l106.795 109.312c1.536 1.664 4.693 3.413 14.123 1.109zM281.899 502.912c7.68-0.512 15.701-1.621 24.277-2.859h0.299c4.096-0.64 8.277-1.451 12.928-2.219 8.747-1.621 17.835-3.627 27.392-5.973l7.552-1.877c2.432-0.64 4.821-1.152 7.253-1.877h0.299c20.053-5.547 41.557-12.757 64.896-21.76 5.845-2.261 11.947-4.437 17.92-6.912 5.12-2.091 10.24-4.395 15.488-6.613l0.597-11.349c-69.973-37.12-118.912-77.653-146.773-114.005-14.165-18.475-23.381-35.712-27.093-52.267v-0.341c-3.712-16.512-1.152-34.133 10.709-45.653h-0.256l-8.021 14.293-253.44-259.029c1.707 86.912 4.864 179.541 19.541 262.656 15.872 89.813 43.989 167.595 89.173 213.845v0.341c1.024 1.152 2.261 2.048 3.413 3.157l1.28 1.28c1.182 1.152 2.419 2.281 3.692 3.368l0.105 0.088h0.299c0.256 0.171 0.427 0.512 0.64 0.683 7.296 5.333 22.741 15.659 29.013 18.56 3.591 1.728 8.257 3.645 13.031 5.337l1.092 0.337c22.144 7.68 49.749 11.477 84.693 8.789zM501.76 494.379c-17.707-5.632-29.781-17.92-35.584-35.584l18.773 20.907zM525.056 493.099l7.68-13.781 6.229-4.053 17.28-13.355c-6.315 14.848-15.872 25.728-31.189 31.189zM512.768 471.040c13.312 0 23.637-10.325 23.637-23.595 0.001-0.089 0.002-0.195 0.002-0.301 0-12.89-10.449-23.339-23.339-23.339-0.106 0-0.211 0.001-0.317 0.002h0.016c-0.077-0.001-0.167-0.001-0.258-0.001-12.89 0-23.339 10.449-23.339 23.339 0 0.106 0.001 0.211 0.002 0.316v-0.016c0 13.227 10.325 23.637 23.595 23.595zM468.053 434.219c5.973-15.488 16.256-26.027 31.829-31.829l-10.283 11.776-8.661 9.984zM555.947 432.597l-12.032-4.949-2.645-7.595-12.117-13.952c12.373 6.059 21.248 13.824 26.795 26.496zM552.789 410.837c4.523-1.92 9.088-4.096 13.568-5.973 6.272-2.56 12.459-4.907 18.56-7.253 24.149-9.259 46.848-16.811 68.053-22.613 5.461-1.664 10.795-2.859 15.744-4.139 10.24-2.517 20.309-4.864 29.909-6.613 4.565-0.811 9.387-1.451 14.165-2.176 9.216-1.28 18.176-2.475 26.795-3.157 29.013-2.219 51.285 2.901 73.685 7.851l-106.752-109.312c-1.579-1.621-4.907-3.157-13.867-1.28h-0.341c-9.216 2.133-22.656 8.704-38.101 20.779-29.867 23.339-66.859 69.035-101.419 133.888zM474.709 407.083l-5.717-13.525c-2.56-6.272-4.907-12.544-7.253-18.603-7.053-17.166-14.78-39.785-21.396-62.873l-1.26-5.137c-1.536-5.461-2.859-10.709-4.096-15.787-2.56-10.24-4.864-20.267-6.613-29.867-0.384-1.649-1.162-6.486-1.874-11.344l-0.345-2.864c-1.099-6.752-2.203-15.944-3.005-25.222l-0.11-1.573c-2.219-29.013 2.901-51.285 7.851-73.685l-108.032 105.557-0.64 0.981-0.64 0.341v0.341c-1.707 1.707-3.328 4.309-1.28 13.525 0.085 0.171 0 0.085 0 0.341 2.133 9.216 8.789 22.699 20.821 38.101 23.296 29.867 68.821 66.859 133.589 101.291zM519.083 396.075c36.949-69.376 77.227-118.443 113.408-146.176 18.475-14.165 35.669-23.381 52.267-27.051h0.341c16.512-3.627 34.091-1.152 45.653 10.667l-1.493 3.029-12.971-11.52 259.84-253.525c-87.040 1.707-180.053 5.205-263.339 19.925-89.813 15.872-167.595 43.947-213.845 89.131h-0.341l-0.939 0.981-1.28 1.28c-0.341 0.341-0.555 0.811-0.939 1.28l-1.28 1.28c-0.981 1.152-2.261 2.432-3.413 3.797v0.341c-0.128 0.171-0.512 0.427-0.64 0.64-6.194 8.308-12.35 17.773-17.904 27.623l-0.699 1.348c-1.758 3.646-3.676 8.328-5.356 13.121l-0.319 1.044c-7.68 22.144-11.477 49.749-8.789 84.736 0.555 7.68 1.579 15.701 2.816 24.235v0.341c0.597 4.011 1.408 8.363 2.219 12.928 1.579 8.747 3.627 17.877 5.973 27.392v0.341l1.877 7.253 1.92 7.253v0.341c5.547 20.053 12.715 41.515 21.76 64.853 2.219 5.845 4.736 11.947 7.211 17.92 2.005 4.907 4.139 9.856 6.315 14.848z" />
<glyph unicode="&#xe94e;" glyph-name="apachecordova" data-tags="apachecordova" d="M791.253 936.747h-558.507l-232.747-372.395 93.099-605.099h165.803l-11.648 139.648h81.451l11.648-139.648h343.253l11.648 139.648h81.451l-11.648-139.648h165.803l93.141 605.099zM791.253 192h-558.507l-46.549 372.352 93.099 186.197h149.589l-9.984-69.803h186.197l-9.984 69.803h149.589l93.099-186.197zM663.253 488.747c12.843 0 23.253-38.741 23.253-86.571s-10.411-86.571-23.253-86.571-23.253 38.741-23.253 86.571c0 47.787 10.411 86.571 23.253 86.571zM369.451 481.493c12.843 0 23.253-38.741 23.253-86.571s-10.411-86.571-23.253-86.571-23.253 38.741-23.253 86.571 10.411 86.571 23.253 86.571z" />
</font>
</defs>
</svg>
