<svg xmlns="http://www.w3.org/2000/svg"><defs><font id="AlfaSlabOne" horiz-adv-x="636"><font-face alphabetic="0" ascent="1036" descent="-333" font-family="Alfa Slab One" panose-1="0 0 5 0 0 0 0 0 0 0" units-per-em="1000"/><glyph glyph-name="space" horiz-adv-x="300"/><glyph d="M66 219L20 728V778H319V728L272 219H66ZM56 0V164H282V0H56Z" glyph-name="exclam" horiz-adv-x="339" unicode="!"/><glyph d="M203 548L188 778H331L316 548H203ZM40 548L25 778H168L153 548H40Z" glyph-name="quotedbl" horiz-adv-x="356" unicode="&quot;"/><glyph d="M113 0V22L134 193H22L38 332H151L164 437H42L58 576H182L207 778H349V756L326 576H446L471 778H613V756L590 576H710L694 437H573L560 332H690L674 193H543L520 0H377V22L398 193H279L256 0H113ZM296 332H415L428 437H309L296 332Z" glyph-name="numbersign" horiz-adv-x="732" unicode="#"/><glyph d="M273 -12Q196 -7 129 8T25 40V238H245Q245 206 258 193T307 179Q339 179 353 189T368 219Q368 233 356 244T310 268Q199 309 139 343T47 426T16 551Q16 654 76 714T273 788V903H404V790Q485 785 551 767T649 728V549H439Q439 599 384 599Q351 599 337 591T322 561Q322 545 335 537T384 518Q478 488 536 458T631 376T668 243Q668 129 601 65T404 -11V-132H273V-12Z" glyph-name="dollar" horiz-adv-x="684" unicode="$"/><glyph d="M30 386T30 586Q30 692 72 740T193 788Q357 788 357 586Q357 489 318 438T193 386Q30 386 30 586ZM222 473T222 510V665Q222 701 193 701Q165 701 165 665V510Q165 473 193 473Q222 473 222 510ZM159 0V32L624 778H726V746L262 0H159ZM528 -10T528 190Q528 296 570 344T691 392Q855 392 855 190Q855 93 816 42T691 -10Q528 -10 528 190ZM720 77T720 114V269Q720 305 691 305Q663 305 663 269V114Q663 77 691 77Q720 77 720 114Z" glyph-name="percent" horiz-adv-x="885" unicode="%"/><glyph d="M189 -14T103 45T16 210Q16 280 58 331T163 409Q107 449 79 491T51 589Q51 653 92 699T205 768T371 792Q465 792 543 769T659 718V526H449V544Q449 580 432 597T381 614Q318 614 318 565Q318 546 333 529T383 486L546 363Q550 384 550 411V429H791V262H733L724 229L814 161L692 0L619 56Q519 -14 350 -14Q189 -14 103 45ZM425 164T456 182L329 280Q310 271 299 256T288 221Q288 191 310 178T376 164Q425 164 456 182Z" glyph-name="ampersand" horiz-adv-x="828" unicode="&amp;"/><glyph d="M40 548L25 778H168L153 548H40Z" glyph-name="quotesingle" horiz-adv-x="193" unicode="'"/><glyph d="M158 -145T97 4T36 328Q36 503 97 652T255 888L364 838Q294 736 258 607T222 328Q222 178 258 49T364 -182L255 -232Q158 -145 97 4Z" glyph-name="parenleft" horiz-adv-x="374" unicode="("/><glyph d="M10 -182Q80 -80 116 49T152 328Q152 478 116 607T10 838L119 888Q216 801 277 652T338 328Q338 153 277 4T119 -232L10 -182Z" glyph-name="parenright" horiz-adv-x="374" unicode=")"/><glyph d="M145 409V424L163 518L88 458L76 451L16 551L27 560L127 593L27 626L16 633L76 736L88 729L163 667L145 761V778H265V761L247 667L321 729L332 736L393 633L381 626L280 593L381 560L393 551L332 451L321 458L247 518L265 424V409H145Z" glyph-name="asterisk" horiz-adv-x="409" unicode="*"/><glyph d="M205 94V259H40V426H205V591H372V426H536V259H372V94H205Z" glyph-name="plus" horiz-adv-x="576" unicode="+"/><glyph d="M40 -161L92 0H41V164H197V0L126 -161H40Z" glyph-name="comma" horiz-adv-x="245" unicode=","/><glyph d="M34 199V363H355V199H34Z" glyph-name="hyphen" horiz-adv-x="389" unicode="-"/><glyph d="M40 0V164H196V0H40Z" glyph-name="period" horiz-adv-x="244" unicode="."/><glyph d="M-20 -151V-119L301 842H443V810L123 -151H-20Z" glyph-name="slash" horiz-adv-x="423" unicode="/"/><glyph d="M197 -14T106 82T14 389Q14 600 105 696T366 792Q535 792 626 696T718 389Q718 194 634 90T366 -14Q197 -14 106 82ZM434 164T434 238V540Q434 614 366 614Q298 614 298 540V238Q298 164 366 164Q434 164 434 238Z" glyph-name="zero" horiz-adv-x="732" unicode="0"/><glyph d="M44 0V164H140V614H14V727L236 778H404V164H488V0H44Z" glyph-name="one" horiz-adv-x="522" unicode="1"/><glyph d="M12 86Q12 172 37 238T121 362T281 484Q311 503 323 516T336 549Q336 590 277 590Q233 590 176 567T73 509L14 722Q78 754 161 776T328 799Q466 799 542 738T618 565Q618 505 592 460T528 383T430 312Q363 268 332 237T300 164H421V221H626V0H12V86Z" glyph-name="two" horiz-adv-x="649" unicode="2"/><glyph d="M517 389T545 365T592 303T611 221Q611 111 533 49T300 -14Q227 -14 154 2T24 43V256Q86 229 152 212T279 195Q321 195 340 208T360 251Q360 309 290 309H218V473H274Q340 473 340 529Q340 583 274 583Q226 583 174 561T73 502L14 715Q75 747 153 769T310 792Q448 792 522 734T596 570Q596 504 565 462T486 397Q517 389 545 365Z" glyph-name="three" horiz-adv-x="623" unicode="3"/><glyph d="M343 0V125H18V289L363 778H607V277H676V125H607V0H343ZM203 277H343V474L203 277Z" glyph-name="four" horiz-adv-x="694" unicode="4"/><glyph d="M519 514T578 448T637 269Q637 184 599 120T484 21T300 -14Q227 -14 154 2T24 43V256Q154 195 260 195Q315 195 342 217T369 288Q369 323 353 343T302 363Q275 363 259 350T232 311H22L65 778H597V584H265L256 481Q319 514 407 514Q519 514 578 448Z" glyph-name="five" horiz-adv-x="651" unicode="5"/><glyph d="M560 491T622 427T685 249Q685 122 602 54T366 -14Q190 -14 104 81T18 374Q18 590 119 691T399 792Q472 792 535 780T636 747V545Q598 562 549 572T445 583Q302 583 302 477V465Q333 476 372 483T449 491Q560 491 622 427ZM404 164T421 184T438 249Q438 289 421 311T367 334Q333 334 302 321V241Q302 201 319 183T370 164Q404 164 421 184Z" glyph-name="six" horiz-adv-x="693" unicode="6"/><glyph d="M122 89T159 197T254 406T369 584H220V492H10V778H638V626Q583 544 530 435T441 210T405 0H122Q122 89 159 197Z" glyph-name="seven" horiz-adv-x="648" unicode="7"/><glyph d="M609 384T649 338T690 215Q690 102 604 44T350 -14Q183 -14 97 42T10 209Q10 288 53 336T157 404Q104 423 68 465T32 575Q32 682 112 737T350 792Q506 792 586 737T666 575Q666 507 634 465T553 404Q609 384 649 338ZM282 614T282 544Q282 478 350 478Q418 478 418 544Q418 614 350 614Q282 614 282 544ZM428 164T428 244Q428 284 408 305T350 326Q312 326 292 305T272 244Q272 164 350 164Q428 164 428 244Z" glyph-name="eight" horiz-adv-x="700" unicode="8"/><glyph d="M503 792T590 697T677 404Q677 188 576 87T296 -14Q223 -14 160 -2T59 31V233Q97 216 146 206T250 195Q393 195 393 301V312Q329 287 255 287Q139 287 75 349T10 524Q10 657 92 724T325 792Q503 792 590 697ZM257 488T274 466T328 444Q362 444 393 457V537Q393 577 376 595T325 614Q291 614 274 593T257 528Q257 488 274 466Z" glyph-name="nine" horiz-adv-x="693" unicode="9"/><glyph d="M40 325V489H196V325H40ZM40 0V164H196V0H40Z" glyph-name="colon" horiz-adv-x="244" unicode=":"/><glyph d="M41 325V489H197V325H41ZM40 -161L92 0H41V164H197V0L126 -161H40Z" glyph-name="semicolon" horiz-adv-x="245" unicode=";"/><glyph d="M434 69L36 230V414L434 576H455V420L184 328V317L455 224V69H434Z" glyph-name="less" horiz-adv-x="499" unicode="&lt;"/><glyph d="M40 377V543H455V377H40ZM40 132V299H455V132H40Z" glyph-name="equal" horiz-adv-x="495" unicode="="/><glyph d="M44 69V224L315 317V328L44 420V576H65L463 414V230L65 69H44Z" glyph-name="greater" horiz-adv-x="499" unicode="&gt;"/><glyph d="M153 265Q153 310 169 343T209 398T268 444Q304 469 321 487T338 530Q338 570 278 570Q231 570 173 552T67 511L14 715Q80 746 167 769T340 792Q425 792 488 767T586 694T620 585Q620 531 603 494T560 434T494 382Q460 358 440 340T406 296T392 234V219H153V265ZM153 0V164H391V0H153Z" glyph-name="question" horiz-adv-x="630" unicode="?"/><glyph d="M264 -236T148 -123T32 215Q32 388 111 519T325 721T625 792Q775 792 885 740T1053 590T1112 363Q1112 238 1070 153T961 27T820 -14Q747 -14 709 15T659 89Q631 49 583 18T472 -14Q377 -14 327 52T276 235Q276 345 319 420T438 533T610 570Q671 570 739 554T866 510V161Q866 150 872 145T887 139Q903 139 917 163T941 234T950 341Q950 492 861 567T604 642Q483 642 390 590T246 445T194 229Q194 65 275 -9T500 -84Q565 -84 619 -77T699 -60V-205Q664 -217 605 -226T484 -236Q264 -236 148 -123ZM586 154T605 166T636 195V425Q610 432 586 432Q556 432 538 408T520 348V208Q520 154 566 154Q586 154 605 166Z" glyph-name="at" horiz-adv-x="1148" unicode="@"/><glyph d="M754 164H794V0H402V164H462L446 244H310L294 164H354V0H12V164H52L221 778H585L754 164ZM332 350H424L383 549H373L332 350Z" glyph-name="A" horiz-adv-x="806" unicode="A"/><glyph d="M20 164H70V614H20V778H479Q604 778 674 727T744 581Q744 522 716 482T651 421T578 393V383Q649 376 706 338T763 202Q763 97 684 49T479 0H20V164ZM404 450Q433 450 447 465T462 514V550Q462 583 448 598T404 614H350V450H404ZM411 164Q440 164 454 179T469 228V272Q469 305 455 320T411 336H350V164H411Z" glyph-name="B" horiz-adv-x="775" unicode="B"/><glyph d="M219 -14T117 82T14 389Q14 792 406 792Q501 792 582 769T704 718V468H464V540Q464 578 447 596T396 614Q362 614 345 596T328 540V238Q328 200 345 182T396 164Q430 164 447 182T464 238V319H704V60Q663 32 583 9T408 -14Q219 -14 117 82Z" glyph-name="C" horiz-adv-x="722" unicode="C"/><glyph d="M20 164H70V613H20V778H426Q593 778 691 687T790 389Q790 183 692 92T426 0H20V164ZM408 164Q442 164 459 182T476 238V540Q476 614 408 614H350V164H408Z" glyph-name="D" horiz-adv-x="804" unicode="D"/><glyph d="M20 0V164H70V614H20V778H695V476H471V614H350V456H438V342H350V164H471V322H695V0H20Z" glyph-name="E" horiz-adv-x="713" unicode="E"/><glyph d="M20 0V164H70V614H20V778H618V519H441V614H350V448H501V334H350V164H481V0H20Z" glyph-name="F" horiz-adv-x="632" unicode="F"/><glyph d="M774 250H724V50Q680 25 596 6T413 -14Q226 -14 120 84T14 389Q14 600 119 696T421 792Q516 792 599 772T724 727V488H474V535Q474 577 457 595T401 614Q363 614 346 596T328 535V243Q328 201 345 183T401 164Q439 164 456 182T474 243V250H420V399H774V250Z" glyph-name="G" horiz-adv-x="782" unicode="G"/><glyph d="M820 614H770V164H820V0H442V164H490V329H350V164H398V0H20V164H70V614H20V778H398V614H350V462H490V614H442V778H820V614Z" glyph-name="H" horiz-adv-x="840" unicode="H"/><glyph d="M20 0V164H70V614H20V778H400V614H350V164H400V0H20Z" glyph-name="I" horiz-adv-x="420" unicode="I"/><glyph d="M196 -14T127 3T12 52V228H212V218Q212 164 264 164Q291 164 304 178T318 224V614H228V778H648V614H598V278Q598 131 512 59T273 -14Q196 -14 127 3Z" glyph-name="J" horiz-adv-x="666" unicode="J"/><glyph d="M769 164H819V0H546L396 310L350 272V164H398V0H20V164H70V614H20V778H398V614H350V482L505 614H442V778H814V614H764L597 476L769 164Z" glyph-name="K" horiz-adv-x="835" unicode="K"/><glyph d="M20 0V164H70V614H20V778H442V614H350V164H440V256H639V0H20Z" glyph-name="L" horiz-adv-x="653" unicode="L"/><glyph d="M1123 614H1073V164H1123V0H745V164H793V514L623 0H475L300 509V164H348V0H20V164H70V614H20V778H478L582 466L682 778H1123V614Z" glyph-name="M" horiz-adv-x="1143" unicode="M"/><glyph d="M596 778H924V614H874V0H593L300 451V164H348V0H20V164H70V614H20V778H381L644 377V614H596V778Z" glyph-name="N" horiz-adv-x="942" unicode="N"/><glyph d="M213 -14T114 82T14 389Q14 600 113 696T396 792Q579 792 678 696T778 389Q778 178 679 82T396 -14Q213 -14 114 82ZM430 164T447 182T464 238V540Q464 578 447 596T396 614Q362 614 345 596T328 540V238Q328 199 345 182T396 164Q430 164 447 182Z" glyph-name="O" horiz-adv-x="792" unicode="O"/><glyph d="M20 164H70V614H20V778H459Q588 778 656 723T724 543Q724 419 656 364T459 308H350V164H446V0H20V164ZM384 450Q442 450 442 514V550Q442 583 428 598T384 614H350V450H384Z" glyph-name="P" horiz-adv-x="738" unicode="P"/><glyph d="M582 -78T455 -65T235 -10T81 118Q14 215 14 389Q14 592 114 692T396 792Q576 792 677 704T778 439Q778 363 754 297T669 174L674 164H794V-78Q582 -78 455 -65ZM464 164T464 238V540Q464 614 396 614Q328 614 328 540V238Q328 164 396 164Q464 164 464 238Z" glyph-name="Q" horiz-adv-x="810" unicode="Q"/><glyph d="M20 164H70V614H20V778H479Q608 778 676 725T744 553Q744 486 717 437T640 369L641 359Q737 344 737 241V164H784V0H467V235Q467 274 456 294T420 321T350 328V164H416V0H20V164ZM404 450Q433 450 447 465T462 514V550Q462 583 448 598T404 614H350V450H404Z" glyph-name="R" horiz-adv-x="800" unicode="R"/><glyph d="M234 -14T149 2T17 40V238H237Q237 207 251 193T302 179Q333 179 346 188T360 217Q360 233 347 244T302 268L216 298Q105 340 57 397T8 551Q8 669 85 730T344 792Q431 792 507 775T631 728V549H431Q431 599 369 599Q339 599 327 592T314 565Q314 548 328 538T376 517L463 487Q569 451 617 394T666 243Q666 116 581 51T330 -14Q234 -14 149 2Z" glyph-name="S" horiz-adv-x="674" unicode="S"/><glyph d="M766 536H594V614H530V164H600V0H180V164H250V614H186V536H14V778H766V536Z" glyph-name="T" horiz-adv-x="780" unicode="T"/><glyph d="M237 -14T152 55T66 279V614H16V778H386V614H346V228Q346 195 360 180T404 164Q433 164 447 179T462 228V614H422V778H765V614H715V279Q715 124 632 55T394 -14Q237 -14 152 55Z" glyph-name="U" horiz-adv-x="781" unicode="U"/><glyph d="M440 778H774V614H734L555 0H231L52 614H12V778H396V614H344L413 279H423L492 614H440V778Z" glyph-name="V" horiz-adv-x="786" unicode="V"/><glyph d="M875 778H1195V614H1155L1006 0H707L616 432H606L510 0H211L52 614H12V778H382V614H344L383 359H393L488 778H776L864 359H874L913 614H875V778Z" glyph-name="W" horiz-adv-x="1207" unicode="W"/><glyph d="M744 164H786V0H408V164H449L391 246H381L323 164H364V0H14V164H66L258 380L58 614H16V778H391V614H353L408 532H418L473 614H435V778H782V614H730L541 401L744 164Z" glyph-name="X" horiz-adv-x="800" unicode="X"/><glyph d="M457 778H764V614H724L531 268V164H581V0H201V164H251V268L52 614H12V778H399V614H364L423 459H433L492 614H457V778Z" glyph-name="Y" horiz-adv-x="776" unicode="Y"/><glyph d="M476 246H675V0H14V144L322 614H218V532H19V778H659V634L352 164H476V246Z" glyph-name="Z" horiz-adv-x="689" unicode="Z"/><glyph d="M311 -286L44 -263V873L311 896L323 767L212 744V-134L323 -157L311 -286Z" glyph-name="bracketleft" horiz-adv-x="325" unicode="["/><glyph d="M300 -151L-20 810V842H123L444 -119V-151H300Z" glyph-name="backslash" horiz-adv-x="424" unicode="\"/><glyph d="M14 -286L2 -157L113 -134V744L2 767L14 896L281 873V-263L14 -286Z" glyph-name="bracketright" horiz-adv-x="325" unicode="]"/><glyph d="M14 522V537L131 778H282L399 537V522H273L211 664H202L140 522H14Z" glyph-name="asciicircum" horiz-adv-x="413" unicode="^"/><glyph d="M0 -166V-72H600V-166H0Z" glyph-name="underscore" horiz-adv-x="600" unicode="_"/><glyph d="M203 611L40 751V778H254L363 626V611H203Z" glyph-name="grave" horiz-adv-x="403" unicode="`"/><glyph d="M601 164V0H337V68Q315 36 276 11T179 -14Q104 -14 61 26T18 139Q18 328 339 333Q336 367 313 379T235 392Q190 392 139 383T44 357V541Q97 554 159 562T280 570Q429 570 493 516T557 349V164H601ZM337 234Q292 234 268 222T243 182Q243 165 253 155T283 144Q309 144 323 166T337 228V234Z" glyph-name="a" horiz-adv-x="615" unicode="a"/><glyph d="M396 -14T357 11T292 68V0H18V164H62V614H18V778H292V488Q317 520 356 545T447 570Q549 570 600 494T652 278Q652 138 601 62T447 -14Q396 -14 357 11ZM379 164T393 179T408 228V328Q408 361 394 376T350 392Q321 392 307 377T292 328V228Q292 195 306 180T350 164Q379 164 393 179Z" glyph-name="b" horiz-adv-x="662" unicode="b"/><glyph d="M174 -14T94 60T14 278Q14 421 94 495T316 570Q385 570 448 551T546 508V310H374V328Q374 361 360 376T316 392Q258 392 258 328V242Q258 164 347 164Q430 164 540 182V25Q506 10 445 -2T317 -14Q174 -14 94 60Z" glyph-name="c" horiz-adv-x="562" unicode="c"/><glyph d="M113 -14T62 62T10 278Q10 418 61 494T215 570Q266 570 305 545T370 488V614H311V778H600V164H644V0H370V68Q345 36 306 11T215 -14Q113 -14 62 62ZM341 164T355 179T370 228V328Q370 361 356 376T312 392Q283 392 269 377T254 328V228Q254 195 268 180T312 164Q341 164 355 179Z" glyph-name="d" horiz-adv-x="658" unicode="d"/><glyph d="M174 -14T94 60T14 278Q14 421 94 495T316 570Q457 570 519 497T582 314V242H258V236Q258 199 280 182T353 164Q414 164 469 173T565 196V36Q530 17 463 2T316 -14Q174 -14 94 60ZM374 352V364Q374 398 360 413T316 428Q287 428 273 413T258 364V352H374Z" glyph-name="e" horiz-adv-x="594" unicode="e"/><glyph d="M18 164H62V392H18V556H64Q64 678 123 735T297 792Q352 792 395 784T459 766V609Q406 614 361 614Q322 614 307 601T292 556H370V392H292V164H370V0H18V164Z" glyph-name="f" horiz-adv-x="384" unicode="f"/><glyph d="M239 -236T174 -226T72 -203V-39Q178 -58 262 -58Q319 -58 344 -41T370 25V68Q345 36 306 11T215 -14Q113 -14 62 62T10 278Q10 418 61 494T215 570Q266 570 305 545T370 488V556H644V392H600V40Q600 -105 528 -170T311 -236Q239 -236 174 -226ZM341 164T355 179T370 228V328Q370 361 356 376T312 392Q283 392 269 377T254 328V228Q254 195 268 180T312 164Q341 164 355 179Z" glyph-name="g" horiz-adv-x="654" unicode="g"/><glyph d="M682 164V0H366V164H408V328Q408 361 394 376T352 392Q292 392 292 328V164H334V0H18V164H62V614H18V778H292V478Q329 524 372 547T472 570Q555 570 596 518T638 375V164H682Z" glyph-name="h" horiz-adv-x="696" unicode="h"/><glyph d="M66 611V778H270V611H66ZM18 0V164H62V392H18V556H292V164H336V0H18Z" glyph-name="i" horiz-adv-x="346" unicode="i"/><glyph d="M61 611V778H265V611H61ZM13 -236T-30 -229T-104 -214V-51Q-57 -58 -20 -58Q57 -58 57 14V392H-10V556H287V34Q287 -103 229 -169T54 -236Q13 -236 -30 -229Z" glyph-name="j" horiz-adv-x="313" unicode="j"/><glyph d="M621 164H664V0H419L316 192H292V0H18V164H62V614H18V778H292V372H316L440 556H651V392H610L525 297L621 164Z" glyph-name="k" horiz-adv-x="678" unicode="k"/><glyph d="M18 -1V164H62V614H18V778H292V164H336V-1H18Z" glyph-name="l" horiz-adv-x="350" unicode="l"/><glyph d="M1028 164V0H712V164H754V328Q754 361 740 376T698 392Q638 392 638 328V164H680V0H366V164H408V328Q408 361 394 376T352 392Q292 392 292 328V164H334V0H18V164H62V392H18V556H292V478Q364 570 472 570Q533 570 571 542T626 461Q662 513 708 541T818 569Q901 569 942 517T984 374V164H1028Z" glyph-name="m" horiz-adv-x="1042" unicode="m"/><glyph d="M682 164V0H366V164H408V328Q408 361 394 376T352 392Q292 392 292 328V164H334V0H18V164H62V392H18V556H292V478Q364 570 472 570Q555 570 596 518T638 375V164H682Z" glyph-name="n" horiz-adv-x="696" unicode="n"/><glyph d="M174 -14T94 60T14 278Q14 421 94 495T316 570Q460 570 539 495T618 278Q618 135 538 61T316 -14Q174 -14 94 60ZM345 164T359 179T374 228V328Q374 361 360 376T316 392Q287 392 273 377T258 328V228Q258 195 272 180T316 164Q345 164 359 179Z" glyph-name="o" horiz-adv-x="632" unicode="o"/><glyph d="M14 -58H58V392H14V556H288V488Q313 520 352 545T443 570Q545 570 596 494T648 278Q648 138 597 62T443 -14Q392 -14 353 11T288 68V-58H357V-222H14V-58ZM375 164T389 179T404 228V328Q404 361 390 376T346 392Q317 392 303 377T288 328V228Q288 195 302 180T346 164Q375 164 389 179Z" glyph-name="p" horiz-adv-x="658" unicode="p"/><glyph d="M301 -58H370V68Q345 36 306 11T215 -14Q113 -14 62 62T10 278Q10 418 61 494T215 570Q266 570 305 545T370 488V556H644V392H600V-222H301V-58ZM341 164T355 179T370 228V328Q370 361 356 376T312 392Q283 392 269 377T254 328V228Q254 195 268 180T312 164Q341 164 355 179Z" glyph-name="q" horiz-adv-x="652" unicode="q"/><glyph d="M465 570T483 566T513 556V365Q472 382 425 382Q362 382 328 349T294 251V164H384V0H20V164H64V392H20V556H294V483Q322 525 358 547T445 570Q465 570 483 566Z" glyph-name="r" horiz-adv-x="527" unicode="r"/><glyph d="M135 -14T18 26V174H180V164Q180 116 241 116Q295 116 295 153Q295 173 280 183T225 200L175 209Q18 237 18 387Q18 474 84 522T262 570Q387 570 473 528V389H321V399Q321 419 308 429T268 440Q218 440 218 408Q218 391 232 382T283 365L340 354Q429 337 467 291T505 173Q505 82 442 34T261 -14Q135 -14 18 26Z" glyph-name="s" horiz-adv-x="519" unicode="s"/><glyph d="M159 -14T106 37T52 211V392H8V556Q46 556 65 575T84 629V674H296V556H431V392H296V228Q296 195 310 180T354 164Q392 164 437 173V16Q409 5 362 -4T265 -14Q159 -14 106 37Z" glyph-name="t" horiz-adv-x="451" unicode="t"/><glyph d="M676 164V0H402V78Q330 -14 222 -14Q139 -14 98 38T56 181V392H12V556H286V228Q286 195 300 180T344 164Q373 164 387 179T402 228V392H348V556H632V164H676Z" glyph-name="u" horiz-adv-x="686" unicode="u"/><glyph d="M178 0L52 392H10V556H319V392H277L330 194H340L393 392H351V556H641V392H599L476 0H178Z" glyph-name="v" horiz-adv-x="651" unicode="v"/><glyph d="M184 0L52 392H10V556H319V392H277L313 236H323L396 556H580L653 236H663L698 392H656V556H946V392H904L777 0H534L479 278H469L414 0H184Z" glyph-name="w" horiz-adv-x="956" unicode="w"/><glyph d="M592 164H624V0H312V164H340L301 223H291L252 164H280V0H12V164H54L175 272L48 392H16V556H328V392H300L339 334H349L388 392H360V556H620V392H578L463 286L592 164Z" glyph-name="x" unicode="x"/><glyph d="M620 556V392H582L451 45Q402 -86 339 -151T173 -217Q131 -217 88 -209T10 -185V-4H148V-14Q148 -39 174 -39Q197 -39 209 -17L51 392H13V556H310V392H276L328 236L376 392H342V556H620Z" glyph-name="y" horiz-adv-x="632" unicode="y"/><glyph d="M14 0V149L258 392H169V356H20V556H545V413L307 164H403V220H554V0H14Z" glyph-name="z" horiz-adv-x="568" unicode="z"/><glyph d="M211 -247T165 -238T85 -197T52 -102Q52 -63 55 -36T65 39Q78 113 78 179Q78 216 61 232T22 249V358Q44 358 61 374T78 428Q78 493 65 567Q58 615 55 642T52 709Q52 771 85 803T164 844T271 853V764Q217 764 217 699Q217 665 220 638T229 574Q241 498 241 440Q241 336 164 303Q241 269 241 167Q241 109 229 33Q223 -4 220 -31T217 -92Q217 -129 233 -143T271 -158V-247Q211 -247 165 -238Z" glyph-name="braceleft" horiz-adv-x="299" unicode="{"/><glyph d="M62 -327V940H193V-327H62Z" glyph-name="bar" horiz-adv-x="255" unicode="|"/><glyph d="M28 -158Q83 -158 83 -92Q83 -58 80 -31T71 33Q58 104 58 167Q58 269 136 303Q58 336 58 440Q58 503 71 574Q77 611 80 638T83 699Q83 736 68 750T28 764V853Q88 853 134 844T214 803T247 709Q247 643 234 567Q222 487 222 428Q222 390 238 374T277 358V249Q256 249 239 233T222 179Q222 113 235 39Q241 -2 244 -32T247 -102Q247 -165 214 -197T135 -238T28 -247V-158Z" glyph-name="braceright" horiz-adv-x="299" unicode="}"/><glyph d="M405 288T374 294T301 312Q257 324 225 330T153 336Q116 336 100 325T83 299H30Q30 481 182 481Q219 481 247 476T323 458Q366 446 397 440T467 434Q532 434 532 470H588Q588 392 561 340T443 288Q405 288 374 294Z" glyph-name="asciitilde" horiz-adv-x="618" unicode="~"/><glyph glyph-name="uni00A0" horiz-adv-x="300"/><glyph d="M56 392V556H282V392H56ZM20 -222V-172L66 337H272L319 -172V-222H20Z" glyph-name="exclamdown" horiz-adv-x="345" unicode="¡"/><glyph d="M234 -8Q126 10 67 82T8 278Q8 400 67 473T234 564V657H365V567Q418 561 466 544T540 508V310H368V328Q368 361 354 376T310 392Q252 392 252 328V242Q252 164 341 164Q424 164 534 182V25Q509 15 463 4T365 -12V-104H234V-8Z" glyph-name="cent" horiz-adv-x="554" unicode="¢"/><glyph d="M370 -14T346 -10T293 4Q264 12 245 16T202 20Q166 20 143 11T110 -10L24 76Q110 176 110 283Q110 305 109 315H25V440H73Q50 491 50 567Q50 629 82 680T180 761T345 792Q416 792 480 777T591 735V569H410V590Q407 601 394 609T355 618Q321 618 306 602T290 548Q290 524 294 503T311 440H477V315H330Q329 247 301 197Q324 187 344 182T391 177Q432 177 449 192T466 228H612Q612 126 570 56T402 -14Q370 -14 346 -10Z" glyph-name="sterling" horiz-adv-x="632" unicode="£"/><glyph d="M8 160L88 240Q79 273 79 327Q79 375 88 412L8 493L116 601L181 535Q226 556 292 556Q358 556 403 535L469 601L576 493L496 413Q506 377 506 327Q506 282 496 239L576 160L469 53L402 119Q359 98 292 98Q225 98 182 119L116 53L8 160ZM330 221T346 246T363 327Q363 383 347 408T292 433Q255 433 239 409T222 327Q222 271 238 246T292 221Q330 221 346 246Z" glyph-name="currency" horiz-adv-x="584" unicode="¤"/><glyph d="M453 778H755V614H720L631 454H720V375H587L549 307H720V228H527V164H587V0H187V164H247V228H45V307H225L185 375H45V454H140L48 614H12V778H395V614H360L419 459H429L488 614H453V778Z" glyph-name="yen" horiz-adv-x="767" unicode="¥"/><glyph d="M62 406V940H193V406H62ZM62 -327V208H193V-327H62Z" glyph-name="brokenbar" horiz-adv-x="255" unicode="¦"/><glyph d="M218 -94T162 -85T76 -63V76Q114 69 161 64T240 58Q282 58 297 65T312 87Q312 97 306 102T286 113T235 127Q133 152 78 194T22 312Q22 399 86 448Q66 485 66 533Q66 616 128 666T321 716Q385 716 438 707T518 686V551Q432 565 363 565Q322 565 304 559T286 538Q286 524 300 518T362 502Q469 481 523 439T578 320Q578 278 563 240T519 177Q534 144 534 98Q534 6 472 -44T282 -94Q218 -94 162 -85ZM347 270T363 270Q384 270 391 277T398 299Q398 318 381 329T316 351Q276 360 247 360Q225 360 217 353T209 330Q209 310 228 299T302 278Q347 270 363 270Z" glyph-name="section" horiz-adv-x="604" unicode="§"/><glyph d="M40 611V778H207V611H40ZM296 611V778H462V611H296Z" glyph-name="dieresis" horiz-adv-x="502" unicode="¨"/><glyph d="M269 126T193 169T74 289T30 459Q30 553 73 629T193 748T363 792Q457 792 533 749T652 629T696 459Q696 365 653 289T533 170T363 126Q269 126 193 169ZM427 231T479 261T561 343T591 459Q591 523 561 575T479 657T363 687Q299 687 247 657T165 575T135 459Q135 395 165 343T247 261T363 231Q427 231 479 261ZM213 300T213 460Q213 620 361 620Q401 620 434 610T483 588V490H398V530Q398 545 389 551T361 558Q343 558 334 552T325 530V389Q325 362 361 362Q398 362 398 389V433H483V331Q467 319 434 310T362 300Q213 300 213 460Z" glyph-name="copyright" horiz-adv-x="726" unicode="©"/><glyph d="M58 500T33 520T8 578Q8 674 188 674Q188 695 179 704T142 713Q81 713 26 698V774Q48 781 86 786T165 792Q242 792 272 763T303 671V589H325V507H188V541Q176 525 155 513T101 500Q58 500 33 520ZM161 579T174 590T188 621V624Q144 624 127 619T110 598Q110 579 141 579Q161 579 174 590Z" glyph-name="ordfeminine" horiz-adv-x="337" unicode="ª"/><glyph d="M158 61L42 253V300L158 492H289L210 284V269L289 61H158ZM379 61L263 253V300L379 492H510L431 284V269L510 61H379Z" glyph-name="guillemotleft" horiz-adv-x="520" unicode="«"/><glyph d="M501 426V124H340V282H40V426H501Z" glyph-name="logicalnot" horiz-adv-x="547" unicode="¬"/><glyph d="M34 199V363H325V199H34Z" glyph-name="uni00AD" horiz-adv-x="359" unicode="­"/><glyph d="M269 126T193 169T74 289T30 459Q30 553 73 629T193 748T363 792Q457 792 533 749T652 629T696 459Q696 365 653 289T533 170T363 126Q269 126 193 169ZM427 231T479 261T561 343T591 459Q591 523 561 575T479 657T363 687Q299 687 247 657T165 575T135 459Q135 395 165 343T247 261T363 231Q427 231 479 261ZM217 375H244V546H217V616H402Q507 616 507 527Q507 472 467 452V448Q486 444 495 434T505 401V375H525V306H404V398Q404 421 390 428T346 436V375H372V306H217V375ZM382 485Q392 485 397 490T402 510V531Q402 556 382 556H346V485H382Z" glyph-name="registered" horiz-adv-x="726" unicode="®"/><glyph d="M40 640V758H398V640H40Z" glyph-name="overscore" horiz-adv-x="438" unicode="¯"/><glyph d="M86 556T53 589T20 674Q20 726 53 759T138 792Q190 792 223 759T256 674Q256 622 223 589T138 556Q86 556 53 589ZM158 628T170 641T183 674Q183 694 171 706T138 719Q118 719 105 707T92 674Q92 654 105 641T138 628Q158 628 170 641Z" glyph-name="degree" horiz-adv-x="276" unicode="°"/><glyph d="M206 251V415H40V582H206V748H373V582H537V415H373V251H206ZM57 42V200H517V42H57Z" glyph-name="plusminus" horiz-adv-x="577" unicode="±"/><glyph d="M20 483Q20 533 41 567T115 645Q132 658 138 667T144 687Q144 711 107 711Q70 711 27 695V796Q83 821 156 821Q219 821 254 790T290 706Q290 667 273 644T222 595Q197 576 186 563T174 529H295V429H20V483Z" glyph-name="uni00B2" horiz-adv-x="315" unicode="²"/><glyph d="M293 599T293 535Q293 481 250 451T135 421Q100 421 68 426T20 439V531Q58 523 89 523Q122 523 136 531T151 556Q151 572 139 579T99 587H82V663H99Q127 663 138 669T150 692Q150 709 137 716T93 723Q60 723 23 715V805Q86 823 146 823Q211 823 248 795T285 714Q285 656 233 628Q293 599 293 535Z" glyph-name="uni00B3" horiz-adv-x="313" unicode="³"/><glyph d="M40 611V626L149 778H363V751L200 611H40Z" glyph-name="acute" horiz-adv-x="403" unicode="´"/><glyph d="M44 392H0V556H274V228Q274 195 288 180T332 164Q361 164 375 179T390 228V392H336V556H620V164H664V0H390V68Q368 38 327 12T237 -14L274 -222H44V392Z" glyph-name="uni00B5" horiz-adv-x="674" unicode="µ"/><glyph d="M290 301Q152 301 83 367T14 547Q14 610 44 666T133 757T278 792Q328 792 366 786T452 766Q499 754 531 748T604 742Q654 742 677 756T701 792H757Q757 734 744 692T687 624V-160H523V600Q497 603 453 615V-160H290V301Z" glyph-name="paragraph" horiz-adv-x="759" unicode="¶"/><glyph d="M24 320V472H180V320H24Z" glyph-name="middot" horiz-adv-x="204" unicode="·"/><glyph d="M106 -246T40 -228V-157Q101 -171 152 -171Q169 -171 177 -162T186 -139Q186 -125 178 -116T152 -107H108V0H203V-39Q248 -39 276 -63T304 -133Q304 -187 267 -216T163 -246Q106 -246 40 -228Z" glyph-name="cedilla" horiz-adv-x="344" unicode="¸"/><glyph d="M28 429V535H76V706H20V774L109 811H216V535H258V429H28Z" glyph-name="uni00B9" horiz-adv-x="278" unicode="¹"/><glyph d="M90 500T50 537T10 646Q10 717 50 754T161 792Q237 792 274 752T312 646Q312 574 272 537T161 500Q90 500 50 537ZM181 579T190 586T200 611V681Q200 713 161 713Q122 713 122 681V611Q122 594 131 587T161 579Q181 579 190 586Z" glyph-name="ordmasculine" horiz-adv-x="322" unicode="º"/><glyph d="M10 61L89 269V284L10 492H141L257 300V253L141 61H10ZM231 61L310 269V284L231 492H362L478 300V253L362 61H231Z" glyph-name="guillemotright" horiz-adv-x="520" unicode="»"/><glyph d="M38 396V502H86V673H30V741L119 778H226V502H268V396H38ZM115 0V32L580 778H682V746L218 0H115ZM586 0V64H426V146L585 382H716V141H746V64H716V0H586ZM513 141H586V249L513 141Z" glyph-name="onequarter" horiz-adv-x="776" unicode="¼"/><glyph d="M38 396V502H86V673H30V741L119 778H226V502H268V396H38ZM115 0V32L580 778H682V746L218 0H115ZM506 54Q506 104 527 138T601 216Q618 229 624 238T630 258Q630 282 593 282Q556 282 513 266V367Q569 392 642 392Q705 392 740 361T776 277Q776 238 759 215T708 166Q683 147 672 134T660 100H781V0H506V54Z" glyph-name="onehalf" horiz-adv-x="811" unicode="½"/><glyph d="M303 564T303 500Q303 446 260 416T145 386Q110 386 78 391T30 404V496Q68 488 99 488Q132 488 146 496T161 521Q161 537 149 544T109 552H92V628H109Q137 628 148 634T160 657Q160 674 147 681T103 688Q70 688 33 680V770Q96 788 156 788Q221 788 258 760T295 679Q295 621 243 593Q303 564 303 500ZM117 0V32L582 778H684V746L220 0H117ZM588 0V64H428V146L587 382H718V141H748V64H718V0H588ZM515 141H588V249L515 141Z" glyph-name="threequarters" horiz-adv-x="778" unicode="¾"/><glyph d="M239 392V556H477V392H239ZM205 -236T142 -211T44 -138T10 -29Q10 25 27 62T70 122T136 174Q170 198 190 216T224 260T238 322V337H477V291Q477 246 461 213T421 158T362 112Q326 87 309 69T292 26Q292 -14 352 -14Q399 -14 457 4T563 45L616 -159Q550 -190 463 -213T290 -236Q205 -236 142 -211Z" glyph-name="questiondown" horiz-adv-x="630" unicode="¿"/><glyph d="M754 164H794V0H402V164H462L446 244H310L294 164H354V0H12V164H52L221 778H585L754 164ZM332 350H424L383 549H373L332 350ZM338 838L175 923V949H426L535 853V838H338Z" glyph-name="Agrave" horiz-adv-x="806" unicode="À"/><glyph d="M754 164H794V0H402V164H462L446 244H310L294 164H354V0H12V164H52L221 778H585L754 164ZM332 350H424L383 549H373L332 350ZM273 838V853L382 949H633V923L470 838H273Z" glyph-name="Aacute" horiz-adv-x="806" unicode="Á"/><glyph d="M754 164H794V0H402V164H462L446 244H310L294 164H354V0H12V164H52L221 778H585L754 164ZM332 350H424L383 549H373L332 350ZM151 838V853L278 979H528L655 853V838H501L408 919H398L305 838H151Z" glyph-name="Acircumflex" horiz-adv-x="806" unicode="Â"/><glyph d="M754 164H794V0H402V164H462L446 244H310L294 164H354V0H12V164H52L221 778H585L754 164ZM332 350H424L383 549H373L332 350ZM488 838T460 843T391 858Q349 867 325 871T277 876Q251 876 234 866T217 839H161Q161 923 188 959T291 996Q324 996 354 991T424 976Q462 968 484 964T529 960Q557 960 573 969T589 995H645Q645 939 634 906T595 855T515 838Q488 838 460 843Z" glyph-name="Atilde" horiz-adv-x="806" unicode="Ã"/><glyph d="M754 164H794V0H402V164H462L446 244H310L294 164H354V0H12V164H52L221 778H585L754 164ZM332 350H424L383 549H373L332 350ZM192 838V965H376V838H192ZM430 838V965H614V838H430Z" glyph-name="Adieresis" horiz-adv-x="806" unicode="Ä"/><glyph d="M754 164H794V0H402V164H462L446 244H310L294 164H354V0H12V164H52L221 778H585L754 164ZM332 350H424L383 549H373L332 350ZM346 838T309 872T272 958Q272 1010 309 1044T403 1078Q460 1078 497 1044T534 958Q534 906 497 872T403 838Q346 838 309 872ZM422 912T434 925T446 958Q446 978 434 990T403 1003Q384 1003 372 991T359 958Q359 938 371 925T403 912Q422 912 434 925Z" glyph-name="Aring" horiz-adv-x="806" unicode="Å"/><glyph d="M1120 476H896V614H775V456H863V342H775V164H896V322H1120V0H445V164H495V244H358L329 164H389V0H12V164H52L311 778H1120V476ZM401 360H495V591H485L401 360Z" glyph-name="AE" horiz-adv-x="1138" unicode="Æ"/><glyph d="M464 468V540Q464 578 447 596T396 614Q362 614 345 596T328 540V238Q328 200 345 182T396 164Q430 164 447 182T464 238V319H704V60Q669 36 602 15T455 -12V-39Q500 -39 528 -63T556 -133Q556 -187 519 -216T415 -246Q358 -246 292 -228V-157Q353 -171 404 -171Q421 -171 429 -162T438 -139Q438 -125 430 -116T404 -107H360V-12Q14 11 14 389Q14 792 406 792Q501 792 582 769T704 718V468H464Z" glyph-name="Ccedilla" horiz-adv-x="722" unicode="Ç"/><glyph d="M20 0V164H70V614H20V778H695V476H471V614H350V456H438V342H350V164H471V322H695V0H20ZM318 838L155 923V949H406L515 853V838H318Z" glyph-name="Egrave" horiz-adv-x="713" unicode="È"/><glyph d="M20 0V164H70V614H20V778H695V476H471V614H350V456H438V342H350V164H471V322H695V0H20ZM253 838V853L362 949H613V923L450 838H253Z" glyph-name="Eacute" horiz-adv-x="713" unicode="É"/><glyph d="M20 0V164H70V614H20V778H695V476H471V614H350V456H438V342H350V164H471V322H695V0H20ZM131 838V853L258 979H508L635 853V838H481L388 919H378L285 838H131Z" glyph-name="Ecircumflex" horiz-adv-x="713" unicode="Ê"/><glyph d="M20 0V164H70V614H20V778H695V476H471V614H350V456H438V342H350V164H471V322H695V0H20ZM172 838V965H356V838H172ZM410 838V965H594V838H410Z" glyph-name="Edieresis" horiz-adv-x="713" unicode="Ë"/><glyph d="M20 0V164H70V614H20V778H400V614H350V164H400V0H20ZM145 838L-18 923V949H233L342 853V838H145Z" glyph-name="Igrave" horiz-adv-x="420" unicode="Ì"/><glyph d="M20 0V164H70V614H20V778H400V614H350V164H400V0H20ZM80 838V853L189 949H440V923L277 838H80Z" glyph-name="Iacute" horiz-adv-x="420" unicode="Í"/><glyph d="M20 0V164H70V614H20V778H400V614H350V164H400V0H20ZM-42 838V853L85 979H335L462 853V838H308L215 919H205L112 838H-42Z" glyph-name="Icircumflex" horiz-adv-x="420" unicode="Î"/><glyph d="M20 0V164H70V614H20V778H400V614H350V164H400V0H20ZM-1 838V965H183V838H-1ZM237 838V965H421V838H237Z" glyph-name="Idieresis" horiz-adv-x="420" unicode="Ï"/><glyph d="M611 778T709 687T808 389Q808 183 710 92T444 0H28V164H88V311H17V475H88V613H28V778H444Q611 778 709 687ZM494 540Q494 614 426 614H368V475H429V311H368V164H426Q460 164 477 182T494 238V540Z" glyph-name="Eth" horiz-adv-x="826" unicode="Ð"/><glyph d="M596 778H924V614H874V0H593L300 451V164H348V0H20V164H70V614H20V778H381L644 377V614H596V778ZM566 838T538 843T469 858Q427 867 403 871T355 876Q329 876 312 866T295 839H239Q239 923 266 959T369 996Q402 996 432 991T502 976Q540 968 562 964T607 960Q635 960 651 969T667 995H723Q723 939 712 906T673 855T593 838Q566 838 538 843Z" glyph-name="Ntilde" horiz-adv-x="942" unicode="Ñ"/><glyph d="M213 -14T114 82T14 389Q14 600 113 696T396 792Q579 792 678 696T778 389Q778 178 679 82T396 -14Q213 -14 114 82ZM430 164T447 182T464 238V540Q464 578 447 596T396 614Q362 614 345 596T328 540V238Q328 199 345 182T396 164Q430 164 447 182ZM331 838L168 923V949H419L528 853V838H331Z" glyph-name="Ograve" horiz-adv-x="792" unicode="Ò"/><glyph d="M213 -14T114 82T14 389Q14 600 113 696T396 792Q579 792 678 696T778 389Q778 178 679 82T396 -14Q213 -14 114 82ZM430 164T447 182T464 238V540Q464 578 447 596T396 614Q362 614 345 596T328 540V238Q328 199 345 182T396 164Q430 164 447 182ZM266 838V853L375 949H626V923L463 838H266Z" glyph-name="Oacute" horiz-adv-x="792" unicode="Ó"/><glyph d="M213 -14T114 82T14 389Q14 600 113 696T396 792Q579 792 678 696T778 389Q778 178 679 82T396 -14Q213 -14 114 82ZM430 164T447 182T464 238V540Q464 578 447 596T396 614Q362 614 345 596T328 540V238Q328 199 345 182T396 164Q430 164 447 182ZM144 838V853L271 979H521L648 853V838H494L401 919H391L298 838H144Z" glyph-name="Ocircumflex" horiz-adv-x="792" unicode="Ô"/><glyph d="M213 -14T114 82T14 389Q14 600 113 696T396 792Q579 792 678 696T778 389Q778 178 679 82T396 -14Q213 -14 114 82ZM430 164T447 182T464 238V540Q464 578 447 596T396 614Q362 614 345 596T328 540V238Q328 199 345 182T396 164Q430 164 447 182ZM481 838T453 843T384 858Q342 867 318 871T270 876Q244 876 227 866T210 839H154Q154 923 181 959T284 996Q317 996 347 991T417 976Q455 968 477 964T522 960Q550 960 566 969T582 995H638Q638 939 627 906T588 855T508 838Q481 838 453 843Z" glyph-name="Otilde" horiz-adv-x="792" unicode="Õ"/><glyph d="M213 -14T114 82T14 389Q14 600 113 696T396 792Q579 792 678 696T778 389Q778 178 679 82T396 -14Q213 -14 114 82ZM430 164T447 182T464 238V540Q464 578 447 596T396 614Q362 614 345 596T328 540V238Q328 199 345 182T396 164Q430 164 447 182ZM185 838V965H369V838H185ZM423 838V965H607V838H423Z" glyph-name="Odieresis" horiz-adv-x="792" unicode="Ö"/><glyph d="M156 80L32 203L161 332L32 462L156 586L285 456L415 586L538 462L408 332L538 203L415 80L285 209L156 80Z" glyph-name="multiply" horiz-adv-x="570" unicode="×"/><glyph d="M778 571T778 389Q778 178 679 82T396 -14Q257 -14 168 40L134 0H24V30L90 108Q14 209 14 389Q14 600 113 696T396 792Q537 792 624 739L658 779H768V749L701 670Q778 571 778 389ZM322 382L470 556Q467 589 449 604T396 620Q359 620 341 602T322 546V382ZM433 158T451 176T470 232V397L322 222Q324 188 342 173T396 158Q433 158 451 176Z" glyph-name="Oslash" horiz-adv-x="792" unicode="Ø"/><glyph d="M237 -14T152 55T66 279V614H16V778H386V614H346V228Q346 195 360 180T404 164Q433 164 447 179T462 228V614H422V778H765V614H715V279Q715 124 632 55T394 -14Q237 -14 152 55ZM337 838L174 923V949H425L534 853V838H337Z" glyph-name="Ugrave" horiz-adv-x="781" unicode="Ù"/><glyph d="M237 -14T152 55T66 279V614H16V778H386V614H346V228Q346 195 360 180T404 164Q433 164 447 179T462 228V614H422V778H765V614H715V279Q715 124 632 55T394 -14Q237 -14 152 55ZM272 838V853L381 949H632V923L469 838H272Z" glyph-name="Uacute" horiz-adv-x="781" unicode="Ú"/><glyph d="M237 -14T152 55T66 279V614H16V778H386V614H346V228Q346 195 360 180T404 164Q433 164 447 179T462 228V614H422V778H765V614H715V279Q715 124 632 55T394 -14Q237 -14 152 55ZM150 838V853L277 979H527L654 853V838H500L407 919H397L304 838H150Z" glyph-name="Ucircumflex" horiz-adv-x="781" unicode="Û"/><glyph d="M237 -14T152 55T66 279V614H16V778H386V614H346V228Q346 195 360 180T404 164Q433 164 447 179T462 228V614H422V778H765V614H715V279Q715 124 632 55T394 -14Q237 -14 152 55ZM191 838V965H375V838H191ZM429 838V965H613V838H429Z" glyph-name="Udieresis" horiz-adv-x="781" unicode="Ü"/><glyph d="M457 778H764V614H724L531 268V164H581V0H201V164H251V268L52 614H12V778H399V614H364L423 459H433L492 614H457V778ZM298 838V853L407 949H658V923L495 838H298Z" glyph-name="Yacute" horiz-adv-x="776" unicode="Ý"/><glyph d="M597 569T659 532T722 404Q722 229 486 229H368V164H464V0H28V164H88V614H28V778H428V614H368V569H486Q597 569 659 532ZM440 391Q440 413 427 424T392 435H368V331H392Q414 331 427 342T440 375V391Z" glyph-name="Thorn" horiz-adv-x="762" unicode="Þ"/><glyph d="M459 -14T415 -5T342 17V156Q360 148 382 143T423 138Q473 138 473 174Q473 193 459 208T415 246Q371 279 347 309T323 385Q323 414 333 436T364 487Q382 511 390 528T399 567Q399 590 387 602T346 614Q316 614 304 600T292 555V0H18V164H62V392H18V556H64Q64 643 94 694T187 769T353 792Q477 792 547 748T618 609Q618 569 604 541T565 478Q548 454 541 440T533 411Q533 385 548 369T597 328Q629 305 648 288T681 241T695 169Q695 86 646 36T501 -14Q459 -14 415 -5Z" glyph-name="germandbls" horiz-adv-x="709" unicode="ß"/><glyph d="M601 164V0H337V68Q315 36 276 11T179 -14Q104 -14 61 26T18 139Q18 328 339 333Q336 367 313 379T235 392Q190 392 139 383T44 357V541Q97 554 159 562T280 570Q429 570 493 516T557 349V164H601ZM337 234Q292 234 268 222T243 182Q243 165 253 155T283 144Q309 144 323 166T337 228V234ZM237 616L74 756V783H288L397 631V616H237Z" glyph-name="agrave" horiz-adv-x="615" unicode="à"/><glyph d="M601 164V0H337V68Q315 36 276 11T179 -14Q104 -14 61 26T18 139Q18 328 339 333Q336 367 313 379T235 392Q190 392 139 383T44 357V541Q97 554 159 562T280 570Q429 570 493 516T557 349V164H601ZM337 234Q292 234 268 222T243 182Q243 165 253 155T283 144Q309 144 323 166T337 228V234ZM228 616V631L337 783H551V756L388 616H228Z" glyph-name="aacute" horiz-adv-x="615" unicode="á"/><glyph d="M601 164V0H337V68Q315 36 276 11T179 -14Q104 -14 61 26T18 139Q18 328 339 333Q336 367 313 379T235 392Q190 392 139 383T44 357V541Q97 554 159 562T280 570Q429 570 493 516T557 349V164H601ZM337 234Q292 234 268 222T243 182Q243 165 253 155T283 144Q309 144 323 166T337 228V234ZM98 616V631L216 783H414L532 631V616H382L320 681H310L248 616H98Z" glyph-name="acircumflex" horiz-adv-x="615" unicode="â"/><glyph d="M601 164V0H337V68Q315 36 276 11T179 -14Q104 -14 61 26T18 139Q18 328 339 333Q336 367 313 379T235 392Q190 392 139 383T44 357V541Q97 554 159 562T280 570Q429 570 493 516T557 349V164H601ZM337 234Q292 234 268 222T243 182Q243 165 253 155T283 144Q309 144 323 166T337 228V234ZM384 616T356 623T291 643Q260 654 240 659T200 664Q181 664 170 654T158 627H102Q102 713 127 755T222 798Q253 798 278 792T339 773Q369 762 389 757T430 752Q452 752 462 762T472 787H528Q528 700 506 658T415 616Q384 616 356 623Z" glyph-name="atilde" horiz-adv-x="615" unicode="ã"/><glyph d="M601 164V0H337V68Q315 36 276 11T179 -14Q104 -14 61 26T18 139Q18 328 339 333Q336 367 313 379T235 392Q190 392 139 383T44 357V541Q97 554 159 562T280 570Q429 570 493 516T557 349V164H601ZM337 234Q292 234 268 222T243 182Q243 165 253 155T283 144Q309 144 323 166T337 228V234ZM104 626V793H271V626H104ZM360 626V793H526V626H360Z" glyph-name="adieresis" horiz-adv-x="615" unicode="ä"/><glyph d="M601 164V0H337V68Q315 36 276 11T179 -14Q104 -14 61 26T18 139Q18 328 339 333Q336 367 313 379T235 392Q190 392 139 383T44 357V541Q97 554 159 562T280 570Q429 570 493 516T557 349V164H601ZM337 234Q292 234 268 222T243 182Q243 165 253 155T283 144Q309 144 323 166T337 228V234ZM263 616T228 650T193 738Q193 791 228 825T318 860Q373 860 408 826T443 738Q443 685 408 651T318 616Q263 616 228 650ZM335 695T346 707T357 738Q357 757 346 768T318 780Q301 780 290 769T278 738Q278 719 289 707T318 695Q335 695 346 707Z" glyph-name="aring" horiz-adv-x="615" unicode="å"/><glyph d="M569 242V236Q569 199 591 182T664 164Q725 164 780 173T876 196V36Q841 17 774 2T627 -14Q545 -14 483 11T381 87Q347 44 297 15T179 -14Q104 -14 61 26T18 139Q18 328 339 333Q336 367 313 379T235 392Q190 392 139 383T44 357V541Q97 554 159 562T280 570Q401 570 465 522Q537 570 638 570Q772 570 832 496T893 314V242H569ZM569 352H685V364Q685 398 671 413T627 428Q598 428 584 413T569 364V352ZM337 234Q292 234 268 222T243 182Q243 165 253 155T283 144Q309 144 323 166T337 228V234Z" glyph-name="ae" horiz-adv-x="905" unicode="æ"/><glyph d="M374 310V328Q374 361 360 376T316 392Q258 392 258 328V242Q258 164 347 164Q430 164 540 182V25Q511 13 464 2T364 -12V-39Q409 -39 437 -63T465 -133Q465 -187 428 -216T324 -246Q267 -246 201 -228V-157Q262 -171 313 -171Q330 -171 338 -162T347 -139Q347 -125 339 -116T313 -107H269V-12Q148 0 81 73T14 278Q14 421 94 495T316 570Q385 570 448 551T546 508V310H374Z" glyph-name="ccedilla" horiz-adv-x="562" unicode="ç"/><glyph d="M174 -14T94 60T14 278Q14 421 94 495T316 570Q457 570 519 497T582 314V242H258V236Q258 199 280 182T353 164Q414 164 469 173T565 196V36Q530 17 463 2T316 -14Q174 -14 94 60ZM374 352V364Q374 398 360 413T316 428Q287 428 273 413T258 364V352H374ZM238 616L75 756V783H289L398 631V616H238Z" glyph-name="egrave" horiz-adv-x="594" unicode="è"/><glyph d="M174 -14T94 60T14 278Q14 421 94 495T316 570Q457 570 519 497T582 314V242H258V236Q258 199 280 182T353 164Q414 164 469 173T565 196V36Q530 17 463 2T316 -14Q174 -14 94 60ZM374 352V364Q374 398 360 413T316 428Q287 428 273 413T258 364V352H374ZM229 616V631L338 783H552V756L389 616H229Z" glyph-name="eacute" horiz-adv-x="594" unicode="é"/><glyph d="M174 -14T94 60T14 278Q14 421 94 495T316 570Q457 570 519 497T582 314V242H258V236Q258 199 280 182T353 164Q414 164 469 173T565 196V36Q530 17 463 2T316 -14Q174 -14 94 60ZM374 352V364Q374 398 360 413T316 428Q287 428 273 413T258 364V352H374ZM99 616V631L217 783H415L533 631V616H383L321 681H311L249 616H99Z" glyph-name="ecircumflex" horiz-adv-x="594" unicode="ê"/><glyph d="M174 -14T94 60T14 278Q14 421 94 495T316 570Q457 570 519 497T582 314V242H258V236Q258 199 280 182T353 164Q414 164 469 173T565 196V36Q530 17 463 2T316 -14Q174 -14 94 60ZM374 352V364Q374 398 360 413T316 428Q287 428 273 413T258 364V352H374ZM105 626V793H272V626H105ZM361 626V793H527V626H361Z" glyph-name="edieresis" horiz-adv-x="594" unicode="ë"/><glyph d="M18 0V164H62V392H18V556H292V164H336V0H18ZM104 616L-29 756V783H175L254 631V616H104Z" glyph-name="igrave" horiz-adv-x="346" unicode="ì"/><glyph d="M18 0V164H62V392H18V556H292V164H336V0H18ZM80 616V631L189 783H403V756L240 616H80Z" glyph-name="iacute" horiz-adv-x="346" unicode="í"/><glyph d="M18 0V164H62V392H18V556H292V164H336V0H18ZM-50 616V631L68 783H266L384 631V616H234L172 681H162L100 616H-50Z" glyph-name="icircumflex" horiz-adv-x="346" unicode="î"/><glyph d="M18 0V164H62V392H18V556H292V164H336V0H18ZM-44 626V793H123V626H-44ZM212 626V793H378V626H212Z" glyph-name="idieresis" horiz-adv-x="346" unicode="ï"/><glyph d="M491 640T551 535T612 308Q612 -14 310 -14Q168 -14 88 55T8 258Q8 388 75 459T261 530Q308 530 343 519L349 527Q303 583 251 624L170 556L112 624L177 679Q135 708 79 738V759L193 830Q249 804 293 778L375 847L434 778L372 726Q491 640 551 535ZM368 288Q368 321 354 336T310 352Q281 352 267 337T252 288V228Q252 195 266 180T310 164Q339 164 353 179T368 228V288Z" glyph-name="eth" horiz-adv-x="606" unicode="ð"/><glyph d="M682 164V0H366V164H408V328Q408 361 394 376T352 392Q292 392 292 328V164H334V0H18V164H62V392H18V556H292V478Q364 570 472 570Q555 570 596 518T638 375V164H682ZM420 616T392 623T327 643Q296 654 276 659T236 664Q217 664 206 654T194 627H138Q138 713 163 755T258 798Q289 798 314 792T375 773Q405 762 425 757T466 752Q488 752 498 762T508 787H564Q564 700 542 658T451 616Q420 616 392 623Z" glyph-name="ntilde" horiz-adv-x="696" unicode="ñ"/><glyph d="M174 -14T94 60T14 278Q14 421 94 495T316 570Q460 570 539 495T618 278Q618 135 538 61T316 -14Q174 -14 94 60ZM345 164T359 179T374 228V328Q374 361 360 376T316 392Q287 392 273 377T258 328V228Q258 195 272 180T316 164Q345 164 359 179ZM238 616L75 756V783H289L398 631V616H238Z" glyph-name="ograve" horiz-adv-x="632" unicode="ò"/><glyph d="M174 -14T94 60T14 278Q14 421 94 495T316 570Q460 570 539 495T618 278Q618 135 538 61T316 -14Q174 -14 94 60ZM345 164T359 179T374 228V328Q374 361 360 376T316 392Q287 392 273 377T258 328V228Q258 195 272 180T316 164Q345 164 359 179ZM229 616V631L338 783H552V756L389 616H229Z" glyph-name="oacute" horiz-adv-x="632" unicode="ó"/><glyph d="M174 -14T94 60T14 278Q14 421 94 495T316 570Q460 570 539 495T618 278Q618 135 538 61T316 -14Q174 -14 94 60ZM345 164T359 179T374 228V328Q374 361 360 376T316 392Q287 392 273 377T258 328V228Q258 195 272 180T316 164Q345 164 359 179ZM99 616V631L217 783H415L533 631V616H383L321 681H311L249 616H99Z" glyph-name="ocircumflex" horiz-adv-x="632" unicode="ô"/><glyph d="M174 -14T94 60T14 278Q14 421 94 495T316 570Q460 570 539 495T618 278Q618 135 538 61T316 -14Q174 -14 94 60ZM345 164T359 179T374 228V328Q374 361 360 376T316 392Q287 392 273 377T258 328V228Q258 195 272 180T316 164Q345 164 359 179ZM385 616T357 623T292 643Q261 654 241 659T201 664Q182 664 171 654T159 627H103Q103 713 128 755T223 798Q254 798 279 792T340 773Q370 762 390 757T431 752Q453 752 463 762T473 787H529Q529 700 507 658T416 616Q385 616 357 623Z" glyph-name="otilde" horiz-adv-x="632" unicode="õ"/><glyph d="M174 -14T94 60T14 278Q14 421 94 495T316 570Q460 570 539 495T618 278Q618 135 538 61T316 -14Q174 -14 94 60ZM345 164T359 179T374 228V328Q374 361 360 376T316 392Q287 392 273 377T258 328V228Q258 195 272 180T316 164Q345 164 359 179ZM105 626V793H272V626H105ZM361 626V793H527V626H361Z" glyph-name="odieresis" horiz-adv-x="632" unicode="ö"/><glyph d="M179 456V608H335V456H179ZM40 260V404H481V260H40ZM179 52V204H335V52H179Z" glyph-name="divide" horiz-adv-x="521" unicode="÷"/><glyph d="M618 400T618 278Q618 135 538 61T316 -14Q196 -14 120 39L95 7H24V27L71 85Q14 157 14 278Q14 421 94 495T316 570Q435 570 509 519L538 556H608V536L558 474Q618 400 618 278ZM284 398T268 383T252 334V259L371 373Q356 398 316 398Q284 398 268 383ZM350 158T365 173T380 222V293L262 180Q278 158 316 158Q350 158 365 173Z" glyph-name="oslash" horiz-adv-x="632" unicode="ø"/><glyph d="M676 164V0H402V78Q330 -14 222 -14Q139 -14 98 38T56 181V392H12V556H286V228Q286 195 300 180T344 164Q373 164 387 179T402 228V392H348V556H632V164H676ZM239 616L76 756V783H290L399 631V616H239Z" glyph-name="ugrave" horiz-adv-x="686" unicode="ù"/><glyph d="M676 164V0H402V78Q330 -14 222 -14Q139 -14 98 38T56 181V392H12V556H286V228Q286 195 300 180T344 164Q373 164 387 179T402 228V392H348V556H632V164H676ZM230 616V631L339 783H553V756L390 616H230Z" glyph-name="uacute" horiz-adv-x="686" unicode="ú"/><glyph d="M676 164V0H402V78Q330 -14 222 -14Q139 -14 98 38T56 181V392H12V556H286V228Q286 195 300 180T344 164Q373 164 387 179T402 228V392H348V556H632V164H676ZM100 616V631L218 783H416L534 631V616H384L322 681H312L250 616H100Z" glyph-name="ucircumflex" horiz-adv-x="686" unicode="û"/><glyph d="M676 164V0H402V78Q330 -14 222 -14Q139 -14 98 38T56 181V392H12V556H286V228Q286 195 300 180T344 164Q373 164 387 179T402 228V392H348V556H632V164H676ZM106 626V793H273V626H106ZM362 626V793H528V626H362Z" glyph-name="udieresis" horiz-adv-x="686" unicode="ü"/><glyph d="M620 556V392H582L451 45Q402 -86 339 -151T173 -217Q131 -217 88 -209T10 -185V-4H148V-14Q148 -39 174 -39Q197 -39 209 -17L51 392H13V556H310V392H276L328 236L376 392H342V556H620ZM239 616V631L348 783H562V756L399 616H239Z" glyph-name="yacute" horiz-adv-x="632" unicode="ý"/><glyph d="M537 570T588 494T640 278Q640 138 589 62T435 -14Q384 -14 345 11T280 68V-58H349V-222H6V-58H50V614H6V778H280V488Q305 520 344 545T435 570Q537 570 588 494ZM396 328Q396 361 382 376T338 392Q309 392 295 377T280 328V228Q280 195 294 180T338 164Q367 164 381 179T396 228V328Z" glyph-name="thorn" horiz-adv-x="652" unicode="þ"/><glyph d="M620 556V392H582L451 45Q402 -86 339 -151T173 -217Q131 -217 88 -209T10 -185V-4H148V-14Q148 -39 174 -39Q197 -39 209 -17L51 392H13V556H310V392H276L328 236L376 392H342V556H620ZM115 626V793H282V626H115ZM371 626V793H537V626H371Z" glyph-name="ydieresis" horiz-adv-x="632" unicode="ÿ"/><glyph d="M0 199V363H553V199H0Z" glyph-name="endash" horiz-adv-x="553" unicode="–"/><glyph d="M0 199V363H939V199H0Z" glyph-name="emdash" horiz-adv-x="939" unicode="—"/><glyph d="M40 548V676L107 778H174L131 676H180V548H40Z" glyph-name="quoteleft" horiz-adv-x="210" unicode="‘"/><glyph d="M36 548L79 650H30V778H170V650L103 548H36Z" glyph-name="quoteright" horiz-adv-x="210" unicode="’"/><glyph d="M36 -102L79 0H30V128H170V0L103 -102H36Z" glyph-name="quotesinglbase" horiz-adv-x="210" unicode="‚"/><glyph d="M40 548V676L107 778H174L131 676H180V548H40ZM216 548V676L283 778H350L307 676H356V548H216Z" glyph-name="quotedblleft" horiz-adv-x="386" unicode="“"/><glyph d="M36 548L79 650H30V778H170V650L103 548H36ZM212 548L255 650H206V778H346V650L279 548H212Z" glyph-name="quotedblright" horiz-adv-x="386" unicode="”"/><glyph d="M36 -102L79 0H30V128H170V0L103 -102H36ZM212 -102L255 0H206V128H346V0L279 -102H212Z" glyph-name="quotedblbase" horiz-adv-x="386" unicode="„"/><glyph d="M113 249T74 287T35 384Q35 442 74 481T172 520Q231 520 269 482T308 384Q308 326 269 288T172 249Q113 249 74 287Z" glyph-name="bullet" horiz-adv-x="343" unicode="•"/><glyph d="M158 61L42 253V300L158 492H289L210 284V269L289 61H158Z" glyph-name="guilsinglleft" horiz-adv-x="299" unicode="‹"/><glyph d="M10 61L89 269V284L10 492H141L257 300V253L141 61H10Z" glyph-name="guilsinglright" horiz-adv-x="299" unicode="›"/></font>
</defs>
</svg>
