<?xml version="1.0" standalone="no"?>
<!DOCTYPE svg PUBLIC "-//W3C//DTD SVG 1.1//EN" "http://www.w3.org/Graphics/SVG/1.1/DTD/svg11.dtd" >
<svg xmlns="http://www.w3.org/2000/svg" xmlns:xlink="http://www.w3.org/1999/xlink" version="1.1">
<metadata>
Created by FontForge 20190801 at Tue Mar 20 14:26:17 2007
 By Jimmy Wärting
Copyright (c) Feliciano Type Foundry, 2004. All rights reserved.
</metadata>
<defs>
<font id="Flama-Italic" horiz-adv-x="500" >
  <font-face 
    font-family="Flama"
    font-weight="500"
    font-style="italic"
    font-stretch="normal"
    units-per-em="1000"
    panose-1="0 0 0 0 0 0 0 0 0 0"
    ascent="800"
    descent="-200"
    x-height="506"
    cap-height="713"
    bbox="-100 -207 1061 965"
    underline-thickness="20"
    underline-position="-110"
    slope="-12"
    stemh="74"
    unicode-range="U+0020-FB02"
  />
<missing-glyph horiz-adv-x="1000" 
 />
    <glyph glyph-name=".notdef" horiz-adv-x="1000" 
 />
    <glyph glyph-name="space" unicode=" " horiz-adv-x="210" 
 />
    <glyph glyph-name="exclam" unicode="!" horiz-adv-x="280" 
d="M284 713l-37 -206l-77 -296h-52l31 295l37 207h98zM180 128l-23 -128h-99l23 128h99z" />
    <glyph glyph-name="quotedbl" unicode="&#x22;" horiz-adv-x="400" 
d="M418 716l-18 -103l-41 -135h-55l7 135l18 103h89zM255 716l-18 -103l-41 -135h-55l7 135l18 103h89z" />
    <glyph glyph-name="numbersign" unicode="#" horiz-adv-x="571" 
d="M549 460l-10 -53h-93l-38 -196h94l-10 -53h-94l-34 -170h-51l33 170h-153l-33 -170h-51l33 170h-94l11 53h93l39 196h-96l11 53h94l31 156h51l-30 -156h153l30 156h52l-31 -156h93zM395 407h-153l-38 -196h152z" />
    <glyph glyph-name="dollar" unicode="$" horiz-adv-x="526" 
d="M531 535l-82 -27c-17 60 -54 79 -114 79c-57 0 -124 -36 -124 -100c0 -107 280 -57 280 -226c0 -118 -105 -192 -213 -205l-19 -108h-64l19 106c-93 8 -165 55 -173 154l87 24c11 -70 59 -103 127 -103c65 0 146 34 146 110c0 114 -279 57 -279 223c0 113 94 186 199 197
l14 78h64l-14 -78c76 -8 134 -44 146 -124z" />
    <glyph glyph-name="percent" unicode="%" horiz-adv-x="789" 
d="M405 631c0 -9 -1 -19 -3 -28l-24 -134c-14 -78 -83 -119 -157 -119c-61 0 -114 26 -114 93c0 9 1 17 3 26l23 134c14 80 77 123 156 123c62 0 116 -26 116 -95zM770 726l-617 -737h-76l619 737h74zM731 270c0 -9 -1 -18 -3 -27l-23 -135c-13 -77 -83 -119 -158 -119
c-60 0 -114 26 -114 93c0 9 2 18 3 26l23 134c14 81 77 124 156 124c62 0 116 -27 116 -96zM337 624c0 36 -25 51 -58 51c-43 0 -71 -23 -78 -65l-25 -142c-1 -6 -2 -12 -2 -18c0 -35 24 -46 56 -46c43 0 73 21 81 64l25 141c1 5 1 10 1 15zM664 264c0 36 -25 50 -59 50
c-43 0 -71 -23 -78 -65l-25 -141c-1 -6 -2 -13 -2 -19c0 -35 25 -46 57 -46c42 0 73 22 80 64l25 141c1 5 2 10 2 16z" />
    <glyph glyph-name="ampersand" unicode="&#x26;" horiz-adv-x="688" 
d="M708 418l-14 -76h-88c-8 -44 -16 -88 -24 -131c-28 -160 -145 -225 -299 -225c-114 0 -225 65 -225 190c0 102 77 178 170 205l1 4c-52 20 -77 80 -77 132c0 140 109 207 238 207c97 0 176 -36 217 -128l-76 -38c-29 62 -84 92 -151 92c-80 0 -133 -47 -133 -129
c0 -60 43 -103 103 -103h358zM512 342h-202c-81 0 -151 -73 -151 -153c0 -78 69 -128 142 -128c101 0 167 39 187 141c9 46 24 140 24 140z" />
    <glyph glyph-name="quoteright" unicode="&#x2019;" horiz-adv-x="243" 
d="M232 716l-23 -125l-63 -113h-51l48 112h-34l22 126h101z" />
    <glyph glyph-name="parenleft" unicode="(" horiz-adv-x="356" 
d="M246 -200h-61c-64 102 -88 247 -88 366c0 44 3 88 11 132c29 166 135 351 248 475h62c-130 -196 -222 -391 -222 -631c0 -115 18 -232 50 -342z" />
    <glyph glyph-name="parenright" unicode=")" horiz-adv-x="356" 
d="M29 -200h-61c124 192 226 418 226 650c0 111 -21 218 -54 324h62c59 -106 90 -240 90 -361c0 -39 -4 -77 -10 -115c-29 -167 -135 -377 -253 -498z" />
    <glyph glyph-name="asterisk" unicode="*" horiz-adv-x="427" 
d="M457 625l-132 -67l60 -117l-55 -32l-63 124l-108 -124l-42 32l99 116l-108 68l38 48l105 -64l22 127h58l-23 -128l128 65z" />
    <glyph glyph-name="plus" unicode="+" horiz-adv-x="597" 
d="M547 345l-10 -55h-198l-35 -200h-58l35 200h-199l10 55h199l35 200h58l-35 -200h198z" />
    <glyph glyph-name="comma" unicode="," horiz-adv-x="242" 
d="M158 131l-23 -125l-63 -113h-51l48 112h-34l22 126h101z" />
    <glyph glyph-name="hyphen" unicode="-" horiz-adv-x="364" 
d="M333 311l-13 -78h-281l13 78h281z" />
    <glyph glyph-name="period" unicode="." horiz-adv-x="242" 
d="M158 131l-23 -131h-101l23 131h101z" />
    <glyph glyph-name="slash" unicode="/" horiz-adv-x="341" 
d="M422 727l-378 -764h-68l380 764h66z" />
    <glyph glyph-name="zero" unicode="0" horiz-adv-x="578" 
d="M580 558c0 -15 -1 -30 -4 -45c-19 -105 -37 -210 -56 -314c-23 -131 -140 -211 -269 -211c-103 0 -199 47 -199 163c0 14 1 29 4 43c19 106 37 212 56 317c24 135 141 214 273 214c106 0 195 -51 195 -167zM484 544c0 70 -46 105 -113 105c-85 0 -149 -56 -164 -139
l-54 -309c-2 -10 -3 -19 -3 -29c0 -71 47 -109 116 -109c82 0 146 58 160 138l55 313c2 10 3 20 3 30z" />
    <glyph glyph-name="one" unicode="1" horiz-adv-x="555" 
d="M470 72l-13 -72h-371l13 72h142l97 549l-152 -25l9 69l196 46h52l-113 -639h140z" />
    <glyph glyph-name="two" unicode="2" horiz-adv-x="556" 
d="M509 532c-13 -71 -42 -126 -82 -176c-20 -25 -43 -49 -67 -73l-209 -200l-1 -6h290l-13 -77h-412l10 57l156 153c49 48 152 150 152 150c41 40 77 109 84 168c3 4 4 10 4 15c0 3 0 5 -1 7c1 6 1 11 1 16c0 50 -31 85 -102 85c-72 0 -126 -38 -137 -103l-3 -17h-86l3 18
c19 116 119 176 245 176c116 0 172 -62 172 -151c0 -13 -2 -28 -4 -42z" />
    <glyph glyph-name="three" unicode="3" horiz-adv-x="565" 
d="M550 572c0 -82 -57 -172 -137 -198l-1 -3c62 -20 100 -72 100 -137c0 -11 -1 -23 -3 -34c-23 -133 -129 -212 -261 -212c-87 0 -195 31 -195 135c0 18 4 36 7 53h89c-3 -11 -5 -23 -5 -35c0 -61 64 -79 114 -79c92 0 155 77 155 166c0 66 -54 102 -117 102h-54l15 72h53
c88 0 145 70 145 155c0 58 -43 93 -99 93c-53 0 -108 -20 -129 -75c-4 -10 -8 -29 -10 -39h-87l4 22c21 113 123 167 229 167c96 0 187 -49 187 -153z" />
    <glyph glyph-name="four" unicode="4" horiz-adv-x="576" 
d="M536 268l-13 -74h-94l-34 -194h-88l34 194h-302l13 73l353 446h116l-78 -445h93zM417 623h-4l-277 -355h218z" />
    <glyph glyph-name="five" unicode="5" horiz-adv-x="556" 
d="M559 713l-14 -75h-297l-55 -237c51 37 95 52 158 52c85 0 169 -62 169 -152c0 -34 -12 -78 -18 -112c-24 -129 -139 -201 -264 -201c-85 0 -186 32 -186 133c0 19 4 37 8 55h87c-2 -11 -4 -21 -4 -32c0 -59 62 -82 111 -82c82 0 138 53 155 140c5 26 13 59 13 86
c0 62 -58 91 -113 91c-49 0 -97 -20 -134 -52l-75 15l88 371h371z" />
    <glyph glyph-name="six" unicode="6" horiz-adv-x="567" 
d="M570 588c0 -17 -3 -34 -7 -51h-88c2 10 3 20 3 30c0 63 -54 84 -108 84c-81 0 -139 -53 -153 -131l-28 -161c47 48 116 80 183 80c80 0 157 -37 157 -127c0 -10 -1 -20 -3 -30l-18 -102c-23 -130 -137 -192 -261 -192c-103 0 -186 56 -186 166c0 13 2 27 4 41l56 319
c24 137 137 211 265 211c89 0 184 -34 184 -137zM434 293c0 62 -53 73 -105 73c-73 0 -149 -57 -162 -128c-4 -24 -10 -49 -10 -73c0 -67 46 -103 111 -103c73 0 134 40 147 114l17 96c1 7 2 14 2 21z" />
    <glyph glyph-name="seven" unicode="7" horiz-adv-x="541" 
d="M578 713l-13 -76l-426 -637h-95l428 636h-348l13 77h441z" />
    <glyph glyph-name="eight" unicode="8" horiz-adv-x="559" 
d="M566 587c0 -23 -5 -45 -9 -68c-13 -74 -53 -128 -126 -152c51 -18 86 -58 86 -113c0 -26 -6 -52 -11 -77c-23 -127 -142 -189 -263 -189c-94 0 -192 34 -192 144c0 13 1 25 3 37l9 48c13 67 64 121 125 147c-45 21 -69 61 -69 110c0 21 4 42 8 63c22 121 133 188 250 188
c88 0 189 -34 189 -138zM473 564c0 63 -56 89 -111 89c-66 0 -128 -41 -141 -108l-8 -41c-1 -7 -2 -15 -2 -22c0 -63 55 -88 110 -88c66 0 131 42 143 110l7 40c1 7 2 14 2 20zM420 247c0 65 -58 84 -113 84c-71 0 -134 -30 -148 -106c-4 -22 -10 -46 -10 -68
c0 -62 51 -96 109 -96c74 0 138 41 152 117c4 22 10 46 10 69z" />
    <glyph glyph-name="nine" unicode="9" horiz-adv-x="561" 
d="M562 561c0 -14 -1 -28 -4 -42l-56 -321c-27 -162 -141 -210 -269 -210c-88 0 -180 33 -180 136c0 18 3 35 6 52h89c-2 -10 -4 -20 -4 -31c0 -62 55 -83 109 -83c81 0 138 53 152 132l29 158c-43 -56 -116 -85 -185 -85c-82 0 -155 43 -155 133c0 10 1 20 3 31l18 102
c23 130 136 192 261 192c103 0 186 -54 186 -164zM466 546c0 68 -45 106 -111 106c-73 0 -134 -40 -147 -114l-17 -96c-1 -7 -2 -15 -2 -23c0 -60 50 -86 104 -86c74 0 149 60 162 132c5 25 11 56 11 81z" />
    <glyph glyph-name="colon" unicode=":" horiz-adv-x="242" 
d="M221 480l-23 -128h-99l22 128h100zM158 128l-23 -128h-99l22 128h100z" />
    <glyph glyph-name="semicolon" unicode=";" horiz-adv-x="242" 
d="M219 480l-23 -128h-99l22 128h100zM156 128l-22 -124l-63 -111h-50l47 111h-34l23 124h99z" />
    <glyph glyph-name="less" unicode="&#x3c;" horiz-adv-x="597" 
d="M555 473l-375 -152l322 -153l-35 -52l-371 180l9 49l434 179z" />
    <glyph glyph-name="equal" unicode="=" horiz-adv-x="597" 
d="M563 436l-10 -56h-455l10 56h455zM531 254l-10 -55h-455l10 55h455z" />
    <glyph glyph-name="greater" unicode="&#x3e;" horiz-adv-x="597" 
d="M534 345l-9 -49l-434 -180l-16 52l376 153l-322 151l35 53z" />
    <glyph glyph-name="question" unicode="?" horiz-adv-x="523" 
d="M525 578c0 -204 -214 -221 -236 -338l-10 -54h-80l10 54c28 149 224 167 224 314c0 57 -37 95 -95 95c-64 0 -131 -30 -142 -99l-8 -49h-82l8 46c21 120 120 176 234 176c94 0 177 -45 177 -145zM276 128l-23 -128h-98l23 128h98z" />
    <glyph glyph-name="at" unicode="@" horiz-adv-x="949" 
d="M885 393c0 -155 -103 -301 -240 -301c-51 0 -83 35 -93 78c-43 -56 -92 -75 -134 -75c-74 0 -106 78 -106 140c0 126 88 257 213 257h144l-57 -273c0 -43 20 -65 54 -65c106 0 152 163 152 245c0 160 -133 244 -278 244c-225 0 -364 -174 -364 -384
c0 -208 140 -307 336 -307c100 0 174 25 238 49l17 -57c-74 -30 -162 -54 -260 -54c-231 0 -399 124 -399 369c0 253 181 444 442 444c191 0 335 -112 335 -310zM583 427h-70c-78 0 -127 -104 -127 -171c0 -40 0 -93 56 -93c68 0 103 93 112 134z" />
    <glyph glyph-name="A" unicode="A" horiz-adv-x="657" 
d="M595 0h-99l-32 188h-283l-98 -188h-96l387 716h90zM451 268l-55 326h-5l-169 -326h229z" />
    <glyph glyph-name="B" unicode="B" horiz-adv-x="632" 
d="M621 553c0 -93 -47 -155 -140 -178v-3c65 -17 102 -80 102 -147c0 -143 -128 -225 -263 -225h-281l126 713h277c93 0 179 -54 179 -160zM520 539c0 65 -52 93 -109 93h-166l-40 -227h165c85 0 150 45 150 134zM483 223c0 72 -61 103 -123 103h-169l-43 -245h174
c91 0 161 47 161 142z" />
    <glyph glyph-name="C" unicode="C" horiz-adv-x="644" 
d="M642 543c0 -23 -4 -47 -8 -69h-91c3 15 5 30 5 45c0 88 -69 122 -148 122c-105 0 -185 -66 -203 -170c-14 -78 -28 -157 -42 -236c-2 -11 -3 -23 -3 -34c0 -90 70 -129 153 -129c108 0 180 60 197 167h90l-2 -15c-23 -173 -152 -236 -303 -236c-122 0 -234 56 -234 192
c0 16 1 32 4 48c13 79 28 159 42 238c29 160 158 259 318 259c117 0 225 -51 225 -182z" />
    <glyph glyph-name="D" unicode="D" horiz-adv-x="652" 
d="M642 522c0 -17 -2 -34 -5 -51c-13 -74 -27 -149 -40 -224c-27 -149 -151 -247 -301 -247h-257l126 713h257c121 0 220 -60 220 -191zM544 503c0 88 -66 127 -147 127h-152l-96 -547h159c97 0 176 61 193 158l40 230c2 11 3 21 3 32z" />
    <glyph glyph-name="E" unicode="E" horiz-adv-x="590" 
d="M617 713l-14 -83h-358l-39 -221h299l-15 -83h-298l-43 -243h359l-14 -83h-455l126 713h452z" />
    <glyph glyph-name="F" unicode="F" horiz-adv-x="556" 
d="M609 713l-14 -83h-349l-40 -224h286l-14 -83h-286l-57 -323h-96l126 713h444z" />
    <glyph glyph-name="G" unicode="G" horiz-adv-x="659" 
d="M644 547c0 -23 -4 -46 -8 -68h-91c3 14 5 29 5 44c0 88 -72 118 -149 118c-105 0 -185 -66 -203 -170c-14 -78 -28 -157 -42 -236c-2 -11 -3 -23 -3 -34c0 -90 70 -129 153 -129c97 0 175 48 193 148c4 19 7 39 11 59h-182l15 85h272c-8 -48 -16 -96 -25 -144
c-28 -154 -153 -232 -302 -232c-122 0 -234 56 -234 192c0 16 1 32 4 48c13 79 28 159 42 238c29 160 158 259 318 259c116 0 226 -47 226 -178z" />
    <glyph glyph-name="H" unicode="H" horiz-adv-x="679" 
d="M689 713l-125 -713h-95l57 325h-335l-57 -325h-95l126 713h95l-54 -304h335l53 304h95z" />
    <glyph glyph-name="I" unicode="I" horiz-adv-x="529" 
d="M558 713l-15 -83h-154l-97 -547h155l-15 -83h-404l15 83h154l97 547h-155l15 83h404z" />
    <glyph glyph-name="J" unicode="J" horiz-adv-x="596" 
d="M607 713l-87 -492c-26 -149 -122 -232 -262 -232c-112 0 -206 41 -206 167c0 36 7 77 15 109h102c-6 -30 -15 -62 -15 -93c0 -75 56 -102 124 -102c82 0 133 77 146 151l88 492h95z" />
    <glyph glyph-name="K" unicode="K" horiz-adv-x="632" 
d="M688 713l-310 -290l199 -423h-104l-167 360l-129 -116l-43 -244h-95l126 713h94l-63 -358l379 358h113z" />
    <glyph glyph-name="L" unicode="L" horiz-adv-x="553" 
d="M500 83l-15 -83h-446l126 713h96l-111 -630h350z" />
    <glyph glyph-name="M" unicode="M" horiz-adv-x="800" 
d="M810 713l-125 -713h-93l100 563h-7l-265 -442h-77l-107 441h-7l-99 -562h-91l126 713h128l110 -459h5l270 459h132z" />
    <glyph glyph-name="N" unicode="N" horiz-adv-x="685" 
d="M695 713l-126 -714h-81l-258 550h-5l-97 -549h-89l126 713h85l256 -541h5l95 541h89z" />
    <glyph glyph-name="O" unicode="O" horiz-adv-x="664" 
d="M651 527c0 -17 -1 -33 -4 -49c-14 -78 -26 -157 -42 -235c-34 -168 -164 -255 -319 -255c-121 0 -233 56 -233 192c0 16 1 32 4 48l42 238c30 165 161 259 318 259c124 0 234 -62 234 -198zM553 514c0 91 -71 127 -153 127c-105 0 -184 -67 -203 -170l-42 -236
c-2 -11 -3 -22 -3 -34c0 -90 71 -129 153 -129c103 0 184 61 202 164l43 244c2 11 3 23 3 34z" />
    <glyph glyph-name="P" unicode="P" horiz-adv-x="613" 
d="M624 544c0 -15 -1 -30 -4 -45c-25 -140 -140 -220 -278 -220h-158l-49 -279h-95l126 713h256c108 0 202 -49 202 -169zM528 527c0 83 -72 105 -142 105h-139l-48 -272h142c95 0 167 39 184 138c2 10 3 19 3 29z" />
    <glyph glyph-name="Q" unicode="Q" horiz-adv-x="664" 
d="M651 527c0 -17 -1 -33 -4 -49c-14 -78 -26 -157 -42 -235c-13 -64 -40 -116 -76 -156l76 -74l-62 -64l-85 82c-50 -29 -109 -43 -172 -43c-121 0 -233 56 -233 192c0 16 1 32 4 48l42 238c30 165 161 259 318 259c124 0 234 -62 234 -198zM553 514c0 91 -71 127 -153 127
c-105 0 -184 -67 -203 -170l-42 -236c-2 -11 -3 -22 -3 -34c0 -90 71 -129 153 -129c33 0 64 6 92 19l-68 65l62 64l77 -74c19 24 33 55 39 90l43 244c2 11 3 23 3 34z" />
    <glyph glyph-name="R" unicode="R" horiz-adv-x="633" 
d="M616 521c0 -126 -82 -210 -208 -233l142 -288h-99l-135 279h-133l-49 -279h-95l126 713h239c117 0 212 -71 212 -192zM519 517c0 83 -72 115 -142 115h-131l-48 -272h134c106 0 187 46 187 157z" />
    <glyph glyph-name="S" unicode="S" horiz-adv-x="610" 
d="M602 641l-67 -65c-50 50 -102 68 -175 68s-144 -40 -144 -121c0 -61 68 -87 143 -114c94 -33 200 -88 200 -202c0 -162 -143 -219 -281 -219c-119 0 -213 54 -263 134l82 60c44 -68 114 -110 197 -110s163 30 163 126c0 62 -61 94 -132 119c-96 33 -209 72 -209 191
c0 148 124 218 261 218c102 0 164 -25 225 -85z" />
    <glyph glyph-name="T" unicode="T" horiz-adv-x="571" 
d="M626 713l-14 -82h-206l-112 -631h-96l111 631h-207l15 82h509z" />
    <glyph glyph-name="U" unicode="U" horiz-adv-x="662" 
d="M682 713c-28 -162 -57 -325 -86 -487c-27 -152 -159 -238 -308 -238c-115 0 -224 52 -224 182c0 16 1 31 4 47l88 496h96l-85 -481c-2 -12 -3 -23 -3 -34c0 -87 65 -125 145 -125c100 0 177 57 195 157l85 483h93z" />
    <glyph glyph-name="V" unicode="V" horiz-adv-x="593" 
d="M662 713l-358 -716h-98l-103 716h98l77 -577h6l279 577h99z" />
    <glyph glyph-name="W" unicode="W" horiz-adv-x="898" 
d="M961 713l-315 -716h-90l-46 561h-5l-245 -561h-91l-61 716h95l37 -560h6l244 560h89l45 -561h6l236 561h95z" />
    <glyph glyph-name="X" unicode="X" horiz-adv-x="573" 
d="M633 713l-268 -346l156 -367h-102l-118 285l-219 -285h-105l287 370l-144 343h101l106 -266l202 266h104z" />
    <glyph glyph-name="Y" unicode="Y" horiz-adv-x="584" 
d="M653 713l-306 -418l-52 -295h-94l52 295l-157 418h102l117 -329l234 329h104z" />
    <glyph glyph-name="Z" unicode="Z" horiz-adv-x="575" 
d="M613 713l-12 -68l-467 -563h369l-15 -82h-486l13 73l465 559h-350l15 81h468z" />
    <glyph glyph-name="bracketleft" unicode="[" horiz-adv-x="380" 
d="M444 774l-11 -64h-138l-150 -847h138l-11 -63h-234l172 974h234z" />
    <glyph glyph-name="backslash" unicode="\" horiz-adv-x="341" 
d="M280 -37h-61l-109 764h59z" />
    <glyph glyph-name="bracketright" unicode="]" horiz-adv-x="380" 
d="M345 774l-172 -974h-234l11 63h138l149 847h-138l12 64h234z" />
    <glyph glyph-name="asciicircum" unicode="^" horiz-adv-x="773" 
d="M778 713l-125 -713h-658l125 713h658z" />
    <glyph glyph-name="underscore" unicode="_" 
d="M500 -128h-500v56h500v-56z" />
    <glyph glyph-name="quoteleft" unicode="&#x2018;" horiz-adv-x="243" 
d="M253 716l-49 -113h35l-23 -125h-100l22 125l64 113h51z" />
    <glyph glyph-name="a" unicode="a" horiz-adv-x="546" 
d="M524 506l-90 -506h-86l11 65h-1c-44 -51 -102 -77 -160 -77c-89 0 -157 49 -157 144c0 13 1 25 3 37c10 52 19 104 28 156c20 113 103 191 221 191c44 0 107 -24 130 -64h2l10 54h89zM404 343c0 66 -67 100 -125 100c-70 0 -105 -51 -116 -116l-27 -153
c-1 -7 -2 -14 -2 -21c0 -61 43 -90 100 -90c70 0 134 68 148 149l20 113c2 6 2 12 2 18z" />
    <glyph glyph-name="b" unicode="b" horiz-adv-x="591" 
d="M559 374c0 -13 -2 -26 -4 -39l-27 -156c-21 -116 -115 -191 -232 -191c-47 0 -101 22 -124 65h-5l-9 -53h-86l126 713h89l-49 -279h4c40 53 98 82 160 82c89 0 157 -48 157 -142zM466 353c0 60 -44 87 -99 87c-71 0 -139 -61 -151 -129l-23 -129c-1 -7 -2 -14 -2 -22
c0 -62 51 -99 110 -99c91 0 127 66 141 142c8 43 15 77 21 114c1 8 3 28 3 36z" />
    <glyph glyph-name="c" unicode="c" horiz-adv-x="485" 
d="M477 366c0 -17 -2 -33 -6 -49h-85c2 11 4 22 4 33c0 61 -43 92 -101 92c-93 0 -119 -67 -133 -139c0 0 -16 -74 -21 -111c-2 -11 -1 -21 -1 -32c0 -53 47 -99 111 -99c70 0 110 41 143 70l55 -49c-53 -65 -127 -94 -216 -94c-111 0 -185 55 -185 166c0 15 1 24 3 39
l18 110c21 130 107 214 239 214c95 0 175 -48 175 -151z" />
    <glyph glyph-name="d" unicode="d" horiz-adv-x="546" 
d="M560 713l-126 -713h-86l11 65h-1c-44 -51 -102 -77 -160 -77c-89 0 -157 49 -157 144c0 13 1 25 3 37c10 52 19 104 28 156c20 113 95 191 213 191c45 0 115 -22 136 -64h4l46 261h89zM404 343c0 66 -67 100 -125 100c-70 0 -105 -51 -116 -116l-27 -153
c-1 -7 -2 -14 -2 -21c0 -61 43 -90 100 -90c70 0 136 83 148 149l20 113c1 6 2 12 2 18z" />
    <glyph glyph-name="e" unicode="e" horiz-adv-x="515" 
d="M493 363c0 -41 -13 -95 -20 -136h-330c-4 -21 -9 -43 -9 -64c0 -68 54 -102 117 -102c49 0 106 37 139 71l53 -52c-57 -68 -123 -92 -211 -92c-102 0 -191 49 -191 161c0 14 1 28 4 42l19 106c23 130 118 220 251 220c95 0 178 -52 178 -154zM407 349c0 61 -41 94 -99 94
c-79 0 -138 -52 -150 -128l-4 -26h245c4 20 8 40 8 60z" />
    <glyph glyph-name="f" unicode="f" horiz-adv-x="341" 
d="M405 715l-14 -72c-13 2 -40 4 -53 4c-36 0 -60 -21 -67 -58l-16 -89h102l-12 -67h-102l-107 -618l-92 -15l111 633h-85l11 67h86l12 67c9 51 27 152 162 152c16 0 48 -2 64 -4z" />
    <glyph glyph-name="g" unicode="g" horiz-adv-x="542" 
d="M528 506l-88 -500c-26 -145 -124 -213 -256 -213c-71 0 -165 31 -184 112l83 28c20 -46 68 -66 117 -66c74 0 138 55 151 128c0 0 9 51 14 81h-2c-40 -46 -97 -69 -158 -69c-90 0 -157 43 -157 139c0 14 1 28 3 41l24 135c21 115 111 195 229 195c47 0 103 -23 124 -68h4
l10 57h86zM411 348c0 62 -50 95 -108 95c-70 0 -124 -47 -136 -116l-25 -138c-1 -8 -2 -17 -2 -23c0 -60 43 -88 99 -88c70 0 136 53 148 122l22 126c1 7 2 15 2 22z" />
    <glyph glyph-name="h" unicode="h" horiz-adv-x="546" 
d="M498 385c0 -14 -2 -27 -4 -40l-61 -345h-88l55 317c2 12 5 31 5 43c0 55 -25 80 -81 80c-83 0 -140 -72 -154 -148l-52 -292h-89l128 713h86l-52 -283h3c43 53 102 87 172 87c84 0 132 -47 132 -132z" />
    <glyph glyph-name="i" unicode="i" horiz-adv-x="236" 
d="M246 717l-18 -106h-90l19 106h89zM209 506l-90 -506h-90l90 506h90z" />
    <glyph glyph-name="j" unicode="j" horiz-adv-x="256" 
d="M264 716l-19 -104h-89l19 104h89zM226 506l-99 -565c-16 -92 -76 -146 -173 -146c-13 0 -41 2 -54 4l13 76c10 -2 40 -4 48 -4c47 0 69 26 77 72l99 563h89z" />
    <glyph glyph-name="k" unicode="k" horiz-adv-x="515" 
d="M525 506l-205 -186l135 -320h-89l-112 264l-106 -95l-30 -169h-89l126 713h89l-79 -443l260 236h100z" />
    <glyph glyph-name="l" unicode="l" horiz-adv-x="299" 
d="M251 713l-106 -591c-1 -6 -3 -18 -3 -24c0 -34 32 -35 57 -35c17 0 34 3 51 6l-12 -66c-22 -8 -49 -13 -73 -13c-52 0 -115 18 -115 81c0 15 3 43 6 57l105 585h90z" />
    <glyph glyph-name="m" unicode="m" horiz-adv-x="861" 
d="M813 385c0 -14 -2 -27 -4 -40l-61 -345h-88l55 317c2 12 5 31 5 43c0 55 -25 80 -81 80c-83 0 -140 -72 -154 -148l-52 -292h-89l56 317c2 12 5 31 5 43c0 51 -25 80 -81 80c-83 0 -140 -72 -154 -148l-52 -292h-89l90 506h86l-14 -76h3c43 53 102 87 172 87
c74 0 120 -36 130 -103l13 16c43 53 102 87 172 87c84 0 132 -47 132 -132z" />
    <glyph glyph-name="n" unicode="n" horiz-adv-x="546" 
d="M498 385c0 -14 -2 -27 -4 -40l-61 -345h-88l55 317c2 12 5 31 5 43c0 55 -25 80 -81 80c-83 0 -140 -72 -154 -148l-52 -292h-89l90 506h86l-14 -76h3c43 53 102 87 172 87c84 0 132 -47 132 -132z" />
    <glyph glyph-name="o" unicode="o" horiz-adv-x="516" 
d="M484 357c0 -16 -2 -32 -5 -48c-6 -37 -12 -75 -19 -112c-23 -130 -111 -209 -244 -209c-100 0 -175 46 -175 153c0 16 1 32 4 48c6 39 14 79 21 119c24 128 111 209 243 209c102 0 175 -53 175 -160zM393 351c0 63 -36 91 -96 91c-83 0 -125 -54 -139 -131l-22 -121
c-2 -12 -3 -24 -3 -37c0 -62 35 -91 96 -91c83 0 125 53 139 130l22 123c2 12 3 24 3 36z" />
    <glyph glyph-name="p" unicode="p" horiz-adv-x="546" 
d="M515 366c0 -13 -2 -17 -4 -30l-27 -156c-21 -125 -112 -191 -229 -191c-47 0 -101 20 -123 64h-6l-45 -253h-89l126 706h86l-12 -70h4c34 55 99 81 162 81c89 0 157 -66 157 -151zM422 354c0 60 -43 88 -99 88c-71 0 -139 -62 -151 -130c-8 -43 -13 -72 -20 -115
c-2 -7 -4 -28 -4 -36c0 -62 51 -99 109 -99c143 0 144 143 161 246c1 8 4 39 4 46z" />
    <glyph glyph-name="q" unicode="q" horiz-adv-x="546" 
d="M563 506l-125 -707h-87l47 267h-4c-39 -45 -106 -77 -161 -77c-96 0 -157 54 -157 142c0 12 2 26 4 39l27 150c25 141 129 197 231 197c52 0 107 -26 126 -64h2l9 53h88zM444 351c0 63 -51 93 -109 93c-57 0 -122 -35 -136 -116l-27 -153c-1 -8 -2 -16 -2 -23
c0 -51 33 -88 98 -88c61 0 137 45 150 122l24 140c2 9 2 17 2 25z" />
    <glyph glyph-name="r" unicode="r" horiz-adv-x="396" 
d="M422 513l-14 -81c-17 1 -61 3 -70 3c-75 0 -154 -60 -171 -156l-49 -279h-89l89 506h87l-15 -87h3c50 62 121 98 188 98c13 0 30 -2 41 -4z" />
    <glyph glyph-name="s" unicode="s" horiz-adv-x="462" 
d="M446 457l-59 -57c-35 32 -81 46 -117 46c-49 0 -105 -11 -105 -68c0 -96 241 -53 241 -217c0 -124 -103 -172 -211 -172c-76 0 -158 21 -198 92l71 48c33 -45 81 -69 136 -69c56 0 109 19 109 87c0 100 -241 55 -241 205c0 116 98 165 201 165c66 0 122 -11 173 -60z" />
    <glyph glyph-name="t" unicode="t" horiz-adv-x="352" 
d="M376 503l-12 -70h-139l-54 -305c-1 -7 -3 -18 -3 -25c0 -35 24 -39 55 -39c19 0 73 9 82 12l-12 -68c-30 -10 -69 -16 -101 -16c-60 0 -117 18 -117 87c0 9 1 21 3 30l58 324h-83l12 70h83l30 165h89l-30 -165h139z" />
    <glyph glyph-name="u" unicode="u" horiz-adv-x="546" 
d="M519 506l-90 -506h-86l14 76h-3c-43 -53 -102 -87 -172 -87c-84 0 -132 47 -132 132c0 14 2 27 4 40l61 345h88l-55 -317c-2 -12 -5 -31 -5 -43c0 -55 25 -80 81 -80c83 0 140 72 154 148l52 292h89z" />
    <glyph glyph-name="v" unicode="v" horiz-adv-x="486" 
d="M509 506l-268 -507h-92l-88 507h90l60 -395h5l201 395h92z" />
    <glyph glyph-name="w" unicode="w" horiz-adv-x="784" 
d="M805 506l-249 -507h-90l-47 395l-5 -1l-187 -394h-89l-71 507h89l44 -391h6l185 391h88l46 -391h6l183 391h91z" />
    <glyph glyph-name="x" unicode="x" horiz-adv-x="493" 
d="M495 506l-207 -241l131 -265h-95l-93 192l-160 -192h-99l224 263l-122 243h97l83 -173l144 173h97z" />
    <glyph glyph-name="y" unicode="y" horiz-adv-x="546" 
d="M519 506l-89 -500c-26 -145 -109 -213 -254 -213c-71 0 -163 32 -178 112l83 28c21 -48 61 -64 110 -64c74 0 137 53 151 126l19 98h-3c-43 -53 -102 -87 -172 -87c-84 0 -132 47 -132 132c0 14 2 27 4 40l57 328h88l-51 -300c-2 -12 -5 -31 -5 -43c0 -55 25 -80 81 -80
c83 0 141 72 154 148l48 275h89z" />
    <glyph glyph-name="z" unicode="z" horiz-adv-x="478" 
d="M475 506l-12 -69l-341 -363h282l-13 -74h-390l13 71l338 362h-262l13 73h372z" />
    <glyph glyph-name="braceleft" unicode="{" horiz-adv-x="381" 
d="M445 774l-11 -64h-138l-60 -336l-50 -52l31 -60l-71 -399h135l-11 -63h-229l80 452l-31 69l54 62l69 391h232z" />
    <glyph glyph-name="bar" unicode="|" horiz-adv-x="325" 
d="M297 725l-137 -764h-68l137 764h68z" />
    <glyph glyph-name="braceright" unicode="}" horiz-adv-x="381" 
d="M340 774l-69 -391l32 -62l-55 -69l-80 -452h-229l11 63h135l71 399l51 60l-32 52l60 336h-138l11 64h232z" />
    <glyph glyph-name="asciitilde" unicode="~" horiz-adv-x="773" 
d="M778 713l-125 -713h-658l125 713h658zM702 648h-528l-103 -583h528z" />
    <glyph glyph-name="exclamdown" unicode="&#xa1;" horiz-adv-x="280" 
d="M246 522l-23 -128h-99l23 128h99zM187 322l-32 -307l-37 -206h-98l37 206l78 307h52z" />
    <glyph glyph-name="cent" unicode="&#xa2;" horiz-adv-x="524" 
d="M502 422c0 -18 -3 -37 -7 -55h-80c3 11 5 23 5 35c0 58 -42 87 -97 87c-78 0 -128 -49 -141 -124l-24 -138c-2 -9 -3 -19 -3 -28c0 -64 42 -94 103 -94c77 0 121 49 133 122h83l-3 -17c-18 -104 -94 -166 -198 -177l-19 -108h-62l19 108c-86 10 -147 56 -147 148
c0 14 1 28 4 42l25 140c20 112 98 185 211 198l16 87h62l-16 -87c80 -9 136 -53 136 -139z" />
    <glyph glyph-name="sterling" unicode="&#xa3;" horiz-adv-x="578" 
d="M587 595c0 -24 -5 -49 -9 -73h-79c3 17 7 34 7 51c0 54 -41 79 -91 79c-69 0 -113 -44 -125 -111l-27 -151h210l-11 -62h-210l-44 -252h317l-33 -76h-468l13 76h81l45 252h-73l10 62h74l25 142c22 125 103 193 228 193c86 0 160 -36 160 -130z" />
    <glyph glyph-name="fraction" unicode="&#x2044;" horiz-adv-x="549" 
d="M611 727l-573 -764h-72l574 764h71z" />
    <glyph glyph-name="yen" unicode="&#xa5;" horiz-adv-x="584" 
d="M657 713l-292 -399l3 -5h192l-11 -61h-206l-44 -248h-94l44 248h-208l11 61h197v7l-149 397h101l117 -329l234 329h105z" />
    <glyph glyph-name="florin" unicode="&#x192;" horiz-adv-x="341" 
d="M390 716l-12 -71c-13 1 -26 2 -38 2c-37 0 -67 -21 -74 -58l-35 -195h102l-12 -67h-101l-93 -520h-88l92 520h-85l12 67h85l31 173c9 51 34 152 169 152c16 0 32 -2 47 -3z" />
    <glyph glyph-name="section" unicode="&#xa7;" horiz-adv-x="552" 
d="M536 598c0 -19 -5 -38 -8 -57h-67c2 11 5 24 5 36c0 58 -69 74 -116 74c-53 0 -128 -23 -128 -89c0 -43 58 -57 89 -69c29 -12 57 -22 86 -33c50 -19 104 -43 104 -106c0 -70 -46 -125 -107 -152c38 -22 65 -52 65 -98c0 -8 -2 -16 -3 -24c-21 -115 -136 -167 -242 -167
c-76 0 -173 25 -173 117c0 21 5 41 8 61h71c-2 -11 -4 -22 -4 -34c0 -63 66 -79 117 -79c60 0 145 29 145 102c0 108 -280 62 -280 213c0 73 58 119 120 146c-43 21 -77 51 -77 101c0 8 2 16 3 24c20 109 123 151 223 151c77 0 169 -24 169 -117zM420 324
c0 35 -32 50 -61 60c-29 9 -58 20 -88 28c-44 -13 -92 -46 -92 -97c0 -57 113 -69 152 -86c43 12 89 46 89 95z" />
    <glyph glyph-name="currency" unicode="&#xa4;" horiz-adv-x="741" 
d="M723 551c0 -20 -4 -41 -7 -61h-89c2 13 5 26 5 40c0 82 -76 109 -146 109c-109 0 -184 -68 -201 -174h211l-11 -65h-211l-17 -93h211l-11 -65h-211c-3 -13 -4 -27 -4 -41c0 -88 67 -127 148 -127c102 0 173 47 189 150h90l-5 -25c-28 -139 -152 -211 -286 -211
c-122 0 -239 53 -239 192c0 21 3 41 7 62h-117l11 65h117l17 93h-117l11 65h117c25 157 162 261 318 261c109 0 220 -50 220 -175z" />
    <glyph glyph-name="quotesingle" unicode="'" horiz-adv-x="239" 
d="M257 716l-19 -103l-42 -135h-56l7 135l19 103h91z" />
    <glyph glyph-name="quotedblleft" unicode="&#x201c;" horiz-adv-x="410" 
d="M419 716l-47 -113h34l-23 -125h-98l22 125l62 113h50zM250 716l-47 -113h34l-22 -125h-99l22 125l63 113h49z" />
    <glyph glyph-name="guillemotleft" unicode="&#xab;" horiz-adv-x="538" 
d="M528 424l-173 -154l120 -154l-54 -42l-164 195l233 198zM319 424l-173 -154l120 -154l-54 -42l-164 195l233 198z" />
    <glyph glyph-name="guilsinglleft" unicode="&#x2039;" horiz-adv-x="331" 
d="M321 424l-174 -154l120 -154l-54 -42l-165 195l234 198z" />
    <glyph glyph-name="guilsinglright" unicode="&#x203a;" horiz-adv-x="331" 
d="M293 271l-234 -197l-39 42l175 154l-120 154l54 43z" />
    <glyph glyph-name="fi" unicode="&#xfb01;" horiz-adv-x="573" 
d="M583 717l-18 -106h-90l19 106h89zM546 505l-90 -505h-90l90 505h90zM405 715l-14 -72c-13 2 -40 4 -53 4c-36 0 -60 -21 -67 -58l-16 -89h102l-12 -67h-102l-107 -618l-92 -15l111 633h-85l11 67h86l12 67c9 51 27 152 162 152c16 0 48 -2 64 -4z" />
    <glyph glyph-name="fl" unicode="&#xfb02;" horiz-adv-x="632" 
d="M584 713l-106 -591c-1 -6 -3 -18 -3 -24c0 -34 32 -35 58 -35c16 0 34 3 50 6l-12 -66c-22 -8 -49 -13 -73 -13c-51 0 -115 18 -115 81c0 15 3 43 6 57l105 585h90zM405 715l-14 -72c-13 2 -40 4 -53 4c-36 0 -60 -21 -67 -58l-16 -89h102l-12 -67h-102l-107 -618
l-92 -15l111 633h-85l11 67h86l12 67c9 51 27 152 162 152c16 0 48 -2 64 -4z" />
    <glyph glyph-name="endash" unicode="&#x2013;" horiz-adv-x="573" 
d="M557 312l-11 -65h-509l11 65h509z" />
    <glyph glyph-name="dagger" unicode="&#x2020;" horiz-adv-x="550" 
d="M538 538l-11 -61h-173l-111 -630h-69l112 630h-173l11 61h173l31 176h68l-31 -176h173z" />
    <glyph glyph-name="daggerdbl" unicode="&#x2021;" horiz-adv-x="550" 
d="M538 538l-11 -61h-172l-69 -390h172l-11 -60h-172l-32 -180h-69l32 180h-172l10 60h173l69 390h-173l11 61h173l31 176h68l-31 -176h173z" />
    <glyph glyph-name="periodcentered" unicode="&#xb7;" horiz-adv-x="242" 
d="M210 456l-23 -130h-101l23 130h101z" />
    <glyph glyph-name="paragraph" unicode="&#xb6;" horiz-adv-x="621" 
d="M636 713l-10 -57h-57l-132 -746h-66l132 746h-114l-132 -746h-65l57 324c-104 6 -154 74 -154 174c0 21 2 42 6 63c20 114 114 242 240 242h295z" />
    <glyph glyph-name="bullet" unicode="&#x2022;" horiz-adv-x="385" 
d="M300 363c-8 -46 -52 -83 -97 -83c-41 0 -70 30 -70 69c0 52 50 97 100 97c40 0 68 -29 68 -68c0 -5 0 -10 -1 -15z" />
    <glyph glyph-name="quotesinglbase" unicode="&#x201a;" horiz-adv-x="246" 
d="M158 131l-23 -125l-63 -113h-51l48 112h-34l22 126h101z" />
    <glyph glyph-name="quotedblbase" unicode="&#x201e;" horiz-adv-x="410" 
d="M324 131l-22 -125l-62 -113h-50l47 112h-34l22 126h99zM155 131l-22 -125l-62 -113h-50l48 112h-34l22 126h98z" />
    <glyph glyph-name="quotedblright" unicode="&#x201d;" horiz-adv-x="410" 
d="M418 716l-22 -125l-62 -113h-50l47 112h-34l22 126h99zM249 716l-22 -125l-62 -113h-50l48 112h-34l22 126h98z" />
    <glyph glyph-name="guillemotright" unicode="&#xbb;" horiz-adv-x="538" 
d="M501 271l-233 -197l-39 42l173 154l-119 154l54 43zM292 271l-234 -197l-38 42l173 154l-119 154l54 43z" />
    <glyph glyph-name="ellipsis" unicode="&#x2026;" horiz-adv-x="685" 
d="M618 131l-22 -131h-99l23 131h98zM414 131l-22 -131h-99l23 131h98zM210 131l-22 -131h-98l22 131h98z" />
    <glyph glyph-name="perthousand" unicode="&#x2030;" horiz-adv-x="1119" 
d="M1061 270c0 -9 -1 -18 -3 -27l-23 -135c-13 -77 -83 -119 -158 -119c-60 0 -113 26 -113 93c0 9 1 18 2 26l24 134c14 80 76 124 155 124c62 0 116 -27 116 -96zM403 631c0 -9 -1 -19 -3 -28l-23 -134c-13 -77 -83 -119 -158 -119c-60 0 -113 26 -113 93c0 9 0 17 2 26
l24 134c14 80 77 123 155 123c62 0 116 -26 116 -95zM767 726l-617 -737h-74l618 737h73zM729 270c0 -9 -1 -18 -3 -27l-23 -135c-13 -77 -83 -119 -158 -119c-60 0 -113 26 -113 93c0 9 1 18 2 26l24 134c14 80 76 124 155 124c62 0 116 -27 116 -96zM993 264
c0 36 -24 50 -58 50c-43 0 -71 -23 -78 -65l-25 -141c-1 -6 -1 -13 -1 -19c0 -35 24 -46 56 -46c42 0 73 22 80 64l25 141c1 5 1 10 1 16zM336 624c0 36 -25 51 -58 51c-43 0 -71 -23 -78 -65l-25 -142c-1 -6 -2 -12 -2 -18c0 -35 24 -46 56 -46c43 0 74 22 81 64l24 141
c1 5 2 10 2 15zM661 264c0 36 -24 50 -57 50c-44 0 -72 -23 -79 -65l-25 -141c-1 -6 -1 -13 -1 -19c0 -35 24 -46 56 -46c42 0 73 22 80 64l25 141c1 5 1 10 1 16z" />
    <glyph glyph-name="questiondown" unicode="&#xbf;" horiz-adv-x="523" 
d="M404 520l-22 -128h-99l23 128h98zM453 19l-8 -46c-21 -120 -120 -176 -234 -176c-94 0 -177 45 -177 145c0 204 217 221 237 338l9 54h80l-9 -54c-25 -149 -225 -167 -225 -314c0 -57 38 -95 96 -95c64 0 128 30 141 99c3 16 6 33 8 49h82z" />
    <glyph glyph-name="grave" unicode="`" horiz-adv-x="300" 
d="M310 577h-70l-120 180h103z" />
    <glyph glyph-name="acute" unicode="&#xb4;" horiz-adv-x="300" 
d="M359 757l-152 -180h-70l119 180h103z" />
    <glyph glyph-name="circumflex" unicode="&#x2c6;" horiz-adv-x="372" 
d="M374 577h-74l-33 108l-77 -108h-73l125 180h75z" />
    <glyph glyph-name="tilde" unicode="&#x2dc;" horiz-adv-x="458" 
d="M484 693c-20 -58 -51 -105 -111 -105c-53 0 -95 28 -148 28c-18 0 -26 -5 -36 -20c-3 -5 -6 -10 -11 -19l-54 11c24 61 59 105 117 105c51 0 93 -28 144 -28c17 0 24 5 34 18c3 5 7 10 14 21z" />
    <glyph glyph-name="macron" unicode="&#xaf;" horiz-adv-x="408" 
d="M432 676l-13 -71h-300l13 71h300z" />
    <glyph glyph-name="breve" unicode="&#x2d8;" horiz-adv-x="379" 
d="M431 733c-19 -103 -108 -149 -178 -149c-82 0 -143 55 -126 149h62c-6 -53 22 -88 79 -88c40 0 90 30 102 88h61z" />
    <glyph glyph-name="dotaccent" unicode="&#x2d9;" horiz-adv-x="233" 
d="M237 705l-18 -102h-88l18 102h88z" />
    <glyph glyph-name="dieresis" unicode="&#xa8;" horiz-adv-x="453" 
d="M445 702l-21 -118h-92l21 118h92zM259 702l-21 -118h-91l21 118h91z" />
    <glyph glyph-name="ring" unicode="&#x2da;" horiz-adv-x="310" 
d="M256 686c0 -62 -57 -116 -119 -116c-47 0 -83 25 -83 74c0 62 56 117 117 117c47 0 85 -24 85 -75zM203 675c0 25 -15 41 -40 41c-32 0 -56 -30 -56 -61c0 -22 15 -40 38 -40c32 0 58 29 58 60z" />
    <glyph glyph-name="cedilla" unicode="&#xb8;" horiz-adv-x="392" 
d="M243 -101c0 -70 -88 -96 -144 -96c-28 0 -70 7 -95 18l10 39c24 -10 66 -18 92 -18c27 0 71 7 71 42c0 21 -23 23 -39 24l-50 2l47 97h45l-29 -63c33 0 92 1 92 -45z" />
    <glyph glyph-name="hungarumlaut" unicode="&#x2dd;" horiz-adv-x="450" 
d="M496 757l-152 -180h-70l119 180h103zM332 757l-152 -180h-70l119 180h103z" />
    <glyph glyph-name="ogonek" unicode="&#x2db;" horiz-adv-x="400" 
d="M230 2c-53 -26 -107 -57 -115 -103c-8 -41 22 -54 51 -54c9 0 33 3 47 5l-6 -36c-22 -6 -54 -12 -74 -12c-63 0 -99 27 -90 78c12 65 83 112 153 136z" />
    <glyph glyph-name="caron" unicode="&#x2c7;" horiz-adv-x="372" 
d="M422 767l-125 -180h-75l-57 180h74l33 -108l77 108h73z" />
    <glyph glyph-name="emdash" unicode="&#x2014;" horiz-adv-x="875" 
d="M862 311l-11 -64h-811l11 64h811z" />
    <glyph glyph-name="AE" unicode="&#xc6;" horiz-adv-x="986" 
d="M1014 713l-14 -83h-357l-39 -221h298l-15 -83h-297l-43 -243h359l-15 -83h-453l35 199h-243l-149 -199h-100l529 713h504zM550 638l-266 -360h203z" />
    <glyph glyph-name="ordfeminine" unicode="&#xaa;" horiz-adv-x="404" 
d="M408 640c0 -8 -1 -15 -2 -23l-30 -172c-4 -25 -7 -50 -9 -75h-66l4 39c-30 -28 -70 -47 -111 -47c-49 0 -103 21 -103 78c0 6 1 12 2 18c21 115 136 115 229 115h9c3 17 8 35 8 53c0 35 -24 51 -57 51c-36 0 -75 -17 -80 -54l-2 -16h-62l2 14c11 77 88 106 157 106
c56 0 111 -23 111 -87zM353 300l-10 -59h-275l11 59h274zM321 529h-57c-48 0 -100 -13 -100 -72c0 -31 28 -42 54 -42c42 0 87 26 95 69z" />
    <glyph glyph-name="Lslash" unicode="&#x141;" horiz-adv-x="553" 
d="M500 83l-15 -83h-446l53 301l-89 -41l13 87l92 42l57 324h96l-49 -276l111 51l-13 -87l-113 -52l-47 -266h350z" />
    <glyph glyph-name="Oslash" unicode="&#xd8;" horiz-adv-x="664" 
d="M664 719l-53 -70c25 -31 40 -72 40 -122c0 -17 -1 -33 -4 -49c-14 -78 -26 -157 -42 -235c-34 -168 -164 -255 -319 -255c-54 0 -107 11 -148 36l-48 -64l-48 28l53 71c-26 29 -42 69 -42 121c0 16 1 32 4 48l42 238c30 165 161 259 318 259c57 0 110 -13 152 -40l47 62z
M511 608c-28 23 -68 33 -111 33c-105 0 -184 -67 -203 -170l-42 -236c-2 -11 -3 -22 -3 -34c0 -20 4 -38 10 -54zM553 514c0 18 -3 34 -8 48l-347 -459c28 -21 66 -31 107 -31c103 0 184 61 202 164l43 244c2 11 3 23 3 34z" />
    <glyph glyph-name="OE" unicode="&#x152;" horiz-adv-x="1013" 
d="M1040 713l-15 -84h-356l-39 -220h298l-15 -83h-298l-42 -242h358l-15 -84h-452l9 48c-56 -40 -125 -60 -193 -60c-121 0 -228 56 -228 190c0 17 2 34 5 50l42 238c28 155 155 259 312 259c60 0 125 -14 171 -55l8 43h450zM552 520c0 88 -77 121 -154 121
c-105 0 -184 -66 -202 -170c-14 -78 -28 -157 -42 -236c-2 -11 -3 -23 -3 -34c0 -90 70 -129 152 -129c96 0 182 53 200 152c16 89 32 179 47 268c2 9 2 18 2 28z" />
    <glyph glyph-name="ordmasculine" unicode="&#xba;" horiz-adv-x="413" 
d="M423 622c0 -38 -11 -80 -18 -117c-16 -91 -83 -146 -175 -146c-72 0 -124 31 -124 108c0 38 11 80 18 117c16 91 81 148 174 148c72 0 125 -33 125 -110zM359 300l-10 -59h-275l11 59h274zM350 616c0 41 -21 60 -61 60c-59 0 -84 -39 -93 -92c-6 -32 -18 -78 -18 -111
c0 -41 22 -59 62 -59c58 0 83 38 93 90c6 33 17 80 17 112z" />
    <glyph glyph-name="ae" unicode="&#xe6;" horiz-adv-x="816" 
d="M791 363c0 -41 -13 -95 -20 -136h-330c-4 -21 -9 -43 -9 -64c0 -68 54 -102 117 -102c49 0 106 37 139 71l53 -52c-57 -68 -124 -92 -212 -92c-67 0 -139 22 -172 85c-53 -55 -120 -84 -196 -84c-75 0 -152 32 -152 118c0 122 117 187 227 187h125c5 26 12 56 12 79
c0 55 -40 74 -89 74c-48 0 -107 -19 -118 -72c-1 -7 -2 -13 -4 -20h-84l3 15c19 107 119 148 218 148c54 0 121 -12 152 -61c47 39 102 60 162 60c95 0 178 -52 178 -154zM705 349c0 61 -41 94 -99 94c-79 0 -138 -52 -150 -128l-4 -26h245c4 20 8 40 8 60zM349 226h-120
c-62 0 -112 -19 -124 -85c-1 -5 -2 -10 -2 -15c0 -49 47 -63 88 -63c74 0 135 36 149 113z" />
    <glyph glyph-name="dotlessi" unicode="&#x131;" horiz-adv-x="236" 
d="M209 506l-90 -506h-90l90 506h90z" />
    <glyph glyph-name="lslash" unicode="&#x142;" horiz-adv-x="299" 
d="M289 478l-13 -87l-90 -41l-41 -228c-1 -6 -3 -18 -3 -24c0 -34 32 -35 57 -35c17 0 34 3 51 6l-12 -66c-22 -8 -49 -13 -73 -13c-52 0 -115 18 -115 81c0 15 3 43 6 57l32 178l-72 -32l13 87l75 33l57 322h90l-50 -278z" />
    <glyph glyph-name="oslash" unicode="&#xf8;" horiz-adv-x="516" 
d="M516 517l-56 -69c15 -24 24 -54 24 -91c0 -16 -2 -32 -5 -48c-6 -37 -12 -75 -19 -112c-23 -130 -111 -209 -244 -209c-41 0 -78 8 -107 24l-44 -54l-50 25l53 66c-17 23 -27 54 -27 92c0 16 1 32 4 48c6 39 14 79 21 119c24 128 111 209 243 209c45 0 83 -10 113 -30
l44 55zM368 420c-17 15 -41 22 -71 22c-83 0 -125 -54 -139 -131l-22 -121c-2 -12 -3 -24 -3 -37c0 -8 0 -15 2 -22zM393 351v13l-230 -284c16 -13 39 -18 66 -18c83 0 125 53 139 130l22 123c2 12 3 24 3 36z" />
    <glyph glyph-name="oe" unicode="&#x153;" horiz-adv-x="838" 
d="M816 363c0 -41 -13 -95 -21 -136h-330c-3 -21 -9 -43 -9 -64c0 -68 55 -102 118 -102c48 0 106 37 138 71l53 -52c-57 -68 -122 -92 -211 -92c-67 0 -128 21 -162 68c-43 -44 -102 -68 -176 -68c-100 0 -175 46 -175 153c0 16 1 32 4 48c6 39 14 79 21 119
c24 128 111 209 243 209c68 0 123 -24 152 -70c44 44 105 70 176 70c96 0 179 -52 179 -154zM730 349c0 61 -41 94 -100 94c-78 0 -134 -52 -149 -128l-5 -26h246c3 20 8 40 8 60zM393 351c0 63 -36 91 -96 91c-83 0 -125 -54 -139 -131l-22 -121c-2 -12 -3 -24 -3 -37
c0 -62 35 -91 96 -91c79 0 121 48 137 119c0 3 1 7 1 10l19 106l3 17l1 1c2 12 3 24 3 36z" />
    <glyph glyph-name="germandbls" unicode="&#xdf;" horiz-adv-x="610" 
d="M571 579c0 -87 -63 -170 -141 -203l-1 -6c74 -23 129 -68 129 -150c0 -135 -124 -232 -252 -232c-36 0 -80 5 -113 21l14 76c30 -14 67 -23 100 -23c86 0 158 60 158 149c0 88 -93 108 -163 108l11 66h30c68 25 135 105 135 180c0 66 -52 93 -112 93
c-77 0 -140 -59 -153 -133l-125 -708l-92 -17l126 715c27 152 130 211 259 211c92 0 190 -40 190 -147z" />
    <glyph glyph-name="Eth" unicode="&#xd0;" horiz-adv-x="652" 
d="M642 522c0 -17 -2 -34 -5 -51c-13 -74 -27 -149 -40 -224c-27 -149 -151 -247 -301 -247h-257l58 327h-76l14 76h75l55 310h257c121 0 220 -60 220 -191zM544 503c0 88 -66 127 -147 127h-152l-40 -227h181l-14 -76h-180l-43 -244h159c97 0 176 61 193 158l40 230
c2 11 3 21 3 32z" />
    <glyph glyph-name="eth" unicode="&#xf0;" horiz-adv-x="525" 
d="M491 637l-93 -27l82 -199c7 -16 10 -34 10 -52c0 -17 -2 -33 -5 -50l-20 -112c-22 -124 -119 -209 -245 -209c-101 0 -182 47 -182 156c0 15 1 30 4 45l21 118c22 125 117 210 244 210c8 0 22 0 30 -1l-31 68l-101 -28l-20 62l93 26l-32 68l98 23l28 -64l99 28zM395 347
c0 63 -35 92 -95 92c-81 0 -129 -52 -142 -128l-21 -120c-2 -11 -3 -22 -3 -33c0 -63 38 -93 99 -93c80 0 124 52 137 128l22 121c1 11 3 22 3 33z" />
    <glyph glyph-name="Scaron" unicode="&#x160;" horiz-adv-x="610" 
d="M539 962l-124 -180h-75l-58 180h74l33 -108l77 108h73zM602 641l-67 -65c-50 50 -102 68 -175 68s-144 -40 -144 -121c0 -61 68 -87 143 -114c94 -33 200 -88 200 -202c0 -162 -143 -219 -281 -219c-119 0 -213 54 -263 134l82 60c44 -68 114 -110 197 -110
s163 30 163 126c0 62 -61 94 -132 119c-96 33 -209 72 -209 191c0 148 124 218 261 218c102 0 164 -25 225 -85z" />
    <glyph glyph-name="scaron" unicode="&#x161;" horiz-adv-x="462" 
d="M438 767l-125 -180h-75l-57 180h74l33 -108l76 108h74zM446 457l-59 -57c-35 32 -81 46 -117 46c-49 0 -105 -11 -105 -68c0 -96 241 -53 241 -217c0 -124 -103 -172 -211 -172c-76 0 -158 21 -198 92l71 48c33 -45 81 -69 136 -69c56 0 109 19 109 87
c0 100 -241 55 -241 205c0 116 98 165 201 165c66 0 122 -11 173 -60z" />
    <glyph glyph-name="Yacute" unicode="&#xdd;" horiz-adv-x="584" 
d="M549 965l-152 -180h-70l119 180h103zM653 713l-306 -418l-52 -295h-94l52 295l-157 418h102l117 -329l234 329h104z" />
    <glyph glyph-name="yacute" unicode="&#xfd;" horiz-adv-x="546" 
d="M515 757l-152 -180h-69l118 180h103zM519 506l-89 -500c-26 -145 -109 -213 -254 -213c-71 0 -163 32 -178 112l83 28c21 -48 61 -64 110 -64c74 0 137 53 151 126l19 98h-3c-43 -53 -102 -87 -172 -87c-84 0 -132 47 -132 132c0 14 2 27 4 40l57 328h88l-51 -300
c-2 -12 -5 -31 -5 -43c0 -55 25 -80 81 -80c83 0 141 72 154 148l48 275h89z" />
    <glyph glyph-name="LF" 
 />
    <glyph glyph-name="Thorn" unicode="&#xde;" horiz-adv-x="613" 
d="M604 433c0 -15 -1 -30 -4 -45c-25 -140 -140 -220 -278 -220h-158l-29 -168h-95l125 713h95l-20 -111h162c108 0 202 -49 202 -169zM508 416c0 83 -72 105 -142 105h-139l-48 -272h142c95 0 167 39 184 138c2 10 3 19 3 29z" />
    <glyph glyph-name="thorn" unicode="&#xfe;" horiz-adv-x="546" 
d="M515 366c0 -13 -2 -17 -4 -30l-27 -156c-21 -115 -112 -191 -229 -191c-47 0 -101 20 -123 64h-6l-45 -253h-89l163 913h89l-49 -277h4c34 55 96 81 159 81c89 0 157 -66 157 -151zM422 354c0 60 -43 88 -99 88c-71 0 -139 -62 -151 -130l-22 -129c-1 -7 -2 -14 -2 -22
c0 -62 51 -99 109 -99c89 0 121 58 139 131c11 45 18 99 24 138c1 8 2 16 2 23z" />
    <glyph glyph-name="CR" 
 />
    <glyph glyph-name="Zcaron" unicode="&#x17d;" horiz-adv-x="575" 
d="M539 962l-124 -180h-75l-58 180h74l33 -108l77 108h73zM613 713l-12 -68l-467 -563h369l-15 -82h-486l13 73l465 559h-350l15 81h468z" />
    <glyph glyph-name="zcaron" unicode="&#x17e;" horiz-adv-x="478" 
d="M456 767l-125 -180h-75l-57 180h74l33 -108l76 108h74zM475 506l-12 -69l-341 -363h282l-13 -74h-390l13 71l338 362h-262l13 73h372z" />
    <glyph glyph-name="onehalf" unicode="&#xbd;" 
 />
    <glyph glyph-name="onequarter" unicode="&#xbc;" 
 />
    <glyph glyph-name="onesuperior" unicode="&#xb9;" 
 />
    <glyph glyph-name="threequarters" unicode="&#xbe;" 
 />
    <glyph glyph-name="threesuperior" unicode="&#xb3;" 
 />
    <glyph glyph-name="twosuperior" unicode="&#xb2;" 
 />
    <glyph glyph-name="brokenbar" unicode="&#xa6;" horiz-adv-x="491" 
d="M375 725l-61 -346h-61l61 346h61zM301 305l-67 -382h-61l67 382h61z" />
    <glyph glyph-name="minus" unicode="&#x2212;" horiz-adv-x="597" 
d="M516 346l-10 -58h-393l10 58h393z" />
    <glyph glyph-name="multiply" unicode="&#xd7;" horiz-adv-x="521" 
d="M499 478l-182 -156l128 -157l-48 -42l-128 157l-183 -156l-32 39l183 156l-128 158l48 41l128 -157l182 156z" />
    <glyph glyph-name="Adieresis" unicode="&#xc4;" horiz-adv-x="657" 
d="M584 903l-21 -118h-92l21 118h92zM397 903l-20 -118h-91l21 118h90zM595 0h-99l-32 188h-283l-98 -188h-96l387 716h90zM451 268l-55 326h-5l-169 -326h229z" />
    <glyph glyph-name="Aring" unicode="&#xc5;" horiz-adv-x="657" 
d="M543 872c0 -63 -57 -117 -119 -117c-47 0 -83 25 -83 75c0 61 55 116 117 116c47 0 85 -23 85 -74zM595 0h-99l-32 188h-283l-98 -188h-96l387 716h90zM490 861c0 25 -15 40 -40 40c-33 0 -56 -29 -56 -60c0 -23 15 -41 38 -41c32 0 58 30 58 61zM451 268l-55 326h-5
l-169 -326h229z" />
    <glyph glyph-name="Ccedilla" unicode="&#xc7;" horiz-adv-x="644" 
d="M642 543c0 -23 -4 -47 -8 -69h-91c3 15 5 30 5 45c0 88 -69 122 -148 122c-105 0 -185 -66 -203 -170c-14 -78 -28 -157 -42 -236c-2 -11 -3 -23 -3 -34c0 -90 70 -129 153 -129c108 0 180 60 197 167h90l-2 -15c-22 -165 -141 -229 -281 -236l-20 -44c32 0 91 1 91 -45
c0 -70 -88 -96 -144 -96c-28 0 -69 7 -95 18l10 39c24 -10 66 -18 93 -18s70 7 70 42c0 21 -23 23 -39 24l-50 2l38 79c-112 7 -210 64 -210 191c0 16 1 32 4 48c13 79 28 159 42 238c29 160 158 259 318 259c117 0 225 -51 225 -182z" />
    <glyph glyph-name="Eacute" unicode="&#xc9;" horiz-adv-x="590" 
d="M582 965l-152 -180h-70l119 180h103zM617 713l-14 -83h-358l-39 -221h299l-15 -83h-298l-43 -243h359l-14 -83h-455l126 713h452z" />
    <glyph glyph-name="Ntilde" unicode="&#xd1;" horiz-adv-x="685" 
d="M624 886c-20 -58 -50 -105 -111 -105c-53 0 -95 28 -148 28c-18 0 -26 -5 -36 -20c-3 -5 -6 -10 -11 -19l-54 10c24 62 59 105 117 105c52 0 93 -27 145 -27c16 0 23 5 33 18c3 5 7 10 14 21zM695 713l-126 -714h-81l-258 550h-5l-97 -549h-89l126 713h85l256 -541h5
l95 541h89z" />
    <glyph glyph-name="Odieresis" unicode="&#xd6;" horiz-adv-x="664" 
d="M577 903l-21 -118h-92l21 118h92zM391 903l-21 -118h-91l21 118h91zM651 527c0 -17 -1 -33 -4 -49c-14 -78 -26 -157 -42 -235c-34 -168 -164 -255 -319 -255c-121 0 -233 56 -233 192c0 16 1 32 4 48l42 238c30 165 161 259 318 259c124 0 234 -62 234 -198zM553 514
c0 91 -71 127 -153 127c-105 0 -184 -67 -203 -170l-42 -236c-2 -11 -3 -22 -3 -34c0 -90 71 -129 153 -129c103 0 184 61 202 164l43 244c2 11 3 23 3 34z" />
    <glyph glyph-name="Udieresis" unicode="&#xdc;" horiz-adv-x="662" 
d="M588 903l-21 -118h-92l21 118h92zM401 903l-20 -118h-91l21 118h90zM682 713c-28 -162 -57 -325 -86 -487c-27 -152 -159 -238 -308 -238c-115 0 -224 52 -224 182c0 16 1 31 4 47l88 496h96l-85 -481c-2 -12 -3 -23 -3 -34c0 -87 65 -125 145 -125c100 0 177 57 195 157
l85 483h93z" />
    <glyph glyph-name="aacute" unicode="&#xe1;" horiz-adv-x="546" 
d="M476 757l-152 -180h-70l119 180h103zM524 506l-90 -506h-86l11 65h-1c-44 -51 -102 -77 -160 -77c-89 0 -157 49 -157 144c0 13 1 25 3 37c10 52 19 104 28 156c20 113 103 191 221 191c44 0 107 -24 130 -64h2l10 54h89zM404 343c0 66 -67 100 -125 100
c-70 0 -105 -51 -116 -116l-27 -153c-1 -7 -2 -14 -2 -21c0 -61 43 -90 100 -90c70 0 134 68 148 149l20 113c2 6 2 12 2 18z" />
    <glyph glyph-name="agrave" unicode="&#xe0;" horiz-adv-x="546" 
d="M367 577h-70l-120 180h103zM524 506l-90 -506h-86l11 65h-1c-44 -51 -102 -77 -160 -77c-89 0 -157 49 -157 144c0 13 1 25 3 37c10 52 19 104 28 156c20 113 103 191 221 191c44 0 107 -24 130 -64h2l10 54h89zM404 343c0 66 -67 100 -125 100c-70 0 -105 -51 -116 -116
l-27 -153c-1 -7 -2 -14 -2 -21c0 -61 43 -90 100 -90c70 0 134 68 148 149l20 113c2 6 2 12 2 18z" />
    <glyph glyph-name="acircumflex" unicode="&#xe2;" horiz-adv-x="546" 
d="M437 577h-74l-33 108l-77 -108h-73l125 180h75zM524 506l-90 -506h-86l11 65h-1c-44 -51 -102 -77 -160 -77c-89 0 -157 49 -157 144c0 13 1 25 3 37c10 52 19 104 28 156c20 113 103 191 221 191c44 0 107 -24 130 -64h2l10 54h89zM404 343c0 66 -67 100 -125 100
c-70 0 -105 -51 -116 -116l-27 -153c-1 -7 -2 -14 -2 -21c0 -61 43 -90 100 -90c70 0 134 68 148 149l20 113c2 6 2 12 2 18z" />
    <glyph glyph-name="adieresis" unicode="&#xe4;" horiz-adv-x="546" 
d="M479 702l-21 -118h-92l21 118h92zM292 702l-20 -118h-91l21 118h90zM524 506l-90 -506h-86l11 65h-1c-44 -51 -102 -77 -160 -77c-89 0 -157 49 -157 144c0 13 1 25 3 37c10 52 19 104 28 156c20 113 103 191 221 191c44 0 107 -24 130 -64h2l10 54h89zM404 343
c0 66 -67 100 -125 100c-70 0 -105 -51 -116 -116l-27 -153c-1 -7 -2 -14 -2 -21c0 -61 43 -90 100 -90c70 0 134 68 148 149l20 113c2 6 2 12 2 18z" />
    <glyph glyph-name="atilde" unicode="&#xe3;" horiz-adv-x="546" 
d="M501 693c-20 -58 -50 -105 -111 -105c-53 0 -95 28 -148 28c-18 0 -26 -5 -36 -20c-3 -5 -6 -10 -11 -19l-54 11c24 61 59 105 117 105c52 0 93 -28 145 -28c16 0 23 5 33 18c3 5 7 10 14 21zM524 506l-90 -506h-86l11 65h-1c-44 -51 -102 -77 -160 -77
c-89 0 -157 49 -157 144c0 13 1 25 3 37c10 52 19 104 28 156c20 113 103 191 221 191c44 0 107 -24 130 -64h2l10 54h89zM404 343c0 66 -67 100 -125 100c-70 0 -105 -51 -116 -116l-27 -153c-1 -7 -2 -14 -2 -21c0 -61 43 -90 100 -90c70 0 134 68 148 149l20 113
c2 6 2 12 2 18z" />
    <glyph glyph-name="aring" unicode="&#xe5;" horiz-adv-x="546" 
d="M435 686c0 -62 -57 -116 -119 -116c-47 0 -83 25 -83 74c0 62 55 117 117 117c47 0 85 -24 85 -75zM524 506l-90 -506h-86l11 65h-1c-44 -51 -102 -77 -160 -77c-89 0 -157 49 -157 144c0 13 1 25 3 37c10 52 19 104 28 156c20 113 103 191 221 191c44 0 107 -24 130 -64
h2l10 54h89zM382 675c0 25 -15 41 -40 41c-32 0 -56 -30 -56 -61c0 -22 15 -40 38 -40c32 0 58 29 58 60zM404 343c0 66 -67 100 -125 100c-70 0 -105 -51 -116 -116l-27 -153c-1 -7 -2 -14 -2 -21c0 -61 43 -90 100 -90c70 0 134 68 148 149l20 113c2 6 2 12 2 18z" />
    <glyph glyph-name="ccedilla" unicode="&#xe7;" horiz-adv-x="485" 
d="M477 366c0 -17 -2 -33 -6 -49h-85c2 11 4 22 4 33c0 61 -43 92 -101 92c-93 0 -119 -67 -133 -139c0 0 -16 -74 -21 -111c-2 -11 -1 -21 -1 -32c0 -53 47 -99 111 -99c70 0 110 41 143 70l55 -49c-48 -59 -114 -88 -192 -93l-20 -45c33 0 92 1 92 -45
c0 -70 -88 -96 -144 -96c-28 0 -70 7 -95 18l9 39c25 -10 67 -18 93 -18c27 0 71 7 71 42c0 21 -23 23 -39 24l-50 2l38 79c-99 6 -164 61 -164 165c0 15 1 24 3 39l18 110c21 130 107 214 239 214c95 0 175 -48 175 -151z" />
    <glyph glyph-name="eacute" unicode="&#xe9;" horiz-adv-x="515" 
d="M485 757l-152 -180h-70l119 180h103zM493 363c0 -41 -13 -95 -20 -136h-330c-4 -21 -9 -43 -9 -64c0 -68 54 -102 117 -102c49 0 106 37 139 71l53 -52c-57 -68 -123 -92 -211 -92c-102 0 -191 49 -191 161c0 14 1 28 4 42l19 106c23 130 118 220 251 220
c95 0 178 -52 178 -154zM407 349c0 61 -41 94 -99 94c-79 0 -138 -52 -150 -128l-4 -26h245c4 20 8 40 8 60z" />
    <glyph glyph-name="egrave" unicode="&#xe8;" horiz-adv-x="515" 
d="M367 577h-70l-120 180h103zM493 363c0 -41 -13 -95 -20 -136h-330c-4 -21 -9 -43 -9 -64c0 -68 54 -102 117 -102c49 0 106 37 139 71l53 -52c-57 -68 -123 -92 -211 -92c-102 0 -191 49 -191 161c0 14 1 28 4 42l19 106c23 130 118 220 251 220c95 0 178 -52 178 -154z
M407 349c0 61 -41 94 -99 94c-79 0 -138 -52 -150 -128l-4 -26h245c4 20 8 40 8 60z" />
    <glyph glyph-name="ecircumflex" unicode="&#xea;" horiz-adv-x="515" 
d="M455 577h-74l-33 108l-77 -108h-73l125 180h75zM493 363c0 -41 -13 -95 -20 -136h-330c-4 -21 -9 -43 -9 -64c0 -68 54 -102 117 -102c49 0 106 37 139 71l53 -52c-57 -68 -123 -92 -211 -92c-102 0 -191 49 -191 161c0 14 1 28 4 42l19 106c23 130 118 220 251 220
c95 0 178 -52 178 -154zM407 349c0 61 -41 94 -99 94c-79 0 -138 -52 -150 -128l-4 -26h245c4 20 8 40 8 60z" />
    <glyph glyph-name="edieresis" unicode="&#xeb;" horiz-adv-x="515" 
d="M479 702l-21 -118h-92l21 118h92zM292 702l-20 -118h-91l21 118h90zM493 363c0 -41 -13 -95 -20 -136h-330c-4 -21 -9 -43 -9 -64c0 -68 54 -102 117 -102c49 0 106 37 139 71l53 -52c-57 -68 -123 -92 -211 -92c-102 0 -191 49 -191 161c0 14 1 28 4 42l19 106
c23 130 118 220 251 220c95 0 178 -52 178 -154zM407 349c0 61 -41 94 -99 94c-79 0 -138 -52 -150 -128l-4 -26h245c4 20 8 40 8 60z" />
    <glyph glyph-name="iacute" unicode="&#xed;" horiz-adv-x="236" 
d="M359 757l-152 -180h-70l119 180h103zM209 506l-90 -506h-90l90 506h90z" />
    <glyph glyph-name="igrave" unicode="&#xec;" horiz-adv-x="236" 
d="M200 577h-70l-120 180h103zM209 506l-90 -506h-90l90 506h90z" />
    <glyph glyph-name="icircumflex" unicode="&#xee;" horiz-adv-x="236" 
d="M298 577h-74l-33 108l-77 -108h-73l125 180h75zM209 506l-90 -506h-90l90 506h90z" />
    <glyph glyph-name="idieresis" unicode="&#xef;" horiz-adv-x="236" 
d="M331 702l-21 -118h-91l20 118h92zM145 702l-21 -118h-91l21 118h91zM209 506l-90 -506h-90l90 506h90z" />
    <glyph glyph-name="ntilde" unicode="&#xf1;" horiz-adv-x="546" 
d="M516 693c-20 -58 -50 -105 -111 -105c-53 0 -95 28 -148 28c-18 0 -26 -5 -36 -20c-3 -5 -6 -10 -11 -19l-54 11c24 61 59 105 117 105c52 0 93 -28 145 -28c16 0 23 5 33 18l14 21zM498 385c0 -14 -2 -27 -4 -40l-61 -345h-88l55 317c2 12 5 31 5 43c0 55 -25 80 -81 80
c-83 0 -140 -72 -154 -148l-52 -292h-89l90 506h86l-14 -76h3c43 53 102 87 172 87c84 0 132 -47 132 -132z" />
    <glyph glyph-name="oacute" unicode="&#xf3;" horiz-adv-x="516" 
d="M484 757l-152 -180h-70l119 180h103zM484 357c0 -16 -2 -32 -5 -48c-6 -37 -12 -75 -19 -112c-23 -130 -111 -209 -244 -209c-100 0 -175 46 -175 153c0 16 1 32 4 48c6 39 14 79 21 119c24 128 111 209 243 209c102 0 175 -53 175 -160zM393 351c0 63 -36 91 -96 91
c-83 0 -125 -54 -139 -131l-22 -121c-2 -12 -3 -24 -3 -37c0 -62 35 -91 96 -91c83 0 125 53 139 130l22 123c2 12 3 24 3 36z" />
    <glyph glyph-name="ograve" unicode="&#xf2;" horiz-adv-x="516" 
d="M367 577h-70l-120 180h103zM484 357c0 -16 -2 -32 -5 -48c-6 -37 -12 -75 -19 -112c-23 -130 -111 -209 -244 -209c-100 0 -175 46 -175 153c0 16 1 32 4 48c6 39 14 79 21 119c24 128 111 209 243 209c102 0 175 -53 175 -160zM393 351c0 63 -36 91 -96 91
c-83 0 -125 -54 -139 -131l-22 -121c-2 -12 -3 -24 -3 -37c0 -62 35 -91 96 -91c83 0 125 53 139 130l22 123c2 12 3 24 3 36z" />
    <glyph glyph-name="ocircumflex" unicode="&#xf4;" horiz-adv-x="516" 
d="M437 577h-74l-33 108l-77 -108h-73l125 180h75zM484 357c0 -16 -2 -32 -5 -48c-6 -37 -12 -75 -19 -112c-23 -130 -111 -209 -244 -209c-100 0 -175 46 -175 153c0 16 1 32 4 48c6 39 14 79 21 119c24 128 111 209 243 209c102 0 175 -53 175 -160zM393 351
c0 63 -36 91 -96 91c-83 0 -125 -54 -139 -131l-22 -121c-2 -12 -3 -24 -3 -37c0 -62 35 -91 96 -91c83 0 125 53 139 130l22 123c2 12 3 24 3 36z" />
    <glyph glyph-name="odieresis" unicode="&#xf6;" horiz-adv-x="516" 
d="M479 702l-21 -118h-92l21 118h92zM292 702l-20 -118h-91l21 118h90zM484 357c0 -16 -2 -32 -5 -48c-6 -37 -12 -75 -19 -112c-23 -130 -111 -209 -244 -209c-100 0 -175 46 -175 153c0 16 1 32 4 48c6 39 14 79 21 119c24 128 111 209 243 209c102 0 175 -53 175 -160z
M393 351c0 63 -36 91 -96 91c-83 0 -125 -54 -139 -131l-22 -121c-2 -12 -3 -24 -3 -37c0 -62 35 -91 96 -91c83 0 125 53 139 130l22 123c2 12 3 24 3 36z" />
    <glyph glyph-name="otilde" unicode="&#xf5;" horiz-adv-x="516" 
d="M501 693c-20 -58 -50 -105 -111 -105c-53 0 -95 28 -148 28c-18 0 -26 -5 -36 -20c-3 -5 -6 -10 -11 -19l-54 11c24 61 59 105 117 105c52 0 93 -28 145 -28c16 0 23 5 33 18l14 21zM484 357c0 -16 -2 -32 -5 -48c-6 -37 -12 -75 -19 -112c-23 -130 -111 -209 -244 -209
c-100 0 -175 46 -175 153c0 16 1 32 4 48c6 39 14 79 21 119c24 128 111 209 243 209c102 0 175 -53 175 -160zM393 351c0 63 -36 91 -96 91c-83 0 -125 -54 -139 -131l-22 -121c-2 -12 -3 -24 -3 -37c0 -62 35 -91 96 -91c83 0 125 53 139 130l22 123c2 12 3 24 3 36z" />
    <glyph glyph-name="uacute" unicode="&#xfa;" horiz-adv-x="546" 
d="M510 757l-152 -180h-70l119 180h103zM519 506l-90 -506h-86l14 76h-3c-43 -53 -102 -87 -172 -87c-84 0 -132 47 -132 132c0 14 2 27 4 40l61 345h88l-55 -317c-2 -12 -5 -31 -5 -43c0 -55 25 -80 81 -80c83 0 140 72 154 148l52 292h89z" />
    <glyph glyph-name="ugrave" unicode="&#xf9;" horiz-adv-x="546" 
d="M367 577h-70l-120 180h103zM519 506l-90 -506h-86l14 76h-3c-43 -53 -102 -87 -172 -87c-84 0 -132 47 -132 132c0 14 2 27 4 40l61 345h88l-55 -317c-2 -12 -5 -31 -5 -43c0 -55 25 -80 81 -80c83 0 140 72 154 148l52 292h89z" />
    <glyph glyph-name="ucircumflex" unicode="&#xfb;" horiz-adv-x="546" 
d="M461 577h-74l-33 108l-77 -108h-73l124 180h75zM519 506l-90 -506h-86l14 76h-3c-43 -53 -102 -87 -172 -87c-84 0 -132 47 -132 132c0 14 2 27 4 40l61 345h88l-55 -317c-2 -12 -5 -31 -5 -43c0 -55 25 -80 81 -80c83 0 140 72 154 148l52 292h89z" />
    <glyph glyph-name="udieresis" unicode="&#xfc;" horiz-adv-x="546" 
d="M479 702l-21 -118h-92l21 118h92zM292 702l-20 -118h-91l21 118h90zM519 506l-90 -506h-86l14 76h-3c-43 -53 -102 -87 -172 -87c-84 0 -132 47 -132 132c0 14 2 27 4 40l61 345h88l-55 -317c-2 -12 -5 -31 -5 -43c0 -55 25 -80 81 -80c83 0 140 72 154 148l52 292h89z
" />
    <glyph glyph-name="degree" unicode="&#xb0;" horiz-adv-x="295" 
d="M325 658c0 -60 -57 -112 -116 -112c-46 0 -81 30 -81 77c0 60 56 113 115 113c46 0 82 -31 82 -78zM280 650c0 26 -17 47 -44 47c-35 0 -63 -34 -63 -67c0 -26 18 -45 44 -45c34 0 63 31 63 65z" />
    <glyph glyph-name="registered" unicode="&#xae;" horiz-adv-x="525" 
d="M522 619c0 -130 -111 -240 -240 -240c-98 0 -166 60 -166 160c0 129 108 241 238 241c98 0 168 -62 168 -161zM479 615c0 79 -53 132 -132 132c-109 0 -188 -96 -188 -202c0 -78 52 -131 130 -131c108 0 190 96 190 201zM413 647c0 -31 -18 -55 -48 -63l-1 -5
c18 -5 29 -16 29 -35c0 -15 -4 -29 -4 -44c0 -7 1 -15 4 -20h-45c-2 4 -2 8 -2 12c0 14 4 29 4 44c0 19 -12 27 -30 27h-36l-15 -83h-44l37 210h94c28 0 57 -10 57 -43zM367 635c0 18 -13 25 -30 25h-36l-12 -69h38c25 0 40 20 40 44z" />
    <glyph glyph-name="copyright" unicode="&#xa9;" horiz-adv-x="941" 
d="M906 427c0 -263 -219 -489 -483 -489c-200 0 -335 121 -335 324c0 262 215 491 479 491c199 0 339 -123 339 -326zM845 421c0 170 -117 284 -287 284c-236 0 -409 -205 -409 -434c0 -170 114 -284 283 -284c233 0 413 207 413 434zM707 482c0 -20 -4 -40 -7 -59h-70
c2 14 5 28 5 42c0 62 -46 84 -102 84c-76 0 -124 -50 -137 -122l-30 -168c-2 -9 -3 -19 -3 -28c0 -63 43 -89 101 -89c71 0 119 37 135 107l4 18h69l-2 -15c-15 -113 -111 -172 -221 -172c-88 0 -163 40 -163 137c0 13 1 26 3 38l30 170c20 114 112 186 227 186
c84 0 161 -34 161 -129z" />
    <glyph glyph-name="trademark" unicode="&#x2122;" horiz-adv-x="645" 
d="M675 718l-54 -306h-52l38 219l-92 -159h-39l-35 158l-39 -218h-51l54 306h69l37 -164l94 164h70zM358 718l-8 -49h-82l-45 -257h-56l45 257h-82l9 49h219z" />
    <glyph glyph-name="notequal" unicode="&#x2260;" 
 />
    <glyph glyph-name="infinity" unicode="&#x221e;" 
 />
    <glyph glyph-name="plusminus" unicode="&#xb1;" 
 />
    <glyph glyph-name="lessequal" unicode="&#x2264;" 
 />
    <glyph glyph-name="greaterequal" unicode="&#x2265;" 
 />
    <glyph glyph-name="mu" unicode="&#xb5;" 
 />
    <glyph glyph-name="partialdiff" unicode="&#x2202;" 
 />
    <glyph glyph-name="summation" unicode="&#x2211;" 
 />
    <glyph glyph-name="product" unicode="&#x220f;" 
 />
    <glyph glyph-name="pi" unicode="&#x3c0;" 
 />
    <glyph glyph-name="integral" unicode="&#x222b;" 
 />
    <glyph glyph-name="Omega" unicode="&#x3a9;" 
 />
    <glyph glyph-name="logicalnot" unicode="&#xac;" horiz-adv-x="521" 
d="M499 478l-182 -156l128 -157l-48 -42l-128 157l-183 -156l-32 39l183 156l-128 158l48 41l128 -157l182 156z" />
    <glyph glyph-name="radical" unicode="&#x221a;" 
 />
    <glyph glyph-name="approxequal" unicode="&#x2248;" 
 />
    <glyph glyph-name="Delta" unicode="&#x394;" 
 />
    <glyph glyph-name="Agrave" unicode="&#xc0;" horiz-adv-x="657" 
d="M448 785h-70l-120 180h103zM595 0h-99l-32 188h-283l-98 -188h-96l387 716h90zM451 268l-55 326h-5l-169 -326h229z" />
    <glyph glyph-name="Atilde" unicode="&#xc3;" horiz-adv-x="657" 
d="M602 886c-20 -58 -50 -105 -111 -105c-53 0 -95 28 -148 28c-18 0 -26 -5 -36 -20c-3 -5 -6 -10 -11 -19l-54 10c24 62 59 105 117 105c52 0 93 -27 145 -27c16 0 23 5 33 18c3 5 7 10 14 21zM595 0h-99l-32 188h-283l-98 -188h-96l387 716h90zM451 268l-55 326h-5
l-169 -326h229z" />
    <glyph glyph-name="Otilde" unicode="&#xd5;" horiz-adv-x="664" 
d="M599 886c-20 -58 -50 -105 -111 -105l-148 28c-18 0 -26 -5 -36 -20c-3 -5 -6 -10 -11 -19l-54 10c24 62 59 105 117 105l145 -27c16 0 23 5 33 18l14 21zM651 527c0 -17 -1 -33 -4 -49c-14 -78 -26 -157 -42 -235c-34 -168 -164 -255 -319 -255c-121 0 -233 56 -233 192
c0 16 1 32 4 48l42 238c30 165 161 259 318 259c124 0 234 -62 234 -198zM553 514c0 91 -71 127 -153 127c-105 0 -184 -67 -203 -170l-42 -236c-2 -11 -3 -22 -3 -34c0 -90 71 -129 153 -129c103 0 184 61 202 164l43 244c2 11 3 23 3 34z" />
    <glyph glyph-name="divide" unicode="&#xf7;" horiz-adv-x="597" 
d="M396 526l-17 -94h-88l16 94h89zM545 345l-10 -55h-451l10 55h451zM340 208l-17 -95h-88l16 95h89z" />
    <glyph glyph-name="lozenge" unicode="&#x25ca;" 
 />
    <glyph glyph-name="ydieresis" unicode="&#xff;" horiz-adv-x="546" 
d="M482 696l-17 -98h-77l17 98h77zM288 696l-17 -98h-77l18 98h76zM519 506l-89 -500c-26 -145 -109 -213 -254 -213c-71 0 -163 32 -178 112l83 28c21 -48 61 -64 110 -64c74 0 137 53 151 126l19 98h-3c-43 -53 -102 -87 -172 -87c-84 0 -132 47 -132 132c0 14 2 27 4 40
l57 328h88l-51 -300c-2 -12 -5 -31 -5 -43c0 -55 25 -80 81 -80c83 0 141 72 154 148l48 275h89z" />
    <glyph glyph-name="Ydieresis" unicode="&#x178;" horiz-adv-x="584" 
d="M537 886l-18 -98h-76l17 98h77zM343 886l-17 -98h-77l18 98h76zM654 713l-306 -418l-52 -295h-94l52 295l-157 418h102l117 -329l234 329h104z" />
    <glyph glyph-name="Euro" unicode="&#x20ac;" horiz-adv-x="741" 
d="M723 551c0 -20 -4 -41 -7 -61h-89c2 13 5 26 5 40c0 82 -76 109 -146 109c-109 0 -184 -68 -201 -174h211l-11 -65h-211l-17 -93h211l-11 -65h-211c-3 -13 -4 -27 -4 -41c0 -88 67 -127 148 -127c102 0 173 47 189 150h90l-5 -25c-28 -139 -152 -211 -286 -211
c-122 0 -239 53 -239 192c0 21 3 41 7 62h-117l11 65h117l17 93h-117l11 65h117c25 157 162 261 318 261c109 0 220 -50 220 -175z" />
    <glyph glyph-name="Acircumflex" unicode="&#xc2;" horiz-adv-x="657" 
d="M546 772h-74l-33 108l-77 -108h-73l124 180h75zM595 0h-99l-32 188h-283l-98 -188h-96l387 716h90zM451 268l-55 326h-5l-169 -326h229z" />
    <glyph glyph-name="Ecircumflex" unicode="&#xca;" horiz-adv-x="590" 
d="M530 772h-74l-33 108l-77 -108h-73l125 180h75zM617 713l-14 -83h-358l-39 -221h299l-15 -83h-298l-43 -243h359l-14 -83h-455l126 713h452z" />
    <glyph glyph-name="Aacute" unicode="&#xc1;" horiz-adv-x="657" 
d="M606 965l-152 -180h-70l119 180h103zM595 0h-99l-32 188h-283l-98 -188h-96l387 716h90zM451 268l-55 326h-5l-169 -326h229z" />
    <glyph glyph-name="Edieresis" unicode="&#xcb;" horiz-adv-x="590" 
d="M560 903l-21 -118h-92l21 118h92zM373 903l-20 -118h-91l21 118h90zM617 713l-14 -83h-358l-39 -221h299l-15 -83h-298l-43 -243h359l-14 -83h-455l126 713h452z" />
    <glyph glyph-name="Egrave" unicode="&#xc8;" horiz-adv-x="590" 
d="M452 785h-70l-120 180h103zM617 713l-14 -83h-358l-39 -221h299l-15 -83h-298l-43 -243h359l-14 -83h-455l126 713h452z" />
    <glyph glyph-name="Iacute" unicode="&#xcd;" horiz-adv-x="529" 
d="M549 965l-152 -180h-70l119 180h103zM558 713l-15 -83h-154l-97 -547h155l-15 -83h-404l15 83h154l97 547h-155l15 83h404z" />
    <glyph glyph-name="Icircumflex" unicode="&#xce;" horiz-adv-x="529" 
d="M487 772h-74l-33 108l-77 -108h-73l125 180h75zM558 713l-15 -83h-154l-97 -547h155l-15 -83h-404l15 83h154l97 547h-155l15 83h404z" />
    <glyph glyph-name="Idieresis" unicode="&#xcf;" horiz-adv-x="529" 
d="M520 903l-21 -118h-91l20 118h92zM334 903l-21 -118h-91l21 118h91zM558 713l-15 -83h-154l-97 -547h155l-15 -83h-404l15 83h154l97 547h-155l15 83h404z" />
    <glyph glyph-name="Igrave" unicode="&#xcc;" horiz-adv-x="529" 
d="M389 785h-70l-120 180h103zM558 713l-15 -83h-154l-97 -547h155l-15 -83h-404l15 83h154l97 547h-155l15 83h404z" />
    <glyph glyph-name="Oacute" unicode="&#xd3;" horiz-adv-x="664" 
d="M606 965l-152 -180h-70l119 180h103zM651 527c0 -17 -1 -33 -4 -49c-14 -78 -26 -157 -42 -235c-34 -168 -164 -255 -319 -255c-121 0 -233 56 -233 192c0 16 1 32 4 48l42 238c30 165 161 259 318 259c124 0 234 -62 234 -198zM553 514c0 91 -71 127 -153 127
c-105 0 -184 -67 -203 -170l-42 -236c-2 -11 -3 -22 -3 -34c0 -90 71 -129 153 -129c103 0 184 61 202 164l43 244c2 11 3 23 3 34z" />
    <glyph glyph-name="Ocircumflex" unicode="&#xd4;" horiz-adv-x="664" 
d="M546 772h-74l-33 108l-77 -108h-73l124 180h75zM651 527c0 -17 -1 -33 -4 -49c-14 -78 -26 -157 -42 -235c-34 -168 -164 -255 -319 -255c-121 0 -233 56 -233 192c0 16 1 32 4 48l42 238c30 165 161 259 318 259c124 0 234 -62 234 -198zM553 514c0 91 -71 127 -153 127
c-105 0 -184 -67 -203 -170l-42 -236c-2 -11 -3 -22 -3 -34c0 -90 71 -129 153 -129c103 0 184 61 202 164l43 244c2 11 3 23 3 34z" />
    <glyph glyph-name="apple" unicode="&#xf8ff;" horiz-adv-x="597" 
d="M516 346l-10 -58h-393l10 58h393z" />
    <glyph glyph-name="Ograve" unicode="&#xd2;" horiz-adv-x="664" 
d="M462 785h-70l-120 180h103zM651 527c0 -17 -1 -33 -4 -49c-14 -78 -26 -157 -42 -235c-34 -168 -164 -255 -319 -255c-121 0 -233 56 -233 192c0 16 1 32 4 48l42 238c30 165 161 259 318 259c124 0 234 -62 234 -198zM553 514c0 91 -71 127 -153 127
c-105 0 -184 -67 -203 -170l-42 -236c-2 -11 -3 -22 -3 -34c0 -90 71 -129 153 -129c103 0 184 61 202 164l43 244c2 11 3 23 3 34z" />
    <glyph glyph-name="Uacute" unicode="&#xda;" horiz-adv-x="662" 
d="M606 965l-152 -180h-70l119 180h103zM682 713c-28 -162 -57 -325 -86 -487c-27 -152 -159 -238 -308 -238c-115 0 -224 52 -224 182c0 16 1 31 4 47l88 496h96l-85 -481c-2 -12 -3 -23 -3 -34c0 -87 65 -125 145 -125c100 0 177 57 195 157l85 483h93z" />
    <glyph glyph-name="Ucircumflex" unicode="&#xdb;" horiz-adv-x="662" 
d="M546 772h-74l-33 108l-77 -108h-73l124 180h75zM682 713c-28 -162 -57 -325 -86 -487c-27 -152 -159 -238 -308 -238c-115 0 -224 52 -224 182c0 16 1 31 4 47l88 496h96l-85 -481c-2 -12 -3 -23 -3 -34c0 -87 65 -125 145 -125c100 0 177 57 195 157l85 483h93z" />
    <glyph glyph-name="Ugrave" unicode="&#xd9;" horiz-adv-x="662" 
d="M467 785h-70l-120 180h103zM682 713c-28 -162 -57 -325 -86 -487c-27 -152 -159 -238 -308 -238c-115 0 -224 52 -224 182c0 16 1 31 4 47l88 496h96l-85 -481c-2 -12 -3 -23 -3 -34c0 -87 65 -125 145 -125c100 0 177 57 195 157l85 483h93z" />
    <glyph glyph-name="_259" horiz-adv-x="741" 
d="M723 551c0 -20 -4 -41 -7 -61h-89c2 13 5 26 5 40c0 82 -76 109 -146 109c-109 0 -184 -68 -201 -174h211l-11 -65h-211l-17 -93h211l-11 -65h-211c-3 -13 -4 -27 -4 -41c0 -88 67 -127 148 -127c102 0 173 47 189 150h90l-5 -25c-28 -139 -152 -211 -286 -211
c-122 0 -239 53 -239 192c0 21 3 41 7 62h-117l11 65h117l17 93h-117l11 65h117c25 157 162 261 318 261c109 0 220 -50 220 -175z" />
    <glyph glyph-name="nbspace" unicode="&#xa0;" horiz-adv-x="220" 
 />
    </font>
</defs>
</svg>
