<?xml version="1.0" standalone="no"?>
<!DOCTYPE svg PUBLIC "-//W3C//DTD SVG 1.1//EN" "http://www.w3.org/Graphics/SVG/1.1/DTD/svg11.dtd" >
<svg xmlns="http://www.w3.org/2000/svg" xmlns:xlink="http://www.w3.org/1999/xlink" version="1.1">
<metadata>
Created by FontForge 20190801 at Sat Dec 31 20:25:44 2016
 By Jimmy Wärting
Copyright (c) 2016 by Adam Ladd. All rights reserved.
</metadata>
<defs>
<font id="Active-Regular" horiz-adv-x="441" >
  <font-face 
    font-family="Active"
    font-weight="400"
    font-stretch="normal"
    units-per-em="1000"
    panose-1="0 0 5 0 0 0 0 0 0 0"
    ascent="750"
    descent="-250"
    x-height="409"
    cap-height="693"
    bbox="-162 -300.939 1171.88 897.777"
    underline-thickness="50"
    underline-position="-100"
    unicode-range="U+0020-E00C"
  />
<missing-glyph horiz-adv-x="500" 
d="M0 0v700h500v-700h-500zM250 395l170 255h-340zM280 350l170 -255v510zM80 50h340l-170 255zM50 605v-510l170 255z" />
    <glyph glyph-name="A_A.liga" unicode="AA" horiz-adv-x="869" 
d="M632 723c12 -10 33 -10 47 -12c14 -3 14 -2 15 -16c4 -46 25 -107 34 -152c10 -50 31 -100 36 -151c4 -32 15 -64 19 -96c6 -39 23 -78 32 -117c2 -9 2 -19 3 -28c0 -16 6 -31 9 -47c3 -15 6 -28 1 -43c-1 -3 1 -8 1 -13c3 -16 5 -32 5 -48c-11 7 -11 7 -14 20
c-3 14 -3 28 -11 45c0 -19 1 -34 0 -49c-1 -8 5 -22 -13 -20c-2 0 -6 -9 -9 -15c-11 7 -17 17 -24 27c-11 17 -23 16 -32 -2c-3 -5 -4 -12 -13 -5c-3 3 -3 -2 -4 -4c-7 -11 -14 -13 -26 -7c-6 4 -12 10 -14 17c-5 15 -11 29 -13 45c-5 40 -13 79 -15 119c-1 28 -5 35 -14 35
c-10 0 -72 4 -82 3c-8 0 -19 3 -28 3c-5 -24 -9 -51 -12 -75c-5 -32 -12 -65 -22 -96c-6 -18 -15 -36 -28 -53c-14 11 -21 24 -20 42c2 26 9 51 14 76c6 34 12 62 18 95c1 4 4 9 1 14c-23 -1 -48 6 -71 4c-4 0 -15 8 -11 10s13 0 19 1c17 2 12 -1 22 2c8 0 8 7 -8 7
c-7 0 -29 -2 -44 -2c-10 1 -22 2 -32 -1c4 -16 5 -36 8 -53c7 -34 17 -68 25 -102c2 -10 3 -21 5 -31c1 -15 -2 -19 -17 -25c-5 -2 -10 -6 -14 -9c-17 -10 -29 -8 -41 7c-5 6 -9 15 -17 19c-4 -4 -5 -8 -4 -13c1 -4 1 -9 1 -13c-30 -6 -38 0 -51 27c-13 30 -17 61 -23 93
c-6 27 -13 54 -17 82c-4 26 2 21 -12 24c-24 5 -47 4 -71 4c-10 0 -14 -4 -17 -14c-12 -53 -25 -104 -36 -157c-4 -19 -6 -60 -18 -74c-9 -9 -1 21 -6 20c-10 -13 -15 -20 -18 -4c-1 6 -2 12 -1 18c6 49 13 96 18 144c3 22 6 44 8 69c-27 3 -54 6 -65 38c19 6 31 18 59 17
c17 2 18 2 20 18c8 45 16 91 23 137c7 42 17 84 27 126c7 28 11 56 19 84c5 14 4 32 27 26c2 -1 3 1 4 3c10 14 16 16 30 6c4 -2 7 -6 12 -9c8 4 15 8 24 12c10 4 31 -6 33 -18c9 -40 26 -79 31 -121c5 -39 12 -78 11 -117c0 -30 9 -59 14 -87c5 -21 7 -35 13 -56
c5 -16 6 -19 22 -19c29 0 43 -3 57 -4c25 -1 44 -1 63 -2c9 0 13 3 15 12c15 64 24 128 39 191c11 52 16 113 29 165c0 3 0 6 6 10c11 -9 -12 -78 -11 -125c9 33 21 99 32 144c1 6 0 16 0 23c-1 15 7 22 21 19c4 -2 7 -6 12 1c2 5 10 5 15 1zM170 609
c-15 -51 -24 -99 -29 -148s-27 -103 -25 -154c22 -3 47 1 71 -3c-10 101 -11 202 -17 305zM597 553c-9 0 -28 -124 -37 -160c-10 -36 -26 -71 -30 -110c21 -4 71 0 91 -3c5 -1 8 3 7 8c-1 8 -2 16 -2 25c1 36 -5 66 -12 110c-4 25 -14 103 -17 130zM548 522
c-7 -21 -9 -38 -8 -50c5 16 13 31 8 50zM752 375c-14 21 11 -82 42 -233c-3 79 -27 156 -42 233zM800 126c-4 0 -5 -19 3 -22c1 5 0 16 -3 22z" />
    <glyph glyph-name="B_B.liga" unicode="BB" horiz-adv-x="933" 
d="M600 727c24 0 47 0 71 -2c23 -2 38 -7 59 -18c11 -6 22 -13 35 -10c9 2 38 -18 58 -49c5 -7 7 -15 8 -23c3 -20 6 -40 8 -61c1 -11 -1 -20 -8 -33c-13 -25 -38 -33 -46 -50c-7 -15 -49 -48 -67 -57c22 -4 42 -19 67 -29c7 -3 34 -7 47 -17c9 -7 14 -15 22 -21
c26 -18 35 -46 34 -77c-2 -34 -12 -66 -24 -99c-6 -16 -12 -31 -22 -45c-8 -10 -19 -27 -31 -35c-24 -17 -11 -17 -30 -34c-13 -13 -30 -21 -45 -30c-9 -5 -19 -7 -29 -7c-15 0 -21 -4 -33 -12s-26 -9 -39 -11c-4 -1 -15 -1 -16 4c-1 4 8 7 12 9c5 1 10 2 15 4
c5 1 10 3 9 12c-11 -3 -23 -1 -35 -5s-17 -2 -23 -5c-20 -10 -14 -24 -22 -30c-10 -7 -14 6 -27 6c-13 -1 -14 15 -19 3c-17 5 -31 15 -37 32c-4 10 -5 22 -5 33c-1 53 -2 106 0 159c2 64 -1 129 1 193c2 37 2 73 2 110c0 31 5 61 8 92c1 8 1 17 2 26c2 13 1 23 -15 25
c-5 1 -8 4 -8 10c1 4 3 8 8 11c40 21 70 29 115 31zM13 689l163 21c38 4 76 0 112 -14l29 -10c36 -13 53 -41 47 -80c-4 -20 -6 -41 -21 -57c-19 -22 -38 -43 -63 -61c-10 -7 -21 -13 -31 -20c-5 -3 -12 -4 -13 -12c0 -4 -4 -8 -8 -7c-17 1 -24 -14 -37 -20
c-6 -3 -5 -13 -12 -18c30 -2 60 -4 91 -7c24 -3 50 -4 72 -14c33 -13 61 -31 87 -55c11 -13 14 -27 10 -43c-4 -20 -13 -37 -22 -55c-17 -35 -44 -59 -66 -87c-19 -25 -40 -46 -63 -65c-9 -7 -18 -12 -27 -18c-30 -24 -59 -50 -91 -70c-17 -10 -31 -21 -49 -33
c-2 7 -4 12 -5 18c-1 5 -2 9 -7 10c-14 0 -19 10 -23 21c-1 1 -2 3 -4 5c-13 -7 -16 -28 -37 -29l-4 28l-15 100c1 4 0 9 1 13c10 35 7 71 7 106c0 43 0 85 -1 128l-3 114c-1 13 0 27 3 41c4 11 3 22 3 33c1 26 1 52 2 77c-1 13 -2 14 -14 16c-9 0 -19 1 -28 -3
c-8 -3 -13 2 -16 9c-1 5 -3 11 -4 18s2 13 10 15c9 1 18 4 27 5zM630 680c-17 1 -34 3 -51 -5c4 -3 4 -14 11 -7c6 6 12 4 18 2c8 -3 12 -7 15 -15c4 -13 4 -27 3 -39c-3 -44 -2 -76 -7 -120c-1 -12 -8 -58 -4 -76c12 2 33 21 42 24c35 12 58 48 80 68c17 15 22 53 26 70
c3 14 -1 26 -5 39c-1 1 -1 3 1 4c5 1 2 -9 10 -8c1 7 2 13 -4 18c-23 19 -48 35 -72 40c-21 4 -42 5 -63 5zM161 649c-8 -2 -12 -4 -11 -14c-1 -48 0 -98 -4 -146c-1 -9 -5 -18 -1 -29c20 8 38 14 47 32c1 2 5 4 7 5c40 30 62 72 89 112c9 14 4 23 -12 25
c-19 0 -37 6 -55 14c-17 9 -39 6 -60 1zM777 609c6 -13 5 -27 0 -42c16 11 15 26 0 42zM689 384c-2 -1 -20 -3 -23 -3c-7 0 -17 -8 -35 -11c-11 -2 -14 0 -14 -13c1 -38 2 -128 0 -167c-1 -37 0 -75 -2 -114c18 8 35 14 49 25c9 7 19 13 29 16c9 3 25 14 36 29
c-19 -3 -29 -23 -35 -23c-4 4 0 5 1 9c6 17 33 36 47 52c14 18 27 36 32 59c2 16 3 32 1 48c-3 32 -19 39 -40 64c-7 7 -17 15 -25 20c-6 4 -11 11 -21 9zM200 368c-17 3 -34 1 -53 -7c6 -5 16 0 17 -9c-4 -6 -12 -3 -18 -6c-3 -22 0 -46 1 -68c-1 -23 3 -46 3 -69
c0 -22 3 -45 5 -67s0 -45 5 -67c20 14 35 30 55 39c7 2 12 7 14 14c2 6 6 12 8 16c18 33 40 62 55 97c7 19 13 38 21 57c7 15 7 18 -8 32c-6 7 -14 10 -23 12c-24 7 -48 5 -72 5c-9 1 -9 1 -18 8c26 -1 51 -6 78 -2c-6 11 -15 10 -22 8c-17 -1 -32 2 -48 7z" />
    <glyph glyph-name="C_C.liga" unicode="CC" horiz-adv-x="917" 
d="M652 732c25 5 48 -3 72 -8c4 -1 8 -2 12 -2c21 0 34 -2 61 -24c25 -15 39 -23 53 -48c6 -11 14 -23 18 -36c2 -9 6 -18 -5 -24c-3 -2 -5 -7 -5 -10c-2 -17 -14 -26 -28 -34c-9 -4 -20 -24 -26 -30c-10 2 -10 23 -13 31c-5 10 0 28 -2 39c-3 18 -2 37 -15 51
c-6 7 -18 20 -30 25c-14 6 -27 10 -42 14s-30 5 -45 -6c-6 -4 -21 -78 -26 -102s-7 -53 -11 -80c-5 -26 -4 -53 -4 -80c0 -36 0 -72 -2 -109c-1 -9 0 -85 6 -107c13 -46 25 -75 42 -94c15 -17 26 -27 43 -35c2 0 4 0 6 1c48 14 89 40 131 67c5 3 8 13 14 14
c11 2 16 12 26 16c-1 -28 -11 -51 -31 -70c-5 -5 -10 -10 -14 -16c-12 -20 -32 -32 -51 -46c-5 -4 -12 -6 -18 -8c-13 -4 -27 -5 -38 -16c-8 -9 -21 -10 -33 -6c-21 6 -42 11 -65 11c-16 0 -28 12 -42 19c-15 8 -30 17 -41 31c-5 6 -11 13 -21 10c-1 -1 -5 1 -6 3
c-8 11 -20 19 -27 31c-17 29 -26 61 -29 94c-7 60 0 119 6 178c3 31 7 62 14 93c1 2 3 5 2 7c-14 24 -2 47 0 71c4 28 11 56 22 81c7 17 17 41 34 53c19 14 39 24 57 39c16 12 34 9 51 12zM228 714c47 9 89 -2 129 -25c20 -12 30 -33 31 -55c2 -41 6 -177 -19 -144
c-14 18 -5 -11 -12 -18c-5 -5 -4 -12 -8 -17c-26 25 -25 60 -31 91c-5 26 -8 52 -10 78c-3 37 -48 60 -84 43c7 -1 11 -2 15 -2c2 -2 2 -4 0 -5c-16 -11 -24 -25 -30 -44c-7 -22 -18 -43 -21 -66c-4 -31 -17 -60 -22 -91c-4 -18 -8 -36 -10 -55c-5 -40 0 -106 -2 -133
c-1 -6 -3 -12 -2 -18c4 -16 2 -32 1 -48c-1 -12 12 -23 13 -34c3 -29 8 -57 23 -83c11 -19 26 -29 48 -26l41 3c7 0 12 4 18 8c27 16 35 19 58 40c3 2 14 7 27 19c12 12 24 20 36 33c7 7 19 13 25 14c5 -8 -12 -23 -4 -29c0 -2 -1 -4 -1 -5c-7 -10 -19 -13 -24 -21
c-7 -12 -8 -18 -15 -26c-6 -6 -13 -11 -20 -17c-3 -3 -6 -8 -10 -13c-21 -23 -28 -33 -48 -43c-18 -9 -35 -20 -52 -32c-17 -11 -37 -16 -56 -23c-18 -6 -25 3 -41 -4c-3 -1 -7 2 -10 3c-5 2 -10 4 -14 0c-1 -2 -4 -3 -5 -3c-19 7 -32 10 -50 17c-14 6 -37 38 -43 53
c-14 31 -25 56 -28 90c-1 26 2 40 -7 66c-4 10 0 22 -5 33c-5 8 -5 18 -2 27c3 11 3 22 3 33c2 46 0 93 8 138c4 23 1 45 6 68c12 64 38 122 73 176c1 1 2 2 4 3c1 -1 3 -1 4 -2c7 -7 12 -6 16 2c9 15 21 26 35 36c3 2 5 6 10 4c21 -7 42 1 62 4zM627 709c-6 2 -9 -3 -12 -6
l-4 -8l8 3c4 3 10 3 11 9c0 1 -2 2 -3 2zM615 35c11 -14 25 -3 40 -6c-14 15 -26 14 -40 6z" />
    <glyph glyph-name="D_D.liga" unicode="DD" horiz-adv-x="1025" 
d="M569 731c15 0 30 -5 44 -9c9 -3 17 -10 18 -22c1 -11 8 -16 19 -16c24 0 47 -4 70 -9c25 -5 50 -12 74 -20c7 -3 13 -3 20 -3c20 2 34 -5 43 -23c3 -6 8 -11 15 -16c4 5 2 12 8 16c11 -3 21 -5 28 -19c5 -11 14 -42 23 -51c25 -26 37 -58 33 -93c-3 -25 -3 -49 -5 -73
c-3 -29 -5 -58 -13 -87c-5 -17 -10 -41 -15 -61c-7 -5 -9 -11 -11 -18c-8 -28 -16 -36 -40 -56c-4 -3 -8 -6 -12 -8c-9 -4 -15 -9 -17 -18c-1 -4 -4 -7 -7 -9c-33 -26 -64 -54 -97 -80c-10 -9 -25 -12 -36 -22c-9 -9 -20 -15 -32 -19c-5 -3 -11 -4 -18 -6
c-10 -2 -22 -2 -24 -17c-1 -5 -7 -4 -10 -3c-6 3 -11 8 -18 12c-6 -3 -10 -7 -16 -10c-8 -3 -15 -4 -21 1c-8 6 -16 8 -25 7c-14 0 -22 8 -27 20c-6 14 -8 28 -7 44c4 53 5 106 3 159c0 46 2 91 3 137c1 24 1 48 -1 73c-2 23 2 46 4 69c4 46 7 92 9 138c0 4 1 8 -2 11
c-33 7 -34 8 -36 33c15 0 31 -2 48 2c4 16 -13 23 -17 38c12 0 22 3 32 7c4 2 9 1 13 1zM93 720c22 -5 44 -6 66 -10c39 -6 78 -14 116 -21c11 -2 23 -2 34 -5c42 -12 75 -36 92 -77c5 -13 9 -26 12 -40c1 -5 2 -9 9 -9s7 -6 9 -11c13 -40 17 -81 12 -122
c-3 -21 -6 -42 -4 -64c0 -3 -1 -6 -2 -9c-13 -54 -31 -107 -59 -155c-3 -4 -6 -7 -6 -11c-4 -32 -33 -46 -48 -69c-2 -3 -5 -4 -9 -3c-7 2 0 9 -5 13c-8 -12 -14 -23 -23 -33c-15 -18 -29 -36 -46 -52c-17 -15 -33 -28 -52 -39c-16 -10 -17 -14 -16 -32c-17 0 -34 2 -52 -4
c-11 -5 -27 -6 -35 9c-6 -2 -7 -7 -10 -10c-8 -5 -13 -14 -26 -10c-14 5 -20 13 -19 26c2 32 -2 63 1 95c3 34 3 69 -1 103c-5 46 -7 93 -7 140c1 29 -1 58 -1 86c0 44 -2 87 4 130c3 21 -3 42 -1 63c1 8 0 15 6 22c7 7 4 19 4 29c1 6 0 12 0 21c-7 0 -14 -1 -22 0
c-11 1 -11 2 -5 14c9 18 25 18 41 17c10 -1 20 -2 29 1c2 1 2 3 2 5c-4 15 -3 16 12 12zM137 668c-13 -1 -17 -6 -11 -16c11 -19 5 -41 13 -60c-1 -53 1 -105 4 -158c2 -42 0 -85 5 -127c4 -34 1 -70 11 -104c1 -1 1 -2 1 -3c-3 -29 4 -57 5 -86c0 -7 0 -15 4 -23
c17 20 29 42 43 63c-8 2 -12 -6 -20 -4c1 4 4 6 6 8c11 10 25 17 33 30c36 60 66 123 89 189c3 10 6 20 6 31c1 25 3 49 3 73c1 12 2 24 -1 36c-11 40 -29 77 -55 109c-3 4 -6 6 -10 9c-21 15 -43 29 -71 27c-2 0 -3 1 -5 2c-17 1 -33 5 -50 4zM641 649c1 -4 1 -6 2 -7
c9 -8 10 -19 14 -30c5 -17 4 -34 7 -51c2 -19 2 -38 1 -58c0 -13 -2 -25 0 -39c2 -17 2 -35 -1 -52c-2 -12 -4 -23 -5 -35l-3 -64c-1 -10 -2 -20 1 -30c4 -14 3 -28 1 -42c-1 -13 -2 -25 -2 -38c-1 -35 -2 -70 -2 -105c-1 -5 -2 -11 4 -15c19 17 38 25 52 46
c23 33 48 54 68 89c17 30 32 62 40 96c9 41 16 83 18 125c2 41 -3 80 -18 118c-9 22 -25 58 -46 70c-41 23 -84 24 -131 22zM306 624c-2 -3 0 -5 2 -7c1 -2 3 -4 5 -7c3 10 1 14 -7 14zM421 531c-4 -25 8 -48 9 -72c5 25 -3 49 -9 72zM895 236c-25 -33 -57 -40 -77 -78
c36 25 55 43 77 78zM678 36c-13 -2 -13 -2 -19 -13c6 4 13 5 19 13z" />
    <glyph glyph-name="E_E.liga" unicode="EE" horiz-adv-x="815" 
d="M689 711c4 -6 12 -6 19 -6c6 -1 13 0 20 -1c9 -1 18 -2 25 -8c5 -4 12 -10 10 -18s-10 -10 -17 -10c-23 -2 -46 -4 -69 -5c-43 -2 -87 -9 -130 -15c-9 -2 -12 -7 -6 -15c7 -9 6 -18 5 -28c-4 -23 1 -46 2 -69c1 -35 1 -70 -5 -105c-2 -13 -1 -27 -1 -43c26 0 50 -1 74 0
c12 0 23 1 34 0c13 -1 26 -3 39 -1c4 1 8 1 12 0c4 -2 15 -1 14 -8c0 -7 -10 -14 -15 -15c-14 -2 -28 -2 -41 -10c-8 -5 -19 -6 -29 -2c-8 2 -16 3 -24 0c4 -9 22 0 25 -9c-7 -5 -24 -7 -34 -7c-12 0 -25 -2 -37 -4c-16 -2 -19 1 -20 -15c0 -16 2 -31 5 -47
c7 -31 2 -63 8 -95c0 -5 -1 -10 3 -14c2 -2 4 -6 3 -9c-7 -19 -2 -38 -4 -57c-2 -18 -1 -35 -9 -52c-1 -1 1 -4 1 -8c38 2 73 13 111 19h28c20 2 37 3 57 2c24 -1 29 -6 37 -32c-39 -5 -73 -15 -114 -15c-39 -1 -77 -15 -117 -11c0 -4 -1 -6 0 -8c3 -7 5 -14 -3 -19
c-6 -4 -19 -1 -25 4c-5 5 -8 13 -16 15c0 -1 -2 -2 -1 -3c0 -7 3 -15 -5 -19c-9 -3 -16 1 -22 7c-4 4 -7 9 -10 14c-2 3 -4 8 -9 8c-17 0 -21 13 -26 25c-2 6 -3 12 -4 19c-2 40 -5 81 -7 121c-2 23 3 45 7 67c5 28 4 65 3 96c-20 -1 -37 7 -38 6c-8 -1 -93 10 -106 2
c-7 -4 75 -7 69 -10c-2 -1 -29 -4 -31 -4c-18 -1 -37 -5 -56 -4c-30 2 -53 -4 -83 -5c-13 -1 -14 -4 -14 -18c1 -34 0 -64 -4 -98c-6 -43 -8 -86 -8 -129c0 -3 1 -6 1 -10c21 -2 42 0 63 4c5 1 9 2 14 -2c9 -8 21 -8 32 -6c25 5 51 1 76 6h4c5 -1 11 -2 11 -8
c0 -5 -5 -6 -10 -7c-12 0 -24 -6 -35 -10c-7 -3 -12 -5 -10 -13c1 -4 -2 -5 -5 -6c-30 -5 -60 -10 -91 -12c-60 -3 -120 -7 -178 -26c-9 -2 -18 -4 -27 -4c-5 0 -10 0 -14 4s-11 8 -10 15c1 6 8 7 13 9c20 6 40 11 60 17c5 1 11 3 19 5c-10 4 -17 9 -24 12
c-22 -2 -30 8 -30 45c-2 25 -1 50 1 75c2 47 2 91 2 138c0 3 1 9 -3 10c-9 2 -17 4 -22 14c-5 8 -18 1 -27 4c9 19 27 26 44 35c6 3 8 6 8 12v41c0 10 -2 23 5 32c2 4 1 9 2 13c1 37 4 74 4 111c1 17 5 33 5 50c-1 8 9 12 7 20c-1 4 -5 4 -7 5c-11 6 -9 16 -8 25s7 12 15 14
c50 8 99 16 149 19c48 3 80 0 129 -1c11 0 22 -3 38 1c-7 -10 -14 -11 -21 -11s-9 -9 -16 -11c4 0 8 0 11 -1c2 -1 2 -2 1 -3c-7 -5 -14 -9 -22 -9c-25 0 -33 -12 -57 -6c-13 3 -89 -12 -108 -20c6 -21 6 -41 11 -60c7 -27 12 -54 14 -81c2 -22 -2 -45 -2 -67v-33
c0 -9 3 -12 13 -11c31 5 45 3 77 2c3 0 15 2 18 2c33 3 54 -5 81 -5c18 0 39 0 60 -1c13 -1 14 0 15 13c3 40 3 81 4 122l3 105c0 5 0 10 1 15s6 10 11 8c11 -6 19 2 31 5c-18 25 -43 13 -66 15c5 14 11 23 25 28c12 4 24 10 37 9c6 -1 11 4 16 6c14 6 20 5 29 -7
c5 -6 18 -3 25 -1c23 4 37 3 60 6c15 2 24 0 38 6c12 -1 29 14 39 0zM171 660c-13 -3 -28 2 -40 -10c16 -2 28 4 40 10zM742 383c3 -2 3 -9 0 -10c-7 -3 -16 -3 -19 7c6 6 12 7 19 3zM692 356c3 0 5 -1 6 -4s-1 -4 -3 -6c-9 -4 -17 -4 -24 6c8 1 15 3 21 4z" />
    <glyph glyph-name="F_F.liga" unicode="FF" horiz-adv-x="763" 
d="M82 712c7 -8 12 -16 14 -27c21 -1 40 6 59 9c29 5 59 5 88 10c33 6 67 2 100 6c4 1 8 2 10 -2c2 -5 -2 -8 -6 -10c-13 -8 -22 -17 -27 -31c-4 -8 -9 -12 -19 -14c-22 -4 -45 -8 -68 -6c-25 3 -49 -4 -73 -7c-13 -2 -17 -4 -30 -1c-4 1 -8 1 -12 -1c-3 -19 -3 -38 -1 -57
c4 -47 1 -93 7 -139c1 -11 5 -14 19 -11c25 5 49 8 74 9c28 1 38 4 46 -5c-8 -8 -7 -25 -13 -35c-4 -7 -21 -6 -16 -11c11 -12 11 -12 -2 -16c-17 -5 -43 -3 -60 -8c-11 -3 -22 -6 -33 -8c-9 -2 -12 -7 -11 -16c2 -37 3 -73 9 -110c3 -20 5 -40 7 -61c3 -27 1 -55 8 -81
c3 -9 3 -19 1 -28c-2 -10 -2 -19 -2 -28c1 -16 -3 -32 -4 -48c-1 -13 -10 -11 -17 -15c-6 -11 -11 -7 -16 5c0 15 -19 15 -21 28c0 6 -5 8 -11 5c-11 -8 -23 -6 -35 -1c-14 6 -17 9 -17 25c0 30 -1 61 0 92c1 34 -2 67 -3 101c-2 39 5 77 3 116c-1 17 -18 13 -22 17
c-6 4 -3 24 -10 29s-1 13 7 17c5 2 18 4 22 7c0 46 0 90 -1 133c0 48 -7 95 -8 142c0 9 2 15 10 18c6 3 13 5 16 -5c2 -6 5 -10 12 -13c-3 21 14 20 26 26zM710 701c6 0 11 3 15 -4c3 -7 1 -13 -5 -18c-2 -2 -5 -4 -7 -5c7 -12 24 -16 25 -32c-4 -4 -9 -2 -13 -2
c-2 -1 -6 -1 -6 -3c1 -15 -10 -8 -15 -7c-27 3 -55 6 -82 11c-18 3 -34 0 -51 -5c-22 -6 -44 -10 -66 -13c-14 -1 -14 -1 -12 -14c1 -4 1 -9 2 -13c6 1 1 10 10 11c4 -59 6 -118 5 -178c20 0 37 8 55 5c6 -11 -8 -13 -10 -20c8 -1 15 0 23 2c19 4 38 2 54 -13
c6 -6 7 -14 12 -20c-29 -23 -64 -20 -97 -21c-9 -1 -18 -2 -27 -5c-8 -2 -11 -6 -10 -13c0 -4 0 -8 1 -11c7 -35 8 -69 7 -104c-1 -44 -7 -147 -6 -191c1 -28 -5 -57 -11 -85c-1 -6 -5 -10 -9 -14c-4 -3 -8 -4 -12 -1c-8 7 -14 16 -26 12c-16 10 -31 20 -35 39
c-2 9 -6 15 -15 17c-8 1 -12 6 -16 13c-10 17 -16 36 -15 57c2 52 4 163 4 215c0 78 2 155 0 233c-2 37 2 75 7 112c1 11 0 22 4 33c1 5 3 7 8 9c13 4 26 1 38 -5c2 2 3 4 4 5c3 5 1 13 8 14s17 3 23 -4c6 -8 13 -7 21 -5c28 7 56 7 84 10c45 4 91 6 136 8z" />
    <glyph glyph-name="F_I.liga" unicode="FI" horiz-adv-x="578" 
d="M82 712c7 -8 12 -16 14 -27c21 -1 40 6 59 9c29 5 59 -2 88 3c16 3 63 -1 120 5c54 6 113 7 130 9c4 1 8 2 10 -2c2 -5 -4 -6 -6 -10c-13 -26 -39 -17 -27 -31c6 -7 -9 -14 -19 -14c-30 -1 -63 2 -88 5c-49 5 -5 -8 -29 -8c-33 0 -57 -4 -101 -6c-25 -1 -49 -4 -73 -7
c-13 -2 -17 -4 -30 -1c-4 1 -8 1 -12 -1c-3 -19 -3 -36 -1 -55c4 -47 1 -93 7 -139c1 -11 5 -14 19 -11c25 5 49 8 74 9c28 1 38 4 46 -5c-8 -8 -7 -25 -13 -35c-4 -7 -21 -6 -16 -11c11 -12 11 -12 -2 -16c-17 -5 -43 -3 -60 -8c-11 -3 -22 -6 -33 -8c-9 -2 -12 -7 -11 -16
c2 -37 3 -73 9 -110c3 -20 5 -40 7 -61c3 -27 1 -55 8 -81c3 -9 3 -19 1 -28c-2 -10 -2 -19 -2 -28c1 -16 -3 -32 -4 -48c-1 -13 -10 -11 -17 -15c-6 -11 -11 -7 -16 5c0 15 -19 15 -21 28c0 6 -5 8 -11 5c-11 -8 -23 -6 -35 -1c-14 6 -17 9 -17 25c0 30 -1 61 0 92
c1 34 -2 67 -3 101c-2 39 5 77 3 116c-1 17 -18 13 -22 17c-6 4 -3 24 -10 29s-1 13 7 17c5 2 18 4 22 7c0 46 0 90 -1 133c0 48 -7 95 -8 142c0 9 2 15 10 18c6 3 13 5 16 -5c2 -6 5 -10 12 -13c-3 21 14 20 26 26zM398 603c18 -3 38 -1 52 -16c17 -19 25 -41 27 -66
c2 -44 2 -48 6 -95c3 -34 3 -48 7 -82c2 -13 2 -25 6 -37c7 -29 4 -57 0 -85c-6 -40 -5 -60 -7 -99c-1 -18 1 -36 -8 -53c-3 -7 -1 -14 1 -20c1 -6 5 -12 -3 -17c-3 -2 -1 -6 1 -8c5 -6 2 -11 -1 -17c-8 -13 -8 -13 -20 -5c-8 5 -15 3 -21 0c-18 -10 -36 -8 -55 -6
c-6 1 -11 4 -13 10c-3 12 -8 22 -7 35c0 27 1 54 1 80c0 29 -4 56 -8 84c-6 48 -2 75 -6 142c-2 35 1 71 0 105c-2 41 1 63 2 104c1 15 1 15 17 15c3 1 5 1 7 1c3 7 -2 13 0 20c3 5 10 2 14 7c2 2 6 4 8 3zM468 325l-5 42c-2 -6 -5 -29 -5 -42v-23c0 -4 6 -17 7 -22l2 -22
c1 4 1 1 4 12s1 22 1 28s-3 20 -4 27z" />
    <glyph glyph-name="F_i.liga" unicode="Fi" horiz-adv-x="557" 
d="M82 712c7 -8 12 -16 14 -27c21 -1 40 6 59 9c29 5 59 6 88 10c63 9 97 5 130 9c4 1 8 2 10 -2c2 -5 -6 -16 -10 -18c-13 -8 -18 -9 -23 -23c-3 -9 -9 -12 -19 -14c-22 -4 -55 2 -78 -6c-24 -8 -69 -7 -93 -10c-13 -2 -17 -4 -30 -1c-4 1 -8 1 -12 -1
c-3 -19 -3 -38 -1 -57c4 -47 1 -93 7 -139c1 -11 5 -14 19 -11c25 5 49 8 74 9c28 1 38 4 46 -5c-8 -8 -7 -25 -13 -35c-4 -7 -21 -6 -16 -11c11 -12 11 -12 -2 -16c-17 -5 -43 -3 -60 -8c-11 -3 -22 -6 -33 -8c-9 -2 -12 -7 -11 -16c2 -37 3 -73 9 -110c3 -20 5 -40 7 -61
c3 -27 1 -55 8 -81c3 -9 3 -19 1 -28c-2 -10 -2 -19 -2 -28c1 -16 -3 -32 -4 -48c-1 -13 -10 -11 -17 -15c-6 -11 -11 -7 -16 5c0 15 -19 15 -21 28c0 6 -5 8 -11 5c-11 -8 -23 -6 -35 -1c-14 6 -17 9 -17 25c0 30 -1 61 0 92c1 34 -2 67 -3 101c-2 39 5 77 3 116
c-1 17 -18 13 -22 17c-6 4 -3 24 -10 29s-1 13 7 17c5 2 18 4 22 7c0 46 0 90 -1 133c0 48 -7 95 -8 142c0 9 2 15 10 18c6 3 13 5 16 -5c2 -6 5 -10 12 -13c-3 21 14 20 26 26zM379 607c12 1 16 -2 16 -13c-1 -9 3 -12 11 -19c21 -19 27 -37 5 -55c-10 -7 -17 -21 -33 -18
c-7 7 -18 1 -27 5c-33 17 -38 43 -15 75c10 14 25 22 43 25zM386 420c21 0 30 -9 35 -29c1 -3 1 -7 4 -9c11 8 14 7 14 -6c1 -5 1 -10 -1 -15c-3 -10 -3 -20 -1 -30c5 -42 4 -84 5 -126c1 -26 4 -51 7 -77c1 -18 4 -36 5 -54c2 -20 -3 -35 16 -27c21 10 25 9 52 28
c9 6 28 21 38 24c6 3 11 6 15 10c9 7 19 14 32 4c-7 -10 -15 -17 -24 -24c-14 -11 -22 -17 -32 -33c-5 -9 -9 -10 -18 -11c-6 0 -13 -8 -18 -12c-6 -5 -13 -6 -18 -11c-4 -5 -7 -10 -11 -13c-5 -4 -12 -6 -18 -8l-19 -6c-4 -2 -9 -3 -14 -3c-3 0 -6 1 -9 1
c-4 -2 -6 -6 -10 -7s-8 2 -12 5c-4 4 -9 8 -16 9c-7 2 -13 11 -22 4c-4 -3 -9 3 -13 6c-15 16 -16 36 -19 56c-3 26 -2 53 -1 80c1 32 2 65 5 97c3 28 5 56 3 84c-2 20 5 40 0 61c-1 7 7 14 12 19c9 8 21 12 33 13z" />
    <glyph glyph-name="G_G.liga" unicode="GG" horiz-adv-x="872" 
d="M251 722c-8 -15 -24 -10 -36 -20c18 -1 33 -2 47 3c10 3 19 2 29 1c15 -2 28 -7 39 -15c16 -10 26 -27 27 -46c2 -19 0 -38 -3 -57l-3 -31c-1 -5 -1 -10 -4 -12c-13 -8 -10 -22 -16 -34c-6 0 -12 3 -18 0c-16 -6 -30 2 -36 19c-3 7 -3 15 -3 22c-2 23 -3 46 -4 70
c-1 12 -5 24 -7 36c-1 8 -6 13 -13 15c-30 10 -60 -1 -74 -29c-10 -21 -22 -41 -28 -63c-9 -34 -18 -68 -14 -104c3 -26 0 -52 1 -77c0 -21 2 -41 1 -62c-3 -62 8 -124 8 -187c0 -3 1 -6 1 -9c-10 -31 5 -56 18 -82c8 -16 12 -17 28 -9c25 13 48 31 76 40c6 2 9 6 9 13
c-2 60 5 121 4 181c0 1 0 3 -1 5c-21 6 -40 15 -63 12c-10 -1 -11 10 -14 16c2 5 6 6 10 6c27 0 53 10 79 13h4c11 14 15 4 20 -6c1 -1 4 -1 6 -2c6 9 2 20 9 29c9 -1 16 -8 26 -8c6 0 6 -6 6 -11c2 -19 6 -38 6 -57c1 -21 0 -41 2 -62c4 -42 1 -85 3 -127
c2 -22 1 -44 3 -66c1 -21 -7 -41 -27 -53c-3 -2 -3 -7 -8 -8c-19 20 -31 46 -51 65c-8 7 -7 19 -11 28c-7 0 -10 -5 -13 -9c-14 -17 -27 -34 -49 -39c-10 -14 -27 -12 -40 -17c-15 -6 -32 -5 -48 -3c-14 1 -27 3 -41 5c-23 3 -45 12 -53 38c-5 17 -12 33 -19 49
c-8 18 -8 37 -8 56c0 39 -1 77 -3 115c-1 26 4 51 6 76c0 11 2 22 1 32c-3 25 5 50 3 75c-3 35 10 67 17 101c2 5 4 9 5 14c6 44 31 77 61 107c9 10 22 18 33 27c2 1 4 2 5 2c29 0 50 21 74 31c13 4 26 1 41 3zM673 704c9 10 37 5 49 -6c8 -7 15 -13 25 -16
c7 -2 10 -10 13 -15c8 -13 11 -28 16 -42c8 -21 9 -41 7 -63c0 -5 0 -11 -2 -16c-3 -11 0 -27 -10 -33c-9 -5 -17 -14 -28 -16c-2 0 -3 -4 -5 -8c-6 11 -17 14 -20 25c0 1 -2 3 -3 3c-27 7 -29 31 -33 51c-4 19 -4 39 -7 58c-2 18 -18 34 -36 37c-13 3 -26 4 -41 3
c-9 -31 -14 -63 -18 -96c-1 -11 -3 -22 -4 -33c-8 -60 -11 -121 -15 -181c-1 -24 -6 -48 -5 -71c0 -22 -2 -43 1 -65c2 -20 0 -40 3 -60c2 -12 -1 -24 1 -37c3 -17 9 -33 13 -50c0 -2 2 -5 4 -6c13 -6 25 -15 42 -9c25 8 38 28 55 46c2 3 2 7 1 11c-6 51 -2 102 9 152
c1 4 2 8 -1 12c-22 1 -49 -10 -66 18c10 7 21 4 30 5c20 1 40 3 60 6c9 2 17 4 15 16c-1 10 6 14 14 15c10 1 19 0 27 -5c5 -3 10 -8 17 -3c2 3 5 -1 6 -4c2 -2 2 -6 8 -5c12 2 13 1 12 -10c-1 -15 -1 -31 -1 -47c3 -58 -6 -117 -3 -175c1 -19 4 -39 2 -58
c0 -8 0 -15 -4 -23l-13 9c-3 3 -5 10 -7 8c-7 -7 -13 2 -21 -1c-24 -10 -38 -5 -53 15c-11 15 -14 15 -31 7c-9 -5 -18 -8 -27 -14c-13 -8 -29 -4 -43 -7c-3 -1 -7 1 -11 -3c7 -7 15 -6 24 -6c2 -1 5 -1 5 -4c1 -4 -1 -6 -5 -6c-20 -1 -42 -10 -61 5c-3 2 -7 3 -10 3
c-16 2 -31 7 -40 22l-6 4c-22 3 -29 22 -38 38c-1 1 -1 1 -1 2c-10 23 -27 106 -30 131c-2 22 -1 43 -2 65c-1 20 2 40 4 60c1 11 2 21 -1 31c-5 17 -5 35 -2 52c7 44 15 87 27 129c1 3 1 8 3 8c15 6 13 20 17 31c5 14 10 29 13 43c5 19 16 34 28 48c6 6 12 5 20 8
c13 5 17 0 5 -31l-3 -8c-6 -22 -11 -43 -9 -65c0 -3 -2 -9 5 -10c10 35 11 80 26 111c-1 8 7 6 7 14c5 7 7 5 20 6c19 1 39 0 58 -5c8 -2 16 -5 24 5zM47 479c-6 -3 -8 -8 -8 -14c-2 -24 -4 -49 -5 -74c0 -3 1 -6 7 -6c0 30 3 60 9 89c0 1 -2 3 -3 5z" />
    <glyph glyph-name="H_H.liga" unicode="HH" horiz-adv-x="912" 
d="M290 743c12 -7 18 -18 23 -30c7 -19 8 -40 21 -56c3 -4 4 -10 4 -15c-1 -17 1 -34 3 -52c3 -24 2 -50 2 -75v-111c5 -4 9 -1 13 -1c23 4 62 7 86 5c10 -1 13 3 15 13c9 55 15 110 21 165c4 33 6 66 9 100c15 1 29 1 39 -18c2 16 6 26 9 36c1 5 1 9 7 10c4 0 6 -3 8 -7
c1 -3 2 -5 5 -7c19 -13 24 -34 28 -55c5 -18 4 -38 3 -57c-1 -30 -2 -61 -5 -91c-3 -25 0 -51 0 -77c0 -6 3 -9 9 -8c23 2 47 -3 69 -1s43 3 65 5c7 0 6 6 6 11c0 21 1 42 1 64l3 164v41c15 3 28 11 39 -4c2 -3 6 -2 9 -2c6 1 12 1 20 2c0 -11 4 -17 15 -21
c18 -6 19 -11 16 -30c-5 -41 -6 -83 -3 -125c1 -12 0 -24 2 -35c5 -29 3 -58 9 -87c6 -26 6 -54 6 -82c1 -21 0 -42 0 -63c1 -19 -1 -38 -2 -56c-2 -42 -1 -83 -8 -124c-4 -19 -5 -38 -4 -57c0 -16 -5 -31 -11 -47c-11 10 -26 12 -35 24c0 1 -2 1 -3 2c-32 11 -34 17 -35 45
c0 37 -3 73 -13 109c-9 30 -8 62 -1 93c1 7 1 14 -1 22c-5 16 -7 32 -5 49c3 17 1 35 1 53c-4 3 -12 2 -16 7c3 9 14 3 17 14c-29 -11 -58 -9 -88 -13c3 -4 9 -1 10 -5c0 -2 -1 -4 -3 -4c-19 0 -36 -9 -55 -10c-14 -1 -15 -4 -16 -17c-2 -29 1 -57 5 -86c4 -31 4 -63 5 -95
c0 -34 0 -68 -2 -101c0 -22 -4 -44 -5 -65c-1 -5 -2 -9 -4 -13c-4 -6 -12 -8 -14 -5c-9 13 -27 8 -36 20c-3 5 -6 11 -15 4c-6 -5 -19 -3 -28 -1c-7 2 -9 10 -10 17c-2 10 -2 20 -3 30c-3 23 -1 46 0 69c3 40 -3 81 -6 121c-3 35 -4 70 -1 105v11c-36 -6 -86 3 -121 0
c-2 -49 -2 -96 7 -142c6 -31 8 -62 6 -93c0 -6 -1 -11 -3 -17c-9 -23 -13 -48 -12 -75c-11 4 -21 5 -29 -5c-5 -6 -11 -3 -15 1c-15 16 -26 32 -28 55c-4 36 1 70 0 105c-1 53 -1 106 -2 159v9c-5 4 -10 2 -14 2c-27 -5 -54 -10 -81 -14c-10 -2 -11 -7 -11 -16
c0 -21 1 -43 1 -65c-1 -36 -6 -71 -10 -106c-2 -14 0 -29 -2 -43c0 -4 1 -9 0 -13c-3 -29 -5 -57 -4 -86c0 -18 -7 -25 -24 -28c-9 -2 -27 6 -32 15c-7 13 -14 26 -14 41c-1 7 -3 11 -9 14c-15 8 -21 21 -22 37c0 15 0 29 -7 44c-6 14 -5 31 -5 46c1 43 3 85 4 128
c1 10 2 20 -13 21c-3 0 -5 2 -5 4c0 9 -8 9 -12 12c-14 8 -23 18 -28 35c19 0 33 10 51 6c8 -3 10 4 10 11l3 60c4 69 9 137 10 206v32c1 12 5 16 16 16c13 0 29 -11 33 -24c6 -19 17 -35 28 -52c5 -6 8 -12 9 -20c9 -40 19 -80 15 -122c-2 -25 0 -50 1 -75
c0 -16 1 -16 17 -16c5 -1 10 0 15 0c23 1 47 6 71 5c6 -1 10 0 11 8c0 33 0 66 4 99c2 28 1 56 1 84c0 39 2 78 3 116c1 10 1 19 -3 28c4 6 12 4 15 11zM622 366c-15 1 -26 1 -36 -6c11 2 21 3 36 6z" />
    <glyph glyph-name="I_I.liga" unicode="II" horiz-adv-x="508" 
d="M354 705c10 -14 36 -13 38 -37c1 -4 2 -8 7 -12c3 12 0 24 1 38c13 -9 17 -22 14 -35c-4 -18 -1 -35 3 -53c3 -19 2 -39 2 -58c0 -18 -1 -36 1 -54c6 -47 6 -95 6 -142c0 -11 1 -22 2 -32c2 -25 -2 -48 -4 -73c-1 -24 -2 -49 0 -74c1 -7 1 -15 1 -22c1 -5 -1 -11 4 -14
c6 -5 5 -10 1 -15c-2 -3 -5 -5 -5 -9c0 -27 -10 -53 -11 -79c0 -9 -6 -15 -7 -23c-17 -1 -10 -21 -24 -28c-1 17 -9 12 -22 15c-10 2 -12 -2 -17 -2c-9 0 -12 12 -21 9c-1 -1 -3 1 -4 3c-12 16 -24 31 -24 53c0 7 1 14 -2 20c-3 7 2 20 -14 16c-1 0 -3 4 -4 6
c-8 13 -14 28 -9 44c3 8 -2 13 -2 20c1 30 1 60 2 90l9 133c3 48 5 97 11 145c3 25 2 49 1 74c-1 13 -1 27 -2 41c0 3 -1 7 3 8c9 2 15 4 16 16c0 6 12 9 12 19c-1 3 1 4 4 5c10 2 20 5 30 7c1 1 3 1 4 0zM74 683c18 -3 38 -1 52 -16c17 -19 25 -41 27 -66
c2 -44 2 -88 6 -135c3 -34 3 -68 7 -102c2 -13 2 -25 6 -37c7 -29 4 -57 0 -85c-6 -40 -5 -80 -7 -119c-1 -18 1 -36 -8 -53c-3 -7 -1 -14 1 -20c1 -6 5 -12 -3 -17c-3 -2 -1 -6 1 -8c5 -6 2 -11 -1 -17c-8 -13 -8 -13 -20 -5c-8 5 -15 3 -21 0c-18 -10 -36 -8 -55 -6
c-6 1 -11 4 -13 10c-3 12 -8 22 -7 35c0 27 1 54 1 80c0 29 -6 56 -8 84c-6 68 -2 135 -6 202c-2 35 1 71 0 105c-2 41 1 83 2 124c1 15 1 15 17 15c3 1 5 1 7 1c3 7 -2 13 0 20c3 5 10 2 14 7c2 2 6 4 8 3zM304 250l-4 5c0 -2 -6 -9 -6 -18v-30l-1 -32c0 -4 4 -32 4 -39
c1 -6 9 19 9 28s-2 26 -2 34c0 7 2 22 1 31z" />
    <glyph glyph-name="J_J.liga" unicode="JJ" horiz-adv-x="549" 
d="M138 704c28 -9 29 -10 32 -39c2 -19 7 -37 13 -55c9 -31 7 -63 10 -94c2 -10 3 -19 6 -28c0 -50 7 -84 8 -132c0 -13 -1 -27 -5 -40c-8 -21 3 -55 3 -77c0 -45 -4 -90 -9 -135c-2 -21 -9 -42 -24 -61c-26 -33 -49 -54 -85 -75c-3 -2 -14 -5 -26 -3c15 19 45 28 63 49
c-12 3 -20 0 -28 -7c-16 -15 -30 -30 -52 -35c-11 -16 -35 -10 -46 -27c-3 -5 -12 -5 -17 1c-5 8 -12 9 -21 8c-12 -3 -12 1 -14 15c-1 13 4 17 13 23c24 15 46 34 65 56c29 35 37 76 35 121c-3 45 -1 89 -2 134c0 50 -1 101 -2 152c0 15 1 31 3 46c3 25 2 50 1 76
c-2 26 -2 52 -3 78v2c1 22 8 27 30 16c5 9 8 18 19 19c2 0 4 2 5 4c7 13 17 11 28 8zM380 678c17 -6 15 -1 27 -12c9 3 25 4 32 6c2 -2 4 -4 5 -6l30 -136c1 -5 2 -10 2 -15c-2 -43 7 -87 4 -131c-2 -34 7 -68 3 -102c-4 -45 -6 -89 -2 -134c0 -5 -1 -10 -2 -15
c-5 -25 -8 -51 -9 -77c0 -25 -4 -50 -27 -68c-9 -6 -6 -17 -14 -24c-40 -33 -84 -56 -140 -54c-9 0 -18 1 -25 11c32 0 62 -3 86 18c-19 8 -19 8 -34 4c-18 -5 -40 0 -57 -1c-2 0 -4 0 -6 1c-21 13 -40 19 -54 39c11 -1 23 -4 31 -1c42 14 90 27 103 66c6 18 8 37 10 56
c3 44 13 87 0 132c-12 41 -15 84 -14 128c2 54 5 108 -3 162c-4 25 2 51 6 77c2 12 4 23 4 35c0 13 7 23 16 33c7 9 16 12 28 8zM159 59c-7 -3 -7 -8 -11 -14c7 4 10 7 11 14z" />
    <glyph glyph-name="K_K.liga" unicode="KK" horiz-adv-x="881" 
d="M782 756c8 -5 9 -39 5 -45c-6 -9 -16 -18 -18 -28c-6 -26 -16 -14 -25 -38c-4 -12 -12 -22 -18 -33c-11 -18 -25 -27 -29 -48c-3 -17 -16 -34 -25 -49c-14 -23 -30 -49 -39 -74c-4 -11 6 -15 12 -22c2 12 -1 22 8 30c8 -4 11 -5 15 -13c7 -18 13 -35 22 -52
c8 -13 14 -25 25 -36c14 -14 20 -34 26 -52c19 -52 37 -105 58 -156c14 -35 28 -70 43 -104c3 -7 6 -14 10 -20c4 -5 5 -11 1 -16c-4 -4 -12 -5 -16 -2c-12 10 -29 5 -42 14c-6 4 -13 3 -20 1c-9 -2 -18 1 -24 8c-8 8 -17 13 -27 16c-28 11 -39 33 -46 59
c-12 46 -23 91 -38 136c-10 28 -14 59 -22 89c-3 16 -7 32 -12 51c-14 -16 -17 -34 -17 -52c0 -56 -3 -112 0 -168c0 -18 2 -35 2 -53c0 -26 -2 -52 -4 -78c-2 -17 -7 -19 -22 -12c-5 2 -9 0 -13 -1c-12 -3 -23 1 -33 8c-3 3 -6 10 -11 2c-2 -2 -4 2 -6 4c-4 5 -3 13 -3 19
c0 35 -3 72 1 106c6 28 8 60 10 89c-10 -7 -16 -18 -15 -29c3 -40 -4 -79 -8 -119c-1 -14 1 -28 0 -43c0 -5 -1 -9 0 -12c0 -3 -8 -1 -16 3s-12 9 -14 17c-4 13 -7 26 -7 40c-1 77 -3 153 -3 229c0 43 2 85 2 128c0 18 -2 37 -2 56c1 42 4 100 7 141c2 17 1 33 2 49
c0 5 -2 12 6 14c7 1 10 -4 12 -9c1 -3 1 -7 4 -8c16 15 21 40 45 48c8 -3 6 -18 19 -14c1 1 5 -4 6 -6c2 -20 16 -34 21 -53c4 -16 8 -33 9 -66c1 -26 8 -51 11 -77c3 -21 3 -41 4 -62c0 -3 -1 -6 3 -9c7 8 12 18 16 28c24 52 41 77 67 128c14 26 35 43 47 69
c12 24 40 52 56 77zM367 701c5 6 17 -1 18 -10c0 -5 -1 -11 -5 -16c-12 -19 -26 -39 -40 -57c-14 -19 -26 -39 -38 -58c-3 -5 -6 -11 -10 -16c-5 -8 -13 -15 -15 -24c-1 -8 -7 -14 -9 -23c-2 -15 -15 -24 -25 -33c-15 -15 -16 -29 -8 -49c11 -29 24 -58 36 -88
c3 -9 8 -18 9 -28c1 -11 9 -18 13 -27c17 -47 39 -92 63 -136c13 -25 28 -50 36 -78c2 -4 3 -8 3 -12c1 -12 4 -23 10 -34c3 -5 8 -10 5 -18c-14 4 -26 4 -33 -13c-1 -3 -4 1 -6 0c-9 -3 -17 -2 -26 -4c-16 -5 -29 5 -40 15c-9 8 -17 16 -28 21c-4 -3 1 -9 -4 -13
c-11 4 -17 13 -21 24c-12 35 -23 71 -33 107c-11 36 -23 71 -34 106c-11 37 -24 73 -31 112c0 4 -3 7 -5 12c-9 -6 -8 -13 -8 -21c3 -32 6 -65 8 -98c2 -53 8 -105 6 -157c0 -11 -4 -21 -8 -31c-3 -9 -2 -14 -4 -19c-2 -8 -1 -18 -15 -18c-9 0 -5 -13 -10 -20
c-11 7 -21 -2 -31 -5c-21 -6 -41 3 -45 24c-3 20 -5 46 -6 66c-3 48 -7 95 -11 142c-3 41 -5 82 -6 124c0 47 -3 94 -3 142c-1 39 -3 79 3 118c1 8 -1 16 -1 24c-1 8 -4 19 -1 24c9 10 17 19 12 34c-1 1 3 4 6 3c9 -2 16 1 23 5c15 8 29 6 44 2c11 -2 18 -9 20 -21
c4 -24 7 -47 7 -71c0 -12 0 -23 2 -34c4 -22 2 -45 2 -67c1 -33 3 -66 5 -101c12 9 18 20 25 30c18 24 35 50 52 75c31 46 64 91 99 134c11 13 24 25 33 40c5 7 14 8 20 16z" />
    <glyph glyph-name="L_L.liga" unicode="LL" horiz-adv-x="796" 
d="M98 726c6 -6 8 -16 19 -18c4 -1 3 -7 3 -10c0 -13 0 -26 -2 -39c-4 -40 -1 -80 0 -120c0 -17 -3 -34 1 -50c1 -7 0 -14 7 -19c13 38 -3 76 3 115c7 37 -1 76 5 117c14 -11 11 -24 10 -35c0 -26 1 -52 1 -78c-1 -46 1 -91 1 -137c1 -45 -2 -90 7 -134
c8 -34 13 -67 17 -102c2 -31 -4 -61 -7 -91c-1 -7 -2 -13 -2 -20c-1 -11 -2 -22 -8 -32s-6 -21 -1 -32c3 -1 5 0 6 3c5 9 5 10 13 2c3 -3 6 -3 9 -3c13 0 27 -1 41 2c19 3 38 4 58 6c10 0 21 1 30 -5c5 -3 11 -2 17 -2c5 0 10 1 15 -2s10 -7 3 -12c-5 -5 -7 -8 -3 -14
c3 -3 1 -7 -2 -8c-14 -6 -25 -15 -42 -13c-24 2 -48 -6 -73 -4c-27 1 -55 -2 -82 -4c-26 -3 -60 -2 -86 -7c-18 -3 -31 6 -40 26c10 8 28 -1 33 16c-1 5 -6 7 -9 11c-7 10 -14 19 -15 32c-3 60 0 120 -4 179c-3 50 -2 100 -4 150c-1 53 -4 105 -5 158c-1 42 2 85 -2 127
c-1 10 5 13 12 13c16 -2 27 11 42 12c3 0 5 3 7 6c5 13 15 15 27 16zM405 696c11 5 20 1 29 -6c8 -6 15 -13 21 -22l18 -29c2 0 3 1 4 1v28c12 -11 12 -25 13 -36c2 -12 3 -24 4 -36c1 -11 2 -21 10 -29c4 -4 3 -9 4 -14c8 -37 8 -57 11 -94c2 -37 4 -74 4 -111
c0 -18 1 -36 2 -54c0 -16 0 -32 -5 -47c-6 -17 -5 -34 -5 -51c0 -5 -1 -9 -3 -13s-2 -9 0 -13c9 -24 9 -50 10 -75c1 -15 1 -16 17 -16c25 0 50 -2 75 -3c8 -1 14 -3 22 -7c13 -6 28 -10 43 -9c14 1 28 0 42 -1c15 -1 25 -10 36 -20c6 -4 6 -11 0 -14c-7 -4 -15 -11 -24 -9
c-38 10 -77 1 -116 2c-48 2 -97 -2 -146 -8c-21 -2 -43 2 -65 2c-10 -1 -16 10 -24 16c6 14 21 11 31 20c-25 19 -27 47 -28 74c-1 49 1 98 1 147c1 37 4 74 -2 110c-10 67 1 114 -2 180c-1 31 1 63 -3 95c-1 4 -1 8 -3 11c-4 16 3 27 20 29c3 1 6 1 9 2zM575 63
c-17 0 -33 2 -49 -2c16 -6 38 -5 49 2zM491 57c-23 5 -23 5 -29 -5c11 0 20 -1 29 5zM67 35c-4 0 -3 -4 -4 -7c-1 -2 0 -3 2 -3c4 -1 5 1 6 5c-1 2 0 5 -4 5z" />
    <glyph glyph-name="M_M.liga" unicode="MM" horiz-adv-x="1192" 
d="M143 716c5 1 7 -1 8 -4c7 -15 14 -29 24 -42c9 -12 13 -26 16 -40c19 -73 38 -156 56 -229c5 -23 10 -46 18 -73c8 23 10 43 13 63c5 31 7 62 13 92c6 34 12 68 20 101c6 28 10 61 23 87c7 13 18 24 32 21l24 -5c6 -1 10 -3 15 -7c12 -12 14 -11 21 6c0 1 1 1 3 3
c5 -2 9 -9 16 -3c3 3 9 1 14 -1c3 -1 5 -4 8 -5c35 -11 37 -39 38 -68c0 -4 -1 -8 -1 -11c5 -52 -4 -104 -5 -155c0 -41 1 -83 5 -124c4 -34 4 -70 8 -104c5 -45 1 -90 3 -135c1 -19 5 -37 4 -56c-2 -21 -11 -29 -33 -24c-5 -3 -3 -8 -4 -12c-4 -8 -10 -10 -19 -8
c-22 3 -37 16 -54 27c-20 13 -24 30 -24 49c-1 29 -3 57 0 86c2 18 0 35 -2 52c-6 63 -5 125 -10 188c-5 59 -4 118 -12 177l-3 8c-8 -12 -11 -24 -14 -35c-7 -25 -17 -50 -22 -75c-10 -51 -22 -101 -22 -153c0 -11 -3 -22 -4 -34c-2 -17 -10 -34 -3 -51
c6 -17 -8 -26 -15 -37c-2 -4 -7 -2 -10 0c-6 2 -12 6 -19 5c-2 -7 -2 -13 8 -13c10 -1 13 -15 18 -21c-4 -6 -8 -5 -14 -6c-17 -2 -37 -1 -43 7c-8 10 -10 9 -21 15c-17 10 -28 27 -35 45c-24 61 -47 123 -65 186c-9 34 -18 69 -28 103c-3 11 -6 22 -11 34
c4 -20 -6 -39 -2 -59c4 -24 0 -48 1 -73c2 -40 1 -82 4 -122c3 -35 5 -70 10 -104c3 -20 6 -40 4 -60c-3 -33 -3 -67 -2 -100c1 -5 1 -10 -2 -15c-8 -11 -15 -13 -30 -5c-4 -2 -3 -8 -9 -9c-1 2 -4 3 -4 6l-3 56l2 116c1 35 -1 70 -5 105c-7 72 -8 145 -6 217
c1 51 -1 112 0 164c1 7 0 15 -1 22c-1 8 4 12 11 15c12 4 23 3 33 -1c7 3 7 10 11 14c14 14 16 16 35 8c11 -4 23 -9 28 -23c1 -2 3 -4 7 -3c2 9 -2 19 3 27zM967 691c11 0 24 4 30 -9c1 -2 5 -2 7 -2c14 2 23 -6 28 -16c6 -1 8 8 12 4c8 -9 17 -8 27 -8s12 -10 18 -16
c6 -4 12 -8 9 -29c-1 -5 1 -10 2 -15c5 -23 7 -48 9 -72c2 -36 3 -72 8 -108c3 -25 6 -50 4 -75c-1 -12 1 -23 2 -35c0 -28 3 -55 1 -82c-1 -21 2 -41 3 -62c0 -20 0 -39 -6 -58c-6 -23 -4 -47 0 -70c1 -8 1 -15 -4 -23c-7 -9 -13 -11 -23 -6c-6 3 -11 6 -16 10
c-4 3 -6 15 -14 3c-10 8 -25 11 -30 23c-6 12 -13 24 -18 36c-3 8 -6 16 -8 23c-1 9 -4 16 -11 23c-9 7 -11 19 -12 30c-3 25 -5 49 -5 73c0 45 -5 90 -10 134c-2 28 -3 55 -5 82c-3 32 -2 63 -5 96c-8 -4 -8 -10 -9 -15c-4 -18 -11 -36 -14 -54c-4 -21 -12 -40 -19 -59
c-11 -32 -22 -64 -31 -96c-2 -5 -5 -10 -6 -15c0 -2 -4 -4 -3 -7c12 -21 -6 -39 -9 -58c-1 -7 -5 -15 -11 -20c-4 -4 -5 -9 -6 -14c-6 -22 -13 -45 -20 -68c-9 1 -16 8 -25 5c-2 -1 -5 1 -7 2c-11 13 -25 23 -25 42c-1 22 -14 41 -18 63l-3 5c-17 14 -24 33 -31 53
c-14 34 -28 68 -38 103c-1 4 -2 8 -4 11c-14 30 -25 61 -32 94c-9 -2 -6 -8 -6 -12c1 -32 9 -63 10 -95c1 -50 3 -100 5 -150c1 -27 4 -55 5 -82c1 -20 1 -41 -1 -61c-2 -11 -7 -43 -5 -52c5 -26 3 -44 6 -59c2 -17 -2 -35 -1 -51c-7 -4 -12 0 -16 4c-11 13 -21 26 -22 44
c-3 62 -5 160 -10 221c-4 56 -5 111 -8 167c-2 39 -3 78 -1 116c2 32 3 64 4 96c0 8 1 17 -8 23c-2 2 -3 5 -4 8c-7 15 -5 19 11 20c7 1 14 1 22 5c10 5 23 3 32 -4c12 -9 27 -14 40 -22c16 -10 29 -21 39 -37c3 -5 6 -11 15 -15l-16 40c-1 4 -4 8 1 10c4 2 7 0 10 -2
c9 -9 17 -16 24 -27c16 -27 24 -57 37 -86c13 -30 25 -61 38 -93c8 15 11 30 17 43c7 20 14 39 24 57c16 30 29 60 42 91c4 9 9 28 15 35c6 9 8 18 5 28c-2 11 3 18 14 17zM435 514c-10 -23 1 -42 2 -65c9 20 8 53 -2 65z" />
    <glyph glyph-name="N_N.liga" unicode="NN" horiz-adv-x="920" 
d="M843 740c5 -4 5 -9 3 -14c-5 -11 -4 -22 -3 -33c3 -16 6 -32 1 -48c-3 -8 2 -15 3 -22c3 -25 -1 -49 -2 -73c-1 -31 -3 -62 -3 -93c-1 -27 5 -54 3 -111c0 -12 1 -24 1 -36c-2 -53 1 -107 4 -161c1 -15 2 -31 1 -46c-3 -42 3 -83 4 -124l-1 -7c-5 -2 -6 2 -9 4
c-6 6 -9 18 -22 10c0 0 -3 0 -3 1c-12 15 -34 10 -48 23c-4 4 -10 8 -16 1c-3 -4 -6 -1 -9 0c-5 2 -7 6 -10 10c-3 5 -10 9 -13 16c-9 18 -22 29 -39 54c-6 9 -10 20 -13 31c-4 17 -12 33 -19 49c-14 31 -27 61 -36 94c-8 27 -18 54 -25 81c-12 40 -26 81 -33 123
c-2 10 -9 20 -11 30c-5 32 -21 63 -32 95c-1 4 -2 9 -7 12c0 -6 -1 -11 0 -16c1 -30 5 -49 4 -78c0 -4 -1 -8 0 -11c6 -31 15 -47 7 -100c-2 -13 -1 -26 2 -38c2 -7 3 -14 -1 -20c-2 -4 -3 -7 -3 -11c7 -35 13 -70 17 -104c4 -33 10 -66 10 -99c0 -13 0 -25 1 -38
c3 -32 2 -71 -3 -105c-11 9 -26 9 -33 22c-3 5 -8 6 -13 2c-4 -3 -9 -1 -12 -4c-4 4 -5 8 -5 12c-6 63 -20 134 -14 198c1 20 -2 39 -4 58c-6 46 0 93 0 139c1 25 1 51 3 77c2 19 -3 38 -4 58c-2 40 -7 89 -7 129c0 3 -1 5 -1 8c1 5 2 13 5 13c8 3 13 11 21 13
c11 2 21 -1 26 -13c7 1 12 5 17 9c5 6 12 6 18 8c8 2 12 -3 15 -8c3 -3 7 -2 11 -3c12 0 19 -7 24 -17c7 -13 10 -27 21 -42c-2 20 -11 34 -12 50c6 2 9 -1 11 -4c5 -9 11 -16 22 -19c3 -1 5 -3 6 -6c14 -25 30 -59 36 -88c5 -22 15 -43 22 -65c9 -32 16 -64 23 -97
c9 -46 21 -91 33 -136l29 -101c7 -22 16 -44 15 -68c0 -3 3 -4 5 -5c6 3 6 8 6 13c-6 97 -13 224 -10 320l6 188c1 32 9 64 5 98c16 -5 24 8 35 15zM153 696c2 0 6 -1 6 -3c3 -14 15 -22 20 -36c13 -39 15 -80 30 -119c22 -60 38 -123 60 -183c8 -23 13 -47 20 -70
c11 -39 23 -78 34 -117c1 -2 2 -5 5 -5c5 49 5 99 -5 149c-5 -7 -1 -14 -2 -21s1 -15 -1 -22c-7 2 -6 7 -6 11c0 25 -1 51 -3 77c0 15 3 31 3 47c0 20 -2 39 -3 58c-2 20 -3 40 -2 60c2 48 3 95 1 143c0 9 6 15 10 21c2 3 7 3 10 3c9 -1 28 -17 29 -26c1 -30 9 -60 7 -91
s0 -62 -1 -94c0 -24 3 -48 1 -73c-2 -44 1 -88 0 -133c0 -27 7 -55 9 -83c2 -35 10 -69 12 -104c0 -10 3 -23 -3 -27c-13 -9 -5 -18 -5 -27c0 -5 1 -9 1 -14c1 -13 -7 -25 -18 -29c-5 -3 -9 0 -11 4c-6 8 -13 7 -21 8c-19 3 -38 -3 -55 7c-12 -6 -21 5 -32 6
c-13 1 -18 9 -21 20c-7 25 -15 49 -21 74c-9 39 -23 75 -32 114c-11 53 -29 104 -45 156c-13 41 -25 81 -33 123c-4 25 -11 50 -16 75c-7 -2 -5 -6 -5 -8c-2 -83 -4 -165 -4 -248c0 -59 6 -118 7 -178c1 -33 7 -83 9 -116c2 -18 1 -37 1 -58c-14 6 -22 17 -36 20
c-5 1 -8 8 -7 14c0 9 -3 17 -7 25c-4 6 -5 14 -5 22c-4 47 -4 111 -6 159c-1 13 0 27 -4 41c-1 3 0 7 0 11c4 57 -3 115 -2 172c1 65 1 129 1 194c0 13 -1 27 -2 41c0 8 0 12 11 15c14 3 27 7 41 1c5 -2 12 1 16 3c23 11 47 8 70 11zM322 44c-1 -18 -1 -18 17 -16
c-4 8 -5 17 -17 16z" />
    <glyph glyph-name="O_O.liga" unicode="OO" horiz-adv-x="934" 
d="M194 720c3 0 4 -8 -1 -13c-9 -9 1 -10 -5 -18c-1 -5 -4 -9 -7 -14c-14 -34 -19 -71 -23 -109c-4 -25 -14 -236 -9 -263c5 -22 9 -45 9 -69c0 -26 1 -53 8 -77c10 -26 19 -69 29 -94c5 -10 13 -17 25 -17c4 0 8 -1 9 -7c10 -5 26 14 51 50c8 12 8 29 8 44c-2 2 -1 7 -2 10
c-5 31 -3 62 -1 93c2 24 -6 159 -5 187c1 24 0 48 -4 71c-15 -2 -28 -3 -31 -2c-8 3 -26 3 -35 7s-14 27 -16 35c-2 9 2 23 2 28v20c0 4 0 11 -1 18s6 27 7 31c4 14 6 22 11 32c8 15 11 16 19 24c7 2 11 7 20 7c8 0 21 -8 31 -8c6 0 16 -9 24 -12c5 -2 5 -8 10 -9l16 -35
c4 -6 10 -11 12 -15c8 -14 18 -43 23 -59c6 1 12 3 16 5c11 4 33 22 43 24c11 2 29 18 33 21c18 17 36 25 50 34c27 17 38 23 56 28c8 2 15 6 23 9c7 3 12 -7 19 -10c5 0 10 2 17 6c3 2 6 4 4 10c-3 8 2 9 8 13c35 14 54 6 86 -8c10 -5 16 -14 20 -24c1 -5 1 -11 4 -14
c6 0 8 2 8 6c1 7 -3 17 3 17c7 1 20 -8 23 -13c8 -11 14 -17 28 -29c9 -7 12 -15 16 -23s5 -17 18 -16c4 1 10 -4 9 -10c-4 -25 5 -47 9 -68c9 -60 10 -104 4 -153c-6 -52 -11 -104 -21 -156c-3 -12 -10 -23 -12 -34c-4 -21 -7 -44 -13 -67c-2 -8 -3 -15 -3 -23
c-2 -11 -7 -21 -21 -28c-7 -3 -11 -12 -17 -19c-13 -14 -33 -20 -50 -29c-3 -3 -6 -2 -10 0c-3 2 -6 2 -10 0c-13 -9 -13 -4 -27 2c-12 4 -13 4 -19 -7c-12 -21 -14 -22 -34 -9c-24 13 -47 25 -68 40c-3 1 -6 4 -7 2c-12 -11 -16 3 -22 8c-5 5 -10 13 -16 18
c-23 27 -33 57 -35 91c-2 33 -5 66 -8 98c-2 15 0 29 1 44c2 36 -7 61 2 97c2 4 5 91 17 144c4 16 15 31 21 48c4 9 9 19 11 32l-19 -13c-6 -6 -17 -14 -27 -21l-34 -22c-3 -2 -10 -12 -36 -25c-10 -5 -21 -11 -28 -14c9 -34 11 -64 15 -99c1 -18 0 -37 0 -56
c2 -51 -12 -100 -11 -151c1 -19 -3 -60 -7 -80c-1 -7 -3 -14 -13 -16c-2 0 -3 -1 -3 -3c-7 -20 -24 -31 -32 -50c-9 -24 -28 -22 -45 -39c-21 -24 -45 -24 -48 -24c-8 0 -39 0 -43 -8c-5 -8 -15 -8 -24 -5c-27 7 -53 19 -75 39c-15 14 -28 28 -40 44c-2 3 -6 6 -3 12
c13 -8 21 -25 36 -31c-7 15 -16 27 -23 42c-2 4 -6 2 -11 1c-25 -1 -30 2 -39 27c-2 9 -4 17 -3 25c0 24 -2 48 -5 72c-4 25 -1 53 1 78c2 26 3 50 2 76c-3 55 -1 112 8 168c9 51 27 97 61 138c12 15 27 23 42 33c7 5 17 7 24 3c8 -5 15 -2 21 0c13 4 17 6 29 6zM137 701
c-9 -3 -14 -4 -19 -9c10 0 10 0 19 9zM683 657c-25 14 -38 3 -51 -24c-12 -27 -16 -55 -26 -83c-1 -3 -2 -8 -2 -12c-2 -34 -4 -55 -9 -88c-2 -17 -3 -34 -4 -51c-1 -51 6 -211 11 -236c2 -14 9 -26 14 -40c6 -14 18 -17 24 -30s14 -27 28 -37c14 0 24 7 34 15
c7 7 8 27 10 37c5 22 6 38 9 60c10 69 5 159 14 226c3 18 6 37 5 56c-1 12 0 8 2 20c2 24 3 47 -4 71c-2 8 -5 16 -5 26c0 28 -13 52 -25 78c-2 4 -4 6 -6 9c-2 2 -5 4 -6 2c-4 -9 -8 -1 -13 1zM259 648c-3 4 -9 -1 -14 -7l-5 -16c-3 -10 -4 -20 -4 -25s6 -33 7 -49
c1 -8 16 -13 19 -13h10v10c2 27 -8 74 -13 100zM754 638c-5 -10 1 -17 2 -24c2 7 4 16 -2 24zM558 218c-2 -7 -1 -12 4 -18c2 8 0 12 -4 18zM579 121c-2 -14 2 -24 20 -39c-5 14 -9 27 -20 39zM94 43c1 -4 3 -8 12 -7c-4 5 -6 8 -12 7z" />
    <glyph glyph-name="P_P.liga" unicode="PP" horiz-adv-x="874" 
d="M492 737c5 0 7 -5 8 -9c3 -7 7 -14 7 -22c2 -1 3 -2 4 -2c23 4 46 3 69 1c13 -1 26 1 39 3c13 1 25 0 37 -3c14 -3 28 -6 42 -8c9 -2 17 -5 25 -10c12 -8 25 -16 37 -25c10 -7 18 -17 20 -29c1 -12 7 -21 12 -32c4 15 -2 30 -3 46c3 -1 5 -1 6 -2c8 -20 23 -36 29 -57
c1 -4 1 -8 0 -11c-3 -32 -11 -63 -22 -93c-9 -24 -29 -39 -47 -55c-20 -18 -44 -32 -70 -42c-12 -5 -24 -11 -35 -18c-6 -4 -11 -3 -14 2c-4 5 1 8 4 11c4 3 8 6 13 9c-8 3 -15 0 -18 -4c-8 -11 -20 -15 -28 -25c-6 -8 -12 -14 -21 -14c-8 -21 3 -39 2 -58
c0 -19 1 -38 2 -58c2 -28 2 -57 -4 -85c-1 -5 -2 -9 -2 -13c4 -25 -1 -50 1 -75c0 -7 -1 -12 -5 -18c-4 -5 -5 -12 -6 -19c-3 -12 -3 -12 -12 -23c-6 1 -5 9 -11 10c-1 -1 -4 -2 -4 -4c1 -8 -8 -13 -9 -22c-1 -7 -8 -7 -11 -3c-7 11 -16 15 -28 15c-7 0 -12 6 -14 11
c-3 8 -8 13 -15 13c-12 2 -18 11 -22 21c-5 13 -10 27 -9 41c0 27 1 54 2 81c1 58 -1 116 -6 174c-1 16 -1 31 1 47c2 15 3 31 2 47c-2 32 7 63 7 95l-3 120c0 2 -1 4 -2 5c-22 -4 -31 6 -34 35c12 2 24 4 37 7c1 8 2 15 -3 23c-5 7 -1 12 6 16c15 7 30 8 46 6zM31 707
c9 -5 22 0 30 -10c1 -2 3 -4 6 -4c16 4 32 -2 48 -1c30 1 60 4 89 0c34 -3 68 -5 97 -26c15 -11 29 -24 41 -39c11 -14 12 -29 19 -43c1 -3 2 -7 1 -10c-3 -22 3 -43 5 -65c2 -23 3 -47 -5 -70c-2 -4 -3 -10 -7 -13c-15 -11 -21 -28 -29 -44c-3 -5 -5 -10 -11 -13
c-18 -9 -33 -22 -49 -33c-3 -2 -6 -5 -10 -6c-31 -13 -58 -33 -87 -50c-5 -3 -9 -7 -13 -7c-20 -3 -20 -17 -21 -31c-1 -4 -1 -9 -1 -13c6 -37 -3 -74 1 -110c2 -15 -4 -30 -4 -44c0 -24 1 -47 6 -70c1 -5 2 -9 0 -13c-1 -7 -5 -11 -12 -8c-22 8 -45 8 -67 16
c-4 1 -7 1 -11 1c-17 0 -27 8 -28 25c-1 13 -2 25 0 38c3 28 0 56 0 84v53c0 8 -3 12 -13 10c-10 -3 -13 2 -10 11c3 6 7 14 12 14c13 2 10 10 10 18c-2 49 -6 97 -7 146c-1 48 -1 95 0 143c0 27 4 53 6 80c1 12 2 25 1 37c-2 18 -2 18 -22 24c9 5 17 6 19 15
c1 5 11 10 16 8zM646 677c-21 -7 -41 -5 -62 -3c-7 1 -15 2 -22 1c-9 -1 -19 -1 -28 -10c8 -4 16 -6 18 -16c7 -36 11 -72 17 -109c5 -29 7 -59 8 -89c1 -13 1 -27 4 -41c20 3 36 13 50 24c28 22 53 48 78 74c13 14 20 29 19 49c0 8 -1 17 -2 26c-2 29 -21 51 -38 73
c-7 8 -18 12 -26 18c-5 3 -11 4 -16 3zM695 668c10 -7 11 -22 24 -28c4 13 -12 16 -11 26c0 1 -7 5 -13 2zM117 666c-1 0 -2 -1 -3 -3c2 -13 7 -26 6 -40c-1 -13 0 -27 0 -41c-1 -42 -2 -85 3 -127c3 -28 0 -57 6 -85c2 -15 4 -30 4 -45c0 -5 0 -12 4 -18c4 3 6 5 8 7
c12 17 27 29 45 40c9 5 17 12 22 22c14 29 26 58 32 90c1 7 4 10 10 11c-4 -21 -8 -41 -11 -61h4c20 29 16 62 16 96c-1 1 -1 2 -3 2c-3 -2 0 -7 -4 -11c-6 6 -5 12 -3 18c4 11 4 21 2 32c0 8 0 16 2 24c2 6 3 14 -1 20c-9 17 -16 35 -30 50c-6 7 -13 13 -24 16
c-28 8 -57 1 -85 3z" />
    <glyph glyph-name="Q_Q.liga" unicode="QQ" horiz-adv-x="842" 
d="M196 709c30 3 50 -13 69 -31c7 -6 12 -14 12 -23c0 -6 4 -10 7 -15c5 -11 11 -20 12 -33c1 -10 5 -20 16 -27c3 8 -4 13 -1 19c7 0 8 -6 9 -10c6 -26 15 -51 11 -79c-3 -14 0 -30 4 -45c7 -26 9 -52 7 -79c-3 -49 -4 -98 -9 -146c-4 -44 -15 -86 -36 -125
c-6 -11 -9 -24 -19 -34c-3 -3 -1 -8 -1 -12c5 -29 16 -56 25 -84c5 -15 26 -22 40 -16l7 3c5 1 9 -1 11 -5c3 -3 3 -7 1 -10l-7 -9c-6 -5 -10 -10 -13 -17c-5 -11 -15 -18 -27 -18c-19 0 -37 5 -49 22c-14 20 -23 41 -33 63l-5 9c-6 -1 -10 -4 -13 -6c-32 -21 -62 -8 -92 5
c-4 1 -8 4 -9 9c-1 16 -14 18 -25 17c-23 -2 -36 10 -48 28c-32 47 -44 99 -44 155c0 59 -2 117 0 176c3 59 9 118 22 176c8 33 21 63 39 91c12 19 30 30 50 39c5 2 11 1 17 -1c6 -1 11 -4 18 -4c11 -1 22 -4 31 9c4 6 14 7 23 8zM629 700c7 -1 10 -4 17 -6c6 -2 12 -5 18 2
c7 6 17 3 26 2s15 -5 16 -15c1 -4 6 -5 10 -8c13 -12 32 -32 35 -37c5 -8 9 -25 15 -45c12 -40 19 -132 22 -151c6 -29 6 -58 3 -88c-1 -14 0 -28 -2 -43c-3 -26 -3 -53 -12 -77c-9 -25 -9 -52 -20 -75c-3 -6 -4 -12 -10 -16c-10 -8 6 -22 -1 -33c-5 -9 -11 -17 -20 -21
c-4 -2 -7 -4 -10 -8c-12 -18 -13 -19 1 -38c11 -17 24 -33 36 -50c6 -7 12 -15 16 -23c5 -8 1 -14 0 -22c0 -8 2 -15 -6 -20c-8 -6 4 -12 -1 -18c-7 1 -12 9 -21 7c-5 -2 -7 6 -9 10c-12 19 -23 39 -34 58c-9 16 -19 31 -29 48c-9 -6 -18 -12 -26 -18c-6 -3 -11 -7 -16 -10
c-12 -5 -16 -3 -25 7l-8 6c-11 9 15 37 25 39c7 2 14 6 20 10c5 5 7 11 4 17c-13 27 -25 56 -36 84c-4 8 -10 14 -11 24c0 8 -3 15 -5 25c23 1 30 -22 44 -31c14 -10 21 -30 27 -47c1 0 2 0 3 1c6 17 11 35 16 53c9 29 13 59 9 90c-4 41 -3 83 -1 124c2 45 -1 90 0 135
c0 14 -1 27 -3 41c-1 9 -3 17 -8 25c-6 7 -10 16 -13 24c-8 20 -23 31 -39 37c-9 3 -19 5 -28 9c-4 1 -8 3 -9 10c11 11 24 16 40 12zM680 686c-4 7 -8 3 -15 0c5 -3 8 -9 14 -5c1 1 1 4 1 5zM540 682c6 7 36 4 43 -10c3 -5 4 -11 -2 -16c-17 -14 -20 -34 -22 -54
c-3 -25 -14 -49 -13 -75c1 -31 3 -55 1 -85c-2 -32 6 -69 4 -101c-11 -147 18 -191 25 -226l21 -50l-6 -20c-2 -1 -12 -2 -16 -10c4 -10 11 -19 11 -29c0 -8 1 -15 5 -23c-13 -4 -10 0 -20 4c-6 2 -12 4 -20 3c-15 0 -28 11 -39 21c-18 19 -31 43 -43 66
c-9 16 -16 32 -25 48c-13 23 -12 38 -23 62c-3 8 -9 45 -8 54c4 37 -2 57 -1 94c1 35 -2 71 5 104c1 7 3 15 3 22c-1 29 8 57 12 85c1 4 2 7 5 10c7 8 11 18 14 28c4 15 11 27 21 37s15 23 28 30c14 9 28 18 40 31zM180 661c-6 -2 -9 -8 -15 -12c11 -11 6 -21 -3 -29
c-14 -15 -18 -34 -23 -52c-5 -17 -4 -33 -6 -49c-4 -32 -4 -65 -7 -97c-1 -15 -3 -30 -1 -43c3 -23 -1 -46 -1 -69c-1 -31 2 -62 3 -93c0 -4 1 -8 1 -11c5 11 22 17 32 22c24 11 52 5 65 -13c11 -16 23 -32 24 -52c1 -9 6 -14 11 -20c10 27 10 54 14 80c5 45 6 90 2 135
c-6 69 -16 138 -22 207c-3 31 -16 56 -32 81c-10 15 -27 21 -42 15zM290 530c-4 -8 1 -15 3 -22c0 6 5 15 -3 22zM163 194c-10 0 -23 -2 -33 -4c-2 -31 4 -53 8 -82c2 -17 3 -35 7 -53c2 -12 8 -17 19 -20c11 -4 17 0 24 8c3 4 7 9 11 13c7 7 10 15 6 25c-5 14 -8 29 -9 44
c-1 21 -10 40 -17 59c-3 8 -8 10 -16 10zM535 189c-4 -25 1 -47 15 -67c-2 23 -6 45 -15 67z" />
    <glyph glyph-name="R_R.liga" unicode="RR" horiz-adv-x="923" 
d="M532 722c21 3 26 1 33 -17c2 -5 3 -9 8 -12c15 -10 9 -53 15 -69c13 -38 12 -76 11 -115c-1 -15 0 -30 2 -45c2 -12 2 -25 1 -37c-2 -30 0 -59 4 -89c8 0 12 6 15 10c22 23 29 39 52 60c16 14 31 29 43 46c12 16 13 37 14 56c1 46 -6 73 -28 113c-6 11 -16 11 -35 17
c-26 8 -39 13 -65 13c-7 0 14 11 21 15s-8 1 -8 7c7 2 18 4 41 3c17 -1 23 -3 41 -5c39 -4 27 -5 55 -13c28 -3 41 -9 58 -31c28 -36 36 -71 22 -115c-3 -6 -3 -13 -4 -20c-6 -29 -16 -55 -41 -74c-11 -8 -19 -22 -30 -32c-18 -17 -17 -31 -39 -42c-2 -1 -4 -3 -7 -5
c19 -13 26 -32 35 -50c21 -45 41 -90 67 -132c19 -29 31 -56 49 -85c5 -8 12 -14 14 -24c0 -5 5 -9 -1 -14c-3 -2 -1 -6 1 -9c5 -11 4 -45 -16 -37c-2 -6 -8 -25 -8 -30c0 -6 -4 -9 -10 -6c-2 1 -4 3 -6 5c-8 12 -21 18 -33 25c-27 17 -50 39 -66 67c-10 16 -16 27 -29 40
c-23 25 -34 58 -44 90s-17 64 -25 96c-2 7 -3 15 -4 22c-11 1 -14 -15 -26 -12c-4 1 -3 -5 -3 -8c-4 -17 -3 -34 -4 -52c-1 -42 -2 -83 0 -125c1 -20 -3 -40 -3 -60c0 -9 -4 -18 1 -27c4 -7 -1 -13 -4 -19c-5 -10 -8 -17 -9 -27c-3 0 -6 1 -8 0c-9 -1 -13 22 -25 6
c-10 3 -21 3 -31 7c-10 5 -20 8 -31 9c-9 0 -14 5 -17 12c-12 25 -20 50 -21 78c-3 54 -1 108 3 163c3 36 2 72 2 108c-2 79 -4 157 -5 235c0 23 12 74 10 97c0 8 -1 15 10 16c1 0 3 0 4 1c14 21 32 15 51 9h2c1 4 1 8 1 12zM106 697c28 -4 56 -4 84 -6c29 -2 59 -2 84 -19
c14 -11 30 -18 46 -24c13 -6 22 -16 27 -30c12 -30 24 -60 21 -94c-1 -11 5 -20 5 -31c1 -43 -19 -75 -49 -103c-14 -13 -32 -21 -48 -32c-5 -4 -9 -8 -17 -10c1 9 11 11 11 20c-13 -3 -21 -12 -30 -20c-4 -4 1 -10 5 -13c14 -12 27 -26 40 -39c21 -20 45 -64 55 -90
c16 -42 21 -65 40 -105c3 -7 31 -65 32 -73c5 -18 64 -101 83 -126c6 -8 9 -28 2 -23c-30 22 7 -27 -3 -28c-1 0 -13 10 -14 8c-4 -6 -9 -7 -14 -2c-10 9 -49 64 -31 5c1 -2 -15 2 -18 4c-7 4 -77 62 -104 116c-4 9 -40 65 -44 73c-19 37 -14 70 -35 98
c-12 16 -32 68 -46 103c-4 10 -8 19 -14 29c-13 -7 -22 -16 -19 -32v-8c-8 -37 0 -74 0 -112c1 -35 4 -71 -1 -106c-2 -9 2 -21 -15 -19c-3 1 -5 -3 -5 -6c-2 -5 -3 -10 -4 -15c-15 6 -25 18 -38 29c-12 -12 -26 -15 -40 -6c-16 9 -24 22 -25 41c-1 16 4 31 3 47
c-2 45 -2 91 -4 136c0 9 -2 17 -3 26c-10 51 -11 103 -8 155c3 53 3 105 5 158c1 25 4 49 2 75c0 5 1 10 -2 15c-11 0 -21 -7 -32 -6c-3 5 6 8 1 12c-8 8 -3 12 5 15c36 12 73 18 112 13zM143 652c7 -98 6 -195 3 -295c6 3 8 4 9 5c33 33 67 64 94 102c18 26 24 56 29 86
c0 5 -1 9 -3 13c-4 8 -6 16 -5 25c1 7 -2 12 -9 15c-5 2 -9 6 -14 9c-18 14 -35 30 -60 37c-15 4 -28 3 -44 3zM748 600l9 -71c7 26 8 49 -9 71z" />
    <glyph glyph-name="S_S.liga" unicode="SS" horiz-adv-x="774" 
d="M212 717c11 0 26 3 47 -6c3 -1 5 -2 7 -2c16 2 26 -9 37 -17c11 -9 33 -103 22 -98c-14 7 -17 1 -17 0c0 -4 -8 -24 -9 -27c-2 -7 -14 14 -21 8c-11 -10 -18 47 -21 49c-8 4 -14 29 -33 46c-13 12 -25 8 -40 -3c-6 -4 -19 -14 -25 -23c-11 -17 -20 -24 -20 -61
c0 -19 -2 -37 10 -54c2 -3 4 -6 5 -9c13 -28 33 -51 54 -74c25 -27 50 -55 71 -85c14 -20 30 -37 42 -57c3 -6 8 -5 13 -1c44 32 74 63 105 102c4 6 5 11 1 17c-20 24 -29 53 -43 81c-2 2 -3 4 0 7c9 5 3 38 4 47c2 23 13 37 23 58c9 18 19 31 43 49c5 4 21 11 26 15
c11 4 14 11 24 9c3 2 15 1 22 6c33 24 71 13 99 6c10 -2 36 -32 39 -40c0 -2 0 -7 -1 -7c9 -12 13 -29 4 -40c-3 -17 -9 -21 -17 -31c-14 -10 -17 -10 -26 -22c-11 -15 -26 -29 -38 -43c-13 -13 -27 -31 -42 -41c15 -10 25 -22 36 -35c24 -27 36 -58 59 -85
c7 -8 10 -19 17 -26c26 -34 41 -73 49 -113c11 -56 -2 -81 -18 -114c-10 -21 -37 -58 -59 -68c-16 -8 -41 -15 -56 -24c-9 -4 -37 -21 -49 -15c-20 -9 -42 -10 -67 0c-21 8 -44 28 -63 41c-7 5 6 21 -4 25c-5 2 -18 35 -8 28c19 -13 25 -9 30 -12c8 -5 29 -14 29 -3
c-29 14 -42 25 -43 31c12 0 24 -4 36 -8c24 -8 58 -22 79 -5c15 13 27 28 41 42c3 4 5 8 7 14c9 27 11 22 7 52c-3 23 -17 39 -41 77c-13 20 -28 36 -43 54c-12 15 -18 25 -31 42c-3 -2 -9 -8 -16 -15c-27 -27 -30 -30 -55 -53c-5 -4 -14 -11 -16 -16c-4 -6 -20 -13 -30 -19
c-11 -7 -16 -15 -14 -19c13 -27 -2 -62 -8 -91c-2 -17 -15 -30 -22 -46c-4 -7 -10 -15 -14 -23c-4 -7 -8 -12 -16 -12c-8 -1 -14 -5 -18 -11c-6 -7 -9 -16 -14 -23c-12 -11 -13 -18 -30 -21c-8 -1 -12 -2 -19 -6c-20 -11 -28 -16 -42 -23c-20 -10 -35 -8 -56 -14
c-23 -7 -33 -12 -57 -9c-28 5 -61 31 -58 64c2 16 4 22 8 38c1 5 9 9 2 12c-5 2 0 6 1 9c15 23 37 40 59 56c50 34 75 54 131 86c-11 29 -30 42 -38 66c-5 14 -17 25 -25 38c-5 10 -15 19 -22 26c-29 29 -49 69 -68 105c-7 11 -10 26 -12 40c-2 13 2 50 6 67s9 35 21 47
c20 22 30 55 59 66c59 23 12 -7 26 -4l37 15c8 7 37 14 47 13zM560 679c-16 -11 -21 -22 -38 -31c-8 -5 -25 -22 -26 -31c-6 -32 -21 -43 4 -73c11 -13 19 -37 29 -42c5 2 18 32 33 45c19 16 25 27 37 45c14 20 17 32 15 53c-3 28 -15 27 -22 33c-12 10 -20 6 -32 1zM54 504
c-4 -29 11 -50 39 -49c-18 14 -23 35 -39 49zM547 434c20 -29 37 -53 55 -78c1 -1 3 -1 6 -3c-3 13 -4 23 -11 33c-8 8 -15 18 -24 26c-7 7 -11 18 -26 22zM622 316c5 -7 3 -15 12 -19c-1 13 -1 13 -12 19zM192 197c-2 -1 -4 0 -5 -1c-9 -7 -40 -19 -71 -34
c-19 -10 -38 -23 -56 -35c-12 -8 -24 -19 -30 -32c-6 -12 -6 -16 -6 -30c0 -18 7 -23 15 -37c8 -13 21 -12 35 -8c26 8 42 21 66 33c16 8 27 20 38 34c24 34 31 73 16 104c-1 1 0 4 -2 6z" />
    <glyph glyph-name="T_T.liga" unicode="TT" horiz-adv-x="791" 
d="M483 726c3 5 17 -3 28 -21c5 -8 57 2 78 1c26 -1 52 -2 79 2c30 4 60 2 90 -3c7 -5 1 -20 -17 -24c-11 -2 -22 -1 -32 -7c-7 -4 -19 0 -28 1c-11 2 -22 -1 -33 -4c-14 -4 -21 -1 -35 -1c-7 0 -29 -6 -10 -8c11 -3 41 -2 41 -4c-3 -8 -14 -15 -18 -12c-22 7 -28 0 -52 0
c-15 0 -14 -5 -27 -5c-7 1 -12 5 -15 -1c-2 -4 5 -10 7 -14c17 -34 8 31 30 -21c8 -8 14 -53 16 -65c8 -37 -1 -75 3 -113c10 -78 14 -156 21 -235c2 -29 -5 -58 -13 -86c-1 -4 2 -38 2 -42c0 -78 -19 -29 -21 -59c0 -3 -1 -6 -2 -7c-13 -7 -12 -21 -17 -33
c-5 -3 -8 17 -18 7c0 -1 -7 5 -10 7c-16 9 -25 32 -42 26c-16 -6 -21 33 -25 50c-3 13 -2 26 -1 39c4 57 4 114 4 171c0 26 0 53 2 79c3 37 -3 73 -3 110c1 39 2 79 1 118c-1 19 3 37 1 56c-1 6 3 8 2 15c-25 0 -46 -1 -71 1c-24 3 -52 4 -77 1c-15 -2 -31 -1 -46 3
c-24 6 -48 -2 -72 -2l-52 -4c-18 -5 -42 -7 -61 -7c-4 0 -11 -3 -14 -3c-21 -8 -42 -1 -63 -1c-12 6 -27 13 -40 17c-9 2 -9 2 -16 14c4 6 12 7 17 13c4 7 12 10 21 12c11 3 35 6 46 6c25 0 39 -1 55 -1c19 0 31 3 47 3c30 1 52 -6 67 3c10 6 28 2 86 5c24 1 48 -1 71 0
c26 1 48 0 70 3c8 1 16 -1 24 -3c8 -3 13 -3 14 1c1 6 7 22 8 22zM659 659c8 2 16 6 23 -2c-4 -9 -12 -7 -20 -10c-4 6 -9 7 -3 12zM167 622c13 -5 20 -16 28 -26c6 6 1 11 2 16c0 3 -1 6 3 7s8 0 8 -2c2 -13 12 -14 20 -16c15 -2 21 -11 26 -24c8 -26 8 -53 8 -80
c0 -28 0 -57 1 -86c1 -31 1 -62 0 -94c-2 -21 -1 -43 -1 -65c1 -35 0 -70 2 -104c3 -40 4 -79 5 -118c0 -20 2 -41 3 -61c1 -10 -1 -17 -8 -24c-7 -6 -7 -18 -18 -23c-3 19 -21 24 -33 35c-6 7 -14 12 -18 20c-2 3 -6 7 -7 3c-3 -11 -11 -1 -12 2c-9 19 -11 41 -19 41
c-3 0 -7 -35 -5 -54c-11 2 -11 9 -12 16c-8 39 -18 79 -14 119s-2 79 0 119c2 52 2 103 6 155c2 24 1 48 4 71v4c-13 40 -1 82 -1 119c8 -4 3 -29 10 -45c5 7 3 14 5 20c3 19 3 37 1 56c0 3 -1 6 -1 9c2 11 7 13 17 10z" />
    <glyph glyph-name="T_i.liga" unicode="Ti" horiz-adv-x="611" 
d="M374 711h11c7 0 10 -4 13 -10c4 -6 0 -12 -4 -14c-8 -6 -12 -16 -20 -22c-6 -4 1 -5 1 -9c-8 -4 -17 -6 -26 -5c-17 1 -45 2 -62 2c-13 1 -36 0 -49 -2c-11 -1 -17 -5 -20 -15c-9 2 -16 7 -26 6c6 -13 2 -29 19 -37c4 -2 4 -9 4 -14c-2 -22 3 -43 5 -65
c3 -30 2 -60 2 -90c1 -45 -2 -89 0 -134c1 -18 3 -35 5 -52c4 -29 3 -58 3 -87c0 -11 -2 -23 -1 -35c1 -26 -4 -52 -4 -79c-1 -18 -12 -33 -15 -51c0 -2 0 -3 -1 -4c-9 -4 -19 -3 -28 -8c-3 -2 -7 0 -11 2c-6 4 -14 8 -21 12c-5 2 -10 3 -17 -1c-14 -8 -34 7 -33 24
c1 25 -2 51 -3 76c-1 23 0 45 5 67c3 20 5 40 -1 60c-3 11 -4 22 -3 33c2 17 -2 33 -2 49c0 36 -1 72 -1 108c-1 39 -2 78 5 116c3 15 1 31 1 47c1 12 -1 25 4 37c3 6 0 13 -1 20c-2 6 -7 8 -11 9c-19 1 -39 3 -58 0c-20 -3 -40 -1 -60 -2c-6 -1 -12 1 -17 6c3 4 6 5 9 6
c6 2 9 4 7 12c-1 6 3 9 10 11c18 5 38 4 56 5c36 2 70 10 104 15c43 5 85 15 129 12c27 -2 75 -1 102 1zM114 642c0 1 -2 0 -3 -1c-4 -6 0 -12 1 -19l6 -1c-3 8 3 15 -4 21zM433 617c12 1 16 -2 16 -13c-1 -9 3 -12 11 -19c21 -19 27 -37 5 -55c-10 -7 -17 -21 -33 -18
c-7 7 -18 1 -27 5c-33 17 -38 43 -15 75c10 14 25 22 43 25zM440 420c21 0 30 -9 35 -29c1 -3 1 -7 4 -9c11 8 14 7 14 -6c1 -5 1 -10 -1 -15c-3 -10 -3 -20 -1 -30c5 -42 4 -84 5 -126c1 -26 4 -51 7 -77c1 -18 4 -36 5 -54c2 -20 -3 -35 16 -27c21 10 25 9 52 28
c9 6 28 21 38 24c6 3 11 6 15 10c9 7 19 14 32 4c-7 -10 -15 -17 -24 -24c-14 -11 -22 -17 -32 -33c-5 -9 -9 -10 -18 -11c-6 0 -13 -8 -18 -12c-6 -5 -13 -6 -18 -11c-4 -5 -7 -10 -11 -13c-5 -4 -12 -6 -18 -8l-19 -6c-4 -2 -9 -3 -14 -3c-3 0 -6 1 -9 1
c-4 -2 -6 -6 -10 -7s-8 2 -12 5c-4 4 -9 8 -16 9c-7 2 -13 11 -22 4c-4 -3 -9 3 -13 6c-15 16 -16 36 -19 56c-3 26 -2 53 -1 80c1 32 2 65 5 97c3 28 5 56 3 84c-2 20 5 40 0 61c-1 7 7 14 12 19c9 8 21 12 33 13z" />
    <glyph glyph-name="U_U.liga" unicode="UU" horiz-adv-x="858" 
d="M746 742c14 -11 17 -26 22 -40c2 -9 0 -19 11 -24c2 -1 2 -6 3 -9c5 -41 9 -103 5 -145c-3 -34 2 -67 3 -101c0 -22 2 -44 1 -66c-2 -45 4 -91 2 -136c-2 -53 -9 -105 -31 -154c-3 -8 -7 -15 -17 -14c-5 1 -7 -4 -10 -7c-19 -18 -43 -25 -68 -34c-13 -4 -21 -1 -32 2
c-5 2 -10 1 -10 10c-1 7 -10 9 -15 3c-14 -18 -31 -15 -49 -9c-30 10 -54 28 -73 53c-4 4 -6 8 -11 10c-16 4 -22 18 -26 32c-2 9 -4 18 -4 28c0 34 -4 68 -5 103c-1 29 -2 58 2 88c3 34 -1 68 -2 102c-1 37 0 73 4 109c4 41 5 82 8 123c0 5 -2 10 -4 14c-3 7 -4 14 -1 22
c4 7 8 10 15 9c20 -2 40 -4 55 -20c3 -3 6 -5 11 -6c16 -3 24 -13 27 -29c4 -25 4 -50 4 -75c0 -44 -4 -89 -1 -134c0 -4 -2 -9 3 -12c10 0 13 6 11 15c-10 47 -4 94 -2 141c1 4 -1 8 5 9s7 -3 7 -8c1 -8 1 -16 1 -24l-3 -83c-1 -20 5 -40 5 -61c0 -29 0 -57 -1 -85
c0 -32 -3 -65 6 -97c7 -24 8 -49 6 -74c-1 -13 0 -25 10 -35c2 -1 3 -4 4 -6c4 -20 12 -37 28 -51c-10 -4 -14 6 -21 3c13 -17 41 -26 59 -20c23 7 42 29 44 51c1 13 5 24 8 36c16 57 17 115 11 173c-2 26 -4 52 -2 77c5 57 -3 114 -1 171c2 48 2 117 6 166c0 2 1 5 2 9z
M118 717c6 1 11 -1 12 -8c6 -23 10 -45 9 -69c-2 -25 2 -49 5 -74c4 -30 0 -60 0 -90c-1 -29 -3 -58 -4 -87c-1 -30 -3 -60 -8 -89c-3 -19 -1 -40 0 -60l3 -57c1 -12 2 -25 6 -35c8 -23 15 -47 24 -69c5 -13 16 -22 23 -34c7 -14 17 -15 29 -15c13 0 24 -1 35 7
c29 20 40 47 40 79c0 31 2 61 6 91c1 6 2 12 1 17c-3 42 4 83 7 124c2 22 0 43 -3 65c-5 36 -5 73 -3 109c1 27 -2 53 -3 80c0 13 -4 25 6 37c3 4 1 14 1 20c0 7 0 13 9 14c13 1 18 -1 21 -11c2 -6 4 -13 3 -20v-30c14 22 -2 47 6 71c5 1 8 -1 8 -5c1 -5 2 -9 1 -13
c-3 -30 2 -59 0 -89c0 -10 -1 -19 -2 -29c-2 -15 -1 -30 0 -45c4 -33 9 -66 8 -100c-2 -39 -7 -79 -5 -118c2 -38 -1 -76 -2 -114c0 -16 -5 -32 -8 -47c-3 -11 -3 -21 0 -32c7 -28 -4 -52 -21 -73c-6 -7 -15 -11 -23 -12c-13 -2 -24 -6 -36 -10c-7 -3 -14 -5 -22 -5
c-3 1 -8 2 -10 -2c-5 -11 -15 -8 -23 -7c-10 2 -19 2 -29 -1c-23 -4 -44 3 -63 14s-37 24 -56 35c-26 15 -36 41 -42 70c-2 13 -4 27 -7 40c-2 9 3 17 2 26c-4 46 -1 91 0 137c2 53 1 106 -2 159c-3 51 2 101 7 152c2 19 6 38 7 57c1 22 8 28 27 33c3 1 6 2 9 0
c7 -7 16 -5 24 -4c7 0 13 -3 15 8c1 3 11 8 18 9zM572 662c4 -2 7 -5 6 -19c-3 -5 -6 2 -6 2c-5 5 -8 10 -5 17c1 0 4 1 5 0zM565 424c-5 -11 -7 -19 3 -27c3 9 5 17 -3 27z" />
    <glyph glyph-name="V_V.liga" unicode="VV" horiz-adv-x="889" 
d="M399 748c0 -8 -5 -16 -7 -22c-7 -24 -19 -48 -18 -72c0 -25 -9 -47 -14 -70c-7 -30 -8 -61 -15 -91c-8 -35 -15 -71 -24 -107c-7 -26 -9 -53 -12 -79c-3 -18 -4 -35 -10 -52c-4 -15 -2 -32 -6 -48c-3 -11 -3 -22 -5 -33c-2 -18 -4 -36 -10 -53c-6 -16 -10 -33 -12 -50
c-2 -15 -12 -28 -17 -42c-1 -5 -4 -17 -3 -22c5 -2 5 4 10 5c2 -10 -1 -18 -5 -27c-8 4 -7 4 -19 0c-5 8 5 20 -1 28c-5 -2 -7 -4 -8 -8c-5 -20 -18 -32 -36 -35c-6 -1 -10 3 -14 5c-7 4 -7 4 -14 0c-20 25 -21 57 -31 86c-11 28 -22 59 -29 87c-13 49 -22 99 -40 147
c-4 12 -6 24 -6 36c-4 40 -23 79 -30 118l-17 94c-1 6 -2 12 -4 18c-1 4 -4 9 -2 13c5 13 -4 23 -8 35c-4 13 -6 30 -7 44c0 4 0 8 5 10c11 -14 9 -35 19 -52c2 23 1 44 -4 64c-3 12 -1 17 12 18c13 2 25 0 33 -12l3 -6c15 0 16 58 42 -8c5 -10 8 -21 11 -32
c7 -27 17 -53 23 -81c8 -34 15 -69 21 -104c4 -19 13 -37 22 -54c1 -3 2 -6 2 -9c7 -44 23 -86 31 -130c7 -41 19 -82 29 -125c8 29 13 58 18 88c2 15 4 31 8 46c7 23 7 48 10 72c1 11 1 21 4 31c9 29 9 60 16 89c7 30 6 62 13 92c9 38 19 75 29 113c5 17 6 31 15 43
c2 8 9 19 11 14c2 -7 -4 -26 6 -14c6 12 16 39 35 42zM366 743c5 -15 -3 -19 -8 -15c-2 13 8 16 8 15zM829 699c10 -6 3 -12 7 -16c10 -2 11 6 13 -1c2 -8 -4 -32 -5 -42c-2 -25 -11 -43 -20 -66c-11 -27 1 -7 -10 -34c-13 -33 -14 -58 -19 -80c-4 -20 -6 -28 -14 -47
c-9 -27 -15 -61 -20 -88c-6 -38 -20 -71 -24 -108c-6 -43 -24 -78 -26 -120c-1 -11 -3 -33 -7 -43c-10 -24 -4 -36 0 -58c2 -10 2 -18 -2 -28c-3 -9 -5 -11 -14 -4c-5 4 -8 10 -14 2c-3 -2 -6 -3 -9 0c-15 14 -34 8 -52 17c-17 11 -33 38 -35 62c-4 30 -14 56 -21 86
c-15 49 -32 95 -53 140c-6 14 -9 31 -14 47c-20 61 -37 123 -52 186c-3 19 -8 39 -15 57c-2 5 -4 12 -5 20c-1 17 -2 17 15 21c-7 22 -14 41 -17 62c-1 7 1 9 7 11c14 5 31 7 43 -5c10 -7 22 -6 30 -4c9 2 11 -2 14 -8c11 -22 22 -40 33 -59c13 -19 21 -40 29 -61
c17 -36 29 -75 34 -114c6 -41 24 -78 38 -115c16 -36 16 -72 19 -112c7 5 7 11 7 16c8 44 30 78 30 126c0 32 17 62 25 90c6 20 10 53 22 84c13 31 7 26 27 59c6 11 9 25 16 37c12 22 15 45 25 67c3 8 8 16 14 23zM243 103c-1 -2 -13 -51 -14 -53s1 -16 4 -19c1 2 7 11 7 13
c2 11 11 65 3 59z" />
    <glyph glyph-name="W_W.liga" unicode="WW" horiz-adv-x="1132" 
d="M565 744c5 2 10 2 13 -1c11 -11 25 -13 39 -16c18 -3 30 -13 37 -30c10 -26 23 -74 27 -102c8 -64 19 -129 37 -192c5 -18 7 -38 6 -57c-1 -11 1 -22 3 -33c3 -14 6 -28 5 -42c-1 -3 1 -6 1 -9l21 -129c1 -5 1 -11 6 -17c2 22 5 42 6 63c4 44 11 89 19 133
c2 17 3 35 5 52c5 62 15 123 27 184c1 7 1 15 0 22c0 7 -1 14 0 21c2 5 4 9 11 9c19 -2 36 -8 46 -27c5 -10 8 -21 11 -32l3 -10c1 -3 3 -5 5 -4c3 1 4 4 3 6c-1 5 -3 10 -4 15c0 4 3 5 6 6c2 1 4 0 6 -3c0 -2 1 -3 2 -5c21 -64 39 -129 45 -197c3 -31 7 -63 12 -94
c1 -10 3 -20 8 -29c5 -7 6 -16 10 -27c8 21 12 41 7 61c-3 14 -3 28 0 42c4 22 10 44 12 66c3 33 11 64 16 97c9 60 19 119 37 177c4 12 5 25 6 38c11 0 17 -3 21 -14c2 -8 0 -19 11 -23c3 -1 0 -7 -1 -11c-8 -17 -11 -37 -14 -56c-8 -43 -10 -87 -20 -131
c-2 -9 -2 -20 -4 -29c-2 -21 -2 -43 -9 -63c-6 -23 -3 -46 -5 -69c-5 -66 -12 -132 -24 -197c-3 -19 -8 -38 -10 -57c-2 -15 -7 -28 -13 -41c-2 -4 -4 -7 -9 -6s-7 5 -6 10c2 6 2 12 2 18c-1 12 -5 14 -14 8c-5 -5 -7 -3 -10 1c-9 8 -10 20 -16 29c-3 6 -4 16 -8 16
c0 -3 2 -10 2 -15c-4 -8 9 -17 2 -25c-16 16 -31 32 -34 54c-6 38 -12 75 -21 112c-9 41 -10 82 -16 122c-5 34 -10 67 -17 100c0 3 -1 6 -5 8c-5 -28 -12 -56 -13 -85c0 -35 -6 -69 -15 -102c-3 -12 -6 -24 -6 -35c-1 -43 -16 -82 -34 -120c-3 -6 -3 -10 -1 -15
c6 -15 9 -31 11 -47c1 -13 -4 -18 -16 -14c-21 8 -39 20 -49 42c-6 13 -6 13 -20 16c-2 -6 8 -12 0 -19c-8 4 -12 12 -16 20c-3 6 -4 12 -10 16c-22 15 -29 38 -36 61c-9 30 -13 61 -17 92c-7 54 -17 108 -21 162c-4 43 -12 85 -19 127c-7 47 -22 114 -30 160
c-1 3 -1 6 -2 9c-6 22 -7 22 11 36c8 5 5 13 7 19zM489 710c7 0 10 -5 13 -13c7 -15 4 -28 1 -43c-7 -40 -15 -81 -20 -121c-8 -60 -16 -120 -27 -180c-5 -27 -5 -55 -9 -83c-1 -13 -3 -27 -6 -40c-6 -35 -4 -70 -6 -105c-2 -20 -1 -40 -1 -60c0 -7 1 -15 -4 -21
c-3 -5 -2 -10 -1 -15c1 -6 2 -13 -2 -20c-16 -3 -32 0 -47 3s-28 13 -34 29c-18 54 -37 107 -48 163c-8 41 -19 82 -28 123c-5 21 -9 42 -14 63c-6 -36 -13 -72 -11 -108c0 -21 -7 -41 -6 -62c1 -34 -4 -67 -8 -100c-4 -31 -5 -63 -12 -93c-4 -14 -13 -26 -20 -40
c-11 6 -22 10 -33 14c-5 1 -11 6 -15 -4c-2 -3 -6 -2 -8 0l-9 10c-7 -2 -2 -12 -11 -12c-9 12 -24 23 -24 41c-1 7 -5 10 -11 11c-16 3 -21 14 -23 28c-6 50 -12 100 -17 149c-7 55 -13 110 -16 165c-1 19 -6 39 -10 59c-9 39 -13 78 -19 118c-2 10 -5 19 -8 29
c-7 22 -8 46 -10 69c4 5 10 1 14 4c3 2 2 5 1 7c-4 20 3 27 23 23c8 -1 15 -4 22 -9c4 -3 7 -11 14 -7c8 5 22 -1 27 13c1 -1 3 -1 3 -2c17 -30 30 -61 33 -97c4 -51 11 -101 16 -151c3 -22 2 -44 5 -65l15 -104c4 -26 8 -53 13 -79c1 -6 3 -12 5 -19c17 37 17 37 17 64
c0 11 1 22 5 33c4 9 11 19 5 30c-1 2 0 5 1 7c11 52 15 104 24 156c6 33 9 68 17 101c2 12 2 24 2 36c0 11 16 20 23 12c9 -10 19 -5 28 -5c14 -1 14 0 16 -13c3 -21 9 -41 13 -62c7 -34 11 -68 19 -101c13 -51 22 -102 33 -152c4 -21 9 -41 15 -62c4 1 4 5 4 7
c2 23 10 45 10 69c0 29 6 58 10 87c2 16 2 33 3 50c1 18 5 36 12 53c8 22 11 44 16 67c7 38 13 77 24 115c2 9 3 18 3 26c0 9 5 13 13 14z" />
    <glyph glyph-name="X_X.liga" unicode="XX" horiz-adv-x="732" 
d="M293 710c9 -30 1 -62 -10 -88c-17 -37 -32 -85 -48 -122c-16 -39 -36 -85 -33 -92c9 -20 10 -49 16 -63c7 -18 6 -28 12 -45c14 -37 29 -74 37 -113c6 -28 17 -54 20 -83c1 -14 7 -27 10 -40c0 -3 1 -7 3 -9c12 -12 -9 -26 -12 -41c-1 -7 1 -14 -9 -13c-4 0 4 -24 -9 -12
c-3 0 -11 1 -15 5c-9 8 -24 1 -36 -2s-22 2 -27 15c-13 40 -35 77 -42 120c-3 24 -13 47 -20 70c-2 9 -5 19 -8 30c-9 -8 -10 -18 -14 -26c-13 -26 -19 -54 -28 -81c-3 -10 -9 -20 -14 -30c-9 -20 -19 -39 -29 -59c-7 -13 -17 -20 -33 -20c-9 0 -12 2 -8 11
c22 46 33 96 51 144l39 107c3 7 7 14 11 22c3 5 5 9 3 15c-13 35 -19 73 -31 108c-8 23 -17 46 -26 68c-14 34 -25 70 -32 106c-5 22 -6 46 -21 65v6c6 4 10 -2 14 0c2 1 2 3 3 5c0 9 6 13 14 17c18 8 47 -4 66 -37c5 -7 -10 35 -6 37c5 3 69 -69 73 -98
c6 -36 14 -52 25 -88c0 -3 -1 -6 3 -9c8 3 8 12 10 18c19 43 18 67 42 107c9 16 22 30 28 46c6 17 14 27 19 40c2 5 6 7 12 9zM365 670c12 1 23 -3 33 -7c11 -4 22 -7 33 -9c6 5 -3 10 3 14c10 8 18 8 26 -2c11 -14 20 -29 27 -45c13 -33 15 -66 28 -99c8 -18 9 -37 16 -55
c1 -4 3 -7 4 -11c7 0 7 5 9 9c13 21 22 45 27 69c4 15 37 63 48 95c5 14 12 28 27 36c8 4 15 5 23 0c0 -7 -7 -11 -9 -18c-1 -2 -5 -5 -1 -8c10 -9 4 -19 -2 -27c-36 -54 -42 -95 -69 -153c-8 -18 -15 -37 -23 -55c-1 -4 -3 -8 -1 -12c10 -23 16 -39 19 -64
c2 -22 8 -46 19 -69c10 -19 5 -35 13 -57c1 -3 17 -45 24 -58c14 -33 19 -48 27 -82l9 -28c7 -18 -4 -37 -24 -43c-7 -2 -14 -2 -21 -6c-13 -7 -23 -5 -32 6c-6 6 -11 10 -20 11c-8 -6 -1 -14 -4 -20c-27 0 -27 13 -35 34c0 1 -13 35 -13 36c-14 45 -16 70 -34 121
c-4 11 -9 22 -15 35c-12 -14 -16 -29 -20 -43c-8 -24 -22 -46 -28 -71c-4 -18 -13 -38 -20 -55c-23 -56 -44 -73 -41 -89c-19 -8 -36 -32 -54 -31c-4 0 -5 5 -4 8c14 57 78 182 101 237c14 33 29 65 44 98c4 9 -21 108 -35 148s-36 98 -51 158c-7 27 -9 52 -16 78
c-1 4 0 8 -1 11c-2 9 4 12 13 13z" />
    <glyph glyph-name="Y_Y.liga" unicode="YY" horiz-adv-x="735" 
d="M467 718c10 -2 16 -5 18 -16c5 -30 14 -59 24 -87c9 -29 17 -59 24 -89s18 -111 29 -140c2 -7 0 -15 5 -23c6 10 6 20 10 29c7 16 17 82 22 98c13 44 25 69 36 110c6 24 10 45 20 69c2 6 5 17 13 16c21 -3 22 -13 22 -19c-1 -19 -1 -35 -7 -52c-11 -28 -9 -39 -16 -69
c-5 -20 -17 -41 -22 -54c-22 -59 -23 -140 -38 -179c-5 -14 -7 -47 -4 -60c12 -46 -1 -33 2 -80c2 -41 6 -64 5 -105c0 -8 1 -35 -4 -43c-2 -3 -3 -7 -8 -6c-12 4 -13 -4 -14 -13c0 -2 -10 -8 -12 -9c-19 2 -9 6 -16 -16c-4 -5 -25 -6 -34 0c-8 5 -14 11 -25 15
c-4 2 -7 8 -5 13c4 13 0 42 -2 55c-4 37 -5 77 -5 115c-1 14 -1 28 -3 42c-3 20 -8 40 -6 61c2 14 -7 25 -12 36c-20 44 -39 88 -55 134c-2 6 -5 13 -1 22c16 -17 22 -39 35 -60c-3 25 -12 45 -20 65c-18 42 -31 85 -44 128c-10 35 -17 70 -23 105c0 2 0 4 1 6
c9 3 18 -1 26 -4c10 -3 18 0 25 4c23 12 44 7 53 -13c3 5 5 10 6 14zM308 705c17 -9 19 -20 14 -35c-10 -27 -16 -55 -28 -81c-1 -3 -2 -5 -2 -8c-1 -41 -22 -76 -33 -114c-9 -30 -16 -59 -29 -87c-10 -22 -10 -29 -10 -53c-1 -25 5 -50 4 -75c0 -60 0 -121 -1 -182v-13
c2 -21 3 -43 -9 -62c-13 8 -13 8 -25 -2c-10 -10 -11 -10 -22 -3c-4 3 -9 6 -13 10c-5 4 -8 10 -16 7c-1 0 -2 0 -3 1c-5 2 -5 13 -14 9c-6 -3 -4 -11 -8 -16c-1 -1 -2 -2 -4 -3c-5 4 -6 11 -8 17c-10 56 -5 111 -2 167c3 33 2 65 -3 97c-3 24 -5 47 -21 67
c-11 13 -13 32 -17 48c-16 58 -29 118 -42 177c-8 32 -14 65 -29 95c-5 11 1 20 5 30c1 2 4 3 6 2c37 -1 66 -18 86 -48c8 -12 15 -24 26 -38c2 13 0 21 -5 30c-3 6 -3 6 4 17c8 -6 15 -13 16 -24c1 -9 4 -16 10 -23c7 -10 10 -21 12 -32c8 -38 20 -76 29 -114
c4 -15 12 -34 21 -56c31 96 66 204 111 295zM89 678c4 0 7 -2 7 -6c2 -4 3 -13 -4 -8c-4 1 -7 5 -7 9c-1 3 1 5 4 5z" />
    <glyph glyph-name="Z_Z.liga" unicode="ZZ" horiz-adv-x="883" 
d="M767 739c11 7 22 0 21 -13c-1 -8 0 -16 6 -23c2 -2 0 -6 0 -9c0 -21 -13 -49 -20 -73c0 -2 0 -4 -1 -5c-14 -45 -36 -103 -57 -145c-16 -30 -27 -50 -41 -81v-6c4 -2 18 0 32 2c13 2 25 4 38 0c6 -2 13 2 20 3c13 4 23 5 36 1c3 -1 10 -2 10 -9c1 -5 -11 -19 -18 -19
c-27 0 -39 -4 -61 -11c-12 -3 -23 -5 -35 -7c-6 -1 -14 -4 -30 -5c-10 -1 -10 -4 -13 -13c-7 -21 -20 -57 -28 -77c-22 -54 -38 -89 -63 -141c-4 -9 -9 -17 -15 -27c24 1 47 -1 69 -2c33 -3 66 -5 99 -10c12 -2 41 -3 24 -10c-6 -3 21 -2 26 -3c8 -2 16 -5 21 -5
c31 0 33 -5 41 -37c-29 0 -59 -1 -87 2c-12 1 -25 1 -37 0c-14 -2 -28 -1 -42 0c-36 4 -71 2 -106 -5c-26 -5 -52 -1 -76 -12c-2 -1 -5 0 -7 0c-19 -2 -21 0 -25 19l-3 7l-2 2c-9 -3 -14 -16 -28 -12c4 15 5 28 8 43c6 30 15 55 25 79c7 17 17 33 19 51c3 27 22 52 31 84
c5 18 11 37 19 54c3 6 4 8 6 14l-20 -1c-15 0 -26 -3 -33 -4c-32 -5 -57 -8 -89 -8c-29 0 -45 -2 -51 -2c-26 0 -52 -7 -78 -7c-7 0 -9 -6 -11 -11c-9 -28 -23 -53 -39 -77c-10 -15 -15 -32 -23 -48c-16 -35 -31 -59 -46 -94c-4 -11 -9 -21 -17 -30c18 -2 35 2 52 5
c42 7 83 3 126 4c10 1 21 3 31 5c19 3 7 5 25 -3c10 -4 11 -1 22 -2c3 0 8 1 8 -5s-3 -6 -7 -7c-27 -4 -13 -11 -40 -17c-10 -2 -21 0 -31 0c-61 -3 -100 3 -160 -7c-7 -2 -15 0 -22 -6c12 -3 21 -1 31 0c62 6 104 5 167 7c9 0 18 3 29 0c-14 -9 -28 -7 -42 -11
c-11 -3 -22 -1 -33 -5c-11 -5 -25 -6 -38 -6c-16 0 -25 -3 -37 -4c-64 -8 -79 -14 -117 -19c-11 -1 -59 -17 -40 -1c7 6 -18 3 -30 6s-15 8 -15 33c0 21 6 41 14 61c26 63 50 116 69 182c5 14 10 28 16 42c-13 0 -23 -2 -33 -4c-5 -1 -9 -3 -14 -4c-6 -2 -11 6 -17 8
c-7 3 -3 10 -6 15c-8 13 -8 22 17 27s45 0 72 7c4 1 6 5 11 15c20 42 40 81 61 122c14 27 27 51 40 78c3 8 18 20 21 17c1 -12 -10 -23 -12 -37c20 30 25 57 42 87c-9 3 -38 -4 -65 1c-5 1 -25 0 -30 0c-25 -2 -41 -5 -66 -4c-20 1 -37 7 -60 7c-17 0 -45 -6 -50 -2
c-8 6 16 8 6 10c-6 1 -9 4 -11 5c-8 4 -2 12 7 13c25 3 50 8 75 8c58 -1 115 4 172 8c12 1 25 -1 38 0c10 1 20 -1 29 9c4 5 13 5 20 -2c8 -10 21 -19 17 -35c-1 -3 1 -8 2 -12c4 -10 2 -20 -3 -29c-1 -3 -3 -7 -3 -9c9 -25 -7 -46 -12 -69c-6 -25 -21 -44 -30 -68
c-14 -34 -30 -71 -44 -107c29 6 38 0 68 7c4 1 38 1 55 1c18 0 41 2 52 3c29 2 51 6 80 7c10 1 16 3 21 14c16 39 20 64 37 103c6 15 10 25 15 41c8 25 26 63 38 87c3 7 7 14 2 25c-24 1 -40 4 -65 5c-27 1 -31 10 -58 5c-4 0 -9 1 -14 2c-10 1 -19 -3 -28 -1
c-13 3 -26 5 -37 14c-3 2 -6 5 -5 9s4 5 8 6c8 1 16 3 23 9c7 5 15 0 23 1c20 2 40 2 60 4c27 2 55 -2 82 -2c26 1 51 5 76 5c9 0 16 3 21 11c3 6 9 10 13 15c6 6 12 9 20 3c4 -2 7 -3 12 0zM784 352c-8 -13 -30 -10 -39 -11c0 8 8 7 13 11c6 0 19 2 26 0zM532 126
c-7 -5 -9 -11 -13 -20c-6 -14 -9 -26 -14 -36c-3 -4 -7 -11 -7 -17c5 -1 11 5 17 8c-1 20 8 32 18 49c4 6 4 11 -1 16zM606 66c-24 0 -48 6 -70 -7c24 3 47 4 70 7z" />
    <glyph glyph-name="a_a.liga" unicode="aa" horiz-adv-x="777" 
d="M800 119c6 -1 9 -3 6 -10v-2c-17 -17 -29 -33 -53 -50c-17 -8 -13 -6 -27 -20c-3 -2 -8 -4 -12 -6c-20 -6 -15 -14 -35 -23c-46 -21 -49 4 -55 8c-8 4 -8 -2 0 -13c2 -2 -7 -3 -9 -3c-12 1 -21 9 -25 12c-2 1 -9 -1 -11 -1c-11 0 -10 7 -20 16c-4 3 -9 11 -14 23
c-7 -7 -13 -14 -20 -17c-7 -7 -15 -14 -42 -26c-4 -5 -12 -10 -18 -10c-12 0 -24 -2 -37 -3c-25 0 -42 28 -56 47c-8 11 -13 22 -16 35c-9 -11 -22 -28 -31 -36c-15 -13 -26 -23 -43 -33c-18 -12 -37 -17 -66 -16c-10 0 -15 9 -20 16c-5 9 -9 15 -15 22c-5 0 -8 -3 -10 -6
s-5 -8 -8 -8c-13 -1 -16 -11 -30 -17c-15 -6 -21 0 -36 -1c-6 0 -11 -4 -1 -4c23 0 -4 -8 -34 -6c-14 1 -44 9 -52 19c-22 28 -27 35 -28 59l-2 39c-2 39 13 66 30 88c20 27 45 42 78 50c16 5 33 7 48 15c11 5 20 -4 32 0c4 27 0 76 -2 103c0 16 -5 20 -20 14
c-30 -12 -62 -16 -95 -17c-3 -1 -7 0 -9 -2c-20 -14 -33 6 -49 7c-1 7 2 7 4 7c26 7 52 17 79 19c22 2 41 13 62 20c10 3 14 5 24 7c12 1 22 -1 32 -7c10 -5 19 -12 31 -11c3 7 -7 8 -8 12c0 3 -12 6 -5 6c15 0 34 -9 45 -20c16 -17 23 -36 17 -58v-6c6 -26 4 -45 0 -72
c-2 -8 2 -16 2 -24c1 -34 3 -69 1 -103c0 -13 -5 -35 -6 -48c-1 -10 2 -24 5 -34c15 -2 24 3 36 13c14 5 29 22 42 37c0 26 6 55 11 85c2 15 14 32 27 44c24 21 34 27 64 33c14 3 29 4 43 9c1 1 45 -4 45 4c3 28 6 36 5 63c0 6 -2 12 4 17c6 6 2 14 -1 18c-4 6 -5 12 0 20
c-25 -4 -49 -4 -70 -11c-18 -6 -31 -13 -69 -17c-2 0 -27 -5 -29 -5c-7 0 -15 -1 -16 8c-2 11 8 7 14 10c9 3 19 2 28 12c5 6 20 6 30 11c21 10 25 10 47 16c24 7 48 9 72 10c21 2 41 -5 61 -7c8 -1 15 -8 15 -17c1 -13 7 -25 2 -39c7 -1 9 3 9 8s0 11 -1 16s-3 9 3 11
c5 1 9 0 12 -4c3 -6 7 -12 6 -20c-4 -28 1 -39 -3 -68c-1 -10 -2 -20 -2 -30c1 -48 -5 -96 -7 -145c0 -14 5 -21 4 -36c-1 -14 -2 -16 3 -28c6 -13 11 -24 18 -20c7 0 12 1 20 6c31 20 34 20 59 41c9 8 19 15 30 21c4 2 8 4 12 3zM562 390c5 -1 10 -2 17 -8
c-3 13 -3 13 -17 8zM538 72c5 4 6 5 5 11c-5 43 -4 113 -2 156c0 16 -10 -5 -21 2c-2 1 -39 -10 -33 -8c-13 -3 -17 -14 -24 -22s-20 -10 -22 -26c17 12 29 27 46 34c3 -6 3 -9 0 -12c-11 -12 -19 -26 -24 -42c-4 -14 -13 -28 -12 -44c3 -29 4 -18 10 -47
c5 -24 17 -27 28 -23c21 8 30 4 49 21zM167 159c2 14 -2 26 1 40c3 12 1 18 1 31c-4 -1 -12 -4 -14 -7c-4 -5 -5 -8 -10 -8c-3 0 -5 1 -11 -4c-10 -8 -11 -11 -21 -18s-18 -16 -22 -27c-18 -44 -14 -96 1 -110c11 -10 17 -19 30 -14c9 3 31 16 40 19c6 2 7 9 7 16
c0 5 -1 11 0 18c2 18 -6 34 -2 64zM442 165c3 5 0 11 -3 8c-5 -3 -3 -8 -1 -14c2 4 3 5 4 6zM23 21c7 -4 10 -14 23 -13c-11 13 -22 24 -29 38c-2 4 -10 18 -10 4c0 -5 -5 -10 1 -13c7 -4 9 -12 15 -16z" />
    <glyph glyph-name="b_b.liga" unicode="bb" horiz-adv-x="760" 
d="M43 620c7 3 11 2 15 -4c6 -8 12 -17 21 -24c3 -2 4 -7 5 -11c3 -25 10 -49 9 -74c-3 -50 2 -100 0 -150c0 -2 0 -4 4 -6c31 28 67 43 106 54c21 6 40 2 50 -18c7 -1 3 9 10 7c4 -2 7 -4 7 -8c0 -7 1 -14 4 -20c2 -4 3 -9 8 -10c11 -2 12 -11 13 -18c6 -44 8 -89 3 -133
c0 -2 -1 -4 0 -5c7 -22 1 -44 -2 -65c-4 -23 -7 -45 -17 -67c-9 -20 -21 -37 -35 -54c-12 -14 -26 -21 -42 -26c-4 -1 -9 -3 -13 -1c-15 9 -32 7 -47 15c-6 3 -9 7 -13 11c-7 8 -11 20 -21 27c-9 -17 2 -36 -9 -51c-10 -2 -8 9 -14 12c-1 -6 0 -12 -6 -17
c-17 11 -31 29 -51 37c-5 -4 0 -12 -7 -16c-11 6 -16 15 -15 28c2 19 -4 37 -4 56c-2 48 -3 96 0 144c1 20 0 40 0 60c1 69 1 138 1 206c0 30 -1 59 0 88c0 18 1 18 17 23c8 2 16 6 23 10zM361 613c16 10 29 9 38 -5c8 -11 5 -13 17 -11c15 2 18 0 24 -14
c15 -32 23 -66 25 -101c2 -30 1 -60 2 -90c0 -13 3 -26 5 -42c21 18 39 33 56 49c7 7 20 10 20 23c0 3 4 3 6 2c5 0 10 2 14 5c3 4 8 4 12 2c7 -4 16 -5 24 -9c7 -4 13 -8 20 -1c3 3 8 2 13 -2c13 -7 22 -18 28 -32c5 -14 12 -27 19 -40s11 -28 11 -43c1 -32 -1 -63 -6 -95
c-4 -27 -8 -55 -11 -83c-3 -33 -14 -63 -33 -89c-15 -21 -33 -34 -61 -37c-7 -1 -13 3 -19 5c-11 3 -21 3 -32 4c-12 1 -25 7 -35 14c-15 10 -24 24 -36 36c-2 2 -3 5 -8 6c-5 -7 -8 -16 -7 -25c0 -8 -2 -14 -7 -19c-3 -4 -22 -11 -28 -9c-5 2 -13 12 -20 25
c-5 9 -9 18 -17 26c-9 9 -13 24 -14 37c-3 23 -4 45 -3 67c1 33 3 65 0 98c-2 18 -1 37 2 55c6 44 8 87 6 131c-1 36 1 72 1 108c0 19 -4 36 -6 54zM544 366c-11 -6 -24 -11 -35 -18c-22 -11 -43 -25 -39 -56c1 -8 0 -16 -1 -24c-5 -37 -7 -73 -6 -117v-46c0 -5 0 -10 6 -15
c11 -9 21 -20 33 -29c12 -10 18 -9 31 0c17 10 27 25 34 43c3 7 9 12 8 20c-3 35 21 87 10 118c-1 3 -2 5 -1 8c1 4 7 6 9 10c1 3 0 7 -1 10c-5 20 -9 40 -14 60c-2 10 -4 19 -8 29c-5 12 -14 15 -26 7zM195 368c-16 -2 -33 -2 -46 -12c-15 -11 -29 -24 -41 -38
c-10 -11 -14 -23 -14 -37c0 -34 7 -67 5 -101c-1 -22 6 -43 5 -65c-1 -16 0 -32 0 -49c16 -5 31 -15 49 -23c10 15 19 29 24 44c13 32 18 66 22 100c6 46 8 93 7 140c0 11 -3 22 -4 33c-1 4 -2 8 -7 8zM600 204c-6 -14 -10 -30 -13 -42c0 -4 -1 -8 2 -11c3 -8 -3 -25 -2 -34
c0 -4 -2 -9 6 -13c3 33 15 71 7 100z" />
    <glyph glyph-name="c_c.liga" unicode="cc" horiz-adv-x="651" 
d="M705 157c2 -4 0 -8 -3 -10c-4 -4 -9 -7 -14 -10c-17 -10 -32 -23 -46 -36c-23 -21 -27 -27 -55 -38c-5 -1 -8 -3 -12 -6c-19 -14 -36 -23 -52 -31c-15 -7 -29 -14 -45 -15c-4 0 -7 -2 -9 -4c-9 -10 -18 -9 -27 -1c-4 3 -7 5 -12 1c-8 -6 -18 -3 -26 1
c-13 6 -24 12 -36 20c-5 4 -11 4 -17 9c-18 17 -30 34 -36 59l-3 9c-11 -11 -11 -21 -21 -26c-8 -4 -15 -15 -21 -21c-27 -26 -7 -13 -27 -25c-6 -4 -22 -13 -27 -15c-22 -8 -33 -3 -51 -15c-22 -15 -44 -22 -67 -5c-7 5 -13 6 -20 3s-12 -3 -18 0c-36 20 -56 51 -61 91
c-3 19 -5 37 -5 56c0 52 -1 104 7 155c4 23 8 45 16 66c6 16 14 30 36 31c7 0 14 7 21 11c26 15 53 17 80 3c6 -3 13 -5 19 -8c3 -2 5 -2 8 1c7 6 14 5 21 -2c2 -1 5 -2 7 -4c24 -15 37 -37 38 -67c1 -16 3 -32 -7 -47c-7 -11 -18 -18 -26 -28c-1 -1 -5 -3 -7 -2
c-10 4 -14 -5 -22 -10c-8 10 -11 21 -11 32c1 19 2 38 2 57c0 21 -19 40 -39 40c-9 1 -16 -2 -20 -10c-5 -8 -11 -15 -16 -23c-5 -7 -8 -15 -6 -24c0 -5 1 -10 -1 -15c-8 -22 -6 -45 -7 -67c0 -13 1 -25 6 -37c0 -1 1 -2 1 -3c-3 -20 6 -39 6 -59c-1 -23 0 -47 10 -69
c4 -8 8 -16 14 -22c9 -9 19 -12 32 -8c32 8 45 13 75 27c19 9 43 33 62 55l10 10c-3 8 -4 16 -4 24c1 35 3 71 7 106c3 32 14 62 20 93c1 9 4 17 5 26c2 15 16 23 30 17c9 -4 19 -6 24 -16c7 7 3 9 -1 13c-10 7 -10 9 -1 16c24 21 50 31 81 17c4 -2 8 -4 12 -2
c12 4 23 -1 35 -4c21 -4 31 -20 36 -38c6 -16 5 -27 6 -44c1 -6 3 -13 -8 -14c-7 0 -8 -9 -8 -14c0 -8 0 -14 -9 -15c-1 0 -1 -1 -2 -1c-4 -5 -2 -18 -12 -13c-9 5 -20 8 -25 21c-9 24 -10 49 -15 66c-7 22 -31 36 -52 27c-4 -2 -6 -4 -7 -8c-1 -8 -4 -17 -2 -24
c7 -25 3 -49 -3 -72c-8 -35 -6 -69 1 -102c6 -31 17 -61 27 -91c2 -9 7 -18 20 -16c6 0 9 -6 9 -12c0 -4 2 -7 5 -8c10 -5 23 4 30 -5c1 -1 10 2 12 3c16 7 20 7 54 21c26 10 34 24 58 38c22 13 33 21 56 34c3 2 9 3 13 5c3 1 7 1 10 -2zM59 300c4 4 8 25 3 30
c-4 -4 -5 -25 -3 -30zM410 84c5 -18 5 -38 31 -45c-12 16 -23 29 -31 45z" />
    <glyph glyph-name="d_d.liga" unicode="dd" horiz-adv-x="882" 
d="M851 65c-12 -10 6 -3 -7 -11c-9 -6 -33 -20 -40 -29c-3 -4 -7 -7 -12 -8c-10 -2 -11 4 -13 -9c0 -1 -17 -8 -14 -12c-17 3 -19 7 -36 5c-18 -1 -34 6 -51 11c-14 4 -26 14 -32 30l-7 15c-14 -17 -21 -30 -26 -42c-4 -10 -45 -32 -53 -30c-9 2 -32 3 -40 0
c-6 -2 -11 0 -16 2c-21 7 -40 18 -58 30c-11 8 -20 17 -26 30c-4 8 -7 17 -10 26c-9 -11 -18 -21 -30 -30c-20 -15 -19 -18 -31 -31c-10 -9 -25 -13 -40 -16c-36 -6 -57 -1 -79 28c-4 4 -7 9 -11 13c-2 8 -5 17 -6 22c-8 31 -9 64 -12 96c-3 38 -8 76 -4 114
c2 21 0 39 -9 59c-8 18 -20 30 -37 43c-5 -11 -9 -20 -22 -19c-5 0 -7 -5 -8 -9c-1 -6 -5 -11 -8 -17c-9 -21 -17 -42 -12 -66c4 -15 6 -32 4 -47c-3 -18 -3 -37 -5 -55c-1 -30 -3 -59 7 -87c3 -8 4 -16 5 -24c3 -20 17 -29 36 -23s23 11 37 27c2 3 6 4 9 5l2 4
c4 -5 -1 -38 -7 -52c0 -1 -16 -23 -28 -25c-33 -2 -62 7 -92 24c-16 10 -31 28 -45 69c-3 8 -7 15 -11 23c-13 23 -12 50 -16 75c-6 33 -2 65 2 98c4 31 12 61 27 89s35 47 68 52c4 0 7 3 10 4c10 3 20 4 28 -4c3 -3 6 -6 9 -7c22 -7 42 -18 58 -38c5 40 10 87 11 133
c1 43 11 85 15 123c12 8 18 -5 27 -10c1 2 2 3 2 4c-3 16 -1 18 14 17c5 -1 10 -2 15 0c9 4 13 -2 16 -10c6 -22 10 -45 13 -68c2 -20 7 -61 7 -81c2 -42 -3 -83 -3 -125c1 -20 0 -41 -4 -61c-3 -19 -4 -37 -3 -56c1 -14 1 -28 0 -41s-1 -25 2 -38c2 -15 4 -30 2 -46
c-1 -13 1 -25 3 -38c2 -15 12 -20 25 -13c28 17 31 9 51 35c3 4 7 8 11 11c-1 9 -1 17 -1 26c1 43 3 80 4 123c1 21 6 42 15 61c9 21 18 42 31 60c11 15 13 16 31 6c8 11 19 12 31 8c12 -5 25 -1 37 1c20 2 37 1 52 -17c9 -12 12 -25 22 -34c0 81 7 166 3 245
c8 3 16 3 21 10c8 12 10 11 22 2c2 -1 4 -2 5 -3c8 2 8 10 15 14c4 3 6 11 14 8c9 -5 22 -8 20 -20c-3 -23 10 -45 6 -68c-1 -3 -1 -5 0 -8c10 -53 6 -106 6 -159c0 -30 0 -59 3 -88c2 -25 4 -50 2 -75c-2 -28 1 -56 -1 -84v-24c-1 -6 -3 -11 1 -17c4 -8 7 -18 14 -24
c4 -8 6 -5 15 -2c18 4 29 14 44 26s26 20 59 42c6 4 13 6 17 16c5 14 22 12 32 0c-30 -29 -63 -55 -72 -64zM631 106c-4 18 0 37 0 59c4 40 -4 77 -4 120c1 10 -5 18 -12 26c-16 15 -27 31 -43 46c-2 2 -4 5 -6 4c-10 -4 -14 -2 -24 -3c-4 -1 -5 -4 -6 -8
c-5 -15 -10 -29 -17 -43c-4 -6 -3 -13 -2 -18c4 -16 3 -32 2 -49c-1 -3 -2 -7 -2 -11c4 -41 7 -77 6 -118c-1 -26 11 -44 24 -63c5 -8 17 -16 22 -14c11 5 25 7 33 17c10 14 11 27 23 40c4 4 8 8 6 15zM299 18c5 2 3 5 1 9c-2 3 -3 6 -9 8c-2 -4 -2 -9 -1 -13s5 -6 9 -4z
M103 7c-4 6 -26 24 -34 26c4 -7 25 -27 34 -26zM561 8c1 11 -4 19 -11 15c-8 -3 -14 2 -21 1c10 -11 10 -11 32 -16z" />
    <glyph glyph-name="e_e.liga" unicode="ee" horiz-adv-x="643" 
d="M487 424c4 3 16 5 23 -3c3 -5 9 -7 15 -8c23 -5 31 -18 41 -38c14 -28 10 -18 6 -49c-1 -9 -5 -18 -10 -34c-4 -13 -25 -20 -35 -30c-8 -6 -24 -22 -32 -26c-24 -10 -27 -22 -48 -37c-10 -6 -21 -11 -34 -23c11 -14 12 -24 16 -38c7 -22 20 -43 36 -59
c22 -22 51 -22 79 -23c8 0 13 3 20 7c15 11 23 21 44 32c11 5 19 13 28 20c12 9 26 15 40 17c3 0 6 -1 7 -4c1 -4 -1 -7 -3 -8c-6 -4 -27 -21 -32 -25c-13 -11 -28 -26 -41 -36c-16 -11 -28 -25 -35 -32c-11 -10 -33 -14 -46 -24c-7 -6 -18 -6 -28 -4c-11 2 -21 1 -32 2
c-31 1 -61 7 -83 33c-2 3 -5 6 -8 7c-28 16 -38 42 -43 72l-2 5c0 1 0 6 -1 7c-5 2 -8 -7 -11 -9c-22 -16 -35 -28 -43 -45c-4 -9 -20 -16 -28 -22s-15 -19 -25 -17c-5 0 -9 -3 -11 -7c-11 -21 -43 -25 -63 -33c-30 -11 -47 0 -76 11c-4 1 -8 4 -11 7c-29 27 -46 57 -56 96
c-1 4 -3 7 -3 11c0 5 -3 22 -3 31c4 33 2 32 2 45c0 27 0 62 3 89c3 36 16 69 40 100c11 14 16 15 37 6l6 11c3 7 8 10 15 5c8 -6 15 -2 25 1c28 11 56 14 83 -3c8 -4 18 -6 26 -8c7 -2 13 -5 18 -11c6 -5 10 -10 7 -18c-3 -6 0 -14 1 -20c8 -27 0 -53 -9 -77
c-5 -17 -14 -30 -28 -41c-6 -4 -11 -9 -15 -14c-6 -7 -17 -10 -29 -18c-8 -5 -43 -27 -64 -41c-6 -4 -8 -7 -6 -13c8 -19 11 -31 19 -42c2 -3 3 -7 5 -9c16 -9 22 -18 38 -25c10 -4 21 -1 30 3c28 11 41 24 66 41c24 18 32 33 50 48c8 6 7 7 8 15c3 34 -2 69 4 103
c4 18 11 35 16 53c3 11 5 23 11 34c13 26 31 48 57 61c13 6 97 17 47 0c-3 -1 -1 -7 2 -6c11 5 13 -5 23 7zM476 399c-11 1 -20 -1 -23 -12c-1 -5 -5 -9 -7 -13c-7 -14 -18 -29 -22 -45l-15 -72c-2 -14 -6 -23 -2 -41c24 22 43 38 53 53c14 22 14 28 19 38c4 9 5 17 7 24
c6 21 0 37 -4 52c-3 12 -5 16 -6 16zM164 382c-15 -3 -28 -1 -41 -14c-13 -12 -18 -24 -17 -41c0 -5 -2 -10 -3 -16c-9 -34 -10 -89 -2 -126c18 18 40 26 58 46c2 2 4 3 6 4c4 3 3 6 6 11c11 16 7 45 13 59c4 7 4 14 4 21c1 21 -12 35 -18 53c-1 2 -4 4 -6 3zM211 345v-25
c8 9 7 16 0 25z" />
    <glyph glyph-name="f_f.liga" unicode="ff" horiz-adv-x="556" 
d="M464 671c11 -7 23 -5 36 -4c15 0 51 -16 17 -12c-19 2 -55 -11 -48 -11c29 2 60 6 66 -3c6 -10 -28 -6 -9 -13c11 -4 -44 -15 -65 -29c-16 -11 -23 -21 -31 -38c-4 -8 -18 -29 -18 -38c-1 -19 -7 -33 -10 -65c-1 -13 -1 -26 -1 -38c5 -2 9 0 13 1c20 3 33 6 50 6
c16 0 31 -2 47 2h2c6 -2 16 1 16 -7c1 -10 -9 -6 -16 -6c-3 -1 -6 -1 -9 -2c0 -4 12 -3 10 -8s-17 -15 -21 -13c-10 7 -16 -2 -24 -4c-9 -1 -19 -1 -29 -3c-12 -3 -25 -4 -37 -4c-4 -21 1 -40 4 -59c4 -24 1 -48 1 -72c1 -50 0 -99 0 -148c0 -17 -4 -43 -5 -60
c-3 -31 0 -62 -7 -92c-2 -12 -2 -25 -17 -32c-7 -4 -12 -12 -20 -17c-7 -3 -12 27 -18 32c-4 3 -7 -24 -13 -24c-3 0 -6 2 -7 5c-4 17 -15 30 -22 45c-3 7 -4 14 -4 21c-1 23 0 46 4 69c5 23 4 55 -2 78c-8 30 -6 61 -6 92c-1 43 -1 88 2 131c1 6 1 14 -1 22
c-7 2 -18 -4 -26 -4c-17 0 -15 -3 -22 -3l-18 -2c-36 -4 -39 -8 -75 -9c-4 0 -8 0 -11 -5c0 -22 3 -35 3 -76c0 -19 -1 -39 -1 -58c0 -17 0 -34 -3 -50c-4 -21 1 -61 1 -82c0 -11 -1 -42 3 -73c1 -11 2 -22 -6 -31c-4 -5 1 -11 -2 -17c-8 6 -6 14 -5 21c1 8 -2 15 -2 22
c0 8 -1 16 -2 27c-6 -25 3 -48 -5 -71c-11 8 -7 20 -15 29c-1 -12 -3 -22 -4 -31c-2 -10 -21 -22 -29 -20c-3 1 -5 3 -6 5c-16 24 -36 49 -37 79c0 29 -4 59 -2 68c3 13 -1 44 -2 56c-4 48 -7 76 -5 124c1 36 2 36 3 72c-20 3 -63 -12 -46 3c9 8 -33 18 -21 33
c30 13 39 18 68 22c4 8 3 18 2 26c-6 47 12 88 33 129c12 22 28 42 44 62c4 6 9 11 18 11c11 1 22 5 33 9c7 2 14 2 22 2c6 0 20 5 27 2c16 -6 24 -10 34 -9c8 1 32 -30 23 -30c-27 0 15 -27 -1 -44c-16 -8 -46 22 -74 10c-16 -7 -33 -14 -40 -31c-2 -4 -8 -25 -6 -30
c5 -14 -4 -29 -5 -44c0 -10 1 -21 0 -32s2 -20 2 -31c41 -2 64 1 88 3c21 2 32 2 67 7c2 18 3 36 4 53c3 33 11 64 23 95c6 16 16 30 31 41c5 4 10 11 13 18c7 17 22 25 38 31c18 7 26 13 44 19c6 2 13 4 19 2zM117 456h-3c-6 -15 -8 -45 0 -47h2c3 14 1 35 1 47z" />
    <glyph glyph-name="f_i.liga" unicode="fi" horiz-adv-x="462" 
d="M480 109c9 7 19 14 32 4c-7 -10 -15 -17 -24 -24c-14 -11 -22 -17 -32 -33c-5 -9 -9 -10 -18 -11c-6 0 -13 -8 -18 -12c-6 -5 -13 -6 -18 -11c-4 -5 -7 -10 -11 -13c-5 -4 -12 -6 -18 -8l-19 -6c-4 -2 -9 -3 -14 -3c-3 0 -6 1 -9 1c-4 -2 -6 -6 -10 -7s-8 2 -12 5
c-4 4 -9 8 -16 9c-7 2 -13 11 -22 4c-4 -3 -9 3 -13 6c-15 16 -16 36 -19 56c-3 26 -2 53 -1 80c1 32 2 65 5 97c3 28 5 56 3 84c-2 17 3 34 1 52c-39 -3 -112 -8 -119 -11c-8 -3 -13 -4 -13 -7c0 -45 -6 -90 -3 -135c2 -38 6 -77 7 -116c1 -60 3 -120 3 -180
c0 -1 -4 -7 -4 -8c-6 -2 -7 16 -12 16c4 -24 -9 -49 -19 -71c-8 9 -16 13 -26 14c-9 1 -15 10 -18 18c-3 10 -9 18 -15 27c-11 19 -15 39 -16 61c-2 31 -4 62 -5 93s-2 62 0 94c2 37 10 75 3 114c-3 13 -1 27 -1 41c0 6 1 12 -2 20c-10 0 -19 0 -28 -6c-7 -5 -15 -4 -21 3
c-5 7 -4 13 3 18c5 4 1 9 0 13c-3 12 -1 15 12 17l24 3c14 2 14 2 15 16c0 18 1 35 1 53c0 30 3 39 14 68c8 21 22 35 37 50c25 23 57 33 88 42c42 13 58 8 84 -4c3 -2 18 -7 21 -12c-18 -4 -34 16 -56 6c-6 -3 -7 -8 5 -5c14 5 17 1 21 -1c24 -10 30 -11 40 -15
c4 -2 13 -23 7 -18c-9 7 -58 2 -67 0c-26 -5 -55 -28 -63 -47c-11 -30 -13 -35 -20 -66c-4 -15 -5 -37 -5 -54c105 -1 135 13 172 10c21 0 30 -9 35 -29c1 -3 1 -7 4 -9c11 8 14 7 14 -6c1 -5 1 -10 -1 -15c-3 -10 -3 -20 -1 -30c5 -42 4 -84 5 -126c1 -26 4 -51 7 -77
c1 -18 4 -36 5 -54c2 -20 -3 -35 16 -27c21 10 25 9 52 28c9 6 28 21 38 24c6 3 11 6 15 10z" />
    <glyph glyph-name="f_t.liga" unicode="ft" horiz-adv-x="493" 
d="M347 403c-15 -2 -16 -1 -15 -16c1 -37 7 -44 9 -80c2 -31 5 -40 3 -70c-1 -37 6 -72 9 -108c1 -21 4 -42 6 -63c2 -15 12 -24 23 -32c3 -3 6 -3 10 -1c8 3 22 4 29 10c24 21 41 26 53 33c11 5 -9 -48 -41 -61c-16 -7 -14 -14 -30 -20c-4 -1 -10 -4 -14 -7
c-21 -17 -37 -17 -66 -15c-6 0 -11 5 -18 -1c-3 -3 -6 2 -8 5c-4 8 -7 16 -11 24c-2 5 -3 10 -10 7c-4 -2 -5 0 -7 3c-13 18 -22 37 -26 60c-4 29 -4 58 -4 87c1 49 -2 99 1 148c2 33 3 59 4 83c-20 -1 -55 -6 -69 -9c-9 -2 -54 -9 -54 -19c0 -14 -2 -67 1 -112
c2 -38 -2 -100 -1 -139c1 -60 3 -120 3 -180c0 -1 -4 -7 -4 -8c-6 -2 -7 16 -12 16c4 -24 -9 -49 -19 -71c-8 9 -16 13 -26 14c-9 1 -15 10 -18 18c-3 10 -9 18 -15 27c-11 19 -15 39 -16 61c-2 31 -4 62 -5 93s-2 62 0 94c2 37 10 75 3 114c-3 13 -1 27 -1 41
c0 6 1 12 -2 20c-10 0 -18 1 -28 -3c-7 -3 -12 -5 -21 -5s-4 18 3 23c5 4 9 10 6 10c-15 0 -7 13 6 16c9 2 16 6 24 7c14 2 14 2 15 16c0 18 1 35 1 53c0 30 3 59 14 88c8 21 22 35 37 50c25 23 55 36 88 42c12 2 23 7 36 4c3 -1 6 -1 9 -6c-18 -4 -36 -9 -54 -8
c-6 1 -10 -2 -14 -4c-9 -4 -13 -13 -19 -20c4 -2 7 2 10 4c15 10 31 17 49 16c2 0 4 0 5 1c15 11 23 -4 33 -8c4 -2 15 -16 7 -18c-9 -2 -19 -10 -28 -13c-19 -6 -31 -18 -39 -37c-11 -30 -16 -62 -23 -93c-4 -15 -2 -33 -2 -50c59 3 95 8 119 12l-1 25c1 11 1 22 0 33
c-2 15 2 30 5 46c7 -9 3 -21 10 -32c7 16 6 31 4 46c-1 13 2 22 14 29c24 -13 33 -37 40 -60c6 -20 9 -54 13 -76c21 2 29 5 40 7c29 4 46 5 24 -1c0 -3 33 7 41 7c12 0 46 -4 28 -12c-7 -3 13 -6 18 -11c-14 -15 -45 -13 -67 -17c-7 -1 -19 -1 -32 -3c-4 -1 -23 -3 -33 -4z
M337 28c-1 3 -12 32 -16 32c-2 0 6 -28 6 -30c0 -4 3 -6 6 -6c3 -1 4 1 4 4z" />
    <glyph glyph-name="g_g.liga" unicode="gg" horiz-adv-x="795" 
d="M785 155c10 8 25 7 37 -1c-19 -20 -45 -32 -64 -51c-1 -2 -13 -8 -14 -10c-16 -19 -14 -14 -31 -28c-14 -7 -21 -20 -33 -27c-4 -2 -2 -7 -2 -11c0 -33 -5 -66 -11 -98c-2 -11 -3 -22 -2 -32c2 -22 -9 -41 -17 -59c-6 -1 -8 5 -13 4c-4 -5 -7 -12 -6 -18
c1 -7 -1 -11 -4 -16l-27 -33c-5 -5 -10 -9 -17 -10c-12 -3 -20 -13 -31 -18c-27 -10 -58 -10 -84 4c-10 5 -19 11 -29 17c-7 4 -12 10 -17 17c-24 31 -26 82 -6 115l12 21c8 16 22 25 35 36c29 21 66 37 96 55c3 2 6 5 10 6c13 3 15 27 14 38v17c-11 -4 -17 -13 -23 -19
c-11 -11 -8 -17 -20 -25c-18 -11 -26 -7 -34 -4c-14 0 -24 0 -28 5c-10 -6 -18 3 -25 8c-23 15 -37 36 -50 59c-5 -4 -10 -9 -16 -13c-15 -12 -13 -11 -29 -23c-16 -13 -22 -16 -28 -20c-7 -3 -12 -8 -16 -12c-6 -6 -10 -13 -6 -22c6 -17 6 -34 -2 -51c-2 -5 -2 -11 -2 -17
c2 -31 -8 -58 -17 -87c-14 -45 -30 -75 -55 -99c-7 -8 -14 -15 -26 -15c-9 0 -18 -7 -27 -12c-17 -8 -25 -17 -43 -23c-20 -7 -25 -6 -37 14c-3 4 -7 6 -11 6c-20 2 -29 16 -36 31c-5 12 -6 25 -8 38c-5 25 5 59 17 78c17 29 35 51 59 75c12 12 22 16 34 25
c14 9 26 20 38 30c9 8 24 10 27 21c3 10 -1 22 -2 33c0 8 -2 16 -4 25c-7 -4 -13 -8 -16 -15c-6 -13 -17 -22 -23 -36c-4 -8 -13 -13 -21 -17l-27 -12c-14 -5 -29 1 -41 8c-12 6 -23 14 -35 19c-8 4 -13 11 -17 19c-17 31 -28 64 -33 99c-11 71 2 139 29 205
c8 17 16 35 30 49c7 7 12 17 25 8c2 -2 8 1 12 2c15 4 28 3 40 -8c3 -3 8 -4 12 -6c26 -8 42 -25 46 -53c0 -3 1 -6 2 -9c1 0 3 -1 6 -2c1 21 4 41 0 61c-2 14 2 19 15 15s25 -12 35 -22l6 -6c8 0 3 8 9 11c13 -9 28 -18 30 -38l3 -53c3 -43 4 -86 7 -129c3 -26 2 -51 2 -77
c0 -8 0 -16 4 -24c6 -1 8 5 12 7c20 10 36 20 67 44c-8 19 -10 40 -8 62c3 36 1 56 4 91c2 31 7 61 22 89c5 10 12 19 19 28c2 3 6 6 8 10c5 13 11 22 27 12c3 -2 7 0 10 2c4 2 7 3 10 5c34 19 48 8 75 -14c9 -8 17 -16 30 -21c4 12 2 25 2 37c0 7 2 10 10 12s16 4 21 13
c5 10 14 10 22 2c7 -8 14 -17 22 -24c5 -5 8 -12 8 -21c-1 -18 2 -36 5 -54c4 -29 4 -60 0 -89c-4 -28 -4 -55 -2 -82c3 -30 0 -59 2 -88c1 -4 -1 -8 4 -12c20 14 25 22 46 36c23 15 36 25 58 42zM585 240c0 39 1 68 3 109c0 4 -7 9 -15 13c-9 7 -17 8 -22 17
c-2 4 -6 7 -10 9c-5 3 -9 8 -12 1c-15 -37 -33 -73 -40 -113c-6 -29 -15 -43 -4 -73c1 -3 1 -7 1 -11c0 -35 12 -67 21 -100c3 -12 25 -46 46 -8c4 7 14 10 19 15l10 14c-3 47 2 79 3 127zM494 384c-1 -2 -3 -6 3 -7c2 3 3 6 5 10c-5 1 -8 0 -8 -3zM202 113c6 6 8 12 7 20
l-3 92c0 5 0 12 -4 14c-10 5 -11 14 -14 23c-10 25 -28 47 -35 74c-3 11 -10 18 -20 22c-9 4 -14 4 -17 -6c-4 -16 -10 -32 -7 -49c3 -24 4 -49 2 -73c-1 -16 -4 -31 -2 -47c1 -14 -2 -28 -10 -39c-7 -8 -9 -17 -9 -25c-1 -15 0 -31 11 -44c0 8 -1 16 -1 24c0 6 0 12 2 18
c2 4 4 7 8 7c5 -1 5 -5 5 -9c0 -12 0 -23 7 -34c11 -18 15 -20 32 -8c18 11 34 24 48 40zM567 -137c10 37 5 75 7 116c-10 -7 -15 -11 -22 -15c-11 -8 -5 -19 -17 -25c-36 -17 -84 -43 -101 -80c-14 -30 -5 -58 24 -71c5 -2 10 -3 15 -4c12 -1 21 0 33 -1c11 0 24 2 31 11
c6 7 12 15 16 26c1 3 0 7 2 10c7 10 8 22 12 33zM216 -109c7 24 2 47 5 73c-6 -1 -10 -1 -13 -3c-14 -8 -25 -21 -42 -25c-1 0 -2 -3 -3 -4c-3 -3 -7 -6 -10 -8c-22 -10 -28 -29 -45 -44c-15 -14 -28 -30 -34 -49c-10 -31 -9 -46 1 -63c8 -14 40 -26 47 -20c2 1 4 2 6 4
c6 8 13 15 18 24c11 18 30 32 44 61c9 18 20 34 26 54z" />
    <glyph glyph-name="h_h.liga" unicode="hh" horiz-adv-x="828" 
d="M876 132c1 0 5 -6 0 -11c-7 -7 -17 -12 -24 -19c-12 -13 -23 -26 -37 -38c-8 -4 -12 -11 -21 -21c-21 -21 -33 -28 -47 -37c-18 -12 -27 -18 -48 -25c-15 -5 -28 -5 -39 7c-4 4 -9 7 -14 10c-34 25 -43 54 -45 95c-4 50 0 100 0 150c0 6 0 12 1 18c8 35 3 70 3 105
c0 3 -2 6 -2 9c-6 19 -18 24 -31 16c-21 -13 -36 -26 -51 -42s-18 -33 -17 -54c1 -38 3 -77 -1 -115c-2 -17 -1 -34 1 -51c4 -36 -1 -101 -7 -137c0 -1 -2 -3 -3 -4c-6 -2 -7 7 -13 5c-5 -5 -6 -12 -8 -19c-5 -12 -9 -15 -21 -12c-6 1 -10 0 -13 -4c-22 20 -31 46 -35 74
c-1 13 -3 40 -3 62l-1 -2c-3 -4 -9 -14 -14 -15c-14 -3 -18 -11 -27 -21c-7 -8 -16 -13 -22 -22c-7 -10 -15 -18 -25 -25c-26 -17 -7 -2 -32 -22c-6 -5 -11 -8 -18 -6l-7 1c-6 0 -9 -10 -15 -5c-9 7 -20 12 -25 23c-1 3 -3 5 -4 8c-6 24 -14 48 -11 74c2 20 4 41 7 61
c1 14 2 28 -1 41c-7 33 -2 65 -1 98c1 35 7 61 12 96c2 8 2 16 -6 20c-6 3 -12 6 -18 3c-5 -2 -8 -5 -12 -9l-18 -16c-2 -2 -4 -2 -8 -6c-10 -9 -18 -20 -29 -30c-4 -3 -5 -6 -6 -9c-11 -25 -15 -44 -15 -71c0 -25 3 -49 7 -73c5 -30 5 -61 -1 -91c-3 -13 -1 -27 1 -41
c1 -13 0 -26 -3 -39c-1 -7 -2 -15 -13 -15c-8 0 -4 -12 -13 -12c-8 4 -16 9 -26 2c-3 -2 -7 -1 -9 2c-13 13 -25 26 -25 46c-1 6 -1 13 -5 18c-9 10 -9 23 -9 35c0 43 -1 85 0 128c0 33 -2 66 -5 99c-5 41 -4 82 -4 123c0 49 0 105 1 153c0 16 3 31 8 46c16 3 30 -1 41 -14
c4 5 4 12 11 10c6 -1 6 -6 6 -10c2 -9 3 -17 13 -20c4 -1 4 -5 5 -8c5 -20 13 -40 16 -62c1 -11 -2 -30 0 -41c7 -29 4 -58 2 -87c0 -17 5 -34 3 -54c14 10 21 22 30 33c11 14 23 27 38 37c20 13 43 17 67 7c20 -8 33 -23 48 -38c3 -4 3 -9 2 -14c0 -11 0 -21 -1 -32
c0 -10 3 -20 3 -30c0 -22 -4 -43 -4 -65c-1 -29 3 -57 6 -85c1 -15 2 -29 1 -44c-1 -14 1 -29 -2 -43c-1 -7 0 -14 6 -20c3 -2 6 1 9 3c6 3 1 -8 20 10c20 20 39 25 62 45l10 8c2 56 -3 112 -8 168c-3 28 -2 57 0 85c1 18 -2 35 -2 53c1 35 11 69 7 104c-1 6 -2 11 -4 16
c-6 20 -4 23 16 25c0 6 -3 12 1 18c4 5 9 5 15 8c3 1 7 0 10 4c7 8 14 6 21 0h2c23 -3 29 -22 34 -39c10 -38 14 -77 11 -117c-2 -27 -5 -55 -1 -85c16 11 30 21 43 31c25 19 47 25 77 14c3 -2 6 -2 8 1c0 8 -10 5 -13 10c0 3 2 5 5 4c15 -3 30 -5 42 -19
c24 -31 36 -66 38 -105s6 -78 0 -116c-3 -25 -6 -49 -3 -74c2 -28 4 -54 22 -78c12 0 24 20 41 28c6 4 29 21 33 26c25 21 51 35 80 43zM677 95c-7 -19 -1 -37 15 -53c-8 13 -8 27 -9 41v43c-6 -10 -3 -20 -6 -31z" />
    <glyph glyph-name="i_i.liga" unicode="ii" horiz-adv-x="463" 
d="M19 607c-33 17 -38 43 -15 75c10 14 25 22 43 25c12 1 16 -2 16 -13c-1 -9 3 -12 11 -19c21 -19 27 -37 5 -55c-10 -7 -17 -21 -33 -18c-7 7 -18 1 -27 5zM283 577c-9 -1 -14 2 -17 9c-8 23 0 53 18 68c5 3 10 7 14 10c15 12 30 8 42 -6c3 -3 7 -5 12 -8
c-6 -8 -13 -15 -7 -24c3 -4 1 -6 -1 -9c-9 -9 -2 -21 -15 -25c-12 -4 -34 -13 -46 -15zM511 124c9 -18 -20 -32 -32 -46c-3 -2 -7 -3 -10 -5s-7 -3 -8 -5c-2 -17 -22 -19 -30 -32c-2 -6 -9 -6 -14 -9c-14 -7 -10 -10 -16 -17s-17 -7 -24 -13c-13 -8 -23 -8 -35 -11
c-26 -10 -41 -10 -67 7c-4 3 -6 6 -9 10s-5 9 -10 11c-17 9 -20 27 -22 44v16c-5 -4 -10 -10 -15 -18c-5 -9 -9 -10 -18 -11c-6 0 -13 -8 -18 -12c-6 -5 -13 -6 -18 -11c-4 -5 -7 -10 -11 -13c-5 -4 -12 -6 -18 -8l-19 -6c-4 -2 -9 -3 -14 -3c-3 0 -6 1 -9 1
c-4 -2 -6 -6 -10 -7s-8 2 -12 5c-4 4 -9 8 -16 9c-7 2 -13 11 -22 4c-4 -3 -9 3 -13 6c-15 16 -16 36 -19 56c-3 26 -2 53 -1 80c1 32 2 65 5 97c3 28 5 56 3 84c-2 20 5 40 0 61c-1 7 7 14 12 19c9 8 21 12 33 13c21 0 30 -9 35 -29c1 -3 1 -7 4 -9c11 8 14 7 14 -6
c1 -5 1 -10 -1 -15c-3 -10 -3 -20 -1 -30c5 -42 4 -84 5 -126c1 -26 4 -51 7 -77c1 -18 4 -36 5 -54c2 -20 -3 -35 16 -27c21 10 25 9 52 28c9 6 28 21 38 24l5 3c0 20 0 39 -1 59c1 46 7 92 9 138c2 32 5 78 4 109c-1 16 3 21 17 25c7 2 20 -3 25 -10c12 -12 15 -32 21 -42
c8 17 -5 36 -2 46c11 -5 22 -12 23 -25l3 -18c4 -27 2 -69 8 -96c2 -12 1 -25 0 -37c-5 -50 -2 -100 1 -150c1 -25 4 -45 -2 -70c-2 -4 0 -8 4 -14c9 0 10 0 18 6c28 17 11 5 38 24c21 15 21 20 41 38c3 2 7 4 11 6c20 12 40 21 60 33z" />
    <glyph glyph-name="j_j.liga" unicode="jj" horiz-adv-x="429" 
d="M254 642c-4 0 -7 2 -9 5c-11 13 -11 40 0 53c2 2 6 4 8 4c11 -2 19 4 28 8c1 0 2 1 3 1c7 1 13 3 19 -4c6 -6 -1 -11 -1 -18c16 -3 19 -8 13 -21s-19 -20 -25 -32c-2 -3 -8 -5 -10 -2c-8 8 -17 5 -26 6zM0 588c-10 -2 -15 0 -20 9c-8 11 -6 25 -2 38c1 14 13 17 18 27
c5 12 13 12 24 13c9 2 15 4 22 6c5 1 8 3 11 -2c2 -5 0 -9 -3 -11c-3 -4 -8 -6 -9 -11c6 -10 14 -6 24 -10c-7 -15 -8 -32 -22 -47c-5 -3 -10 -8 -17 -7c-10 1 -18 -1 -26 -5zM478 192c3 -22 2 -24 -16 -32c-41 -18 -37 -30 -72 -58c-13 -11 -28 -20 -42 -29
c-8 -7 -12 -15 -12 -26c1 -16 -1 -32 2 -49c2 -23 -3 -47 -16 -66c-8 -12 -13 -25 -15 -38c-1 -4 -1 -8 -3 -11c-22 -19 -34 -46 -59 -63c-20 -15 -41 -16 -64 -15c-24 1 -36 20 -52 33c-3 2 -6 9 -6 13c3 21 1 42 15 63c25 38 55 71 90 99c5 4 7 8 9 14c4 16 9 31 5 47
c-2 12 -3 24 -4 36l-2 28c-11 -8 -22 -16 -29 -23c-10 -12 -38 -27 -50 -37c-26 -22 -16 -17 -45 -35c-6 -4 -9 -8 -10 -15c0 -13 -2 -26 -2 -39c-1 -18 -3 -35 -5 -52c0 -7 -2 -14 4 -20c4 -4 1 -10 0 -16c-10 -42 -33 -75 -70 -97c-15 -9 -29 -20 -45 -26
c-6 -2 -11 -6 -18 -5c-11 1 -24 -1 -29 13c0 2 -3 3 -5 5c-27 18 -24 43 -17 70l9 30c3 8 5 17 10 24c17 26 28 46 50 67c5 6 18 12 25 17c-1 22 -1 39 -4 57c-11 84 2 168 1 251c-1 36 -4 71 -6 107c0 5 6 17 11 18c19 5 38 5 57 -1c2 -1 5 -2 6 -4c4 -14 16 -23 16 -39
c0 -20 5 -40 7 -60c4 -42 9 -84 5 -127c-2 -24 -4 -48 1 -72c3 -17 -3 -26 -3 -43c0 -5 0 -14 5 -19c14 5 14 10 26 19c20 16 25 15 36 20c6 2 19 13 23 19c7 10 35 23 44 30l1 1c-1 18 -1 37 1 55c1 13 0 23 0 35c-1 30 -1 60 -1 90l-3 102c0 6 2 11 8 12c3 0 6 2 9 1
c17 -1 32 -8 48 -11c5 -1 8 -6 11 -9c24 -39 37 -79 37 -124c-1 -18 -7 -37 -5 -56c1 -15 3 -30 4 -45c0 -22 -1 -43 -3 -65c-2 -10 -2 -21 0 -36c54 45 81 64 137 87zM211 -89c7 20 11 40 13 61c-34 -17 -58 -43 -73 -76c-3 -4 -3 -11 -1 -16c5 -9 6 -19 10 -29
c15 -14 25 8 37 14c6 4 9 8 8 15c0 11 3 21 6 31zM17 -141c13 37 4 74 -4 111c-11 -4 -19 -9 -26 -15c-13 -9 -18 -24 -25 -36c-11 -18 -20 -36 -24 -57c-7 -33 -1 -48 25 -66c2 -2 5 -3 7 -2c10 3 22 7 26 17c7 16 16 31 21 48z" />
    <glyph glyph-name="k_k.liga" unicode="kk" horiz-adv-x="702" 
d="M357 662c7 4 14 4 20 -1c6 -6 12 -12 16 -18c3 -6 8 -9 14 -13c3 6 2 13 7 17c9 -7 19 -8 30 -8c13 0 14 -3 14 -16c-1 -22 0 -43 -1 -65c0 -41 3 -58 -1 -99c-3 -39 -1 -78 1 -117c0 -17 -2 -34 0 -51c8 0 10 6 13 10c22 25 40 54 61 80c17 22 54 60 70 84c1 2 3 3 5 5
c8 6 16 8 20 3c4 -6 4 -14 -1 -19c-21 -19 -46 -66 -63 -87c-13 -16 -25 -32 -38 -49c23 -9 33 -28 45 -48c23 -43 43 -89 76 -126c5 -6 8 -13 11 -20c7 -19 16 -37 30 -53c3 -4 6 -8 6 -14c-2 -3 -8 -1 -8 -7s12 -10 5 -19c-8 -9 -10 -22 -27 -20c-17 1 -35 0 -48 15
c-3 3 -6 4 -10 5c-21 5 -34 17 -43 37c-22 50 -48 99 -68 150c-3 10 -9 19 -16 29c-10 -11 -17 -21 -17 -36c1 -36 0 -72 4 -108c2 -21 -4 -42 -1 -64c0 -2 -1 -6 -2 -6c-10 0 -10 -13 -20 -14s-20 0 -29 5c-7 4 -14 6 -22 7c-14 3 -22 16 -27 30c-5 17 -8 35 -10 53
c-2 27 -5 55 -3 82c3 32 0 64 -3 95c-2 30 -3 59 -1 88c2 44 1 88 6 132c3 25 4 75 3 125c0 4 -1 8 -2 11c0 6 -2 12 4 15zM44 614c10 -3 16 -12 25 -15c5 2 4 9 8 11c11 -2 17 -8 20 -19c12 -35 14 -70 8 -105c-1 -9 0 -17 2 -24c6 -33 6 -66 4 -99c-2 -28 1 -56 2 -84
c7 -2 9 3 11 6c33 38 69 74 100 115c19 16 27 28 43 39c4 3 23 18 23 12c-1 -7 5 -29 -6 -34c-19 -10 -28 -32 -41 -47c-21 -27 -46 -50 -66 -78c28 -16 39 -45 56 -71c24 -36 40 -77 66 -113c12 -17 21 -38 32 -56c3 -6 38 -55 42 -59c9 -9 41 -57 44 -70
c-6 -3 -14 -6 -19 -7c-10 -2 -23 -4 -31 8c-4 6 -7 7 -15 0c-4 -4 -1 -20 -11 -11c-4 4 -8 -8 -13 -10c-12 8 -51 55 -69 81c-6 9 -29 47 -34 55c-29 44 -50 91 -68 139c-8 22 -23 39 -33 60c-5 -4 -7 -8 -6 -13c1 -23 1 -46 2 -69c1 -27 -3 -53 -6 -79
c-1 -13 -3 -26 -1 -39c2 -19 -3 -35 -14 -51c-4 -5 -8 -7 -12 -2s-12 17 -15 12c-7 -15 -14 3 -17 18c-2 7 -8 -8 -13 -8c-6 0 -7 -5 -12 -4c-4 1 -12 20 -15 21c-9 6 -12 16 -13 33c-3 83 0 166 1 250c1 36 6 72 6 108c-1 30 0 59 -3 88c-2 20 -1 40 -2 60c0 3 1 8 2 9
c14 3 9 14 9 22c1 18 12 25 29 20zM144 268c-2 -4 0 -7 2 -8c2 -2 9 -18 13 -15c-2 4 -7 23 -15 23z" />
    <glyph glyph-name="l_l.liga" unicode="ll" horiz-adv-x="510" 
d="M351 697c13 2 29 -5 33 -16c5 -16 15 -29 19 -45c10 -33 13 -67 9 -102c-3 -17 -5 -34 -8 -51c-2 -10 0 -16 -5 -25c-7 -13 -8 -29 -11 -43c-6 -22 -16 -39 -18 -62c-1 -15 -16 -31 -21 -47c-1 -4 -2 -22 -1 -26c2 -15 5 -22 4 -28c-5 -28 -1 -55 -3 -82
c-3 -45 7 -88 19 -130c3 -10 5 -19 18 -16c5 0 8 -3 12 -6c11 -8 22 -8 33 -1c18 9 22 10 37 25c9 9 19 17 48 41c13 10 26 17 41 21c4 -5 3 -9 0 -13c-2 -2 -5 -5 -8 -7c-20 -12 -21 -24 -40 -36c-10 -9 -34 -38 -49 -44c-5 -2 -8 -4 -12 -7c-5 -11 -19 -14 -33 -14
c-7 -7 -15 -8 -25 -6c-18 4 -34 12 -48 22c-20 14 -41 27 -55 47c-14 18 -20 40 -25 62c-2 12 -4 27 -10 38c-4 -6 -9 -13 -11 -17c-10 -18 -20 -48 -30 -61c-18 -25 -20 -38 -38 -56c-4 -4 -8 -4 -7 -9c0 -5 -13 -7 -16 -9c-25 -10 -36 -14 -59 4l-15 12c-5 5 -11 9 -22 10
c12 -10 18 -24 30 -31c-6 -5 -16 -4 -19 -1c-9 8 -18 15 -25 25c-21 28 -29 60 -31 94c-4 51 -4 103 -5 154c-1 68 -4 136 -3 204c0 36 -3 72 0 109c1 8 1 16 3 24c0 6 0 13 4 18c5 4 11 0 16 2c9 2 16 8 24 13c18 13 37 7 44 -14c2 -7 9 -14 4 -23c-1 -2 0 -6 2 -8
c13 -20 15 -42 17 -64c3 -56 7 -112 6 -169c0 -14 -2 -28 -2 -43c0 -32 1 -65 4 -98c2 -13 0 -26 -1 -39c-2 -26 1 -53 -4 -79c-2 -15 7 -27 14 -39c3 -7 8 -4 14 -3c20 3 27 16 37 32c26 41 43 84 56 100c5 6 8 17 7 26c-4 21 -1 32 -3 53c-4 37 -6 59 -3 87
c4 53 0 101 3 154c2 35 1 70 -2 105c0 8 4 16 4 24s2 13 9 18c10 7 11 19 20 27c18 13 37 20 59 18c6 0 12 1 18 1zM322 683c-11 0 -18 1 -25 -6c9 -5 15 0 25 6zM354 661c-12 -4 -9 1 -22 -4c-5 -2 -8 -4 -7 -10c4 -18 2 -23 2 -40l1 -19c5 -32 7 -67 10 -101
c2 -23 3 -46 -1 -68c-3 -17 -8 -35 2 -53c17 26 19 65 26 93c8 33 13 56 16 90c1 24 -1 47 -2 71c-1 15 -11 27 -20 39c-1 1 -4 3 -5 2zM324 233c-6 -26 1 -82 5 -90c4 24 2 79 -5 90z" />
    <glyph glyph-name="m_m.liga" unicode="mm" horiz-adv-x="986" 
d="M484 448c4 1 5 -2 7 -4c2 -3 4 -5 7 -8c8 11 19 10 30 7c4 -1 8 -2 13 -2c25 -1 41 -17 51 -38c5 -11 11 -22 18 -33c28 -40 46 -85 63 -132c7 4 8 11 10 16c19 45 37 63 56 108l18 35c5 12 17 19 27 27c4 3 9 4 13 2c8 -4 15 -5 25 -1c8 4 13 -6 16 -13
c4 -10 5 0 11 -12c3 15 -4 7 -3 21c6 3 11 2 16 -1c20 -13 30 -31 29 -55v-2c-4 -22 -2 -44 1 -66c2 -16 -1 -23 -1 -35c-1 -26 0 -52 -1 -78c0 -35 7 -69 9 -104c1 -16 5 -32 -1 -48c-1 -2 -1 -5 0 -8c1 -7 3 -13 -7 -16c-5 -2 -6 -12 -16 -7c-8 3 -7 -7 -9 -12
c-4 1 -7 1 -9 3c-12 13 -27 15 -42 17c-12 1 -16 14 -22 23c-1 1 -1 2 -1 4c-5 42 -23 83 -15 128c3 15 1 33 1 49c0 41 -4 61 -6 106c-1 2 -1 4 -2 9c-6 -7 -10 -14 -13 -21c-20 -45 -40 -62 -53 -110c-9 -30 -23 -59 -31 -90c-3 -14 -19 -19 -27 -11c-2 3 -4 6 -5 10
c-2 8 -6 13 -14 16c-11 6 -18 16 -22 29c-6 23 -15 45 -23 67c-1 3 -2 6 -4 8c-15 16 -22 36 -32 55c-8 17 -12 34 -14 52c-1 13 -7 24 -15 34v-219c0 -18 4 -37 3 -56c-1 -15 4 -31 -6 -45c-3 -4 0 -10 0 -15c3 -14 4 -29 0 -44c-3 -7 -5 -11 -12 -12c-9 -1 -12 5 -14 12
c-4 11 -6 23 -5 35c3 37 -4 73 -5 110c-1 2 -1 5 -1 7c5 65 -2 129 -1 193c1 18 1 36 3 54c1 16 -4 31 -1 47v5c0 5 2 8 6 9zM332 428c10 12 28 7 41 -8c9 -11 12 -25 11 -39c0 -17 0 -33 5 -50c4 -13 3 -28 3 -42c-2 -66 2 -132 2 -197c0 -56 -1 -84 -5 -112
c-5 -2 -6 6 -12 5c-2 -3 -1 -6 -2 -9c-4 -7 -7 -15 -19 -15c-8 0 -14 -8 -25 0c-7 7 -13 -4 -15 -12c-21 8 -28 26 -33 45c-6 23 -8 76 -8 100c0 61 -2 122 0 182c0 3 -1 5 -1 8c-1 -1 -3 -2 -3 -3c-15 -54 -36 -106 -59 -157c-5 -10 -8 -23 -6 -35c1 -8 -3 -11 -10 -7
c-5 2 -9 6 -16 5c-2 -11 4 -23 0 -34c-27 -3 -47 10 -58 35c-13 29 -23 59 -36 88s-22 59 -25 90c-2 11 -3 22 -11 35c3 -61 -1 -117 -5 -173c-2 -29 -3 -58 -4 -86c-1 -22 -7 -47 -11 -69c-5 -2 -8 -1 -11 2c-18 25 -18 28 -19 61c-1 49 2 98 6 148c2 26 1 52 3 78
c3 40 -3 79 -1 118c0 9 -3 21 4 25c8 5 19 6 30 3c7 -2 13 -4 22 2c11 7 26 11 41 7c4 -1 8 -2 7 -6c-4 -9 1 -12 7 -17c9 -9 14 -22 17 -35c5 -25 17 -47 27 -71c10 -26 18 -51 31 -76c4 -9 3 -19 6 -30c7 8 6 17 9 25l52 160c6 18 14 37 25 53c1 2 3 4 7 4
c3 -17 9 -34 22 -51c0 17 -5 30 -7 43c9 3 17 5 24 12z" />
    <glyph glyph-name="n_n.liga" unicode="nn" horiz-adv-x="839" 
d="M871 125c3 2 7 2 13 4c-7 -16 -18 -26 -25 -38c-2 -3 -5 -6 -8 -7c-21 -9 -15 -14 -33 -27c-11 -7 -30 -20 -44 -27c-21 -13 -32 -25 -45 -26c-3 -2 -4 -3 -7 -2c-2 0 -4 0 -5 1c-9 5 -14 -14 -23 -3c-5 6 -28 11 -34 16c-14 14 -28 30 -32 43c-3 8 -8 19 -8 30
c-1 20 -1 40 -2 60c-2 41 5 73 8 114c3 35 7 69 7 104c0 7 0 14 -1 21c0 7 -4 13 -10 17c-7 4 -12 7 -18 0c-17 -18 -36 -25 -48 -47c-11 -20 -19 -37 -29 -59c-6 -14 -11 -26 -10 -40c4 -39 0 -71 4 -111c2 -26 2 -52 -1 -78c-1 -15 2 -59 6 -75c2 -7 -30 -8 -21 -18
c8 -9 -10 -13 -17 -13c-20 0 -42 22 -51 39c-8 16 -12 37 -15 59c-10 -8 -20 -16 -27 -28c-8 -13 -16 -17 -30 -24c-11 -11 -16 -13 -32 -18c-7 -5 -14 -11 -26 -12c-28 -2 -53 9 -67 34c-16 26 -22 55 -23 84c-2 33 -2 65 -1 98c0 51 1 101 12 151c3 14 1 27 -1 41
s-13 22 -26 9c-36 -34 -61 -74 -78 -121c-10 -30 -9 -59 -6 -88c1 -12 1 -24 0 -36c-3 -45 -7 -95 -5 -140c0 -11 -4 -15 -16 -18c-5 -2 -8 -5 -11 -7c-14 -10 -25 -8 -35 8c-3 5 -6 12 -12 15c-5 -3 -2 -8 -4 -12c-9 4 -11 12 -14 20c-8 23 -15 50 -14 75
c0 46 -1 91 -1 137v176c0 14 1 14 14 12c5 -1 10 -2 15 0c9 4 18 1 24 -4c9 -7 19 -12 28 -19c10 -8 14 -18 13 -31c-1 -20 3 -39 7 -59c7 5 9 11 11 16c10 27 27 50 44 72c20 24 44 31 75 26c22 -3 37 -16 55 -24l4 -4c5 -20 17 -38 18 -61c0 -48 0 -96 -4 -143
c-2 -24 1 -48 0 -71c-1 -18 6 -35 10 -52c2 -10 31 -21 39 -15c22 15 42 28 62 41c-1 23 -1 45 -1 61c1 72 5 135 7 207c1 19 1 38 1 56c0 9 0 18 11 20c10 2 22 6 28 -7c6 -12 16 -14 27 -15c10 -1 13 -5 15 -16c2 -16 0 -40 3 -57c6 8 15 20 18 27c13 29 37 48 62 64
c19 13 44 14 65 -2c2 -2 5 -4 8 -5h3c3 4 -2 8 1 12c7 3 13 1 16 -6c7 -13 19 -23 24 -37c24 -15 19 -41 21 -62c4 -26 5 -52 3 -78c-3 -53 -7 -98 -11 -151c-1 -13 5 -26 7 -38c1 -5 5 -5 8 -7c14 -4 21 -3 32 4c20 11 25 19 49 33c21 15 31 20 54 32z" />
    <glyph glyph-name="o_o.liga" unicode="oo" horiz-adv-x="718" 
d="M92 422l25 7c5 2 11 3 16 -2c-2 -5 -7 -9 -11 -11c-5 -2 -12 0 -15 -6c9 -4 16 2 24 5c4 1 9 2 12 -2c4 -3 1 -7 -1 -10c-15 -33 -19 -68 -23 -103c-1 -2 -1 -5 -2 -7c-9 -19 -7 -39 -6 -58c4 -45 7 -89 8 -133c0 -25 9 -46 27 -64c8 -8 23 -9 31 0c4 5 9 8 15 10
c17 7 30 17 32 37c1 8 4 16 6 24c13 42 13 85 13 128c0 8 -3 11 -10 13c-6 2 -13 4 -20 5c-30 6 -57 43 -54 74c1 16 2 32 4 48c2 13 10 23 15 34c3 6 13 7 19 2c9 -6 19 -12 25 -21c19 -24 33 -50 41 -80c2 -9 9 -15 10 -24c0 -3 3 -3 6 -4c1 0 20 3 27 5c18 5 27 16 45 36
c18 21 36 41 55 64c3 3 5 6 7 9c15 16 27 17 45 6c6 -4 10 -8 2 -14l-5 -6c8 -10 6 -23 14 -33c2 -1 1 -4 0 -7l-21 -156c-5 -38 -1 -76 8 -114c5 -20 19 -30 32 -39c15 -11 32 -3 46 6c20 12 30 28 38 52c10 29 14 59 13 90c-1 41 -1 82 -4 123c-1 12 -2 24 -4 36
c-1 12 -6 24 -16 32c-6 6 -8 9 -17 7c-11 -2 -23 -2 -32 -11c-4 -3 -11 0 -15 -3c-4 3 -1 7 -2 9c-3 16 -3 18 11 25c26 14 50 15 76 0s46 -49 52 -84c5 -30 15 -59 17 -90c1 -20 3 -40 0 -60c-1 -6 -1 -12 -1 -19c-2 -33 -13 -62 -30 -91c-11 -17 -18 -31 -29 -48
c-2 -4 -13 -13 -18 -13c-9 1 -9 -6 -15 -1c-17 12 -24 -1 -37 -7c-17 -7 -35 -11 -50 -1c-17 10 -36 19 -52 31c-34 26 -61 57 -60 103c0 19 -5 37 -7 55c-1 6 -2 11 -1 17c5 34 2 70 14 105c-10 -2 -10 -9 -18 -13c-7 -4 -11 -8 -18 -13c-10 -8 -15 -12 -28 -13
c-16 0 3 -4 -13 -5c-5 0 -9 -3 -9 -7c0 -5 -1 -9 0 -13c3 -24 -1 -46 -5 -69c0 -5 -1 -9 -1 -13c1 -19 -6 -36 -13 -54c-6 -14 -14 -27 -15 -43c-1 -12 -7 -22 -17 -30c-7 -5 -14 -11 -20 -18c-11 -11 -25 -15 -40 -14c-12 0 -19 10 -29 15c-5 3 -10 8 -15 12
c-7 -14 -7 -14 -19 -9c-34 12 -62 33 -77 65c-11 23 -25 47 -20 75c-6 9 -7 23 -9 39c-8 11 -2 22 -5 37c6 15 4 32 7 48c7 36 20 69 36 102c11 23 31 37 55 45zM110 389c-16 -29 -29 -60 -32 -94c17 29 27 61 32 94zM208 378c-6 6 -19 5 -19 -2c-1 -6 -6 -12 -2 -18
c6 -9 3 -17 3 -27c-1 -28 2 -32 31 -39c3 0 6 -1 10 2c1 13 2 28 0 42c-3 16 -12 30 -23 42zM627 198c-6 -12 -5 -22 -1 -36c4 13 5 24 1 36z" />
    <glyph glyph-name="p_p.liga" unicode="pp" horiz-adv-x="788" 
d="M606 436c3 0 7 1 9 -1c10 -9 23 -8 34 -12c16 -7 29 -16 38 -32c5 -9 13 -17 21 -24c8 -8 11 -18 12 -28c2 -37 5 -74 1 -111c-1 -13 -2 -26 -2 -39c1 -9 0 -17 -5 -25c-4 -7 -4 -16 -5 -24c-1 -12 -5 -24 -15 -33c-3 -2 -5 -6 -6 -9c-8 -23 -23 -43 -33 -64
c-2 -4 -4 -7 -7 -11c-1 -1 -3 -2 -5 -1c-1 1 -3 3 -3 5c0 5 4 10 0 16c-10 -3 -14 -11 -17 -19c-5 -10 -13 -13 -23 -11c-29 4 -55 14 -76 37c-7 9 -15 17 -25 28c0 -12 1 -21 0 -30c-1 -25 0 -50 -2 -75c-1 -21 2 -73 4 -95c0 -8 -1 -16 -3 -24c-3 -8 -6 -16 -4 -25
c4 -8 -1 -11 -10 -9c-10 2 -19 7 -25 15c-4 4 -7 8 -13 2c-3 -3 -6 0 -9 2c-10 5 -16 15 -28 18c-5 2 -6 9 -7 15c-4 38 -15 85 -9 125c3 18 2 58 0 78c-1 24 2 48 1 72c-4 50 0 99 -3 148c-1 28 -2 56 -1 84c1 8 -1 16 -3 24c-1 9 3 13 10 15c3 1 7 2 9 1
c15 -2 30 -4 43 -12c8 -6 14 -13 17 -24c3 -9 6 -19 14 -26c10 3 16 12 23 19c10 10 20 21 32 30c21 17 45 26 71 30zM29 428c8 -1 18 1 22 -10c1 -6 7 -7 12 -7c13 -1 18 -9 21 -20c5 -16 7 -32 15 -49c12 11 25 21 35 33c41 47 86 44 133 31c9 -3 15 -10 20 -17
c19 -24 40 -51 40 -87c0 -23 0 -47 6 -71v-9c-5 -26 -2 -53 -3 -80c-1 -16 -6 -31 -12 -45c0 -2 0 -3 -1 -4c-23 -19 -32 -49 -49 -73c-4 -5 -7 -12 -14 -16c-7 19 21 24 14 42c-11 -13 -17 -30 -33 -38c-1 -1 -2 -3 -3 -5c-4 -5 3 -15 -7 -17c-10 -3 -20 -3 -31 -3
c-24 1 -41 13 -56 30c-10 11 -19 22 -30 35c-5 -22 -4 -43 -7 -64c-3 -33 1 -66 -1 -99c-1 -19 -1 -37 -8 -55c-3 -7 -1 -15 -2 -23c-1 -6 0 -12 -6 -18c-13 13 -35 16 -41 43c-4 -12 -6 -19 -8 -27c-13 9 -20 20 -25 34c-7 26 -4 52 -7 78c-6 49 -2 97 1 146
c3 35 2 70 5 105c5 51 0 102 2 153l3 43c1 15 1 30 -1 45c-2 12 4 19 16 19zM572 403c6 -4 24 -26 32 -31c-6 29 -19 36 -32 31zM570 389c-11 9 -14 10 -25 0c-12 -12 -24 -23 -36 -34c-15 -14 -25 -31 -18 -53c3 -8 4 -16 6 -24c10 -47 11 -94 9 -141c0 -5 0 -10 -1 -15
c-1 -9 2 -17 9 -24c6 -7 14 -13 19 -22c6 -12 16 -20 27 -28c10 8 18 15 26 21c8 7 6 18 9 26c3 10 9 19 10 30c0 19 6 38 7 56c2 33 5 92 2 101c-2 12 -1 25 -3 37c-1 8 0 16 -5 24c-11 15 -20 33 -36 46zM192 374c-12 -2 -25 -5 -35 -11c-25 -13 -39 -38 -53 -61
c-2 -2 -2 -5 -2 -7c4 -36 6 -71 7 -107c1 -28 4 -57 1 -86c0 -8 1 -14 6 -20c13 -17 26 -34 42 -47c7 -6 15 -9 24 -11c4 -1 7 0 10 4c20 34 32 70 34 110v45c3 39 -7 77 -7 116c0 19 -6 38 -9 57c-2 12 -11 20 -18 18z" />
    <glyph glyph-name="q_q.liga" unicode="qq" horiz-adv-x="761" 
d="M624 434l7 -3c29 -8 28 -8 32 -36c4 -26 2 -51 -1 -77c-3 -19 -3 -38 -7 -57c0 -2 0 -5 4 -7c6 3 5 16 17 15c-4 -26 -4 -53 -3 -79c0 -47 -1 -94 -3 -142c-3 -38 -3 -77 -4 -116c0 -16 1 -32 0 -48c-1 -12 -3 -22 -7 -33c-4 -12 -15 -17 -22 -26c-2 -4 -8 -2 -12 0
c-6 3 -10 9 -16 12c-1 -1 -3 -1 -3 -2c-1 -7 -5 -13 -12 -12s-7 9 -9 14s-3 11 -4 16s-2 10 -7 13c-19 15 -23 36 -24 58c-1 44 -1 78 4 121c0 5 2 9 -1 13c-13 -13 -26 -26 -38 -39c-3 -3 -23 -10 -30 -11c-4 -1 -8 -2 -9 -6c-3 -12 -11 -8 -18 -6c-3 1 -6 3 -8 4
c-15 10 -29 19 -43 29c-29 20 -49 49 -55 84c-8 39 -14 78 -9 119c3 29 2 59 8 88c2 11 5 21 13 30c3 4 7 8 8 13c9 29 37 36 60 47c8 4 15 1 22 0c9 -1 17 -2 26 1c21 7 40 -2 53 -20c7 -9 12 -18 18 -27c3 -4 5 -10 13 -12v30c1 9 1 19 2 27c5 4 10 3 15 3h5
c2 15 20 7 25 19c2 4 8 5 13 3zM85 396c5 -5 11 -3 16 -1c18 6 42 -2 58 -7c3 -1 6 -3 6 -6c1 -13 11 -18 19 -26c5 -4 10 -9 10 -17c0 -6 3 -10 9 -14c6 11 5 23 5 33c0 8 -1 15 0 23c0 12 10 19 22 14c6 -3 13 -4 18 -10c1 -2 3 -3 6 -3c16 2 19 0 23 -13
c6 -15 9 -31 8 -47c-2 -39 1 -79 0 -118c-1 -49 3 -98 2 -147c-1 -28 4 -55 -1 -82c-5 -24 2 -47 0 -70c-2 -35 -4 -69 -7 -104c-1 -11 -9 -23 -13 -34c-9 10 -16 28 -20 2c-6 -7 -28 0 -32 8c-9 17 -18 34 -20 54c-1 16 -5 31 -7 47c-6 32 -2 64 -1 97v35
c-6 1 -9 -2 -13 -4c-9 -6 -27 -9 -38 -11c-21 -5 -39 1 -54 16c-4 4 -8 9 -16 4c6 -12 20 -15 28 -27c-15 -1 -26 2 -34 14c-5 6 -8 13 -19 13c-8 -1 -14 7 -18 14c-12 21 -20 44 -20 69c-1 36 -5 72 -7 109c-3 35 3 69 16 102c7 19 18 37 30 52c10 11 18 25 31 34
c5 3 8 6 13 1zM488 374c-1 0 -2 -1 -4 -1c-21 -2 -27 -19 -34 -35c-8 -20 -3 -41 -3 -61c1 -29 -3 -59 2 -88c2 -15 4 -29 1 -43c-3 -17 4 -33 5 -50c1 -3 1 -7 3 -9c13 -9 18 -23 27 -35c4 -6 9 -9 16 -6c16 8 24 17 33 34c2 5 5 8 9 11c11 6 14 16 14 28
c-1 68 1 135 8 202c0 7 2 13 -2 19c-11 -1 -7 -11 -13 -18c-12 19 -27 34 -41 49c-11 10 -7 11 -21 3zM129 352c-8 2 -12 -2 -16 -9c-8 -13 -8 -27 -11 -41c-6 -25 -7 -52 -2 -77c4 -23 5 -46 -1 -69c-2 -6 -3 -12 -2 -18c4 -24 8 -49 13 -74c3 -17 12 -21 28 -13
c6 3 19 6 24 10c7 7 15 11 26 8c2 61 3 119 9 176c1 18 0 36 -11 52c-7 10 -15 20 -17 33c-4 18 -26 20 -40 22zM656 243c2 -10 -3 -19 -1 -31c5 11 3 21 1 31z" />
    <glyph glyph-name="r_r.liga" unicode="rr" horiz-adv-x="588" 
d="M544 437c-27 -7 23 -5 13 -17c-8 -10 3 -23 -27 -25c-7 0 -14 -3 -18 -12c-5 -10 -19 -12 -28 -16c-19 -10 -27 -27 -40 -42c-5 -6 -9 -13 -18 -26c-4 -5 -7 -10 -9 -16c-4 -9 -4 -20 -9 -26c-20 -22 -12 -48 -15 -72c-1 -3 0 -7 0 -10c-7 -46 -4 -92 -10 -138
c0 -5 1 -10 0 -14c-2 -12 1 -25 -13 -33c-6 -3 -4 -10 -5 -16c-4 -17 -5 -21 -25 -13c-16 7 -31 18 -45 28c-10 6 -12 17 -11 28c7 87 5 174 7 261c0 37 2 74 2 111c0 6 -1 10 -3 15c-4 15 2 21 16 21c13 -1 26 -5 38 4c4 2 11 0 16 -5c13 -12 27 -23 30 -41
c1 -5 4 -8 9 -10c13 18 26 25 42 40c13 13 27 19 46 23c48 11 72 5 57 1zM52 422c19 -11 39 -21 40 -48c0 -2 1 -5 2 -7c0 -1 1 -2 2 -4c13 10 25 21 38 31c25 19 47 23 76 16c16 -4 32 -13 44 -28c-5 -10 -14 -11 -22 -7c-7 3 -11 3 -15 -2c-7 -8 -18 -3 -23 -14l-6 -5
c-29 -11 -49 -27 -63 -57c-5 -12 -3 -23 -11 -34c-6 -7 -8 -15 -7 -26c1 -18 2 -37 2 -55c1 -40 5 -79 6 -118c1 -17 0 -33 0 -50c0 -9 -14 -41 -19 -46c-13 16 -24 17 -39 2c-7 -7 -11 2 -16 1c-4 -3 0 -6 -1 -9h-4c-20 20 -29 44 -29 73c2 42 -2 84 -6 127
c-2 19 -1 37 1 56c4 25 4 50 3 75c0 11 2 22 2 33c1 20 0 39 -5 58c-2 3 -2 8 3 9c5 2 5 -4 8 -6c9 5 6 14 6 22c8 6 18 5 24 13c2 3 6 2 9 0zM371 377c-6 -34 -4 -67 1 -100c2 21 3 42 6 63c1 13 1 25 -7 37zM215 365c16 6 22 4 32 -12c-1 -1 -3 -2 -3 -1
c-16 6 -28 4 -40 -3c-7 -6 -15 -11 -26 -12c3 8 10 9 14 13l6 5c6 1 10 6 17 10z" />
    <glyph glyph-name="s_s.liga" unicode="ss" horiz-adv-x="591" 
d="M369 431c5 -1 11 -2 16 -1c7 0 35 -5 40 -6c3 -6 -24 -3 -22 -7c0 -1 0 -2 2 -2c10 -1 20 -1 29 -5c5 -2 7 4 1 9c-3 2 14 -4 16 -5c5 -3 11 -6 16 -10c23 -14 24 -38 -1 -51c-17 -8 -27 -23 -48 -26c-9 -1 -17 -10 -28 -16c32 -23 56 -46 81 -73c19 -20 34 -42 50 -63
c4 -5 7 -11 8 -17c5 -22 10 -32 5 -55c-4 -15 -5 -31 -10 -44c-16 -42 -76 -57 -86 -60c-34 -12 -69 -13 -102 0c-26 10 -47 29 -62 55c-4 8 -1 14 4 20c12 -4 21 -13 30 -20c6 2 2 8 6 11c13 -6 20 -18 33 -24c6 -2 11 -6 17 -7c11 -2 20 0 29 8c15 13 29 25 37 44
c2 6 4 13 3 20c-4 17 -7 22 -17 38c-11 17 -17 37 -32 52c-3 4 -6 8 -10 11c-22 12 -42 30 -58 51c-38 -27 -73 -50 -112 -80c8 -20 16 -38 19 -59c5 -31 0 -75 -25 -97c-2 -1 -4 -3 -5 -5c-7 -21 -25 -27 -43 -31c-26 -5 -49 -18 -75 -25c-34 -9 -65 -3 -94 17
c-4 3 -9 17 -9 22c-1 23 -6 53 8 74c8 12 16 23 28 32c16 13 33 25 52 33c8 4 24 9 33 17c-14 17 -21 38 -42 50c-8 4 -12 14 -18 22c-11 13 -16 25 -24 38c-18 28 -27 45 -19 83c4 22 19 42 37 49c20 8 24 19 54 29c33 11 12 4 44 4c12 4 24 3 41 -1c5 -1 26 -12 19 -14
c-22 -6 19 -18 4 -30c-19 8 -35 -2 -46 -2c-13 0 -28 -9 -37 -15s-22 -19 -22 -25c0 -18 8 -27 20 -41c11 -12 14 -17 18 -21c6 -6 7 -9 11 -13c15 -13 36 -36 51 -51c4 -4 7 -2 15 1c15 6 30 9 41 22c9 10 34 28 56 37c-9 11 -21 25 -25 37c-7 19 -9 35 -1 54
c9 22 16 33 32 41c31 16 43 26 67 21zM406 402c-14 -1 -26 -2 -35 -12c-4 -4 -9 -6 -13 -7c-9 -4 -18 -10 -16 -21c2 -10 7 -21 18 -26c5 -2 9 -4 16 -1c18 11 35 23 49 38c12 13 7 24 -9 27c-4 1 -8 2 -10 2zM452 397c0 -4 -1 -7 3 -9c2 -1 4 0 5 2c0 5 -3 6 -8 7zM22 355
c0 -11 -14 -21 2 -38c-2 15 9 25 -2 38zM360 276c-1 1 -4 1 -5 -1c-3 -4 0 -6 2 -8c10 -7 17 -16 25 -25c8 -8 18 -15 26 -23c3 -3 6 -5 10 -1c2 4 1 6 -1 9c-15 20 -37 33 -57 49zM109 124c-9 -7 -19 -13 -28 -18s-18 -10 -28 -13c-19 -6 -30 -20 -43 -32
c-9 -8 -12 -35 -15 -47c-1 -4 0 -7 3 -10c9 -9 20 -11 33 -5c5 3 10 2 15 1c3 -3 -3 -5 0 -9c6 2 14 0 17 10c2 4 7 5 11 7c11 6 22 11 34 16c18 8 18 8 15 41c-1 7 -1 14 0 21c1 15 -4 27 -14 38zM281 95c3 3 7 1 10 -2s7 -7 4 -14c-6 -1 -10 1 -12 4c-3 4 -7 7 -2 12z" />
    <glyph glyph-name="t_i.liga" unicode="ti" horiz-adv-x="460" 
d="M254 607c-33 17 -38 43 -15 75c10 14 25 22 43 25c12 1 16 -2 16 -13c-1 -9 3 -12 11 -19c21 -19 27 -37 5 -55c-10 -7 -17 -21 -33 -18c-7 7 -18 1 -27 5zM478 109c9 7 19 14 32 4c-7 -10 -15 -17 -24 -24c-14 -11 -22 -17 -32 -33c-5 -9 -9 -10 -18 -11
c-6 0 -13 -8 -18 -12c-6 -5 -13 -6 -18 -11c-4 -5 -7 -10 -11 -13c-5 -4 -12 -6 -18 -8l-19 -6c-4 -2 -9 -3 -14 -3c-3 0 -6 1 -9 1c-4 -2 -6 -6 -10 -7s-8 2 -12 5c-4 4 -9 8 -16 9c-7 2 -13 11 -22 4c-4 -3 -9 3 -13 6c-13 14 -16 31 -18 49c-23 -21 -32 -31 -44 -44
s-17 -11 -33 -17c-4 -1 -10 -4 -14 -7c-21 -17 -34 -20 -63 -18c-6 0 -11 5 -18 -1c-3 -3 -6 2 -8 5c-4 8 -7 16 -11 24c-2 5 -3 10 -10 7c-4 -2 -5 0 -7 3c-13 18 -22 37 -26 60c-4 29 -4 58 -4 87c1 49 -2 99 1 148c3 41 5 88 7 129c0 6 2 13 -2 21c-14 -3 -54 -6 -51 2
c10 1 28 7 40 8c-15 5 -36 -1 -48 -2c-21 0 -27 3 -27 21c21 2 55 10 77 12c7 0 6 1 6 8c1 11 1 23 0 34c-2 15 2 30 5 46c7 5 3 -21 10 -32c7 16 6 31 4 46c-1 13 2 22 14 29c24 -13 33 -37 40 -60c6 -20 9 -45 13 -67c21 2 40 2 50 3c8 1 22 3 54 3c17 0 65 9 81 9
c11 0 37 6 46 3c8 -3 37 4 45 4c12 0 51 -12 33 -20c-7 -3 13 -9 18 -14c-18 0 -48 -7 -37 -14c5 -3 -18 -4 -38 -6c-5 -1 -29 5 -84 1c-27 -2 -23 -2 -49 -2c-23 -1 -35 -1 -57 -4c-5 -1 -35 -5 -43 -4c-15 2 -16 -1 -15 -16c1 -37 7 -79 9 -115c2 -31 5 -62 3 -92
c-1 -37 6 -72 9 -108c1 -21 4 -42 6 -63c2 -15 12 -24 23 -32c3 -3 6 -3 10 -1l20 10c29 16 31 22 48 36c4 4 9 6 14 9c0 19 0 39 1 58c1 32 2 65 5 97c3 28 5 56 3 84c-2 20 5 40 0 61c-1 7 7 15 12 19c9 8 21 12 33 13c21 2 30 -9 35 -29c1 -3 1 -7 4 -9c11 8 14 7 14 -6
c1 -5 1 -10 -1 -15c-3 -10 -3 -20 -1 -30c5 -42 4 -84 5 -126c1 -26 4 -51 7 -77c1 -18 4 -36 5 -54c2 -20 -3 -35 16 -27c21 10 25 9 52 28c9 6 28 21 38 24c6 3 11 6 15 10zM99 36c3 -7 26 -14 13 -1c-11 11 -21 37 -25 37c-2 0 6 -28 6 -30c0 -4 5 -3 6 -6z" />
    <glyph glyph-name="t_i_t.liga" unicode="tit" horiz-adv-x="733" 
d="M264 607c-33 17 -38 43 -15 75c10 14 25 22 43 25c12 1 16 -2 16 -13c-1 -9 3 -12 11 -19c21 -19 27 -37 5 -55c-10 -7 -17 -21 -33 -18c-7 7 -18 1 -27 5zM714 67c9 5 0 -35 -26 -52c-13 -9 -15 -9 -31 -15c-4 -1 -10 -4 -14 -7c-21 -7 -51 -12 -80 -10
c-6 0 -11 5 -18 -1c-3 -3 -6 2 -8 5c-4 8 -7 6 -11 14c-2 5 -3 10 -10 7c-4 -2 -5 0 -7 3c-8 11 -15 44 -19 73c-10 -9 -14 -18 -27 -27c-12 -9 -15 -16 -24 -17c-6 -5 -16 -10 -20 -14l-20 -17c-5 -4 -12 -6 -18 -8l-19 -6c-4 -2 -9 -3 -14 -3c-3 0 -6 1 -9 1
c-4 -2 -6 -6 -10 -7s-8 2 -12 5c-4 4 -9 8 -16 9c-7 2 -13 11 -22 4c-4 -3 -9 3 -13 6c-13 14 -16 32 -18 49c-29 -17 -32 -31 -54 -44c-15 -9 -17 -11 -33 -17c-4 -1 -10 -4 -14 -7c-21 -17 -34 -20 -63 -18c-6 0 -11 5 -18 -1c-3 -3 -6 2 -8 5c-4 8 -7 16 -11 24
c-2 5 -3 10 -10 7c-4 -2 -5 0 -7 3c-13 18 -22 37 -26 60c-4 29 -4 58 -4 87c1 49 -2 99 1 148c3 41 5 88 7 129c0 6 2 13 -2 21c-14 -3 -54 -3 -51 2c10 1 28 7 40 8c-15 5 -36 -1 -48 -2c-21 0 -27 3 -27 21c21 2 55 10 77 12c7 0 6 1 6 8c1 11 1 23 0 34c-2 15 2 30 5 46
c7 -9 3 -21 10 -32c7 16 6 31 4 46c-1 13 2 22 14 29c24 -13 33 -37 40 -60c6 -20 9 -45 13 -67c21 2 39 0 50 3c2 1 29 7 64 3c17 -2 65 9 81 9c11 0 37 6 46 3c8 -3 147 8 156 8v4c1 11 5 22 4 33c-2 15 3 35 6 51l14 20c-1 13 16 -13 28 -6c24 -13 24 -14 31 -37
c6 -20 -1 -43 3 -65c21 2 25 0 36 3c7 1 45 6 23 0c0 -3 34 4 42 4c12 0 46 -8 28 -16c-7 -3 13 -6 18 -11c-14 -23 -45 -23 -67 -27c-7 -1 -19 1 -32 -1c-5 -1 -25 -5 -33 -4c-15 2 -16 -1 -15 -8c5 -36 7 -102 9 -138c2 -31 5 -62 3 -92c-1 -37 6 -72 9 -108
c1 -21 4 -38 6 -59c2 -15 12 -24 23 -32c3 -3 6 -1 10 -1c13 1 27 -4 40 2c29 16 19 17 42 28zM472 99c5 3 10 5 14 9l-3 18c-4 29 1 51 1 80c1 49 7 102 2 151c-4 41 -1 60 1 101c0 5 1 11 -1 18l-33 -3c-5 0 -131 1 -186 -3c-27 -2 -23 -2 -49 -2c-23 -1 -34 -6 -67 -4
c-5 0 -35 -5 -43 -4c-15 2 -16 -1 -15 -16c1 -37 7 -79 9 -115c2 -31 5 -62 3 -92c-1 -37 6 -72 9 -108c1 -21 4 -42 6 -63c2 -15 12 -24 23 -32c3 -3 6 -3 10 -1l20 10c29 16 35 25 58 36l14 8c0 20 0 39 1 59c1 32 2 65 5 97c3 28 5 56 3 84c-2 20 5 40 0 61
c-1 7 7 15 12 19c9 8 21 12 33 13c21 2 30 -9 35 -29c1 -3 1 -7 4 -9c11 8 14 7 14 -6c1 -5 1 -10 -1 -15c-3 -10 -3 -20 -1 -30c5 -42 4 -84 5 -126c1 -26 4 -51 7 -77c1 -18 4 -36 5 -54c2 -20 -3 -35 16 -27c21 10 24 9 51 28c9 6 28 21 38 24zM574 135c3 -1 4 22 4 25
c-1 3 -8 52 -12 52c-2 0 2 -48 2 -50c0 -4 3 -27 6 -27zM94 24c3 -1 4 1 4 4c-1 3 -12 32 -16 32c-2 0 6 -28 6 -30c0 -4 3 -6 6 -6z" />
    <glyph glyph-name="t_t.liga" unicode="tt" horiz-adv-x="544" 
d="M321 660c15 -2 23 -8 28 -23c11 -36 19 -59 24 -97c2 -18 3 -18 22 -14c8 1 16 2 24 2c27 1 56 4 90 -3c8 -2 18 -3 21 -16c-13 -2 -26 -7 -40 -5c-14 3 -21 2 -34 -7c-9 -6 -21 -8 -24 -8c-12 0 -23 -2 -34 -4c-15 -3 -19 -9 -18 -24c3 -34 -2 -117 -3 -151
c-1 -19 -3 -39 -2 -58c2 -25 -4 -51 -1 -76c1 -7 1 -13 2 -19c6 -29 8 -48 6 -78c-3 -25 11 -32 24 -51c5 -6 17 -5 23 -3c11 4 30 8 39 15c13 8 41 23 54 32c11 7 5 -34 -12 -43c-8 -3 -16 -8 -23 -13c-9 -6 -23 -13 -31 -20c-18 -16 -26 -16 -51 -16c-7 1 -14 2 -21 1
c-21 -2 -37 9 -53 20c-9 7 -19 14 -27 22c-11 10 -14 27 -17 44c-2 15 -3 31 -3 46c-1 32 -1 64 -2 96c0 6 1 12 -3 18c-1 1 -2 3 -2 5c-2 37 -14 105 -7 143c4 22 1 62 2 84c1 7 -2 11 -9 10c-7 0 -38 -3 -42 4c4 7 36 6 40 11c-8 7 -17 4 -26 2c-28 -7 -47 -12 -57 -12
c-14 0 -22 -8 -37 -7c-9 0 -13 -5 -12 -14c4 -40 2 -121 1 -160c-1 -58 5 -116 5 -174c1 -27 6 -55 9 -82c3 -20 3 -38 -14 -53c-6 -5 -12 -15 -16 -24c-20 8 -14 -11 -17 -20c-27 21 -28 50 -32 79c-4 27 -9 54 -13 81c-6 -15 -5 -30 -2 -45c5 -26 8 -52 6 -80
c-6 1 -11 6 -11 11c2 16 -5 30 -9 45c-7 29 -6 59 -6 89c1 16 -3 33 -2 50c0 46 -13 91 -11 138c1 19 3 70 6 89c2 15 2 42 1 54c-18 2 -33 -5 -49 -6c-22 -1 -23 -5 -44 4c-3 1 -13 22 -11 25c5 6 9 11 18 11c20 0 22 4 41 3c11 -1 20 0 31 4c15 4 15 4 16 18
c1 25 3 34 2 59c0 15 8 27 11 40c2 8 8 9 15 4c2 -2 5 -5 6 -7c4 -11 11 -25 19 -27c29 -8 32 -14 35 -36c1 -4 3 -17 5 -21c6 -12 3 -14 19 -13c32 3 39 3 56 3c23 0 29 5 50 4c3 0 23 3 26 4c3 7 1 21 0 27c-4 29 8 36 18 6c2 14 2 12 1 26c-1 8 0 15 6 22
c11 14 12 30 12 48c0 14 0 13 14 11zM501 498c-11 -7 -11 -7 -26 -2c10 5 17 4 26 2zM527 496c-7 -5 -11 -3 -15 -1c0 5 3 6 15 1zM361 125c-14 -26 -5 -52 1 -78c-2 26 3 52 -1 78z" />
    <glyph glyph-name="u_u.liga" unicode="uu" horiz-adv-x="843" 
d="M892 111c6 -10 -6 -14 -11 -20c-8 -9 -11 -16 -21 -22c-21 -14 -22 -20 -42 -33c-14 -12 -24 -22 -51 -32c-21 -7 -41 -15 -63 -8c-1 0 -2 1 -2 0c-14 -9 -20 2 -26 10c-7 8 -14 15 -18 26c-2 4 -4 9 -10 12c-7 -11 -17 -11 -31 -22c-5 -4 -9 -4 -12 -7
c-12 -14 -31 -26 -40 -31c-24 -11 -43 -5 -66 1c-4 1 -8 4 -11 3c-15 -5 -26 13 -36 21c-10 7 -12 20 -14 32l-2 8c-13 -9 -21 -6 -37 -24c-5 -3 -13 -11 -19 -11c-3 0 -6 0 -8 -3c-6 -10 -16 -13 -26 -17c-10 -5 -5 -1 -13 -9c-9 -9 -28 -7 -38 -7c-17 8 -28 9 -45 16
c-8 4 -15 9 -22 17c-8 10 -16 17 -19 46c0 1 -1 3 -2 5c-12 0 -16 -11 -22 -18c-11 -13 -22 -26 -34 -38c-16 -17 -37 -22 -61 -18c-23 4 -40 15 -56 29c-7 6 -10 14 -12 23c-12 46 -17 92 -12 139c0 9 -1 17 -4 25c-10 30 -4 61 -4 91c0 32 10 62 6 93c-1 11 0 23 12 23
c15 0 30 4 44 2c13 -1 23 -11 32 -21c28 -31 24 -68 21 -104c-1 -24 -3 -48 -2 -71c1 -22 -3 -44 -2 -66c1 -14 3 -29 2 -44c-1 -14 9 -25 19 -34c7 -7 29 -2 39 8c12 12 22 24 32 37c5 5 5 12 5 19c3 52 -2 104 -1 156c0 34 4 68 -1 103c0 5 1 9 8 9c9 0 16 3 24 6
c21 8 24 8 43 -6c7 2 9 13 18 9c7 -3 5 -12 5 -19c1 -18 -1 -36 2 -54c1 -10 3 -19 5 -29c3 -17 6 -33 1 -50c-3 -9 -1 -19 -1 -28c1 -39 -2 -77 -1 -116c1 -23 -1 -47 -1 -70s9 -37 27 -28c4 1 6 0 11 4c34 25 50 34 82 54l-1 3c9 7 3 16 1 25c-1 9 -1 18 -3 28
c-3 16 -3 34 -1 51c5 55 3 130 3 185c0 16 -6 26 -5 40c1 15 4 18 20 16c15 -2 29 -9 41 -24c2 3 2 5 3 7c11 10 18 10 25 -2c5 -7 3 -13 9 -18c4 -3 4 -7 4 -15c0 -14 -3 -20 1 -40c1 -4 -1 -13 -1 -16c4 -32 -4 -80 -1 -112c6 -54 -6 -122 30 -166c7 -7 13 -10 21 -7
c14 5 15 10 28 16c12 7 34 30 30 27c13 15 8 34 5 51c-4 26 -4 53 -3 80c1 18 1 36 1 55c-1 31 0 61 2 92c1 9 0 18 -1 27c-2 6 0 12 4 17c7 5 13 1 19 -3c4 -2 7 -5 12 -8c12 7 35 5 44 -7s20 -24 19 -42c-1 -23 0 -46 1 -68c3 -33 0 -66 -1 -99c-1 -23 2 -47 6 -69
c2 -17 14 -32 22 -49c2 -4 8 -4 13 -3c13 3 25 9 37 16c20 20 29 25 52 42c7 5 18 10 25 3zM635 76l-5 -5zM476 20c5 -11 15 -14 27 -10c-13 18 -38 23 -47 46c-4 -9 -2 -14 5 -20c5 -5 11 -10 15 -16zM88 17c13 -4 20 1 28 7c-13 6 -13 6 -28 -7z" />
    <glyph glyph-name="v_v.liga" unicode="vv" horiz-adv-x="616" 
d="M581 459c4 -1 6 -5 5 -9c-1 -7 -3 -13 -5 -20c-6 -20 -4 -42 -9 -62c-6 -25 -12 -49 -19 -73c-3 -11 -5 -22 -5 -35c0 -25 -9 -50 -15 -74c-2 -6 -3 -11 -4 -16c-6 -42 -16 -82 -29 -122c-2 -8 -3 -16 -5 -24c-2 -7 -2 -18 -15 -16c-4 0 -4 -5 -6 -7
c-5 -6 -44 -14 -50 -10c-7 5 -13 9 -16 17c-9 19 -15 39 -26 57c-2 3 -3 6 -4 10c-11 52 -33 100 -42 153c-5 27 -19 52 -26 78c-8 27 -14 53 -21 80c-2 10 0 20 -1 31c13 -3 25 -2 37 -1c13 0 24 -9 32 -18c13 -13 22 -28 24 -46c3 -27 11 -53 13 -81c0 -2 0 -5 2 -7
c10 -16 17 -34 25 -53c5 4 4 8 3 12c-12 53 -25 106 -37 158l-3 15c-1 5 0 9 6 10c6 2 9 0 11 -6c3 -7 6 -15 8 -23c7 -31 10 -64 18 -95c11 -43 28 -84 36 -128c2 -7 3 -13 2 -20c-3 -11 5 -21 13 -30c6 32 16 62 20 94c7 47 23 93 32 140c5 26 16 51 21 77
c3 16 17 25 20 41c1 4 6 4 10 3zM-32 434c27 7 34 7 62 -4c5 -2 8 -5 10 -10c4 -9 8 -17 11 -26c4 8 -1 16 3 25c15 -8 19 -23 24 -37c8 -24 14 -48 21 -73c10 -38 24 -75 30 -115c4 -27 10 -54 16 -81c6 -1 6 4 7 7c10 22 18 45 21 70c8 54 24 106 39 158c5 15 9 30 12 45
c2 7 10 23 13 29c4 8 12 10 20 7s2 -19 0 -25c-5 -25 -12 -50 -19 -75l-3 -12c-1 -17 -6 -32 -11 -48c-5 -17 -9 -35 -14 -52c-10 -31 -16 -64 -24 -96c-2 -9 -4 -19 -4 -29c0 -4 0 -9 -2 -13c-17 -25 -10 -56 -23 -82c-1 -1 -1 -3 -1 -4c-1 -6 6 -14 -3 -18
c-7 -4 -12 5 -18 7c-10 3 -19 7 -29 1c-7 -5 -22 5 -25 15c-4 14 -7 27 -13 40c-3 8 5 13 4 22c12 -11 14 -25 22 -35c-5 22 -10 44 -29 57c-16 11 -23 26 -26 44c-6 40 -16 78 -27 117c-12 43 -20 88 -31 131c-2 11 -4 20 -14 27c-8 6 -8 17 -6 26c0 4 3 6 7 7zM380 430
c5 1 9 0 10 -5c1 -3 -1 -5 -3 -6c-5 -1 -9 1 -10 6c-1 3 0 5 3 5z" />
    <glyph glyph-name="w_w.liga" unicode="ww" horiz-adv-x="908" 
d="M408 453c4 -1 7 -5 6 -10c-3 -10 -4 -20 -7 -29c-8 -27 -10 -54 -13 -82c-4 -37 -15 -72 -26 -107c-9 -31 -17 -62 -22 -94c-5 -28 -16 -54 -24 -81c-4 -16 -14 -30 -18 -47c-1 -7 -4 -8 -19 -16c-17 8 -31 20 -42 35c-6 -3 0 -7 -4 -10c-17 8 -30 22 -36 41
c-7 23 -8 47 -10 70c-3 36 -4 71 -6 107c0 4 1 9 -4 13c-6 -6 -9 -15 -11 -23c-13 -50 -33 -98 -41 -150c-3 -24 -14 -46 -16 -70c0 -5 -2 -9 -5 -12c-13 5 -13 5 -22 -6c-10 -14 -12 -13 -28 -6c-20 8 -29 22 -34 44c-6 23 -8 47 -11 70c-3 21 -3 42 -9 62
c-12 40 -17 82 -24 123c-6 37 -12 74 -20 110c-1 4 -4 8 -1 13c9 -4 4 -16 12 -21c3 9 -5 17 -3 27c13 -6 20 8 32 8c4 18 20 11 31 12c17 2 30 -11 32 -28c2 -14 4 -27 8 -40c4 -17 6 -34 7 -51c1 -27 8 -54 10 -81c2 -26 4 -52 10 -78l3 -20c8 8 9 18 12 26
c8 27 16 54 25 81c10 30 23 60 31 92c2 7 3 14 2 22c-2 8 -3 17 -4 26c-2 19 7 29 26 24c14 -3 29 -8 42 -15c4 -3 8 -6 11 -10c18 -23 26 -50 31 -79c9 -51 14 -104 15 -156c0 -4 -1 -8 4 -10c5 4 5 10 7 15c14 40 29 80 44 119c4 11 5 22 7 33c5 29 17 56 22 85
c2 10 3 20 6 30c1 6 -3 18 11 17c0 0 2 4 2 6c1 5 2 9 2 13c1 5 4 9 9 8zM465 423c11 -1 19 -4 24 -15c2 -5 5 -10 7 -15c15 13 25 10 32 -9c7 -17 9 -35 12 -53c7 -45 21 -88 26 -134c2 -21 6 -42 9 -63c1 -3 0 -6 3 -8c10 1 8 9 9 15c3 21 5 42 7 63c4 29 16 56 21 85
c4 24 15 46 19 70c1 9 10 17 19 14s18 0 24 3c14 8 25 4 36 -2c5 -3 9 -4 14 -4c10 -1 16 -7 18 -16c8 -30 17 -60 24 -91c5 -27 11 -53 18 -80c6 -23 7 -47 11 -70c1 -6 0 -11 6 -18c2 20 5 38 8 56l33 211c3 20 7 23 29 23c-3 -17 -5 -34 -8 -51
c-11 -62 -18 -124 -25 -186c-2 -15 -6 -31 -7 -45c-1 -19 -7 -37 -7 -55c0 -21 -7 -39 -16 -57c-4 -8 -12 -7 -15 -13c-6 6 -12 11 -20 10c-12 -2 -20 4 -27 14l-6 9c-8 10 -13 22 -22 32c-8 7 -12 17 -14 28s-6 23 -10 34c-5 12 -7 24 -9 36c-3 24 -6 47 -10 71
c-2 10 -1 20 0 31c0 10 -13 16 -14 27c-1 7 -3 13 -4 20c-1 6 0 13 -7 18c-7 -4 -5 -12 -5 -17c-3 -43 -16 -84 -26 -126c-4 -20 -9 -39 -12 -59c-5 -25 -12 -49 -18 -74c-3 -10 -4 -11 -18 -10c-4 -3 2 -6 1 -10c-3 -6 -7 -13 -13 -11c-7 3 -18 2 -21 13c-2 8 -2 18 -10 23
c-11 -7 -3 -18 -9 -26c-9 0 -12 7 -15 13c-17 36 -33 73 -42 113c-8 35 -9 70 -13 104c-6 47 -10 93 -15 140c-1 5 -2 10 -2 15c0 7 2 14 11 13c6 -1 11 0 10 8c0 6 4 6 9 6zM870 417c4 -2 2 -6 4 -8c3 -4 7 -9 0 -12s-14 -2 -19 4c-2 2 -2 6 2 7c5 2 10 5 13 9zM676 351
c0 0 -1 -2 -1 -3c0 -2 2 -16 5 -16c2 -1 0 12 0 14s-1 5 -4 5zM505 146c-1 0 -3 -1 -5 -2c5 -6 -5 -9 -4 -14c4 -16 11 -31 19 -46c7 20 -4 37 -3 56c0 3 -3 5 -7 6z" />
    <glyph glyph-name="x_x.liga" unicode="xx" horiz-adv-x="609" 
d="M316 455c1 5 12 5 15 -1c4 -6 6 -12 10 -20c5 5 9 14 17 11c11 -4 25 1 34 -10c4 -5 9 -9 13 -14c7 -8 10 -19 22 -24c6 -2 9 -13 12 -20l35 -75c16 22 36 47 53 68c9 11 19 20 28 30c5 5 11 8 20 5c-8 -11 17 -7 -16 -40c-27 -27 -43 -60 -63 -89c-5 -7 -6 -13 -3 -21
c6 -12 10 -26 15 -38c7 -19 15 -38 22 -57c8 -24 22 -47 32 -71c6 -15 11 -31 17 -47c-17 -6 -17 -6 -14 -20c1 -6 -2 -12 -2 -20c-12 7 -23 13 -35 19c-6 3 -12 10 -20 4c-5 -3 -8 1 -12 4c-16 11 -27 26 -34 43c-9 21 -18 42 -26 63c-2 5 -5 11 -10 17
c-14 -12 -23 -28 -35 -41c-26 -27 -45 -59 -61 -93c-5 -10 -9 -20 -24 -13c-6 3 -9 -5 -12 -9c-3 -5 -7 -9 -14 -6c-4 2 -9 19 -6 22l9 11c2 2 6 4 6 7c2 18 16 28 26 40l13 16c23 36 46 71 70 106c5 8 3 13 1 21c-15 46 -39 89 -61 133c-14 27 -19 56 -28 85
c-3 9 6 15 6 24zM281 416c6 -6 7 -11 3 -18c-25 -46 -51 -90 -86 -129c-11 -14 -21 -29 -32 -44c-4 -5 -5 -11 0 -17c2 -4 5 -9 5 -14c0 -19 6 -36 15 -53c12 -23 14 -49 23 -73c3 -9 5 -17 11 -25c5 -7 8 -15 12 -23c4 -10 -6 -24 -14 -24c0 -9 -10 -12 -18 -9
c-11 0 -37 35 -20 -6c-4 -3 -7 1 -10 2c-24 8 -38 25 -49 47c-13 28 -30 55 -41 84c-6 1 -8 -3 -11 -6c-25 -29 -52 -56 -72 -88c-9 -14 -23 -12 -37 -15c11 17 16 37 27 54c20 31 45 57 67 85c6 7 9 13 5 24c-20 44 -37 90 -46 138c-4 23 -12 46 -17 69c-4 23 7 38 30 35
c31 -4 56 -20 72 -46c11 -18 24 -34 31 -55l15 -40l4 -1c34 58 87 99 133 148zM385 290c2 -6 9 -23 9 -26s6 -6 8 -11l5 -17c1 5 4 10 4 17s-3 13 -6 15c-6 5 -16 26 -20 22z" />
    <glyph glyph-name="y_y.liga" unicode="yy" horiz-adv-x="603" 
d="M-2 411c9 -4 18 -10 28 -8c4 1 6 -2 6 -6c1 -5 4 -8 9 -10c15 14 30 10 39 -8c24 -51 41 -103 52 -158c3 -19 10 -37 16 -55c5 -13 5 -27 14 -42c2 10 4 18 5 25c8 49 16 96 33 143c11 28 17 57 23 86c2 8 2 15 7 20c6 0 9 -2 10 -6c1 -14 9 -26 9 -39
c2 -44 -5 -86 -20 -127c-13 -37 -20 -75 -25 -113c-2 -22 -9 -43 -16 -63c-4 -11 -6 -21 -7 -32c-2 -20 -8 -40 -14 -59c-6 -21 -9 -43 -14 -64c-1 -5 -1 -10 -4 -14c-10 -14 -13 -30 -16 -46c-4 -19 -10 -38 -24 -53c-3 -4 -3 -9 -6 -14c-2 -6 -7 -10 -14 -10s-6 7 -9 12
c-5 11 -5 21 -1 31c8 24 10 49 15 73c8 42 20 83 31 124c3 9 4 18 -8 24c-2 -7 -6 -14 -14 -17c-12 13 -22 28 -28 45c-22 61 -48 121 -61 185c-5 22 -16 43 -23 65c-8 28 -19 55 -21 84c2 3 6 -1 8 1c0 4 -2 8 -2 12c0 15 9 20 22 14zM318 401c9 -1 19 -2 29 -1
c3 0 7 -1 10 -4c16 -22 32 -42 39 -69c5 -26 16 -50 23 -75c8 -26 21 -77 26 -104c1 -7 2 -14 5 -21c7 0 7 -50 7 -47c11 55 28 164 45 217c4 13 8 26 7 40c0 2 0 5 2 7c10 8 10 18 15 31c8 -13 18 -23 17 -39c-6 -67 -20 -132 -32 -198c-5 -31 -10 -61 -14 -92
c-2 -12 -6 -25 -10 -36c-8 -22 -7 -46 -18 -67c-5 -9 -4 -21 -6 -32c-5 -27 -14 -53 -16 -81c0 -5 -1 -11 -2 -16s-2 -9 -9 -8c-5 1 -5 -5 -9 -8c-6 -5 -12 -11 -23 -6c-8 3 -11 6 -12 14c0 19 3 37 5 56c3 22 14 43 16 65c1 15 6 22 2 37c-2 5 5 12 -3 21
c-1 1 -7 13 -10 18c-11 22 -24 36 -28 56c-9 44 -31 109 -50 148c-15 31 -25 63 -35 95c-6 20 -2 40 0 60c-14 26 12 22 30 20c3 6 -5 12 -1 19z" />
    <glyph glyph-name="z_z.liga" unicode="zz" horiz-adv-x="657" 
d="M549 424c18 5 35 -4 52 -7c5 -1 7 -7 6 -12c-1 -8 -3 -15 -6 -22c-29 -52 -51 -108 -78 -161c-13 -25 -30 -48 -46 -71c-10 -15 -19 -29 -26 -45s-14 -32 -25 -48c9 2 17 4 26 5c28 3 56 1 82 -8c10 -4 21 -5 32 -5c16 -2 28 -10 35 -26c-23 -6 -47 -6 -70 -5
c-13 0 -26 1 -39 -3c-6 -2 -13 -2 -19 -1c-23 3 -46 0 -69 1c-9 0 -15 -3 -19 -12c-6 -14 -14 -27 -30 -31c-8 15 -20 30 -16 50c-6 6 -8 -2 -13 -1c-11 8 -13 20 -7 33c15 34 26 70 47 101c3 3 4 7 6 10c22 48 50 93 76 140c4 6 8 13 10 20c5 13 17 20 24 32c2 5 6 8 6 15
c-8 5 -17 5 -25 2c-27 -7 -54 -3 -82 -3h-2c-21 5 -43 11 -65 7c-4 13 4 20 7 30c0 2 3 2 6 2c19 1 38 2 57 1c35 -1 69 3 103 6c21 2 41 2 62 6zM208 409c14 2 27 -4 41 -3c7 0 3 -7 7 -9c19 -11 10 -23 2 -36c0 -2 -2 -3 -3 -5c-9 -18 -22 -34 -25 -57
c-3 -22 -15 -43 -22 -65c-11 -32 -23 -62 -40 -90c-11 -18 -15 -39 -22 -58c-5 -14 -7 -29 -21 -40c25 -1 49 2 74 5c28 4 57 2 85 -10c-6 -10 -21 -11 -20 -24l-3 -2c-19 -6 -38 -12 -56 -10c-27 3 -54 0 -80 1c-45 0 -86 -19 -129 -21c-18 -1 -29 7 -36 28c8 6 18 2 28 5
c1 7 -1 15 2 22c2 9 -11 6 -11 16c61 101 122 207 164 321c-4 3 -8 2 -13 1c-26 -6 -53 -7 -81 -4c-5 1 -10 2 -15 0c-7 -3 -15 -2 -19 1c-15 11 -33 11 -54 20c19 6 34 11 50 11c24 -1 49 -1 73 -1c31 0 61 0 92 1c11 0 21 1 32 3zM543 396c-7 -1 -16 1 -19 -5
c-13 -19 -22 -41 -30 -63c21 19 33 45 49 68zM164 377c1 -6 4 -9 10 -7c3 1 4 5 3 6c-4 4 -8 4 -13 1zM124 99l-4 1c-10 -19 -19 -38 -29 -56c4 -3 7 -3 8 -2c10 19 21 36 25 57z" />
    <glyph glyph-name=".notdef" horiz-adv-x="500" 
d="M0 0v700h500v-700h-500zM250 395l170 255h-340zM280 350l170 -255v510zM80 50h340l-170 255zM50 605v-510l170 255z" />
    <glyph glyph-name="A" unicode="A" 
d="M145 713c11 -5 22 -3 32 -1c6 2 15 -25 17 -34c0 25 4 43 18 5c7 -18 16 -36 21 -55c5 -22 14 -43 17 -65c2 -17 4 -12 12 -27c14 -25 13 -54 20 -81c12 -45 28 -88 45 -131c13 -32 18 -67 25 -102c2 -9 0 -19 2 -29c10 -37 22 -74 37 -110c9 -21 17 -45 15 -71
c-1 -12 -2 -25 -19 -27c0 -1 2 -10 -9 -11c-5 5 -12 6 -17 16c-2 4 -9 2 -10 7c-4 11 -18 14 -20 5c-4 -18 -23 -7 -35 -10c-8 -3 -13 0 -15 8c-11 33 -22 65 -30 97c-7 27 -21 52 -26 80c-2 10 -9 13 -18 13c-39 -2 -69 1 -109 -4c-9 -1 -26 3 -32 -4c-6 -6 -5 -17 -8 -26
c-4 -19 -10 -36 -12 -55l-8 -69c-1 -8 -2 -17 -4 -25c-2 -12 -7 -15 -22 -11c-4 1 -11 23 -15 7c-2 -9 -10 16 -9 26c5 45 12 88 24 131l3 15c2 14 2 13 -11 17c-7 2 -15 3 -19 11c4 9 13 7 20 8c23 6 20 1 23 24c5 34 18 77 22 111c6 50 14 89 26 138c9 37 12 51 17 88
c5 30 10 60 14 89c1 7 2 15 -1 22c-2 7 -3 17 7 21s20 16 32 9zM133 555c-5 -4 -7 -8 -6 -11c1 -21 -3 -42 -9 -62c-7 -25 -4 -52 -13 -77c-8 -25 -13 -50 -16 -77c-4 -34 -10 -68 -16 -102c33 2 69 3 101 5c6 0 12 2 18 4c15 3 16 5 11 19c-9 23 -12 48 -19 72
c-6 20 -7 42 -14 63c-9 25 -14 52 -17 78c-3 29 -9 58 -20 88zM272 431c-8 -8 10 -40 12 -46c2 7 -7 43 -12 46z" />
    <glyph glyph-name="Aacute" unicode="&#xc1;" 
d="M248 886c11 -3 22 2 32 -5c11 -6 16 -16 21 -27c2 -7 -4 -10 -8 -12c-9 -6 -18 -14 -25 -21c-9 -10 -17 -19 -31 -22c-7 -4 -12 -9 -18 -14c-13 -12 -27 -19 -36 -34c-4 -1 -10 -2 -15 -5c-1 5 5 11 0 13c-4 3 -7 -3 -12 -5c-3 0 -3 -3 -4 -4c-2 -4 -5 -5 -8 -5
c-4 2 -2 4 -2 6c0 3 -3 3 -5 3c-4 4 -4 6 -4 13c4 14 12 25 23 35c2 1 5 3 5 5c2 13 11 20 19 28c10 13 22 22 32 35c6 7 15 12 26 13c3 -2 6 0 8 1c0 1 1 2 2 2zM145 713c11 -5 22 -3 32 -1c6 2 15 -25 17 -34c0 25 4 43 18 5c7 -18 16 -36 21 -55c5 -22 14 -43 17 -65
c2 -17 4 -12 12 -27c14 -25 13 -54 20 -81c12 -45 28 -88 45 -131c13 -32 18 -67 25 -102c2 -9 0 -19 2 -29c10 -37 22 -74 37 -110c9 -21 17 -45 15 -71c-1 -12 -2 -25 -19 -27c0 -1 2 -10 -9 -11c-5 5 -12 6 -17 16c-2 4 -9 2 -10 7c-4 11 -18 14 -20 5
c-4 -18 -23 -7 -35 -10c-8 -3 -13 0 -15 8c-11 33 -22 65 -30 97c-7 27 -21 52 -26 80c-2 10 -9 13 -18 13c-39 -2 -69 1 -109 -4c-9 -1 -26 3 -32 -4c-6 -6 -5 -17 -8 -26c-4 -19 -10 -36 -12 -55l-8 -69c-1 -8 -2 -17 -4 -25c-2 -12 -7 -15 -22 -11c-4 1 -11 23 -15 7
c-2 -9 -10 16 -9 26c5 45 12 88 24 131l3 15c2 14 2 13 -11 17c-7 2 -15 3 -19 11c4 9 13 7 20 8c23 6 20 1 23 24c5 34 18 77 22 111c6 50 14 89 26 138c9 37 12 51 17 88c5 30 10 60 14 89c1 7 2 15 -1 22c-2 7 -3 17 7 21s20 16 32 9zM133 555c-5 -4 -7 -8 -6 -11
c1 -21 -3 -42 -9 -62c-7 -25 -4 -52 -13 -77c-8 -25 -13 -50 -16 -77c-4 -34 -10 -68 -16 -102c33 2 69 3 101 5c6 0 12 2 18 4c15 3 16 5 11 19c-9 23 -12 48 -19 72c-6 20 -7 42 -14 63c-9 25 -14 52 -17 78c-3 29 -9 58 -20 88zM272 431c-8 -8 10 -40 12 -46
c2 7 -7 43 -12 46z" />
    <glyph glyph-name="Abreve" unicode="&#x102;" 
d="M262 874c2 -1 2 -3 2 -5c-2 -7 -1 -7 6 -12c3 -2 0 -6 -2 -8c-4 -3 -6 -7 -7 -13c6 3 8 1 10 7c1 2 5 6 9 6c3 -2 11 5 9 -2c-2 -10 -12 -23 -19 -31l-16 -17c3 1 6 3 9 5c1 1 3 1 4 0c1 -2 1 -4 -1 -5s-3 -2 -5 -4c-14 -9 -25 -24 -42 -30c-11 -4 -22 -9 -34 -10
c-13 -1 -25 1 -38 0c-7 0 -12 5 -18 7c-22 9 -41 21 -56 38c-10 13 -19 28 -26 43c-4 5 -8 10 -5 17c2 8 10 13 18 10c7 -2 13 -1 19 -7c1 -1 3 0 3 0c5 5 10 6 14 -1c2 -4 2 2 4 2c1 -9 10 -13 15 -19s10 -12 18 -15c16 -10 33 -17 53 -11c2 2 6 2 9 3c5 1 9 2 11 8
c2 3 7 6 12 7c8 2 12 12 18 13c8 4 7 15 16 15c3 0 4 4 5 7c1 2 2 3 5 2zM145 713c11 -5 22 -3 32 -1c6 2 15 -25 17 -34c0 25 4 43 18 5c7 -18 16 -36 21 -55c5 -22 14 -43 17 -65c2 -17 4 -12 12 -27c14 -25 13 -54 20 -81c12 -45 28 -88 45 -131c13 -32 18 -67 25 -102
c2 -9 0 -19 2 -29c10 -37 22 -74 37 -110c9 -21 17 -45 15 -71c-1 -12 -2 -25 -19 -27c0 -1 2 -10 -9 -11c-5 5 -12 6 -17 16c-2 4 -9 2 -10 7c-4 11 -18 14 -20 5c-4 -18 -23 -7 -35 -10c-8 -3 -13 0 -15 8c-11 33 -22 65 -30 97c-7 27 -21 52 -26 80c-2 10 -9 13 -18 13
c-39 -2 -69 1 -109 -4c-9 -1 -26 3 -32 -4c-6 -6 -5 -17 -8 -26c-4 -19 -10 -36 -12 -55l-8 -69c-1 -8 -2 -17 -4 -25c-2 -12 -7 -15 -22 -11c-4 1 -11 23 -15 7c-2 -9 -10 16 -9 26c5 45 12 88 24 131l3 15c2 14 2 13 -11 17c-7 2 -15 3 -19 11c4 9 13 7 20 8
c23 6 20 1 23 24c5 34 18 77 22 111c6 50 14 89 26 138c9 37 12 51 17 88c5 30 10 60 14 89c1 7 2 15 -1 22c-2 7 -3 17 7 21s20 16 32 9zM133 555c-5 -4 -7 -8 -6 -11c1 -21 -3 -42 -9 -62c-7 -25 -4 -52 -13 -77c-8 -25 -13 -50 -16 -77c-4 -34 -10 -68 -16 -102
c33 2 69 3 101 5c6 0 12 2 18 4c15 3 16 5 11 19c-9 23 -12 48 -19 72c-6 20 -7 42 -14 63c-9 25 -14 52 -17 78c-3 29 -9 58 -20 88zM272 431c-8 -8 10 -40 12 -46c2 7 -7 43 -12 46z" />
    <glyph glyph-name="Acircumflex" unicode="&#xc2;" 
d="M171 893c10 -2 16 -9 24 -16c24 -19 38 -45 59 -68c7 -7 16 -14 21 -25c4 -7 7 -17 8 -26c0 -4 -1 -7 -3 -8c-4 -2 -5 2 -7 4c0 1 -1 2 -2 3c-2 -3 3 -5 -1 -7c-3 -2 -5 1 -7 2c-10 3 -17 11 -23 19c-2 -6 5 -9 5 -15c0 -2 2 -4 2 -5c1 -2 0 -4 -2 -5c-1 0 -2 0 -3 1
c-7 14 -23 18 -33 26c-18 13 -36 28 -50 46l-4 3c-12 -16 -25 -29 -42 -38c-5 -4 -8 -8 -12 -13c-9 -10 -22 -17 -34 -24c-10 -6 -10 -6 -12 5c-1 3 0 7 -5 7c-1 0 -2 1 -2 2c3 7 -2 14 -1 22c1 7 7 12 11 17c11 13 21 27 30 41c8 9 15 19 24 27c5 3 5 9 9 12
c5 6 9 -3 14 -1c7 4 14 4 21 3c5 0 6 1 6 5c0 9 1 9 9 6zM145 713c11 -5 22 -3 32 -1c6 2 15 -25 17 -34c0 25 4 43 18 5c7 -18 16 -36 21 -55c5 -22 14 -43 17 -65c2 -17 4 -12 12 -27c14 -25 13 -54 20 -81c12 -45 28 -88 45 -131c13 -32 18 -67 25 -102c2 -9 0 -19 2 -29
c10 -37 22 -74 37 -110c9 -21 17 -45 15 -71c-1 -12 -2 -25 -19 -27c0 -1 2 -10 -9 -11c-5 5 -12 6 -17 16c-2 4 -9 2 -10 7c-4 11 -18 14 -20 5c-4 -18 -23 -7 -35 -10c-8 -3 -13 0 -15 8c-11 33 -22 65 -30 97c-7 27 -21 52 -26 80c-2 10 -9 13 -18 13
c-39 -2 -69 1 -109 -4c-9 -1 -26 3 -32 -4c-6 -6 -5 -17 -8 -26c-4 -19 -10 -36 -12 -55l-8 -69c-1 -8 -2 -17 -4 -25c-2 -12 -7 -15 -22 -11c-4 1 -11 23 -15 7c-2 -9 -10 16 -9 26c5 45 12 88 24 131l3 15c2 14 2 13 -11 17c-7 2 -15 3 -19 11c4 9 13 7 20 8
c23 6 20 1 23 24c5 34 18 77 22 111c6 50 14 89 26 138c9 37 12 51 17 88c5 30 10 60 14 89c1 7 2 15 -1 22c-2 7 -3 17 7 21s20 16 32 9zM133 555c-5 -4 -7 -8 -6 -11c1 -21 -3 -42 -9 -62c-7 -25 -4 -52 -13 -77c-8 -25 -13 -50 -16 -77c-4 -34 -10 -68 -16 -102
c33 2 69 3 101 5c6 0 12 2 18 4c15 3 16 5 11 19c-9 23 -12 48 -19 72c-6 20 -7 42 -14 63c-9 25 -14 52 -17 78c-3 29 -9 58 -20 88zM272 431c-8 -8 10 -40 12 -46c2 7 -7 43 -12 46z" />
    <glyph glyph-name="Adieresis" unicode="&#xc4;" 
d="M95 848c6 4 10 0 14 -1c8 -3 16 -8 16 -18c0 -3 3 -5 6 -7c11 -7 16 -28 7 -37c-1 -2 -3 -3 -3 -6c2 -3 4 -2 6 -1c6 1 10 -6 7 -10c-5 -8 -10 -15 -20 -13c-6 1 -12 -4 -19 -3h-2c-12 -11 -21 2 -31 5c-2 1 -6 4 -9 5c-4 1 -7 3 -7 6c-4 12 -12 23 -5 36c3 5 0 8 3 13
s5 10 11 12c10 3 18 11 26 19zM221 841c12 -10 26 -4 37 -9c9 -3 19 -11 18 -25c-1 -4 -1 -10 2 -15c1 -2 0 -4 -2 -5c-5 -6 -6 -15 -12 -20c-9 -11 -21 -18 -36 -14c-2 0 -3 1 -5 0c-9 -1 -17 2 -22 11c-1 2 -1 4 -4 4c-11 4 -13 15 -12 23c1 16 3 31 15 41c6 5 12 7 17 9
c1 0 4 1 4 0zM145 713c11 -5 22 -3 32 -1c6 2 15 -25 17 -34c0 25 4 43 18 5c7 -18 16 -36 21 -55c5 -22 14 -43 17 -65c2 -17 4 -12 12 -27c14 -25 13 -54 20 -81c12 -45 28 -88 45 -131c13 -32 18 -67 25 -102c2 -9 0 -19 2 -29c10 -37 22 -74 37 -110
c9 -21 17 -45 15 -71c-1 -12 -2 -25 -19 -27c0 -1 2 -10 -9 -11c-5 5 -12 6 -17 16c-2 4 -9 2 -10 7c-4 11 -18 14 -20 5c-4 -18 -23 -7 -35 -10c-8 -3 -13 0 -15 8c-11 33 -22 65 -30 97c-7 27 -21 52 -26 80c-2 10 -9 13 -18 13c-39 -2 -69 1 -109 -4c-9 -1 -26 3 -32 -4
c-6 -6 -5 -17 -8 -26c-4 -19 -10 -36 -12 -55l-8 -69c-1 -8 -2 -17 -4 -25c-2 -12 -7 -15 -22 -11c-4 1 -11 23 -15 7c-2 -9 -10 16 -9 26c5 45 12 88 24 131l3 15c2 14 2 13 -11 17c-7 2 -15 3 -19 11c4 9 13 7 20 8c23 6 20 1 23 24c5 34 18 77 22 111c6 50 14 89 26 138
c9 37 12 51 17 88c5 30 10 60 14 89c1 7 2 15 -1 22c-2 7 -3 17 7 21s20 16 32 9zM133 555c-5 -4 -7 -8 -6 -11c1 -21 -3 -42 -9 -62c-7 -25 -4 -52 -13 -77c-8 -25 -13 -50 -16 -77c-4 -34 -10 -68 -16 -102c33 2 69 3 101 5c6 0 12 2 18 4c15 3 16 5 11 19
c-9 23 -12 48 -19 72c-6 20 -7 42 -14 63c-9 25 -14 52 -17 78c-3 29 -9 58 -20 88zM272 431c-8 -8 10 -40 12 -46c2 7 -7 43 -12 46z" />
    <glyph glyph-name="Agrave" unicode="&#xc0;" 
d="M55 896c4 1 8 1 10 -2c5 -9 9 -7 15 -3c9 7 24 8 32 1c15 -12 27 -21 34 -39c10 -16 29 -23 39 -38c2 -3 4 -6 3 -10c-2 -2 -1 -5 2 -8c5 -1 8 -7 14 -7c5 -3 9 -12 11 -17c-7 -1 -14 -4 -17 -2c-5 -1 -7 5 -6 0c0 -4 0 -11 -8 -8c-4 0 -5 -2 -5 -5c0 -7 -6 -5 -8 -2
c-5 7 -13 7 -21 11c-17 10 -35 21 -51 33c-10 7 -13 18 -24 24c-7 4 -15 6 -21 12c-8 10 -18 18 -12 32c0 3 -1 5 -2 8c8 0 11 5 13 12c-1 3 -1 6 2 8zM145 713c11 -5 22 -3 32 -1c6 2 15 -25 17 -34c0 25 4 43 18 5c7 -18 16 -36 21 -55c5 -22 14 -43 17 -65
c2 -17 4 -12 12 -27c14 -25 13 -54 20 -81c12 -45 28 -88 45 -131c13 -32 18 -67 25 -102c2 -9 0 -19 2 -29c10 -37 22 -74 37 -110c9 -21 17 -45 15 -71c-1 -12 -2 -25 -19 -27c0 -1 2 -10 -9 -11c-5 5 -12 6 -17 16c-2 4 -9 2 -10 7c-4 11 -18 14 -20 5
c-4 -18 -23 -7 -35 -10c-8 -3 -13 0 -15 8c-11 33 -22 65 -30 97c-7 27 -21 52 -26 80c-2 10 -9 13 -18 13c-39 -2 -69 1 -109 -4c-9 -1 -26 3 -32 -4c-6 -6 -5 -17 -8 -26c-4 -19 -10 -36 -12 -55l-8 -69c-1 -8 -2 -17 -4 -25c-2 -12 -7 -15 -22 -11c-4 1 -11 23 -15 7
c-2 -9 -10 16 -9 26c5 45 12 88 24 131l3 15c2 14 2 13 -11 17c-7 2 -15 3 -19 11c4 9 13 7 20 8c23 6 20 1 23 24c5 34 18 77 22 111c6 50 14 89 26 138c9 37 12 51 17 88c5 30 10 60 14 89c1 7 2 15 -1 22c-2 7 -3 17 7 21s20 16 32 9zM133 555c-5 -4 -7 -8 -6 -11
c1 -21 -3 -42 -9 -62c-7 -25 -4 -52 -13 -77c-8 -25 -13 -50 -16 -77c-4 -34 -10 -68 -16 -102c33 2 69 3 101 5c6 0 12 2 18 4c15 3 16 5 11 19c-9 23 -12 48 -19 72c-6 20 -7 42 -14 63c-9 25 -14 52 -17 78c-3 29 -9 58 -20 88zM272 431c-8 -8 10 -40 12 -46
c2 7 -7 43 -12 46z" />
    <glyph glyph-name="Amacron" unicode="&#x100;" 
d="M195 824c20 1 34 0 47 -4c4 -1 7 -1 10 0c4 1 8 2 9 -3c1 -4 -2 -8 -7 -8c-2 0 -4 1 -7 -1c7 -2 12 -7 18 -8c7 0 12 -4 16 -7c5 -3 3 -8 0 -9c-4 -1 -5 -2 -2 -6c2 -4 1 -6 -3 -6c-3 -2 -9 -2 -14 -3c-26 -3 -50 -5 -81 -7h-25c-14 1 -28 0 -42 0c-6 0 -11 0 -17 -1
c-17 -4 -28 2 -41 16c-15 16 -8 19 7 32c-3 3 -6 2 -8 2c-2 -1 -3 -1 -4 1c-2 1 1 2 2 3c5 3 10 6 15 7c16 3 31 3 47 2c27 -3 54 -3 80 0zM145 713c11 -5 22 -3 32 -1c6 2 15 -25 17 -34c0 25 4 43 18 5c7 -18 16 -36 21 -55c5 -22 14 -43 17 -65c2 -17 4 -12 12 -27
c14 -25 13 -54 20 -81c12 -45 28 -88 45 -131c13 -32 18 -67 25 -102c2 -9 0 -19 2 -29c10 -37 22 -74 37 -110c9 -21 17 -45 15 -71c-1 -12 -2 -25 -19 -27c0 -1 2 -10 -9 -11c-5 5 -12 6 -17 16c-2 4 -9 2 -10 7c-4 11 -18 14 -20 5c-4 -18 -23 -7 -35 -10
c-8 -3 -13 0 -15 8c-11 33 -22 65 -30 97c-7 27 -21 52 -26 80c-2 10 -9 13 -18 13c-39 -2 -69 1 -109 -4c-9 -1 -26 3 -32 -4c-6 -6 -5 -17 -8 -26c-4 -19 -10 -36 -12 -55l-8 -69c-1 -8 -2 -17 -4 -25c-2 -12 -7 -15 -22 -11c-4 1 -11 23 -15 7c-2 -9 -10 16 -9 26
c5 45 12 88 24 131l3 15c2 14 2 13 -11 17c-7 2 -15 3 -19 11c4 9 13 7 20 8c23 6 20 1 23 24c5 34 18 77 22 111c6 50 14 89 26 138c9 37 12 51 17 88c5 30 10 60 14 89c1 7 2 15 -1 22c-2 7 -3 17 7 21s20 16 32 9zM133 555c-5 -4 -7 -8 -6 -11c1 -21 -3 -42 -9 -62
c-7 -25 -4 -52 -13 -77c-8 -25 -13 -50 -16 -77c-4 -34 -10 -68 -16 -102c33 2 69 3 101 5c6 0 12 2 18 4c15 3 16 5 11 19c-9 23 -12 48 -19 72c-6 20 -7 42 -14 63c-9 25 -14 52 -17 78c-3 29 -9 58 -20 88zM272 431c-8 -8 10 -40 12 -46c2 7 -7 43 -12 46z" />
    <glyph glyph-name="Aogonek" unicode="&#x104;" 
d="M406 12c-1 -12 -2 -25 -19 -27c0 -1 2 -10 -9 -11c-5 5 -12 6 -17 16l-3 3c-6 -5 -9 -8 -13 -12c-14 -14 -21 -26 -29 -40c-9 -14 -12 -29 -11 -44c0 -5 2 -6 4 -8c7 -15 18 -12 31 -12s22 1 31 5s25 9 25 9c6 0 7 -6 2 -12c-3 -6 -5 -14 -14 -15c4 -7 7 0 12 -1
c2 -1 3 -2 3 -5c3 -1 4 2 6 2c0 0 1 -5 -1 -6c-14 -12 -20 -23 -38 -31c-10 -6 -16 -7 -26 -9c-14 -3 -21 -4 -27 -4c-2 0 -19 0 -20 1l-20 8h-2c-15 0 -19 5 -26 11c-16 16 -24 35 -26 58c-1 7 -1 13 3 21c1 1 1 4 1 7c1 9 5 14 11 20c7 7 10 18 16 26l38 29
c-3 1 -6 4 -7 9c-11 33 -22 65 -30 97c-7 27 -21 52 -26 80c-2 10 -9 13 -18 13c-39 -2 -69 1 -109 -4c-9 -1 -26 3 -32 -4c-6 -6 -5 -17 -8 -26c-4 -19 -10 -36 -12 -55l-8 -69c-1 -8 -2 -17 -4 -25c-2 -12 -7 -15 -22 -11c-4 1 -11 23 -15 7c-2 -9 -10 16 -9 26
c5 45 12 88 24 131l3 15c2 14 2 13 -11 17c-7 2 -15 3 -19 11c4 9 13 7 20 8c23 6 20 1 23 24c5 34 18 77 22 111c6 50 14 89 26 138c9 37 12 51 17 88c5 30 10 60 14 89c1 7 2 15 -1 22c-2 7 -3 17 7 21s20 16 32 9c11 -5 22 -3 32 -1c6 2 15 -25 17 -34c0 25 4 43 18 5
c7 -18 16 -36 21 -55c5 -22 14 -43 17 -65c2 -17 4 -12 12 -27c14 -25 13 -54 20 -81c12 -45 28 -88 45 -131c13 -32 18 -67 25 -102c2 -9 0 -19 2 -29c10 -37 22 -74 37 -110c9 -21 17 -45 15 -71zM192 235c15 3 16 5 11 19c-9 23 -12 48 -19 72c-6 20 -7 42 -14 63
c-9 25 -14 52 -17 78c-3 29 -9 58 -20 88c-5 -4 -7 -8 -6 -11c1 -21 -3 -42 -9 -62c-7 -25 -4 -52 -13 -77c-8 -25 -13 -50 -16 -77c-4 -34 -10 -68 -16 -102c33 2 69 3 101 5c6 0 12 2 18 4zM284 385c2 7 -7 43 -12 46c-8 -8 10 -40 12 -46z" />
    <glyph glyph-name="Aring" unicode="&#xc5;" 
d="M150 882c12 7 25 3 37 -2c1 -1 3 -2 4 -2c19 4 26 -12 33 -24c8 -11 14 -25 11 -39c-2 -14 -6 -28 -16 -40c-14 -15 -30 -26 -49 -28c-14 -2 -31 -3 -44 6c-5 1 -4 6 -5 10c12 -3 21 -13 35 -9c-9 5 -18 5 -26 10s-16 9 -23 15c-11 11 -15 26 -12 40c2 19 7 37 21 50
c8 7 16 16 28 12c2 0 5 0 6 1zM169 852c-2 1 -5 1 -6 -2c-1 -4 -5 -4 -7 -6c-6 -8 -9 -17 -16 -25l6 -19c7 -14 14 -17 29 -11l11 3c3 2 6 2 9 5c8 9 7 19 9 27c1 5 -1 8 -4 11c-9 10 -20 11 -31 17zM145 713c11 -5 22 -3 32 -1c6 2 15 -25 17 -34c0 25 4 43 18 5
c7 -18 16 -36 21 -55c5 -22 14 -43 17 -65c2 -17 4 -12 12 -27c14 -25 13 -54 20 -81c12 -45 28 -88 45 -131c13 -32 18 -67 25 -102c2 -9 0 -19 2 -29c10 -37 22 -74 37 -110c9 -21 17 -45 15 -71c-1 -12 -2 -25 -19 -27c0 -1 2 -10 -9 -11c-5 5 -12 6 -17 16
c-2 4 -9 2 -10 7c-4 11 -18 14 -20 5c-4 -18 -23 -7 -35 -10c-8 -3 -13 0 -15 8c-11 33 -22 65 -30 97c-7 27 -21 52 -26 80c-2 10 -9 13 -18 13c-39 -2 -69 1 -109 -4c-9 -1 -26 3 -32 -4c-6 -6 -5 -17 -8 -26c-4 -19 -10 -36 -12 -55l-8 -69c-1 -8 -2 -17 -4 -25
c-2 -12 -7 -15 -22 -11c-4 1 -11 23 -15 7c-2 -9 -10 16 -9 26c5 45 12 88 24 131l3 15c2 14 2 13 -11 17c-7 2 -15 3 -19 11c4 9 13 7 20 8c23 6 20 1 23 24c5 34 18 77 22 111c6 50 14 89 26 138c9 37 12 51 17 88c5 30 10 60 14 89c1 7 2 15 -1 22c-2 7 -3 17 7 21
s20 16 32 9zM133 555c-5 -4 -7 -8 -6 -11c1 -21 -3 -42 -9 -62c-7 -25 -4 -52 -13 -77c-8 -25 -13 -50 -16 -77c-4 -34 -10 -68 -16 -102c33 2 69 3 101 5c6 0 12 2 18 4c15 3 16 5 11 19c-9 23 -12 48 -19 72c-6 20 -7 42 -14 63c-9 25 -14 52 -17 78c-3 29 -9 58 -20 88z
M272 431c-8 -8 10 -40 12 -46c2 7 -7 43 -12 46z" />
    <glyph glyph-name="Atilde" unicode="&#xc3;" 
d="M132 853c6 2 15 -1 20 -4c10 -5 18 -12 27 -18c6 -5 14 -10 24 -9c7 1 14 -3 20 0c5 2 10 5 11 9c7 7 15 11 23 15c2 1 4 4 7 1c2 -2 1 -4 0 -7v-2c4 1 7 7 12 3c2 -1 2 1 3 3c3 4 6 3 10 2c10 -3 11 -14 5 -19c-12 -13 -18 -29 -30 -40c-4 -3 -7 -6 -11 -8
c-3 -2 -6 -5 -8 -7c-8 -9 -18 -10 -29 -12c-10 -3 -18 -2 -28 1c-5 1 -12 2 -19 4c-13 6 -26 9 -39 16c-5 2 -10 5 -16 8c-6 2 -12 3 -17 0c-13 -7 -27 -12 -37 -24c-3 -4 -6 -4 -9 0c-4 5 -10 7 -15 1c-6 7 -4 13 -1 19c6 13 13 26 23 36c9 10 19 16 30 21c7 3 14 8 21 9
c4 1 6 2 9 1c5 -1 9 0 14 1zM145 713c11 -5 22 -3 32 -1c6 2 15 -25 17 -34c0 25 4 43 18 5c7 -18 16 -36 21 -55c5 -22 14 -43 17 -65c2 -17 4 -12 12 -27c14 -25 13 -54 20 -81c12 -45 28 -88 45 -131c13 -32 18 -67 25 -102c2 -9 0 -19 2 -29c10 -37 22 -74 37 -110
c9 -21 17 -45 15 -71c-1 -12 -2 -25 -19 -27c0 -1 2 -10 -9 -11c-5 5 -12 6 -17 16c-2 4 -9 2 -10 7c-4 11 -18 14 -20 5c-4 -18 -23 -7 -35 -10c-8 -3 -13 0 -15 8c-11 33 -22 65 -30 97c-7 27 -21 52 -26 80c-2 10 -9 13 -18 13c-39 -2 -69 1 -109 -4c-9 -1 -26 3 -32 -4
c-6 -6 -5 -17 -8 -26c-4 -19 -10 -36 -12 -55l-8 -69c-1 -8 -2 -17 -4 -25c-2 -12 -7 -15 -22 -11c-4 1 -11 23 -15 7c-2 -9 -10 16 -9 26c5 45 12 88 24 131l3 15c2 14 2 13 -11 17c-7 2 -15 3 -19 11c4 9 13 7 20 8c23 6 20 1 23 24c5 34 18 77 22 111c6 50 14 89 26 138
c9 37 12 51 17 88c5 30 10 60 14 89c1 7 2 15 -1 22c-2 7 -3 17 7 21s20 16 32 9zM133 555c-5 -4 -7 -8 -6 -11c1 -21 -3 -42 -9 -62c-7 -25 -4 -52 -13 -77c-8 -25 -13 -50 -16 -77c-4 -34 -10 -68 -16 -102c33 2 69 3 101 5c6 0 12 2 18 4c15 3 16 5 11 19
c-9 23 -12 48 -19 72c-6 20 -7 42 -14 63c-9 25 -14 52 -17 78c-3 29 -9 58 -20 88zM272 431c-8 -8 10 -40 12 -46c2 7 -7 43 -12 46z" />
    <glyph glyph-name="AE" unicode="&#xc6;" horiz-adv-x="575" 
d="M423 707c17 3 33 5 48 -7c5 -3 10 -2 15 -2c18 1 32 -7 44 -21c-5 -7 -12 -7 -18 -8c-20 -2 -41 -2 -62 1c-10 1 -19 -1 -29 -3c-21 -4 -41 -15 -63 -15c-13 1 -12 -4 -13 -17c-4 -32 -7 -64 1 -95c10 -40 7 -80 3 -120c-2 -21 -6 -42 -2 -62c5 -5 10 -3 15 -2
c9 2 18 5 28 6c19 4 38 6 56 -5c1 -2 1 -5 -1 -6c-13 -9 -24 -23 -41 -26c-16 -2 -32 -6 -48 -9c-8 -1 -10 -5 -9 -13c2 -36 2 -73 -4 -109c-2 -12 -1 -24 0 -36c2 -23 2 -46 2 -69v-40c15 -3 30 3 46 4c41 3 83 6 125 7c9 0 16 -5 24 -9c0 -12 -13 -17 -15 -27
c-15 2 -25 -13 -41 -11c-34 3 -67 -3 -101 -4c-1 -1 -3 -1 -4 -1c-23 3 -38 -5 -35 -32c0 -2 -3 -4 -5 -7c-16 9 -32 14 -50 15c-10 1 -15 10 -22 16c-5 4 -7 11 -14 14c-7 -5 -5 -15 -11 -21c-22 15 -39 33 -38 62c0 44 -5 87 2 131c1 5 1 11 1 17c0 1 -1 3 -1 7
c-29 -8 -89 -4 -118 -6c-6 -13 -10 -25 -12 -39c-4 -21 -24 -60 -30 -80c-2 -5 -5 -10 -5 -14c-4 -32 -23 -55 -40 -81c-14 19 -19 40 -14 63c11 43 31 106 42 149c2 9 5 17 -5 23c-1 1 -1 2 -1 3c-2 5 -10 7 -6 15c4 7 10 7 17 5c1 0 3 1 7 1c3 28 20 55 25 82
c9 47 31 93 42 139c12 53 32 104 48 156c4 16 13 31 13 47c0 6 1 12 5 17c2 4 5 6 9 5c31 0 55 26 66 -22c7 1 14 24 20 23c7 -3 13 -8 20 -1c2 2 7 2 11 2c24 1 47 2 71 1c18 -1 35 6 52 9zM200 658c-1 0 -1 0 -2 -1c-2 -2 -2 -4 -1 -7c5 -29 -8 -58 -16 -85
c-11 -40 -26 -81 -34 -121s-14 -81 -22 -121c-5 -23 -22 -46 -23 -71c25 -2 79 2 104 -7c1 28 3 53 4 78c1 68 -2 135 2 203c3 42 -6 84 -8 127c-1 2 -1 5 -4 5zM335 645c-11 2 -15 -4 -15 -11l3 -113c0 -4 4 -8 5 -12c5 46 -1 91 7 136z" />
    <glyph glyph-name="B" unicode="B" horiz-adv-x="486" 
d="M13 689l163 21c38 4 76 0 112 -14l29 -10c36 -13 53 -41 47 -80c-4 -20 -6 -41 -21 -57c-19 -22 -38 -43 -63 -61c-10 -7 -21 -13 -31 -20c-5 -3 -12 -4 -13 -12c0 -4 -4 -8 -8 -7c-17 1 -24 -14 -37 -20c-6 -3 -5 -13 -12 -18c30 -2 60 -4 91 -7c24 -3 50 -4 72 -14
c33 -13 61 -31 87 -55c11 -13 14 -27 10 -43c-4 -20 -13 -37 -22 -55c-17 -35 -44 -59 -66 -87c-19 -25 -40 -46 -63 -65c-9 -7 -18 -12 -27 -18c-30 -24 -59 -50 -91 -70c-17 -10 -31 -21 -49 -33c-2 7 -4 12 -5 18c-1 5 -2 9 -7 10c-14 0 -19 10 -23 21c-1 1 -2 3 -4 5
c-13 -7 -16 -28 -37 -29l-4 28l-15 100c1 4 0 9 1 13c10 35 7 71 7 106c0 43 0 85 -1 128l-3 114c-1 13 0 27 3 41c4 11 3 22 3 33c1 26 1 52 2 77c-1 13 -2 14 -14 16c-9 0 -19 1 -28 -3c-8 -3 -13 2 -16 9c-1 5 -3 11 -4 18s2 13 10 15c9 1 18 4 27 5zM161 649
c-8 -2 -12 -4 -11 -14c-1 -48 0 -98 -4 -146c-1 -9 -5 -18 -1 -29c20 8 38 14 47 32c1 2 5 4 7 5c40 30 62 72 89 112c9 14 4 23 -12 25c-19 0 -37 6 -55 14c-17 9 -39 6 -60 1zM200 368c-17 3 -34 1 -53 -7c6 -5 16 0 17 -9c-4 -6 -12 -3 -18 -6c-3 -22 0 -46 1 -68
c-1 -23 3 -46 3 -69c0 -22 3 -45 5 -67s0 -45 5 -67c20 14 35 30 55 39c7 2 12 7 14 14c2 6 6 12 8 16c18 33 40 62 55 97c7 19 13 38 21 57c7 15 7 18 -8 32c-6 7 -14 10 -23 12c-24 7 -48 5 -72 5c-9 1 -9 1 -18 8c26 -1 51 -6 78 -2c-6 11 -15 10 -22 8
c-17 -1 -32 2 -48 7z" />
    <glyph glyph-name="C" unicode="C" horiz-adv-x="478" 
d="M228 714c47 9 89 -2 129 -25c20 -12 30 -33 31 -55c2 -41 6 -177 -19 -144c-14 18 -5 -11 -12 -18c-5 -5 -4 -12 -8 -17c-26 25 -25 60 -31 91c-5 26 -8 52 -10 78c-3 37 -48 60 -84 43c7 -1 11 -2 15 -2c2 -2 2 -4 0 -5c-16 -11 -24 -25 -30 -44c-7 -22 -18 -43 -21 -66
c-4 -31 -17 -60 -22 -91c-4 -18 -8 -36 -10 -55c-5 -40 0 -106 -2 -133c-1 -6 -3 -12 -2 -18c4 -16 2 -32 1 -48c-1 -12 12 -23 13 -34c3 -29 8 -57 23 -83c11 -19 26 -29 48 -26l41 3c7 0 12 4 18 8c27 16 35 19 58 40c3 2 14 7 27 19c12 12 24 20 36 33c7 7 19 13 25 14
c5 -8 -12 -23 -4 -29c0 -2 -1 -4 -1 -5c-7 -10 -19 -13 -24 -21c-7 -12 -8 -18 -15 -26c-6 -6 -13 -11 -20 -17c-3 -3 -6 -8 -10 -13c-21 -23 -28 -33 -48 -43c-18 -9 -35 -20 -52 -32c-17 -11 -37 -16 -56 -23c-18 -6 -25 3 -41 -4c-3 -1 -7 2 -10 3c-5 2 -10 4 -14 0
c-1 -2 -4 -3 -5 -3c-19 7 -32 10 -50 17c-14 6 -37 38 -43 53c-14 31 -25 56 -28 90c-1 26 2 40 -7 66c-4 10 0 22 -5 33c-5 8 -5 18 -2 27c3 11 3 22 3 33c2 46 0 93 8 138c4 23 1 45 6 68c12 64 38 122 73 176c1 1 2 2 4 3c1 -1 3 -1 4 -2c7 -7 12 -6 16 2
c9 15 21 26 35 36c3 2 5 6 10 4c21 -7 42 1 62 4zM56 497c-1 0 -11 -63 -11 -65c-3 -4 -2 -35 -2 -38c-4 -8 15 -27 11 -8c-3 15 15 111 2 111z" />
    <glyph glyph-name="Cacute" unicode="&#x106;" horiz-adv-x="478" 
d="M304 886c11 -3 22 2 32 -5c11 -6 16 -16 21 -27c2 -7 -4 -10 -8 -12c-9 -6 -18 -14 -25 -21c-9 -10 -17 -19 -31 -22c-7 -4 -12 -9 -18 -14c-13 -12 -27 -19 -36 -34c-4 -1 -10 -2 -15 -5c-1 5 5 11 0 13c-4 3 -7 -3 -12 -5c-3 0 -3 -3 -4 -4c-2 -4 -5 -5 -8 -5
c-4 2 -2 4 -2 6c0 3 -3 3 -5 3c-4 4 -4 6 -4 13c4 14 12 25 23 35c2 1 5 3 5 5c2 13 11 20 19 28c10 13 22 22 32 35c6 7 15 12 26 13c3 -2 6 0 8 1c0 1 1 2 2 2zM228 714c47 9 89 -2 129 -25c20 -12 30 -33 31 -55c2 -41 6 -177 -19 -144c-14 18 -5 -11 -12 -18
c-5 -5 -4 -12 -8 -17c-26 25 -25 60 -31 91c-5 26 -8 52 -10 78c-3 37 -48 60 -84 43c7 -1 11 -2 15 -2c2 -2 2 -4 0 -5c-16 -11 -24 -25 -30 -44c-7 -22 -18 -43 -21 -66c-4 -31 -17 -60 -22 -91c-4 -18 -8 -36 -10 -55c-5 -40 0 -106 -2 -133c-1 -6 -3 -12 -2 -18
c4 -16 2 -32 1 -48c-1 -12 12 -23 13 -34c3 -29 8 -57 23 -83c11 -19 26 -29 48 -26l41 3c7 0 12 4 18 8c27 16 35 19 58 40c3 2 14 7 27 19c12 12 24 20 36 33c7 7 19 13 25 14c5 -8 -12 -23 -4 -29c0 -2 -1 -4 -1 -5c-7 -10 -19 -13 -24 -21c-7 -12 -8 -18 -15 -26
c-6 -6 -13 -11 -20 -17c-3 -3 -6 -8 -10 -13c-21 -23 -28 -33 -48 -43c-18 -9 -35 -20 -52 -32c-17 -11 -37 -16 -56 -23c-18 -6 -25 3 -41 -4c-3 -1 -7 2 -10 3c-5 2 -10 4 -14 0c-1 -2 -4 -3 -5 -3c-19 7 -32 10 -50 17c-14 6 -37 38 -43 53c-14 31 -25 56 -28 90
c-1 26 2 40 -7 66c-4 10 0 22 -5 33c-5 8 -5 18 -2 27c3 11 3 22 3 33c2 46 0 93 8 138c4 23 1 45 6 68c12 64 38 122 73 176c1 1 2 2 4 3c1 -1 3 -1 4 -2c7 -7 12 -6 16 2c9 15 21 26 35 36c3 2 5 6 10 4c21 -7 42 1 62 4zM56 497c-1 0 -11 -63 -11 -65
c-3 -4 -2 -35 -2 -38c-4 -8 15 -27 11 -8c-3 15 15 111 2 111z" />
    <glyph glyph-name="Ccaron" unicode="&#x10c;" horiz-adv-x="478" 
d="M102 897c4 0 9 1 13 -4c2 -1 3 -1 6 0c7 7 11 6 18 -1c3 -5 7 -7 12 -4c4 4 8 1 11 -3c9 -14 22 -22 34 -33c11 -10 26 -16 35 -29c2 -3 4 -2 5 0c15 20 34 35 51 52c9 8 20 14 30 21c2 1 4 0 5 -2c1 -3 4 -6 2 -9c-1 -4 -3 -6 -6 -10c7 4 10 10 16 11c5 1 8 -1 10 -5
c3 -3 0 -6 0 -10c-10 -31 -35 -48 -52 -72c-10 -12 -20 -24 -26 -38c-4 -9 -10 -9 -16 -15c-2 -1 -7 0 -7 3c1 7 -3 4 -6 4c-7 0 -16 2 -23 0c-10 -2 -15 0 -20 10c-2 4 -9 5 -12 9c-15 19 -30 37 -45 57c-10 15 -19 31 -31 44c-5 6 -2 14 -7 20c-1 2 1 4 3 4zM228 714
c47 9 89 -2 129 -25c20 -12 30 -33 31 -55c2 -41 6 -177 -19 -144c-14 18 -5 -11 -12 -18c-5 -5 -4 -12 -8 -17c-26 25 -25 60 -31 91c-5 26 -8 52 -10 78c-3 37 -48 60 -84 43c7 -1 11 -2 15 -2c2 -2 2 -4 0 -5c-16 -11 -24 -25 -30 -44c-7 -22 -18 -43 -21 -66
c-4 -31 -17 -60 -22 -91c-4 -18 -8 -36 -10 -55c-5 -40 0 -106 -2 -133c-1 -6 -3 -12 -2 -18c4 -16 2 -32 1 -48c-1 -12 12 -23 13 -34c3 -29 8 -57 23 -83c11 -19 26 -29 48 -26l41 3c7 0 12 4 18 8c27 16 35 19 58 40c3 2 14 7 27 19c12 12 24 20 36 33c7 7 19 13 25 14
c5 -8 -12 -23 -4 -29c0 -2 -1 -4 -1 -5c-7 -10 -19 -13 -24 -21c-7 -12 -8 -18 -15 -26c-6 -6 -13 -11 -20 -17c-3 -3 -6 -8 -10 -13c-21 -23 -28 -33 -48 -43c-18 -9 -35 -20 -52 -32c-17 -11 -37 -16 -56 -23c-18 -6 -25 3 -41 -4c-3 -1 -7 2 -10 3c-5 2 -10 4 -14 0
c-1 -2 -4 -3 -5 -3c-19 7 -32 10 -50 17c-14 6 -37 38 -43 53c-14 31 -25 56 -28 90c-1 26 2 40 -7 66c-4 10 0 22 -5 33c-5 8 -5 18 -2 27c3 11 3 22 3 33c2 46 0 93 8 138c4 23 1 45 6 68c12 64 38 122 73 176c1 1 2 2 4 3c1 -1 3 -1 4 -2c7 -7 12 -6 16 2
c9 15 21 26 35 36c3 2 5 6 10 4c21 -7 42 1 62 4zM56 497c-1 0 -11 -63 -11 -65c-3 -4 -2 -35 -2 -38c-4 -8 15 -27 11 -8c-3 15 15 111 2 111z" />
    <glyph glyph-name="Ccedilla" unicode="&#xc7;" horiz-adv-x="478" 
d="M442 179c5 -8 -12 -23 -4 -29c0 -2 -1 -4 -1 -5c-7 -10 -19 -13 -24 -21c-7 -12 -8 -18 -15 -26c-6 -6 -13 -11 -20 -17c-3 -3 -6 -8 -10 -13c-21 -23 -28 -33 -48 -43c-18 -9 -35 -20 -52 -32c-12 -8 -26 -13 -39 -17c-3 -4 -5 -9 -6 -13l-3 -6c26 -5 47 -15 63 -36
c7 -8 7 -19 8 -28c0 -5 2 -9 3 -15c3 -18 1 -34 -9 -50c-6 -8 -12 -16 -20 -24c-4 -4 -8 -5 -14 -5c-3 0 -8 0 -11 -3c-5 -5 -12 -1 -17 0c-7 0 -12 1 -19 -1c-13 -3 -25 4 -36 9l-25 11c-10 4 -16 11 -21 19c-4 4 1 6 3 7s6 -1 8 1c0 1 -2 1 -2 2c-6 1 -9 3 -6 9v6
c0 3 -3 8 0 8c2 1 6 2 10 2c8 0 14 -8 21 -8c2 0 3 -2 3 -2c5 -6 10 -7 16 -9c9 -5 3 2 -2 6c-9 7 34 -3 38 4l10 17c2 4 -1 10 1 12c1 2 2 4 2 5c0 5 -22 25 -29 26c-8 1 -19 3 -28 2s-16 9 -13 18c2 10 4 19 8 28l-1 1c-5 2 -10 4 -14 0c-1 -2 -4 -3 -5 -3
c-19 7 -32 10 -50 17c-14 6 -37 38 -43 53c-14 31 -25 56 -28 90c-1 26 2 40 -7 66c-4 10 0 22 -5 33c-5 8 -5 18 -2 27c3 11 3 22 3 33c2 46 0 93 8 138c4 23 1 45 6 68c12 64 38 122 73 176c1 1 2 2 4 3c1 -1 3 -1 4 -2c7 -7 12 -6 16 2c9 15 21 26 35 36c3 2 5 6 10 4
c21 -7 42 1 62 4c47 9 89 -2 129 -25c20 -12 30 -33 31 -55c2 -41 6 -177 -19 -144c-14 18 -5 -11 -12 -18c-5 -5 -4 -12 -8 -17c-26 25 -25 60 -31 91c-5 26 -8 52 -10 78c-3 37 -48 60 -84 43c7 -1 11 -2 15 -2c2 -2 2 -4 0 -5c-16 -11 -24 -25 -30 -44
c-7 -22 -18 -43 -21 -66c-4 -31 -17 -60 -22 -91c-4 -18 -8 -36 -10 -55c-5 -40 0 -106 -2 -133c-1 -6 -3 -12 -2 -18c4 -16 2 -32 1 -48c-1 -12 12 -23 13 -34c3 -29 8 -57 23 -83c11 -19 26 -29 48 -26l41 3c7 0 12 4 18 8c27 16 35 19 58 40c3 2 14 7 27 19
c12 12 24 20 36 33c7 7 19 13 25 14zM54 386c-3 15 15 111 2 111c-1 0 -11 -63 -11 -65c-3 -4 -2 -35 -2 -38c-4 -8 15 -27 11 -8zM270 -96c-4 5 2 15 -10 18c3 -8 6 -13 10 -18z" />
    <glyph glyph-name="Cdotaccent" unicode="&#x10a;" horiz-adv-x="478" 
d="M239 834c6 -7 15 -5 20 -10c5 -3 7 -5 4 -10c-4 -5 1 -10 3 -13c4 -6 4 -10 1 -15s-4 -11 -4 -17c0 -13 -11 -23 -24 -20c-5 1 -11 1 -13 -2c-10 -6 -18 -2 -26 0c-8 3 -13 10 -14 18c-2 7 -7 12 -9 18c-3 3 -4 9 -3 13c4 24 13 32 38 36c7 1 14 -1 20 2c2 1 6 1 7 0z
M228 714c47 9 89 -2 129 -25c20 -12 30 -33 31 -55c2 -41 6 -177 -19 -144c-14 18 -5 -11 -12 -18c-5 -5 -4 -12 -8 -17c-26 25 -25 60 -31 91c-5 26 -8 52 -10 78c-3 37 -48 60 -84 43c7 -1 11 -2 15 -2c2 -2 2 -4 0 -5c-16 -11 -24 -25 -30 -44c-7 -22 -18 -43 -21 -66
c-4 -31 -17 -60 -22 -91c-4 -18 -8 -36 -10 -55c-5 -40 0 -106 -2 -133c-1 -6 -3 -12 -2 -18c4 -16 2 -32 1 -48c-1 -12 12 -23 13 -34c3 -29 8 -57 23 -83c11 -19 26 -29 48 -26l41 3c7 0 12 4 18 8c27 16 35 19 58 40c3 2 14 7 27 19c12 12 24 20 36 33c7 7 19 13 25 14
c5 -8 -12 -23 -4 -29c0 -2 -1 -4 -1 -5c-7 -10 -19 -13 -24 -21c-7 -12 -8 -18 -15 -26c-6 -6 -13 -11 -20 -17c-3 -3 -6 -8 -10 -13c-21 -23 -28 -33 -48 -43c-18 -9 -35 -20 -52 -32c-17 -11 -37 -16 -56 -23c-18 -6 -25 3 -41 -4c-3 -1 -7 2 -10 3c-5 2 -10 4 -14 0
c-1 -2 -4 -3 -5 -3c-19 7 -32 10 -50 17c-14 6 -37 38 -43 53c-14 31 -25 56 -28 90c-1 26 2 40 -7 66c-4 10 0 22 -5 33c-5 8 -5 18 -2 27c3 11 3 22 3 33c2 46 0 93 8 138c4 23 1 45 6 68c12 64 38 122 73 176c1 1 2 2 4 3c1 -1 3 -1 4 -2c7 -7 12 -6 16 2
c9 15 21 26 35 36c3 2 5 6 10 4c21 -7 42 1 62 4zM56 497c-1 0 -11 -63 -11 -65c-3 -4 -2 -35 -2 -38c-4 -8 15 -27 11 -8c-3 15 15 111 2 111z" />
    <glyph glyph-name="D" unicode="D" horiz-adv-x="505" 
d="M93 720c22 -5 44 -6 66 -10c39 -6 78 -14 116 -21c11 -2 23 -2 34 -5c42 -12 75 -36 92 -77c5 -13 9 -26 12 -40c1 -5 2 -9 9 -9s7 -6 9 -11c13 -40 17 -81 12 -122c-3 -21 -6 -42 -4 -64c0 -3 -1 -6 -2 -9c-13 -54 -31 -107 -59 -155c-3 -4 -6 -7 -6 -11
c-4 -32 -33 -46 -48 -69c-2 -3 -5 -4 -9 -3c-7 2 0 9 -5 13c-8 -12 -14 -23 -23 -33c-15 -18 -29 -36 -46 -52c-17 -15 -33 -28 -52 -39c-16 -10 -17 -14 -16 -32c-17 0 -34 2 -52 -4c-11 -5 -27 -6 -35 9c-6 -2 -7 -7 -10 -10c-8 -5 -13 -14 -26 -10c-14 5 -20 13 -19 26
c2 32 -2 63 1 95c3 34 3 69 -1 103c-5 46 -7 93 -7 140c1 29 -1 58 -1 86c0 44 -2 87 4 130c3 21 -3 42 -1 63c1 8 0 15 6 22c7 7 4 19 4 29c1 6 0 12 0 21c-7 0 -14 -1 -22 0c-11 1 -11 2 -5 14c9 18 25 18 41 17c10 -1 20 -2 29 1c2 1 2 3 2 5c-4 15 -3 16 12 12zM137 668
c-13 -1 -17 -6 -11 -16c11 -19 5 -41 13 -60c-1 -53 1 -105 4 -158c2 -42 0 -85 5 -127c4 -34 1 -70 11 -104c1 -1 1 -2 1 -3c-3 -29 4 -57 5 -86c0 -7 0 -15 4 -23c17 20 29 42 43 63c-8 2 -12 -6 -20 -4c1 4 4 6 6 8c11 10 25 17 33 30c36 60 66 123 89 189
c3 10 6 20 6 31c1 25 3 49 3 73c1 12 2 24 -1 36c-11 40 -29 77 -55 109c-3 4 -6 6 -10 9c-21 15 -43 29 -71 27c-2 0 -3 1 -5 2c-17 1 -33 5 -50 4zM306 624c-2 -3 0 -5 2 -7c1 -2 3 -4 5 -7c3 10 1 14 -7 14zM421 531c-4 -25 8 -48 9 -72c5 25 -3 49 -9 72z" />
    <glyph glyph-name="Eth" unicode="&#xd0;" horiz-adv-x="514" 
d="M440 547c13 -40 17 -81 12 -122c-3 -21 -6 -42 -4 -64c0 -3 -1 -6 -2 -9c-13 -54 -31 -107 -59 -155c-3 -4 -6 -7 -6 -11c-4 -32 -33 -46 -48 -69c-2 -3 -5 -4 -9 -3c-7 2 0 9 -5 13c-8 -12 -14 -23 -23 -33c-15 -18 -29 -36 -46 -52c-17 -15 -33 -28 -52 -39
c-16 -10 -17 -14 -16 -32c-17 0 -34 2 -52 -4c-11 -5 -27 -6 -35 9c-6 -2 -7 -7 -10 -10c-8 -5 -13 -14 -26 -10c-14 5 -20 13 -19 26c2 32 -2 63 1 95c3 34 3 69 -1 103c-5 46 -9 93 -7 140c1 11 0 25 0 43c-9 -1 -18 -3 -27 -3c-16 0 -24 9 -30 31c-2 9 -1 15 6 18
c16 6 33 12 50 15c0 38 -1 75 4 112c3 21 -3 42 -1 63c1 8 0 15 6 22c7 7 4 19 4 29c1 6 0 12 0 21c-7 0 -14 -1 -22 0c-11 1 -11 2 -5 14c9 18 25 18 41 17c10 -1 20 -2 29 1c2 1 2 3 2 5c-4 15 -3 16 12 12c22 -5 44 -6 66 -10c39 -6 78 -14 116 -21c11 -2 23 -2 34 -5
c42 -12 75 -36 92 -77c5 -13 9 -26 12 -40c1 -5 2 -9 9 -9s7 -6 9 -11zM338 481c1 12 2 24 -1 36c-11 40 -29 77 -55 109c-3 4 -6 6 -10 9c-21 15 -43 29 -71 27c-2 0 -3 1 -5 2c-17 1 -33 5 -50 4c-13 -1 -17 -6 -11 -16c11 -19 5 -41 13 -60c-1 -53 1 -105 4 -158v-12
c35 -1 71 -1 91 -3c13 -2 15 -4 8 -16c-3 -7 -4 -24 -8 -30c-7 -4 -14 -6 -23 -6h-67c1 -22 1 -44 4 -60c5 -35 1 -70 11 -104c1 -1 1 -2 1 -3c-3 -29 4 -57 5 -86c0 -7 0 -15 4 -23c17 20 29 42 43 63c-8 2 -12 -6 -20 -4c1 4 4 6 6 8c11 10 25 17 33 30
c36 60 66 123 89 189c3 10 6 20 6 31c1 25 3 49 3 73zM315 624c-2 -3 0 -5 2 -7c1 -2 3 -4 5 -7c3 10 1 14 -7 14zM439 459c5 25 -3 49 -9 72c-4 -25 8 -48 9 -72z" />
    <glyph glyph-name="Dcaron" unicode="&#x10e;" horiz-adv-x="505" 
d="M99 897c4 0 9 1 13 -4c2 -1 3 -1 6 0c7 7 11 6 18 -1c3 -5 7 -7 12 -4c4 4 8 1 11 -3c9 -14 22 -22 34 -33c11 -10 26 -16 35 -29c2 -3 4 -2 5 0c15 20 34 35 51 52c9 8 20 14 30 21c2 1 4 0 5 -2c1 -3 4 -6 2 -9c-1 -4 -3 -6 -6 -10c7 4 10 10 16 11c5 1 8 -1 10 -5
c3 -3 0 -6 0 -10c-10 -31 -35 -48 -52 -72c-10 -12 -20 -24 -26 -38c-4 -9 -10 -9 -16 -15c-2 -1 -7 0 -7 3c1 7 -3 4 -6 4c-7 0 -16 2 -23 0c-10 -2 -15 0 -20 10c-2 4 -9 5 -12 9c-15 19 -30 37 -45 57c-10 15 -19 31 -31 44c-5 6 -2 14 -7 20c-1 2 1 4 3 4zM93 720
c22 -5 44 -6 66 -10c39 -6 78 -14 116 -21c11 -2 23 -2 34 -5c42 -12 75 -36 92 -77c5 -13 9 -26 12 -40c1 -5 2 -9 9 -9s7 -6 9 -11c13 -40 17 -81 12 -122c-3 -21 -6 -42 -4 -64c0 -3 -1 -6 -2 -9c-13 -54 -31 -107 -59 -155c-3 -4 -6 -7 -6 -11c-4 -32 -33 -46 -48 -69
c-2 -3 -5 -4 -9 -3c-7 2 0 9 -5 13c-8 -12 -14 -23 -23 -33c-15 -18 -29 -36 -46 -52c-17 -15 -33 -28 -52 -39c-16 -10 -17 -14 -16 -32c-17 0 -34 2 -52 -4c-11 -5 -27 -6 -35 9c-6 -2 -7 -7 -10 -10c-8 -5 -13 -14 -26 -10c-14 5 -20 13 -19 26c2 32 -2 63 1 95
c3 34 3 69 -1 103c-5 46 -7 93 -7 140c1 29 -1 58 -1 86c0 44 -2 87 4 130c3 21 -3 42 -1 63c1 8 0 15 6 22c7 7 4 19 4 29c1 6 0 12 0 21c-7 0 -14 -1 -22 0c-11 1 -11 2 -5 14c9 18 25 18 41 17c10 -1 20 -2 29 1c2 1 2 3 2 5c-4 15 -3 16 12 12zM137 668
c-13 -1 -17 -6 -11 -16c11 -19 5 -41 13 -60c-1 -53 1 -105 4 -158c2 -42 0 -85 5 -127c4 -34 1 -70 11 -104c1 -1 1 -2 1 -3c-3 -29 4 -57 5 -86c0 -7 0 -15 4 -23c17 20 29 42 43 63c-8 2 -12 -6 -20 -4c1 4 4 6 6 8c11 10 25 17 33 30c36 60 66 123 89 189
c3 10 6 20 6 31c1 25 3 49 3 73c1 12 2 24 -1 36c-11 40 -29 77 -55 109c-3 4 -6 6 -10 9c-21 15 -43 29 -71 27c-2 0 -3 1 -5 2c-17 1 -33 5 -50 4zM306 624c-2 -3 0 -5 2 -7c1 -2 3 -4 5 -7c3 10 1 14 -7 14zM421 531c-4 -25 8 -48 9 -72c5 25 -3 49 -9 72z" />
    <glyph glyph-name="Dcroat" unicode="&#x110;" horiz-adv-x="514" 
d="M440 547c13 -40 17 -81 12 -122c-3 -21 -6 -42 -4 -64c0 -3 -1 -6 -2 -9c-13 -54 -31 -107 -59 -155c-3 -4 -6 -7 -6 -11c-4 -32 -33 -46 -48 -69c-2 -3 -5 -4 -9 -3c-7 2 0 9 -5 13c-8 -12 -14 -23 -23 -33c-15 -18 -29 -36 -46 -52c-17 -15 -33 -28 -52 -39
c-16 -10 -17 -14 -16 -32c-17 0 -34 2 -52 -4c-11 -5 -27 -6 -35 9c-6 -2 -7 -7 -10 -10c-8 -5 -13 -14 -26 -10c-14 5 -20 13 -19 26c2 32 -2 63 1 95c3 34 3 69 -1 103c-5 46 -9 93 -7 140c1 11 0 25 0 43c-9 -1 -18 -3 -27 -3c-16 0 -24 9 -30 31c-2 9 -1 15 6 18
c16 6 33 12 50 15c0 38 -1 75 4 112c3 21 -3 42 -1 63c1 8 0 15 6 22c7 7 4 19 4 29c1 6 0 12 0 21c-7 0 -14 -1 -22 0c-11 1 -11 2 -5 14c9 18 25 18 41 17c10 -1 20 -2 29 1c2 1 2 3 2 5c-4 15 -3 16 12 12c22 -5 44 -6 66 -10c39 -6 78 -14 116 -21c11 -2 23 -2 34 -5
c42 -12 75 -36 92 -77c5 -13 9 -26 12 -40c1 -5 2 -9 9 -9s7 -6 9 -11zM338 481c1 12 2 24 -1 36c-11 40 -29 77 -55 109c-3 4 -6 6 -10 9c-21 15 -43 29 -71 27c-2 0 -3 1 -5 2c-17 1 -33 5 -50 4c-13 -1 -17 -6 -11 -16c11 -19 5 -41 13 -60c-1 -53 1 -105 4 -158v-12
c35 -1 71 -1 91 -3c13 -2 15 -4 8 -16c-3 -7 -4 -24 -8 -30c-7 -4 -14 -6 -23 -6h-67c1 -22 1 -44 4 -60c5 -35 1 -70 11 -104c1 -1 1 -2 1 -3c-3 -29 4 -57 5 -86c0 -7 0 -15 4 -23c17 20 29 42 43 63c-8 2 -12 -6 -20 -4c1 4 4 6 6 8c11 10 25 17 33 30
c36 60 66 123 89 189c3 10 6 20 6 31c1 25 3 49 3 73zM315 624c-2 -3 0 -5 2 -7c1 -2 3 -4 5 -7c3 10 1 14 -7 14zM439 459c5 25 -3 49 -9 72c-4 -25 8 -48 9 -72z" />
    <glyph glyph-name="E" unicode="E" horiz-adv-x="400" 
d="M113 706c13 -5 25 -8 33 -20c1 -1 5 -1 7 0c42 7 85 6 127 13c11 1 22 4 33 4c20 1 42 -14 52 -35c-23 -6 -46 -11 -69 -11c-23 1 -45 2 -68 1c-21 -1 -42 -7 -63 -8c-6 0 -9 -4 -11 -10c-7 -29 -1 -57 3 -86c1 -10 0 -20 0 -31c-2 -43 -4 -86 0 -130c33 5 65 -4 97 1
c16 3 25 -11 38 -20c-8 -7 -14 -11 -22 -12c-10 -1 -19 -3 -29 -7c-23 -8 -47 -9 -72 -10c-13 -1 -13 -1 -12 -14c1 -24 1 -48 0 -73c-1 -26 -5 -53 -3 -80c1 -9 -1 -19 -3 -28c-6 -24 -8 -49 -5 -74c2 -10 6 -13 15 -12c7 0 14 3 22 1c2 -1 5 -2 5 -7
c-11 -10 -31 1 -43 -14c8 -4 14 -1 20 1c35 9 70 14 105 24c18 5 37 2 55 6c5 1 10 -1 14 -4c6 -6 12 -11 18 -16c-6 -8 -17 -4 -24 -9c-2 -6 4 -9 6 -14c5 -7 3 -13 -6 -13c-16 1 -30 -6 -45 -10c-11 -2 -22 -5 -33 -5c-31 0 -61 0 -91 -6c-8 -2 -15 -2 -17 -14
c-1 -8 -7 -9 -14 -3c-8 6 -15 3 -23 2c-39 -6 -77 -9 -117 -8c-6 0 -11 5 -17 7c-5 2 -6 6 -6 10c0 6 3 8 8 9c16 5 32 7 50 16c0 23 -1 46 0 70c6 74 2 144 8 218c5 72 7 145 9 217c1 36 -2 72 -2 107c0 9 -4 13 -12 13c-13 0 -11 7 -24 9c-6 1 -11 3 -14 10
c21 7 28 7 48 11c1 6 2 11 2 16c0 10 1 18 14 16c1 0 3 0 3 1c18 17 35 7 53 1zM49 63c-11 -10 -7 -32 -9 -44c16 2 16 2 14 13c-1 7 1 24 -5 31z" />
    <glyph glyph-name="Eacute" unicode="&#xc9;" horiz-adv-x="400" 
d="M272 886c11 -3 22 2 32 -5c11 -6 16 -16 21 -27c2 -7 -4 -10 -8 -12c-9 -6 -18 -14 -25 -21c-9 -10 -17 -19 -31 -22c-7 -4 -12 -9 -18 -14c-13 -12 -27 -19 -36 -34c-4 -1 -10 -2 -15 -5c-1 5 5 11 0 13c-4 3 -7 -3 -12 -5c-3 0 -3 -3 -4 -4c-2 -4 -5 -5 -8 -5
c-4 2 -2 4 -2 6c0 3 -3 3 -5 3c-4 4 -4 6 -4 13c4 14 12 25 23 35c2 1 5 3 5 5c2 13 11 20 19 28c10 13 22 22 32 35c6 7 15 12 26 13c3 -2 6 0 8 1c0 1 1 2 2 2zM113 706c13 -5 25 -8 33 -20c1 -1 5 -1 7 0c42 7 85 6 127 13c11 1 22 4 33 4c20 1 42 -14 52 -35
c-23 -6 -46 -11 -69 -11c-23 1 -45 2 -68 1c-21 -1 -42 -7 -63 -8c-6 0 -9 -4 -11 -10c-7 -29 -1 -57 3 -86c1 -10 0 -20 0 -31c-2 -43 -4 -86 0 -130c33 5 65 -4 97 1c16 3 25 -11 38 -20c-8 -7 -14 -11 -22 -12c-10 -1 -19 -3 -29 -7c-23 -8 -47 -9 -72 -10
c-13 -1 -13 -1 -12 -14c1 -24 1 -48 0 -73c-1 -26 -5 -53 -3 -80c1 -9 -1 -19 -3 -28c-6 -24 -8 -49 -5 -74c2 -10 6 -13 15 -12c7 0 14 3 22 1c2 -1 5 -2 5 -7c-11 -10 -31 1 -43 -14c8 -4 14 -1 20 1c35 9 70 14 105 24c18 5 37 2 55 6c5 1 10 -1 14 -4
c6 -6 12 -11 18 -16c-6 -8 -17 -4 -24 -9c-2 -6 4 -9 6 -14c5 -7 3 -13 -6 -13c-16 1 -30 -6 -45 -10c-11 -2 -22 -5 -33 -5c-31 0 -61 0 -91 -6c-8 -2 -15 -2 -17 -14c-1 -8 -7 -9 -14 -3c-8 6 -15 3 -23 2c-39 -6 -77 -9 -117 -8c-6 0 -11 5 -17 7c-5 2 -6 6 -6 10
c0 6 3 8 8 9c16 5 32 7 50 16c0 23 -1 46 0 70c6 74 2 144 8 218c5 72 7 145 9 217c1 36 -2 72 -2 107c0 9 -4 13 -12 13c-13 0 -11 7 -24 9c-6 1 -11 3 -14 10c21 7 28 7 48 11c1 6 2 11 2 16c0 10 1 18 14 16c1 0 3 0 3 1c18 17 35 7 53 1zM49 63c-11 -10 -7 -32 -9 -44
c16 2 16 2 14 13c-1 7 1 24 -5 31z" />
    <glyph glyph-name="Ecaron" unicode="&#x11a;" horiz-adv-x="400" 
d="M70 897c4 0 9 1 13 -4c2 -1 3 -1 6 0c7 7 11 6 18 -1c3 -5 7 -7 12 -4c4 4 8 1 11 -3c9 -14 22 -22 34 -33c11 -10 26 -16 35 -29c2 -3 4 -2 5 0c15 20 34 35 51 52c9 8 20 14 30 21c2 1 4 0 5 -2c1 -3 4 -6 2 -9c-1 -4 -3 -6 -6 -10c7 4 10 10 16 11c5 1 8 -1 10 -5
c3 -3 0 -6 0 -10c-10 -31 -35 -48 -52 -72c-10 -12 -20 -24 -26 -38c-4 -9 -10 -9 -16 -15c-2 -1 -7 0 -7 3c1 7 -3 4 -6 4c-7 0 -16 2 -23 0c-10 -2 -15 0 -20 10c-2 4 -9 5 -12 9c-15 19 -30 37 -45 57c-10 15 -19 31 -31 44c-5 6 -2 14 -7 20c-1 2 1 4 3 4zM113 706
c13 -5 25 -8 33 -20c1 -1 5 -1 7 0c42 7 85 6 127 13c11 1 22 4 33 4c20 1 42 -14 52 -35c-23 -6 -46 -11 -69 -11c-23 1 -45 2 -68 1c-21 -1 -42 -7 -63 -8c-6 0 -9 -4 -11 -10c-7 -29 -1 -57 3 -86c1 -10 0 -20 0 -31c-2 -43 -4 -86 0 -130c33 5 65 -4 97 1
c16 3 25 -11 38 -20c-8 -7 -14 -11 -22 -12c-10 -1 -19 -3 -29 -7c-23 -8 -47 -9 -72 -10c-13 -1 -13 -1 -12 -14c1 -24 1 -48 0 -73c-1 -26 -5 -53 -3 -80c1 -9 -1 -19 -3 -28c-6 -24 -8 -49 -5 -74c2 -10 6 -13 15 -12c7 0 14 3 22 1c2 -1 5 -2 5 -7
c-11 -10 -31 1 -43 -14c8 -4 14 -1 20 1c35 9 70 14 105 24c18 5 37 2 55 6c5 1 10 -1 14 -4c6 -6 12 -11 18 -16c-6 -8 -17 -4 -24 -9c-2 -6 4 -9 6 -14c5 -7 3 -13 -6 -13c-16 1 -30 -6 -45 -10c-11 -2 -22 -5 -33 -5c-31 0 -61 0 -91 -6c-8 -2 -15 -2 -17 -14
c-1 -8 -7 -9 -14 -3c-8 6 -15 3 -23 2c-39 -6 -77 -9 -117 -8c-6 0 -11 5 -17 7c-5 2 -6 6 -6 10c0 6 3 8 8 9c16 5 32 7 50 16c0 23 -1 46 0 70c6 74 2 144 8 218c5 72 7 145 9 217c1 36 -2 72 -2 107c0 9 -4 13 -12 13c-13 0 -11 7 -24 9c-6 1 -11 3 -14 10
c21 7 28 7 48 11c1 6 2 11 2 16c0 10 1 18 14 16c1 0 3 0 3 1c18 17 35 7 53 1zM49 63c-11 -10 -7 -32 -9 -44c16 2 16 2 14 13c-1 7 1 24 -5 31z" />
    <glyph glyph-name="Ecircumflex" unicode="&#xca;" horiz-adv-x="400" 
d="M195 893c10 -2 16 -9 24 -16c24 -19 38 -45 59 -68c7 -7 16 -14 21 -25c4 -7 7 -17 8 -26c0 -4 -1 -7 -3 -8c-4 -2 -5 2 -7 4c0 1 -1 2 -2 3c-2 -3 3 -5 -1 -7c-3 -2 -5 1 -7 2c-10 3 -17 11 -23 19c-2 -6 5 -9 5 -15c0 -2 2 -4 2 -5c1 -2 0 -4 -2 -5c-1 0 -2 0 -3 1
c-7 14 -23 18 -33 26c-18 13 -36 28 -50 46l-4 3c-12 -16 -25 -29 -42 -38c-5 -4 -8 -8 -12 -13c-9 -10 -22 -17 -34 -24c-10 -6 -10 -6 -12 5c-1 3 0 7 -5 7c-1 0 -2 1 -2 2c3 7 -2 14 -1 22c1 7 7 12 11 17c11 13 21 27 30 41c8 9 15 19 24 27c5 3 5 9 9 12
c5 6 9 -3 14 -1c7 4 14 4 21 3c5 0 6 1 6 5c0 9 1 9 9 6zM113 706c13 -5 25 -8 33 -20c1 -1 5 -1 7 0c42 7 85 6 127 13c11 1 22 4 33 4c20 1 42 -14 52 -35c-23 -6 -46 -11 -69 -11c-23 1 -45 2 -68 1c-21 -1 -42 -7 -63 -8c-6 0 -9 -4 -11 -10c-7 -29 -1 -57 3 -86
c1 -10 0 -20 0 -31c-2 -43 -4 -86 0 -130c33 5 65 -4 97 1c16 3 25 -11 38 -20c-8 -7 -14 -11 -22 -12c-10 -1 -19 -3 -29 -7c-23 -8 -47 -9 -72 -10c-13 -1 -13 -1 -12 -14c1 -24 1 -48 0 -73c-1 -26 -5 -53 -3 -80c1 -9 -1 -19 -3 -28c-6 -24 -8 -49 -5 -74
c2 -10 6 -13 15 -12c7 0 14 3 22 1c2 -1 5 -2 5 -7c-11 -10 -31 1 -43 -14c8 -4 14 -1 20 1c35 9 70 14 105 24c18 5 37 2 55 6c5 1 10 -1 14 -4c6 -6 12 -11 18 -16c-6 -8 -17 -4 -24 -9c-2 -6 4 -9 6 -14c5 -7 3 -13 -6 -13c-16 1 -30 -6 -45 -10c-11 -2 -22 -5 -33 -5
c-31 0 -61 0 -91 -6c-8 -2 -15 -2 -17 -14c-1 -8 -7 -9 -14 -3c-8 6 -15 3 -23 2c-39 -6 -77 -9 -117 -8c-6 0 -11 5 -17 7c-5 2 -6 6 -6 10c0 6 3 8 8 9c16 5 32 7 50 16c0 23 -1 46 0 70c6 74 2 144 8 218c5 72 7 145 9 217c1 36 -2 72 -2 107c0 9 -4 13 -12 13
c-13 0 -11 7 -24 9c-6 1 -11 3 -14 10c21 7 28 7 48 11c1 6 2 11 2 16c0 10 1 18 14 16c1 0 3 0 3 1c18 17 35 7 53 1zM49 63c-11 -10 -7 -32 -9 -44c16 2 16 2 14 13c-1 7 1 24 -5 31z" />
    <glyph glyph-name="Edieresis" unicode="&#xcb;" horiz-adv-x="400" 
d="M119 848c6 4 10 0 14 -1c8 -3 16 -8 16 -18c0 -3 3 -5 6 -7c11 -7 16 -28 7 -37c-1 -2 -3 -3 -3 -6c2 -3 4 -2 6 -1c6 1 10 -6 7 -10c-5 -8 -10 -15 -20 -13c-6 1 -12 -4 -19 -3h-2c-12 -11 -21 2 -31 5c-2 1 -6 4 -9 5c-4 1 -7 3 -7 6c-4 12 -12 23 -5 36c3 5 0 8 3 13
s5 10 11 12c10 3 18 11 26 19zM245 841c12 -10 26 -4 37 -9c9 -3 19 -11 18 -25c-1 -4 -1 -10 2 -15c1 -2 0 -4 -2 -5c-5 -6 -6 -15 -12 -20c-9 -11 -21 -18 -36 -14c-2 0 -3 1 -5 0c-9 -1 -17 2 -22 11c-1 2 -1 4 -4 4c-11 4 -13 15 -12 23c1 16 3 31 15 41c6 5 12 7 17 9
c1 0 4 1 4 0zM113 706c13 -5 25 -8 33 -20c1 -1 5 -1 7 0c42 7 85 6 127 13c11 1 22 4 33 4c20 1 42 -14 52 -35c-23 -6 -46 -11 -69 -11c-23 1 -45 2 -68 1c-21 -1 -42 -7 -63 -8c-6 0 -9 -4 -11 -10c-7 -29 -1 -57 3 -86c1 -10 0 -20 0 -31c-2 -43 -4 -86 0 -130
c33 5 65 -4 97 1c16 3 25 -11 38 -20c-8 -7 -14 -11 -22 -12c-10 -1 -19 -3 -29 -7c-23 -8 -47 -9 -72 -10c-13 -1 -13 -1 -12 -14c1 -24 1 -48 0 -73c-1 -26 -5 -53 -3 -80c1 -9 -1 -19 -3 -28c-6 -24 -8 -49 -5 -74c2 -10 6 -13 15 -12c7 0 14 3 22 1c2 -1 5 -2 5 -7
c-11 -10 -31 1 -43 -14c8 -4 14 -1 20 1c35 9 70 14 105 24c18 5 37 2 55 6c5 1 10 -1 14 -4c6 -6 12 -11 18 -16c-6 -8 -17 -4 -24 -9c-2 -6 4 -9 6 -14c5 -7 3 -13 -6 -13c-16 1 -30 -6 -45 -10c-11 -2 -22 -5 -33 -5c-31 0 -61 0 -91 -6c-8 -2 -15 -2 -17 -14
c-1 -8 -7 -9 -14 -3c-8 6 -15 3 -23 2c-39 -6 -77 -9 -117 -8c-6 0 -11 5 -17 7c-5 2 -6 6 -6 10c0 6 3 8 8 9c16 5 32 7 50 16c0 23 -1 46 0 70c6 74 2 144 8 218c5 72 7 145 9 217c1 36 -2 72 -2 107c0 9 -4 13 -12 13c-13 0 -11 7 -24 9c-6 1 -11 3 -14 10
c21 7 28 7 48 11c1 6 2 11 2 16c0 10 1 18 14 16c1 0 3 0 3 1c18 17 35 7 53 1zM49 63c-11 -10 -7 -32 -9 -44c16 2 16 2 14 13c-1 7 1 24 -5 31z" />
    <glyph glyph-name="Edotaccent" unicode="&#x116;" horiz-adv-x="400" 
d="M207 834c6 -7 15 -5 20 -10c5 -3 7 -5 4 -10c-4 -5 1 -10 3 -13c4 -6 4 -10 1 -15s-4 -11 -4 -17c0 -13 -11 -23 -24 -20c-5 1 -11 1 -13 -2c-10 -6 -18 -2 -26 0c-8 3 -13 10 -14 18c-2 7 -7 12 -9 18c-3 3 -4 9 -3 13c4 24 13 32 38 36c7 1 14 -1 20 2c2 1 6 1 7 0z
M113 706c13 -5 25 -8 33 -20c1 -1 5 -1 7 0c42 7 85 6 127 13c11 1 22 4 33 4c20 1 42 -14 52 -35c-23 -6 -46 -11 -69 -11c-23 1 -45 2 -68 1c-21 -1 -42 -7 -63 -8c-6 0 -9 -4 -11 -10c-7 -29 -1 -57 3 -86c1 -10 0 -20 0 -31c-2 -43 -4 -86 0 -130c33 5 65 -4 97 1
c16 3 25 -11 38 -20c-8 -7 -14 -11 -22 -12c-10 -1 -19 -3 -29 -7c-23 -8 -47 -9 -72 -10c-13 -1 -13 -1 -12 -14c1 -24 1 -48 0 -73c-1 -26 -5 -53 -3 -80c1 -9 -1 -19 -3 -28c-6 -24 -8 -49 -5 -74c2 -10 6 -13 15 -12c7 0 14 3 22 1c2 -1 5 -2 5 -7
c-11 -10 -31 1 -43 -14c8 -4 14 -1 20 1c35 9 70 14 105 24c18 5 37 2 55 6c5 1 10 -1 14 -4c6 -6 12 -11 18 -16c-6 -8 -17 -4 -24 -9c-2 -6 4 -9 6 -14c5 -7 3 -13 -6 -13c-16 1 -30 -6 -45 -10c-11 -2 -22 -5 -33 -5c-31 0 -61 0 -91 -6c-8 -2 -15 -2 -17 -14
c-1 -8 -7 -9 -14 -3c-8 6 -15 3 -23 2c-39 -6 -77 -9 -117 -8c-6 0 -11 5 -17 7c-5 2 -6 6 -6 10c0 6 3 8 8 9c16 5 32 7 50 16c0 23 -1 46 0 70c6 74 2 144 8 218c5 72 7 145 9 217c1 36 -2 72 -2 107c0 9 -4 13 -12 13c-13 0 -11 7 -24 9c-6 1 -11 3 -14 10
c21 7 28 7 48 11c1 6 2 11 2 16c0 10 1 18 14 16c1 0 3 0 3 1c18 17 35 7 53 1zM49 63c-11 -10 -7 -32 -9 -44c16 2 16 2 14 13c-1 7 1 24 -5 31z" />
    <glyph glyph-name="Egrave" unicode="&#xc8;" horiz-adv-x="400" 
d="M79 896c4 1 8 1 10 -2c5 -9 9 -7 15 -3c9 7 24 8 32 1c15 -12 27 -21 34 -39c10 -16 29 -23 39 -38c2 -3 4 -6 3 -10c-2 -2 -1 -5 2 -8c5 -1 8 -7 14 -7c5 -3 9 -12 11 -17c-7 -1 -14 -4 -17 -2c-5 -1 -7 5 -6 0c0 -4 0 -11 -8 -8c-4 0 -5 -2 -5 -5c0 -7 -6 -5 -8 -2
c-5 7 -13 7 -21 11c-17 10 -35 21 -51 33c-10 7 -13 18 -24 24c-7 4 -15 6 -21 12c-8 10 -18 18 -12 32c0 3 -1 5 -2 8c8 0 11 5 13 12c-1 3 -1 6 2 8zM113 706c13 -5 25 -8 33 -20c1 -1 5 -1 7 0c42 7 85 6 127 13c11 1 22 4 33 4c20 1 42 -14 52 -35
c-23 -6 -46 -11 -69 -11c-23 1 -45 2 -68 1c-21 -1 -42 -7 -63 -8c-6 0 -9 -4 -11 -10c-7 -29 -1 -57 3 -86c1 -10 0 -20 0 -31c-2 -43 -4 -86 0 -130c33 5 65 -4 97 1c16 3 25 -11 38 -20c-8 -7 -14 -11 -22 -12c-10 -1 -19 -3 -29 -7c-23 -8 -47 -9 -72 -10
c-13 -1 -13 -1 -12 -14c1 -24 1 -48 0 -73c-1 -26 -5 -53 -3 -80c1 -9 -1 -19 -3 -28c-6 -24 -8 -49 -5 -74c2 -10 6 -13 15 -12c7 0 14 3 22 1c2 -1 5 -2 5 -7c-11 -10 -31 1 -43 -14c8 -4 14 -1 20 1c35 9 70 14 105 24c18 5 37 2 55 6c5 1 10 -1 14 -4
c6 -6 12 -11 18 -16c-6 -8 -17 -4 -24 -9c-2 -6 4 -9 6 -14c5 -7 3 -13 -6 -13c-16 1 -30 -6 -45 -10c-11 -2 -22 -5 -33 -5c-31 0 -61 0 -91 -6c-8 -2 -15 -2 -17 -14c-1 -8 -7 -9 -14 -3c-8 6 -15 3 -23 2c-39 -6 -77 -9 -117 -8c-6 0 -11 5 -17 7c-5 2 -6 6 -6 10
c0 6 3 8 8 9c16 5 32 7 50 16c0 23 -1 46 0 70c6 74 2 144 8 218c5 72 7 145 9 217c1 36 -2 72 -2 107c0 9 -4 13 -12 13c-13 0 -11 7 -24 9c-6 1 -11 3 -14 10c21 7 28 7 48 11c1 6 2 11 2 16c0 10 1 18 14 16c1 0 3 0 3 1c18 17 35 7 53 1zM49 63c-11 -10 -7 -32 -9 -44
c16 2 16 2 14 13c-1 7 1 24 -5 31z" />
    <glyph glyph-name="Emacron" unicode="&#x112;" horiz-adv-x="400" 
d="M219 824c20 1 34 0 47 -4c4 -1 7 -1 10 0c4 1 8 2 9 -3c1 -4 -2 -8 -7 -8c-2 0 -4 1 -7 -1c7 -2 12 -7 18 -8c7 0 12 -4 16 -7c5 -3 3 -8 0 -9c-4 -1 -5 -2 -2 -6c2 -4 1 -6 -3 -6c-3 -2 -9 -2 -14 -3c-26 -3 -50 -5 -81 -7h-25c-14 1 -28 0 -42 0c-6 0 -11 0 -17 -1
c-17 -4 -28 2 -41 16c-15 16 -8 19 7 32c-3 3 -6 2 -8 2c-2 -1 -3 -1 -4 1c-2 1 1 2 2 3c5 3 10 6 15 7c16 3 31 3 47 2c27 -3 54 -3 80 0zM113 706c13 -5 25 -8 33 -20c1 -1 5 -1 7 0c42 7 85 6 127 13c11 1 22 4 33 4c20 1 42 -14 52 -35c-23 -6 -46 -11 -69 -11
c-23 1 -45 2 -68 1c-21 -1 -42 -7 -63 -8c-6 0 -9 -4 -11 -10c-7 -29 -1 -57 3 -86c1 -10 0 -20 0 -31c-2 -43 -4 -86 0 -130c33 5 65 -4 97 1c16 3 25 -11 38 -20c-8 -7 -14 -11 -22 -12c-10 -1 -19 -3 -29 -7c-23 -8 -47 -9 -72 -10c-13 -1 -13 -1 -12 -14
c1 -24 1 -48 0 -73c-1 -26 -5 -53 -3 -80c1 -9 -1 -19 -3 -28c-6 -24 -8 -49 -5 -74c2 -10 6 -13 15 -12c7 0 14 3 22 1c2 -1 5 -2 5 -7c-11 -10 -31 1 -43 -14c8 -4 14 -1 20 1c35 9 70 14 105 24c18 5 37 2 55 6c5 1 10 -1 14 -4c6 -6 12 -11 18 -16c-6 -8 -17 -4 -24 -9
c-2 -6 4 -9 6 -14c5 -7 3 -13 -6 -13c-16 1 -30 -6 -45 -10c-11 -2 -22 -5 -33 -5c-31 0 -61 0 -91 -6c-8 -2 -15 -2 -17 -14c-1 -8 -7 -9 -14 -3c-8 6 -15 3 -23 2c-39 -6 -77 -9 -117 -8c-6 0 -11 5 -17 7c-5 2 -6 6 -6 10c0 6 3 8 8 9c16 5 32 7 50 16c0 23 -1 46 0 70
c6 74 2 144 8 218c5 72 7 145 9 217c1 36 -2 72 -2 107c0 9 -4 13 -12 13c-13 0 -11 7 -24 9c-6 1 -11 3 -14 10c21 7 28 7 48 11c1 6 2 11 2 16c0 10 1 18 14 16c1 0 3 0 3 1c18 17 35 7 53 1zM49 63c-11 -10 -7 -32 -9 -44c16 2 16 2 14 13c-1 7 1 24 -5 31z" />
    <glyph glyph-name="Eogonek" unicode="&#x118;" horiz-adv-x="400" 
d="M325 75c5 1 10 -1 14 -4c6 -6 12 -11 18 -16c-6 -8 -17 -4 -24 -9c-2 -6 4 -9 6 -14c5 -7 3 -13 -6 -13c-4 0 -8 0 -12 -1c-2 -2 -4 -4 -8 -6c-13 -8 -17 -13 -22 -18c-14 -14 -21 -26 -29 -40c-9 -14 -12 -29 -11 -44c0 -5 2 -6 4 -8c7 -15 18 -12 31 -12s22 1 31 5
s25 9 25 9c6 0 7 -6 2 -12c-3 -6 -5 -14 -14 -15c4 -7 7 0 12 -1c2 -1 3 -2 3 -5c3 -1 4 2 6 2c0 0 1 -5 -1 -6c-14 -12 -20 -23 -38 -31c-10 -6 -16 -7 -26 -9c-14 -3 -21 -4 -27 -4c-2 0 -19 0 -20 1l-20 8h-2c-15 0 -19 5 -26 11c-16 16 -24 35 -26 58c-1 7 -1 13 3 21
c1 1 1 4 1 7c1 9 5 14 11 20c7 7 10 18 16 26l38 29c-24 0 -47 -1 -70 -6c-8 -2 -15 -2 -17 -14c-1 -8 -7 -9 -14 -3c-8 6 -15 3 -23 2c-39 -6 -77 -9 -117 -8c-6 0 -11 5 -17 7c-5 2 -6 6 -6 10c0 6 3 8 8 9c16 5 32 7 50 16c0 23 -1 46 0 70c6 74 2 144 8 218
c5 72 7 145 9 217c1 36 -2 72 -2 107c0 9 -4 13 -12 13c-13 0 -11 7 -24 9c-6 1 -11 3 -14 10c21 7 28 7 48 11c1 6 2 11 2 16c0 10 1 18 14 16c1 0 3 0 3 1c18 17 35 7 53 1c13 -5 25 -8 33 -20c1 -1 5 -1 7 0c42 7 85 6 127 13c11 1 22 4 33 4c20 1 42 -14 52 -35
c-23 -6 -46 -11 -69 -11c-23 1 -45 2 -68 1c-21 -1 -42 -7 -63 -8c-6 0 -9 -4 -11 -10c-7 -29 -1 -57 3 -86c1 -10 0 -20 0 -31c-2 -43 -4 -86 0 -130c33 5 65 -4 97 1c16 3 25 -11 38 -20c-8 -7 -14 -11 -22 -12c-10 -1 -19 -3 -29 -7c-23 -8 -47 -9 -72 -10
c-13 -1 -13 -1 -12 -14c1 -24 1 -48 0 -73c-1 -26 -5 -53 -3 -80c1 -9 -1 -19 -3 -28c-6 -24 -8 -49 -5 -74c2 -10 6 -13 15 -12c7 0 14 3 22 1c2 -1 5 -2 5 -7c-11 -10 -31 1 -43 -14c8 -4 14 -1 20 1c35 9 70 14 105 24c18 5 37 2 55 6zM40 19c16 2 16 2 14 13
c-1 7 1 24 -5 31c-11 -10 -7 -32 -9 -44z" />
    <glyph glyph-name="F" unicode="F" horiz-adv-x="379" 
d="M76 712c7 -8 27 -13 29 -24c21 -1 31 1 50 3c29 3 59 1 88 6c33 6 67 2 100 6c4 1 8 0 10 -2c4 -4 -2 -8 -6 -10c-13 -8 -17 -17 -22 -31c-4 -8 -14 -12 -24 -14c-22 -4 -45 -3 -68 -3c-25 0 -43 -2 -67 -3c-18 -1 -43 -5 -47 -7c4 -19 2 -33 4 -52c4 -47 1 -99 7 -145
c1 -11 5 -14 19 -12c25 3 43 1 68 2c28 1 38 4 46 -5c-8 -8 -25 -15 -33 -18c-12 -5 -23 -8 -16 -11c10 -4 11 -10 -2 -14c-17 -5 -27 -5 -36 -5c-8 0 -20 -4 -31 -6c-4 -1 -11 -1 -11 -3c0 -37 3 -96 9 -133c3 -20 -1 -40 1 -61c3 -27 1 -55 8 -81c3 -9 3 -19 1 -28
c-2 -10 -2 -19 -2 -28c1 -16 -3 -32 -4 -48c-1 -13 -11 -8 -18 -12c-6 -11 -11 -7 -16 5c4 6 1 61 -7 61c-6 0 1 -30 -5 -43s-42 -6 -54 -1c-14 6 -17 9 -17 37c0 30 -1 61 0 92c1 34 -2 67 -3 101c-2 39 5 90 3 129c-1 17 -18 13 -22 17c-6 4 -3 18 -10 23s-1 10 7 14
c5 2 18 4 22 7c0 46 0 83 -1 129c-1 48 -7 91 -8 138c0 9 2 15 10 18c6 3 13 5 16 -5c2 -6 4 -4 11 -7c-3 21 9 18 21 24zM254 397c-5 2 -9 1 -13 1c-5 -2 -13 -5 -11 -11c1 -6 10 -1 15 0c4 2 5 3 9 10z" />
    <glyph glyph-name="G" unicode="G" 
d="M251 722c-8 -15 -24 -10 -36 -20c18 -1 33 -2 47 3c10 3 19 2 29 1c15 -2 28 -7 39 -15c16 -10 26 -27 27 -46c2 -19 0 -38 -3 -57l-3 -31c-1 -5 -1 -10 -4 -12c-13 -8 -10 -22 -16 -34c-6 0 -12 3 -18 0c-16 -6 -30 2 -36 19c-3 7 -3 15 -3 22c-2 23 -3 46 -4 70
c-1 12 -5 24 -7 36c-1 8 -6 13 -13 15c-30 10 -60 -1 -74 -29c-10 -21 -22 -41 -28 -63c-9 -34 -18 -68 -14 -104c3 -26 0 -52 1 -77c0 -21 2 -41 1 -62c-3 -62 14 -124 14 -187c0 -3 1 -6 1 -9c-10 -31 5 -56 18 -82c8 -16 12 -17 28 -9c25 13 42 31 70 40c6 2 9 6 9 13
c-2 60 5 121 4 181c0 1 0 3 -1 5c-21 6 -40 15 -63 12c-10 -1 -11 10 -14 16c2 5 6 6 10 6c27 0 53 10 79 13h4c11 14 15 4 20 -6c1 -1 4 -1 6 -2c6 9 2 20 9 29c9 -1 16 -8 26 -8c6 0 6 -6 6 -11c2 -19 6 -38 6 -57c1 -21 0 -41 2 -62c4 -42 1 -85 3 -127
c2 -22 1 -44 3 -66c1 -21 -7 -41 -27 -53c-3 -2 -3 -7 -8 -8c-19 20 -31 46 -51 65c-8 7 -7 19 -11 28c-7 0 -10 -5 -13 -9c-14 -17 -27 -34 -49 -39c-10 -14 -21 -12 -34 -17c-15 -6 -32 -5 -48 -3c-14 1 -27 3 -41 5c-20 3 -47 12 -55 38c-5 17 -10 40 -17 56
c-8 18 -8 37 -8 56c0 39 -7 70 -9 108c-1 26 4 51 6 76c0 11 2 22 1 32c-3 25 5 50 3 75c-3 35 10 67 17 101c2 5 4 9 5 14c6 44 31 77 61 107c9 10 22 18 33 27c2 1 4 2 5 2c29 0 50 21 74 31c13 4 26 1 41 3zM43 479c-6 -3 -8 -8 -8 -14c-2 -24 -4 -49 -5 -74
c0 -3 1 -6 7 -6c0 30 3 60 9 89c0 1 -2 3 -3 5z" />
    <glyph glyph-name="Gbreve" unicode="&#x11e;" 
d="M302 874c2 -1 2 -3 2 -5c-2 -7 -1 -7 6 -12c3 -2 0 -6 -2 -8c-4 -3 -6 -7 -7 -13c6 3 8 1 10 7c1 2 5 6 9 6c3 -2 11 5 9 -2c-2 -10 -12 -23 -19 -31l-16 -17c3 1 6 3 9 5c1 1 3 1 4 0c1 -2 1 -4 -1 -5s-3 -2 -5 -4c-14 -9 -25 -24 -42 -30c-11 -4 -22 -9 -34 -10
c-13 -1 -25 1 -38 0c-7 0 -12 5 -18 7c-22 9 -41 21 -56 38c-10 13 -19 28 -26 43c-4 5 -8 10 -5 17c2 8 10 13 18 10c7 -2 13 -1 19 -7c1 -1 3 0 3 0c5 5 10 6 14 -1c2 -4 2 2 4 2c1 -9 10 -13 15 -19s10 -12 18 -15c16 -10 33 -17 53 -11c2 2 6 2 9 3c5 1 9 2 11 8
c2 3 7 6 12 7c8 2 12 12 18 13c8 4 7 15 16 15c3 0 4 4 5 7c1 2 2 3 5 2zM251 722c-8 -15 -24 -10 -36 -20c18 -1 33 -2 47 3c10 3 19 2 29 1c15 -2 28 -7 39 -15c16 -10 26 -27 27 -46c2 -19 0 -38 -3 -57l-3 -31c-1 -5 -1 -10 -4 -12c-13 -8 -10 -22 -16 -34
c-6 0 -12 3 -18 0c-16 -6 -30 2 -36 19c-3 7 -3 15 -3 22c-2 23 -3 46 -4 70c-1 12 -5 24 -7 36c-1 8 -6 13 -13 15c-30 10 -60 -1 -74 -29c-10 -21 -22 -41 -28 -63c-9 -34 -18 -68 -14 -104c3 -26 0 -52 1 -77c0 -21 2 -41 1 -62c-3 -62 14 -124 14 -187c0 -3 1 -6 1 -9
c-10 -31 5 -56 18 -82c8 -16 12 -17 28 -9c25 13 42 31 70 40c6 2 9 6 9 13c-2 60 5 121 4 181c0 1 0 3 -1 5c-21 6 -40 15 -63 12c-10 -1 -11 10 -14 16c2 5 6 6 10 6c27 0 53 10 79 13h4c11 14 15 4 20 -6c1 -1 4 -1 6 -2c6 9 2 20 9 29c9 -1 16 -8 26 -8c6 0 6 -6 6 -11
c2 -19 6 -38 6 -57c1 -21 0 -41 2 -62c4 -42 1 -85 3 -127c2 -22 1 -44 3 -66c1 -21 -7 -41 -27 -53c-3 -2 -3 -7 -8 -8c-19 20 -31 46 -51 65c-8 7 -7 19 -11 28c-7 0 -10 -5 -13 -9c-14 -17 -27 -34 -49 -39c-10 -14 -21 -12 -34 -17c-15 -6 -32 -5 -48 -3
c-14 1 -27 3 -41 5c-20 3 -47 12 -55 38c-5 17 -10 40 -17 56c-8 18 -8 37 -8 56c0 39 -7 70 -9 108c-1 26 4 51 6 76c0 11 2 22 1 32c-3 25 5 50 3 75c-3 35 10 67 17 101c2 5 4 9 5 14c6 44 31 77 61 107c9 10 22 18 33 27c2 1 4 2 5 2c29 0 50 21 74 31c13 4 26 1 41 3z
M43 479c-6 -3 -8 -8 -8 -14c-2 -24 -4 -49 -5 -74c0 -3 1 -6 7 -6c0 30 3 60 9 89c0 1 -2 3 -3 5z" />
    <glyph glyph-name="Gcommaaccent" unicode="&#x122;" 
d="M251 722c-8 -15 -24 -10 -36 -20c18 -1 33 -2 47 3c10 3 19 2 29 1c15 -2 28 -7 39 -15c16 -10 26 -27 27 -46c2 -19 0 -38 -3 -57l-3 -31c-1 -5 -1 -10 -4 -12c-13 -8 -10 -22 -16 -34c-6 0 -12 3 -18 0c-16 -6 -30 2 -36 19c-3 7 -3 15 -3 22c-2 23 -3 46 -4 70
c-1 12 -5 24 -7 36c-1 8 -6 13 -13 15c-30 10 -60 -1 -74 -29c-10 -21 -22 -41 -28 -63c-9 -34 -18 -68 -14 -104c3 -26 0 -52 1 -77c0 -21 2 -41 1 -62c-3 -62 14 -124 14 -187c0 -3 1 -6 1 -9c-10 -31 5 -56 18 -82c8 -16 12 -17 28 -9c25 13 42 31 70 40c6 2 9 6 9 13
c-2 60 5 121 4 181c0 1 0 3 -1 5c-21 6 -40 15 -63 12c-10 -1 -11 10 -14 16c2 5 6 6 10 6c27 0 53 10 79 13h4c11 14 15 4 20 -6c1 -1 4 -1 6 -2c6 9 2 20 9 29c9 -1 16 -8 26 -8c6 0 6 -6 6 -11c2 -19 6 -38 6 -57c1 -21 0 -41 2 -62c4 -42 1 -85 3 -127
c2 -22 1 -44 3 -66c1 -21 -7 -41 -27 -53c-3 -2 -3 -7 -8 -8c-19 20 -31 46 -51 65c-8 7 -7 19 -11 28c-7 0 -10 -5 -13 -9c-14 -17 -27 -34 -49 -39c-10 -14 -21 -12 -34 -17c-15 -6 -32 -5 -48 -3c-14 1 -27 3 -41 5c-20 3 -47 12 -55 38c-5 17 -10 40 -17 56
c-8 18 -8 37 -8 56c0 39 -7 70 -9 108c-1 26 4 51 6 76c0 11 2 22 1 32c-3 25 5 50 3 75c-3 35 10 67 17 101c2 5 4 9 5 14c6 44 31 77 61 107c9 10 22 18 33 27c2 1 4 2 5 2c29 0 50 21 74 31c13 4 26 1 41 3zM43 479c-6 -3 -8 -8 -8 -14c-2 -24 -4 -49 -5 -74
c0 -3 1 -6 7 -6c0 30 3 60 9 89c0 1 -2 3 -3 5zM216 -52c2 0 4 -1 4 -2c23 -5 29 -22 31 -42c1 -20 -5 -38 -15 -56c-11 -19 -25 -35 -41 -49c-2 -2 -6 -6 -8 0c-1 3 -4 1 -5 -1c-2 -5 -5 -4 -9 -2c-3 2 -9 13 -7 17s2 6 0 9c-3 5 -3 10 2 15c3 4 5 8 8 13c1 1 6 2 3 6
c-2 1 -3 -3 -5 -3c-9 8 -13 21 -22 29c-5 5 -6 12 -5 18s2 13 7 18c5 6 8 13 13 19c7 7 16 9 25 4c3 0 4 -2 5 0c5 10 10 11 19 7z" />
    <glyph glyph-name="Gdotaccent" unicode="&#x120;" 
d="M223 834c6 -7 15 -5 20 -10c5 -3 7 -5 4 -10c-4 -5 1 -10 3 -13c4 -6 4 -10 1 -15s-4 -11 -4 -17c0 -13 -11 -23 -24 -20c-5 1 -11 1 -13 -2c-10 -6 -18 -2 -26 0c-8 3 -13 10 -14 18c-2 7 -7 12 -9 18c-3 3 -4 9 -3 13c4 24 13 32 38 36c7 1 14 -1 20 2c2 1 6 1 7 0z
M251 722c-8 -15 -24 -10 -36 -20c18 -1 33 -2 47 3c10 3 19 2 29 1c15 -2 28 -7 39 -15c16 -10 26 -27 27 -46c2 -19 0 -38 -3 -57l-3 -31c-1 -5 -1 -10 -4 -12c-13 -8 -10 -22 -16 -34c-6 0 -12 3 -18 0c-16 -6 -30 2 -36 19c-3 7 -3 15 -3 22c-2 23 -3 46 -4 70
c-1 12 -5 24 -7 36c-1 8 -6 13 -13 15c-30 10 -60 -1 -74 -29c-10 -21 -22 -41 -28 -63c-9 -34 -18 -68 -14 -104c3 -26 0 -52 1 -77c0 -21 2 -41 1 -62c-3 -62 14 -124 14 -187c0 -3 1 -6 1 -9c-10 -31 5 -56 18 -82c8 -16 12 -17 28 -9c25 13 42 31 70 40c6 2 9 6 9 13
c-2 60 5 121 4 181c0 1 0 3 -1 5c-21 6 -40 15 -63 12c-10 -1 -11 10 -14 16c2 5 6 6 10 6c27 0 53 10 79 13h4c11 14 15 4 20 -6c1 -1 4 -1 6 -2c6 9 2 20 9 29c9 -1 16 -8 26 -8c6 0 6 -6 6 -11c2 -19 6 -38 6 -57c1 -21 0 -41 2 -62c4 -42 1 -85 3 -127
c2 -22 1 -44 3 -66c1 -21 -7 -41 -27 -53c-3 -2 -3 -7 -8 -8c-19 20 -31 46 -51 65c-8 7 -7 19 -11 28c-7 0 -10 -5 -13 -9c-14 -17 -27 -34 -49 -39c-10 -14 -21 -12 -34 -17c-15 -6 -32 -5 -48 -3c-14 1 -27 3 -41 5c-20 3 -47 12 -55 38c-5 17 -10 40 -17 56
c-8 18 -8 37 -8 56c0 39 -7 70 -9 108c-1 26 4 51 6 76c0 11 2 22 1 32c-3 25 5 50 3 75c-3 35 10 67 17 101c2 5 4 9 5 14c6 44 31 77 61 107c9 10 22 18 33 27c2 1 4 2 5 2c29 0 50 21 74 31c13 4 26 1 41 3zM43 479c-6 -3 -8 -8 -8 -14c-2 -24 -4 -49 -5 -74
c0 -3 1 -6 7 -6c0 30 3 60 9 89c0 1 -2 3 -3 5z" />
    <glyph glyph-name="H" unicode="H" horiz-adv-x="456" 
d="M26 701c16 1 32 1 44 -11c2 -3 3 -3 6 -3c15 3 25 -8 36 -14c8 -4 13 -13 14 -23c1 -21 1 -41 0 -61v-6c3 -36 -1 -73 5 -110c8 -44 13 -90 14 -136c0 -3 0 -7 4 -12c22 3 45 7 68 11c1 0 2 0 2 1c12 16 30 9 46 12h8c19 2 17 3 22 21c6 22 -2 43 0 65c7 69 1 138 3 208
c0 8 -2 17 -3 26c-1 6 0 13 5 15c9 3 11 12 21 12c8 -1 10 -8 11 -14c4 -15 5 -32 6 -48c0 -7 0 -14 1 -20c2 -23 5 -46 5 -69c1 -24 0 -46 3 -70c0 -2 2 -4 7 -5c2 56 -3 162 -3 174c0 23 18 -27 18 -44c2 -37 3 -73 7 -109c0 -8 -2 -33 -1 -41c1 -35 -1 -70 3 -105
c2 -23 3 -45 -1 -68c-1 -6 3 -12 4 -18c4 -27 7 -55 4 -82v-11c6 -21 5 -43 6 -65c1 -12 -2 -25 -1 -38c0 -8 -5 -16 -12 -22c-6 -6 -10 -13 -12 -21c-2 -5 10 -6 3 -11c-8 -7 -15 -15 -25 -18c-7 -2 -13 -5 -20 -9c-15 8 -19 21 -17 37c1 3 2 7 1 9c-6 28 -4 57 -4 85
c1 17 -4 34 -3 51c0 18 -1 35 -3 53c-1 9 -3 20 6 28c1 1 1 5 1 5c-12 9 -6 21 -7 31c-1 5 -3 8 -8 8c-9 0 -18 0 -27 -1c-33 -1 -67 1 -101 -4c-3 0 -6 -1 -9 -2c-4 -9 -1 -17 0 -26c0 -11 4 -21 0 -33c-1 -3 0 -6 1 -9c3 -11 2 -20 0 -33c-4 -23 -4 -37 -4 -56
c0 -15 2 -25 1 -40c-1 -8 -3 -23 -1 -29c5 -12 0 -24 2 -36c1 -6 -3 -9 -9 -9c-20 -2 -54 -15 -60 1c-1 3 -6 2 -9 -7c-5 -14 -27 -8 -42 -9c-4 6 -6 13 -6 20c0 28 -3 55 -4 82c-1 20 1 40 1 59c-2 31 0 71 0 103c0 10 -2 10 -12 13c-11 4 -24 2 -31 14c8 5 18 7 26 9
c13 4 16 9 15 22c-4 45 -5 86 -4 131c0 65 1 130 0 196c0 7 1 14 -2 20c-4 9 -2 18 1 27c3 6 5 8 10 9z" />
    <glyph glyph-name="Hbar" unicode="&#x126;" horiz-adv-x="506" 
d="M471 516c2 -5 -3 -7 -7 -10c-3 -3 6 -8 2 -13c-5 -6 -12 -7 -19 -8c-15 -2 -29 -4 -44 -5c-1 -10 -2 -24 -1 -30c1 -35 -1 -70 3 -105c2 -23 3 -45 -1 -68c-1 -6 3 -12 4 -18c4 -27 7 -55 4 -82v-11c6 -21 5 -43 6 -65c1 -12 -2 -25 -1 -38c0 -8 -5 -16 -12 -22
c-6 -6 -10 -13 -12 -21c-2 -5 10 -6 3 -11c-8 -7 -15 -15 -25 -18c-7 -2 -13 -5 -20 -9c-15 8 -19 21 -17 37c1 3 2 7 1 9c-6 28 -4 57 -4 85c1 17 -4 34 -3 51c0 18 -1 35 -3 53c-1 9 -3 20 6 28c1 1 1 5 1 5c-12 9 -6 21 -7 31c-1 5 -3 8 -8 8c-9 0 -18 0 -27 -1
c-33 -1 -67 3 -101 -2c-3 0 -6 -1 -9 -2c-4 -9 -1 -17 0 -26c0 -11 4 -23 0 -35c-1 -3 0 -6 1 -9c3 -11 4 -22 2 -33c-3 -19 4 -37 4 -56c0 -15 4 -31 0 -46c-2 -8 1 -17 3 -23c5 -12 0 -24 2 -36c1 -6 -3 -9 -9 -9c-20 -2 -39 -11 -60 -4c-3 1 -6 -1 -9 -2
c-13 -6 -27 -8 -42 -9c-4 6 -6 13 -6 20c0 28 -3 55 -7 82c-3 20 -2 40 -2 59c-2 31 -8 62 -5 94c1 10 -2 50 -4 63c-7 45 -5 90 -4 135v25c-1 0 -2 -1 -3 -1c-7 -2 -13 -1 -19 0s-12 1 -18 0c-15 -4 -27 6 -29 21c-1 5 3 7 7 9c7 4 14 1 20 3c14 3 28 6 42 7
c0 44 1 88 0 132c0 7 1 14 -2 20c-4 9 -2 18 1 27c3 6 5 8 10 9c16 1 32 1 44 -11c2 -3 3 -3 6 -3c15 3 25 -8 36 -14c8 -4 13 -13 14 -23c1 -21 1 -41 0 -61v-6c2 -22 1 -45 2 -67c37 -1 115 0 171 0c0 42 -2 84 -1 127c0 8 -2 17 -3 26c-1 6 0 13 5 15c9 3 14 12 24 12
c8 -1 10 -8 11 -14c4 -15 5 -32 6 -48c0 -7 0 -14 1 -20c2 -23 5 -46 5 -69c1 -24 11 40 7 99c13 -19 15 -27 15 -44c2 -28 2 -55 5 -83c13 1 26 1 40 -2c8 -2 21 0 30 1zM322 370c6 22 -2 43 0 65c2 14 3 29 3 43c-50 -1 -120 -1 -167 -3v-2c8 -44 13 -77 14 -123
c0 -3 0 -7 4 -12c22 3 45 -6 68 -2c1 0 2 0 2 1c12 16 30 9 46 12h8c19 2 17 3 22 21z" />
    <glyph glyph-name="I" unicode="I" horiz-adv-x="251" 
d="M74 693c18 -3 38 -1 52 -16c17 -19 25 -41 27 -66c2 -44 2 -98 6 -145c3 -34 3 -68 7 -102c2 -13 2 -25 6 -37c7 -29 4 -57 0 -85c-6 -40 -5 -80 -7 -119c-1 -18 1 -36 -8 -53c-3 -7 -1 -14 1 -20c1 -6 5 -12 -3 -17c-3 -2 -1 -6 1 -8c5 -6 2 -11 -1 -17
c-8 -13 -8 -13 -20 -5c-8 5 -17 6 -21 0c-22 -34 -30 -3 -55 -6c-6 -1 -11 4 -13 10c-3 12 -8 22 -7 35c0 27 1 54 1 80c0 29 -6 56 -8 84c-6 68 -2 135 -6 202c-2 35 1 71 0 105c-2 41 1 93 2 134c1 15 1 15 17 15c3 1 5 1 7 1c3 7 -2 13 0 20c3 5 10 2 14 7c2 2 6 4 8 3z
M144 355l-5 42c-2 -6 -5 -29 -5 -42v-23c0 -4 6 -17 7 -22l2 -22c1 4 1 1 4 12s1 22 1 28s-3 20 -4 27z" />
    <glyph glyph-name="IJ" unicode="&#x132;" horiz-adv-x="530" 
d="M396 704c28 -9 29 -10 32 -39c2 -19 7 -37 13 -55c9 -31 7 -63 10 -94c2 -10 3 -19 6 -28c0 -50 7 -84 8 -132c0 -13 -1 -27 -5 -40c-8 -21 3 -55 3 -77c0 -45 -4 -90 -9 -135c-2 -21 -9 -42 -24 -61c-26 -33 -49 -54 -85 -75c-3 -2 -14 -5 -26 -3c15 19 45 28 63 49
c-12 3 -20 0 -28 -7c-16 -15 -34 -30 -52 -40c-11 -10 -12 -6 -35 -15c-12 -5 -26 0 -19 4s-1 7 -10 6c-12 -3 -33 -5 -34 9c-1 10 -23 28 13 38c26 7 46 22 65 44c29 35 37 71 35 116c-3 45 -1 89 -2 134c0 50 -1 101 -2 152c0 15 1 31 3 46c3 25 2 50 1 76
c-2 26 -2 52 -3 78v2c1 22 8 27 30 16c5 9 8 18 19 19c2 0 4 2 5 4c7 13 17 11 28 8zM74 693c18 -3 38 -1 52 -16c17 -19 25 -41 27 -66c2 -44 2 -98 6 -145c3 -34 3 -68 7 -102c2 -13 2 -25 6 -37c7 -29 4 -57 0 -85c-6 -40 -5 -80 -7 -119c-1 -18 1 -36 -8 -53
c-3 -7 -1 -14 1 -20c1 -6 5 -12 -3 -17c-3 -2 -1 -6 1 -8c5 -6 2 -11 -1 -17c-8 -13 -8 -13 -20 -5c-8 5 -17 6 -21 0c-22 -34 -30 -3 -55 -6c-6 -1 -11 4 -13 10c-3 12 -8 22 -7 35c0 27 1 54 1 80c0 29 -6 56 -8 84c-6 68 -2 135 -6 202c-2 35 1 71 0 105
c-2 41 1 93 2 134c1 15 1 15 17 15c3 1 5 1 7 1c3 7 -2 13 0 20c3 5 10 2 14 7c2 2 6 4 8 3zM144 355l-5 42c-2 -6 -5 -29 -5 -42v-23c0 -4 6 -17 7 -22l2 -22c1 4 1 1 4 12s1 22 1 28s-3 20 -4 27zM417 59c-7 -3 -7 -8 -11 -14c7 4 10 7 11 14z" />
    <glyph glyph-name="Iacute" unicode="&#xcd;" horiz-adv-x="251" 
d="M171 876c11 -3 22 2 32 -5c11 -6 16 -16 21 -27c2 -7 -4 -10 -8 -12c-9 -6 -18 -14 -25 -21c-9 -10 -17 -19 -31 -22c-7 -4 -12 -9 -18 -14c-13 -12 -27 -19 -36 -34c-4 -1 -10 -2 -15 -5c-1 5 5 11 0 13c-4 3 -7 -3 -12 -5c-3 0 -3 -3 -4 -4c-2 -4 -5 -5 -8 -5
c-4 2 -2 4 -2 6c0 3 -3 3 -5 3c-4 4 -4 6 -4 13c4 14 12 25 23 35c2 1 5 3 5 5c2 13 11 20 19 28c10 13 22 22 32 35c6 7 15 12 26 13c3 -2 6 0 8 1c0 1 1 2 2 2zM74 693c18 -3 38 -1 52 -16c17 -19 25 -41 27 -66c2 -44 2 -98 6 -145c3 -34 3 -68 7 -102c2 -13 2 -25 6 -37
c7 -29 4 -57 0 -85c-6 -40 -5 -80 -7 -119c-1 -18 1 -36 -8 -53c-3 -7 -1 -14 1 -20c1 -6 5 -12 -3 -17c-3 -2 -1 -6 1 -8c5 -6 2 -11 -1 -17c-8 -13 -8 -13 -20 -5c-8 5 -17 6 -21 0c-22 -34 -30 -3 -55 -6c-6 -1 -11 4 -13 10c-3 12 -8 22 -7 35c0 27 1 54 1 80
c0 29 -6 56 -8 84c-6 68 -2 135 -6 202c-2 35 1 71 0 105c-2 41 1 93 2 134c1 15 1 15 17 15c3 1 5 1 7 1c3 7 -2 13 0 20c3 5 10 2 14 7c2 2 6 4 8 3zM144 355l-5 42c-2 -6 -5 -29 -5 -42v-23c0 -4 6 -17 7 -22l2 -22c1 4 1 1 4 12s1 22 1 28s-3 20 -4 27z" />
    <glyph glyph-name="Icircumflex" unicode="&#xce;" horiz-adv-x="251" 
d="M94 883c10 -2 16 -9 24 -16c24 -19 38 -45 59 -68c7 -7 16 -14 21 -25c4 -7 7 -17 8 -26c0 -4 -1 -7 -3 -8c-4 -2 -5 2 -7 4c0 1 -1 2 -2 3c-2 -3 3 -5 -1 -7c-3 -2 -5 1 -7 2c-10 3 -17 11 -23 19c-2 -6 5 -9 5 -15c0 -2 2 -4 2 -5c1 -2 0 -4 -2 -5c-1 0 -2 0 -3 1
c-7 14 -23 18 -33 26c-18 13 -36 28 -50 46l-4 3c-12 -16 -25 -29 -42 -38c-5 -4 -8 -8 -12 -13c-9 -10 -22 -17 -34 -24c-10 -6 -10 -6 -12 5c-1 3 0 7 -5 7c-1 0 -2 1 -2 2c3 7 -2 14 -1 22c1 7 7 12 11 17c11 13 21 27 30 41c8 9 15 19 24 27c5 3 5 9 9 12
c5 6 9 -3 14 -1c7 4 14 4 21 3c5 0 6 1 6 5c0 9 1 9 9 6zM74 693c18 -3 38 -1 52 -16c17 -19 25 -41 27 -66c2 -44 2 -98 6 -145c3 -34 3 -68 7 -102c2 -13 2 -25 6 -37c7 -29 4 -57 0 -85c-6 -40 -5 -80 -7 -119c-1 -18 1 -36 -8 -53c-3 -7 -1 -14 1 -20c1 -6 5 -12 -3 -17
c-3 -2 -1 -6 1 -8c5 -6 2 -11 -1 -17c-8 -13 -8 -13 -20 -5c-8 5 -17 6 -21 0c-22 -34 -30 -3 -55 -6c-6 -1 -11 4 -13 10c-3 12 -8 22 -7 35c0 27 1 54 1 80c0 29 -6 56 -8 84c-6 68 -2 135 -6 202c-2 35 1 71 0 105c-2 41 1 93 2 134c1 15 1 15 17 15c3 1 5 1 7 1
c3 7 -2 13 0 20c3 5 10 2 14 7c2 2 6 4 8 3zM144 355l-5 42c-2 -6 -5 -29 -5 -42v-23c0 -4 6 -17 7 -22l2 -22c1 4 1 1 4 12s1 22 1 28s-3 20 -4 27z" />
    <glyph glyph-name="Idieresis" unicode="&#xcf;" horiz-adv-x="251" 
d="M18 838c6 4 10 0 14 -1c8 -3 16 -8 16 -18c0 -3 3 -5 6 -7c11 -7 16 -28 7 -37c-1 -2 -3 -3 -3 -6c2 -3 4 -2 6 -1c6 1 10 -6 7 -10c-5 -8 -10 -15 -20 -13c-6 1 -12 -4 -19 -3h-2c-12 -11 -21 2 -31 5c-2 1 -6 4 -9 5c-4 1 -7 3 -7 6c-4 12 -12 23 -5 36c3 5 0 8 3 13
s5 10 11 12c10 3 18 11 26 19zM144 831c12 -10 26 -4 37 -9c9 -3 19 -11 18 -25c-1 -4 -1 -10 2 -15c1 -2 0 -4 -2 -5c-5 -6 -6 -15 -12 -20c-9 -11 -21 -18 -36 -14c-2 0 -3 1 -5 0c-9 -1 -17 2 -22 11c-1 2 -1 4 -4 4c-11 4 -13 15 -12 23c1 16 3 31 15 41c6 5 12 7 17 9
c1 0 4 1 4 0zM74 693c18 -3 38 -1 52 -16c17 -19 25 -41 27 -66c2 -44 2 -98 6 -145c3 -34 3 -68 7 -102c2 -13 2 -25 6 -37c7 -29 4 -57 0 -85c-6 -40 -5 -80 -7 -119c-1 -18 1 -36 -8 -53c-3 -7 -1 -14 1 -20c1 -6 5 -12 -3 -17c-3 -2 -1 -6 1 -8c5 -6 2 -11 -1 -17
c-8 -13 -8 -13 -20 -5c-8 5 -17 6 -21 0c-22 -34 -30 -3 -55 -6c-6 -1 -11 4 -13 10c-3 12 -8 22 -7 35c0 27 1 54 1 80c0 29 -6 56 -8 84c-6 68 -2 135 -6 202c-2 35 1 71 0 105c-2 41 1 93 2 134c1 15 1 15 17 15c3 1 5 1 7 1c3 7 -2 13 0 20c3 5 10 2 14 7c2 2 6 4 8 3z
M144 355l-5 42c-2 -6 -5 -29 -5 -42v-23c0 -4 6 -17 7 -22l2 -22c1 4 1 1 4 12s1 22 1 28s-3 20 -4 27z" />
    <glyph glyph-name="Idotaccent" unicode="&#x130;" horiz-adv-x="251" 
d="M106 824c6 -7 15 -5 20 -10c5 -3 7 -5 4 -10c-4 -5 1 -10 3 -13c4 -6 4 -10 1 -15s-4 -11 -4 -17c0 -13 -11 -23 -24 -20c-5 1 -11 1 -13 -2c-10 -6 -18 -2 -26 0c-8 3 -13 10 -14 18c-2 7 -7 12 -9 18c-3 3 -4 9 -3 13c4 24 13 32 38 36c7 1 14 -1 20 2c2 1 6 1 7 0z
M74 693c18 -3 38 -1 52 -16c17 -19 25 -41 27 -66c2 -44 2 -98 6 -145c3 -34 3 -68 7 -102c2 -13 2 -25 6 -37c7 -29 4 -57 0 -85c-6 -40 -5 -80 -7 -119c-1 -18 1 -36 -8 -53c-3 -7 -1 -14 1 -20c1 -6 5 -12 -3 -17c-3 -2 -1 -6 1 -8c5 -6 2 -11 -1 -17
c-8 -13 -8 -13 -20 -5c-8 5 -17 6 -21 0c-22 -34 -30 -3 -55 -6c-6 -1 -11 4 -13 10c-3 12 -8 22 -7 35c0 27 1 54 1 80c0 29 -6 56 -8 84c-6 68 -2 135 -6 202c-2 35 1 71 0 105c-2 41 1 93 2 134c1 15 1 15 17 15c3 1 5 1 7 1c3 7 -2 13 0 20c3 5 10 2 14 7c2 2 6 4 8 3z
M144 355l-5 42c-2 -6 -5 -29 -5 -42v-23c0 -4 6 -17 7 -22l2 -22c1 4 1 1 4 12s1 22 1 28s-3 20 -4 27z" />
    <glyph glyph-name="Igrave" unicode="&#xcc;" horiz-adv-x="251" 
d="M-22 886c4 1 8 1 10 -2c5 -9 9 -7 15 -3c9 7 24 8 32 1c15 -12 27 -21 34 -39c10 -16 29 -23 39 -38c2 -3 4 -6 3 -10c-2 -2 -1 -5 2 -8c5 -1 8 -7 14 -7c5 -3 9 -12 11 -17c-7 -1 -14 -4 -17 -2c-5 -1 -7 5 -6 0c0 -4 0 -11 -8 -8c-4 0 -5 -2 -5 -5c0 -7 -6 -5 -8 -2
c-5 7 -13 7 -21 11c-17 10 -35 21 -51 33c-10 7 -13 18 -24 24c-7 4 -15 6 -21 12c-8 10 -18 18 -12 32c0 3 -1 5 -2 8c8 0 11 5 13 12c-1 3 -1 6 2 8zM74 693c18 -3 38 -1 52 -16c17 -19 25 -41 27 -66c2 -44 2 -98 6 -145c3 -34 3 -68 7 -102c2 -13 2 -25 6 -37
c7 -29 4 -57 0 -85c-6 -40 -5 -80 -7 -119c-1 -18 1 -36 -8 -53c-3 -7 -1 -14 1 -20c1 -6 5 -12 -3 -17c-3 -2 -1 -6 1 -8c5 -6 2 -11 -1 -17c-8 -13 -8 -13 -20 -5c-8 5 -17 6 -21 0c-22 -34 -30 -3 -55 -6c-6 -1 -11 4 -13 10c-3 12 -8 22 -7 35c0 27 1 54 1 80
c0 29 -6 56 -8 84c-6 68 -2 135 -6 202c-2 35 1 71 0 105c-2 41 1 93 2 134c1 15 1 15 17 15c3 1 5 1 7 1c3 7 -2 13 0 20c3 5 10 2 14 7c2 2 6 4 8 3zM144 355l-5 42c-2 -6 -5 -29 -5 -42v-23c0 -4 6 -17 7 -22l2 -22c1 4 1 1 4 12s1 22 1 28s-3 20 -4 27z" />
    <glyph glyph-name="Imacron" unicode="&#x12a;" horiz-adv-x="251" 
d="M118 814c20 1 34 0 47 -4c4 -1 7 -1 10 0c4 1 8 2 9 -3c1 -4 -2 -8 -7 -8c-2 0 -4 1 -7 -1c7 -2 12 -7 18 -8c7 0 12 -4 16 -7c5 -3 3 -8 0 -9c-4 -1 -5 -2 -2 -6c2 -4 1 -6 -3 -6c-3 -2 -9 -2 -14 -3c-26 -3 -50 -5 -81 -7h-25c-14 1 -28 0 -42 0c-6 0 -11 0 -17 -1
c-17 -4 -28 2 -41 16c-15 16 -8 19 7 32c-3 3 -6 2 -8 2c-2 -1 -3 -1 -4 1c-2 1 1 2 2 3c5 3 10 6 15 7c16 3 31 3 47 2c27 -3 54 -3 80 0zM74 693c18 -3 38 -1 52 -16c17 -19 25 -41 27 -66c2 -44 2 -98 6 -145c3 -34 3 -68 7 -102c2 -13 2 -25 6 -37c7 -29 4 -57 0 -85
c-6 -40 -5 -80 -7 -119c-1 -18 1 -36 -8 -53c-3 -7 -1 -14 1 -20c1 -6 5 -12 -3 -17c-3 -2 -1 -6 1 -8c5 -6 2 -11 -1 -17c-8 -13 -8 -13 -20 -5c-8 5 -17 6 -21 0c-22 -34 -30 -3 -55 -6c-6 -1 -11 4 -13 10c-3 12 -8 22 -7 35c0 27 1 54 1 80c0 29 -6 56 -8 84
c-6 68 -2 135 -6 202c-2 35 1 71 0 105c-2 41 1 93 2 134c1 15 1 15 17 15c3 1 5 1 7 1c3 7 -2 13 0 20c3 5 10 2 14 7c2 2 6 4 8 3zM144 355l-5 42c-2 -6 -5 -29 -5 -42v-23c0 -4 6 -17 7 -22l2 -22c1 4 1 1 4 12s1 22 1 28s-3 20 -4 27z" />
    <glyph glyph-name="Iogonek" unicode="&#x12e;" horiz-adv-x="251" 
d="M181 -140c0 0 1 -5 -1 -6c-14 -12 -20 -23 -38 -31c-10 -6 -16 -7 -26 -9c-14 -3 -21 -4 -27 -4c-2 0 -19 0 -20 1l-20 8h-2c-15 0 -19 5 -26 11c-16 16 -24 35 -26 58c-1 7 -1 13 3 21c1 1 1 4 1 7c1 9 5 14 11 20c7 7 10 18 16 26l45 34c-4 1 -8 2 -12 1
c-6 -1 -11 4 -13 10c-3 12 -8 22 -7 35c0 27 1 54 1 80c0 29 -6 56 -8 84c-6 68 -2 135 -6 202c-2 35 1 71 0 105c-2 41 1 93 2 134c1 15 1 15 17 15c3 1 5 1 7 1c3 7 -2 13 0 20c3 5 10 2 14 7c2 2 6 4 8 3c18 -3 38 -1 52 -16c17 -19 25 -41 27 -66c2 -44 2 -98 6 -145
c3 -34 3 -68 7 -102c2 -13 2 -25 6 -37c7 -29 4 -57 0 -85c-6 -40 -5 -80 -7 -119c-1 -18 1 -36 -8 -53c-3 -7 -1 -14 1 -20c1 -6 5 -12 -3 -17c-3 -2 -1 -6 1 -8s3 -5 3 -7h2l-3 -4l-3 -6c-6 -10 -7 -12 -13 -9c-12 -8 -16 -13 -21 -18c-14 -14 -21 -26 -29 -40
c-9 -14 -12 -29 -11 -44c0 -5 2 -6 4 -8c7 -15 18 -12 31 -12s22 1 31 5s25 9 25 9c6 0 7 -6 2 -12c-3 -6 -5 -14 -14 -15c4 -7 7 0 12 -1c2 -1 3 -2 3 -5c3 -1 4 2 6 2zM134 355v-23c0 -4 6 -17 7 -22l2 -22c1 4 1 1 4 12s1 22 1 28s-3 20 -4 27l-5 42c-2 -6 -5 -29 -5 -42
z" />
    <glyph glyph-name="J" unicode="J" horiz-adv-x="279" 
d="M145 704c28 -9 29 -10 32 -39c2 -19 7 -37 13 -55c9 -31 7 -63 10 -94c2 -10 3 -19 6 -28c0 -50 7 -84 8 -132c0 -13 -1 -27 -5 -40c-8 -21 3 -55 3 -77c0 -45 -4 -90 -9 -135c-2 -21 -9 -42 -24 -61c-26 -33 -49 -54 -85 -75c-3 -2 -14 -5 -26 -3c15 19 45 28 63 49
c-12 3 -20 0 -28 -7c-16 -15 -34 -30 -52 -40c-11 -10 -12 -6 -35 -15c-12 -5 -26 0 -19 4s-1 7 -10 6c-12 -3 -33 -5 -34 9c-1 10 -23 28 13 38c26 7 46 22 65 44c29 35 37 71 35 116c-3 45 -1 89 -2 134c0 50 -1 101 -2 152c0 15 1 31 3 46c3 25 2 50 1 76
c-2 26 -2 52 -3 78v2c1 22 8 27 30 16c5 9 8 18 19 19c2 0 4 2 5 4c7 13 17 11 28 8zM166 59c-7 -3 -7 -8 -11 -14c7 4 10 7 11 14z" />
    <glyph glyph-name="K" unicode="K" horiz-adv-x="436" 
d="M367 701c5 6 17 -1 18 -10c0 -5 -1 -11 -5 -16c-12 -19 -26 -39 -40 -57c-14 -19 -26 -39 -38 -58c-3 -5 -6 -11 -10 -16c-5 -8 -13 -15 -15 -24c-1 -8 -7 -14 -9 -23c-2 -15 -15 -24 -25 -33c-15 -15 -16 -29 -8 -49c11 -29 24 -58 36 -88c3 -9 8 -18 9 -28
c1 -11 9 -18 13 -27c17 -47 39 -92 63 -136c13 -25 28 -50 36 -78c2 -4 3 -8 3 -12c1 -12 4 -23 10 -34c3 -5 8 -10 5 -18c-14 4 -26 4 -33 -13c-1 -3 -4 1 -6 0c-9 -3 -17 -2 -26 -4c-16 -5 -29 5 -40 15c-9 8 -17 16 -28 21c-4 -3 1 -9 -4 -13c-11 4 -17 13 -21 24
c-12 35 -23 71 -33 107c-11 36 -23 71 -34 106c-11 37 -24 73 -31 112c0 4 -3 7 -5 12c-9 -6 -8 -13 -8 -21c3 -32 6 -65 8 -98c2 -53 8 -105 6 -157c0 -11 0 -22 -8 -31c-3 -4 -2 -9 -4 -14c-2 -8 -1 -18 -15 -18c-9 0 -5 -13 -10 -20c-11 7 -21 -2 -31 -5
c-21 -6 -41 3 -45 24c-3 20 -5 41 -6 61c-3 48 -7 95 -11 142c-3 41 -5 82 -6 124c0 47 -3 94 -3 142c-1 39 -3 79 3 118c1 8 -1 16 -1 24c-1 8 -4 19 -1 24c9 10 17 19 12 34c-1 1 3 4 6 3c9 -2 16 1 23 5c15 8 29 6 44 2c11 -2 18 -9 20 -21c4 -24 7 -47 7 -71
c0 -12 0 -23 2 -34c4 -22 2 -45 2 -67c1 -33 3 -66 5 -101c12 9 18 20 25 30c18 24 35 50 52 75c31 46 64 91 99 134c11 13 24 25 33 40c5 7 14 8 20 16z" />
    <glyph glyph-name="Kcommaaccent" unicode="&#x136;" horiz-adv-x="436" 
d="M367 701c5 6 17 -1 18 -10c0 -5 -1 -11 -5 -16c-12 -19 -26 -39 -40 -57c-14 -19 -26 -39 -38 -58c-3 -5 -6 -11 -10 -16c-5 -8 -13 -15 -15 -24c-1 -8 -7 -14 -9 -23c-2 -15 -15 -24 -25 -33c-15 -15 -16 -29 -8 -49c11 -29 24 -58 36 -88c3 -9 8 -18 9 -28
c1 -11 9 -18 13 -27c17 -47 39 -92 63 -136c13 -25 28 -50 36 -78c2 -4 3 -8 3 -12c1 -12 4 -23 10 -34c3 -5 8 -10 5 -18c-14 4 -26 4 -33 -13c-1 -3 -4 1 -6 0c-9 -3 -17 -2 -26 -4c-16 -5 -29 5 -40 15c-9 8 -17 16 -28 21c-4 -3 1 -9 -4 -13c-11 4 -17 13 -21 24
c-12 35 -23 71 -33 107c-11 36 -23 71 -34 106c-11 37 -24 73 -31 112c0 4 -3 7 -5 12c-9 -6 -8 -13 -8 -21c3 -32 6 -65 8 -98c2 -53 8 -105 6 -157c0 -11 0 -22 -8 -31c-3 -4 -2 -9 -4 -14c-2 -8 -1 -18 -15 -18c-9 0 -5 -13 -10 -20c-11 7 -21 -2 -31 -5
c-21 -6 -41 3 -45 24c-3 20 -5 41 -6 61c-3 48 -7 95 -11 142c-3 41 -5 82 -6 124c0 47 -3 94 -3 142c-1 39 -3 79 3 118c1 8 -1 16 -1 24c-1 8 -4 19 -1 24c9 10 17 19 12 34c-1 1 3 4 6 3c9 -2 16 1 23 5c15 8 29 6 44 2c11 -2 18 -9 20 -21c4 -24 7 -47 7 -71
c0 -12 0 -23 2 -34c4 -22 2 -45 2 -67c1 -33 3 -66 5 -101c12 9 18 20 25 30c18 24 35 50 52 75c31 46 64 91 99 134c11 13 24 25 33 40c5 7 14 8 20 16zM224 -52c2 0 4 -1 4 -2c23 -5 29 -22 31 -42c1 -20 -5 -38 -15 -56c-11 -19 -25 -35 -41 -49c-2 -2 -6 -6 -8 0
c-1 3 -4 1 -5 -1c-2 -5 -5 -4 -9 -2c-3 2 -9 13 -7 17s2 6 0 9c-3 5 -3 10 2 15c3 4 5 8 8 13c1 1 6 2 3 6c-2 1 -3 -3 -5 -3c-9 8 -13 21 -22 29c-5 5 -6 12 -5 18s2 13 7 18c5 6 8 13 13 19c7 7 16 9 25 4c3 0 4 -2 5 0c5 10 10 11 19 7z" />
    <glyph glyph-name="L" unicode="L" horiz-adv-x="382" 
d="M98 726c6 -6 8 -16 19 -18c4 -1 3 -7 3 -10c0 -13 0 -26 -2 -39c-4 -40 -1 -80 0 -120c0 -17 -3 -34 1 -50c1 -7 0 -14 7 -19c13 38 -3 76 3 115c7 37 -1 76 5 117c14 -11 11 -24 10 -35c0 -26 1 -52 1 -78c-1 -46 1 -91 1 -137c1 -45 -2 -90 7 -134
c8 -34 13 -67 17 -102c2 -31 -4 -61 -7 -91c-1 -7 -2 -13 -2 -20c-1 -11 -2 -22 -8 -32s-6 -21 -1 -32c3 -1 5 0 6 3c5 9 5 10 13 2c3 -3 6 -3 9 -3c13 0 27 -1 41 2c19 3 38 4 58 6c10 0 21 1 30 -5c5 -3 11 -2 17 -2c5 0 10 1 15 -2s10 -7 3 -12c-5 -5 -7 -8 -3 -14
c3 -3 1 -7 -2 -8c-14 -6 -25 -15 -42 -13c-24 2 -48 -6 -73 -4c-27 1 -55 -2 -82 -4c-26 -3 -60 -2 -86 -7c-18 -3 -31 6 -40 26c10 8 28 -1 33 16c-1 5 -6 7 -9 11c-7 10 -14 19 -15 32c-3 60 0 120 -4 179c-3 50 -2 100 -4 150c-1 53 -4 105 -5 158c-1 42 2 85 -2 127
c-1 10 5 13 12 13c16 -2 27 11 42 12c3 0 5 3 7 6c5 13 15 15 27 16zM67 35c-4 0 -3 -4 -4 -7c-1 -2 0 -3 2 -3c4 -1 5 1 6 5c-1 2 0 5 -4 5z" />
    <glyph glyph-name="Lacute" unicode="&#x139;" horiz-adv-x="382" 
d="M162 886c11 -3 22 2 32 -5c11 -6 16 -16 21 -27c2 -7 -4 -10 -8 -12c-9 -6 -18 -14 -25 -21c-9 -10 -17 -19 -31 -22c-7 -4 -12 -9 -18 -14c-13 -12 -27 -19 -36 -34c-4 -1 -10 -2 -15 -5c-1 5 5 11 0 13c-4 3 -7 -3 -12 -5c-3 0 -3 -3 -4 -4c-2 -4 -5 -5 -8 -5
c-4 2 -2 4 -2 6c0 3 -3 3 -5 3c-4 4 -4 6 -4 13c4 14 12 25 23 35c2 1 5 3 5 5c2 13 11 20 19 28c10 13 22 22 32 35c6 7 15 12 26 13c3 -2 6 0 8 1c0 1 1 2 2 2zM98 726c6 -6 8 -16 19 -18c4 -1 3 -7 3 -10c0 -13 0 -26 -2 -39c-4 -40 -1 -80 0 -120c0 -17 -3 -34 1 -50
c1 -7 0 -14 7 -19c13 38 -3 76 3 115c7 37 -1 76 5 117c14 -11 11 -24 10 -35c0 -26 1 -52 1 -78c-1 -46 1 -91 1 -137c1 -45 -2 -90 7 -134c8 -34 13 -67 17 -102c2 -31 -4 -61 -7 -91c-1 -7 -2 -13 -2 -20c-1 -11 -2 -22 -8 -32s-6 -21 -1 -32c3 -1 5 0 6 3c5 9 5 10 13 2
c3 -3 6 -3 9 -3c13 0 27 -1 41 2c19 3 38 4 58 6c10 0 21 1 30 -5c5 -3 11 -2 17 -2c5 0 10 1 15 -2s10 -7 3 -12c-5 -5 -7 -8 -3 -14c3 -3 1 -7 -2 -8c-14 -6 -25 -15 -42 -13c-24 2 -48 -6 -73 -4c-27 1 -55 -2 -82 -4c-26 -3 -60 -2 -86 -7c-18 -3 -31 6 -40 26
c10 8 28 -1 33 16c-1 5 -6 7 -9 11c-7 10 -14 19 -15 32c-3 60 0 120 -4 179c-3 50 -2 100 -4 150c-1 53 -4 105 -5 158c-1 42 2 85 -2 127c-1 10 5 13 12 13c16 -2 27 11 42 12c3 0 5 3 7 6c5 13 15 15 27 16zM67 35c-4 0 -3 -4 -4 -7c-1 -2 0 -3 2 -3c4 -1 5 1 6 5
c-1 2 0 5 -4 5z" />
    <glyph glyph-name="Lcaron" unicode="&#x13d;" horiz-adv-x="382" 
d="M98 726c6 -6 8 -16 19 -18c4 -1 3 -7 3 -10c0 -13 0 -26 -2 -39c-4 -40 -1 -80 0 -120c0 -17 -3 -34 1 -50c1 -7 0 -14 7 -19c13 38 -3 76 3 115c7 37 -1 76 5 117c14 -11 11 -24 10 -35c0 -26 1 -52 1 -78c-1 -46 1 -91 1 -137c1 -45 -2 -90 7 -134
c8 -34 13 -67 17 -102c2 -31 -4 -61 -7 -91c-1 -7 -2 -13 -2 -20c-1 -11 -2 -22 -8 -32s-6 -21 -1 -32c3 -1 5 0 6 3c5 9 5 10 13 2c3 -3 6 -3 9 -3c13 0 27 -1 41 2c19 3 38 4 58 6c10 0 21 1 30 -5c5 -3 11 -2 17 -2c5 0 10 1 15 -2s10 -7 3 -12c-5 -5 -7 -8 -3 -14
c3 -3 1 -7 -2 -8c-14 -6 -25 -15 -42 -13c-24 2 -48 -6 -73 -4c-27 1 -55 -2 -82 -4c-26 -3 -60 -2 -86 -7c-18 -3 -31 6 -40 26c10 8 28 -1 33 16c-1 5 -6 7 -9 11c-7 10 -14 19 -15 32c-3 60 0 120 -4 179c-3 50 -2 100 -4 150c-1 53 -4 105 -5 158c-1 42 2 85 -2 127
c-1 10 5 13 12 13c16 -2 27 11 42 12c3 0 5 3 7 6c5 13 15 15 27 16zM247 723c3 1 4 0 7 -1c6 -1 8 -10 17 -9c2 0 5 -4 5 -5c-2 -9 3 -16 6 -23c3 -6 -1 -14 -1 -20c1 -17 -4 -33 -7 -49c-1 -2 -1 -4 -2 -5c-7 -12 -11 -26 -21 -34c-4 -2 -5 -8 -6 -12
c-2 -6 -5 -10 -10 -13c-7 -1 -9 -5 -14 -10c-4 -3 -9 -5 -10 3c0 4 -3 6 -7 7c-13 4 -15 8 -7 17c4 7 5 17 5 25c0 6 0 11 1 16c5 15 5 30 -1 46c-2 11 -2 22 -3 34c-1 8 7 17 14 18c5 1 9 -4 15 -5c1 12 8 18 19 20zM67 35c-4 0 -3 -4 -4 -7c-1 -2 0 -3 2 -3c4 -1 5 1 6 5
c-1 2 0 5 -4 5z" />
    <glyph glyph-name="Lcommaaccent" unicode="&#x13b;" horiz-adv-x="382" 
d="M98 726c6 -6 8 -16 19 -18c4 -1 3 -7 3 -10c0 -13 0 -26 -2 -39c-4 -40 -1 -80 0 -120c0 -17 -3 -34 1 -50c1 -7 0 -14 7 -19c13 38 -3 76 3 115c7 37 -1 76 5 117c14 -11 11 -24 10 -35c0 -26 1 -52 1 -78c-1 -46 1 -91 1 -137c1 -45 -2 -90 7 -134
c8 -34 13 -67 17 -102c2 -31 -4 -61 -7 -91c-1 -7 -2 -13 -2 -20c-1 -11 -2 -22 -8 -32s-6 -21 -1 -32c3 -1 5 0 6 3c5 9 5 10 13 2c3 -3 6 -3 9 -3c13 0 27 -1 41 2c19 3 38 4 58 6c10 0 21 1 30 -5c5 -3 11 -2 17 -2c5 0 10 1 15 -2s10 -7 3 -12c-5 -5 -7 -8 -3 -14
c3 -3 1 -7 -2 -8c-14 -6 -25 -15 -42 -13c-24 2 -48 -6 -73 -4c-27 1 -55 -2 -82 -4c-26 -3 -60 -2 -86 -7c-18 -3 -31 6 -40 26c10 8 28 -1 33 16c-1 5 -6 7 -9 11c-7 10 -14 19 -15 32c-3 60 0 120 -4 179c-3 50 -2 100 -4 150c-1 53 -4 105 -5 158c-1 42 2 85 -2 127
c-1 10 5 13 12 13c16 -2 27 11 42 12c3 0 5 3 7 6c5 13 15 15 27 16zM67 35c-4 0 -3 -4 -4 -7c-1 -2 0 -3 2 -3c4 -1 5 1 6 5c-1 2 0 5 -4 5zM190 -52c2 0 4 -1 4 -2c23 -5 29 -22 31 -42c1 -20 -5 -38 -15 -56c-11 -19 -25 -35 -41 -49c-2 -2 -6 -6 -8 0c-1 3 -4 1 -5 -1
c-2 -5 -5 -4 -9 -2c-3 2 -9 13 -7 17s2 6 0 9c-3 5 -3 10 2 15c3 4 5 8 8 13c1 1 6 2 3 6c-2 1 -3 -3 -5 -3c-9 8 -13 21 -22 29c-5 5 -6 12 -5 18s2 13 7 18c5 6 8 13 13 19c7 7 16 9 25 4c3 0 4 -2 5 0c5 10 10 11 19 7z" />
    <glyph glyph-name="Ldot" unicode="&#x13f;" horiz-adv-x="382" 
d="M98 726c6 -6 8 -16 19 -18c4 -1 3 -7 3 -10c0 -13 0 -26 -2 -39c-4 -40 -1 -80 0 -120c0 -17 -3 -34 1 -50c1 -7 0 -14 7 -19c13 38 -3 76 3 115c7 37 -1 76 5 117c14 -11 11 -24 10 -35c0 -26 1 -52 1 -78c-1 -46 1 -91 1 -137c1 -45 -2 -90 7 -134
c8 -34 13 -67 17 -102c2 -31 -4 -61 -7 -91c-1 -7 -2 -13 -2 -20c-1 -11 -2 -22 -8 -32s-6 -21 -1 -32c3 -1 5 0 6 3c5 9 5 10 13 2c3 -3 6 -3 9 -3c13 0 27 -1 41 2c19 3 38 4 58 6c10 0 21 1 30 -5c5 -3 11 -2 17 -2c5 0 10 1 15 -2s10 -7 3 -12c-5 -5 -7 -8 -3 -14
c3 -3 1 -7 -2 -8c-14 -6 -25 -15 -42 -13c-24 2 -48 -6 -73 -4c-27 1 -55 -2 -82 -4c-26 -3 -60 -2 -86 -7c-18 -3 -31 6 -40 26c10 8 28 -1 33 16c-1 5 -6 7 -9 11c-7 10 -14 19 -15 32c-3 60 0 120 -4 179c-3 50 -2 100 -4 150c-1 53 -4 105 -5 158c-1 42 2 85 -2 127
c-1 10 5 13 12 13c16 -2 27 11 42 12c3 0 5 3 7 6c5 13 15 15 27 16zM246 422c6 6 27 -2 29 -12c3 -14 9 -21 23 -21c5 0 7 -4 6 -10c-3 -11 -3 -23 -5 -35c-2 -16 -18 -27 -33 -26c-16 2 -26 -7 -38 -3c-3 1 -8 -1 -11 2c-8 13 -21 25 -21 41s7 31 20 42c10 8 22 13 30 22z
M67 35c-4 0 -3 -4 -4 -7c-1 -2 0 -3 2 -3c4 -1 5 1 6 5c-1 2 0 5 -4 5z" />
    <glyph glyph-name="Lslash" unicode="&#x141;" horiz-adv-x="400" 
d="M359 42c5 -3 10 -7 3 -12c-5 -5 -7 -8 -3 -14c3 -3 1 -7 -2 -8c-14 -6 -25 -15 -42 -13c-24 2 -48 -6 -73 -4c-27 1 -55 -2 -82 -4c-26 -3 -61 -2 -87 -7c-18 -3 -31 6 -40 26c10 8 28 -1 33 16c-1 5 -6 7 -9 11c-7 10 -14 19 -15 32c-3 60 1 120 -3 179
c-1 23 -2 46 -2 69l-9 -2c-7 -1 -12 -3 -17 -7c-13 -8 -28 -3 -35 10c-3 5 1 8 4 12c4 5 12 5 18 9c12 8 25 16 38 24l-1 35c-1 53 -4 105 -5 158c-1 42 2 85 -2 127c-1 10 5 13 12 13c16 -2 27 11 42 12c3 0 5 3 7 6c5 13 15 15 27 16c6 -6 8 -16 19 -18c4 -1 3 -7 3 -10
c0 -13 0 -26 -2 -39c-4 -40 -1 -80 0 -120c0 -17 -3 -34 1 -50c1 -7 0 -14 7 -19c13 38 -3 76 3 115c7 37 -1 76 5 117c14 -11 11 -24 10 -35c0 -26 1 -52 1 -78c-1 -46 1 -91 1 -137v-42c5 2 12 5 20 8c20 7 38 16 59 19c7 2 15 6 23 10c3 -4 0 -7 1 -10c2 -4 9 -5 6 -12
c-2 -7 -8 -11 -14 -14c-22 -11 -44 -22 -66 -31c-12 -5 -21 -8 -28 -12c1 -17 3 -33 6 -50c8 -34 13 -67 17 -102c2 -31 -4 -61 -7 -91c-1 -7 -2 -13 -2 -20c-1 -11 -2 -22 -8 -32s-6 -21 -1 -32c3 -1 5 0 6 3c5 9 5 10 13 2c3 -3 6 -3 9 -3c13 0 27 -1 41 2c19 3 38 4 58 6
c10 0 21 1 30 -5c5 -3 11 -2 17 -2c5 0 10 1 15 -2zM82 25c4 -1 5 1 6 5c-1 2 0 5 -4 5s-3 -4 -4 -7c-1 -2 0 -3 2 -3z" />
    </font>
</defs>
</svg>
