<svg xmlns="http://www.w3.org/2000/svg">
<defs>
<font id="UTMAptima-Italic" horiz-adv-x="1028" >
  <font-face 
    font-family="UTM Aptima"
    font-weight="400"
    font-style="italic"
    font-stretch="normal"
    units-per-em="2048"
    panose-1="2 4 6 3 5 5 6 9 2 4"
    ascent="1638"
    descent="-410"
    x-height="963"
    cap-height="1397"
    bbox="-113 -541 4956 2228"
    underline-thickness="109"
    underline-position="-251"
    slope="-12"
    unicode-range="U+0020-2026"
  />
<missing-glyph horiz-adv-x="5040" 
d="M3785 2045h10q35 -10 26 -52q-2 -12 -44 -57h-28q5 24 40 54l4 10q-2 13 -7 15h-9q-8 0 -14 -19h-30q16 49 52 49zM2447 2016l23 -31q-4 -16 -47 -30h-19l-56 12l-14 -12l-22 25q17 29 49 29h11l39 -11h2q10 0 34 18zM889 1980h142l-13 -60h-94l-16 -75h89l-13 -59h-89
l-27 -129l-6 -5h-49l69 323zM1576 1980h43l5 -5l-17 -78h30l-11 -52h-30l-40 -188l-7 -5h-49l41 193h-25l11 52h25l17 78zM2042 1980h42l3 -5l-20 -94h3q28 24 59 24h2q58 0 68 -71l-7 -39l-30 -143h-52l24 115q17 80 -25 80h-7q-43 0 -61 -86l-23 -109h-51l69 323z
M2621 1980h49l4 -5l-48 -222q0 -51 35 -51q45 7 56 59l46 214l6 5h49l-46 -216q-18 -85 -90 -112q-17 -8 -37 -8q-47 0 -70 55q-9 24 -2 57zM2856 1980h159l-13 -60h-56l-57 -268h-53l57 268h-55l12 55zM3042 1980h71q6 -4 29 -251h2l134 251h73l-70 -328h-54l51 242h-2
l-125 -242h-44q-4 0 -19 182l-7 60h-3l-51 -242h-55zM4181 1980h52l-70 -328h-45l-4 5l2 11l4 2v14q-38 -40 -87 -40q-67 0 -80 91l3 39l1 3q19 94 118 125l24 3q35 0 56 -32h3zM2467 1928h36l2 -6l-10 -49h-45l-47 -221h-48l5 23q-30 -31 -66 -31q-86 14 -68 97l33 156h51
l-22 -104q-17 -79 8 -86l17 -5h6q26 0 46 36l9 26l28 133h53l5 25zM3886 1928l-12 -55h-31l-47 -221h-47l5 25h-2q-22 -33 -64 -33q-68 0 -69 78l3 29l31 146h52l-25 -120q-11 -50 4 -68l20 -7h9q42 0 56 69l27 126h27q4 0 10 28l4 3h49zM1163 1905q68 0 86 -77q6 -18 1 -54
q-19 -88 -117 -127l-33 -3q-63 0 -85 73q-8 22 -1 52l2 10q20 94 128 126h19zM1416 1905h3q74 0 61 -101l-32 -152h-51l25 119q16 76 -26 76h-5q-44 0 -60 -76l-25 -119h-52l52 245h46l-4 -21q36 29 68 29zM1871 1905h7q72 0 86 -89h-60q-10 31 -36 31h-17q-56 -14 -66 -61

<glyph glyph-name=".notdef" horiz-adv-x="5040" 
d="M3785 2045h10q35 -10 26 -52q-2 -12 -44 -57h-28q5 24 40 54l4 10q-2 13 -7 15h-9q-8 0 -14 -19h-30q16 49 52 49zM2447 2016l23 -31q-4 -16 -47 -30h-19l-56 12l-14 -12l-22 25q17 29 49 29h11l39 -11h2q10 0 34 18zM889 1980h142l-13 -60h-94l-16 -75h89l-13 -59h-89
l-27 -129l-6 -5h-49l69 323zM1576 1980h43l5 -5l-17 -78h30l-11 -52h-30l-40 -188l-7 -5h-49l41 193h-25l11 52h25l17 78zM2042 1980h42l3 -5l-20 -94h3q28 24 59 24h2q58 0 68 -71l-7 -39l-30 -143h-52l24 115q17 80 -25 80h-7q-43 0 -61 -86l-23 -109h-51l69 323z
M2621 1980h49l4 -5l-48 -222q0 -51 35 -51q45 7 56 59l46 214l6 5h49l-46 -216q-18 -85 -90 -112q-17 -8 -37 -8q-47 0 -70 55q-9 24 -2 57zM2856 1980h159l-13 -60h-56l-57 -268h-53l57 268h-55l12 55zM3042 1980h71q6 -4 29 -251h2l134 251h73l-70 -328h-54l51 242h-2
l-125 -242h-44q-4 0 -19 182l-7 60h-3l-51 -242h-55zM4181 1980h52l-70 -328h-45l-4 5l2 11l4 2v14q-38 -40 -87 -40q-67 0 -80 91l3 39l1 3q19 94 118 125l24 3q35 0 56 -32h3zM2467 1928h36l2 -6l-10 -49h-45l-47 -221h-48l5 23q-30 -31 -66 -31q-86 14 -68 97l33 156h51
l-22 -104q-17 -79 8 -86l17 -5h6q26 0 46 36l9 26l28 133h53l5 25zM3886 1928l-12 -55h-31l-47 -221h-47l5 25h-2q-22 -33 -64 -33q-68 0 -69 78l3 29l31 146h52l-25 -120q-11 -50 4 -68l20 -7h9q42 0 56 69l27 126h27q4 0 10 28l4 3h49zM1163 1905q68 0 86 -77q6 -18 1 -54
q-19 -88 -117 -127l-33 -3q-63 0 -85 73q-8 22 -1 52l2 10q20 94 128 126h19zM1416 1905h3q74 0 61 -101l-32 -152h-51l25 119q16 76 -26 76h-5q-44 0 -60 -76l-25 -119h-52l52 245h46l-4 -21q36 29 68 29zM1871 1905h7q72 0 86 -89h-60q-10 31 -36 31h-17q-56 -14 -66 -61
l-6 -15q-2 -69 47 -69h9q22 0 52 27h40l3 3h3l1 -3l3 3l2 -3l3 3v-7q-50 -81 -127 -81q-76 0 -90 94l4 36l1 3q18 85 102 120q17 8 39 8zM3546 1905h2q49 0 57 -60l-3 -14h-52q3 16 -13 16h-4q-14 0 -21 -13l-3 -13q-2 -9 60 -35q26 -19 18 -59q-12 -58 -78 -80l-24 -3
q-73 12 -58 83h54q-4 -20 22 -25h4q19 0 28 23q5 22 -58 44q-28 27 -22 59q14 66 91 77zM4608 1905q55 0 63 -63q3 -18 -6 -65l-27 -125h-52l24 112q17 83 -23 83h-11q-33 0 -51 -54l-30 -141h-52l1 5h-2l2 2l51 238h47l-4 -21q31 29 70 29zM4837 1905h5q40 0 60 -40l4 18
l-2 3l5 11h47l-44 -208q-21 -97 -113 -132l-34 -4h-7q-70 0 -87 80h59q19 -22 40 -23h13q22 0 48 22q17 13 33 52h-3q-41 -40 -82 -40q-57 0 -81 70q-6 18 0 63q18 88 113 125zM4254 1897h53l-29 -136q-6 -59 28 -59h7q46 0 65 93l22 102h51l-52 -245h-47l-1 10h3l-2 3l1 5
l3 2l1 3h-4q-5 -23 -64 -31h-3q-59 0 -68 75l16 85zM1066 1771q-4 -69 49 -69h7q62 14 72 65l4 15q0 65 -46 65h-5q-58 0 -81 -76zM4007 1774q-2 -72 46 -72h5q58 0 82 75q10 49 -37 70h-22q-37 0 -68 -57zM4751 1774q-7 -72 50 -72h5q61 12 74 72q13 61 -44 73h-14
q-59 -16 -69 -62zM4272 1620h52l-12 -57h-52zM1352 1402q40 -11 32 -49v-4q-4 -17 -45 -60h-28q5 25 43 57l1 7q3 12 -3 15h-12q-11 -4 -14 -19h-28l1 6q7 32 42 44zM3633 1339q92 0 117 -99h-60q-28 42 -71 42q-55 0 -101 -68q-15 -22 -20 -47q-17 -78 57 -110l18 -1
q36 0 84 39h61q-65 -97 -159 -97q-93 0 -117 112q-4 31 3 62q21 97 122 152q32 15 66 15zM3948 1339q57 0 93 -47q36 -51 22 -115l-4 -20q-19 -89 -122 -146q-36 -13 -66 -13q-89 0 -117 101q-6 33 0 60l4 18q21 98 130 151q31 11 60 11zM2545 1337h2l45 -11h3q11 0 28 11
l10 -36q-22 -19 -39 -19h-3l-52 10l-21 -7l-12 36q21 16 39 16zM999 1334h19q118 0 124 -26q19 -26 12 -62q-22 -57 -42 -57l-2 -6q42 -23 33 -66l-4 -18q-13 -63 -87 -88l-55 -5h-67zM2833 1334h53l-46 -217q-7 -61 32 -61q29 0 53 39l9 30l43 203l5 6h45l4 -6l-36 -171
q-25 -118 -69 -133q-29 -26 -69 -26q-55 0 -75 76l8 54zM3088 1334h59q4 0 72 -237h4l50 237h50l3 -6l-68 -322h-58q-19 48 -75 238h-3l-50 -238h-53zM3384 1334h54l-69 -328h-54zM4142 1334h8q155 0 166 -40q21 -11 31 -75l-4 -36l-2 -11l2 -2q-19 -94 -113 -149
q-38 -15 -102 -15h-55zM4424 1334h153l-12 -60h-103l-16 -75h101l-12 -57h-101l-16 -74l3 -5h99l-12 -57h-157l68 322zM3813 1175l-3 -10q-16 -76 56 -108l19 -1q68 0 115 86l7 20l3 15q13 61 -40 94q-10 8 -37 11q-66 0 -113 -83zM1041 1274l-15 -67h9q54 0 60 28l6 14
q-5 25 -23 25h-37zM4183 1274l-44 -206l1 -3v-2q104 0 138 76l5 15l6 29q7 34 -17 68q-20 23 -73 23h-16zM1308 1259h5q38 0 63 -40l7 32h49l-52 -245h-49l6 32q-44 -40 -88 -40q-75 0 -80 97l2 36q19 89 112 125zM1581 1259h3q74 0 62 -102l-32 -151h-51l27 128
q14 67 -28 67h-10q-34 0 -52 -62l-28 -133h-52l52 245h47l-5 -21q34 29 67 29zM1810 1259h5q45 0 63 -40l7 32h47l-47 -219q-20 -95 -131 -126h-16q-74 0 -90 82h59q20 -25 38 -25h14q52 0 81 77q-42 -42 -85 -42q-60 0 -84 81l2 44l4 16q17 79 110 117zM2179 1259h2
q43 0 54 -37h2q39 37 76 37h4q57 0 68 -55q2 -25 -2 -45l-32 -153h-52l29 138q9 44 -11 55l-12 2h-15q-32 0 -50 -65l-27 -130h-52l29 136q12 59 -31 59h-8q-32 0 -48 -57l-29 -138h-54l52 245h50l-5 -21h2q11 24 60 29zM2549 1259q47 0 66 -42l8 34h47l-52 -245h-47l6 32
q-44 -40 -86 -40q-74 0 -83 92l3 41q19 90 112 125zM1222 1117q-10 -48 48 -61h4q45 0 72 46l6 15l5 22q1 62 -44 62h-14q-41 0 -71 -57zM1727 1128q-11 -48 28 -68l17 -4h5q47 0 75 57l5 23q3 65 -44 65h-12q-50 0 -74 -73zM2465 1131l-3 -14q2 -61 44 -61h14q61 12 72 64
l2 11q10 45 -23 65l-17 5h-10q-66 -8 -79 -70zM1014 1150l-17 -82q-1 -5 6 -5q77 0 86 45q8 34 -38 42h-37zM3126 753l18 -28l-63 -55q-15 12 -21 26zM1678 727l74 -54q-3 -15 -30 -42l-76 54q27 41 32 42zM2997 693h38l42 -60h-54l-15 26l-29 -26h-54q67 60 72 60z
M3569 693h40l43 -60h-54l-18 26h-1q-1 -5 -25 -26h-54zM767 685h52q8 -4 18 -137l11 -110q11 8 55 100l79 147h54v-2l-181 -326h-44zM1304 685h51l-11 -54h-51zM1499 685h46l5 -5l-68 -323h-52zM2462 685h45l3 -5l-16 -78h31l-11 -52h-31l-41 -193h-53l41 193h-26l11 52h26
l16 78zM2570 685h52l-20 -98h2q27 23 58 23h3q57 0 66 -71l-5 -38l-30 -144h-52l24 115q17 81 -22 81h-10q-42 0 -60 -87l-23 -109h-52zM2809 685h52l-11 -54h-52zM3173 685h44l5 -5l-16 -78h29l-11 -52h-29l-41 -193h-54l41 193h-27l11 52h27l16 78zM3379 685h52l-69 -328
h-52zM4102 685h52l-69 -328h-52zM4461 685h51l-11 -54h-51zM1684 610h5q83 0 89 -102l-2 -23l-2 -11q-18 -83 -111 -120l-36 -5q-76 0 -90 97l2 32q21 97 121 130zM1940 610h4q53 0 66 -60q1 -25 -11 -81l-23 -112h-54l31 146q3 50 -27 50h-10q-38 0 -54 -57l-29 -139h-54
l52 245h49l-5 -21q32 29 65 29zM2175 610h4q45 0 55 -39h3l7 31h49l-44 -206q-22 -102 -118 -135l-28 -3h-5q-73 0 -89 81h52l33 -20l14 -3h14q50 0 76 72q-41 -39 -81 -39q-62 0 -82 76q-6 23 1 60q18 85 112 123zM2995 610h2q82 0 89 -104l-3 -25l-8 -27h-172
q6 -45 36 -45l13 -3q29 0 54 22h57l-1 -3q-51 -76 -124 -76q-77 0 -90 97l5 28l1 8q11 49 51 89q42 39 90 39zM3558 610h5q41 0 62 -39h2l7 31h47l-52 -245h-47l6 31h-2q-43 -39 -85 -39q-71 0 -82 89l3 36l3 14q18 86 109 120zM3840 610h7q88 0 80 -128l-2 -1l-3 -15
q-14 -65 -89 -106q-23 -11 -48 -11q-34 0 -57 32l-21 -99l-6 -5h-49l69 325h49l-6 -28q38 36 76 36zM4280 610q44 0 67 -39l7 31h49l-52 -245h-49l6 31q-43 -39 -85 -39q-92 0 -80 132q18 84 99 121q16 8 38 8zM1050 602h50l-29 -136q-10 -60 29 -60h5q44 0 63 87l23 109h52
l-52 -245h-47l5 24h-5q-5 -23 -63 -32h-3q-55 0 -68 68q4 35 17 99l18 81zM1287 602h51l-52 -245h-51zM2792 602h52l-52 -245h-52zM4444 602h51l-52 -245h-51zM1596 488l-4 -16q-1 -66 45 -66h4q59 0 82 76q2 71 -44 71h-11q-62 -16 -72 -65zM2087 472q1 -66 45 -66h11
q48 0 75 75v1q2 71 -44 71h-14q-39 0 -68 -57zM2912 506h122l1 2q-7 45 -50 45h-7q-35 0 -66 -47zM3474 474q-2 -68 46 -68h5q52 0 78 63l3 12q5 72 -42 72h-16q-59 -14 -69 -63zM3743 478q-3 -72 46 -72h3q50 0 78 60l5 22q9 43 -36 65h-22q-47 0 -73 -72zM4195 472
q-4 -66 52 -66q43 0 71 48l5 15l4 16q11 54 -38 68h-18q-42 0 -71 -60zM3484 321h51l-11 -52h-51zM4205 321h51l-11 -52h-51zM2761 133h4q35 0 32 -50v-2q-3 -16 -33 -41l-13 -17h-28q5 25 40 56l3 2v2q1 19 -5 19h-10q-8 0 -13 -19h-30q17 50 53 50zM1570 116l40 -60
l-30 -19l-41 52zM369 79h4q64 -48 72 -60l-28 -37q-78 49 -76 58zM3507 79l73 -58l-26 -39q-10 0 -79 55q22 36 32 42zM4594 76l10 -42l-102 -52l-12 39l105 58zM1215 53h51l-4 -19l4 -5h14l-8 -36h-14l-6 -5l-59 -279h-46l7 31q-43 -40 -90 -40q-72 0 -80 105l3 26
q22 102 129 131h14q33 0 59 -33l12 59l-5 5h-43l8 36h49zM1489 45h40l43 -61h-53l-17 27l-29 -27h-53zM2650 45h33q12 0 50 -61h-54l-17 27q-23 -21 -25 -27h-58l1 4zM57 37h160l-13 -60h-56l-57 -268h-50l-3 5l52 245l3 3v2l-1 2l2 3l-1 2l2 3l-1 3h-54l11 54zM707 37h47
l-16 -73l2 -2l-3 -3l-1 -3l2 -2l-3 -3v-3l1 -2v-2l-3 -3l2 -3h3q22 24 56 24h3q53 0 64 -58q4 -17 -2 -42l-32 -153h-52l27 127q14 68 -26 68h-8q-43 0 -61 -86l-23 -109h-52l68 322zM1305 37h47l3 -6l-10 -49h-52zM1995 37h52l-42 -198l94 115h62l-103 -118l63 -125v-2h-70
q-5 22 -50 115l-24 -115h-52zM2279 37l-21 -99q29 24 58 24q57 0 68 -56q6 -19 -7 -77l-25 -120h-54l28 133q13 62 -28 62h-11q-31 0 -48 -55l-30 -140h-53l67 314l-1 3l1 3l1 2v3l2 3h53zM2466 37h51l-12 -55h-51zM3156 37h51l-23 -108q34 33 75 33h3q75 0 85 -94l-3 -37
q-16 -75 -90 -120q-32 -11 -51 -11q-41 0 -63 40l-7 -31h-47zM4283 37h52l-21 -99h2q28 24 59 24h3q60 0 66 -74l-7 -41l-29 -138h-52l24 111q17 82 -15 82l-10 2h-12q-37 0 -54 -80l-24 -115h-52zM321 -38h3l-13 -58h-5q-42 0 -54 -57l-29 -138h-53l52 245h47l-4 -21
q24 29 56 29zM556 -38q71 0 67 -87l-35 -166h-51l29 136q6 59 -29 59h-6q-45 0 -62 -84l-24 -111h-52l52 245h50l-4 -21q31 29 65 29zM1496 -38q72 0 85 -94l-4 -39q-7 -24 -12 -24h-169q7 -47 52 -47q24 0 53 21h57q-50 -79 -125 -79q-82 0 -91 105l8 37q17 81 114 117z
M2649 -38h5q77 0 86 -97l-2 -26l-5 -21l-6 -13h-170q8 -47 43 -47h12q21 0 47 21h59q-51 -79 -122 -79q-84 0 -93 102l4 29q20 93 118 128zM2907 -38h4q54 0 65 -60q2 -25 -10 -82l-24 -111h-54l29 138q10 48 -23 57h-11q-38 0 -55 -57l-29 -138h-54l52 245h50l-4 -21
q31 29 64 29zM3500 -38h6q40 0 61 -40h2l7 32h47l-52 -245h-47l7 31h-2q-43 -40 -87 -40q-71 0 -82 90l4 37l3 12q17 82 101 117q13 6 32 6zM3773 -38h4q62 0 65 -78l-15 -84l-19 -91h-54l29 138q10 48 -26 57h-9q-38 0 -53 -52l-30 -143h-54l52 245h49l-4 -21q32 29 65 29z
M4125 -38h1q74 0 84 -93l-5 -40q-18 -88 -110 -126l-26 -3q-41 0 -61 34l-22 -106h-52l69 326h47l-6 -29q38 37 81 37zM4706 -38h5q34 0 55 -37q35 37 77 37h6q56 0 65 -66l-5 -51l-29 -136h-52l26 122q15 73 -24 73h-7q-35 0 -51 -50l-30 -140l-6 -5h-48l30 140
q9 42 -20 55h-17q-40 0 -56 -77l-25 -118h-51l52 245h47l-4 -21q28 29 62 29zM349 -46h49l4 -6l-50 -234l-6 -5h-49zM1287 -46h52l-52 -245h-52zM1639 -46h52l-29 -136q-9 -60 30 -60h4q44 0 62 81l24 115h52l-52 -245h-47l5 24h-5q-19 -33 -66 -33q-52 0 -66 63q-2 12 3 34
zM2448 -46h51l-52 -245h-51zM4505 -46h51l-52 -245h-51zM1041 -169q-11 -53 35 -73h12q54 0 80 66l3 10q11 53 -40 70h-17q-38 0 -70 -57zM1407 -143h122q-8 47 -43 47h-7q-43 0 -71 -44zM2568 -143h122q-11 47 -44 47h-7q-46 0 -71 -47zM3162 -158l-2 -11q-6 -73 45 -73h5
q66 8 79 71l2 5q9 45 -25 65l-17 5h-14q-63 -14 -73 -62zM3415 -173q-1 -69 47 -69h11q41 0 72 60l3 13q7 73 -41 73h-17q-47 0 -74 -73zM4028 -158l-4 -22q-10 -47 45 -62h9q50 0 78 76q1 70 -44 70h-15q-59 -17 -69 -62z" />
    <glyph glyph-name=".null" horiz-adv-x="0" 
 />
    <glyph glyph-name="nonmarkingreturn" horiz-adv-x="571" 
 />
    <glyph glyph-name="space" unicode=" " horiz-adv-x="589" 
 />
    <glyph glyph-name="exclam" unicode="!" horiz-adv-x="700" 
d="M697 1221l-258 -865h-41l107 865l9 61q12 57 42.5 100t85.5 43q45 0 62 -28q22 -39 5 -119zM238 102q11 50 57.5 86.5t95.5 36.5t76.5 -36.5t16.5 -86.5q-11 -53 -54 -90t-92 -37q-53 0 -82 37t-18 90z" />
    <glyph glyph-name="quotedbl" unicode="&#x22;" horiz-adv-x="700" 
d="M509 1262l-82 -385q-17 -82 -82 -82q-74 0 -57 82l13 41l73 344l7 49q24 114 98 114q65 0 42 -110zM845 1262l-81 -381q-8 -41 -28.5 -63.5t-58.5 -22.5q-74 0 -56 86l12 37l73 344l6 45q25 118 99 118q69 0 45 -114z" />
    <glyph glyph-name="numbersign" unicode="#" horiz-adv-x="1159" 
d="M1141 557l-24 -115h-225l-155 -442h-119l155 442h-274l-160 -442h-118l159 442h-217l24 115h238l100 274h-226l24 115h242l153 414h119l-153 -414h274l150 414h118l-149 -414h197l-24 -115h-213l-100 -274h204zM918 831h-275l-100 -274h275z" />
    <glyph glyph-name="dollar" unicode="$" horiz-adv-x="1159" 
d="M745 598l-112 -524q97 22 169 94t94 176q26 125 -63 197q-63 41 -88 57zM711 823l100 471q-88 -18 -153 -79.5t-84 -149.5q-24 -111 37 -178q29 -31 100 -64zM894 1298l-109 -512q196 -98 206 -106q116 -92 80 -258q-37 -176 -166 -293q-119 -109 -290 -141l-48 -226
l-40 5l-42 -5l45 213q-164 0 -238 28t-119 83q21 43 43.5 89t30.5 87h20q45 -100 101 -145q68 -56 181 -56l122 574q-143 55 -199 106q-106 99 -72 258q34 160 156 261q109 90 272 116l33 156l41 -4l41 4l-32 -152q100 0 172 -22.5t119 -71.5q-48 -72 -87 -160h-25
q-19 84 -61 125q-49 47 -135 47z" />
    <glyph glyph-name="percent" unicode="%" horiz-adv-x="1835" 
d="M1618 1425l-1079 -1495l-48 9l-46 -9l1078 1495l45 -4zM971 1044q-29 -139 -147.5 -243.5t-257.5 -104.5q-146 0 -214.5 95.5t-36.5 244.5q31 146 149 243t263 97q141 0 208 -95t36 -237zM1785 324q-20 -97 -81.5 -174.5t-154.5 -129.5q-29 -16 -83 -30.5t-87 -14.5
q-147 0 -215 94.5t-36 241.5q31 148 148 246t265 98q141 0 207.5 -95t36.5 -236zM1270 291q-23 -109 -4 -174q27 -88 125 -88q101 0 173 108q51 78 76 195q24 114 9 180q-21 94 -119 94q-111 0 -181 -108q-52 -80 -79 -207zM456 1008q-23 -109 -4 -172q27 -86 126 -86
q98 0 170 108q54 82 78 195q31 143 -5 213q-31 57 -105 57q-111 0 -181 -109q-52 -79 -79 -206z" />
    <glyph glyph-name="ampersand" unicode="&#x26;" horiz-adv-x="1486" 
d="M832 831q109 70 172 134q84 86 104 182q16 74 -18.5 123t-108.5 49q-86 0 -142.5 -53.5t-74.5 -139.5q-16 -73 8 -155q13 -43 60 -140zM1155 291l196 -295q-51 4 -77 6t-49 2q-28 0 -45.5 -1t-69.5 -7q-34 70 -43 90q-17 33 -52 86q-106 -96 -231 -148.5t-254 -52.5
q-170 0 -259.5 93.5t-56.5 250.5q30 140 160 254q110 95 292 176l15 9q-52 114 -63 149q-27 88 -10 170q30 137 135 220t246 83q119 0 182.5 -57t41.5 -160q-25 -115 -136 -217q-74 -68 -220 -151l186 -320l79 -123q83 86 171 197q67 82 161 205q7 -21 23 -42.5t37 -39.5
q-87 -101 -174 -193q-95 -102 -185 -184zM703 705l-19 -13q-118 -65 -185 -135q-84 -88 -107 -197q-27 -127 40.5 -213t194.5 -86q82 0 177 41t180 111q-80 129 -144 242q-80 137 -137 250z" />
    <glyph glyph-name="quotesingle" unicode="'" horiz-adv-x="589" 
d="M619 1262l-82 -385q-17 -82 -82 -82q-74 0 -57 82l13 41l73 344l7 49q24 114 98 114q65 0 42 -110z" />
    <glyph glyph-name="parenleft" unicode="(" horiz-adv-x="589" 
d="M780 1532l33 -37q-169 -180 -275 -403q-90 -193 -144 -449q-22 -104 -31.5 -216t-5 -212t29.5 -192q20 -72 72 -191l-49 -41q-133 205 -166 406.5t25 474.5q107 502 511 860z" />
    <glyph glyph-name="parenright" unicode=")" horiz-adv-x="589" 
d="M73 -209l-32 41q93 109 156 198t108 186t80.5 202.5t60.5 224.5q55 256 48 447q-7 225 -100 405l49 37q125 -176 159.5 -394t-17.5 -466q-58 -271 -175.5 -474.5t-336.5 -406.5z" />
    <glyph glyph-name="asterisk" unicode="*" horiz-adv-x="917" 
d="M438 1278l219 -184l39 315l48 -4l72 8l-102 -323l299 192q14 -59 39 -106l-319 -132l260 -126q-21 -25 -39.5 -47.5t-39.5 -55.5l-219 184l-35 -319l-69 4l-50 -4l94 311l-287 -180l-29 78l-8 20l316 135l-267 132q48 45 78 102z" />
    <glyph glyph-name="plus" unicode="+" horiz-adv-x="1245" 
d="M682 586l95 450h131l-95 -450h450l-28 -131h-450l-97 -455h-131l97 455h-451l28 131h451z" />
    <glyph glyph-name="comma" unicode="," horiz-adv-x="589" 
d="M23 -332l241 459q33 59 46 74q36 41 73 41q36 0 57 -19.5t13 -54.5q-5 -25 -16.5 -43.5t-51.5 -67.5l-328 -401z" />
    <glyph glyph-name="hyphen" unicode="-" horiz-adv-x="700" 
d="M169 389l27 127h512l-27 -127h-512z" />
    <glyph glyph-name="hyphen" unicode="&#x2010;" horiz-adv-x="700" 
d="M169 389l27 127h512l-27 -127h-512z" />
    <glyph glyph-name="period" unicode="." horiz-adv-x="589" 
d="M184 102q11 50 55.5 86.5t93.5 36.5t78.5 -36.5t18.5 -86.5q-11 -51 -55 -89t-95 -38q-49 0 -78 37t-18 90z" />
    <glyph glyph-name="slash" unicode="/" horiz-adv-x="589" 
d="M949 1532l-956 -1741l-44 4l-62 -4l956 1741l52 -4z" />
    <glyph glyph-name="zero" unicode="0" horiz-adv-x="1159" 
d="M586 41q158 0 271 174q104 162 170 473q56 264 23 428q-37 191 -182 191h-8q-187 0 -296 -164q-93 -142 -161 -459q-56 -264 -42 -403q23 -240 225 -240zM227 643q65 305 197 487q177 242 454 242q233 0 311 -172t5 -512q-70 -332 -240.5 -522.5t-385.5 -190.5
q-262 0 -340 193q-67 166 -1 475z" />
    <glyph glyph-name="one" unicode="1" horiz-adv-x="1159" 
d="M493 -8l264 1241l-11 4l-257 -123q-9 49 -44 78q118 43 246.5 98.5t231.5 110.5l32 -8l-298 -1401q-20 4 -37.5 6t-42.5 2q-20 0 -45 -3t-39 -5z" />
    <glyph glyph-name="two" unicode="2" horiz-adv-x="1159" 
d="M483 1077l-53 99q169 196 398 196q187 0 275 -84q97 -92 58 -276q-25 -119 -113 -234q-68 -88 -191 -196l-297 -258l-155 -131l-41 -41l4 -21q78 0 318 12.5t318 12.5q-8 -21 -14.5 -39.5t-10.5 -38.5q-4 -19 -6 -32t-2 -46h-881l7 33q105 80 204 168l150 127
q178 149 227 196q116 109 183 213q80 123 111 271q29 137 -9 209q-42 81 -171 81q-94 0 -175.5 -60t-120.5 -157z" />
    <glyph glyph-name="three" unicode="3" horiz-adv-x="1159" 
d="M492 1139l-26 110q43 39 116 74q104 49 209 49q155 0 248 -67q110 -80 78 -228q-25 -119 -116.5 -213t-232.5 -143q145 0 224 -84t48 -231q-42 -197 -217.5 -314t-394.5 -117q-82 0 -158.5 17.5t-137.5 52.5q15 25 26.5 55.5t24.5 67.5l14 8q40 -59 106 -97t143 -38
q156 0 263.5 101.5t141.5 258.5q29 136 -29.5 207.5t-194.5 71.5q-16 0 -57 -4t-43 -4l17 41q3 16 1 41l77 -4q121 0 205 92q78 82 104 207q25 114 -17.5 186t-144.5 72q-74 0 -147 -45t-118 -119z" />
    <glyph glyph-name="four" unicode="4" horiz-adv-x="1159" 
d="M761 381h-635l6 29q157 176 287 319q163 180 285 311l298 320l64 -4l67 4l-183 -860l190 8l-23 -70q-5 -24 -6 -65l-186 8l-83 -389l-80 8q-23 0 -35 -1t-49 -7zM790 500l140 655l-11 8q-79 -82 -201 -215q-51 -53 -199 -219q-99 -111 -198 -221l6 -8h463z" />
    <glyph glyph-name="five" unicode="5" horiz-adv-x="1159" 
d="M400 692l143 672l14 8h660l4 -16q-4 -10 -18.5 -45t-20.5 -66l-5 -41q-63 15 -130.5 24t-141.5 9h-303l-97 -455q52 25 114.5 37t117.5 12q168 0 259.5 -110.5t55.5 -278.5q-40 -188 -202 -321q-176 -146 -405 -146q-125 0 -213 31q-48 17 -98 51l58 136l17 4
q29 -74 99.5 -113t162.5 -39q143 0 254 115q100 104 134 266q32 149 -16 229q-55 90 -211 90q-71 0 -134 -24q-42 -16 -80 -45z" />
    <glyph glyph-name="six" unicode="6" horiz-adv-x="1159" 
d="M1104 1364l10 -70q-46 13 -95 13q-224 0 -395 -240q-135 -188 -188 -436q156 184 371 184q186 0 269.5 -103.5t46.5 -277.5q-42 -201 -192 -330t-351 -129q-244 0 -328 177q-70 149 -15 409q79 369 294 590t485 221q23 0 44 -1t44 -7zM750 737q-139 0 -234.5 -92
t-133.5 -268q-29 -135 27 -235.5t185 -100.5q131 0 226 117q82 102 116 260q31 147 -20 233t-166 86z" />
    <glyph glyph-name="seven" unicode="7" horiz-adv-x="1159" 
d="M454 1372h877l-13 -61q-97 -117 -304 -379q-218 -275 -366 -469q-204 -268 -348 -471l-67 8q-31 0 -46 -2q-20 -6 -26 -6l5 24q169 207 340 414q257 313 338 414q162 200 284 364l-7 9q-118 0 -355 -16.5t-352 -16.5l28 94q6 25 8.5 51.5t3.5 42.5z" />
    <glyph glyph-name="eight" unicode="8" horiz-adv-x="1159" 
d="M897 778l-3 -16q127 -25 189.5 -113t33.5 -223q-43 -205 -198 -328t-359 -123q-203 0 -301 101q-106 108 -63 309q27 129 135.5 233.5t241.5 135.5l4 16q-91 18 -143 102q-45 74 -23 177q32 151 172 241q128 82 286 82q86 0 147 -16.5t110 -61.5q94 -82 63 -225
q-22 -102 -103.5 -183t-188.5 -108zM855 1307q-109 0 -191 -90q-36 -41 -57.5 -89.5t-32.5 -103.5q-10 -47 -1 -91t32 -85q23 -31 58 -44t82 -13q115 0 192 94q34 35 52 77t30 99q23 104 -19.5 175t-144.5 71zM731 725q-131 0 -234 -107q-92 -96 -121 -233q-32 -147 15 -240
q51 -104 195 -104q135 0 233 117q82 98 112 239q30 142 -12 228q-51 100 -188 100z" />
    <glyph glyph-name="nine" unicode="9" horiz-adv-x="1159" 
d="M220 111l27 8q67 -78 180 -78q98 0 201.5 78t189.5 221q51 88 88.5 186.5t59.5 198.5q-149 -184 -372 -184q-168 0 -253.5 106.5t-47.5 286.5q43 201 193 319.5t359 118.5q225 0 303 -182q67 -156 14 -404q-74 -352 -296 -581.5t-470 -229.5q-61 0 -103 9.5t-51 19.5
q4 47 -22 107zM1010 954l3 13q32 149 -18 244.5t-172 95.5q-140 0 -235 -115q-81 -96 -113 -246q-28 -133 12 -219q46 -100 175 -100q125 0 223 99t125 228z" />
    <glyph glyph-name="colon" unicode=":" horiz-adv-x="589" 
d="M184 102q11 50 55.5 86.5t93.5 36.5t78.5 -36.5t18.5 -86.5q-11 -51 -55 -89t-95 -38q-49 0 -78 37t-18 90zM341 840q11 51 54.5 87t94.5 36q49 0 78.5 -37t18.5 -86q-10 -49 -55 -86t-94 -37t-78 37t-19 86z" />
    <glyph glyph-name="semicolon" unicode=";" horiz-adv-x="589" 
d="M23 -332l241 459q33 59 46 74q36 41 73 41q36 0 57 -19.5t13 -54.5q-5 -25 -16.5 -43.5t-51.5 -67.5l-328 -401zM378 840q11 51 54.5 87t94.5 36q50 0 79 -37t18 -86q-10 -49 -54.5 -86t-94.5 -37q-49 0 -78 37t-19 86z" />
    <glyph glyph-name="less" unicode="&#x3c;" horiz-adv-x="1245" 
d="M1166 115l-28 -131l-937 483l24 111l1141 479l-27 -127l-963 -410z" />
    <glyph glyph-name="equal" unicode="=" horiz-adv-x="1245" 
d="M1305 786l-28 -131h-1032l28 131h1032zM1221 389l-28 -131h-1032l28 131h1032z" />
    <glyph glyph-name="greater" unicode="&#x3e;" horiz-adv-x="1245" 
d="M123 115l963 405l-790 410l27 127l942 -479l-23 -111l-1147 -483z" />
    <glyph glyph-name="question" unicode="?" horiz-adv-x="811" 
d="M731 881l-158 -144q-77 -69 -107.5 -110t-39.5 -82q-10 -49 14.5 -86t73.5 -37q21 0 66 16l10 -8l-37 -57q-26 -8 -59 -8q-96 0 -149 61q-56 68 -33 180q16 72 61 133q37 49 109 109l151 131q79 65 112 112.5t42 92.5q16 76 -30.5 122t-126.5 46q-45 0 -101 -27t-90 -63
l10 102q61 29 112.5 45t100.5 16q141 0 209 -71.5t42 -194.5q-18 -86 -58.5 -145.5t-123.5 -132.5zM274 102q11 50 55.5 86.5t93.5 36.5t78.5 -36.5t18.5 -86.5q-11 -51 -55 -89t-95 -38q-49 0 -78 37t-18 90z" />
    <glyph glyph-name="at" unicode="@" horiz-adv-x="1658" 
d="M673 528q-14 -65 6.5 -108t88.5 -43q96 0 228 180q124 168 149 287q11 51 -8 87t-76 36q-123 0 -250 -164q-110 -144 -138 -275zM1213 934l45 94h180l-261 -536q-15 -33 -18 -50q-6 -28 4 -46.5t39 -18.5q98 0 216 115q145 139 189 348q34 161 -60 303q-122 180 -394 180
q-283 0 -506.5 -176t-281.5 -451q-59 -274 94.5 -448t439.5 -174q162 0 310.5 75.5t266.5 210.5h127q-134 -178 -333.5 -285.5t-404.5 -107.5q-319 0 -499 199q-185 207 -119 518q67 313 328.5 527t583.5 214q299 0 455 -176q151 -168 101 -405q-48 -226 -239 -400
q-177 -161 -331 -161q-86 0 -123 49q-27 37 -22 98q-94 -74 -131 -94q-74 -41 -152 -41q-57 0 -100.5 21.5t-73.5 64.5q-34 43 -42 94t5 115q36 170 201 314.5t339 144.5q72 0 112.5 -31t54.5 -84z" />
    <glyph glyph-name="A" unicode="A" horiz-adv-x="1376" 
d="M1023 1425l310 -1433q-23 2 -50.5 5t-54.5 3q-31 0 -62.5 -3t-50.5 -5q-35 289 -95 557h-520q-130 -211 -201.5 -335t-121.5 -222q-27 6 -39 7t-32 1q-21 0 -42.5 -3t-33.5 -5l944 1433h49zM1007 635l-115 524l-336 -524h451z" />
    <glyph glyph-name="B" unicode="B" horiz-adv-x="1269" 
d="M196 0l297 1397h401q234 0 331 -64.5t64 -218.5q-30 -139 -145 -237q-105 -93 -257 -127q146 0 234 -70q110 -86 75 -250q-47 -221 -258 -348q-78 -49 -168.5 -65.5t-204.5 -16.5h-369zM656 1319l-115 -541l78 -4q70 0 138.5 11.5t133.5 37.5q175 70 212 246
q30 139 -51 199q-72 51 -244 51h-152zM526 705l-133 -627h193q151 0 266 88t145 227q36 170 -67 246q-88 66 -289 66h-115z" />
    <glyph glyph-name="C" unicode="C" horiz-adv-x="1376" 
d="M1308 217l-36 -131q-108 -61 -230 -90t-251 -29q-336 0 -486 199t-78 539q71 335 336 532q253 188 591 188q232 0 418 -94q-18 -31 -37.5 -71.5t-36.5 -83.5l-17 -5q-41 74 -152 129q-95 48 -199 48q-270 0 -466 -195q-178 -178 -238 -457q-62 -295 52 -471t360 -176
q110 0 238.5 45t231.5 123z" />
    <glyph glyph-name="D" unicode="D" horiz-adv-x="1617" 
d="M664 1315l-260 -1221q35 0 121.5 -8t133.5 -8q101 0 189 15.5t168 49.5q173 78 281 240q96 143 139 346q69 324 -50 459t-463 135q-41 0 -143.5 -4t-115.5 -4zM204 0l297 1397h606q152 0 232 -19q117 -26 193 -104q91 -90 117.5 -226.5t-5.5 -285.5q-44 -205 -149 -361
q-89 -135 -238 -245q-106 -78 -245.5 -117t-406.5 -39h-401z" />
    <glyph glyph-name="E" unicode="E" horiz-adv-x="1290" 
d="M481 1397h909l-17 -62l-9 -61q-38 8 -88.5 14t-91.5 6l-204 4h-340l-109 -512h500q31 0 93.5 4.5t92.5 4.5q-15 -33 -19 -54l-5 -57q-30 0 -90 6t-91 6h-500l-127 -598l85 -4q119 0 223 3t247 9q55 0 107.5 6.5t84.5 10.5l-17 -62l-9 -61h-922z" />
    <glyph glyph-name="F" unicode="F" 
d="M182 -8l299 1405h725l-18 -62l-9 -61q-37 8 -87.5 14t-91.5 6l-204 4h-156l-109 -512h316q30 0 92.5 4.5t93.5 4.5q-15 -33 -20 -54l-4 -57q-31 0 -91 6t-90 6h-316l-150 -704q-23 4 -43 6t-45 2q-24 0 -51 -3t-41 -5z" />
    <glyph glyph-name="G" unicode="G" horiz-adv-x="1617" 
d="M1650 1151h-21q-64 96 -173.5 146.5t-246.5 50.5q-269 0 -465.5 -169t-261.5 -474q-66 -310 53.5 -483t420.5 -173q86 0 173 17.5t162 52.5l112 524l89 -4l91 4l-123 -577q-145 -48 -293 -73.5t-285 -25.5q-375 0 -530 207q-143 193 -73 522q75 351 343 545
q254 184 611 184q159 0 289 -30.5t210 -87.5q-21 -33 -42.5 -75t-39.5 -81z" />
    <glyph glyph-name="H" unicode="H" horiz-adv-x="1617" 
d="M1399 807l126 590q20 -4 40 -6t49 -2q34 0 56.5 4t35.5 4l-299 -1405q-24 4 -44 6t-44 2q-25 0 -51.5 -3t-41.5 -5l150 708q-75 0 -246 4.5t-182 4.5q-73 0 -246 -4.5t-190 -4.5l-150 -708q-23 4 -43 6t-45 2q-22 0 -37 -1t-55 -7l299 1405q36 -4 48.5 -6t39.5 -2
q35 0 57.5 4t34.5 4l-126 -590q76 0 250.5 -4t182.5 -4q74 0 245.5 4t185.5 4z" />
    <glyph glyph-name="I" unicode="I" horiz-adv-x="589" 
d="M194 -8l299 1405q19 -4 39 -6t49 -2q35 0 57.5 4t34.5 4l-299 -1405q-23 4 -43 6t-45 2q-24 0 -51 -3t-41 -5z" />
    <glyph glyph-name="J" unicode="J" horiz-adv-x="589" 
d="M703 1397l-263 -1237q-41 -193 -180 -318t-332 -125l-5 54q154 0 239 123q59 86 96 258l265 1245q36 -4 48.5 -6t39.5 -2q35 0 57.5 4t34.5 4z" />
    <glyph glyph-name="K" unicode="K" horiz-adv-x="1269" 
d="M1489 1397l-558 -447l-214 -176q189 -282 379 -565l121 -205l-3 -12l-108 8q-31 0 -65 -3t-52 -5q-26 59 -48.5 101t-55.5 87l-334 525q-4 4 -8.5 5t-15.5 3l-9 -4l-152 -717q-23 4 -43 6t-45 2q-24 0 -51 -3t-41 -5l299 1405q19 -4 39 -6t49 -2q35 0 57.5 4t34.5 4
l-135 -635l6 -8q11 0 39 17t57.5 40t81.5 66l615 520q29 -4 41 -6t39 -2q18 0 41 3t39 5z" />
    <glyph glyph-name="L" unicode="L" 
d="M661 1397l-276 -1299l69 -4q49 0 151 6t151 6q55 0 110.5 6.5t88.5 10.5q-7 -17 -12 -30t-9 -32q-5 -24 -4.5 -39.5t-0.5 -21.5h-745l297 1397q19 -4 39 -6t49 -2q35 0 57.5 4t34.5 4z" />
    <glyph glyph-name="M" unicode="M" horiz-adv-x="1835" 
d="M1808 1397h41q-45 -412 -53 -502q-17 -164 -44 -477q-19 -223 -34 -426q-42 4 -60 6t-36 2q-43 0 -63 -2q-23 -6 -33 -6q25 207 50.5 414.5t43 373.5t25.5 273q-158 -205 -302 -396q-131 -174 -251.5 -343t-203.5 -298h-21l-65 234q-41 153 -74.5 265t-83.5 271
q-44 134 -84 267q-221 -682 -233 -719q-62 -203 -92 -342q-27 6 -39 7t-32 1q-19 0 -41.5 -3t-34.5 -5q101 274 274.5 762.5t221.5 642.5h53q47 -164 101 -342q61 -201 116 -365q69 -201 136 -366q167 217 267 350q134 178 265 351t286 372z" />
    <glyph glyph-name="N" unicode="N" horiz-adv-x="1617" 
d="M1689 1397l-299 -1405h-62q-22 55 -79 127l-677 979h-20l-235 -1106q-24 4 -33.5 6t-22.5 2q-14 0 -31.5 -3t-27.5 -5l299 1405h82l746 -1057h20l225 1057q24 -4 33.5 -6t21.5 -2q15 0 32 3t28 5z" />
    <glyph glyph-name="O" unicode="O" horiz-adv-x="1376" 
d="M1305 709q31 147 30.5 249.5t-44.5 199.5t-127 149.5t-188 52.5q-227 0 -397 -187.5t-236 -500.5q-64 -301 36 -473q95 -162 300 -162q236 0 422 233q150 187 197 406zM656 -33q-285 0 -417.5 200t-62.5 529q70 330 293.5 529.5t500.5 199.5q272 0 418 -165
q165 -191 92 -535q-72 -340 -300.5 -549t-523.5 -209z" />
    <glyph glyph-name="P" unicode="P" horiz-adv-x="1159" 
d="M479 639l-138 -647q-23 4 -43 6t-45 2q-24 0 -51 -3t-41 -5l299 1405h365q297 0 396.5 -75t59.5 -261q-38 -182 -164 -277.5t-363 -140.5q-35 -4 -76 -8t-45 -4q-35 0 -89.5 4t-64.5 4zM622 1315l-127 -598l89 -4l112 4q154 14 259.5 104t135.5 228q23 110 -16 178
q-43 76 -158 88l-134 4z" />
    <glyph glyph-name="Q" unicode="Q" horiz-adv-x="1724" 
d="M1147 1425q338 0 513 -178q187 -190 117 -518q-61 -287 -266 -479q-173 -162 -428 -242q193 -174 385 -348q-45 -18 -91.5 -38.5t-86.5 -47.5q-9 27 -141 168q-138 149 -237 233q-34 -8 -51 -8q-350 0 -521 189q-179 196 -106 540q68 318 329.5 523.5t583.5 205.5z
M1572 709q31 145 26.5 248.5t-61 201.5t-157 149.5t-227.5 51.5q-284 0 -482 -209q-179 -188 -241 -479q-67 -314 67 -484q119 -151 359 -151q309 0 523 272q148 191 193 400z" />
    <glyph glyph-name="R" unicode="R" horiz-adv-x="1269" 
d="M644 1319l-119 -561q2 0 36 -4t65 -4q43 0 69 3t98 13q122 27 211 102.5t114 192.5q47 221 -171 258q-18 2 -35 3t-48 1h-30zM182 -8l299 1405h434q236 0 329 -77t59 -235q-35 -165 -188 -270q-127 -86 -312 -119l308 -536l73 -115l26 -53q-30 4 -55 6t-62 2
q-28 0 -46 -1t-70 -7q-23 47 -58 114q-23 46 -35 66l-175 315l-123 193h-78l-146 -688q-23 4 -43 6t-45 2q-22 0 -37 -1t-55 -7z" />
    <glyph glyph-name="S" unicode="S" 
d="M188 270h20q45 -108 103 -155q69 -58 184 -58q125 0 224.5 87t126.5 212q33 158 -115 242q-142 68 -280 137q-146 103 -105 297q41 191 198 297q144 96 340 96q80 0 154.5 -24.5t119.5 -73.5q-18 -29 -46 -79t-47 -89h-20q-13 84 -69.5 132t-146.5 48
q-107 0 -196.5 -67.5t-112.5 -173.5q-33 -156 116 -242q141 -70 283 -137q147 -98 108 -281q-46 -215 -224 -346q-167 -125 -384 -125q-84 0 -175.5 33t-130.5 90q19 33 37 78t38 102z" />
    <glyph glyph-name="T" unicode="T" horiz-adv-x="1159" 
d="M947 1298l-278 -1310q-24 4 -44.5 6t-44.5 2q-25 0 -51 -3t-40 -5l278 1310q-160 0 -227.5 -4t-228.5 -20q5 14 11 28.5t10 32.5q3 15 3.5 32t1.5 30h1057l-17 -62l-9 -61q-76 10 -187 17t-234 7z" />
    <glyph glyph-name="U" unicode="U" horiz-adv-x="1376" 
d="M546 1397l-168 -787q-60 -284 8 -407q76 -137 332 -137q231 0 375 157q130 142 187 408l163 766q31 -8 56 -8l59 8l-174 -815q-63 -297 -257.5 -456t-470.5 -159q-152 0 -251 36t-166.5 113t-73.5 212q-5 102 26 250l175 819q36 -4 48.5 -6t39.5 -2q35 0 57.5 4t34.5 4z
" />
    <glyph glyph-name="V" unicode="V" horiz-adv-x="1376" 
d="M947 467l331 553l196 344l23 33q17 -4 33 -6t39 -2q18 0 40.5 3t34.5 5q-34 -47 -245 -374t-378 -593q-214 -340 -265 -438l-39 8q-13 0 -25.5 -3t-21.5 -5q-51 188 -129 538q-59 265 -114 522t-81 345q24 -4 46 -6t50 -2q25 0 55.5 3t49.5 5l30 -201l65 -356l117 -623
h20z" />
    <glyph glyph-name="W" unicode="W" horiz-adv-x="2052" 
d="M450 266l-129 1131q24 -4 46 -6t50 -2l97 8l15 -217l30 -418l57 -541h20q103 182 242 432q165 295 245 445q128 233 161 299q30 -8 55 -8q14 0 31.5 3t27.5 5l139 -1176h21q32 58 68 117q26 47 64 117l401 774l85 168q18 -4 34 -6t38 -2l72 8q-28 -43 -98 -160
q-44 -76 -61 -102l-632 -1143q-17 4 -32 6t-35 2q-25 0 -68 -8l-128 1151h-16l-642 -1151q-18 4 -31.5 6t-32.5 2q-31 0 -45 -2q-20 -6 -26 -6z" />
    <glyph glyph-name="X" unicode="X" horiz-adv-x="1269" 
d="M398 356l298 344l-151 385l-138 312q28 -4 52 -6t56 -2q27 0 59.5 3t53.5 5l69 -176l138 -373q230 274 461 549q17 -4 33 -6t38 -2q19 0 42 3t38 5l-46 -41l-404 -438l-134 -152l310 -774q-28 4 -53 6t-56 2q-30 0 -64 -3t-52 -5q-95 334 -220 626q-129 -145 -257 -305
q-111 -137 -248 -321q-18 4 -34 6t-38 2q-21 0 -44.5 -3t-35.5 -5z" />
    <glyph glyph-name="Y" unicode="Y" horiz-adv-x="1376" 
d="M918 623l-134 -631q-24 4 -44 6t-44 2q-25 0 -51 -3t-41 -5l127 594l-332 811q48 -4 70 -6t43 -2q26 0 61 3t55 5q33 -117 120 -361.5t123 -326.5q59 53 269 331q140 183 267 357q29 -4 41 -6t39 -2q18 0 41.5 3t37.5 5q-102 -105 -187 -205l-302 -365
q-40 -43 -85.5 -102t-73.5 -102z" />
    <glyph glyph-name="Z" unicode="Z" horiz-adv-x="1269" 
d="M46 45l770 832q65 71 193.5 212.5t188.5 213.5l-233 4q-116 0 -229 -9q-337 -24 -347 -24q5 14 11 28.5t10 32.5q3 15 3.5 32t1.5 30h1077l-9 -41q-143 -148 -357 -373q-201 -211 -394 -426q-242 -268 -410 -463l311 -4q98 0 300 16.5t280 16.5l-17 -62l-9 -61h-1151z
" />
    <glyph glyph-name="bracketleft" unicode="[" horiz-adv-x="700" 
d="M227 -238l376 1770h319l-12 -57h-196l-352 -1655h196l-12 -58h-319z" />
    <glyph glyph-name="backslash" unicode="\" 
d="M522 1532l436 -1532q-14 2 -36.5 3t-32.5 1q-41 0 -58 -4l-436 1532l60 -4z" />
    <glyph glyph-name="bracketright" unicode="]" horiz-adv-x="700" 
d="M730 1532l-376 -1770h-319l12 58h197l352 1655h-197l12 57h319z" />
    <glyph glyph-name="asciicircum" unicode="^" horiz-adv-x="1245" 
d="M369 565h-143l623 832h136l269 -832h-143l-227 668z" />
    <glyph glyph-name="underscore" unicode="_" 
d="M954 -328h-1024l17 78h1024z" />
    <glyph glyph-name="grave" unicode="`" horiz-adv-x="700" 
d="M723 1090h-70l-282 200q-19 23 -39 45l-1 33l9 25q23 41 75 41h20q11 -7 22 -13q17 -14 34.5 -37.5t28.5 -35.5z" />
    <glyph glyph-name="a" unicode="a" 
d="M985 643l-101 -475l-10 -29q-9 -41 -3 -59.5t39 -18.5l68 13l-10 -45q-29 -15 -65 -21l-76 -8q-59 0 -89 28.5t-23 98.5l-20 -21q-160 -131 -332 -131q-114 0 -179 71t-41 183q26 121 110.5 187.5t333.5 107.5q107 17 142 27q86 27 103 108q25 115 -23 178.5t-167 63.5
q-100 0 -184 -53q-65 -41 -88 -90h-25l24 114q92 56 178.5 85.5t178.5 29.5q332 0 259 -344zM728 205l63 299l-76 -12q-190 -37 -238 -58q-134 -55 -160 -176q-20 -96 21.5 -144t138.5 -48q43 0 94 22.5t86 54.5q19 13 44 33.5t27 28.5z" />
    <glyph glyph-name="b" unicode="b" horiz-adv-x="1159" 
d="M135 0l326 1532l81 -4l83 4l-161 -758q90 103 179 154q103 59 218 59q203 0 283 -151q70 -134 30 -324q-46 -217 -200 -371q-166 -166 -377 -166q-111 0 -184 54q-48 34 -76 94q-33 -21 -83 -60q-70 -55 -82 -63h-37zM794 901q-162 0 -274 -149q-91 -123 -136 -334
q-36 -168 19 -270.5t188 -102.5q156 0 271 156q92 125 130 303q38 176 -6 280q-49 117 -192 117z" />
    <glyph glyph-name="c" unicode="c" 
d="M1130 901l-74 -135h-16q-2 2 -14 26.5t-29 43.5q-25 38 -75.5 60t-108.5 22q-167 0 -291 -130q-113 -118 -150 -292q-43 -199 32.5 -323t245.5 -124q86 0 161 35q57 27 150 96l11 -4l-32 -94q-80 -53 -164.5 -80t-170.5 -27q-250 0 -360 148q-103 139 -55 364
q50 234 224.5 367t409.5 133q97 0 167.5 -18.5t138.5 -67.5z" />
    <glyph glyph-name="d" unicode="d" horiz-adv-x="1159" 
d="M1325 1532l-327 -1540l-81 8q-23 0 -35 -1t-48 -7l42 201q-177 -218 -398 -218q-185 0 -267 123q-89 131 -37 377q47 219 198 365.5t349 146.5q107 0 174.5 -51t106.5 -150l159 746l81 -4zM944 512q33 154 -5 258q-47 131 -191 131q-178 0 -281 -147q-77 -109 -119 -308
q-33 -155 4 -262q46 -131 192 -131q159 0 272 158q91 125 128 301z" />
    <glyph glyph-name="e" unicode="e" 
d="M952 205l-26 -107q-93 -57 -189 -90t-191 -33q-217 0 -321 135.5t-54 372.5q48 222 196 359q158 145 383 145q172 0 262 -113q101 -124 54 -346l-10 -45q-72 0 -238 4.5t-174 4.5h-291l-12 -41q-35 -164 37 -274.5t242 -110.5q92 0 192 49q64 30 140 90zM369 565h545
q33 156 1 246q-40 111 -179 111q-135 0 -241 -113q-96 -102 -126 -244z" />
    <glyph glyph-name="f" unicode="f" horiz-adv-x="589" 
d="M177 -8l192 905h-139l17 78h139l7 16q72 209 184 350q148 191 325 191h41q-9 -21 -22.5 -66t-25.5 -98l-9 -8l-37 20q-34 13 -71 13q-92 0 -145 -60.5t-73 -156.5q-12 -54 -13 -123q0 -54 -1 -78h209l-13 -41l-4 -37h-205l-192 -905q-19 4 -37 6t-43 2q-20 0 -44.5 -3
t-39.5 -5z" />
    <glyph glyph-name="g" unicode="g" 
d="M517 12q-315 0 -367 -245q-26 -121 41 -183.5t202 -62.5q131 0 229 57q121 70 150 205q30 143 -51 194q-56 35 -204 35zM1158 979l-17 -78l-221 21q57 -52 80.5 -119.5t5.5 -151.5q-34 -159 -181 -243q-133 -76 -326 -76h-37q-43 0 -72 -17q-46 -24 -59 -82
q-13 -61 28 -79.5t148 -18.5h131q356 0 298 -274q-38 -178 -206 -290t-399 -112q-146 0 -235 70q-106 82 -75 229q23 107 92.5 168.5t173.5 81.5l4 17q-50 12 -73 41q-32 43 -14 127q14 67 62 110q36 31 114 66q-88 45 -120 108q-37 74 -14 182q32 152 138 236
q117 92 316 92h28l281 -12l56 -4q23 0 50 3t43 5zM402 664l-9 -21q-22 -106 23.5 -182t148.5 -76q108 0 184.5 77t100.5 189q27 129 -7 199q-38 80 -155 80q-109 0 -185 -73t-101 -193z" />
    <glyph glyph-name="h" unicode="h" horiz-adv-x="1159" 
d="M157 -8l327 1540l81 -4l83 4l-158 -746q73 97 168 149t202 52q174 0 231.5 -100.5t14.5 -300.5l-126 -594l-80 8q-22 0 -35 -1t-49 -7l117 549q38 178 7 254q-35 86 -164 86q-137 0 -219 -82t-117 -246l-119 -561l-80 8q-23 0 -35.5 -1t-48.5 -7z" />
    <glyph glyph-name="i" unicode="i" horiz-adv-x="589" 
d="M575 975l-209 -983l-80 8q-22 0 -35 -1t-48 -7l209 983q29 -4 41 -6t38 -2zM670 1323q-9 -41 -46.5 -71.5t-78.5 -30.5q-43 0 -68 29.5t-16 72.5t47.5 75t81.5 32q41 0 65 -31t15 -76z" />
    <glyph glyph-name="j" unicode="j" horiz-adv-x="589" 
d="M215 -8l209 983q30 -4 42 -6t39 -2l83 8l-210 -991q-32 -148 -71 -234q-54 -123 -153 -201q-56 -41 -118.5 -65.5t-121.5 -24.5h-13l-2 66l19 -4h21q41 0 81 35.5t73 91.5q44 69 72 153t50 191zM682 1323q-9 -41 -46 -71.5t-78 -30.5q-43 0 -68 29.5t-16 72.5t47.5 75
t81.5 32q41 0 65 -31t14 -76z" />
    <glyph glyph-name="k" unicode="k" 
d="M652 1532l-195 -918l-13 -41q-3 -18 7 -24l12 -4q31 0 103 53q44 35 91 70l155 131l197 176q30 -4 41.5 -6t38.5 -2q18 0 41.5 3t38.5 5l-4 -17q-167 -118 -286.5 -206t-247.5 -187q27 -39 116 -180q12 -18 123 -190q80 -123 125 -191l-3 -12q-35 6 -53 7t-47 1
q-27 0 -57.5 -3t-46.5 -5q-49 90 -135 225q-67 107 -156 238q-20 32 -43 32q-24 0 -39 -73l-90 -422l-80 8q-23 0 -35.5 -1t-48.5 -7l327 1540l81 -4z" />
    <glyph glyph-name="l" unicode="l" horiz-adv-x="589" 
d="M202 -8l327 1540l81 -4l83 4l-327 -1540l-80 8q-23 0 -35.5 -1t-48.5 -7z" />
    <glyph glyph-name="m" unicode="m" horiz-adv-x="1724" 
d="M145 -8l209 983q30 -4 41.5 -6t38.5 -2l84 8l-37 -176q72 92 150 137q87 51 192 51q100 0 172 -54t84 -151q83 103 170.5 154t191.5 51q181 0 239 -104q51 -95 8 -297l-126 -594l-80 8q-22 0 -35 -1t-49 -7l117 549q34 161 11 237q-31 103 -168 103t-217 -111
q-57 -80 -87 -221l-118 -557l-80 8q-23 0 -35.5 -1t-48.5 -7l128 602q61 287 -156 287q-146 0 -222 -88q-57 -66 -86 -203l-127 -598l-80 8q-23 0 -35.5 -1t-48.5 -7z" />
    <glyph glyph-name="n" unicode="n" horiz-adv-x="1159" 
d="M157 -8l209 983q30 -4 41.5 -6t38.5 -2l84 8l-40 -189q73 97 168 149t202 52q176 0 233 -98t13 -303l-126 -594l-80 8q-22 0 -35 -1t-49 -7l117 549q35 164 9 239q-31 101 -166 101q-151 0 -237 -111q-73 -94 -116 -299l-102 -479l-80 8q-23 0 -35.5 -1t-48.5 -7z" />
    <glyph glyph-name="o" unicode="o" 
d="M170 492q47 219 208 357t364 138q193 0 282.5 -137t41.5 -363q-45 -211 -192 -354q-163 -158 -380 -158q-184 0 -280 127q-102 136 -58 344zM724 922q-158 0 -269 -148q-91 -121 -131 -311q-37 -174 4 -287q49 -135 197 -135q143 0 256 166q89 131 123 289q36 168 4 280
q-41 146 -184 146z" />
    <glyph glyph-name="p" unicode="p" horiz-adv-x="1159" 
d="M397 459q-38 -176 12 -279q55 -114 207 -114q143 0 243 131q88 116 129 311q38 178 3 280q-45 130 -198 130q-160 0 -271 -158q-88 -125 -125 -301zM186 -532q-20 4 -38 6t-42 2q-21 0 -45.5 -3t-38.5 -5l320 1507q19 -4 37.5 -6t43.5 -2q20 0 44.5 3t38.5 5l-44 -209
q83 102 125 135q114 86 274 86q189 0 272 -143q79 -133 38 -328q-53 -248 -206 -394.5t-352 -146.5q-108 0 -173.5 50.5t-99.5 150.5z" />
    <glyph glyph-name="q" unicode="q" horiz-adv-x="1159" 
d="M932 459q41 190 -6 317q-52 142 -195 142q-152 0 -246 -117q-84 -103 -124 -289q-40 -190 -5 -299q46 -147 218 -147q129 0 230 120q94 111 128 273zM1042 975q30 -4 41.5 -6t38.5 -2l84 8l-320 -1507l-81 8q-23 0 -35 -1t-48 -7l149 704q-147 -197 -362 -197
q-206 0 -296 154q-83 141 -38 354q47 222 184.5 363t332.5 141q143 0 227 -86q58 -59 74 -139z" />
    <glyph glyph-name="r" unicode="r" horiz-adv-x="700" 
d="M161 -8l209 983q30 -4 41.5 -6t38.5 -2l84 8l-44 -205l14 25q75 86 145 135q83 57 153 57q35 0 64 -12l-66 -172q-45 16 -91 33q-82 0 -141 -50q-60 -57 -84.5 -110t-45.5 -152l-113 -532l-80 8q-23 0 -35.5 -1t-48.5 -7z" />
    <glyph glyph-name="s" unicode="s" horiz-adv-x="811" 
d="M172 193h16q28 -64 81 -108t121 -44q82 0 152.5 52t88.5 136q27 125 -200.5 195t-186.5 260q30 143 142.5 223t257.5 80q72 0 137 -18q48 -13 82 -35q-47 -74 -81 -148h-16q-12 56 -51.5 96t-96.5 40q-82 0 -142 -43t-77 -125q-26 -123 198.5 -201t188.5 -250
q-33 -153 -173 -246q-126 -82 -274 -82q-143 0 -243 70q26 49 41 74q26 49 35 74z" />
    <glyph glyph-name="t" unicode="t" horiz-adv-x="589" 
d="M397 1176l178 65l-57 -266h217l-13 -45l-3 -33h-217l-110 -516l-19 -70q-32 -151 -2 -211q26 -51 101 -51q27 0 54 6t45 11l-11 -50q-44 -16 -94 -28.5t-86 -12.5q-121 0 -165 60q-50 69 -16 231l11 33l128 598h-127q6 12 11 37q7 29 5 41h127z" />
    <glyph glyph-name="u" unicode="u" 
d="M1115 975l-209 -983l-80 8q-22 0 -35 -1t-48 -7l38 180q-145 -197 -370 -197q-170 0 -232.5 95.5t-18.5 302.5l128 602q30 -4 41.5 -6t38.5 -2l84 8l-118 -553q-36 -172 0.5 -258t172.5 -86q141 0 228 110q68 84 97 222l120 565q29 -4 41 -6t38 -2z" />
    <glyph glyph-name="v" unicode="v" 
d="M804 532l258 443q13 -4 27 -6t37 -2q16 0 67 8q-68 -101 -195 -291q-112 -170 -230 -356q-139 -224 -202 -336l-59 8q-25 0 -68 -8q-24 174 -79.5 462.5t-112.5 520.5q55 -8 92 -8q19 0 46.5 3t45.5 5q12 -144 49.5 -360t85.5 -431q3 4 26.5 29t26.5 29z" />
    <glyph glyph-name="w" unicode="w" horiz-adv-x="1617" 
d="M1767 975q-74 -107 -159 -234q-126 -190 -229 -358q-138 -223 -231 -391l-55 8l-55 -8q-9 160 -37.5 375t-58.5 370q-73 -102 -194 -307t-243 -438l-51 8q-15 0 -32 -3t-28 -5q-32 293 -68.5 529.5t-82.5 453.5q19 -4 39 -6t49 -2q19 0 46.5 3t45.5 5q16 -217 36 -394.5
t60 -367.5q84 121 228.5 368.5t220.5 393.5l51 -8l55 8q6 -172 35 -385t66 -377q115 178 257 410q153 249 208 352q13 -4 27 -6t36 -2q15 0 33 3t31 5z" />
    <glyph glyph-name="x" unicode="x" 
d="M536 479l-268 496q24 -4 46 -6t54 -2q43 0 69 4t40 4q26 -80 83 -199q52 -110 98 -182l146 147l222 234q15 -4 31 -6t36 -2q17 0 39.5 3t36.5 5q-101 -88 -235 -213q-144 -133 -240 -230l271 -516l-5 -24l-92 8q-25 0 -54.5 -3t-45.5 -5q-32 84 -85 200.5t-111 225.5
q-97 -99 -189 -199q-125 -137 -197 -227q-24 6 -33.5 7t-25.5 1q-19 0 -36.5 -3t-27.5 -5l5 24z" />
    <glyph glyph-name="y" unicode="y" 
d="M468 4l-208 971q24 -4 46.5 -6t50.5 -2q23 0 52 3t48 5q20 -193 52 -370t89 -392q94 135 234 363.5t235 398.5q15 -4 31.5 -6t37.5 -2q16 0 66 8q-310 -469 -343 -518q-241 -361 -327 -494q-185 -285 -313 -495q-18 4 -33 6t-35 2q-29 0 -44 -2q-20 -6 -28 -6z" />
    <glyph glyph-name="z" unicode="z" 
d="M1135 946l-819 -864h47q105 0 215 6q328 18 367 18l-21 -53l-2 -53h-877l4 20q116 113 289 289q149 154 305 316q145 153 245 260h-41q-94 0 -191 -6q-291 -19 -322 -19l15 49l7 54h783z" />
    <glyph glyph-name="braceleft" unicode="{" horiz-adv-x="700" 
d="M497 360l-72 -340q-24 -112 1.5 -175.5t115.5 -82.5h-41q-155 0 -202.5 66t-10.5 242l72 336q23 110 5 161t-110 80q98 27 140.5 78t65.5 156l77 364q36 168 122 232q78 55 229 55h29q-103 -25 -152.5 -83t-74.5 -175l-76 -361q-26 -120 -66 -174q-48 -65 -155 -92
q97 -29 116 -100q15 -55 -13 -187z" />
    <glyph glyph-name="bar" unicode="|" horiz-adv-x="700" 
d="M274 0l326 1532h131l-326 -1532h-131z" />
    <glyph glyph-name="braceright" unicode="}" horiz-adv-x="700" 
d="M265 16l73 344q28 129 66 185q50 71 158 98q-92 27 -112 88.5t6 181.5l76 361q24 112 0 172.5t-117 85.5q168 0 225 -51q70 -64 33 -236l-77 -364q-22 -105 -2.5 -158t107.5 -80q-101 -27 -141.5 -76t-64.5 -161l-72 -336q-37 -176 -114 -242t-233 -66h-37
q98 19 150.5 81.5t75.5 172.5z" />
    <glyph glyph-name="asciitilde" unicode="~" horiz-adv-x="1245" 
d="M1212 696l57 -82q-71 -96 -147 -153q-97 -72 -192 -72q-39 0 -95 21q-24 8 -160 69q-50 23 -80 35q-49 18 -88 18q-72 0 -144 -61q-41 -35 -113 -127l-53 82q106 141 184 189.5t158 48.5q74 0 222 -72t201 -72q66 0 139 58q65 49 111 118z" />
    <glyph glyph-name="dieresis" unicode="&#xa8;" horiz-adv-x="1024" 
 />
    <glyph glyph-name="copyright" unicode="&#xa9;" horiz-adv-x="1552" 
d="M758 -33q-301 0 -467.5 214t-102.5 515t321.5 515t558.5 214q305 0 474 -212t104 -517q-64 -301 -323.5 -515t-564.5 -214zM781 74q254 0 475 184t275 438q54 256 -87.5 441.5t-397.5 185.5q-252 0 -470.5 -185.5t-272.5 -441.5q-54 -254 87 -438t391 -184zM1144 434
l-29 -78q-63 -34 -135.5 -49.5t-148.5 -15.5q-199 0 -291.5 109.5t-51.5 299.5q40 189 193 297.5t352 108.5q65 0 129.5 -14.5t121.5 -38.5q-13 -21 -25 -48.5t-20 -46.5h-8q-15 35 -84.5 60.5t-130.5 25.5q-144 0 -251 -98t-139 -250q-34 -159 34.5 -251.5t199.5 -92.5
q84 0 175 33q35 12 109 49z" />
    <glyph glyph-name="registered" unicode="&#xae;" horiz-adv-x="1587" 
d="M709 889q15 69 27 144t17 132q40 -4 81.5 -7t84.5 -3q41 0 84 5t84 5q54 0 98.5 -12t73.5 -37.5t41 -64.5t1 -90q-13 -64 -52.5 -110t-89 -77t-101 -48t-91.5 -19q29 -50 65 -116.5t72 -131t71.5 -117.5t59.5 -80l-2 -10q-43 10 -76 10q-34 0 -81 -10q-53 110 -112 219
t-125 219h-66l-31 -143q-31 -148 -49 -295q-35 10 -64 10q-31 0 -70 -10q20 72 40 143.5t36 143.5zM785 748q10 -5 33 -7t51 -2q52 0 101.5 11.5t90.5 36t70 64.5t40 95q17 80 -26.5 125t-127.5 45q-39 0 -75.5 -3t-67.5 -7q-15 -47 -29.5 -96t-24.5 -97zM207 696
q32 152 118 286t206.5 233.5t267 157t297.5 57.5q152 0 274 -57.5t200 -157t106.5 -233.5t-3.5 -286q-32 -151 -117.5 -285.5t-206 -233.5t-267 -156.5t-298.5 -57.5q-151 0 -273 57.5t-200 156.5t-107 233.5t3 285.5zM293 696q-29 -135 -4 -254.5t93 -209t175.5 -141.5
t242.5 -52t265.5 52t236.5 141.5t181 209t104 254.5t4.5 255t-92.5 209t-176 141.5t-243 52.5t-265 -52.5t-236 -141.5t-181.5 -209t-104.5 -255z" />
    <glyph glyph-name="acute" unicode="&#xb4;" horiz-adv-x="1024" 
 />
    <glyph glyph-name="paragraph" unicode="&#xb6;" horiz-adv-x="1024" 
d="M1234 1435l-15 -70h-127l-290 -1365h-82l290 1365h-166l-290 -1365h-84l157 738q-172 8 -253.5 102.5t-49.5 245.5q33 157 161 253t306 96h443z" />
    <glyph glyph-name="onequarter" unicode="&#xbc;" horiz-adv-x="1780" 
 />
    <glyph glyph-name="onehalf" unicode="&#xbd;" horiz-adv-x="1780" 
 />
    <glyph glyph-name="threequarters" unicode="&#xbe;" horiz-adv-x="1780" 
 />
    <glyph glyph-name="Agrave" unicode="&#xc0;" horiz-adv-x="1376" 
d="M1006 635l-114 524l-337 -524h451zM1184 1499h-70l-281 201q-20 22 -39 45q-3 8 2 33l5 24q24 41 79 41h16l22 -12q18 -14 35.5 -38t26.5 -36zM1023 1425l310 -1434q-23 2 -50.5 5t-54.5 3q-31 0 -62.5 -3t-50.5 -5q-35 289 -95 557h-520q-130 -211 -201.5 -334.5
t-121.5 -222.5q-27 6 -39 7t-32 1q-21 0 -42.5 -3t-33.5 -5l944 1434h49z" />
    <glyph glyph-name="Aacute" unicode="&#xc1;" horiz-adv-x="1376" 
d="M1006 635l-114 524l-337 -524h451zM1117 1757q16 12 43.5 36t50.5 38l28 12h16q56 0 61 -41l-5 -24q-5 -25 -11 -33q-30 -23 -59 -45l-366 -201h-70zM1023 1425l310 -1434q-23 2 -50.5 5t-54.5 3q-31 0 -62.5 -3t-50.5 -5q-35 289 -95 557h-520q-130 -211 -201.5 -334.5
t-121.5 -222.5q-27 6 -39 7t-32 1q-21 0 -42.5 -3t-33.5 -5l944 1434h49z" />
    <glyph glyph-name="uni1EA2" unicode="&#x1ea2;" horiz-adv-x="1376" 
d="M1006 635l-114 524l-337 -524h451zM1023 1425l310 -1434q-23 2 -50.5 5t-54.5 3q-31 0 -62.5 -3t-50.5 -5q-35 289 -95 557h-520q-130 -211 -201.5 -334.5t-121.5 -222.5q-27 6 -39 7t-32 1q-21 0 -42.5 -3t-33.5 -5l944 1434h49zM889 1858l33 55q9 16 30 31
q21 20 74 38.5t102 18.5q37 0 51 -3t51 -16.5t50 -37.5q38 -50 24 -119q-5 -25 -34.5 -60.5t-73.5 -78.5l-59 -39l-45 -27q-19 -16 -24.5 -26.5t-8.5 -16.5l-20 -72h-53l13 62q4 18 14.5 43.5t19.5 36.5l105 108l26 39q17 31 28 64q15 73 -80 86q-55 -9 -82 -37q8 -25 7 -49
q-7 -31 -29 -52.5t-58 -25.5q-31 0 -49.5 23.5t-11.5 54.5z" />
    <glyph glyph-name="Atilde" unicode="&#xc3;" horiz-adv-x="1376" 
d="M1006 635l-114 524l-337 -524h451zM1023 1425l310 -1434q-23 2 -50.5 5t-54.5 3q-31 0 -62.5 -3t-50.5 -5q-35 289 -95 557h-520q-130 -211 -201.5 -334.5t-121.5 -222.5q-27 6 -39 7t-32 1q-21 0 -42.5 -3t-33.5 -5l944 1434h49zM776 1565h-49q33 84 97.5 140t131.5 56
q33 0 48.5 -6t25.5 -11t51 -32l59 -33q15 -4 25 -7t21 -5q19 0 39.5 10.5t32.5 23.5t25.5 33.5t23.5 39.5h54q-40 -88 -97 -144q-66 -65 -140 -65q-45 0 -81 18q-27 19 -41 27q-24 14 -51 29.5t-54 15.5l-43 -8q-24 -9 -41.5 -28.5t-36.5 -53.5z" />
    <glyph glyph-name="uni1EA0" unicode="&#x1ea0;" horiz-adv-x="1376" 
d="M1006 635l-114 524l-337 -524h451zM1023 1425l310 -1434q-23 2 -50.5 5t-54.5 3q-31 0 -62.5 -3t-50.5 -5q-35 289 -95 557h-520q-130 -211 -201.5 -334.5t-121.5 -222.5q-27 6 -39 7t-32 1q-21 0 -42.5 -3t-33.5 -5l944 1434h49zM617 -311q-37 0 -59.5 28.5t-14.5 65.5
t42.5 65.5t71.5 28.5q39 0 60.5 -27.5t13.5 -66.5q-8 -37 -42.5 -65.5t-71.5 -28.5z" />
    <glyph glyph-name="Acircumflex" unicode="&#xc2;" horiz-adv-x="1376" 
d="M1006 635l-114 524l-337 -524h451zM1023 1425l310 -1434q-23 2 -50.5 5t-54.5 3q-31 0 -62.5 -3t-50.5 -5q-35 289 -95 557h-520q-130 -211 -201.5 -334.5t-121.5 -222.5q-27 6 -39 7t-32 1q-21 0 -42.5 -3t-33.5 -5l944 1434h49zM765 1511h-70l327 344h111l181 -344h-70
l-192 218z" />
    <glyph glyph-name="uni1EA6" unicode="&#x1ea6;" horiz-adv-x="1376" 
d="M1006 635l-114 524l-337 -524h451zM1023 1425l310 -1434q-23 2 -50.5 5t-54.5 3q-31 0 -62.5 -3t-50.5 -5q-35 289 -95 557h-520q-130 -211 -201.5 -334.5t-121.5 -222.5q-27 6 -39 7t-32 1q-21 0 -42.5 -3t-33.5 -5l944 1434h49zM765 1511h-70l327 344h111l181 -344h-70
l-192 218zM1457 1884h-69l-281 201q-19 22 -39 45q-3 8 3 33l5 24q22 41 78 41h16q11 -6 23 -12q17 -14 34.5 -38t26.5 -36z" />
    <glyph glyph-name="uni1EA4" unicode="&#x1ea4;" horiz-adv-x="1376" 
d="M1006 635l-114 524l-337 -524h451zM1023 1425l310 -1434q-23 2 -50.5 5t-54.5 3q-31 0 -62.5 -3t-50.5 -5q-35 289 -95 557h-520q-130 -211 -201.5 -334.5t-121.5 -222.5q-27 6 -39 7t-32 1q-21 0 -42.5 -3t-33.5 -5l944 1434h49zM772 1511h-69l327 344h110l181 -344h-70
l-191 218zM1705 1987l-366 -201h-70l313 258l60 49q34 21 70 41h17q47 0 51 -45l-3 -33q-3 -16 -13 -24q-7 -13 -28 -26t-31 -19z" />
    <glyph glyph-name="uni1EA8" unicode="&#x1ea8;" horiz-adv-x="1376" 
d="M1006 635l-114 524l-337 -524h451zM1023 1425l310 -1434q-23 2 -50.5 5t-54.5 3q-31 0 -62.5 -3t-50.5 -5q-35 289 -95 557h-520q-130 -211 -201.5 -334.5t-121.5 -222.5q-27 6 -39 7t-32 1q-21 0 -42.5 -3t-33.5 -5l944 1434h49zM765 1511h-70l327 344h111l181 -344h-70
l-192 218zM1190 2079l33 55q9 16 30 31q21 20 74 38.5t102 18.5q37 0 51 -3t51 -16.5t50 -37.5q38 -50 24 -119q-6 -25 -35 -60.5t-73 -78.5l-59 -39l-45 -27q-19 -16 -24.5 -26.5t-8.5 -16.5l-20 -72h-53l13 62q4 18 14.5 43.5t19.5 36.5l105 108l26 39q17 31 28 64
q15 73 -80 86q-55 -9 -82 -37q8 -25 7 -49q-7 -31 -29 -52.5t-58 -25.5q-31 0 -49.5 23.5t-11.5 54.5z" />
    <glyph glyph-name="uni1EAA" unicode="&#x1eaa;" horiz-adv-x="1376" 
d="M1006 635l-114 524l-337 -524h451zM1023 1425l310 -1434q-23 2 -50.5 5t-54.5 3q-31 0 -62.5 -3t-50.5 -5q-35 289 -95 557h-520q-130 -211 -201.5 -334.5t-121.5 -222.5q-27 6 -39 7t-32 1q-21 0 -42.5 -3t-33.5 -5l944 1434h49zM765 1511h-70l327 344h111l181 -344h-70
l-192 218zM848 1907h-49q34 84 98.5 140t131.5 56q33 0 48 -6t25 -11t52 -32l58 -33q16 -4 25.5 -7t21.5 -5q19 0 39 10.5t32.5 23.5t26 33.5t23.5 39.5h54q-40 -88 -97 -144q-67 -65 -141 -65q-45 0 -80 18q-27 19 -41 27q-24 14 -51.5 29.5t-54.5 15.5l-42 -8
q-24 -9 -42 -28.5t-37 -53.5z" />
    <glyph glyph-name="uni1EAC" unicode="&#x1eac;" horiz-adv-x="1376" 
d="M1006 635l-114 524l-337 -524h451zM1023 1425l310 -1434q-23 2 -50.5 5t-54.5 3q-31 0 -62.5 -3t-50.5 -5q-35 289 -95 557h-520q-130 -211 -201.5 -334.5t-121.5 -222.5q-27 6 -39 7t-32 1q-21 0 -42.5 -3t-33.5 -5l944 1434h49zM765 1511h-70l327 344h111l181 -344h-70
l-192 218zM617 -311q-37 0 -59.5 28.5t-14.5 65.5t42.5 65.5t71.5 28.5q39 0 60.5 -27.5t13.5 -66.5q-8 -37 -42.5 -65.5t-71.5 -28.5z" />
    <glyph glyph-name="Abreve" unicode="&#x102;" horiz-adv-x="1376" 
d="M1006 635l-114 524l-337 -524h451zM1023 1425l310 -1434q-23 2 -50.5 5t-54.5 3q-31 0 -62.5 -3t-50.5 -5q-35 289 -95 557h-520q-130 -211 -201.5 -334.5t-121.5 -222.5q-27 6 -39 7t-32 1q-21 0 -42.5 -3t-33.5 -5l944 1434h49zM1332 1741q-47 -113 -131 -177.5
t-207 -64.5q-108 0 -166.5 69.5t-52.5 172.5h78q15 -60 61.5 -93.5t115.5 -33.5q148 0 232 127h70z" />
    <glyph glyph-name="uni1EB0" unicode="&#x1eb0;" horiz-adv-x="1376" 
d="M1006 635l-114 524l-337 -524h451zM1023 1425l310 -1434q-23 2 -50.5 5t-54.5 3q-31 0 -62.5 -3t-50.5 -5q-35 289 -95 557h-520q-130 -211 -201.5 -334.5t-121.5 -222.5q-27 6 -39 7t-32 1q-21 0 -42.5 -3t-33.5 -5l944 1434h49zM1332 1741q-47 -113 -131 -177.5
t-207 -64.5q-108 0 -166.5 69.5t-52.5 172.5h78q15 -60 61.5 -93.5t115.5 -33.5q148 0 232 127h70zM1127 1732h-70l-280 201q-21 22 -40 45q-3 8 2 33l5 24q24 41 79 41h16q12 -6 23 -12q18 -14 35 -38t27 -36z" />
    <glyph glyph-name="uni1EAE" unicode="&#x1eae;" horiz-adv-x="1376" 
d="M1006 635l-114 524l-337 -524h451zM1023 1425l310 -1434q-23 2 -50.5 5t-54.5 3q-31 0 -62.5 -3t-50.5 -5q-35 289 -95 557h-520q-130 -211 -201.5 -334.5t-121.5 -222.5q-27 6 -39 7t-32 1q-21 0 -42.5 -3t-33.5 -5l944 1434h49zM1332 1741q-47 -113 -131 -177.5
t-207 -64.5q-108 0 -166.5 69.5t-52.5 172.5h78q15 -60 61.5 -93.5t115.5 -33.5q148 0 232 127h70zM1352 1990q15 12 43 36t51 38q14 6 27 12h16q56 0 61 -41l-5 -24q-5 -25 -11 -33q-30 -23 -58 -45l-367 -201h-70z" />
    <glyph glyph-name="uni1EB2" unicode="&#x1eb2;" horiz-adv-x="1376" 
d="M1006 635l-114 524l-337 -524h451zM1023 1425l310 -1434q-23 2 -50.5 5t-54.5 3q-31 0 -62.5 -3t-50.5 -5q-35 289 -95 557h-520q-130 -211 -201.5 -334.5t-121.5 -222.5q-27 6 -39 7t-32 1q-21 0 -42.5 -3t-33.5 -5l944 1434h49zM1332 1741q-47 -113 -131 -177.5
t-207 -64.5q-108 0 -166.5 69.5t-52.5 172.5h78q15 -60 61.5 -93.5t115.5 -33.5q148 0 232 127h70zM934 2072l33 55q9 16 31 31q21 20 74 38.5t102 18.5q37 0 50.5 -3t51 -16.5t50.5 -37.5q38 -50 23 -119q-5 -25 -34 -60.5t-73 -78.5l-60 -39l-44 -27q-20 -16 -25 -26.5
t-8 -16.5l-21 -72h-53l13 62q4 18 14.5 43.5t19.5 36.5l105 108l27 39q16 31 27 64q16 73 -79 86q-55 -9 -82 -37q7 -25 6 -49q-6 -31 -28 -52.5t-58 -25.5q-31 0 -49.5 23.5t-12.5 54.5z" />
    <glyph glyph-name="uni1EB4" unicode="&#x1eb4;" horiz-adv-x="1376" 
d="M1006 635l-114 524l-337 -524h451zM1023 1425l310 -1434q-23 2 -50.5 5t-54.5 3q-31 0 -62.5 -3t-50.5 -5q-35 289 -95 557h-520q-130 -211 -201.5 -334.5t-121.5 -222.5q-27 6 -39 7t-32 1q-21 0 -42.5 -3t-33.5 -5l944 1434h49zM1332 1741q-47 -113 -131 -177.5
t-207 -64.5q-108 0 -166.5 69.5t-52.5 172.5h78q15 -60 61.5 -93.5t115.5 -33.5q148 0 232 127h70zM855 1798h-49q34 84 98.5 140t131.5 56q33 0 48 -6t25 -11t51 -32l59 -33q15 -4 25 -7t22 -5q19 0 39 10.5t32.5 23.5t25.5 33.5t24 39.5h54q-40 -88 -97 -144
q-67 -65 -141 -65q-45 0 -80 18q-27 19 -41 27q-24 14 -51.5 29.5t-54.5 15.5l-42 -8q-24 -9 -42 -28.5t-37 -53.5z" />
    <glyph glyph-name="uni1EB6" unicode="&#x1eb6;" horiz-adv-x="1366" 
d="M1018 1430q24 -119 53 -256.5t58.5 -279.5t58 -280.5t54.5 -259.5t49 -215t37 -149q-27 4 -52 7t-54 3t-55 -3t-56 -7q-3 53 -13 119.5t-23.5 139.5t-29.5 147.5t-28 142.5q-65 2 -132 3t-135 1q-63 0 -125 -1t-126 -3q-99 -160 -183.5 -305.5t-131.5 -243.5q-20 4 -38 7
t-36 3q-19 0 -38 -3t-40 -7q243 362 477 718.5t470 721.5h39zM891 1153l-333 -520q53 0 110 -2t110 -2q58 0 115 1t116 3zM861 1755q-2 -75 35 -116t128 -41q48 0 82.5 11t62 30.5t48 49t39.5 66.5h58q-11 -52 -37.5 -98.5t-65.5 -82.5t-91 -56.5t-116 -20.5t-107.5 20.5
t-68 56.5t-31 82.5t4.5 98.5h59zM460 -284q9 43 46.5 73.5t80.5 30.5t67 -30.5t15 -73.5t-46.5 -74t-80.5 -31t-67 31t-15 74z" />
    <glyph glyph-name="Egrave" unicode="&#xc8;" horiz-adv-x="1290" 
d="M481 1397h909l-17 -62l-9 -61q-38 8 -88.5 14t-91.5 6l-204 4h-340l-109 -512h500q31 0 93.5 4.5t92.5 4.5q-15 -33 -19 -54l-5 -57q-30 0 -90 6t-91 6h-500l-127 -598l85 -4q119 0 223 3t247 9q55 0 107.5 6.5t84.5 10.5l-17 -62l-9 -61h-922zM1187 1499h-70l-281 201
q-20 22 -39 45q-2 8 3 33l5 24q23 41 78 41h17q10 -6 21 -12q18 -14 35.5 -38t26.5 -36z" />
    <glyph glyph-name="Eacute" unicode="&#xc9;" horiz-adv-x="1290" 
d="M481 1397h909l-17 -62l-9 -61q-38 8 -88.5 14t-91.5 6l-204 4h-340l-109 -512h500q31 0 93.5 4.5t92.5 4.5q-15 -33 -19 -54l-5 -57q-30 0 -90 6t-91 6h-500l-127 -598l85 -4q119 0 223 3t247 9q55 0 107.5 6.5t84.5 10.5l-17 -62l-9 -61h-922zM1053 1757q15 12 42.5 36
t50.5 38l28 12h16q56 0 61 -41l-5 -24q-5 -25 -11 -33q-30 -23 -59 -45l-366 -201h-69z" />
    <glyph glyph-name="uni1EBA" unicode="&#x1eba;" horiz-adv-x="1290" 
d="M481 1397h909l-17 -62l-9 -61q-38 8 -88.5 14t-91.5 6l-204 4h-340l-109 -512h500q31 0 93.5 4.5t92.5 4.5q-15 -33 -19 -54l-5 -57q-30 0 -90 6t-91 6h-500l-127 -598l85 -4q119 0 223 3t247 9q55 0 107.5 6.5t84.5 10.5l-17 -62l-9 -61h-922zM829 1858l32 55
q9 16 31 31q20 20 73.5 38.5t102.5 18.5q37 0 50.5 -3t50.5 -16.5t51 -37.5q39 -50 24 -119q-5 -25 -34 -60.5t-74 -78.5l-59 -39l-45 -27q-20 -16 -25.5 -26.5t-8.5 -16.5l-19 -72h-53l13 62q4 18 14.5 43.5t18.5 36.5l105 108l27 39q17 31 28 64q15 73 -80 86
q-56 -9 -82 -37q7 -25 6 -49q-7 -31 -29 -52.5t-57 -25.5q-31 0 -49.5 23.5t-11.5 54.5z" />
    <glyph glyph-name="uni1EBC" unicode="&#x1ebc;" horiz-adv-x="1290" 
d="M481 1397h909l-17 -62l-9 -61q-38 8 -88.5 14t-91.5 6l-204 4h-340l-109 -512h500q31 0 93.5 4.5t92.5 4.5q-15 -33 -19 -54l-5 -57q-30 0 -90 6t-91 6h-500l-127 -598l85 -4q119 0 223 3t247 9q55 0 107.5 6.5t84.5 10.5l-17 -62l-9 -61h-922zM732 1565h-49
q34 84 98 140t131 56q33 0 48.5 -6t25.5 -11t51 -32l59 -33q15 -4 25 -7t21 -5q19 0 39.5 10.5t32.5 23.5t25.5 33.5t23.5 39.5h54q-40 -88 -97 -144q-66 -65 -140 -65q-45 0 -81 18q-25 19 -41 27q-23 14 -50.5 29.5t-54.5 15.5l-43 -8q-24 -9 -41.5 -28.5t-36.5 -53.5z
" />
    <glyph glyph-name="uni1EB8" unicode="&#x1eb8;" horiz-adv-x="1290" 
d="M481 1397h909l-17 -62l-9 -61q-38 8 -88.5 14t-91.5 6l-204 4h-340l-109 -512h500q31 0 93.5 4.5t92.5 4.5q-15 -33 -19 -54l-5 -57q-30 0 -90 6t-91 6h-500l-127 -598l85 -4q119 0 223 3t247 9q55 0 107.5 6.5t84.5 10.5l-17 -62l-9 -61h-922zM480 -284q9 43 46.5 73.5
t80.5 30.5t67 -30.5t15 -73.5q-10 -43 -47 -74t-80 -31t-67.5 31t-14.5 74z" />
    <glyph glyph-name="Ecircumflex" unicode="&#xca;" horiz-adv-x="1290" 
d="M481 1397h909l-17 -62l-9 -61q-38 8 -88.5 14t-91.5 6l-204 4h-340l-109 -512h500q31 0 93.5 4.5t92.5 4.5q-15 -33 -19 -54l-5 -57q-30 0 -90 6t-91 6h-500l-127 -598l85 -4q119 0 223 3t247 9q55 0 107.5 6.5t84.5 10.5l-17 -62l-9 -61h-922zM726 1511h-69l327 344h110
l181 -344h-70l-190 218z" />
    <glyph glyph-name="uni1EC0" unicode="&#x1ec0;" horiz-adv-x="1290" 
d="M481 1397h909l-17 -62l-9 -61q-38 8 -88.5 14t-91.5 6l-204 4h-340l-109 -512h500q31 0 93.5 4.5t92.5 4.5q-15 -33 -19 -54l-5 -57q-30 0 -90 6t-91 6h-500l-127 -598l85 -4q119 0 223 3t247 9q55 0 107.5 6.5t84.5 10.5l-17 -62l-9 -61h-922zM736 1511h-70l327 344h111
l181 -344h-70l-191 218zM1428 1884h-69l-281 201q-19 22 -39 45q-3 8 3 33l5 24q23 41 79 41h16q10 -6 22 -12q17 -14 34.5 -38t26.5 -36z" />
    <glyph glyph-name="uni1EBE" unicode="&#x1ebe;" horiz-adv-x="1290" 
d="M481 1397h909l-17 -62l-9 -61q-38 8 -88.5 14t-91.5 6l-204 4h-340l-109 -512h500q31 0 93.5 4.5t92.5 4.5q-15 -33 -19 -54l-5 -57q-30 0 -90 6t-91 6h-500l-127 -598l85 -4q119 0 223 3t247 9q55 0 107.5 6.5t84.5 10.5l-17 -62l-9 -61h-922zM736 1511h-70l327 344h111
l181 -344h-70l-191 218zM1542 2064q14 12 41.5 36t51.5 38q14 6 27 12h17q55 0 60 -41l-5 -24q-5 -25 -11 -33q-29 -23 -58 -45l-366 -201h-70z" />
    <glyph glyph-name="uni1EC2" unicode="&#x1ec2;" horiz-adv-x="1290" 
d="M481 1397h909l-17 -62l-9 -61q-38 8 -88.5 14t-91.5 6l-204 4h-340l-109 -512h500q31 0 93.5 4.5t92.5 4.5q-15 -33 -19 -54l-5 -57q-30 0 -90 6t-91 6h-500l-127 -598l85 -4q119 0 223 3t247 9q55 0 107.5 6.5t84.5 10.5l-17 -62l-9 -61h-922zM736 1511h-70l327 344h111
l181 -344h-70l-191 218zM1161 2079l33 55q9 16 30 31q21 20 74 38.5t102 18.5q37 0 51 -3t51 -16.5t50 -37.5q39 -50 24 -119q-5 -25 -34.5 -60.5t-73.5 -78.5l-59 -39l-45 -27q-19 -16 -24.5 -26.5t-8.5 -16.5l-19 -72h-54l13 62q4 18 15 43.5t19 36.5l105 108l26 39
q17 31 28 64q15 73 -80 86q-55 -9 -82 -37q8 -25 7 -49q-7 -31 -29 -52.5t-58 -25.5q-31 0 -49.5 23.5t-11.5 54.5z" />
    <glyph glyph-name="uni1EC4" unicode="&#x1ec4;" horiz-adv-x="1290" 
d="M481 1397h909l-17 -62l-9 -61q-38 8 -88.5 14t-91.5 6l-204 4h-340l-109 -512h500q31 0 93.5 4.5t92.5 4.5q-15 -33 -19 -54l-5 -57q-30 0 -90 6t-91 6h-500l-127 -598l85 -4q119 0 223 3t247 9q55 0 107.5 6.5t84.5 10.5l-17 -62l-9 -61h-922zM726 1511h-70l327 344h111
l181 -344h-70l-191 218zM809 1907h-49q34 84 98.5 140t131.5 56q33 0 48 -6t25 -11t53 -32l58 -33q15 -4 24.5 -7t21.5 -5q19 0 39.5 10.5t32.5 23.5t25.5 33.5t24.5 39.5h53q-40 -88 -97 -144q-67 -65 -141 -65q-45 0 -80 18q-26 19 -41 27q-23 14 -51 29.5t-55 15.5
l-41 -8q-25 -9 -42.5 -28.5t-37.5 -53.5z" />
    <glyph glyph-name="uni1EC6" unicode="&#x1ec6;" horiz-adv-x="1290" 
d="M481 1397h909l-17 -62l-9 -61q-38 8 -88.5 14t-91.5 6l-204 4h-340l-109 -512h500q31 0 93.5 4.5t92.5 4.5q-15 -33 -19 -54l-5 -57q-30 0 -90 6t-91 6h-500l-127 -598l85 -4q119 0 223 3t247 9q55 0 107.5 6.5t84.5 10.5l-17 -62l-9 -61h-922zM726 1511h-69l327 344h110
l181 -344h-70l-190 218zM480 -284q9 43 46.5 73.5t80.5 30.5t67 -30.5t15 -73.5q-10 -43 -47 -74t-80 -31t-67.5 31t-14.5 74z" />
    <glyph glyph-name="Igrave" unicode="&#xcc;" horiz-adv-x="589" 
d="M194 -8l299 1405q19 -4 39 -6t49 -2q35 0 57.5 4t34.5 4l-299 -1405q-23 4 -43 6t-45 2t-51.5 -3t-40.5 -5zM797 1499h-70l-281 201q-19 22 -39 45l-1 33l9 24q22 41 74 41h20q11 -6 23 -12q17 -14 34.5 -38t27.5 -36z" />
    <glyph glyph-name="Iacute" unicode="&#xcd;" horiz-adv-x="589" 
d="M194 -8l299 1405q20 -4 40 -6t48 -2q35 0 57.5 4t35.5 4l-299 -1405q-24 4 -44 6t-45 2q-24 0 -50.5 -3t-41.5 -5zM852 1700l-366 -201h-70l313 258l60 49q35 21 70 41h12q51 0 56 -45l-2 -33q-4 -16 -14 -24q-7 -12 -28.5 -25.5t-30.5 -19.5z" />
    <glyph glyph-name="uni1EC8" unicode="&#x1ec8;" horiz-adv-x="589" 
d="M195 -8l299 1405q19 -4 39 -6t49 -2q34 0 56.5 4t35.5 4l-299 -1405q-24 4 -44 6t-44 2q-25 0 -51.5 -3t-40.5 -5zM472 1810l32 56q11 16 32 30q20 21 73.5 39.5t102.5 18.5q37 0 50.5 -3t50.5 -16.5t51 -38.5q38 -49 24 -118q-6 -25 -35 -61t-73 -79l-59 -39l-45 -26
q-20 -17 -25.5 -27t-8.5 -16l-19 -72h-53l13 62q4 18 14 43.5t19 35.5l105 109l27 39q17 31 27 63q16 74 -79 86q-53 -8 -82 -36q7 -25 5 -50q-6 -30 -27.5 -51.5t-57.5 -25.5q-31 0 -49.5 23.5t-12.5 53.5z" />
    <glyph glyph-name="Itilde" unicode="&#x128;" horiz-adv-x="589" 
d="M194 -8l299 1405q20 -4 40 -6t49 -2q34 0 56.5 4t35.5 4l-299 -1405q-24 4 -44 6t-44 2q-25 0 -51.5 -3t-41.5 -5zM389 1565h-49q34 84 96.5 140t129.5 56q37 0 52 -6t25 -11t53 -32l58 -33q5 -2 20.5 -7t21.5 -5q23 0 46.5 13.5t32.5 23.5t22.5 30.5t24.5 39.5h53
q-40 -88 -97 -144q-67 -65 -141 -65q-45 0 -80 18q-26 19 -41 27q-25 14 -54 29.5t-56 15.5q-12 0 -37 -8.5t-42.5 -28t-37.5 -53.5z" />
    <glyph glyph-name="uni1ECA" unicode="&#x1eca;" horiz-adv-x="589" 
d="M194 -8l299 1405q19 -4 39 -6t49 -2q35 0 57.5 4t34.5 4l-299 -1405q-23 4 -43 6t-45 2q-24 0 -50.5 -3t-41.5 -5zM228 -311q-37 0 -59.5 28.5t-14.5 65.5t42.5 65.5t71.5 28.5q39 0 61 -27.5t14 -66.5q-8 -37 -43 -65.5t-72 -28.5z" />
    <glyph glyph-name="Ograve" unicode="&#xd2;" horiz-adv-x="1376" 
d="M1305 709q31 147 30.5 249.5t-44.5 199.5t-127 149.5t-188 52.5q-227 0 -397 -187.5t-236 -500.5q-64 -301 36 -473q95 -162 300 -162q236 0 422 233q150 187 197 406zM656 -33q-285 0 -417.5 200t-62.5 529q70 330 293.5 529.5t500.5 199.5q272 0 418 -165
q165 -191 92 -535q-72 -340 -300.5 -549t-523.5 -209zM1103 1499h-69l-282 201q-19 22 -39 45q-2 8 3 33l5 24q23 41 79 41h16q10 -6 22 -12q17 -14 34.5 -38t26.5 -36z" />
    <glyph glyph-name="Oacute" unicode="&#xd3;" horiz-adv-x="1376" 
d="M1305 709q31 147 30.5 249.5t-44.5 199.5t-127 149.5t-188 52.5q-227 0 -397 -187.5t-236 -500.5q-64 -301 36 -473q95 -162 300 -162q236 0 422 233q150 187 197 406zM656 -33q-285 0 -417.5 200t-62.5 529q70 330 293.5 529.5t500.5 199.5q272 0 418 -165
q165 -191 92 -535q-72 -340 -300.5 -549t-523.5 -209zM1202 1757q15 12 42.5 36t51.5 38q13 6 27 12h17q55 0 60 -41l-5 -24q-5 -25 -11 -33q-29 -23 -59 -45l-365 -201h-70z" />
    <glyph glyph-name="uni1ECE" unicode="&#x1ece;" horiz-adv-x="1376" 
d="M1305 709q31 147 30.5 249.5t-44.5 199.5t-127 149.5t-188 52.5q-227 0 -397 -187.5t-236 -500.5q-64 -301 36 -473q95 -162 300 -162q236 0 422 233q150 187 197 406zM656 -33q-285 0 -417.5 200t-62.5 529q70 330 293.5 529.5t500.5 199.5q272 0 418 -165
q165 -191 92 -535q-72 -340 -300.5 -549t-523.5 -209zM861 1858l33 55q9 16 30 31q21 20 74 38.5t102 18.5q37 0 51 -3t51 -16.5t50 -37.5q39 -50 24 -119q-5 -25 -34 -60.5t-74 -78.5l-59 -39l-45 -27q-19 -16 -24.5 -26.5t-8.5 -16.5l-19 -72h-54l13 62q4 18 15 43.5
t19 36.5l105 108l26 39q17 31 28 64q15 73 -80 86q-55 -9 -82 -37q8 -25 7 -49q-7 -31 -29 -52.5t-58 -25.5q-31 0 -49.5 23.5t-11.5 54.5z" />
    <glyph glyph-name="Otilde" unicode="&#xd5;" horiz-adv-x="1376" 
d="M1305 709q31 147 30.5 249.5t-44.5 199.5t-127 149.5t-188 52.5q-227 0 -397 -187.5t-236 -500.5q-64 -301 36 -473q95 -162 300 -162q236 0 422 233q150 187 197 406zM656 -33q-285 0 -417.5 200t-62.5 529q70 330 293.5 529.5t500.5 199.5q272 0 418 -165
q165 -191 92 -535q-72 -340 -300.5 -549t-523.5 -209zM764 1565h-49q34 84 98 140t132 56q32 0 47.5 -6t26 -11t51.5 -32l58 -33q16 -4 25.5 -7t21.5 -5q18 0 39 10.5t32.5 23.5t25.5 33.5t24 39.5h53q-39 -88 -96 -144q-67 -65 -140 -65q-45 0 -81 18q-26 19 -41 27
q-24 14 -51.5 29.5t-53.5 15.5l-43 -8q-25 -9 -42 -28.5t-37 -53.5z" />
    <glyph glyph-name="uni1ECC" unicode="&#x1ecc;" horiz-adv-x="1376" 
d="M1305 709q31 147 30.5 249.5t-44.5 199.5t-127 149.5t-188 52.5q-227 0 -397 -187.5t-236 -500.5q-64 -301 36 -473q95 -162 300 -162q236 0 422 233q150 187 197 406zM656 -33q-285 0 -417.5 200t-62.5 529q70 330 293.5 529.5t500.5 199.5q272 0 418 -165
q165 -191 92 -535q-72 -340 -300.5 -549t-523.5 -209zM513 -284q9 43 46.5 73.5t80.5 30.5t67 -30.5t15 -73.5q-10 -43 -47 -74t-80 -31t-67.5 31t-14.5 74z" />
    <glyph glyph-name="Ocircumflex" unicode="&#xd4;" horiz-adv-x="1376" 
d="M1305 709q31 147 30.5 249.5t-44.5 199.5t-127 149.5t-188 52.5q-227 0 -397 -187.5t-236 -500.5q-64 -301 36 -473q95 -162 300 -162q236 0 422 233q150 187 197 406zM656 -33q-285 0 -417.5 200t-62.5 529q70 330 293.5 529.5t500.5 199.5q272 0 418 -165
q165 -191 92 -535q-72 -340 -300.5 -549t-523.5 -209zM759 1511h-70l327 344h111l180 -344h-69l-191 218z" />
    <glyph glyph-name="uni1ED2" unicode="&#x1ed2;" horiz-adv-x="1376" 
d="M1305 709q31 147 30.5 249.5t-44.5 199.5t-127 149.5t-188 52.5q-227 0 -397 -187.5t-236 -500.5q-64 -301 36 -473q95 -162 300 -162q236 0 422 233q150 187 197 406zM656 -33q-285 0 -417.5 200t-62.5 529q70 330 293.5 529.5t500.5 199.5q272 0 418 -165
q165 -191 92 -535q-72 -340 -300.5 -549t-523.5 -209zM755 1511h-69l327 344h110l181 -344h-69l-191 218zM1448 1884h-69l-281 201q-20 22 -39 45q-3 8 3 33l5 24q23 41 78 41h17q10 -6 21 -12q18 -14 35.5 -38t26.5 -36z" />
    <glyph glyph-name="uni1ED0" unicode="&#x1ed0;" horiz-adv-x="1376" 
d="M1305 709q31 147 30.5 249.5t-44.5 199.5t-127 149.5t-188 52.5q-227 0 -397 -187.5t-236 -500.5q-64 -301 36 -473q95 -162 300 -162q236 0 422 233q150 187 197 406zM656 -33q-285 0 -417.5 200t-62.5 529q70 330 293.5 529.5t500.5 199.5q272 0 418 -165
q165 -191 92 -535q-72 -340 -300.5 -549t-523.5 -209zM755 1511h-69l327 344h110l181 -344h-69l-191 218zM1562 2064q14 12 41.5 36t51.5 38q14 6 27 12h17q55 0 60 -41l-5 -24q-5 -25 -11 -33q-30 -23 -58 -45l-367 -201h-69z" />
    <glyph glyph-name="uni1ED4" unicode="&#x1ed4;" horiz-adv-x="1376" 
d="M1305 709q31 147 30.5 249.5t-44.5 199.5t-127 149.5t-188 52.5q-227 0 -397 -187.5t-236 -500.5q-64 -301 36 -473q95 -162 300 -162q236 0 422 233q150 187 197 406zM656 -33q-285 0 -417.5 200t-62.5 529q70 330 293.5 529.5t500.5 199.5q272 0 418 -165
q165 -191 92 -535q-72 -340 -300.5 -549t-523.5 -209zM755 1511h-69l327 344h110l181 -344h-69l-191 218zM1181 2079l32 55q10 16 31 31q20 20 73.5 38.5t102.5 18.5q37 0 50.5 -3t50.5 -16.5t51 -37.5q39 -50 24 -119q-5 -25 -34.5 -60.5t-73.5 -78.5l-59 -39l-45 -27
q-19 -16 -25 -26.5t-9 -16.5l-19 -72h-53l13 62q4 18 14.5 43.5t18.5 36.5l105 108l27 39q17 31 28 64q15 73 -80 86q-56 -9 -82 -37q7 -25 6 -49q-7 -31 -28.5 -52.5t-57.5 -25.5q-31 0 -49.5 23.5t-11.5 54.5z" />
    <glyph glyph-name="uni1ED6" unicode="&#x1ed6;" horiz-adv-x="1376" 
d="M1305 709q31 147 30.5 249.5t-44.5 199.5t-127 149.5t-188 52.5q-227 0 -397 -187.5t-236 -500.5q-64 -301 36 -473q95 -162 300 -162q236 0 422 233q150 187 197 406zM656 -33q-285 0 -417.5 200t-62.5 529q70 330 293.5 529.5t500.5 199.5q272 0 418 -165
q165 -191 92 -535q-72 -340 -300.5 -549t-523.5 -209zM755 1511h-69l327 344h110l181 -344h-69l-191 218zM839 1907h-49q34 84 98 140t132 56q33 0 48 -6t25 -11t52 -32l59 -33q15 -4 24.5 -7t21.5 -5q18 0 38.5 10.5t33 23.5t26 33.5t23.5 39.5h53q-39 -88 -96 -144
q-67 -65 -141 -65q-45 0 -80 18q-27 19 -41 27q-24 14 -51.5 29.5t-54.5 15.5l-42 -8q-24 -9 -41.5 -28.5t-37.5 -53.5z" />
    <glyph glyph-name="uni1ED8" unicode="&#x1ed8;" horiz-adv-x="1376" 
d="M1305 709q31 147 30.5 249.5t-44.5 199.5t-127 149.5t-188 52.5q-227 0 -397 -187.5t-236 -500.5q-64 -301 36 -473q95 -162 300 -162q236 0 422 233q150 187 197 406zM656 -33q-285 0 -417.5 200t-62.5 529q70 330 293.5 529.5t500.5 199.5q272 0 418 -165
q165 -191 92 -535q-72 -340 -300.5 -549t-523.5 -209zM759 1511h-70l327 344h111l180 -344h-69l-191 218zM513 -284q9 43 46.5 73.5t80.5 30.5t67 -30.5t15 -73.5q-10 -43 -47 -74t-80 -31t-67.5 31t-14.5 74z" />
    <glyph glyph-name="Ugrave" unicode="&#xd9;" horiz-adv-x="1376" 
d="M546 1397l-168 -787q-60 -284 8 -407q76 -137 332 -137q231 0 375 157q130 142 187 408l163 766q31 -8 56 -8l59 8l-174 -815q-63 -297 -257.5 -456t-470.5 -159q-152 0 -251 36t-166.5 113t-73.5 212q-5 102 26 250l175 819q36 -4 48.5 -6t39.5 -2q35 0 57.5 4t34.5 4z
M1206 1499h-69l-281 201q-20 22 -39 45q-3 8 3 33l5 24q22 41 77 41h17l22 -12q18 -14 35.5 -38t26.5 -36z" />
    <glyph glyph-name="Uacute" unicode="&#xda;" horiz-adv-x="1376" 
d="M546 1397l-168 -787q-60 -284 8 -407q76 -137 332 -137q231 0 375 157q130 142 187 408l163 766q31 -8 56 -8l59 8l-174 -815q-63 -297 -257.5 -456t-470.5 -159q-152 0 -251 36t-166.5 113t-73.5 212q-5 102 26 250l175 819q36 -4 48.5 -6t39.5 -2q35 0 57.5 4t34.5 4z
M1202 1757q15 12 42.5 36t51.5 38l26 12h17q55 0 61 -41l-5 -24q-6 -25 -11 -33q-29 -23 -59 -45l-366 -201h-70z" />
    <glyph glyph-name="uni1EE6" unicode="&#x1ee6;" horiz-adv-x="1376" 
d="M546 1397l-168 -787q-60 -284 8 -407q76 -137 332 -137q231 0 375 157q130 142 187 408l163 766q31 -8 56 -8l59 8l-174 -815q-63 -297 -257.5 -456t-470.5 -159q-152 0 -251 36t-166.5 113t-73.5 212q-5 102 26 250l175 819q36 -4 48.5 -6t39.5 -2q35 0 57.5 4t34.5 4z
M861 1858l32 55q10 16 31 31q21 20 74 38.5t102 18.5q37 0 51 -3t51 -16.5t50 -37.5q38 -50 24 -119q-6 -25 -35 -60.5t-73 -78.5l-59 -39l-45 -27q-19 -16 -24.5 -26.5t-8.5 -16.5l-20 -72h-54l14 62q4 18 14.5 43.5t19.5 36.5l105 108l26 39q17 31 28 64q15 73 -80 86
q-55 -9 -82 -37q8 -25 7 -49q-7 -31 -29 -52.5t-58 -25.5q-31 0 -49.5 23.5t-11.5 54.5z" />
    <glyph glyph-name="Utilde" unicode="&#x168;" horiz-adv-x="1376" 
d="M546 1397l-168 -787q-60 -284 8 -407q76 -137 332 -137q231 0 375 157q130 142 187 408l163 766q31 -8 56 -8l59 8l-174 -815q-63 -297 -257.5 -456t-470.5 -159q-152 0 -251 36t-166.5 113t-73.5 212q-5 102 26 250l175 819q36 -4 48.5 -6t39.5 -2q35 0 57.5 4t34.5 4z
M763 1565h-49q35 84 99 140t132 56q33 0 47.5 -6t25 -11t51.5 -32l58 -33q17 -4 26 -7t22 -5q18 0 38.5 10.5t32.5 23.5t26 33.5t24 39.5h53q-39 -88 -96 -144q-68 -65 -141 -65q-45 0 -80 18q-27 19 -41 27q-24 14 -51.5 29.5t-54.5 15.5l-42 -8q-25 -9 -42.5 -28.5
t-37.5 -53.5z" />
    <glyph glyph-name="uni1EE4" unicode="&#x1ee4;" horiz-adv-x="1376" 
d="M546 1397l-168 -787q-60 -284 8 -407q76 -137 332 -137q231 0 375 157q130 142 187 408l163 766q31 -8 56 -8l59 8l-174 -815q-63 -297 -257.5 -456t-470.5 -159q-152 0 -251 36t-166.5 113t-73.5 212q-5 102 26 250l175 819q36 -4 48.5 -6t39.5 -2q35 0 57.5 4t34.5 4z
M512 -284q9 43 46.5 73.5t80.5 30.5t67 -30.5t15 -73.5t-46 -74t-80 -31t-67.5 31t-15.5 74z" />
    <glyph glyph-name="Uhorn" unicode="&#x1af;" horiz-adv-x="1376" 
d="M1548 1352q16 0 42 1t48 25q8 11 18.5 23t14.5 29q4 22 -8 47q-4 10 -34.5 12t-31.5 8l26 123l56 -8l91 4h49l-10 -29l-23 -106q-10 -47 -20.5 -65.5t-59.5 -63.5q-34 -31 -69.5 -42.5t-100.5 -11.5l-152 -716q-63 -297 -257.5 -456t-470.5 -159q-152 0 -251 36
t-166.5 113t-73.5 212q-5 102 26 250l175 819q36 -4 48.5 -6t39.5 -2q35 0 57.5 4t34.5 4l-168 -787q-60 -284 8 -407q76 -137 332 -137q231 0 375 157q130 142 187 408l163 766q31 -8 56 -8l59 8z" />
    <glyph glyph-name="uni1EEA" unicode="&#x1eea;" horiz-adv-x="1376" 
d="M1206 1499h-69l-281 201q-20 22 -39 45q-3 8 3 33l5 24q22 41 77 41h17l22 -12q18 -14 35.5 -38t26.5 -36zM1548 1352q16 0 42 1t48 25q8 11 18.5 23t14.5 29q4 22 -8 47q-4 10 -34.5 12t-31.5 8l26 123l56 -8l91 4h49l-10 -29l-23 -106q-10 -47 -20.5 -65.5t-59.5 -63.5
q-34 -31 -69.5 -42.5t-100.5 -11.5l-152 -716q-63 -297 -257.5 -456t-470.5 -159q-152 0 -251 36t-166.5 113t-73.5 212q-5 102 26 250l175 819q36 -4 48.5 -6t39.5 -2q35 0 57.5 4t34.5 4l-168 -787q-60 -284 8 -407q76 -137 332 -137q231 0 375 157q130 142 187 408
l163 766q31 -8 56 -8l59 8z" />
    <glyph glyph-name="uni1EE8" unicode="&#x1ee8;" horiz-adv-x="1376" 
d="M1202 1757q15 12 42.5 36t51.5 38l26 12h17q55 0 61 -41l-5 -24q-6 -25 -11 -33q-29 -23 -59 -45l-366 -201h-70zM1548 1352q16 0 42 1t48 25q8 11 18.5 23t14.5 29q4 22 -8 47q-4 10 -34.5 12t-31.5 8l26 123l56 -8l91 4h49l-10 -29l-23 -106q-10 -47 -20.5 -65.5
t-59.5 -63.5q-34 -31 -69.5 -42.5t-100.5 -11.5l-152 -716q-63 -297 -257.5 -456t-470.5 -159q-152 0 -251 36t-166.5 113t-73.5 212q-5 102 26 250l175 819q36 -4 48.5 -6t39.5 -2q35 0 57.5 4t34.5 4l-168 -787q-60 -284 8 -407q76 -137 332 -137q231 0 375 157
q130 142 187 408l163 766q31 -8 56 -8l59 8z" />
    <glyph glyph-name="uni1EEC" unicode="&#x1eec;" horiz-adv-x="1376" 
d="M861 1858l32 55q10 16 31 31q21 20 74 38.5t102 18.5q37 0 51 -3t51 -16.5t50 -37.5q38 -50 24 -119q-6 -25 -35 -60.5t-73 -78.5l-59 -39l-45 -27q-19 -16 -24.5 -26.5t-8.5 -16.5l-20 -72h-54l14 62q4 18 14.5 43.5t19.5 36.5l105 108l26 39q17 31 28 64q15 73 -80 86
q-55 -9 -82 -37q8 -25 7 -49q-7 -31 -29 -52.5t-58 -25.5q-31 0 -49.5 23.5t-11.5 54.5zM1548 1352q16 0 42 1t48 25q8 11 18.5 23t14.5 29q4 22 -8 47q-4 10 -34.5 12t-31.5 8l26 123l56 -8l91 4h49l-10 -29l-23 -106q-10 -47 -20.5 -65.5t-59.5 -63.5q-34 -31 -69.5 -42.5
t-100.5 -11.5l-152 -716q-63 -297 -257.5 -456t-470.5 -159q-152 0 -251 36t-166.5 113t-73.5 212q-5 102 26 250l175 819q36 -4 48.5 -6t39.5 -2q35 0 57.5 4t34.5 4l-168 -787q-60 -284 8 -407q76 -137 332 -137q231 0 375 157q130 142 187 408l163 766q31 -8 56 -8l59 8z
" />
    <glyph glyph-name="uni1EEE" unicode="&#x1eee;" horiz-adv-x="1376" 
d="M763 1565h-49q35 84 99 140t132 56q33 0 47.5 -6t25 -11t51.5 -32l58 -33q17 -4 26 -7t22 -5q18 0 38.5 10.5t32.5 23.5t26 33.5t24 39.5h53q-39 -88 -96 -144q-68 -65 -141 -65q-45 0 -80 18q-27 19 -41 27q-24 14 -51.5 29.5t-54.5 15.5l-42 -8q-25 -9 -42.5 -28.5
t-37.5 -53.5zM1548 1352q16 0 42 1t48 25q8 11 18.5 23t14.5 29q4 22 -8 47q-4 10 -34.5 12t-31.5 8l26 123l56 -8l91 4h49l-10 -29l-23 -106q-10 -47 -20.5 -65.5t-59.5 -63.5q-34 -31 -69.5 -42.5t-100.5 -11.5l-152 -716q-63 -297 -257.5 -456t-470.5 -159
q-152 0 -251 36t-166.5 113t-73.5 212q-5 102 26 250l175 819q36 -4 48.5 -6t39.5 -2q35 0 57.5 4t34.5 4l-168 -787q-60 -284 8 -407q76 -137 332 -137q231 0 375 157q130 142 187 408l163 766q31 -8 56 -8l59 8z" />
    <glyph glyph-name="uni1EF0" unicode="&#x1ef0;" horiz-adv-x="1376" 
d="M512 -284q9 43 46.5 73.5t80.5 30.5t67 -30.5t15 -73.5t-46 -74t-80 -31t-67.5 31t-15.5 74zM1548 1352q16 0 42 1t48 25q8 11 18.5 23t14.5 29q4 22 -8 47q-4 10 -34.5 12t-31.5 8l26 123l56 -8l91 4h49l-10 -29l-23 -106q-10 -47 -20.5 -65.5t-59.5 -63.5
q-34 -31 -69.5 -42.5t-100.5 -11.5l-152 -716q-63 -297 -257.5 -456t-470.5 -159q-152 0 -251 36t-166.5 113t-73.5 212q-5 102 26 250l175 819q36 -4 48.5 -6t39.5 -2q35 0 57.5 4t34.5 4l-168 -787q-60 -284 8 -407q76 -137 332 -137q231 0 375 157q130 142 187 408
l163 766q31 -8 56 -8l59 8z" />
    <glyph glyph-name="Ohorn" unicode="&#x1a0;" horiz-adv-x="1376" 
d="M1365 1278q25 0 56.5 11t50.5 31.5t26 55.5q9 39 -9 72q-4 10 -34.5 12t-31.5 8l26 123l56 -8l103 4h49l-10 -28l-22 -107q-10 -45 -35 -97t-46 -71q-51 -47 -134 -59q64 -88 84 -215t-14 -285q-72 -340 -300.5 -549t-523.5 -209q-285 0 -417.5 200t-62.5 529
q70 330 293.5 529.5t500.5 199.5q113 0 216.5 -37.5t178.5 -109.5zM1305 709q31 147 30.5 249.5t-44.5 199.5t-127 149.5t-188 52.5q-227 0 -397 -187.5t-236 -500.5q-64 -301 36 -473q95 -162 300 -162q236 0 422 233q150 187 197 406z" />
    <glyph glyph-name="uni1EDC" unicode="&#x1edc;" horiz-adv-x="1376" 
d="M1103 1499h-69l-282 201q-19 22 -39 45q-2 8 3 33l5 24q23 41 79 41h16q10 -6 22 -12q17 -14 34.5 -38t26.5 -36zM1365 1278q25 0 56.5 11t50.5 31.5t26 55.5q9 39 -9 72q-4 10 -34.5 12t-31.5 8l26 123l56 -8l103 4h49l-10 -28l-22 -107q-10 -45 -35 -97t-46 -71
q-51 -47 -134 -59q64 -88 84 -215t-14 -285q-72 -340 -300.5 -549t-523.5 -209q-285 0 -417.5 200t-62.5 529q70 330 293.5 529.5t500.5 199.5q113 0 216.5 -37.5t178.5 -109.5zM1305 709q31 147 30.5 249.5t-44.5 199.5t-127 149.5t-188 52.5q-227 0 -397 -187.5
t-236 -500.5q-64 -301 36 -473q95 -162 300 -162q236 0 422 233q150 187 197 406z" />
    <glyph glyph-name="uni1EDA" unicode="&#x1eda;" horiz-adv-x="1376" 
d="M1202 1757q15 12 42.5 36t51.5 38q13 6 27 12h17q55 0 60 -41l-5 -24q-5 -25 -11 -33q-29 -23 -59 -45l-365 -201h-70zM1365 1278q25 0 56.5 11t50.5 31.5t26 55.5q9 39 -9 72q-4 10 -34.5 12t-31.5 8l26 123l56 -8l103 4h49l-10 -28l-22 -107q-10 -45 -35 -97t-46 -71
q-51 -47 -134 -59q64 -88 84 -215t-14 -285q-72 -340 -300.5 -549t-523.5 -209q-285 0 -417.5 200t-62.5 529q70 330 293.5 529.5t500.5 199.5q113 0 216.5 -37.5t178.5 -109.5zM1305 709q31 147 30.5 249.5t-44.5 199.5t-127 149.5t-188 52.5q-227 0 -397 -187.5
t-236 -500.5q-64 -301 36 -473q95 -162 300 -162q236 0 422 233q150 187 197 406z" />
    <glyph glyph-name="uni1EDE" unicode="&#x1ede;" horiz-adv-x="1376" 
d="M861 1858l33 55q9 16 30 31q21 20 74 38.5t102 18.5q37 0 51 -3t51 -16.5t50 -37.5q39 -50 24 -119q-5 -25 -34 -60.5t-74 -78.5l-59 -39l-45 -27q-19 -16 -24.5 -26.5t-8.5 -16.5l-19 -72h-54l13 62q4 18 15 43.5t19 36.5l105 108l26 39q17 31 28 64q15 73 -80 86
q-55 -9 -82 -37q8 -25 7 -49q-7 -31 -29 -52.5t-58 -25.5q-31 0 -49.5 23.5t-11.5 54.5zM1365 1278q25 0 56.5 11t50.5 31.5t26 55.5q9 39 -9 72q-4 10 -34.5 12t-31.5 8l26 123l56 -8l103 4h49l-10 -28l-22 -107q-10 -45 -35 -97t-46 -71q-51 -47 -134 -59q64 -88 84 -215
t-14 -285q-72 -340 -300.5 -549t-523.5 -209q-285 0 -417.5 200t-62.5 529q70 330 293.5 529.5t500.5 199.5q113 0 216.5 -37.5t178.5 -109.5zM1305 709q31 147 30.5 249.5t-44.5 199.5t-127 149.5t-188 52.5q-227 0 -397 -187.5t-236 -500.5q-64 -301 36 -473
q95 -162 300 -162q236 0 422 233q150 187 197 406z" />
    <glyph glyph-name="uni1EE0" unicode="&#x1ee0;" horiz-adv-x="1376" 
d="M764 1565h-49q34 84 98 140t132 56q32 0 47.5 -6t26 -11t51.5 -32l58 -33q16 -4 25.5 -7t21.5 -5q18 0 39 10.5t32.5 23.5t25.5 33.5t24 39.5h53q-39 -88 -96 -144q-67 -65 -140 -65q-45 0 -81 18q-26 19 -41 27q-24 14 -51.5 29.5t-53.5 15.5l-43 -8q-25 -9 -42 -28.5
t-37 -53.5zM1365 1278q25 0 56.5 11t50.5 31.5t26 55.5q9 39 -9 72q-4 10 -34.5 12t-31.5 8l26 123l56 -8l103 4h49l-10 -28l-22 -107q-10 -45 -35 -97t-46 -71q-51 -47 -134 -59q64 -88 84 -215t-14 -285q-72 -340 -300.5 -549t-523.5 -209q-285 0 -417.5 200t-62.5 529
q70 330 293.5 529.5t500.5 199.5q113 0 216.5 -37.5t178.5 -109.5zM1305 709q31 147 30.5 249.5t-44.5 199.5t-127 149.5t-188 52.5q-227 0 -397 -187.5t-236 -500.5q-64 -301 36 -473q95 -162 300 -162q236 0 422 233q150 187 197 406z" />
    <glyph glyph-name="uni1EE2" unicode="&#x1ee2;" horiz-adv-x="1376" 
d="M513 -284q9 43 46.5 73.5t80.5 30.5t67 -30.5t15 -73.5q-10 -43 -47 -74t-80 -31t-67.5 31t-14.5 74zM1365 1278q25 0 56.5 11t50.5 31.5t26 55.5q9 39 -9 72q-4 10 -34.5 12t-31.5 8l26 123l56 -8l103 4h49l-10 -28l-22 -107q-10 -45 -35 -97t-46 -71q-51 -47 -134 -59
q64 -88 84 -215t-14 -285q-72 -340 -300.5 -549t-523.5 -209q-285 0 -417.5 200t-62.5 529q70 330 293.5 529.5t500.5 199.5q113 0 216.5 -37.5t178.5 -109.5zM1305 709q31 147 30.5 249.5t-44.5 199.5t-127 149.5t-188 52.5q-227 0 -397 -187.5t-236 -500.5
q-64 -301 36 -473q95 -162 300 -162q236 0 422 233q150 187 197 406z" />
    <glyph glyph-name="Ygrave" unicode="&#x1ef2;" horiz-adv-x="1376" 
d="M918 623l-134 -631q-24 4 -44 6t-44 2q-25 0 -51 -3t-41 -5l127 594l-332 811q48 -4 70 -6t43 -2q26 0 61 3t55 5q33 -117 120 -361.5t123 -326.5q59 53 269 331q140 183 267 357q29 -4 41 -6t39 -2q18 0 41.5 3t37.5 5q-102 -105 -187 -205l-302 -365
q-40 -43 -85.5 -102t-73.5 -102zM1149 1499h-69l-282 201q-19 22 -39 45q-2 8 3 33l5 24q23 41 79 41h16l22 -12q17 -14 34.5 -38t27.5 -36z" />
    <glyph glyph-name="Yacute" unicode="&#xdd;" horiz-adv-x="1376" 
d="M918 623l-134 -631q-24 4 -44 6t-44 2q-25 0 -51 -3t-41 -5l127 594l-332 811q48 -4 70 -6t43 -2q26 0 61 3t55 5q33 -117 120 -361.5t123 -326.5q59 53 269 331q140 183 267 357q29 -4 41 -6t39 -2q18 0 41.5 3t37.5 5q-102 -105 -187 -205l-302 -365
q-40 -43 -85.5 -102t-73.5 -102zM1304 1747q15 12 42.5 36t51.5 38q13 6 27 12h17q55 0 60 -41l-5 -24q-5 -25 -11 -33q-29 -23 -59 -45l-365 -201h-70z" />
    <glyph glyph-name="uni1EF6" unicode="&#x1ef6;" horiz-adv-x="1376" 
d="M918 623l-134 -631q-24 4 -44 6t-44 2q-25 0 -51 -3t-41 -5l127 594l-332 811q48 -4 70 -6t43 -2q26 0 61 3t55 5q33 -117 120 -361.5t123 -326.5q59 53 269 331q140 183 267 357q29 -4 41 -6t39 -2q18 0 41.5 3t37.5 5q-102 -105 -187 -205l-302 -365
q-40 -43 -85.5 -102t-73.5 -102zM920 1858l32 55q9 16 31 31q21 20 73.5 38.5t101.5 18.5q37 0 51 -3t51 -16.5t50 -37.5q39 -50 24 -119q-5 -25 -34 -60.5t-73 -78.5l-60 -39l-45 -27q-19 -16 -24 -26.5t-9 -16.5l-19 -72h-53l13 62q4 18 14.5 43.5t18.5 36.5l105 108
l26 39q18 31 29 64q16 73 -81 86q-55 -9 -81 -37q7 -25 6 -49q-7 -31 -29 -52.5t-58 -25.5q-30 0 -48.5 23.5t-11.5 54.5z" />
    <glyph glyph-name="uni1EF8" unicode="&#x1ef8;" horiz-adv-x="1376" 
d="M918 623l-134 -631q-24 4 -44 6t-44 2q-25 0 -51 -3t-41 -5l127 594l-332 811q48 -4 70 -6t43 -2q26 0 61 3t55 5q33 -117 120 -361.5t123 -326.5q59 53 269 331q140 183 267 357q29 -4 41 -6t39 -2q18 0 41.5 3t37.5 5q-102 -105 -187 -205l-302 -365
q-40 -43 -85.5 -102t-73.5 -102zM823 1565h-49q34 84 97.5 140t131.5 56q33 0 48.5 -6t25.5 -11t51 -32l59 -33q15 -4 25 -7t21 -5q18 0 39 10.5t33 23.5t25.5 33.5t23.5 39.5h53q-39 -88 -95 -144q-67 -65 -141 -65q-45 0 -80 18q-27 19 -42 27q-24 14 -51 29.5t-54 15.5
l-43 -8q-24 -9 -41.5 -28.5t-36.5 -53.5z" />
    <glyph glyph-name="uni1EF4" unicode="&#x1ef4;" horiz-adv-x="1376" 
d="M918 623l-134 -631q-24 4 -44 6t-44 2q-25 0 -51 -3t-41 -5l127 594l-332 811q48 -4 70 -6t43 -2q26 0 61 3t55 5q33 -117 120 -361.5t123 -326.5q59 53 269 331q140 183 267 357q29 -4 41 -6t39 -2q18 0 41.5 3t37.5 5q-102 -105 -187 -205l-302 -365
q-40 -43 -85.5 -102t-73.5 -102zM532 -284q9 43 46.5 73.5t80.5 30.5t67 -30.5t15 -73.5t-46.5 -74t-80.5 -31t-67 31t-15 74z" />
    <glyph glyph-name="agrave" unicode="&#xe0;" 
d="M985 643l-101 -475l-10 -29q-9 -41 -3 -59.5t39 -18.5l68 13l-10 -45q-29 -15 -65 -21l-76 -8q-59 0 -89 28.5t-23 98.5l-20 -21q-160 -131 -332 -131q-114 0 -179 71t-41 183q26 121 110.5 187.5t333.5 107.5q107 17 142 27q86 27 103 108q25 115 -23 178.5t-167 63.5
q-100 0 -184 -53q-65 -41 -88 -90h-25l24 114q92 56 178.5 85.5t178.5 29.5q332 0 259 -344zM728 205l63 299l-76 -12q-190 -37 -238 -58q-134 -55 -160 -176q-20 -96 21.5 -144t138.5 -48q43 0 94 22.5t86 54.5q19 13 44 33.5t27 28.5zM922 1090h-70l-281 200
q-20 23 -39 45q-2 8 3 33l5 25q23 41 78 41h17q10 -7 21 -13q18 -14 35.5 -37.5t27.5 -35.5z" />
    <glyph glyph-name="aacute" unicode="&#xe1;" 
d="M985 643l-101 -475l-10 -29q-9 -41 -3 -59.5t39 -18.5l68 13l-10 -45q-29 -15 -65 -21l-76 -8q-59 0 -89 28.5t-23 98.5l-20 -21q-160 -131 -332 -131q-114 0 -179 71t-41 183q26 121 110.5 187.5t333.5 107.5q107 17 142 27q86 27 103 108q25 115 -23 178.5t-167 63.5
q-100 0 -184 -53q-65 -41 -88 -90h-25l24 114q92 56 178.5 85.5t178.5 29.5q332 0 259 -344zM728 205l63 299l-76 -12q-190 -37 -238 -58q-134 -55 -160 -176q-20 -96 21.5 -144t138.5 -48q43 0 94 22.5t86 54.5q19 13 44 33.5t27 28.5zM789 1348q14 12 41.5 35.5t50.5 37.5
q14 6 28 13h16q56 0 61 -41l-5 -25q-5 -25 -11 -33q-30 -22 -59 -45l-366 -200h-69z" />
    <glyph glyph-name="uni1EA3" unicode="&#x1ea3;" 
d="M985 643l-101 -475l-10 -29q-9 -41 -3 -59.5t39 -18.5l68 13l-10 -45q-29 -15 -65 -21l-76 -8q-59 0 -89 28.5t-23 98.5l-20 -21q-160 -131 -332 -131q-114 0 -179 71t-41 183q26 121 110.5 187.5t333.5 107.5q107 17 142 27q86 27 103 108q25 115 -23 178.5t-167 63.5
q-100 0 -184 -53q-65 -41 -88 -90h-25l24 114q92 56 178.5 85.5t178.5 29.5q332 0 259 -344zM728 205l63 299l-76 -12q-190 -37 -238 -58q-134 -55 -160 -176q-20 -96 21.5 -144t138.5 -48q43 0 94 22.5t86 54.5q19 13 44 33.5t27 28.5zM721 1078l5 22q4 18 14.5 43.5
t18.5 36.5l105 108l26 39q17 31 29 64q15 73 -81 86q-55 -9 -81 -37q7 -25 6 -49q-7 -31 -29 -52.5t-58 -25.5q-30 0 -49 23.5t-12 54.5l32 55q10 16 32 31q20 20 73 38.5t102 18.5q37 0 51 -3t51 -16.5t50 -37.5q38 -50 24 -119q-6 -25 -35 -60.5t-72 -78.5l-60 -39
l-45 -27q-19 -16 -24.5 -26.5t-8.5 -16.5l-9 -32h-55z" />
    <glyph glyph-name="atilde" unicode="&#xe3;" 
d="M985 643l-101 -475l-10 -29q-9 -41 -3 -59.5t39 -18.5l68 13l-10 -45q-29 -15 -65 -21l-76 -8q-59 0 -89 28.5t-23 98.5l-20 -21q-160 -131 -332 -131q-114 0 -179 71t-41 183q26 121 110.5 187.5t333.5 107.5q107 17 142 27q86 27 103 108q25 115 -23 178.5t-167 63.5
q-100 0 -184 -53q-65 -41 -88 -90h-25l24 114q92 56 178.5 85.5t178.5 29.5q332 0 259 -344zM728 205l63 299l-76 -12q-190 -37 -238 -58q-134 -55 -160 -176q-20 -96 21.5 -144t138.5 -48q43 0 94 22.5t86 54.5q19 13 44 33.5t27 28.5zM523 1143h-53q35 82 100 139t135 57
q32 0 44 -4l76 -45q31 -20 62 -33q9 -2 23 -7t20 -5q19 0 39.5 10.5t34 25.5t28.5 36.5t24 34.5h49q-35 -86 -95 -144q-67 -65 -143 -65q-30 0 -42.5 4t-78.5 41q-35 20 -51 29q-32 16 -54 16l-42 -8q-23 -8 -43 -32t-33 -50z" />
    <glyph glyph-name="uni1EA1" unicode="&#x1ea1;" 
d="M985 643l-101 -475l-10 -29q-9 -41 -3 -59.5t39 -18.5l68 13l-10 -45q-29 -15 -65 -21l-76 -8q-59 0 -89 28.5t-23 98.5l-20 -21q-160 -131 -332 -131q-114 0 -179 71t-41 183q26 121 110.5 187.5t333.5 107.5q107 17 142 27q86 27 103 108q25 115 -23 178.5t-167 63.5
q-100 0 -184 -53q-65 -41 -88 -90h-25l24 114q92 56 178.5 85.5t178.5 29.5q332 0 259 -344zM728 205l63 299l-76 -12q-190 -37 -238 -58q-134 -55 -160 -176q-20 -96 21.5 -144t138.5 -48q43 0 94 22.5t86 54.5q19 13 44 33.5t27 28.5zM462 -311q-37 0 -59.5 28.5
t-14.5 65.5t42.5 65.5t71.5 28.5q39 0 60.5 -27.5t13.5 -66.5q-8 -37 -42.5 -65.5t-71.5 -28.5z" />
    <glyph glyph-name="acircumflex" unicode="&#xe2;" 
d="M985 643l-101 -475l-10 -29q-9 -41 -3 -59.5t39 -18.5l68 13l-10 -45q-29 -15 -65 -21l-76 -8q-59 0 -89 28.5t-23 98.5l-20 -21q-160 -131 -332 -131q-114 0 -179 71t-41 183q26 121 110.5 187.5t333.5 107.5q107 17 142 27q86 27 103 108q25 115 -23 178.5t-167 63.5
q-100 0 -184 -53q-65 -41 -88 -90h-25l24 114q92 56 178.5 85.5t178.5 29.5q332 0 259 -344zM728 205l63 299l-76 -12q-190 -37 -238 -58q-134 -55 -160 -176q-20 -96 21.5 -144t138.5 -48q43 0 94 22.5t86 54.5q19 13 44 33.5t27 28.5zM475 1069h-70l327 344h111l180 -344
h-69l-192 217z" />
    <glyph glyph-name="uni1EA7" unicode="&#x1ea7;" 
d="M985 643l-101 -475l-10 -29q-9 -41 -3 -59.5t39 -18.5l68 13l-10 -45q-29 -15 -65 -21l-76 -8q-59 0 -89 28.5t-23 98.5l-20 -21q-160 -131 -332 -131q-114 0 -179 71t-41 183q26 121 110.5 187.5t333.5 107.5q107 17 142 27q86 27 103 108q25 115 -23 178.5t-167 63.5
q-100 0 -184 -53q-65 -41 -88 -90h-25l24 114q92 56 178.5 85.5t178.5 29.5q332 0 259 -344zM728 205l63 299l-76 -12q-190 -37 -238 -58q-134 -55 -160 -176q-20 -96 21.5 -144t138.5 -48q43 0 94 22.5t86 54.5q19 13 44 33.5t27 28.5zM475 1069h-70l327 344h111l180 -344
h-69l-192 217zM1166 1409h-70l-281 201q-20 22 -39 45q-2 8 3 33l5 24q23 41 78 41h17q10 -6 21 -12q18 -15 35.5 -38.5t26.5 -35.5z" />
    <glyph glyph-name="uni1EA5" unicode="&#x1ea5;" 
d="M985 643l-101 -475l-10 -29q-9 -41 -3 -59.5t39 -18.5l68 13l-10 -45q-29 -15 -65 -21l-76 -8q-59 0 -89 28.5t-23 98.5l-20 -21q-160 -131 -332 -131q-114 0 -179 71t-41 183q26 121 110.5 187.5t333.5 107.5q107 17 142 27q86 27 103 108q25 115 -23 178.5t-167 63.5
q-100 0 -184 -53q-65 -41 -88 -90h-25l24 114q92 56 178.5 85.5t178.5 29.5q332 0 259 -344zM728 205l63 299l-76 -12q-190 -37 -238 -58q-134 -55 -160 -176q-20 -96 21.5 -144t138.5 -48q43 0 94 22.5t86 54.5q19 13 44 33.5t27 28.5zM475 1069h-70l327 344h111l180 -344
h-69l-192 217zM1406 1536l-366 -201h-70l313 258l59 49q36 21 71 41h12q51 0 55 -45l-3 -32q-3 -17 -13 -25q-6 -12 -27.5 -25.5t-30.5 -19.5z" />
    <glyph glyph-name="uni1EA9" unicode="&#x1ea9;" 
d="M985 643l-101 -475l-10 -29q-9 -41 -3 -59.5t39 -18.5l68 13l-10 -45q-29 -15 -65 -21l-76 -8q-59 0 -89 28.5t-23 98.5l-20 -21q-160 -131 -332 -131q-114 0 -179 71t-41 183q26 121 110.5 187.5t333.5 107.5q107 17 142 27q86 27 103 108q25 115 -23 178.5t-167 63.5
q-100 0 -184 -53q-65 -41 -88 -90h-25l24 114q92 56 178.5 85.5t178.5 29.5q332 0 259 -344zM728 205l63 299l-76 -12q-190 -37 -238 -58q-134 -55 -160 -176q-20 -96 21.5 -144t138.5 -48q43 0 94 22.5t86 54.5q19 13 44 33.5t27 28.5zM475 1069h-70l327 344h111l180 -344
h-69l-192 217zM927 1606l32 55q10 16 32 31q20 20 73 38.5t102 18.5q37 0 51 -3t51 -16.5t50 -37.5q38 -50 23 -119q-5 -25 -34 -60.5t-72 -78.5l-60 -39l-45 -27q-19 -14 -28 -32.5t-16.5 -48.5l-8.5 -34h-53l14 64q4 18 14 42.5t19 35.5l105 108l26 39q17 31 28 64
q16 73 -80 86q-55 -9 -81 -37q7 -25 5 -49q-6 -31 -28 -52.5t-58 -25.5q-30 0 -48.5 23.5t-12.5 54.5z" />
    <glyph glyph-name="uni1EAB" unicode="&#x1eab;" 
d="M985 643l-101 -475l-10 -29q-9 -41 -3 -59.5t39 -18.5l68 13l-10 -45q-29 -15 -65 -21l-76 -8q-59 0 -89 28.5t-23 98.5l-20 -21q-160 -131 -332 -131q-114 0 -179 71t-41 183q26 121 110.5 187.5t333.5 107.5q107 17 142 27q86 27 103 108q25 115 -23 178.5t-167 63.5
q-100 0 -184 -53q-65 -41 -88 -90h-25l24 114q92 56 178.5 85.5t178.5 29.5q332 0 259 -344zM728 205l63 299l-76 -12q-190 -37 -238 -58q-134 -55 -160 -176q-20 -96 21.5 -144t138.5 -48q43 0 94 22.5t86 54.5q19 13 44 33.5t27 28.5zM475 1069h-70l327 344h111l180 -344
h-69l-192 217zM588 1503h-53q33 82 98.5 139.5t134.5 57.5q33 0 45 -4l76 -45q31 -21 63 -33q8 -2 22 -7t20 -5q19 0 39.5 10t34 25.5t28 37t24.5 33.5h49q-35 -86 -94 -143q-67 -66 -143 -66q-31 0 -43.5 4t-78.5 41q-34 21 -51 29q-31 16 -54 16l-43 -8
q-22 -8 -42.5 -31.5t-31.5 -50.5z" />
    <glyph glyph-name="uni1EAD" unicode="&#x1ead;" 
d="M985 643l-101 -475l-10 -29q-9 -41 -3 -59.5t39 -18.5l68 13l-10 -45q-29 -15 -65 -21l-76 -8q-59 0 -89 28.5t-23 98.5l-20 -21q-160 -131 -332 -131q-114 0 -179 71t-41 183q26 121 110.5 187.5t333.5 107.5q107 17 142 27q86 27 103 108q25 115 -23 178.5t-167 63.5
q-100 0 -184 -53q-65 -41 -88 -90h-25l24 114q92 56 178.5 85.5t178.5 29.5q332 0 259 -344zM728 205l63 299l-76 -12q-190 -37 -238 -58q-134 -55 -160 -176q-20 -96 21.5 -144t138.5 -48q43 0 94 22.5t86 54.5q19 13 44 33.5t27 28.5zM462 -311q-37 0 -59.5 28.5
t-14.5 65.5t42.5 65.5t71.5 28.5q39 0 60.5 -27.5t13.5 -66.5q-8 -37 -42.5 -65.5t-71.5 -28.5zM475 1069h-70l327 344h111l180 -344h-69l-192 217z" />
    <glyph glyph-name="abreve" unicode="&#x103;" 
d="M985 643l-101 -475l-10 -29q-9 -41 -3 -59.5t39 -18.5l68 13l-10 -45q-29 -15 -65 -21l-76 -8q-59 0 -89 28.5t-23 98.5l-20 -21q-160 -131 -332 -131q-114 0 -179 71t-41 183q26 121 110.5 187.5t333.5 107.5q107 17 142 27q86 27 103 108q25 115 -23 178.5t-167 63.5
q-100 0 -184 -53q-65 -41 -88 -90h-25l24 114q92 56 178.5 85.5t178.5 29.5q332 0 259 -344zM728 205l63 299l-76 -12q-190 -37 -238 -58q-134 -55 -160 -176q-20 -96 21.5 -144t138.5 -48q43 0 94 22.5t86 54.5q19 13 44 33.5t27 28.5zM1075 1331q-46 -112 -130 -176.5
t-207 -64.5q-109 0 -167 69.5t-53 171.5h78q17 -59 62.5 -93t115.5 -34q147 0 232 127h69z" />
    <glyph glyph-name="uni1EB1" unicode="&#x1eb1;" 
d="M985 643l-101 -475l-10 -29q-9 -41 -3 -59.5t39 -18.5l68 13l-10 -45q-29 -15 -65 -21l-76 -8q-59 0 -89 28.5t-23 98.5l-20 -21q-160 -131 -332 -131q-114 0 -179 71t-41 183q26 121 110.5 187.5t333.5 107.5q107 17 142 27q86 27 103 108q25 115 -23 178.5t-167 63.5
q-100 0 -184 -53q-65 -41 -88 -90h-25l24 114q92 56 178.5 85.5t178.5 29.5q332 0 259 -344zM728 205l63 299l-76 -12q-190 -37 -238 -58q-134 -55 -160 -176q-20 -96 21.5 -144t138.5 -48q43 0 94 22.5t86 54.5q19 13 44 33.5t27 28.5zM1073 1331q-46 -112 -130.5 -176.5
t-206.5 -64.5q-109 0 -167 69.5t-53 171.5h78q17 -59 62.5 -93t115.5 -34q147 0 232 127h69zM902 1356h-69l-281 200q-20 23 -39 46q-3 8 2 32l6 25q22 41 77 41h17l22 -12q18 -15 35.5 -38.5t26.5 -35.5z" />
    <glyph glyph-name="uni1EAF" unicode="&#x1eaf;" 
d="M985 643l-101 -475l-10 -29q-9 -41 -3 -59.5t39 -18.5l68 13l-10 -45q-29 -15 -65 -21l-76 -8q-59 0 -89 28.5t-23 98.5l-20 -21q-160 -131 -332 -131q-114 0 -179 71t-41 183q26 121 110.5 187.5t333.5 107.5q107 17 142 27q86 27 103 108q25 115 -23 178.5t-167 63.5
q-100 0 -184 -53q-65 -41 -88 -90h-25l24 114q92 56 178.5 85.5t178.5 29.5q332 0 259 -344zM728 205l63 299l-76 -12q-190 -37 -238 -58q-134 -55 -160 -176q-20 -96 21.5 -144t138.5 -48q43 0 94 22.5t86 54.5q19 13 44 33.5t27 28.5zM1073 1331q-46 -112 -130.5 -176.5
t-206.5 -64.5q-109 0 -167 69.5t-53 171.5h78q17 -59 62.5 -93t115.5 -34q147 0 232 127h69zM1079 1614q15 12 42.5 35.5t51.5 38.5l26 12h17q55 0 61 -41l-6 -25q-5 -24 -10 -32q-29 -23 -59 -46l-367 -200h-69z" />
    <glyph glyph-name="uni1EB3" unicode="&#x1eb3;" 
d="M985 643l-101 -475l-10 -29q-9 -41 -3 -59.5t39 -18.5l68 13l-10 -45q-29 -15 -65 -21l-76 -8q-59 0 -89 28.5t-23 98.5l-20 -21q-160 -131 -332 -131q-114 0 -179 71t-41 183q26 121 110.5 187.5t333.5 107.5q107 17 142 27q86 27 103 108q25 115 -23 178.5t-167 63.5
q-100 0 -184 -53q-65 -41 -88 -90h-25l24 114q92 56 178.5 85.5t178.5 29.5q332 0 259 -344zM728 205l63 299l-76 -12q-190 -37 -238 -58q-134 -55 -160 -176q-20 -96 21.5 -144t138.5 -48q43 0 94 22.5t86 54.5q19 13 44 33.5t27 28.5zM1073 1331q-46 -112 -130.5 -176.5
t-206.5 -64.5q-109 0 -167 69.5t-53 171.5h78q17 -59 62.5 -93t115.5 -34q147 0 232 127h69zM672 1634l33 56q10 16 31 30q21 21 74 39.5t102 18.5q37 0 51 -3t51 -16.5t50 -38.5q38 -49 24 -118q-6 -25 -35 -61t-73 -79l-59 -39l-45 -26q-20 -17 -25 -27l-8 -16l-19 -72
h-54l13 61q4 19 14.5 44.5t19.5 35.5l105 109l26 39q17 31 28 63q16 74 -80 86q-55 -8 -82 -37q8 -24 6 -49q-6 -30 -28 -51.5t-58 -26.5q-30 0 -49 24t-13 54z" />
    <glyph glyph-name="uni1EB5" unicode="&#x1eb5;" 
d="M985 643l-101 -475l-10 -29q-9 -41 -3 -59.5t39 -18.5l68 13l-10 -45q-29 -15 -65 -21l-76 -8q-59 0 -89 28.5t-23 98.5l-20 -21q-160 -131 -332 -131q-114 0 -179 71t-41 183q26 121 110.5 187.5t333.5 107.5q107 17 142 27q86 27 103 108q25 115 -23 178.5t-167 63.5
q-100 0 -184 -53q-65 -41 -88 -90h-25l24 114q92 56 178.5 85.5t178.5 29.5q332 0 259 -344zM728 205l63 299l-76 -12q-190 -37 -238 -58q-134 -55 -160 -176q-20 -96 21.5 -144t138.5 -48q43 0 94 22.5t86 54.5q19 13 44 33.5t27 28.5zM1065 1331q-46 -112 -130.5 -176.5
t-207.5 -64.5q-108 0 -166.5 69.5t-52.5 171.5h78q17 -59 62.5 -93t115.5 -34q147 0 231 127h70zM759 1409h-54q34 82 99 139.5t135 57.5q33 0 45 -4l76 -46q31 -20 63 -32q8 -2 21.5 -7.5t20.5 -5.5q18 0 39 10.5t34 26t28 37t24 33.5h49q-34 -86 -93 -143
q-68 -66 -143 -66q-31 0 -44 4t-78 41q-34 21 -52 29q-31 16 -53 16l-43 -8q-23 -8 -43 -31.5t-31 -50.5z" />
    <glyph glyph-name="uni1EB7" unicode="&#x1eb7;" 
d="M985 643l-101 -475l-10 -29q-9 -41 -3 -59.5t39 -18.5l68 13l-10 -45q-29 -15 -65 -21l-76 -8q-59 0 -89 28.5t-23 98.5l-20 -21q-160 -131 -332 -131q-114 0 -179 71t-41 183q26 121 110.5 187.5t333.5 107.5q107 17 142 27q86 27 103 108q25 115 -23 178.5t-167 63.5
q-100 0 -184 -53q-65 -41 -88 -90h-25l24 114q92 56 178.5 85.5t178.5 29.5q332 0 259 -344zM728 205l63 299l-76 -12q-190 -37 -238 -58q-134 -55 -160 -176q-20 -96 21.5 -144t138.5 -48q43 0 94 22.5t86 54.5q19 13 44 33.5t27 28.5zM1075 1331q-46 -112 -130 -176.5
t-207 -64.5q-109 0 -167 69.5t-53 171.5h78q17 -59 62.5 -93t115.5 -34q147 0 232 127h69zM462 -311q-37 0 -59.5 28.5t-14.5 65.5t42.5 65.5t71.5 28.5q39 0 60.5 -27.5t13.5 -66.5q-8 -37 -42.5 -65.5t-71.5 -28.5z" />
    <glyph glyph-name="egrave" unicode="&#xe8;" 
d="M952 205l-26 -107q-93 -57 -189 -90t-191 -33q-217 0 -321 135.5t-54 372.5q48 222 196 359q158 145 383 145q172 0 262 -113q101 -124 54 -346l-10 -45q-72 0 -238 4.5t-174 4.5h-291l-12 -41q-35 -164 37 -274.5t242 -110.5q92 0 192 49q64 30 140 90zM369 565h545
q33 156 1 246q-40 111 -179 111q-135 0 -241 -113q-96 -102 -126 -244zM920 1090h-69l-281 200q-19 23 -40 45q-2 8 3 33l6 25q23 41 79 41h16q10 -7 21 -13q18 -14 35.5 -37.5t26.5 -35.5z" />
    <glyph glyph-name="eacute" unicode="&#xe9;" 
d="M952 205l-26 -107q-93 -57 -189 -90t-191 -33q-217 0 -321 135.5t-54 372.5q48 222 196 359q158 145 383 145q172 0 262 -113q101 -124 54 -346l-10 -45q-72 0 -238 4.5t-174 4.5h-291l-12 -41q-35 -164 37 -274.5t242 -110.5q92 0 192 49q64 30 140 90zM369 565h545
q33 156 1 246q-40 111 -179 111q-135 0 -241 -113q-96 -102 -126 -244zM787 1348q15 12 42.5 35.5t51.5 37.5q13 6 27 13h17q55 0 60 -41l-6 -25q-5 -25 -11 -33q-28 -22 -58 -45l-366 -200h-70z" />
    <glyph glyph-name="uni1EBB" unicode="&#x1ebb;" 
d="M952 205l-26 -107q-93 -57 -189 -90t-191 -33q-217 0 -321 135.5t-54 372.5q48 222 196 359q158 145 383 145q172 0 262 -113q101 -124 54 -346l-10 -45q-72 0 -238 4.5t-174 4.5h-291l-12 -41q-35 -164 37 -274.5t242 -110.5q92 0 192 49q64 30 140 90zM369 565h545
q33 156 1 246q-40 111 -179 111q-135 0 -241 -113q-96 -102 -126 -244zM720 1078l5 22q3 18 13.5 43.5t19.5 36.5l104 108l27 39q16 31 28 64q16 73 -80 86q-55 -9 -81 -37q6 -25 5 -49q-6 -31 -28 -52.5t-58 -25.5q-30 0 -49 23.5t-13 54.5l33 55q9 16 32 31q20 20 73 38.5
t102 18.5q37 0 50.5 -3t51 -16.5t50.5 -37.5q38 -50 23 -119q-5 -25 -34 -60.5t-72 -78.5l-60 -39l-45 -27q-20 -16 -25 -26.5t-8 -16.5l-9 -32h-55z" />
    <glyph glyph-name="uni1EBD" unicode="&#x1ebd;" 
d="M952 205l-26 -107q-93 -57 -189 -90t-191 -33q-217 0 -321 135.5t-54 372.5q48 222 196 359q158 145 383 145q172 0 262 -113q101 -124 54 -346l-10 -45q-72 0 -238 4.5t-174 4.5h-291l-12 -41q-35 -164 37 -274.5t242 -110.5q92 0 192 49q64 30 140 90zM369 565h545
q33 156 1 246q-40 111 -179 111q-135 0 -241 -113q-96 -102 -126 -244zM523 1143h-53q33 82 98.5 139t134.5 57q33 0 44 -4l77 -45q31 -20 63 -33q7 -2 21.5 -7t20.5 -5q18 0 39 10.5t34.5 25.5t28 36.5t23.5 34.5h50q-35 -86 -95 -144q-66 -65 -142 -65q-31 0 -43.5 4
t-78.5 41q-35 20 -51 29q-31 16 -54 16l-43 -8q-22 -8 -42.5 -32t-31.5 -50z" />
    <glyph glyph-name="uni1EB9" unicode="&#x1eb9;" 
d="M952 205l-26 -107q-93 -57 -189 -90t-191 -33q-217 0 -321 135.5t-54 372.5q48 222 196 359q158 145 383 145q172 0 262 -113q101 -124 54 -346l-10 -45q-72 0 -238 4.5t-174 4.5h-291l-12 -41q-35 -164 37 -274.5t242 -110.5q92 0 192 49q64 30 140 90zM369 565h545
q33 156 1 246q-40 111 -179 111q-135 0 -241 -113q-96 -102 -126 -244zM462 -311q-37 0 -59.5 28.5t-14.5 65.5q7 37 42 65.5t72 28.5q39 0 60.5 -27.5t13.5 -66.5q-8 -37 -42.5 -65.5t-71.5 -28.5z" />
    <glyph glyph-name="ecircumflex" unicode="&#xea;" 
d="M952 205l-26 -107q-93 -57 -189 -90t-191 -33q-217 0 -321 135.5t-54 372.5q48 222 196 359q158 145 383 145q172 0 262 -113q101 -124 54 -346l-10 -45q-72 0 -238 4.5t-174 4.5h-291l-12 -41q-35 -164 37 -274.5t242 -110.5q92 0 192 49q64 30 140 90zM369 565h545
q33 156 1 246q-40 111 -179 111q-135 0 -241 -113q-96 -102 -126 -244zM499 1069h-70l327 344h111l181 -344h-70l-192 217z" />
    <glyph glyph-name="uni1EC1" unicode="&#x1ec1;" 
d="M952 205l-26 -107q-93 -57 -189 -90t-191 -33q-217 0 -321 135.5t-54 372.5q48 222 196 359q158 145 383 145q172 0 262 -113q101 -124 54 -346l-10 -45q-72 0 -238 4.5t-174 4.5h-291l-12 -41q-35 -164 37 -274.5t242 -110.5q92 0 192 49q64 30 140 90zM369 565h545
q33 156 1 246q-40 111 -179 111q-135 0 -241 -113q-96 -102 -126 -244zM504 1069h-69l326 344h111l181 -344h-70l-191 217zM1195 1409h-70l-281 201q-19 22 -40 45q-2 8 4 33l5 24q23 41 78 41h16q12 -6 23 -12q17 -15 34.5 -38.5t27.5 -35.5z" />
    <glyph glyph-name="uni1EBF" unicode="&#x1ebf;" 
d="M952 205l-26 -107q-93 -57 -189 -90t-191 -33q-217 0 -321 135.5t-54 372.5q48 222 196 359q158 145 383 145q172 0 262 -113q101 -124 54 -346l-10 -45q-72 0 -238 4.5t-174 4.5h-291l-12 -41q-35 -164 37 -274.5t242 -110.5q92 0 192 49q64 30 140 90zM369 565h545
q33 156 1 246q-40 111 -179 111q-135 0 -241 -113q-96 -102 -126 -244zM504 1069h-69l326 344h111l181 -344h-70l-191 217zM1435 1536l-367 -201h-70l313 258l61 49q34 21 69 41h12q52 0 57 -45l-3 -32q-4 -17 -13 -25q-7 -12 -28.5 -25.5t-30.5 -19.5z" />
    <glyph glyph-name="uni1EC3" unicode="&#x1ec3;" 
d="M952 205l-26 -107q-93 -57 -189 -90t-191 -33q-217 0 -321 135.5t-54 372.5q48 222 196 359q158 145 383 145q172 0 262 -113q101 -124 54 -346l-10 -45q-72 0 -238 4.5t-174 4.5h-291l-12 -41q-35 -164 37 -274.5t242 -110.5q92 0 192 49q64 30 140 90zM369 565h545
q33 156 1 246q-40 111 -179 111q-135 0 -241 -113q-96 -102 -126 -244zM504 1069h-69l326 344h111l181 -344h-70l-191 217zM956 1606l33 55q9 16 30 31q22 20 74.5 38.5t101.5 18.5q37 0 51 -3t50.5 -16.5t50.5 -37.5q39 -50 24 -119q-5 -25 -34 -60.5t-73 -78.5l-60 -39
l-45 -27q-18 -14 -27.5 -32.5t-17 -48.5l-8.5 -34h-53l14 64q3 18 13.5 42.5t19.5 35.5l104 108l27 39q17 31 28 64q16 73 -80 86q-55 -9 -82 -37q7 -25 7 -49q-7 -31 -29 -52.5t-58 -25.5q-31 0 -49.5 23.5t-11.5 54.5z" />
    <glyph glyph-name="uni1EC5" unicode="&#x1ec5;" 
d="M952 205l-26 -107q-93 -57 -189 -90t-191 -33q-217 0 -321 135.5t-54 372.5q48 222 196 359q158 145 383 145q172 0 262 -113q101 -124 54 -346l-10 -45q-72 0 -238 4.5t-174 4.5h-291l-12 -41q-35 -164 37 -274.5t242 -110.5q92 0 192 49q64 30 140 90zM369 565h545
q33 156 1 246q-40 111 -179 111q-135 0 -241 -113q-96 -102 -126 -244zM504 1069h-69l326 344h111l181 -344h-70l-191 217zM617 1503h-54q35 82 100 139.5t135 57.5q33 0 44 -4l77 -45q30 -21 63 -33q7 -2 21.5 -7t20.5 -5q18 0 38.5 10t34 25.5t28.5 37t24 33.5h49
q-35 -86 -94 -143q-68 -66 -143 -66q-31 0 -43.5 4t-77.5 41q-35 21 -52 29q-32 16 -54 16l-42 -8q-22 -8 -42.5 -31.5t-32.5 -50.5z" />
    <glyph glyph-name="uni1EC7" unicode="&#x1ec7;" 
d="M952 205l-26 -107q-93 -57 -189 -90t-191 -33q-217 0 -321 135.5t-54 372.5q48 222 196 359q158 145 383 145q172 0 262 -113q101 -124 54 -346l-10 -45q-72 0 -238 4.5t-174 4.5h-291l-12 -41q-35 -164 37 -274.5t242 -110.5q92 0 192 49q64 30 140 90zM369 565h545
q33 156 1 246q-40 111 -179 111q-135 0 -241 -113q-96 -102 -126 -244zM499 1069h-70l327 344h111l181 -344h-70l-192 217zM462 -311q-37 0 -59.5 28.5t-14.5 65.5q7 37 42 65.5t72 28.5q39 0 60.5 -27.5t13.5 -66.5q-8 -37 -42.5 -65.5t-71.5 -28.5z" />
    <glyph glyph-name="igrave" unicode="&#xec;" horiz-adv-x="589" 
d="M575 975l-209 -983l-80 8q-22 0 -35 -1t-49 -7l209 983q30 -4 42 -6t38 -2zM710 1090h-74l-277 200q-17 15 -24 21q-16 12 -20 24l-1 29l14 29q24 41 71 41h20q23 -9 26 -13q17 -14 34.5 -37.5t27.5 -35.5z" />
    <glyph glyph-name="iacute" unicode="&#xed;" horiz-adv-x="589" 
d="M575 975l-209 -983l-80 8q-22 0 -35 -1t-49 -7l209 983q30 -4 42 -6t38 -2zM765 1290l-366 -200h-70l313 258l60 49q35 20 70 41h12q51 0 56 -45l-2 -33q-4 -17 -15 -25q-6 -12 -27.5 -25.5t-30.5 -19.5z" />
    <glyph glyph-name="uni1EC9" unicode="&#x1ec9;" horiz-adv-x="589" 
d="M575 975l-209 -983l-80 8q-23 0 -35.5 -1t-48.5 -7l209 983q30 -4 41.5 -6t38.5 -2zM373 1384l32 56q10 16 31 30q21 21 74 39.5t102 18.5q37 0 50.5 -3t50.5 -16.5t51 -38.5q39 -49 24 -118q-5 -25 -34.5 -61t-73.5 -79l-59 -38l-44 -27q-20 -17 -25.5 -27t-9.5 -16
l-19 -72h-53l13 62q4 18 14.5 43.5t18.5 36.5l105 108l27 39q17 31 28 63q16 74 -80 86q-53 -8 -81 -36q6 -25 5 -50q-6 -30 -28 -51.5t-57 -25.5q-31 0 -49.5 23.5t-12.5 53.5z" />
    <glyph glyph-name="itilde" unicode="&#x129;" horiz-adv-x="589" 
d="M575 975l-209 -983l-80 8q-22 0 -35 -1t-48 -7l209 983q29 -4 41 -6t38 -2zM308 1143h-53q34 84 98 140t131 56q37 0 49 -4l77 -45q17 -12 28.5 -18t29.5 -12.5t29 -10.5t13 -4q23 0 46.5 13.5t34 25.5t25.5 33.5t24 34.5h49q-35 -86 -95 -144q-66 -65 -142 -65
q-30 0 -43 4t-79 41q-35 20 -53 29q-33 16 -56 16q-12 0 -36.5 -8t-45 -32t-31.5 -50z" />
    <glyph glyph-name="uni1ECB" unicode="&#x1ecb;" horiz-adv-x="589" 
d="M575 975l-209 -983l-80 8q-23 0 -35 -1t-49 -7l209 983q30 -4 42 -6t39 -2zM228 -311q-37 0 -59.5 28.5t-14.5 65.5t42.5 65.5t71.5 28.5q39 0 60.5 -27.5t13.5 -66.5q-8 -37 -42.5 -65.5t-71.5 -28.5zM554 1225q-37 0 -59.5 28.5t-14.5 65.5t42.5 65.5t71.5 28.5
q39 0 61 -27.5t13 -66.5q-8 -37 -42.5 -65.5t-71.5 -28.5z" />
    <glyph glyph-name="ograve" unicode="&#xf2;" 
d="M170 492q47 219 208 357t364 138q193 0 282.5 -137t41.5 -363q-45 -211 -192 -354q-163 -158 -380 -158q-184 0 -280 127q-102 136 -58 344zM724 922q-158 0 -269 -148q-91 -121 -131 -311q-37 -174 4 -287q49 -135 197 -135q143 0 256 166q89 131 123 289q36 168 4 280
q-41 146 -184 146zM922 1090h-70l-281 200q-20 23 -40 45q-2 8 3 33l6 25q22 41 78 41h16q11 -7 22 -13q17 -14 34.5 -37.5t27.5 -35.5z" />
    <glyph glyph-name="oacute" unicode="&#xf3;" 
d="M170 492q47 219 208 357t364 138q193 0 282.5 -137t41.5 -363q-45 -211 -192 -354q-163 -158 -380 -158q-184 0 -280 127q-102 136 -58 344zM724 922q-158 0 -269 -148q-91 -121 -131 -311q-37 -174 4 -287q49 -135 197 -135q143 0 256 166q89 131 123 289q36 168 4 280
q-41 146 -184 146zM788 1348q14 12 41.5 35.5t51.5 37.5q14 6 28 13h16q55 0 62 -41l-6 -25q-5 -25 -12 -33q-29 -22 -58 -45l-366 -200h-70z" />
    <glyph glyph-name="uni1ECF" unicode="&#x1ecf;" 
d="M170 492q47 219 208 357t364 138q193 0 282.5 -137t41.5 -363q-45 -211 -192 -354q-163 -158 -380 -158q-184 0 -280 127q-102 136 -58 344zM724 922q-158 0 -269 -148q-91 -121 -131 -311q-37 -174 4 -287q49 -135 197 -135q143 0 256 166q89 131 123 289q36 168 4 280
q-41 146 -184 146zM721 1078l4 22q4 18 14.5 43.5t18.5 36.5l105 108l26 39q17 31 29 64q16 73 -81 86q-55 -9 -81 -37q7 -25 6 -49q-7 -31 -29 -52.5t-58 -25.5q-30 0 -49 23.5t-12 54.5l33 55q9 16 31 31q21 20 73.5 38.5t101.5 18.5q37 0 51 -3t51 -16.5t50 -37.5
q39 -50 24 -119q-5 -25 -34 -60.5t-72 -78.5l-61 -39l-45 -27q-19 -16 -24 -26.5t-9 -16.5l-7 -32h-56z" />
    <glyph glyph-name="otilde" unicode="&#xf5;" 
d="M170 492q47 219 208 357t364 138q193 0 282.5 -137t41.5 -363q-45 -211 -192 -354q-163 -158 -380 -158q-184 0 -280 127q-102 136 -58 344zM724 922q-158 0 -269 -148q-91 -121 -131 -311q-37 -174 4 -287q49 -135 197 -135q143 0 256 166q89 131 123 289q36 168 4 280
q-41 146 -184 146zM523 1143h-53q34 82 99.5 139t134.5 57q33 0 44 -4l77 -45q30 -20 63 -33q7 -2 21.5 -7t20.5 -5q19 0 39.5 10.5t34 25.5t28 36.5t24.5 34.5h49q-35 -86 -95 -144q-67 -65 -143 -65q-31 0 -43 4t-78 41q-35 20 -51 29q-32 16 -55 16l-42 -8
q-22 -8 -42.5 -32t-32.5 -50z" />
    <glyph glyph-name="uni1ECD" unicode="&#x1ecd;" 
d="M170 492q47 219 208 357t364 138q193 0 282.5 -137t41.5 -363q-45 -211 -192 -354q-163 -158 -380 -158q-184 0 -280 127q-102 136 -58 344zM724 922q-158 0 -269 -148q-91 -121 -131 -311q-37 -174 4 -287q49 -135 197 -135q143 0 256 166q89 131 123 289q36 168 4 280
q-41 146 -184 146zM446 -311q-37 0 -60 28.5t-15 65.5t43 65.5t72 28.5q38 0 60.5 -27.5t13.5 -66.5q-8 -37 -43 -65.5t-71 -28.5z" />
    <glyph glyph-name="ocircumflex" unicode="&#xf4;" 
d="M170 492q47 219 208 357t364 138q193 0 282.5 -137t41.5 -363q-45 -211 -192 -354q-163 -158 -380 -158q-184 0 -280 127q-102 136 -58 344zM724 922q-158 0 -269 -148q-91 -121 -131 -311q-37 -174 4 -287q49 -135 197 -135q143 0 256 166q89 131 123 289q36 168 4 280
q-41 146 -184 146zM500 1069h-70l327 344h111l181 -344h-70l-191 217z" />
    <glyph glyph-name="uni1ED3" unicode="&#x1ed3;" 
d="M170 492q47 219 208 357t364 138q193 0 282.5 -137t41.5 -363q-45 -211 -192 -354q-163 -158 -380 -158q-184 0 -280 127q-102 136 -58 344zM724 922q-158 0 -269 -148q-91 -121 -131 -311q-37 -174 4 -287q49 -135 197 -135q143 0 256 166q89 131 123 289q36 168 4 280
q-41 146 -184 146zM500 1069h-70l327 344h111l181 -344h-70l-191 217zM1196 1409h-70l-280 201q-21 22 -41 45q-2 8 3 33l5 24q24 41 79 41h16q12 -6 22 -12q17 -15 35 -38.5t28 -35.5z" />
    <glyph glyph-name="uni1ED1" unicode="&#x1ed1;" 
d="M170 492q47 219 208 357t364 138q193 0 282.5 -137t41.5 -363q-45 -211 -192 -354q-163 -158 -380 -158q-184 0 -280 127q-102 136 -58 344zM724 922q-158 0 -269 -148q-91 -121 -131 -311q-37 -174 4 -287q49 -135 197 -135q143 0 256 166q89 131 123 289q36 168 4 280
q-41 146 -184 146zM500 1069h-70l327 344h111l181 -344h-70l-191 217zM1436 1536l-367 -201h-69l313 258l59 49q36 21 70 41h13q51 0 56 -45l-3 -32q-4 -17 -14 -25q-6 -12 -27.5 -25.5t-30.5 -19.5z" />
    <glyph glyph-name="uni1ED5" unicode="&#x1ed5;" 
d="M170 492q47 219 208 357t364 138q193 0 282.5 -137t41.5 -363q-45 -211 -192 -354q-163 -158 -380 -158q-184 0 -280 127q-102 136 -58 344zM724 922q-158 0 -269 -148q-91 -121 -131 -311q-37 -174 4 -287q49 -135 197 -135q143 0 256 166q89 131 123 289q36 168 4 280
q-41 146 -184 146zM500 1069h-70l327 344h111l181 -344h-70l-191 217zM957 1606l32 55q10 16 31 31q21 20 74 38.5t102 18.5q37 0 51 -3t51 -16.5t50 -37.5q38 -50 24 -119q-6 -25 -35 -60.5t-73 -78.5l-59 -39l-45 -27q-19 -14 -28 -32.5t-16 -48.5t-8 -34h-54l13 64
q4 18 15 42.5t19 35.5l105 108l26 39q17 31 28 64q15 73 -80 86q-55 -9 -82 -37q8 -25 7 -49q-7 -31 -29 -52.5t-58 -25.5q-31 0 -49.5 23.5t-11.5 54.5z" />
    <glyph glyph-name="uni1ED7" unicode="&#x1ed7;" 
d="M170 492q47 219 208 357t364 138q193 0 282.5 -137t41.5 -363q-45 -211 -192 -354q-163 -158 -380 -158q-184 0 -280 127q-102 136 -58 344zM724 922q-158 0 -269 -148q-91 -121 -131 -311q-37 -174 4 -287q49 -135 197 -135q143 0 256 166q89 131 123 289q36 168 4 280
q-41 146 -184 146zM500 1069h-70l327 344h111l181 -344h-70l-191 217zM618 1503h-53q33 82 98.5 139.5t135.5 57.5q33 0 44 -4l76 -45q31 -21 63 -33q8 -2 22.5 -7t20.5 -5q18 0 38.5 10t34.5 25.5t28.5 37t22.5 33.5h49q-34 -86 -93 -143q-67 -66 -143 -66q-31 0 -43 4
t-79 41q-34 21 -51 29q-31 16 -54 16l-43 -8q-21 -8 -41.5 -31.5t-32.5 -50.5z" />
    <glyph glyph-name="uni1ED9" unicode="&#x1ed9;" 
d="M170 492q47 219 208 357t364 138q193 0 282.5 -137t41.5 -363q-45 -211 -192 -354q-163 -158 -380 -158q-184 0 -280 127q-102 136 -58 344zM724 922q-158 0 -269 -148q-91 -121 -131 -311q-37 -174 4 -287q49 -135 197 -135q143 0 256 166q89 131 123 289q36 168 4 280
q-41 146 -184 146zM500 1069h-70l327 344h111l181 -344h-70l-191 217zM446 -311q-37 0 -60 28.5t-15 65.5t43 65.5t72 28.5q38 0 60.5 -27.5t13.5 -66.5q-8 -37 -43 -65.5t-71 -28.5z" />
    <glyph glyph-name="glyph216" unicode="&#xf9;" 
d="M1115 975l-209 -983l-80 8q-22 0 -35 -1t-48 -7l38 180q-145 -197 -370 -197q-170 0 -232.5 95.5t-18.5 302.5l128 602q30 -4 41.5 -6t38.5 -2l84 8l-118 -553q-36 -172 0.5 -258t172.5 -86q141 0 228 110q68 84 97 222l120 565q29 -4 41 -6t38 -2zM949 1090h-70
l-280 200q-20 23 -40 45q-3 8 2 33l6 25q24 41 79 41h16q11 -7 22 -13q18 -14 35.5 -37.5t26.5 -35.5z" />
    <glyph glyph-name="glyph217" unicode="&#xfa;" 
d="M1115 975l-209 -983l-80 8q-22 0 -35 -1t-48 -7l38 180q-145 -197 -370 -197q-170 0 -232.5 95.5t-18.5 302.5l128 602q30 -4 41.5 -6t38.5 -2l84 8l-118 -553q-36 -172 0.5 -258t172.5 -86q141 0 228 110q68 84 97 222l120 565q29 -4 41 -6t38 -2zM816 1348
q15 12 42.5 35.5t50.5 37.5q14 6 28 13h16q56 0 61 -41l-6 -25q-5 -25 -11 -33q-29 -22 -58 -45l-367 -200h-70z" />
    <glyph glyph-name="uni1EE7" unicode="&#x1ee7;" 
d="M1115 975l-209 -983l-80 8q-22 0 -35 -1t-48 -7l38 180q-145 -197 -370 -197q-170 0 -232.5 95.5t-18.5 302.5l128 602q30 -4 41.5 -6t38.5 -2l84 8l-118 -553q-36 -172 0.5 -258t172.5 -86q141 0 228 110q68 84 97 222l120 565q29 -4 41 -6t38 -2zM686 1078l5 22
q3 18 13.5 43.5t19.5 36.5l104 108l27 39q16 31 28 64q16 73 -80 86q-55 -9 -81 -37q6 -25 5 -49q-6 -31 -28 -52.5t-58 -25.5q-30 0 -49 23.5t-13 54.5l33 55q9 16 32 31q20 20 73 38.5t102 18.5q37 0 51 -3t51 -16.5t50 -37.5q38 -50 23 -119q-5 -25 -34 -60.5t-72 -78.5
l-60 -39l-45 -27q-20 -16 -25 -26.5t-8 -16.5l-9 -32h-55z" />
    <glyph glyph-name="utilde" unicode="&#x169;" 
d="M1115 975l-209 -983l-80 8q-22 0 -35 -1t-48 -7l38 180q-145 -197 -370 -197q-170 0 -232.5 95.5t-18.5 302.5l128 602q30 -4 41.5 -6t38.5 -2l84 8l-118 -553q-36 -172 0.5 -258t172.5 -86q141 0 228 110q68 84 97 222l120 565q29 -4 41 -6t38 -2zM496 1143h-53
q33 82 98.5 139t134.5 57q33 0 44 -4l77 -45q31 -20 63 -33q7 -2 21.5 -7t20.5 -5q18 0 39 10.5t34.5 25.5t28 36.5t23.5 34.5h50q-35 -86 -95 -144q-66 -65 -142 -65q-31 0 -43.5 4t-78.5 41q-35 20 -51 29q-31 16 -54 16l-43 -8q-22 -8 -42.5 -32t-31.5 -50z" />
    <glyph glyph-name="uni1EE5" unicode="&#x1ee5;" 
d="M1115 975l-209 -983l-80 8q-22 0 -35 -1t-48 -7l38 180q-145 -197 -370 -197q-170 0 -232.5 95.5t-18.5 302.5l128 602q30 -4 41.5 -6t38.5 -2l84 8l-118 -553q-36 -172 0.5 -258t172.5 -86q141 0 228 110q68 84 97 222l120 565q29 -4 41 -6t38 -2zM429 -311
q-37 0 -60 28.5t-15 65.5q7 37 42.5 65.5t72.5 28.5q39 0 60.5 -27.5t13.5 -66.5q-8 -37 -42.5 -65.5t-71.5 -28.5z" />
    <glyph glyph-name="uhorn" unicode="&#x1b0;" 
d="M1105 930q42 10 62 31.5t27 54.5q8 41 -4 57q-5 10 -35 12t-31 9l26 123l59 -9h136l-10 -32l-17 -78q-11 -54 -30 -93.5t-60 -78.5q-31 -29 -61.5 -41.5t-74.5 -16.5l-186 -876l-80 8q-22 0 -35 -1t-48 -7l38 180q-145 -197 -370 -197q-170 0 -232.5 95.5t-18.5 302.5
l128 602q30 -4 41.5 -6t38.5 -2l84 8l-118 -553q-36 -172 0.5 -258t172.5 -86q141 0 228 110q68 84 97 222l120 565q29 -4 41 -6t38 -2l84 8z" />
    <glyph glyph-name="uni1EEB" unicode="&#x1eeb;" 
d="M920 1090h-70l-280 200q-20 23 -40 45q-3 8 2 33l6 25q24 41 79 41h16q11 -7 22 -13q18 -14 35.5 -37.5t26.5 -35.5zM1105 930q42 10 62 31.5t27 54.5q8 41 -4 57q-5 10 -35 12t-31 9l26 123l59 -9h136l-10 -32l-17 -78q-11 -54 -30 -93.5t-60 -78.5q-31 -29 -61.5 -41.5
t-74.5 -16.5l-186 -876l-80 8q-22 0 -35 -1t-48 -7l38 180q-145 -197 -370 -197q-170 0 -232.5 95.5t-18.5 302.5l128 602q30 -4 41.5 -6t38.5 -2l84 8l-118 -553q-36 -172 0.5 -258t172.5 -86q141 0 228 110q68 84 97 222l120 565q29 -4 41 -6t38 -2l84 8z" />
    <glyph glyph-name="uni1EE9" unicode="&#x1ee9;" 
d="M875 1348q15 12 42.5 35.5t50.5 37.5q14 6 28 13h16q56 0 61 -41l-6 -25q-5 -25 -11 -33q-29 -22 -58 -45l-367 -200h-70zM1105 930q42 10 62 31.5t27 54.5q8 41 -4 57q-5 10 -35 12t-31 9l26 123l59 -9h136l-10 -32l-17 -78q-11 -54 -30 -93.5t-60 -78.5
q-31 -29 -61.5 -41.5t-74.5 -16.5l-186 -876l-80 8q-22 0 -35 -1t-48 -7l38 180q-145 -197 -370 -197q-170 0 -232.5 95.5t-18.5 302.5l128 602q30 -4 41.5 -6t38.5 -2l84 8l-118 -553q-36 -172 0.5 -258t172.5 -86q141 0 228 110q68 84 97 222l120 565q29 -4 41 -6t38 -2
l84 8z" />
    <glyph glyph-name="uni1EED" unicode="&#x1eed;" 
d="M686 1078l5 22q3 18 13.5 43.5t19.5 36.5l104 108l27 39q16 31 28 64q16 73 -80 86q-55 -9 -81 -37q6 -25 5 -49q-6 -31 -28 -52.5t-58 -25.5q-30 0 -49 23.5t-13 54.5l33 55q9 16 32 31q20 20 73 38.5t102 18.5q37 0 51 -3t51 -16.5t50 -37.5q38 -50 23 -119
q-5 -25 -34 -60.5t-72 -78.5l-60 -39l-45 -27q-20 -16 -25 -26.5t-8 -16.5l-9 -32h-55zM1105 930q42 10 62 31.5t27 54.5q8 41 -4 57q-5 10 -35 12t-31 9l26 123l59 -9h136l-10 -32l-17 -78q-11 -54 -30 -93.5t-60 -78.5q-31 -29 -61.5 -41.5t-74.5 -16.5l-186 -876l-80 8
q-22 0 -35 -1t-48 -7l38 180q-145 -197 -370 -197q-170 0 -232.5 95.5t-18.5 302.5l128 602q30 -4 41.5 -6t38.5 -2l84 8l-118 -553q-36 -172 0.5 -258t172.5 -86q141 0 228 110q68 84 97 222l120 565q29 -4 41 -6t38 -2l84 8z" />
    <glyph glyph-name="uni1EEF" unicode="&#x1eef;" 
d="M525 1143h-53q33 82 98.5 139t134.5 57q33 0 44 -4l77 -45q31 -20 63 -33q7 -2 21.5 -7t20.5 -5q18 0 39 10.5t34.5 25.5t28 36.5t23.5 34.5h50q-35 -86 -95 -144q-66 -65 -142 -65q-31 0 -43.5 4t-78.5 41q-35 20 -51 29q-31 16 -54 16l-43 -8q-22 -8 -42.5 -32
t-31.5 -50zM1105 930q42 10 62 31.5t27 54.5q8 41 -4 57q-5 10 -35 12t-31 9l26 123l59 -9h136l-10 -32l-17 -78q-11 -54 -30 -93.5t-60 -78.5q-31 -29 -61.5 -41.5t-74.5 -16.5l-186 -876l-80 8q-22 0 -35 -1t-48 -7l38 180q-145 -197 -370 -197q-170 0 -232.5 95.5
t-18.5 302.5l128 602q30 -4 41.5 -6t38.5 -2l84 8l-118 -553q-36 -172 0.5 -258t172.5 -86q141 0 228 110q68 84 97 222l120 565q29 -4 41 -6t38 -2l84 8z" />
    <glyph glyph-name="uni1EF1" unicode="&#x1ef1;" 
d="M429 -311q-37 0 -60 28.5t-15 65.5q7 37 42.5 65.5t72.5 28.5q39 0 60.5 -27.5t13.5 -66.5q-8 -37 -42.5 -65.5t-71.5 -28.5zM1105 930q42 10 62 31.5t27 54.5q8 41 -4 57q-5 10 -35 12t-31 9l26 123l59 -9h136l-10 -32l-17 -78q-11 -54 -30 -93.5t-60 -78.5
q-31 -29 -61.5 -41.5t-74.5 -16.5l-186 -876l-80 8q-22 0 -35 -1t-48 -7l38 180q-145 -197 -370 -197q-170 0 -232.5 95.5t-18.5 302.5l128 602q30 -4 41.5 -6t38.5 -2l84 8l-118 -553q-36 -172 0.5 -258t172.5 -86q141 0 228 110q68 84 97 222l120 565q29 -4 41 -6t38 -2
l84 8z" />
    <glyph glyph-name="ohorn" unicode="&#x1a1;" 
d="M1007 864q23 4 47.5 12.5t41.5 27t24 50.5q3 15 -1.5 26t-13.5 21q-3 11 -33.5 13t-30.5 8l26 123l59 -8h135l-11 -33l-17 -78q-12 -59 -25 -92t-54 -70q-49 -45 -110 -57q63 -129 22 -320q-45 -211 -192 -354q-163 -158 -380 -158q-184 0 -280 127q-102 136 -58 344
l14 46q47 219 208 357t364 138q168 0 265 -123zM724 922q-158 0 -269 -148q-91 -121 -131 -311q-37 -174 4 -287q49 -135 197 -135q143 0 256 166q89 131 123 289q36 168 4 280q-41 146 -184 146z" />
    <glyph glyph-name="uni1EDD" unicode="&#x1edd;" 
d="M922 1090h-70l-281 200q-20 23 -40 45q-2 8 3 33l6 25q22 41 78 41h16q11 -7 22 -13q17 -14 34.5 -37.5t27.5 -35.5zM1007 864q23 4 47.5 12.5t41.5 27t24 50.5q3 15 -1.5 26t-13.5 21q-3 11 -33.5 13t-30.5 8l26 123l59 -8h135l-11 -33l-17 -78q-12 -59 -25 -92t-54 -70
q-49 -45 -110 -57q63 -129 22 -320q-45 -211 -192 -354q-163 -158 -380 -158q-184 0 -280 127q-102 136 -58 344l14 46q47 219 208 357t364 138q168 0 265 -123zM724 922q-158 0 -269 -148q-91 -121 -131 -311q-37 -174 4 -287q49 -135 197 -135q143 0 256 166
q89 131 123 289q36 168 4 280q-41 146 -184 146z" />
    <glyph glyph-name="uni1EDB" unicode="&#x1edb;" 
d="M788 1348q14 12 41.5 35.5t51.5 37.5q14 6 28 13h16q55 0 62 -41l-6 -25q-5 -25 -12 -33q-29 -22 -58 -45l-366 -200h-70zM1007 864q23 4 47.5 12.5t41.5 27t24 50.5q3 15 -1.5 26t-13.5 21q-3 11 -33.5 13t-30.5 8l26 123l59 -8h135l-11 -33l-17 -78q-12 -59 -25 -92
t-54 -70q-49 -45 -110 -57q63 -129 22 -320q-45 -211 -192 -354q-163 -158 -380 -158q-184 0 -280 127q-102 136 -58 344l14 46q47 219 208 357t364 138q168 0 265 -123zM724 922q-158 0 -269 -148q-91 -121 -131 -311q-37 -174 4 -287q49 -135 197 -135q143 0 256 166
q89 131 123 289q36 168 4 280q-41 146 -184 146z" />
    <glyph glyph-name="uni1EDF" unicode="&#x1edf;" 
d="M721 1078l4 22q4 18 14.5 43.5t18.5 36.5l105 108l26 39q17 31 29 64q16 73 -81 86q-55 -9 -81 -37q7 -25 6 -49q-7 -31 -29 -52.5t-58 -25.5q-30 0 -49 23.5t-12 54.5l33 55q9 16 31 31q21 20 73.5 38.5t101.5 18.5q37 0 51 -3t51 -16.5t50 -37.5q39 -50 24 -119
q-5 -25 -34 -60.5t-72 -78.5l-61 -39l-45 -27q-19 -16 -24 -26.5t-9 -16.5l-7 -32h-56zM1007 864q23 4 47.5 12.5t41.5 27t24 50.5q3 15 -1.5 26t-13.5 21q-3 11 -33.5 13t-30.5 8l26 123l59 -8h135l-11 -33l-17 -78q-12 -59 -25 -92t-54 -70q-49 -45 -110 -57
q63 -129 22 -320q-45 -211 -192 -354q-163 -158 -380 -158q-184 0 -280 127q-102 136 -58 344l14 46q47 219 208 357t364 138q168 0 265 -123zM724 922q-158 0 -269 -148q-91 -121 -131 -311q-37 -174 4 -287q49 -135 197 -135q143 0 256 166q89 131 123 289q36 168 4 280
q-41 146 -184 146z" />
    <glyph glyph-name="uni1EE1" unicode="&#x1ee1;" 
d="M523 1143h-53q34 82 99.5 139t134.5 57q33 0 44 -4l77 -45q30 -20 63 -33q7 -2 21.5 -7t20.5 -5q19 0 39.5 10.5t34 25.5t28 36.5t24.5 34.5h49q-35 -86 -95 -144q-67 -65 -143 -65q-31 0 -43 4t-78 41q-35 20 -51 29q-32 16 -55 16l-42 -8q-22 -8 -42.5 -32t-32.5 -50z
M1017 864q23 4 47.5 12.5t41.5 27t24 50.5q3 15 -1.5 26t-13.5 21q-3 11 -33.5 13t-30.5 8l26 123l59 -8h135l-11 -33l-17 -78q-12 -59 -25 -92t-54 -70q-49 -45 -110 -57q63 -129 22 -320q-45 -211 -192 -354q-163 -158 -380 -158q-184 0 -280 127q-102 136 -58 344l14 46
q47 219 208 357t364 138q168 0 265 -123zM734 922q-158 0 -269 -148q-91 -121 -131 -311q-37 -174 4 -287q49 -135 197 -135q143 0 256 166q89 131 123 289q36 168 4 280q-41 146 -184 146z" />
    <glyph glyph-name="uni1EE3" unicode="&#x1ee3;" 
d="M446 -311q-37 0 -60 28.5t-15 65.5t43 65.5t72 28.5q38 0 60.5 -27.5t13.5 -66.5q-8 -37 -43 -65.5t-71 -28.5zM1007 864q23 4 47.5 12.5t41.5 27t24 50.5q3 15 -1.5 26t-13.5 21q-3 11 -33.5 13t-30.5 8l26 123l59 -8h135l-11 -33l-17 -78q-12 -59 -25 -92t-54 -70
q-49 -45 -110 -57q63 -129 22 -320q-45 -211 -192 -354q-163 -158 -380 -158q-184 0 -280 127q-102 136 -58 344l14 46q47 219 208 357t364 138q168 0 265 -123zM724 922q-158 0 -269 -148q-91 -121 -131 -311q-37 -174 4 -287q49 -135 197 -135q143 0 256 166
q89 131 123 289q36 168 4 280q-41 146 -184 146z" />
    <glyph glyph-name="ygrave" unicode="&#x1ef3;" 
d="M468 4l-208 971q24 -4 46.5 -6t50.5 -2q23 0 52 3t48 5q20 -193 52 -370t89 -392q94 135 234 363.5t235 398.5q15 -4 31.5 -6t37.5 -2q16 0 66 8q-310 -469 -343 -518q-241 -361 -327 -494q-185 -285 -313 -495q-18 4 -33 6t-35 2q-29 0 -44 -2q-20 -6 -28 -6zM922 1090
h-70l-282 200q-19 23 -39 45q-2 8 3 33l5 25q23 41 79 41h16q10 -7 22 -13q17 -14 34.5 -37.5t28.5 -35.5z" />
    <glyph glyph-name="glyph234" unicode="&#xfd;" 
d="M468 4l-208 971q24 -4 46.5 -6t50.5 -2q23 0 52 3t48 5q20 -193 52 -370t89 -392q94 135 234 363.5t235 398.5q15 -4 31.5 -6t37.5 -2q16 0 66 8q-310 -469 -343 -518q-241 -361 -327 -494q-185 -285 -313 -495q-18 4 -33 6t-35 2q-29 0 -44 -2q-20 -6 -28 -6zM876 1348
q14 12 42 35.5t51 37.5q13 6 28 13h16q55 0 61 -41l-5 -25q-5 -25 -11 -33q-30 -22 -60 -45l-365 -200h-70z" />
    <glyph glyph-name="uni1EF7" unicode="&#x1ef7;" 
d="M468 4l-208 971q24 -4 46.5 -6t50.5 -2q23 0 52 3t48 5q20 -193 52 -370t89 -392q94 135 234 363.5t235 398.5q15 -4 31.5 -6t37.5 -2q16 0 66 8q-310 -469 -343 -518q-241 -361 -327 -494q-185 -285 -313 -495q-18 4 -33 6t-35 2q-29 0 -44 -2q-20 -6 -28 -6zM764 1078
l5 22q4 18 14.5 43.5t18.5 36.5l105 108l26 39q17 31 29 64q15 73 -81 86q-55 -9 -81 -37q7 -25 6 -49q-7 -31 -29 -52.5t-58 -25.5q-30 0 -49 23.5t-12 54.5l32 55q10 16 32 31q20 20 73 38.5t102 18.5q37 0 51 -3t51 -16.5t50 -37.5q38 -50 24 -119q-6 -25 -35 -60.5
t-72 -78.5l-60 -39l-45 -27q-19 -16 -24.5 -26.5t-8.5 -16.5l-8 -32h-56z" />
    <glyph glyph-name="uni1EF9" unicode="&#x1ef9;" 
d="M468 4l-208 971q24 -4 46.5 -6t50.5 -2q23 0 52 3t48 5q20 -193 52 -370t89 -392q94 135 234 363.5t235 398.5q15 -4 31.5 -6t37.5 -2q16 0 66 8q-310 -469 -343 -518q-241 -361 -327 -494q-185 -285 -313 -495q-18 4 -33 6t-35 2q-29 0 -44 -2q-20 -6 -28 -6zM585 1143
h-54q34 82 99.5 139t135.5 57q33 0 44 -4l76 -45q31 -20 63 -33q8 -2 22.5 -7t20.5 -5q18 0 38.5 10.5t34.5 25.5t28.5 36.5t22.5 34.5h49q-34 -86 -93 -144q-67 -65 -143 -65q-31 0 -43.5 4t-77.5 41q-35 20 -52 29q-31 16 -54 16l-43 -8q-21 -8 -41.5 -32t-32.5 -50z" />
    <glyph glyph-name="uni1EF5" unicode="&#x1ef5;" 
d="M468 4l-208 971q24 -4 46.5 -6t50.5 -2q23 0 52 3t48 5q20 -193 52 -370t89 -392q94 135 234 363.5t235 398.5q15 -4 31.5 -6t37.5 -2q16 0 66 8q-310 -469 -343 -518q-241 -361 -327 -494q-185 -285 -313 -495q-18 4 -33 6t-35 2q-29 0 -44 -2q-20 -6 -28 -6zM618 -311
q-37 0 -59.5 28.5t-14.5 65.5t42.5 65.5t71.5 28.5q39 0 60.5 -27.5t13.5 -66.5q-8 -37 -42.5 -65.5t-71.5 -28.5z" />
    <glyph glyph-name="divide" unicode="&#xf7;" horiz-adv-x="1706" 
 />
    <glyph glyph-name="ugrave" horiz-adv-x="582" 
 />
    <glyph glyph-name="uacute" horiz-adv-x="580" 
 />
    <glyph glyph-name="yacute" horiz-adv-x="629" 
 />
    <glyph glyph-name="Ccaron" unicode="&#x10c;" horiz-adv-x="1274" 
 />
    <glyph glyph-name="ccaron" unicode="&#x10d;" horiz-adv-x="922" 
 />
    <glyph glyph-name="Dslash" unicode="&#x110;" horiz-adv-x="1617" 
d="M434 791l129 606h545q151 0 231 -19q117 -26 193 -104q92 -90 118 -226.5t-6 -285.5q-44 -205 -148 -361q-90 -135 -239 -245q-106 -78 -245.5 -117t-405.5 -39h-340l149 700h-82l19 91h82zM726 1315l-112 -524h393l-19 -91h-393l-129 -606q29 0 65 -4q110 -12 145 -12
l41 4q164 0 300 61q172 78 280 240q97 143 140 346q68 320 -40.5 457t-411.5 137q-41 0 -144 -4t-115 -4z" />
    <glyph glyph-name="dcroat" unicode="&#x111;" horiz-adv-x="1159" 
d="M1257 1212l-259 -1220l-81 8q-23 0 -35 -1t-48 -7l42 201q-177 -218 -398 -218q-185 0 -267 123q-89 131 -37 377q47 219 198 365.5t349 146.5q107 0 174.5 -51t106.5 -150l91 426h-262l19 91h262l49 229l81 -4l83 4l-49 -229h86l-19 -91h-86zM944 512q33 154 -5 258
q-47 131 -191 131q-178 0 -281 -147q-77 -109 -119 -308q-33 -155 4 -262q46 -131 192 -131q159 0 272 158q91 125 128 301z" />
    <glyph glyph-name="quoteleft" unicode="&#x2018;" horiz-adv-x="589" 
d="M763 1413l-240 -455q-25 -51 -45 -75q-35 -43 -74 -43q-31 0 -52 21.5t-14 56.5q6 26 26 55q6 10 42 51l327 401z" />
    <glyph glyph-name="quoteright" unicode="&#x2019;" horiz-adv-x="589" 
d="M288 856l240 455q33 59 46 73q36 41 73 41q36 0 57 -19.5t13 -53.5q-5 -25 -16.5 -43.5t-51.5 -67.5l-327 -401z" />
    <glyph glyph-name="quotedblleft" unicode="&#x201c;" horiz-adv-x="917" 
d="M1104 1413l-241 -455q-25 -51 -44 -75q-36 -43 -75 -43q-31 0 -52 21.5t-14 56.5q6 26 26 55q7 10 42 51l327 401zM755 1413l-240 -455q-25 -51 -45 -75q-35 -43 -74 -43q-31 0 -52 21.5t-14 56.5q6 26 26 55q6 10 42 51l327 401z" />
    <glyph glyph-name="quotedblright" unicode="&#x201d;" horiz-adv-x="917" 
d="M288 856l240 455q33 59 46 73q36 41 73 41q36 0 57 -19.5t13 -53.5q-5 -25 -16.5 -43.5t-51.5 -67.5l-327 -401zM636 856l241 455q32 59 45 73q36 41 73 41t57.5 -19.5t12.5 -53.5q-5 -25 -16.5 -43.5t-51.5 -67.5l-327 -401z" />
    <glyph glyph-name="ellipsis" unicode="&#x2026;" horiz-adv-x="1325" 
d="M184 102q11 50 55.5 86.5t93.5 36.5t78.5 -36.5t18.5 -86.5q-11 -51 -55 -89t-95 -38q-49 0 -78 37t-18 90zM566 102q11 50 55.5 86.5t93.5 36.5t78.5 -36.5t18.5 -86.5q-11 -51 -55 -89t-95 -38q-49 0 -78 37t-18 90zM927 102q11 50 55.5 86.5t93.5 36.5t78.5 -36.5
t18.5 -86.5q-11 -51 -55 -89t-95 -38q-49 0 -78 37t-18 90z" />
    </font>
</defs>
</svg>
