<svg xmlns="http://www.w3.org/2000/svg">
<defs>
<font id="UTMAvo" horiz-adv-x="1341" >
  <font-face 
    font-family="UTM Avo"
    font-weight="400"
    font-stretch="normal"
    units-per-em="2048"
    panose-1="2 4 6 3 5 5 6 2 2 4"
    ascent="1638"
    descent="-410"
    x-height="1120"
    cap-height="1516"
    bbox="-132.999 -455 4942 2343"
    underline-thickness="109"
    underline-position="-143"
    unicode-range="U+0020-U+2026"
  />
<missing-glyph horiz-adv-x="5040" 
d="M3351 2045h10c24.667 -6.66699 37 -24 37 -52c0 -8 -10.667 -27 -32 -57h-28c0 16 9.33301 34 28 54l2 10c-3.33301 8.66699 -6.66602 13.667 -10 15h-9c-5.33301 0 -8.66602 -6.33301 -10 -19h-30c4 32.667 18 49 42 49zM2019 2016l29.001 -31
c0 -10.667 -13.333 -20.667 -40 -30h-19l-59 12l-11 -12l-28 25c7.33301 19.333 21.666 29 42.999 29h11l42 -11h2c6.66699 0 16.667 6 30 18zM468.001 1980h142v-60h-94v-75h89v-59h-89v-129l-5 -5h-49v323zM1155 1980h43l6 -5v-78h30v-52h-30v-188l-6 -5h-49v193h-25v52
h25v78zM1621 1980h41.999l4 -5v-94h3c15.333 16 33.333 24 54 24h2c38.667 0 66.334 -23.667 83.001 -71l2 -39v-143h-52v115c0 53.333 -14 80 -42 80h-7c-28.667 0 -43 -28.667 -43 -86v-109h-51v323zM2200 1980l49 -0.000976562l5 -5v-222c6.66699 -34 21.667 -51 45 -51
c29.333 4.66699 44 24.334 44 59.001v214l5 5h49v-216c0 -56.667 -22 -94 -66 -112c-10 -5.33301 -21.667 -8 -35 -8c-31.333 0 -58.666 18.333 -82 55c-9.33301 16 -14 35 -14 57v224zM2435 1980h159v-60h-56v-268h-53v268h-55v55zM2621 1980l71 0.000976562
c4.66699 -2.66699 32.334 -86.334 83 -251.001h2l80 251h73v-328h-54v242h-2l-74 -242h-44c-2.66699 0 -22 60.667 -58 182l-19 60h-3v-242h-55v328zM3760 1980l52 -0.000976562v-328h-45l-5 5v11l3 2l-3 14c-19.333 -26.667 -45.333 -40 -78 -40
c-44.667 0 -78 30.333 -100 91l-5 39v3c0 62.667 30.667 104.334 92 125.001l23 3c23.333 0 44.333 -10.667 63 -32h3v107zM2057 1928l36 0.00195312l4 -6v-49h-45v-221h-48v23c-15.333 -20.667 -35 -31 -59 -31c-59.333 9.33301 -89 41.666 -89 96.999v156h51v-104

<glyph glyph-name=".notdef" horiz-adv-x="5040" 
d="M3351 2045h10c24.667 -6.66699 37 -24 37 -52c0 -8 -10.667 -27 -32 -57h-28c0 16 9.33301 34 28 54l2 10c-3.33301 8.66699 -6.66602 13.667 -10 15h-9c-5.33301 0 -8.66602 -6.33301 -10 -19h-30c4 32.667 18 49 42 49zM2019 2016l29.001 -31
c0 -10.667 -13.333 -20.667 -40 -30h-19l-59 12l-11 -12l-28 25c7.33301 19.333 21.666 29 42.999 29h11l42 -11h2c6.66699 0 16.667 6 30 18zM468.001 1980h142v-60h-94v-75h89v-59h-89v-129l-5 -5h-49v323zM1155 1980h43l6 -5v-78h30v-52h-30v-188l-6 -5h-49v193h-25v52
h25v78zM1621 1980h41.999l4 -5v-94h3c15.333 16 33.333 24 54 24h2c38.667 0 66.334 -23.667 83.001 -71l2 -39v-143h-52v115c0 53.333 -14 80 -42 80h-7c-28.667 0 -43 -28.667 -43 -86v-109h-51v323zM2200 1980l49 -0.000976562l5 -5v-222c6.66699 -34 21.667 -51 45 -51
c29.333 4.66699 44 24.334 44 59.001v214l5 5h49v-216c0 -56.667 -22 -94 -66 -112c-10 -5.33301 -21.667 -8 -35 -8c-31.333 0 -58.666 18.333 -82 55c-9.33301 16 -14 35 -14 57v224zM2435 1980h159v-60h-56v-268h-53v268h-55v55zM2621 1980l71 0.000976562
c4.66699 -2.66699 32.334 -86.334 83 -251.001h2l80 251h73v-328h-54v242h-2l-74 -242h-44c-2.66699 0 -22 60.667 -58 182l-19 60h-3v-242h-55v328zM3760 1980l52 -0.000976562v-328h-45l-5 5v11l3 2l-3 14c-19.333 -26.667 -45.333 -40 -78 -40
c-44.667 0 -78 30.333 -100 91l-5 39v3c0 62.667 30.667 104.334 92 125.001l23 3c23.333 0 44.333 -10.667 63 -32h3v107zM2057 1928l36 0.00195312l4 -6v-49h-45v-221h-48v23c-15.333 -20.667 -35 -31 -59 -31c-59.333 9.33301 -89 41.666 -89 96.999v156h51v-104
c0 -52.667 8.66699 -81.334 26 -86.001l18 -5h6c17.333 0 30.333 12 39 36l3 26v133h53v25zM3476 1928v-55h-31v-221h-47v25h-2c-10 -22 -29 -33 -57 -33c-45.333 0 -74 26 -86 78l-3 29v146h52v-120c0 -33.333 6.33301 -56 19 -68l21 -7h9c28 0 42 23 42 69v126h27
c2.66699 0 4 9.33301 4 28l3 3h49zM758 1905c45.333 0 79.667 -25.667 103 -77c6 -12 10 -30 12 -54c0 -58.667 -30 -101 -90 -127l-32 -3c-42 0 -75.667 24.333 -101 73c-8 14.667 -12 32 -12 52v10c0 62.667 33.667 104.667 101 126h19zM1011 1905h3
c49.333 0 77 -33.667 83 -101v-152h-51v119c0 50.667 -14 76 -42 76h-5c-29.333 0 -44 -25.333 -44 -76v-119h-52v245h46v-21c20 19.333 40.667 29 62 29zM1466 1905l7 -0.000976562c48 0 83 -29.667 105 -89h-60c-10.667 20.667 -24.667 31 -42 31h-17
c-35.333 -9.33301 -53 -29.666 -53 -60.999l-3 -15c8 -46 28.333 -69 61 -69h9c14.667 0 30.334 9 47.001 27h40l2 3h3l2 -3l2 3l3 -3l2 3l2 -7c-22 -54 -58.667 -81 -110 -81c-50.667 0 -87.334 31.333 -110.001 94l-4 36v3c0 56.667 25.667 96.667 77 120
c10 5.33301 22.333 8 37 8zM3141 1905h1.99902c32.667 0 56 -20 70 -60v-14h-52c0 10.667 -5.33301 16 -16 16h-4c-9.33301 0 -15.666 -4.33301 -18.999 -13v-13c0 -6 22.667 -17.667 68 -35c20 -12.667 30 -32.334 30 -59.001c0 -38.667 -20.333 -65.334 -61 -80.001
l-23 -3c-50.667 8 -76 35.667 -76 83h54c0 -13.333 9 -21.666 27 -24.999h4c12.667 0 20.667 7.66699 24 23c0 14.667 -22.667 29.334 -68 44.001c-22.667 18 -34 37.667 -34 59c0 44 24.667 69.667 74 77zM4203 1905c36.666 0 62.333 -21 77 -63
c4.66602 -12 7 -33.667 7 -65v-125h-52v112c0 55.333 -13.334 83 -40 83h-11c-22 0 -35.334 -18 -40 -54v-141h-52v5h-2l2 2v238h47v-21c16.666 19.333 38 29 64 29zM4432 1905h5c26.666 0 49.666 -13.333 69 -40v18l-3 3l3 11h47v-208c0 -64.667 -28.334 -108.667 -85 -132
l-33 -4h-7c-46.666 0 -81.333 26.667 -104 80h59c16 -14.667 31 -22.334 45 -23.001h13c14.666 0 29 7.33301 43 22c10 8.66699 17.334 26 22 52h-3c-21.334 -26.667 -45.667 -40 -73 -40c-38 0 -70 23.333 -96 70c-6.66602 12 -11.333 33 -14 63
c0 58.667 29 100.334 87 125.001zM3851 1897l53 -0.000976562v-136c4 -39.333 17.333 -59 40 -59h7c30.667 0 46 31 46 93v102h51v-245h-47l-3 10h3l-3 3v5l3 2v3h-4c0 -15.333 -19 -25.666 -57 -30.999h-3c-39.333 0 -67.333 25 -84 75l-2 85v93zM690 1771
c6.66699 -46 27.6689 -69 63.002 -69h7c39.333 9.33301 59 31 59 65v15c-8.66699 43.333 -28.334 65 -59.001 65h-5c-38.667 0 -60.334 -25.333 -65.001 -76zM3630 1774c8.66699 -48 29 -72 61 -72h5c38.667 0 60.667 25 66 75c0 32.667 -17 56 -51 70h-22
c-24.667 0 -43.334 -19 -56 -57zM4374 1774c5.33398 -48 27 -71.999 65 -71.999h5c39.334 8 59 32 59 72c0 40.667 -19.666 65 -59 73h-14c-37.334 -10.667 -56 -31.334 -56 -62.001v-11zM3928 1620h52v-57h-52v57zM1054 1402c28.667 -7.33301 43 -23.667 43 -49v-4
c0 -11.333 -10.667 -31.333 -32 -60h-28c0 16.667 10.333 35.667 31 57v7c0 8 -2.33301 13 -7 15h-12c-6.66699 -2.66699 -10 -9 -10 -19h-28v6c0 21.333 11 36 33 44zM3349 1339c61.333 0 107.333 -33.001 138 -99.001h-60c-24.667 28 -51.334 42 -80 42
c-36.667 0 -65.667 -22.667 -87 -68c-6.66699 -14.667 -10 -30.334 -10 -47.001c0 -52 27 -88.667 81 -110l18 -1c24 0 49 13 75 39h61c-29.333 -64.667 -75.333 -97 -138 -97c-62 0 -109 37.333 -141 112c-6.66699 20.667 -10 41.334 -10 62.001
c0 64.667 30 115.334 90 152.001c19.333 10 40.333 15 63 15zM3664 1339c38 0 72.333 -15.666 103 -46.999c30.667 -34 46 -72.333 46 -115v-20c0 -59.333 -30.333 -108 -91 -146c-22 -8.66699 -43 -13 -63 -13c-59.333 0 -105.333 33.667 -138 101
c-8.66699 22 -13 42 -13 60v18c0 65.333 32.667 115.666 98 150.999c19.333 7.33301 38.666 11 58 11zM2261 1337h2l47 -11h3c7.33301 0 16 3.66699 26 11l18 -36c-12 -12.667 -23.667 -19 -35 -19h-3l-54 10l-20 -7l-20 36c12 10.667 24 16 36 16zM716.002 1334h19
c78.667 0 121.667 -8.66699 129 -26c16.667 -17.333 25 -38 25 -62c-6.66699 -38 -16.667 -57 -30 -57v-6c31.333 -15.333 47 -37.333 47 -66v-18c0 -42 -23 -71.333 -69 -88l-54 -5h-67v328zM2550 1334h53v-217c4 -40.667 19 -61 45 -61c19.333 0 34 13 44 39l3 30v203l4 6
h45l5 -6v-171c0 -78.667 -13.333 -123 -40 -133c-16 -17.333 -37.333 -26 -64 -26c-36.667 0 -67 25.333 -91 76l-4 54v206zM2805 1334h59c2.66699 0 43.334 -79 122 -237h4v237h50l4 -6v-322h-58c-19.333 32 -61 111.333 -125 238h-3v-238h-53v328zM3101 1334h54v-328h-54
v328zM3859 1334l8 0.000976562c103.333 0 161.333 -13.333 174 -40c15.333 -7.33301 31 -32.333 47 -75l4 -36v-11l3 -2c0 -62.667 -27.333 -112.334 -82 -149.001c-23.333 -10 -56.333 -15 -99 -15h-55v328zM4141 1334h153v-60h-103v-75h101v-57h-101v-74l4 -5h99v-57h-157
v322zM3563 1175v-10c0 -50.667 26.333 -86.667 79 -108l19 -1c45.333 0 77.333 28.667 96 86l3 20v15c0 40.667 -20 72 -60 94c-8 5.33301 -21 9 -39 11c-44 0 -76 -27.667 -96 -83zM770.002 1274v-67h9c36 0 54 9.33301 54 28l3 14c-7.33301 16.667 -17 25 -29 25h-37z
M3912 1274v-206.001l2 -3v-2c69.333 0 110 25.333 122 76l2 15v29c0 22.667 -10.667 45.334 -32 68.001c-16.667 15.333 -42.667 23 -78 23h-16zM1041 1259h5c25.333 0 49 -13.333 71 -40v32h49v-245h-49v32c-24 -26.667 -50.667 -40 -80 -40c-50 0 -83.667 32.333 -101 97
l-5 36c0 59.333 28.333 101 85 125zM1314 1259h3c49.333 0 77 -34 83 -102v-151h-51v128c0 44.667 -14 67 -42 67h-10c-22.667 0 -35.667 -20.667 -39 -62v-133h-52v245h47v-21c18.667 19.333 39 29 61 29zM1543 1259h5c30 0 53.667 -13.333 71 -40v32h47v-219
c0 -63.333 -34.667 -105.333 -104 -126h-16c-49.333 0 -85.333 27.333 -108 82h59c17.333 -16.667 32 -25 44 -25h14c34.667 0 56 25.667 64 77c-22 -28 -47.333 -42 -76 -42c-40 0 -73.667 27 -101 81l-7 44v16c0 52.667 28.333 91.667 85 117zM1912 1259l2 0.000976562
c28.667 0 49 -12.333 61 -37h2c21.333 24.667 44.333 37 69 37h4c38 0 64.333 -18.333 79 -55c5.33301 -16.667 8 -31.667 8 -45v-153h-52v138c0 29.333 -7.66699 47.666 -23 54.999l-12 2h-15c-21.333 0 -33.333 -21.667 -36 -65v-130h-52v136c0 39.333 -14.333 59 -43 59
h-8c-21.333 0 -33.333 -19 -36 -57v-138h-54v245h50v-21h2c4 16 22 25.667 54 29zM2282 1259c31.333 0 56.333 -14 75 -42v34h47v-245h-47v32c-24 -26.667 -50 -40 -78 -40c-49.333 0 -83.333 30.667 -102 92l-6 41c0 60 28.333 101.667 85 125zM985.002 1117
c0 -32 20.333 -52.333 61 -61h4c30 0 50.667 15.333 62 46l3 15v22c-8 41.333 -27 62 -57 62h-14c-27.333 0 -47 -19 -59 -57v-27zM1487 1128c0 -32 14.332 -54.667 42.999 -68l18 -4h5c31.333 0 52.333 19 63 57v23c-7.33301 43.333 -26.666 65 -57.999 65h-12
c-33.333 0 -53 -24.333 -59 -73zM2225 1131v-14.001c10 -40.667 29 -61 57 -61h14c38.667 8 58 29.333 58 64v11c0 30 -12.333 51.667 -37 65l-18 5h-10c-42.667 -5.33301 -64 -28.666 -64 -69.999zM770.001 1150v-82c0 -3.33301 2.33301 -5 7 -5c51.333 0 77 15 77 45
c0 22.667 -15.667 36.667 -47 42h-37zM2966 752.999l24 -28l-51 -55c-12 8 -21 16.667 -27 26zM1524 726.999l85 -54c0 -10 -7 -24 -21 -42l-87 54c12 27.333 19.667 41.333 23 42zM2850 692.999h38l55 -60h-54l-21 26l-23 -26h-54c36 40 55.667 60 59 60zM3422 692.999h40
l56 -60h-54l-24 26h-1c0 -3.33301 -6.33301 -12 -19 -26h-54zM622.001 684.999l52 0.00195312c5.33301 -2.66699 21 -48.334 47 -137.001l34 -110c6 5.33301 17.333 38.666 34 99.999l48 147h54v-2l-112 -326h-44zM1159 685.001h51v-54h-51v54zM1354 685.001h46l6 -5v-323
h-52v328zM2317 685.001h45l4 -5v-78h31v-52h-31v-193h-53v193h-26v52h26v78zM2425 685.001h52v-98h2c15.333 15.333 33.333 23 54 23h3c38 0 65 -23.667 81 -71l3 -38v-144h-52v115c0 54 -13 81 -39 81h-10c-28 0 -42 -29 -42 -87v-109h-52v328zM2664 685.001h52v-54h-52v54
zM3028 685.001h44l6 -5v-78h29v-52h-29v-193h-54v193h-27v52h27v78zM3234 685.001h52v-328h-52v328zM3957 685.001h52v-328h-52v328zM4316 685.001h51v-54h-51v54zM1555 610.001h5c55.333 0 92 -34 110 -102l3 -23v-11c0 -55.333 -28.333 -95.333 -85 -120l-35 -5
c-50.667 0 -87.667 32.333 -111 97l-4 32c0 64.667 31 108 93 130zM1811 610.001h4c35.333 0 61.333 -20 78 -60c4.66699 -16.667 7 -43.667 7 -81v-112h-54v146c-4.66699 33.333 -17 50 -37 50h-10c-25.333 0 -39.333 -19 -42 -57v-139h-54v245h49v-21
c17.333 19.333 37 29 59 29zM2046 610.001h4.00098c30 0 51 -13 63 -39h3v31h49v-206c0 -68 -29.667 -113 -89 -135l-28 -3h-5c-48.667 0 -84 27 -106 81h52l37 -20l15 -3h14c33.333 0 53.666 24 60.999 72c-22 -26 -46.333 -39 -73 -39c-41.333 0 -74 25.333 -98 76
c-7.33301 15.333 -11.333 35.333 -12 60c0 56.667 28.667 97.667 86 123zM2866 610.001l2 -0.000976562c54.667 0 91.667 -34.667 111 -104l2 -25l-2 -27h-172c10 -30 25 -45 45 -45l14 -3c19.333 0 35.666 7.33301 49 22h57v-3c-23.333 -50.667 -59.333 -76 -108 -76
c-51.333 0 -88.333 32.333 -111 97l-1 28v8c0 32.667 10.667 62.334 32 89.001c22.667 26 50 39 82 39zM3429 610h5c27.333 0 50.666 -13 70 -39h2v31h47v-245h-47v31h-2c-23.333 -26 -49 -39 -77 -39c-47.333 0 -81 29.667 -101 89l-5 36v14c0 57.333 28 97.333 84 120z
M3711 610l7 -0.000976562c58.667 0 94.334 -42.667 107 -128l-2 -1v-15c0 -43.333 -22 -78.666 -66 -105.999c-14 -7.33301 -29.333 -11 -46 -11c-22.667 0 -44 10.667 -64 32v-99l-5 -5h-49v325h49v-28c20.667 24 43.667 36 69 36zM4151 609.999
c29.334 0 54.334 -13 75 -39v31h49v-245h-49v31c-23.334 -26 -49 -39 -77 -39c-61.333 0 -97.333 44 -108 132c0 56 24.333 96.333 73 121c10 5.33301 22.334 8 37 8zM922.002 601.999h50v-136c2 -40 16 -60 42 -60h5c29.333 0 44 29 44 87v109h52v-245h-47v24h-5
c0 -15.333 -18.667 -26 -56 -32h-3c-36.667 0 -64 22.667 -82 68c-2.66699 23.333 -4 56.333 -4 99v81zM1159 601.999h51v-245h-51v245zM2664 601.999h52v-245h-52v245zM4316 601.999h51v-245h-51v245zM1492 487.999v-15.999c8.66699 -44 28.334 -66 59.001 -66h4
c39.333 0 61.333 25.333 66 76c-8.66699 47.333 -28.334 71 -59.001 71h-11c-39.333 -10.667 -59 -32.334 -59 -65.001zM1987 472c10 -44 29.667 -66 59 -66h11c32 0 51.667 25 59 75v1c-8.66699 47.333 -28.334 71 -59 71h-14c-26 0 -44.667 -19 -56 -57v-24zM2805 506h122
v2c-10.667 30 -30.334 45 -59 45h-7c-23.333 0 -42 -15.667 -56 -47zM3373 474c8.66699 -45.333 29 -68 61 -68h5c34.667 0 56.334 21 65 63v12c-6.66699 48 -25.667 72 -57 72h-16c-37.333 -9.33301 -56 -30.333 -56 -63zM3642 478c8 -48 28.333 -72.001 61 -72.001h3
c33.333 0 55 20 65 60v22c0 28.667 -16.333 50.334 -49 65.001h-22c-31.333 0 -50.666 -24 -58 -72v-3zM4095 471.999c6.66602 -44 28.666 -66 66 -66c28.666 0 49 16 61 48l2 15v16c0 36 -17.334 58.667 -52 68h-18c-28 0 -47.666 -20 -59 -60v-21zM3416 320.999h51v-52
h-51v52zM4137 320.999h51v-52h-51v52zM2733 132.999h4c23.333 0 37.666 -16.667 43 -50v-2c0 -10.667 -8 -24.334 -24 -41.001l-10 -17h-28c0 16.667 9.33301 35.334 28 56.001l3 2v2c-2 12.667 -5 19 -9 19h-10c-5.33301 0 -8.33301 -6.33301 -9 -19h-30
c4 33.333 18 50 42 50zM1546 115.999l52 -60l-26 -19l-52 52zM352.002 78.999h4c50 -32 78.333 -52 85 -60l-20 -37c-58.667 32.667 -88 52 -88 58zM3490 78.999l86 -58l-18 -39c-6.66699 0 -37 18.333 -91 55c10 24 17.667 38 23 42zM4578 75.999l19 -42l-91 -52l-20 39
l92 58v-3zM1204 52.999h51v-19l5 -5h14v-36h-14l-5 -5v-279h-46v31c-22.667 -26.667 -49.667 -40 -81 -40c-48 0 -82 35 -102 105l-3 26c0 68 33.667 111.667 101 131h14c22 0 44 -11 66 -33v59l-6 5h-43v36h49v24zM1480 44.999h40l56 -61h-53l-23 27l-23 -27h-53z
M2641 44.999h33c8 0 29 -20.333 63 -61h-54l-23 27c-12.667 -14 -19 -23 -19 -27h-58v4zM49.002 36.999h160v-60h-56v-268h-50l-4 5v245l2 3v2l-2 2l2 3l-2 2l2 3l-2 3h-54v54zM699.002 36.999h47v-73l2 -2l-2 -3v-3l2 -2l-2 -3v-3l2 -2v-2l-2 -3l2 -3h3
c11.333 16 28.333 24 51 24h3c35.333 0 61 -19.333 77 -58c4.66699 -11.333 7 -25.333 7 -42v-153h-52v127c0 45.333 -13.333 68 -40 68h-8c-28.667 0 -43 -28.667 -43 -86v-109h-52v322zM1297 36.999h47l5 -6v-49h-52v55zM1987 36.999h52v-198l70 115h62l-78 -118l90 -125
v-2h-70c-6.66699 14.667 -31.334 53 -74 115v-115h-52v328zM2271 36.999v-98.999c16 16 33.667 24 53 24c38 0 64.667 -18.667 80 -56c6.66699 -12.667 10 -38.334 10 -77.001v-120h-54v133c0 41.333 -13.667 62 -41 62h-11c-20.667 0 -33 -18.333 -37 -55v-140h-53v314
l-1 3v3l1 2l-1 3l1 3h53zM2458 37h51v-55h-51v55zM3148 37h51v-108c18 22 40.667 33 68 33h3c50 0 85 -31.333 105 -94l5 -37c0 -50 -21.333 -90 -64 -120c-20 -7.33301 -36.333 -11 -49 -11c-27.333 0 -51.333 13.333 -72 40v-31h-47v328zM4275 37h52v-99h2
c15.334 16 33.334 24 54 24h3c40 0 67.334 -24.667 82 -74l2 -41v-138h-52v111c0 54.667 -10.666 82 -32 82l-10 2h-12c-24.666 0 -37 -26.667 -37 -80v-115h-52v328zM329.002 -38h3v-58h-5c-28 0 -42 -19 -42 -57v-138h-53v245h47v-21c12 19.333 28.667 29 50 29z
M564.002 -38c47.333 0 75.999 -29 85.999 -87v-166h-51v136c-4 39.333 -17.667 59 -41 59h-6c-30 0 -45 -28 -45 -84v-111h-52v245h50v-21c16.667 19.333 36.334 29 59.001 29zM1504 -38c48 0 83 -31.333 105 -94l5 -39c-1.33301 -16 -3.66602 -24 -6.99902 -24h-169
c11.333 -31.333 32 -47 62 -47c16 0 32 7 48 21h57c-22 -52.667 -58 -79 -108 -79c-54.667 0 -92.334 35 -113.001 105v37c0 54 29.667 93 89 117zM2657 -38h5c51.333 0 87 -32.333 107 -97l3 -26v-21l-3 -13h-170c12 -31.333 29.667 -47 53 -47h12c14 0 28 7 42 21h59
c-22.667 -52.667 -57.667 -79 -105 -79c-56 0 -94.333 34 -115 102l-2 29c0 62 30.333 104.667 91 128zM2915 -38h3.99902c36 0 62 -20 78 -60c4.66699 -16.667 7 -44 7 -82v-111h-54v138c0 32 -11.667 51 -35 57h-11c-25.333 0 -39.666 -19 -42.999 -57v-138h-54v245h50
v-21c16.667 19.333 36 29 58 29zM3508 -38h6c26.667 0 50 -13.333 70 -40h2v32h47v-245h-47v31h-2c-22.667 -26.667 -48.667 -40 -78 -40c-47.333 0 -81 30 -101 90l-4 37v12c0 54.667 25.667 93.667 77 117c7.33301 4 17.333 6 30 6zM3781 -38h4
c41.333 0 68.666 -26 82 -78l3 -84v-91h-54v138c0 32 -12.667 51 -38 57h-9c-25.333 0 -39.333 -17.333 -42 -52v-143h-54v245h49v-21c17.333 19.333 37 29 59 29zM4133 -38h1c49.334 0 84 -31 104 -93l4 -40c0 -58.667 -28 -100.667 -84 -126l-25 -3
c-27.333 0 -50 11.333 -68 34v-106h-52v326h47v-29c20 24.667 44.334 37 73 37zM4714 -38h5c22.666 0 43.666 -12.333 63 -37c18 24.667 41 37 69 37h6c37.334 0 63.667 -22 79 -66l6 -51v-136h-52v122c0 48.667 -13 73 -39 73h-7c-23.334 0 -37 -16.667 -41 -50v-140l-5 -5
h-48v140c0 28 -10.334 46.333 -31 55h-17c-26.666 0 -40 -25.667 -40 -77v-118h-51v245h47v-21c14.666 19.333 33.333 29 56 29zM359 -46h49l5 -6v-234l-5 -5h-49v245zM1297 -46h52v-245h-52v245zM1649 -46h52v-136c2.66699 -40 17 -60 43 -60h4c29.333 0 44 27 44 81v115
h52v-245h-47v24h-5c-8 -22 -27.667 -33 -59 -33c-34.667 0 -61 21 -79 63c-3.33301 8 -5 19.333 -5 34v157zM2458 -46h51v-245h-51v245zM4515 -46h51v-245h-51v245zM1077 -169c0 -35.333 16.999 -59.666 50.999 -72.999h12c36 0 58 22 66 66v10
c0 35.333 -18 58.666 -54 69.999h-17c-25.333 0 -44.666 -19 -57.999 -57v-16zM1438 -143h122.001c-12 31.333 -29.667 47 -53 47h-7c-28.667 0 -49.334 -14.667 -62.001 -44v-3zM2599 -143h122c-14 31.333 -32 47 -54 47h-7c-30.667 0 -51 -15.667 -61 -47zM3196 -158v-11
c6.66699 -48.667 27 -73 61 -73h5c42.667 5.33301 64 29 64 71v5c0 30 -12.667 51.667 -38 65l-18 5h-14c-40 -9.33301 -60 -30 -60 -62zM3452 -173c9.33301 -46 30 -69 62 -69h11c27.333 0 47 20 59 60v13c-5.33301 48.667 -24 73 -56 73h-17
c-31.333 0 -51 -24.333 -59 -73v-4zM4062 -158v-22c0 -31.333 19.667 -52 59 -62h9c33.334 0 53.667 25.333 61 76c-8.66602 46.667 -28 70 -58 70h-15c-37.333 -11.333 -56 -32 -56 -62z" />
    <glyph glyph-name="space" unicode=" " horiz-adv-x="567" 
 />
    <glyph glyph-name="exclam" unicode="!" horiz-adv-x="604" 
d="M227 395v1121h152v-1121h-152zM227 0v258h152v-258h-152z" />
    <glyph glyph-name="quotedbl" unicode="&#x22;" horiz-adv-x="632" 
d="M534 909h-117l-25 607h166zM214 909h-116l-25 607h166z" />
    <glyph glyph-name="numbersign" unicode="#" horiz-adv-x="1134" 
d="M876 956l-55 -397h188v-137h-207l-59 -422h-141l59 422h-254l-59 -422h-142l60 422h-199v137h219l53 395h-219v140h240l59 422h142l-60 -422h254l60 422h141l-60 -422h170v-138h-190zM483 956l-56 -397h252l56 397h-252z" />
    <glyph glyph-name="dollar" unicode="$" horiz-adv-x="1134" 
d="M896 190c-66 -76.667 -149.665 -120.335 -250.998 -131.002v-202h-152v202c-95.333 10.667 -177.333 52.334 -246 125.001c-69.333 74 -104 158.667 -104 254v29h152c0 -188.667 93.333 -283 280 -283c177.333 0 266 91 266 273c0 84 -28.333 150 -85 198
c-43.333 36 -110.333 65.333 -201 88c-58 14.667 -107 30.667 -147 48c-46.667 20 -85.334 43.333 -116.001 70c-70 60.667 -105.333 146.334 -106 257.001v8c-2 205.333 100.333 326.333 307 363v172h152v-166c213.333 -29.333 324.666 -156.333 333.999 -381h-152
c0 165.333 -85.333 248 -256 248c-155.333 0 -233 -78.667 -233 -236c0 -77.333 26.667 -135.666 80 -174.999c22 -16.667 50.333 -31.334 85 -44.001c24 -9.33301 57.667 -19.333 101 -30c121.333 -32.667 213.333 -78.334 276 -137.001
c75.333 -71.333 113 -165.666 113 -282.999c0 -102.667 -32.333 -191.667 -97 -267z" />
    <glyph glyph-name="percent" unicode="%" horiz-adv-x="1587" 
d="M675 912c-72.667 -71.333 -159.667 -107 -261 -107c-102 0 -189.333 35.667 -262 107c-72.667 72 -109 158.333 -109 259c0 101.333 36.333 188 109 260c72.667 71.333 160 107 262 107c101.333 0 188.333 -35.667 261 -107c72.667 -72 109 -158.667 109 -260
c0 -100.667 -36.333 -187 -109 -259zM422 0h-139l868 1516h139zM1433 81c-72.667 -72 -160 -108 -262 -108c-101.333 0 -188.333 36 -261 108c-72.667 71.333 -109 157.666 -109 258.999s36.333 187.666 109 258.999c72.667 72 159.667 108 261 108
c102 0 189.333 -36 262 -108c72.667 -71.333 109 -157.666 109 -258.999s-36.333 -187.666 -109 -258.999zM590 1350c-48 48.667 -106.667 73 -176 73s-128 -24.333 -176 -73c-48 -49.333 -72 -109 -72 -179c0 -69.333 24 -128.666 72 -177.999
c48 -48.667 106.667 -73 176 -73s128 24.333 176 73c47.333 49.333 71 108.666 71 177.999c0 70 -23.667 129.667 -71 179zM1348 518c-48 49.333 -107 74 -177 74c-69.333 0 -128 -24.667 -176 -74c-47.333 -48.667 -71 -108 -71 -178s23.667 -129.333 71 -178
c48 -49.333 106.667 -74 176 -74c70 0 129 24.667 177 74c47.333 48.667 71 108 71 178s-23.667 129.333 -71 178z" />
    <glyph glyph-name="ampersand" unicode="&#x26;" horiz-adv-x="1550" 
d="M1398 -25l-346 337.999c-55.333 -106 -115.666 -185.667 -180.999 -239c-80 -66 -173.333 -99 -280 -99c-129.333 0 -240.666 44.667 -333.999 134c-95.333 90.667 -143 200.334 -143 329.001c0 106 34.333 199 103 279c58 66.667 140.333 124 247 172
c-55.333 54 -95 101 -119 141c-34 55.333 -51 114 -51 176c0 96 37.333 176.667 112 242c71.333 62.667 155.666 94 252.999 94s181.666 -34.333 252.999 -103c72.667 -70 109 -153.667 109 -251c0 -80 -30.333 -152.333 -91 -217c-54 -56.667 -122 -99 -204 -127l287 -283
l221 426h170l-280 -534l383 -373zM805 1345c-40.667 36 -90 53.999 -148 53.999c-55.333 0 -104 -17.667 -146 -53c-43.333 -37.333 -65 -83.333 -65 -138c0 -46 19.333 -94 58 -144c15.333 -19.333 34 -39.666 56 -60.999l58 -53c37.333 14.667 67 27.334 89 38.001
c32.667 15.333 59.667 31.666 81 48.999c54.667 43.333 82 98.333 82 165c0 58 -21.667 105.667 -65 143zM573 779.998c-85.333 -29.333 -155.667 -72.6689 -211 -130.002c-64 -65.333 -96 -138.666 -96 -219.999c0 -84 31 -157 93 -219c62.667 -61.333 136 -92 220 -92
s157.667 32 221 96c26 26 51.333 58.333 76 97c18 28.667 38.333 65.334 61 110.001z" />
    <glyph glyph-name="quotesingle" unicode="'" horiz-adv-x="718" 
d="M344 1118h-152l180 398h152z" />
    <glyph glyph-name="parenleft" unicode="(" horiz-adv-x="755" 
d="M727 -420c-84 27.333 -169.333 78.667 -256 154c-250 219.333 -375 496.333 -375 831c0 335.333 125 612.666 375 831.999c86.667 74.667 172 125.667 256 153v-153c-141.333 -84.667 -256.333 -203 -345 -355c-89.333 -154 -134 -313 -134 -477
c0 -166 44 -325.667 132 -479c87.333 -151.333 203 -270.666 347 -357.999v-148z" />
    <glyph glyph-name="parenright" unicode=")" horiz-adv-x="755" 
d="M284 -266c-86.667 -75.333 -171.999 -126.667 -255.999 -154v148c143.333 87.333 258.666 206.666 345.999 357.999c88.667 153.333 133 313 133 479c0 164 -44.667 323 -134 477c-88.667 152 -203.667 270.333 -345 355v153c84 -27.333 169.333 -78.333 256 -153
c250 -219.333 375 -496.666 375 -831.999c0 -334.667 -125 -611.667 -375 -831z" />
    <glyph glyph-name="asterisk" unicode="*" horiz-adv-x="870" 
d="M526 1171l139 -188l-96 -70l-138 193l-135 -191l-96 70l141 189l-223 69l37 115l223 -78l-2 236h119l-4 -238l223 76l37 -113z" />
    <glyph glyph-name="plus" unicode="+" horiz-adv-x="1241" 
d="M690 449v-449h-140v449h-446v139h446v448h140v-448h446v-139h-446z" />
    <glyph glyph-name="comma" unicode="," horiz-adv-x="567" 
d="M180 -137h-152l180 395h152z" />
    <glyph glyph-name="hyphen" unicode="-" horiz-adv-x="679" 
d="M61 508v137h557v-137h-557z" />
    <glyph glyph-name="hyphen" unicode="&#x2010;" horiz-adv-x="679" 
d="M61 508v137h557v-137h-557z" />
    <glyph glyph-name="period" unicode="." horiz-adv-x="567" 
d="M208 0v258h152v-258h-152z" />
    <glyph glyph-name="slash" unicode="/" horiz-adv-x="894" 
d="M246 -205h-156l573 1721h162z" />
    <glyph glyph-name="zero" unicode="0" horiz-adv-x="1134" 
d="M1075 553c0 -62.667 -5.66602 -121.667 -16.999 -177c-12.667 -64.667 -32.334 -120.334 -59.001 -167.001c-92.667 -157.333 -236.667 -236 -432 -236s-339.333 78.667 -432 236c-26.667 46.667 -46.667 102.334 -60 167.001c-10.667 55.333 -16 114.333 -16 177v442
c0 111.333 19 204.333 57 279c90.667 178.667 241 268 451 268s360 -89.333 450 -268c38.667 -74.667 58 -167.667 58 -279v-442zM923.001 961c0 49.333 -4.99805 99 -14.998 149c-12 58 -28.667 104.333 -50 139c-65.333 104 -162.333 156 -291 156s-225.667 -52 -291 -156
c-22 -34.667 -38.667 -81 -50 -139c-10 -50 -15 -99.667 -15 -149v-386c0 -56.667 3.66699 -108.667 11 -156c9.33301 -62.667 24.666 -111.667 45.999 -147c65.333 -107.333 165 -161 299 -161s233.667 53.667 299 161c21.333 35.333 36.666 84.333 45.999 147
c7.33301 47.333 11 99.333 11 156v386z" />
    <glyph glyph-name="one" unicode="1" horiz-adv-x="1134" 
d="M536 0v1378h-260v138h412v-1516h-152z" />
    <glyph glyph-name="two" unicode="2" horiz-adv-x="1134" 
d="M965 814c-23.333 -34.667 -52.999 -71.332 -88.999 -109.999c-24.667 -26.667 -59 -60.667 -103 -102l-487 -465h758v-137h-963v137l627 603c38 37.333 69 71.333 93 102c66 82.667 99 163 99 241c0 88.667 -32.667 164.667 -98 228c-64 62.667 -140.333 94 -229 94
c-105.333 0 -187.333 -37.667 -246 -113c-54.667 -68.667 -82 -157.334 -82 -266.001h-152v4c0 112.667 23.333 208.667 70 288c50.667 86.667 125.667 149 225 187c61.333 24.667 125.666 37 192.999 37c208 0 352.667 -96.333 434 -289c24.667 -58 37 -115.333 37 -172
c0 -92.667 -29 -181.667 -87 -267z" />
    <glyph glyph-name="three" unicode="3" horiz-adv-x="1134" 
d="M901 118c-91.333 -96.667 -205.669 -144.999 -343.002 -144.999c-62.667 0 -122.667 11.667 -180 35c-100 38 -176.333 99 -229 183c-49.333 78 -76 172.667 -80 284h152c3.33301 -44.667 8 -79.667 14 -105c8 -35.333 21 -68 39 -98
c64.667 -107.333 159.334 -161 284.001 -161c98.667 0 178.334 33.667 239.001 101c58 64.667 87 147 87 247c0 76 -24.667 144.333 -74 205c-48 60 -109.333 99.333 -184 118c-24 6 -53.333 10 -88 12l-88 3v133l51 -2c80 0 146 19.333 198 58
c56.667 42.667 85 102.334 85 179.001c0 69.333 -22 126.666 -66 171.999s-100.667 68 -170 68c-70.667 0 -127 -28 -169 -84c-38.667 -50 -58 -111.333 -58 -184h-152c3.33301 115.333 39 210.666 107 285.999c70.667 79.333 162.667 119 276 119
c110 0 201.667 -37.333 275 -112c72 -74.667 108 -167 108 -277c0 -61.333 -13.667 -115.333 -41 -162c-24 -40.667 -62 -81.667 -114 -123c170.667 -90 256 -223.667 256 -401c0 -138 -45 -254.333 -135 -349z" />
    <glyph glyph-name="four" unicode="4" horiz-adv-x="1134" 
d="M943 276v-276h-151v276h-764v138l735 1102h180v-1102h138v-138h-138zM792 1307h-4l-586 -893h590v893z" />
    <glyph glyph-name="five" unicode="5" horiz-adv-x="1134" 
d="M937 130c-100 -104.667 -222.002 -157.001 -366.002 -157.001c-58.667 0 -117.334 11 -176.001 33c-100.667 36.667 -180.334 97.667 -239.001 183c-53.333 78.667 -87.666 174.667 -102.999 288h152c10.667 -103.333 48 -189.333 112 -258
c68.667 -72 153.334 -108 254.001 -108c102.667 0 189.334 39.667 260.001 119c68.667 76.667 103 167.334 103 272.001c0 106 -33 197.333 -99 274c-69.333 80.667 -156.666 121 -261.999 121c-122 0 -227 -57.333 -315 -172l-119 43l137 748h682v-138h-561l-76 -417
c87.333 47.333 173.333 71 258 71c144.667 0 265.667 -52.667 363 -158c95.333 -102.667 143 -226.667 143 -372c0 -144.667 -49.333 -268.667 -148 -372z" />
    <glyph glyph-name="six" unicode="6" horiz-adv-x="1134" 
d="M938 128c-98.667 -103.333 -222.334 -154.998 -371.001 -154.998c-152.667 0 -277.667 52 -375 156c-95.333 101.333 -143 229 -143 383c0 77.333 18.667 155.666 56 234.999c14.667 32 34 67.333 58 106c14.667 23.333 37.334 57.666 68.001 102.999l377 557h172
l-350 -514l4 -2c46 22 93 33 141 33c146 0 268 -51.333 366 -154c96 -101.333 144 -225.333 144 -372c0 -148.667 -49 -274 -147 -376zM832 776.002c-70.667 78 -159.001 116.999 -265.001 116.999c-106.667 0 -195 -39.667 -265 -119
c-67.333 -76.667 -101 -168.667 -101 -276c0 -106 34.333 -196.333 103 -271c70.667 -77.333 158.334 -116 263.001 -116c107.333 0 196 38.667 266 116c67.333 74.667 101 166.334 101 275.001c0 106.667 -34 198 -102 274z" />
    <glyph glyph-name="seven" unicode="7" horiz-adv-x="1134" 
d="M385 0h-160l625 1378h-721v138h877v-138z" />
    <glyph glyph-name="eight" unicode="8" horiz-adv-x="1134" 
d="M906 109c-94.667 -90.667 -207.333 -136 -338 -136s-243.667 45 -339 135c-97.333 91.333 -146 202 -146 332c0 87.333 23.333 168.333 70 243c48.667 77.333 112 131.666 190 162.999c-118.667 76.667 -178 177.667 -178 303c0 112 39 205.667 117 281
c77.333 74.667 172 112 284 112c112.667 0 208 -38.333 286 -115c77.333 -76.667 116 -171.334 116 -284.001c0 -132 -60 -231 -180 -297c174.667 -83.333 262 -218.666 262 -405.999c0 -129.333 -48 -239.666 -144 -330.999zM745.001 1331
c-48 49.333 -106.333 74.001 -175 74.001c-70.667 0 -130.667 -24 -180 -72s-74 -107.333 -74 -178c0 -66.667 25.667 -124.334 77 -173.001c50 -48.667 108.333 -73 175 -73c68 0 126.333 24 175 72s73 106 73 174s-23.667 126.667 -71 176zM800.001 673.001
c-65.333 63.333 -144 95 -236 95c-87.333 0 -164 -31.667 -230 -95c-66 -64 -99 -139.667 -99 -227c0 -96 31.667 -176 95 -240c64 -63.333 144 -95 240 -95c91.333 0 169 32.333 233 97c63.333 64.667 95 142 95 232c0 92 -32.667 169.667 -98 233z" />
    <glyph glyph-name="nine" unicode="9" horiz-adv-x="1134" 
d="M1029 766c-14.667 -32 -33.999 -67 -57.999 -105c-14.667 -24 -37.334 -58.667 -68.001 -104l-377 -557h-172l350 514l-4 2c-41.333 -22 -88.333 -33 -141 -33c-146 0 -268 51.333 -366 154c-96 101.333 -144 225.666 -144 372.999c0 148.667 49 273.667 147 375
c99.333 103.333 223 155 371 155c152.667 0 277.667 -52 375 -156c95.333 -101.333 143 -229 143 -383c0 -77.333 -18.667 -155.666 -56 -234.999zM830.001 1287c-70.667 77.333 -158.335 116 -263.002 116c-107.333 0 -195.666 -39 -264.999 -117
c-67.333 -74.667 -101 -166 -101 -274c0 -107.333 33.667 -198.666 101 -273.999c70.667 -78 159 -117 265 -117c106.667 0 195.334 39.667 266.001 119c67.333 76 101 168 101 276c0 105.333 -34.667 195.666 -104 270.999z" />
    <glyph glyph-name="colon" unicode=":" horiz-adv-x="567" 
d="M208 864v258h152v-258h-152zM208 0v258h152v-258h-152z" />
    <glyph glyph-name="semicolon" unicode=";" horiz-adv-x="567" 
d="M208 864v258h152v-258h-152zM180 -137h-152l180 395h152z" />
    <glyph glyph-name="less" unicode="&#x3c;" horiz-adv-x="1241" 
d="M94 455v127l1040 471v-140l-870 -395l870 -395v-139z" />
    <glyph glyph-name="equal" unicode="=" horiz-adv-x="1241" 
d="M104 655v140h1032v-140h-1032zM104 242v139h1032v-139h-1032z" />
    <glyph glyph-name="greater" unicode="&#x3e;" horiz-adv-x="1241" 
d="M106 -16v139l870 395l-870 395v140l1040 -471v-127z" />
    <glyph glyph-name="question" unicode="?" horiz-adv-x="1210" 
d="M1019 887c-15.333 -24.667 -35.334 -50.332 -60.001 -76.999l-34 -35l-105 -104c-25.333 -27.333 -46.333 -53 -63 -77c-40.667 -60.667 -63 -127 -67 -199h-151v8c0 82.667 20 158 60 226c16.667 28 37.334 56.333 62.001 85c18 21.333 41.667 46 71 74l71 69
c26 26 46.667 49.333 62 70c40.667 53.333 61 108.333 61 165c0 84.667 -32.333 157 -97 217c-63.333 58.667 -137.666 88 -222.999 88c-117.333 0 -209.333 -50 -276 -150c-20.667 -30.667 -34.334 -63.667 -41.001 -99c-4 -24.667 -6 -60.667 -6 -108h-152v39
c0 128 48.333 237.333 145 328c95.333 88.667 207.333 133 336 133c131.333 0 241.333 -43 330 -129c90 -86.667 135 -195.334 135 -326.001c0 -72 -19.333 -138 -58 -198zM538.999 0.00195312v258h151v-258h-151z" />
    <glyph glyph-name="at" unicode="@" horiz-adv-x="1775" 
d="M1618 670c-25.333 -91.333 -65.332 -169.336 -119.999 -234.003c-66 -78 -140.667 -117 -224 -117c-104.667 0 -159.334 54.667 -164.001 164h-4c-67.333 -109.333 -161.666 -164 -282.999 -164c-98.667 0 -177.667 37.667 -237 113
c-54.667 69.333 -82 154.666 -82 255.999c0 120.667 35.667 226.334 107 317.001c77.333 97.333 174.666 146 291.999 146c132.667 0 217.334 -60.667 254.001 -182h4l29 153h123l-98 -544c-4.66699 -24 -7 -44 -7 -60c0 -56 23.333 -84 70 -84
c57.333 0 108.333 32.667 153 98c33.333 50.667 58 110.334 74 179.001c11.333 54.667 17 106.334 17 155.001c0 173.333 -56.667 311.333 -170 414c-109.333 98 -251.333 147 -426 147c-194 0 -354 -63.333 -480 -190c-126.667 -127.333 -190 -287.666 -190 -480.999
c0 -206 64 -369.333 192 -490c125.333 -118.667 292 -178 500 -178c174.667 0 337.334 34 488.001 102l30 -104c-160 -75.333 -332.667 -113 -518 -113c-171.333 0 -320 35 -446 105c-137.333 75.333 -238.333 187.333 -303 336c-44 99.333 -66 208.333 -66 327
c0 234.667 76.333 427 229 577c151.333 149.333 344.666 224 579.999 224c205.333 0 372.666 -60.667 501.999 -182c133.333 -124 200 -288 200 -492c0 -71.333 -8.66699 -137.333 -26 -198zM1063 966.997c-38 46 -87.999 69.001 -149.999 69.001
c-86.667 0 -157.334 -36.667 -212.001 -110c-49.333 -66 -74 -144 -74 -234c0 -75.333 17.667 -136 53 -182c39.333 -50.667 95.333 -76 168 -76c86 0 154.333 42.333 205 127c42 70.667 63 152.667 63 246c0 63.333 -17.667 116.666 -53 159.999z" />
    <glyph glyph-name="A" unicode="A" horiz-adv-x="1515" 
d="M1327 0l-220 510h-704l-221 -510h-158l647 1516h170l651 -1516h-165zM757 1343l-297 -696h588z" />
    <glyph glyph-name="B" unicode="B" horiz-adv-x="1175" 
d="M939 84c-55.333 -34.667 -114.666 -58 -177.999 -70c-47.333 -9.33301 -111.333 -14 -192 -14h-418v1516h381c108 0 199.667 -17.667 275 -53c89.333 -41.333 152.666 -106.333 189.999 -195c20.667 -49.333 31 -101.333 31 -156c0 -66 -14.667 -124 -44 -174
c-25.333 -43.333 -66 -87 -122 -131c168 -68.667 252 -193 252 -373c0 -160 -58.333 -276.667 -175 -350zM813 1284c-33.333 38.667 -80.999 64.999 -142.999 78.999c-24.667 6 -52.334 10.333 -83.001 13c-23.333 1.33301 -50.666 2 -81.999 2h-202v-516l257 1
c24.667 0.666992 46.667 2.33398 66 5.00098c49.333 6 91.666 18.333 126.999 37c82 43.333 123 114.333 123 213c0 62.667 -21 118 -63 166zM784.001 689.999c-40.667 16 -89 26.334 -145 31.001c-22 2 -47 3.33301 -75 4h-261v-588l285 1l73 4
c54 5.33301 101 16.666 141 33.999c106.667 44.667 160 130.667 160 258c0 122 -59.333 207.333 -178 256z" />
    <glyph glyph-name="C" unicode="C" horiz-adv-x="1665" 
d="M1579 397c-154 -282.667 -386.664 -423.998 -697.997 -423.998c-218.667 0 -405.334 75.667 -560.001 227c-155.333 152.667 -233 338 -233 556c0 220.667 76.667 406.667 230 558c152.667 150.667 339.667 226 561 226c239.333 0 438.666 -90 597.999 -270
c44 -49.333 76 -97.333 96 -144h-170c-124 184.667 -299.667 277 -527 277c-172.667 0 -322.334 -65.333 -449.001 -196c-124.667 -128.667 -187 -279.667 -187 -453c0 -170.667 63.667 -320.334 191 -449.001c128 -129.333 277.333 -194 448 -194c106 0 205.667 26 299 78
c86.667 49.333 163.667 118.666 231 207.999h170z" />
    <glyph glyph-name="D" unicode="D" horiz-adv-x="1523" 
d="M1087 125c-64.667 -41.333 -143.998 -73.333 -237.998 -96c-84 -19.333 -169.333 -29 -256 -29h-442v1516h442c87.333 0 172.666 -10 255.999 -30c93.333 -22 172.666 -53.667 237.999 -95c229.333 -146.667 344 -359 344 -637c0 -270 -114.667 -479.667 -344 -629z
M1021 1262c-67.333 47.333 -147 79.668 -239 97.001c-38.667 7.33301 -81.334 12.666 -128.001 15.999c-37.333 2 -81.333 3 -132 3h-219v-1241h251c50.667 0 94.334 1.33301 131.001 4c45.333 3.33301 86.666 9 123.999 17c86.667 18.667 164.334 52.667 233.001 102
c75.333 54.667 134.333 128.667 177 222c40 88 60 180.667 60 278c0 216 -86 383.333 -258 502z" />
    <glyph glyph-name="E" unicode="E" horiz-adv-x="1097" 
d="M143 0v1516h829v-138h-677v-544h655v-138h-655v-559h677v-137h-829z" />
    <glyph glyph-name="F" unicode="F" horiz-adv-x="993" 
d="M295 1378v-549h591v-137h-591v-692h-152v1516h766v-138h-614z" />
    <glyph glyph-name="G" unicode="G" horiz-adv-x="1785" 
d="M1695 696c-16.667 -206 -102.666 -378.335 -257.999 -517.002c-154 -137.333 -335 -206 -543 -206c-218 0 -407.333 76 -568 228c-163.333 154.667 -245 340.334 -245 557.001c0 218.667 81 404.667 243 558c158.667 150.667 348 226 568 226
c250 0 456.333 -92.667 619 -278c44 -49.333 76.667 -100 98 -152h-176c-52 90 -129 162 -231 216c-98 51.333 -200.667 77 -308 77c-180.667 0 -335.667 -63 -465 -189c-130.667 -126.667 -196 -280 -196 -460c0 -181.333 66 -334.666 198 -459.999
c130.667 -123.333 287 -185 469 -185c136.667 0 263.667 41.667 381 125c121.333 86 198.666 193.667 231.999 323h-846v137h1028z" />
    <glyph glyph-name="H" unicode="H" horiz-adv-x="1398" 
d="M1091 0v711h-784v-711h-152v1516h152v-668h784v668h151v-1516h-151z" />
    <glyph glyph-name="I" unicode="I" horiz-adv-x="462" 
d="M155 0v1516h152v-1516h-152z" />
    <glyph glyph-name="J" unicode="J" horiz-adv-x="987" 
d="M822 409l-4.00098 -74.001c-5.33301 -56 -16.666 -103.333 -33.999 -142c-63.333 -146.667 -183.333 -220 -360 -220c-115.333 0 -211.333 36 -288 108s-118 165 -124 279h150c11.333 -166 99.333 -249 264 -249c100.667 0 169.667 38.667 207 116
c15.333 31.333 26 70.333 32 117c4 34.667 6 78.334 6 131.001v1041h152z" />
    <glyph glyph-name="K" unicode="K" horiz-adv-x="1210" 
d="M1019 0l-506 657l-196 -241v-416h-152v1516h152v-871h4l694 871h194l-600 -740l600 -776h-190z" />
    <glyph glyph-name="L" unicode="L" horiz-adv-x="946" 
d="M167 0v1516h152v-1379h626v-137h-778z" />
    <glyph glyph-name="M" unicode="M" horiz-adv-x="1882" 
d="M1574 0v1350h-4l-567 -1350h-129l-563 1350h-4v-1350h-152v1516h233l551 -1291l553 1291h234v-1516h-152z" />
    <glyph glyph-name="N" unicode="N" horiz-adv-x="1515" 
d="M1208 0l-899 1333h-4v-1333h-152v1516h205l846 -1258h4v1258h151v-1516h-151z" />
    <glyph glyph-name="O" unicode="O" horiz-adv-x="1779" 
d="M1452 201c-157.333 -152 -344.999 -228.001 -562.999 -228.001c-214.667 0 -401.334 75.333 -560.001 226c-160.667 153.333 -241 337 -241 551c0 220 78.333 407.333 235 562c156 153.333 344.667 230 566 230c218.667 0 406.667 -76 564 -228
c159.333 -153.333 239 -338.666 239 -555.999s-80 -403 -240 -557zM1348 1214c-128 127.333 -281 191 -459 191c-180 0 -333.333 -64.333 -460 -193c-126 -128.667 -189 -282.667 -189 -462c0 -174.667 64.667 -325 194 -451c128 -125.333 279.667 -188 455 -188
c177.333 0 330 63 458 189c128.667 126 193 278 193 456s-64 330.667 -192 458z" />
    <glyph glyph-name="P" unicode="P" horiz-adv-x="1212" 
d="M966 698c-52 -35.333 -114.667 -59.668 -188 -73.001c-30.667 -5.33301 -64.334 -9.33301 -101.001 -12c-29.333 -2 -63.333 -3 -102 -3h-270v-610h-152v1516h422c38.667 0 72.667 -1 102 -3c36.667 -2.66699 70.334 -6.66699 101.001 -12
c73.333 -14 136 -38.667 188 -74c125.333 -85.333 188 -206.666 188 -363.999s-62.667 -279 -188 -365zM827 1339c-38 18.667 -80.333 30.333 -127 35l-65 4h-330v-630h330l65 4c46.667 4.66699 89 16 127 34c117.333 56 176 148.333 176 277s-58.667 220.667 -176 276z" />
    <glyph glyph-name="Q" unicode="Q" horiz-adv-x="1783" 
d="M1463 193c66.667 -56.667 142 -83.999 226 -81.999v-138c-129.333 0 -242 43.667 -338 131c-132 -87.333 -283.667 -131 -455 -131c-220.667 0 -410.667 74.333 -570 223c-163.333 151.333 -245 336.666 -245 555.999c0 226 80 414.667 240 566
c156.667 149.333 349 224 577 224c230 0 423 -75 579 -225c157.333 -152 236 -342.667 236 -572c0 -212.667 -83.333 -396.667 -250 -552zM1368 1215c-128.667 126.667 -284.667 190 -468 190c-186 0 -343.667 -63.667 -473 -191c-129.333 -128 -194 -285 -194 -471
c0 -59.333 8.66699 -116.666 26 -171.999c104.667 34.667 211.334 52 320.001 52c154.667 0 295 -29.667 421 -89c56.667 -26.667 115.667 -61.334 177 -104.001c51.333 -36 110 -82.333 176 -139c65.333 64 115.666 133.333 150.999 208c38.667 81.333 58 165 58 251
c0 182.667 -64.667 337.667 -194 465zM1184 248.001l-52 41c-41.333 32 -76.333 56.333 -105 73c-137.333 82 -294.333 123 -471 123c-89.333 0 -167.666 -14.333 -234.999 -43c19.333 -38.667 48.666 -78.667 87.999 -120c130 -140.667 293.667 -211 491 -211
c130 0 241.333 32.667 334 98z" />
    <glyph glyph-name="R" unicode="R" horiz-adv-x="1243" 
d="M1041 705c-84.667 -84.667 -191.331 -131.333 -319.998 -140l428 -565h-191l-514 686l164 1c68.667 2 122.667 9.33301 162 22c166.667 50.667 250 157.667 250 321c0 134 -55.333 231 -166 291c-43.333 23.333 -91 39.333 -143 48c-38.667 6 -89.334 9 -152.001 9h-264
v-1378h-152v1516h385c34 0 64.667 -0.666992 92 -2c35.333 -2 67.666 -4.66699 96.999 -8c74.667 -9.33301 136 -25.333 184 -48c180 -86.667 270 -230.667 270 -432c0 -127.333 -43.333 -234.333 -130 -321z" />
    <glyph glyph-name="S" unicode="S" horiz-adv-x="1019" 
d="M834 101c-88.667 -85.333 -195.999 -128.001 -321.999 -128.001c-135.333 0 -246.333 41.333 -333 124c-87.333 82.667 -132 191.667 -134 327h152c8.66699 -208.667 113.667 -313 315 -313c84.667 0 156.334 28.667 215.001 86c60 58.667 90 130.334 90 215.001
c0 91.333 -35.667 164.666 -107 219.999c-28.667 22 -64.667 42.333 -108 61c-32.667 13.333 -73.667 27.333 -123 42c-63.333 18.667 -114 36.334 -152 53.001c-50.667 21.333 -92.334 45.333 -125.001 72c-77.333 64 -116 155.667 -116 275c0 118 41.667 215.667 125 293
c82 76 182.333 114 301 114c117.333 0 216.333 -39 297 -117c82 -79.333 123 -177.666 123 -294.999h-152c0 74.667 -26 139 -78 193c-52.667 54.667 -116 82 -190 82c-76.667 0 -141.334 -25 -194.001 -75c-53.333 -50 -80 -113 -80 -189c0 -88 40.667 -155 122 -201
c30 -16.667 69 -32.667 117 -48l121 -36c115.333 -34.667 204.333 -86.334 267 -155.001c69.333 -76 104 -170.333 104 -283c0 -125.333 -45 -231 -135 -317z" />
    <glyph glyph-name="T" unicode="T" horiz-adv-x="872" 
d="M512 1378v-1378h-152v1378h-348v138h846v-138h-346z" />
    <glyph glyph-name="U" unicode="U" 
d="M1185 571c0 -56.667 -4.00195 -110.334 -12.002 -161.001c-10 -59.333 -25 -110.666 -45 -153.999c-88 -188.667 -241 -283 -459 -283s-371 94.333 -459 283c-20 43.333 -34.667 94.666 -44 153.999c-8.66699 50.667 -13 104.334 -13 161.001v945h152v-945
c0 -49.333 3.33301 -96 10 -140c8.66699 -56 22.334 -100.667 41.001 -134c68 -124 172.333 -186 313 -186s245 62 313 186c18.667 33.333 32.334 78 41.001 134c7.33301 44 11 90.667 11 140v945h151v-945z" />
    <glyph glyph-name="V" unicode="V" horiz-adv-x="1437" 
d="M790 0h-149l-625 1516h168l534 -1328l537 1328h164z" />
    <glyph glyph-name="W" unicode="W" horiz-adv-x="1966" 
d="M1511 0h-193l-333 1243h-5l-331 -1243h-195l-432 1516h156l370 -1321h4l361 1321h141l363 -1319h4l370 1319h154z" />
    <glyph glyph-name="X" unicode="X" horiz-adv-x="1247" 
d="M1052 0l-426 647l-432 -647h-178l514 774l-485 742h178l403 -607l400 607h176l-488 -742l519 -774h-181z" />
    <glyph glyph-name="Y" unicode="Y" horiz-adv-x="1212" 
d="M680 506v-506h-152v506l-526 1010h168l432 -850l444 850h166z" />
    <glyph glyph-name="Z" unicode="Z" horiz-adv-x="983" 
d="M24 0v137l745 1241h-722v138h892v-138l-743 -1241h766v-137h-938z" />
    <glyph glyph-name="bracketleft" unicode="[" horiz-adv-x="718" 
d="M690 -367c-278.667 76.667 -418 265.334 -418 566.001v774c0 227.333 89.333 395.333 268 504c50 31.333 100 53 150 65v-153c-177.333 -77.333 -266 -216 -266 -416v-748c0 -112 18.333 -200.333 55 -265c40.667 -70.667 111 -128.334 211 -173.001v-154z" />
    <glyph glyph-name="backslash" unicode="\" horiz-adv-x="1239" 
d="M821 -205l-580 1721h162l573 -1721h-155z" />
    <glyph glyph-name="bracketright" unicode="]" horiz-adv-x="718" 
d="M446 199c0 -300.667 -139.333 -489.334 -418 -566.001v154c100 44.667 170.333 102.334 211 173.001c36.667 64.667 55 153 55 265v748c0 200 -88.667 338.667 -266 416v153c50 -12 100 -33.667 150 -65c178.667 -108.667 268 -276.667 268 -504v-774z" />
    <glyph glyph-name="asciicircum" unicode="^" horiz-adv-x="1241" 
d="M989 629l-371 737l-365 -737h-145l446 887h132l446 -887h-143z" />
    <glyph glyph-name="underscore" unicode="_" horiz-adv-x="1024" 
d="M0 -256v102h1024v-102h-1024z" />
    <glyph glyph-name="grave" unicode="`" horiz-adv-x="718" 
d="M374 1118l-180 398h152l180 -398h-152z" />
    <glyph glyph-name="a" unicode="a" horiz-adv-x="1398" 
d="M1128 0v196.999h-4c-98.667 -149.333 -244 -224 -436 -224c-168.667 0 -311 56.333 -427 169c-116.667 112.667 -175 253 -175 421c0 166.667 59 306.334 177 419.001c116.667 111.333 258.334 167 425.001 167c195.333 0 340.666 -75 435.999 -225h4v196h144v-1120h-144
zM1008 882.999c-87.333 91.333 -193.998 137.001 -319.998 137.001c-132.667 0 -242.334 -44 -329.001 -132s-130 -198.333 -130 -331c0 -130.667 43.667 -239.334 131 -326.001c87.333 -86 196.666 -129 327.999 -129c126 0 232.667 45 320 135c86 88.667 129 196 129 322
s-43 234 -129 324z" />
    <glyph glyph-name="b" unicode="b" horiz-adv-x="1396" 
d="M1150 142c-116 -112.667 -258.332 -168.999 -426.999 -168.999c-188.667 0 -334.334 74.667 -437.001 224h-4v-197h-143v1516h143v-592h4c105.333 150 251 225 437 225c166.667 0 308 -55.667 424 -167c118.667 -112.667 178 -252.334 178 -419.001
c0 -168 -58.333 -308.333 -175 -421zM1052 888.001c-86.667 88 -196.333 131.999 -329 131.999c-126 0 -232.667 -45.667 -320 -137c-86 -90 -129 -198 -129 -324s43 -233.333 129 -322c87.333 -90 194 -135 320 -135c131.333 0 240.333 43 327 129
c87.333 86.667 131 195.334 131 326.001c0 132.667 -43 243 -129 331z" />
    <glyph glyph-name="c" unicode="c" horiz-adv-x="1325" 
d="M1242 330c-120.667 -238 -306.333 -356.999 -557 -356.999c-166.667 0 -308.334 56 -425.001 168c-118 113.333 -177 252.666 -177 417.999c0 164 59.333 303.667 178 419c118 114 259.333 171 424 171c123.333 0 235 -32.333 335 -97
c102.667 -66.667 176.667 -156.667 222 -270h-158c-83.333 158.667 -215 238 -395 238c-128.667 0 -237.667 -44 -327 -132c-90.667 -88 -136 -196.333 -136 -325c0 -130 44.667 -239.333 134 -328s199 -133 329 -133c184.667 0 316.334 76 395.001 228h158z" />
    <glyph glyph-name="d" unicode="d" horiz-adv-x="1402" 
d="M1121 0l-0.000976562 196.999h-4c-100 -149.333 -245.333 -224 -436 -224c-168.667 0 -311 56.333 -427 169c-116.667 112.667 -175 253 -175 421c0 166.667 59 306.334 177 419.001c116.667 111.333 258.334 167 425.001 167c190 0 335.333 -73.667 436 -221h4v588h144
v-1516h-144zM1001 882.999c-87.333 91.333 -193.998 137.001 -319.998 137.001c-132.667 0 -242.334 -44 -329.001 -132s-130 -198.333 -130 -331c0 -130.667 43.667 -239.334 131 -326.001c87.333 -86 196.666 -129 327.999 -129c126 0 232.667 45 320 135
c86 88.667 129 196 129 322s-43 234 -129 324z" />
    <glyph glyph-name="e" unicode="e" horiz-adv-x="1331" 
d="M1244 508h-1020c5.33301 -110 51.666 -205.333 138.999 -286c86.667 -80 185.334 -120 296.001 -120c88 0 168.667 23.333 242 70c76 48.667 129 113.667 159 195h152c-41.333 -117.333 -112.666 -212.333 -213.999 -285s-213.666 -109 -336.999 -109
c-161.333 0 -299.333 57.667 -414 173c-113.333 114 -170 251.667 -170 413c0 160.667 56.667 299 170 415c114.667 116.667 252 175 412 175c162.667 0 301.334 -59.667 416.001 -179c114 -118 171 -258.333 171 -421zM1099 637c-18.667 110.667 -68.334 202 -149.001 274
c-81.333 72.667 -177.666 109 -288.999 109c-110.667 0 -207 -36.333 -289 -109c-80.667 -72 -130 -163.333 -148 -274h875z" />
    <glyph glyph-name="f" unicode="f" horiz-adv-x="643" 
d="M355 991l-0.00195312 -991h-143v991h-174v129h174l2 42c0.666992 16 1.66699 30 3 42c2.66699 31.333 7.33398 59.333 14.001 84c24.667 92.667 76.334 159.667 155.001 201c64.667 34 150 51.667 256 53v-133c-191.333 0 -287 -93.667 -287 -281v-8h287v-129h-287z" />
    <glyph glyph-name="g" unicode="g" horiz-adv-x="1378" 
d="M1240 176c0 -42.667 -1.00098 -79.001 -3.00098 -109.001c-2.66699 -38.667 -7 -73.667 -13 -105c-15.333 -74.667 -44 -139.667 -86 -195c-104.667 -138 -253 -207 -445 -207c-137.333 0 -256.666 35.333 -357.999 106c-105.333 72.667 -177 174.334 -215 305.001h152
c74.667 -188 214.334 -282 419.001 -282c125.333 0 224.666 38.333 297.999 115c72 75.333 108 176 108 302v99h-4c-39.333 -74.667 -100.333 -132.667 -183 -174c-76 -38.667 -159 -58 -249 -58c-162.667 0 -300.667 56.333 -414 169c-114.667 113.333 -172 251 -172 413
c0 163.333 56.667 303 170 419c114 116.667 252.667 175 416 175c189.333 0 333.333 -76.333 432 -229h4v200h143v-944zM976.999 881.999c-86.667 92 -192 138 -316 138c-124.667 0 -230 -46 -316 -138c-84.667 -89.333 -127 -197 -127 -323
c0 -124.667 42.333 -231.334 127 -320.001c86 -91.333 191.333 -137 316 -137c122.667 0 227.667 45.667 315 137c86 89.333 129 196 129 320c0 124.667 -42.667 232.334 -128 323.001z" />
    <glyph glyph-name="h" unicode="h" horiz-adv-x="1249" 
d="M968 0v616.001c0 60 -8 115.333 -24 166c-18 59.333 -45.667 106.666 -83 141.999c-68 64 -149 96 -243 96c-94.667 0 -176 -32 -244 -96c-36.667 -34.667 -64 -80.667 -82 -138c-15.333 -49.333 -23 -102.333 -23 -159v-627h-143v1516h143v-539h4
c74 114.667 189 172 345 172c156.667 0 279 -50 367 -150c84 -96 126 -223.667 126 -383v-616h-143z" />
    <glyph glyph-name="i" unicode="i" horiz-adv-x="409" 
d="M133 1257v259h143v-259h-143zM133 0v1120h143v-1120h-143z" />
    <glyph glyph-name="j" unicode="j" horiz-adv-x="415" 
d="M137 1257v259h144v-259h-144zM281 53c0 -81.333 -6.66602 -145.669 -19.999 -193.002c-18.667 -64.667 -53 -119 -103 -163c-66.667 -58 -149.334 -88 -248.001 -90v141c92 2.66699 155.333 37.334 190 104.001c14 28 24 62.667 30 104
c4.66699 32.667 7 73.334 7 122.001v1042h144v-1067z" />
    <glyph glyph-name="k" unicode="k" horiz-adv-x="1028" 
d="M835 0l-368 442l-181 -229v-213h-143v1516h143v-1080h4l523 684h184l-442 -565l465 -555h-185z" />
    <glyph glyph-name="l" unicode="l" horiz-adv-x="409" 
d="M133 0v1516h143v-1516h-143z" />
    <glyph glyph-name="m" unicode="m" horiz-adv-x="1921" 
d="M1642 0l0.000976562 649c0 108.667 -23 195.334 -69 260.001c-53.333 74 -132 111 -236 111s-182.333 -37 -235 -111c-46.667 -64.667 -70 -151.334 -70 -260.001v-649h-143v649c0 108.667 -23.333 195.334 -70 260.001c-52.667 74 -131 111 -235 111
c-104.667 0 -183.334 -37 -236.001 -111c-46.667 -64.667 -70 -151.334 -70 -260.001v-649h-143v1120h143v-129c66.667 105.333 168.667 158 306 158c170.667 0 296 -71.667 376 -215c90 143.333 215.667 215 377 215c140 0 250.667 -46.333 332 -139
c78 -88 117 -202.667 117 -344v-666h-144z" />
    <glyph glyph-name="n" unicode="n" horiz-adv-x="1249" 
d="M975 0v616.001c0 60 -8 115.333 -24 166c-18 59.333 -45.667 106.666 -83 141.999c-68 64 -149 96 -243 96c-94.667 0 -176 -32 -244 -96c-36.667 -34.667 -64 -80.667 -82 -138c-15.333 -49.333 -23 -102.333 -23 -159v-627h-143v1120h143v-143h4
c74 114.667 189 172 345 172c156.667 0 279 -50 367 -150c84 -96 126 -223.667 126 -383v-616h-143z" />
    <glyph glyph-name="o" unicode="o" 
d="M1084 147c-115.333 -116 -253.333 -174.001 -414 -174.001c-158 0 -294.667 57.333 -410 172c-116 114.667 -174 250.667 -174 408c0 162.667 56.667 302.334 170 419.001c114 118 252 177 414 177c159.333 0 297 -58 413 -174s174 -254 174 -414
c0 -160.667 -57.667 -298.667 -173 -414zM985 884.999c-86.667 90 -191.001 135 -313.001 135c-125.333 0 -231 -46.667 -317 -140c-84 -90.667 -126 -199 -126 -325c0 -122.667 43 -228.667 129 -318c86.667 -90 191.334 -135 314.001 -135c126.667 0 232.667 46 318 138
c82.667 90 124 199 124 327c0 122.667 -43 228.667 -129 318z" />
    <glyph glyph-name="p" unicode="p" horiz-adv-x="1396" 
d="M1142 142c-116 -112.667 -258.332 -168.999 -426.999 -168.999c-188.667 0 -334.334 74.667 -437.001 224h-4v-590h-143v1513h143v-196h4c106 150 251.667 225 437 225c166.667 0 308 -55.667 424 -167c118.667 -112.667 178 -252.334 178 -419.001
c0 -168 -58.333 -308.333 -175 -421zM1044 888.001c-86.667 88 -196.333 131.999 -329 131.999c-126 0 -232.667 -45.667 -320 -137c-86 -90 -129 -198 -129 -324s43 -233.333 129 -322c87.333 -90 194 -135 320 -135c131.333 0 240.333 43 327 129
c87.333 86.667 131 195.334 131 326.001c0 132.667 -43 243 -129 331z" />
    <glyph glyph-name="q" unicode="q" horiz-adv-x="1396" 
d="M1117 -393l-0.000976562 589.999h-4c-96.667 -149.333 -242 -224 -436 -224c-168.667 0 -311 56.333 -427 169c-116.667 112.667 -175 253 -175 421c0 166.667 59 306.334 177 419.001c116.667 111.333 258.334 167 425.001 167c194 0 339.333 -75 436 -225h4v196h144
v-1513h-144zM996.999 882.999c-87.333 91.333 -193.998 137.001 -319.998 137.001c-132.667 0 -242.334 -44 -329.001 -132s-130 -198.333 -130 -331c0 -130.667 43.667 -239.334 131 -326.001c87.333 -86 196.666 -129 327.999 -129c126 0 232.667 45 320 135
c86 88.667 129 196 129 322s-43 234 -129 324z" />
    <glyph glyph-name="r" unicode="r" horiz-adv-x="616" 
d="M596 997c-213.333 -17.333 -319.999 -131.333 -319.999 -342v-655h-143v1120h143v-162h4c29.333 67.333 71.666 116 126.999 146c45.333 24 108.333 39 189 45v-152z" />
    <glyph glyph-name="s" unicode="s" horiz-adv-x="794" 
d="M393 -27c-100 0 -182.333 32.666 -247 97.999s-97 148 -97 248v13h143c2.66699 -153.333 69.667 -230 201 -230c139.333 0 209 67 209 201c0 65.333 -27 117.333 -81 156c-21.333 15.333 -49.333 30.333 -84 45l-95 37c-40 15.333 -72 29 -96 41
c-33.333 17.333 -61 36 -83 56c-54 49.333 -81 116 -81 200c0 91.333 30.333 166 91 224c60 58 136 87 228 87c86 0 158.333 -29.333 217 -88s88 -131 88 -217h-143c-7.33301 117.333 -63.333 176 -168 176c-113.333 0 -170 -56 -170 -168c0 -56 27 -100.667 81 -134
c20.667 -12.667 48.667 -25.667 84 -39l23 -9l24 -9l48 -18c38.667 -15.333 70.667 -30 96 -44c33.333 -18 61 -38.333 83 -61c54 -55.333 81 -129.666 81 -222.999c0 -228 -117.333 -342 -352 -342z" />
    <glyph glyph-name="t" unicode="t" horiz-adv-x="694" 
d="M407 991v-991h-143v991h-236v129h236v396h143v-396h268v-129h-268z" />
    <glyph glyph-name="u" unicode="u" horiz-adv-x="1245" 
d="M972 0l-0.000976562 174.002h-4c-31.333 -66 -81 -116.667 -149 -152c-62 -32.667 -132 -49 -210 -49c-168 0 -296.333 56 -385 168c-36.667 46.667 -63 103.667 -79 171c-12.667 54.667 -19 118 -19 190v618h143v-616c0 -125.333 24.667 -221.333 74 -288
c56.667 -76 145.334 -114 266.001 -114c94.667 0 174 30.333 238 91c45.333 43.333 77 94.666 95 153.999c14.667 47.333 22 107.666 22 180.999v592h143v-1120h-135z" />
    <glyph glyph-name="v" unicode="v" horiz-adv-x="1134" 
d="M645 0h-158l-473 1120h154l395 -942l401 942h154z" />
    <glyph glyph-name="w" unicode="w" horiz-adv-x="1701" 
d="M1251 0h-162l-238 745h-4l-233 -745h-162l-426 1120h150l352 -938h4l256 803h125l258 -803h4l356 938h148z" />
    <glyph glyph-name="x" unicode="x" horiz-adv-x="983" 
d="M788 0l-297 449l-297 -449h-170l383 569l-383 551h172l295 -432l293 432h174l-383 -551l383 -569h-170z" />
    <glyph glyph-name="y" unicode="y" horiz-adv-x="1097" 
d="M421 -393h-149l194 430l-436 1083h152l356 -893l381 893h151z" />
    <glyph glyph-name="z" unicode="z" horiz-adv-x="870" 
d="M20 0v125l621 866h-601v129h773v-129l-615 -862h651v-129h-829z" />
    <glyph glyph-name="braceleft" unicode="{" horiz-adv-x="718" 
d="M542 -387c-70 0 -124.667 28.0039 -164 84.0039c-35.333 50 -53 111.333 -53 184v373c0 60.667 -14.667 114 -44 160c-34 52.667 -80 80.667 -138 84v131c56 2.66699 101.333 31 136 85c30.667 47.333 46 100.666 46 159.999v373c0 73.333 17.667 134.666 53 183.999
c39.333 56.667 94 85 164 85h136v-123h-103c-38.667 0 -66 -21.333 -82 -64c-10.667 -28 -16 -65.333 -16 -112v-375c0 -61.333 -15 -117.333 -45 -168c-32.667 -56.667 -77 -92.334 -133 -107.001v-6c24 -4 47.667 -14.333 71 -31c37.333 -25.333 65.333 -61.333 84 -108
c15.333 -39.333 23 -84.333 23 -135v-375c0 -46.667 5.33301 -84.334 16 -113.001c16 -42 43.333 -63 82 -63h103v-123h-136z" />
    <glyph glyph-name="bar" unicode="|" horiz-adv-x="1376" 
d="M612 -455v2048h152v-2048h-152z" />
    <glyph glyph-name="braceright" unicode="}" horiz-adv-x="718" 
d="M575 498c-58.667 -3.33301 -104.668 -31.3369 -138.001 -84.0039c-30 -46 -45 -99.333 -45 -160v-373c0 -72.667 -17.333 -134 -52 -184c-40 -56 -95 -84 -165 -84h-135v123h102c39.333 0 67 21 83 63c10.667 28.667 16 66.334 16 113.001v375
c0 50.667 7.66699 95.667 23 135c18 46.667 45.667 82.667 83 108c23.333 16.667 47.333 27 72 31v6c-56 14.667 -100.667 50.334 -134 107.001c-29.333 50.667 -44 106.667 -44 168v375c0 46.667 -5.33301 84 -16 112c-16 42.667 -43.667 64 -83 64h-102v123h135
c70 0 125 -28.333 165 -85c34.667 -49.333 52 -110.666 52 -183.999v-373c0 -59.333 15.333 -112.666 46 -159.999c34.667 -54 80.334 -82.333 137.001 -85v-131z" />
    <glyph glyph-name="asciitilde" unicode="~" horiz-adv-x="1241" 
d="M1093 551c-40.667 -58 -75.998 -99 -105.998 -123c-44.667 -35.333 -94.667 -53 -150 -53c-36 0 -74.333 7.66699 -115 23c-24 9.33301 -59.333 26.333 -106 51c-46.667 24 -82.334 40.667 -107.001 50c-40.667 15.333 -79.334 23 -116.001 23
c-40.667 0 -76.667 -17 -108 -51c-22 -23.333 -43.333 -58 -64 -104l-74 102c60 117.333 145.333 176 256 176c35.333 0 75.666 -7.66699 120.999 -23c32 -10.667 72.333 -27.667 121 -51l56 -27c21.333 -10 38.666 -17.667 51.999 -23
c36.667 -15.333 65.334 -23 86.001 -23c36.667 0 72 18 106 54c12.667 14 26.334 31 41.001 51l17 26l16 24z" />
    <glyph glyph-name="dieresis" unicode="&#xa8;" horiz-adv-x="1024" 
 />
    <glyph glyph-name="copyright" unicode="&#xa9;" horiz-adv-x="1529" 
d="M1318 205c-152.667 -153.333 -336.667 -230.003 -552 -230.003c-216 0 -400.667 76.333 -554 229s-230 337.334 -230 554.001s76.667 401.334 230 554.001c153.333 152 338 228 554 228s400.333 -76.667 553 -230c152 -152.667 228 -336.667 228 -552
s-76.333 -399.666 -229 -552.999zM1240 1236c-130.667 133.333 -289.334 200 -476.001 200s-345 -66.667 -475 -200c-129.333 -132 -194 -291.333 -194 -478s64.667 -346 194 -478c130.667 -133.333 289 -200 475 -200c186.667 0 345.334 66.667 476.001 200
c129.333 132 194 291.333 194 478c0 186 -64.667 345.333 -194 478zM1170 603.997c-10.667 -93.333 -56 -169.334 -136 -228.001c-74.667 -55.333 -160.334 -83 -257.001 -83c-133.333 0 -241 45 -323 135c-78.667 86.667 -118 197.334 -118 332.001
c0 134 39.333 244.667 118 332c82 90 189.667 135 323 135c96.667 0 182.334 -27.667 257.001 -83c80 -58.667 125.333 -135 136 -229h-113c-30 138 -123.333 207 -280 207c-105.333 0 -187.333 -34.667 -246 -104c-54.667 -65.333 -82 -151.333 -82 -258
s27.333 -192.667 82 -258c58.667 -70 140.667 -105 246 -105c156.667 0 250 69 280 207h113z" />
    <glyph glyph-name="registered" unicode="&#xae;" horiz-adv-x="1529" 
d="M1318 205c-152.667 -153.333 -336.667 -230.003 -552 -230.003c-216 0 -400.667 76.333 -554 229s-230 337.334 -230 554.001s76.667 401.334 230 554.001c153.333 152 338 228 554 228s400.333 -76.667 553 -230c152 -152.667 228 -336.667 228 -552
s-76.333 -399.666 -229 -552.999zM1240 1236c-130.667 133.333 -289.334 200 -476.001 200s-345 -66.667 -475 -200c-129.333 -132 -194 -291.333 -194 -478s64.667 -346 194 -478c130.667 -133.333 289 -200 475 -200c186.667 0 345.334 66.667 476.001 200
c129.333 132 194 291.333 194 478c0 186 -64.667 345.333 -194 478zM1022 302.997c-11.333 18.667 -18.6631 45.6689 -21.9961 81.002c-0.666992 6.66699 -1.33398 14 -2.00098 22l-2 63c-2 85.333 -18.667 142.333 -50 171c-30.667 28 -90.667 42 -180 42h-223v-379h-112
v895h385c88 0 158.667 -17.667 212 -53c63.333 -42.667 95 -106.334 95 -191.001c0 -118 -55.333 -190.333 -166 -217v-4c57.333 -16 96.666 -43 117.999 -81c17.333 -30 27.666 -77.333 30.999 -142l4 -106c3.33301 -44.667 11.666 -78.334 24.999 -101.001h-113z
M937.003 1069c-34.667 16.667 -84 25.001 -148 25.001h-246v-310h238c65.333 0 117 10.667 155 32c49.333 27.333 74 71.333 74 132c0 57.333 -24.333 97.666 -73 120.999z" />
    <glyph glyph-name="acute" unicode="&#xb4;" horiz-adv-x="1024" 
 />
    <glyph glyph-name="paragraph" unicode="&#xb6;" horiz-adv-x="1024" 
d="M929 1435l-0.000976562 -70h-127v-1365h-82v1365h-166v-1365h-84v738c-116 5.33301 -207.833 39.5 -275.5 102.5s-101.5 144.833 -101.5 245.5c0 104.667 35.833 189 107.5 253s166.834 96 285.501 96h443z" />
    <glyph glyph-name="onequarter" unicode="&#xbc;" horiz-adv-x="1298" 
 />
    <glyph glyph-name="onehalf" unicode="&#xbd;" horiz-adv-x="1320" 
 />
    <glyph glyph-name="threequarters" unicode="&#xbe;" horiz-adv-x="1288" 
 />
    <glyph glyph-name="Agrave" unicode="&#xc0;" horiz-adv-x="1515" 
d="M1327 0l-220 510h-704l-221 -510h-158l647 1516h170l651 -1516h-165zM757 1343l-297 -696h588zM917 1602l-406 219l66 123l408 -224z" />
    <glyph glyph-name="Aacute" unicode="&#xc1;" horiz-adv-x="1515" 
d="M1327 0l-220 510h-704l-221 -510h-158l647 1516h170l651 -1516h-165zM757 1343l-297 -696h588zM602 1602l-68 118l408 224l65 -123z" />
    <glyph glyph-name="Acircumflex" unicode="&#xc2;" horiz-adv-x="1515" 
d="M1327 0l-220 510h-704l-221 -510h-158l647 1516h170l651 -1516h-165zM757 1343l-297 -696h588zM937 1642l-176 150l-180 -150h-186l297 256h135l293 -256h-183z" />
    <glyph glyph-name="Atilde" unicode="&#xc3;" horiz-adv-x="1515" 
d="M1327 0l-220 510h-704l-221 -510h-158l647 1516h170l651 -1516h-165zM757 1343l-297 -696h588zM1111 1726c-71.333 -52.667 -138.001 -79.002 -200.001 -79.002c-27.333 0 -55.666 4.33301 -84.999 13c-19.333 5.33301 -44 15 -74 29l-69 28
c-25.333 9.33301 -48.333 14 -69 14c-48 0 -93.667 -20.667 -137 -62l-72 103c61.333 57.333 132.333 86 213 86c26.667 0 54 -4.66699 82 -14c18.667 -5.33301 43 -14.666 73 -27.999c1.33301 -1.33301 4 -2.66602 8 -3.99902c4 -2 7 -3.33301 9 -4
c6.66699 -3.33301 12.334 -6 17.001 -8l33 -13c25.333 -8.66699 48.333 -13 69 -13c21.333 0 43.666 5.66699 66.999 17l46 26l16 10z" />
    <glyph glyph-name="Egrave" unicode="&#xc8;" horiz-adv-x="1097" 
d="M143 0v1516h829v-138h-677v-544h655v-138h-655v-559h677v-137h-829zM708 1602l-405 219l65 123l408 -224z" />
    <glyph glyph-name="Eacute" unicode="&#xc9;" horiz-adv-x="1097" 
d="M143 0v1516h829v-138h-677v-544h655v-138h-655v-559h677v-137h-829zM393 1602l-68 118l408 224l65 -123z" />
    <glyph glyph-name="Ecircumflex" unicode="&#xca;" horiz-adv-x="1097" 
d="M143 0v1516h829v-138h-677v-544h655v-138h-655v-559h677v-137h-829zM729 1642l-176 150l-181 -150h-186l297 256h135l293 -256h-182z" />
    <glyph glyph-name="Igrave" unicode="&#xcc;" horiz-adv-x="462" 
d="M156 0v1516h151v-1516h-151zM310 1602l-406 219l66 123l407 -224z" />
    <glyph glyph-name="Iacute" unicode="&#xcd;" horiz-adv-x="462" 
d="M156 0v1516h151v-1516h-151zM156 1602l-68 118l408 224l65 -123z" />
    <glyph glyph-name="Ograve" unicode="&#xd2;" horiz-adv-x="1779" 
d="M1452 201c-157.333 -152 -344.999 -228.001 -562.999 -228.001c-214.667 0 -401.334 75.333 -560.001 226c-160.667 153.333 -241 337 -241 551c0 220 78.333 407.333 235 562c156 153.333 344.667 230 566 230c218.667 0 406.667 -76 564 -228
c159.333 -153.333 239 -338.666 239 -555.999s-80 -403 -240 -557zM1348 1214c-128 127.333 -281 191 -459 191c-180 0 -333.333 -64.333 -460 -193c-126 -128.667 -189 -282.667 -189 -462c0 -174.667 64.667 -325 194 -451c128 -125.333 279.667 -188 455 -188
c177.333 0 330 63 458 189c128.667 126 193 278 193 456s-64 330.667 -192 458zM1051 1602l-406 219l66 123l407 -224z" />
    <glyph glyph-name="Oacute" unicode="&#xd3;" horiz-adv-x="1779" 
d="M1452 201c-157.333 -152 -344.999 -228.001 -562.999 -228.001c-214.667 0 -401.334 75.333 -560.001 226c-160.667 153.333 -241 337 -241 551c0 220 78.333 407.333 235 562c156 153.333 344.667 230 566 230c218.667 0 406.667 -76 564 -228
c159.333 -153.333 239 -338.666 239 -555.999s-80 -403 -240 -557zM1348 1214c-128 127.333 -281 191 -459 191c-180 0 -333.333 -64.333 -460 -193c-126 -128.667 -189 -282.667 -189 -462c0 -174.667 64.667 -325 194 -451c128 -125.333 279.667 -188 455 -188
c177.333 0 330 63 458 189c128.667 126 193 278 193 456s-64 330.667 -192 458zM815.001 1602l-68 118l408 224l66 -123z" />
    <glyph glyph-name="Ocircumflex" unicode="&#xd4;" horiz-adv-x="1779" 
d="M1452 201c-157.333 -152 -344.999 -228.001 -562.999 -228.001c-214.667 0 -401.334 75.333 -560.001 226c-160.667 153.333 -241 337 -241 551c0 220 78.333 407.333 235 562c156 153.333 344.667 230 566 230c218.667 0 406.667 -76 564 -228
c159.333 -153.333 239 -338.666 239 -555.999s-80 -403 -240 -557zM1348 1214c-128 127.333 -281 191 -459 191c-180 0 -333.333 -64.333 -460 -193c-126 -128.667 -189 -282.667 -189 -462c0 -174.667 64.667 -325 194 -451c128 -125.333 279.667 -188 455 -188
c177.333 0 330 63 458 189c128.667 126 193 278 193 456s-64 330.667 -192 458zM1071 1642l-176 150l-180 -150h-187l297 256h135l293 -256h-182z" />
    <glyph glyph-name="Otilde" unicode="&#xd5;" horiz-adv-x="1779" 
d="M1452 201c-157.333 -152 -344.999 -228.001 -562.999 -228.001c-214.667 0 -401.334 75.333 -560.001 226c-160.667 153.333 -241 337 -241 551c0 220 78.333 407.333 235 562c156 153.333 344.667 230 566 230c218.667 0 406.667 -76 564 -228
c159.333 -153.333 239 -338.666 239 -555.999s-80 -403 -240 -557zM1348 1214c-128 127.333 -281 191 -459 191c-180 0 -333.333 -64.333 -460 -193c-126 -128.667 -189 -282.667 -189 -462c0 -174.667 64.667 -325 194 -451c128 -125.333 279.667 -188 455 -188
c177.333 0 330 63 458 189c128.667 126 193 278 193 456s-64 330.667 -192 458zM1243 1726c-72 -52.667 -139.003 -79.002 -201.003 -79.002c-27.333 0 -55.666 4.33301 -84.999 13c-19.333 5.33301 -44 15 -74 29l-69 28c-24.667 9.33301 -47.667 14 -69 14
c-48 0 -93.667 -20.667 -137 -62l-71 103c61.333 57.333 132.333 86 213 86c26 0 53.333 -4.66699 82 -14c18.667 -5.33301 42.667 -14.666 72 -27.999c2 -1.33301 5 -2.66602 9 -3.99902c3.33301 -2 6 -3.33301 8 -4c6.66699 -3.33301 12.334 -6 17.001 -8l34 -13
c24.667 -8.66699 47.334 -13 68.001 -13c21.333 0 44 5.66699 68 17l46 26l15 10z" />
    <glyph glyph-name="Ugrave" unicode="&#xd9;" 
d="M1185 571c0 -56.667 -4.00195 -110.334 -12.002 -161.001c-10 -59.333 -25 -110.666 -45 -153.999c-88 -188.667 -241 -283 -459 -283s-371 94.333 -459 283c-20 43.333 -34.667 94.666 -44 153.999c-8.66699 50.667 -13 104.334 -13 161.001v945h152v-945
c0 -49.333 3.33301 -96 10 -140c8.66699 -56 22.334 -100.667 41.001 -134c68 -124 172.333 -186 313 -186s245 62 313 186c18.667 33.333 32.334 78 41.001 134c7.33301 44 11 90.667 11 140v945h151v-945zM789.998 1602l-406 219l66 123l408 -224z" />
    <glyph glyph-name="Uacute" unicode="&#xda;" 
d="M1185 571c0 -56.667 -4.00195 -110.334 -12.002 -161.001c-10 -59.333 -25 -110.666 -45 -153.999c-88 -188.667 -241 -283 -459 -283s-371 94.333 -459 283c-20 43.333 -34.667 94.666 -44 153.999c-8.66699 50.667 -13 104.334 -13 161.001v945h152v-945
c0 -49.333 3.33301 -96 10 -140c8.66699 -56 22.334 -100.667 41.001 -134c68 -124 172.333 -186 313 -186s245 62 313 186c18.667 33.333 32.334 78 41.001 134c7.33301 44 11 90.667 11 140v945h151v-945zM553.998 1602l-67 118l407 224l66 -123z" />
    <glyph glyph-name="Yacute" unicode="&#xdd;" horiz-adv-x="1212" 
d="M680 506v-506h-152v506l-526 1010h168l432 -850l444 850h166zM491 1602l-67 118l407 224l66 -123z" />
    <glyph glyph-name="agrave" unicode="&#xe0;" horiz-adv-x="1398" 
d="M1128 0v196.999h-4c-98.667 -149.333 -244 -224 -436 -224c-168.667 0 -311 56.333 -427 169c-116.667 112.667 -175 253 -175 421c0 166.667 59 306.334 177 419.001c116.667 111.333 258.334 167 425.001 167c195.333 0 340.666 -75 435.999 -225h4v196h144v-1120h-144
zM1008 882.999c-87.333 91.333 -193.998 137.001 -319.998 137.001c-132.667 0 -242.334 -44 -329.001 -132s-130 -198.333 -130 -331c0 -130.667 43.667 -239.334 131 -326.001c87.333 -86 196.666 -129 327.999 -129c126 0 232.667 45 320 135c86 88.667 129 196 129 322
s-43 234 -129 324zM860.002 1268l-405 219l65 123l408 -224z" />
    <glyph glyph-name="aacute" unicode="&#xe1;" horiz-adv-x="1398" 
d="M1128 0v196.999h-4c-98.667 -149.333 -244 -224 -436 -224c-168.667 0 -311 56.333 -427 169c-116.667 112.667 -175 253 -175 421c0 166.667 59 306.334 177 419.001c116.667 111.333 258.334 167 425.001 167c195.333 0 340.666 -75 435.999 -225h4v196h144v-1120h-144
zM1008 882.999c-87.333 91.333 -193.998 137.001 -319.998 137.001c-132.667 0 -242.334 -44 -329.001 -132s-130 -198.333 -130 -331c0 -130.667 43.667 -239.334 131 -326.001c87.333 -86 196.666 -129 327.999 -129c126 0 232.667 45 320 135c86 88.667 129 196 129 322
s-43 234 -129 324zM543.002 1268l-68 118l408 224l65 -123z" />
    <glyph glyph-name="acircumflex" unicode="&#xe2;" horiz-adv-x="1398" 
d="M1128 0v196.999h-4c-98.667 -149.333 -244 -224 -436 -224c-168.667 0 -311 56.333 -427 169c-116.667 112.667 -175 253 -175 421c0 166.667 59 306.334 177 419.001c116.667 111.333 258.334 167 425.001 167c195.333 0 340.666 -75 435.999 -225h4v196h144v-1120h-144
zM1008 882.999c-87.333 91.333 -193.998 137.001 -319.998 137.001c-132.667 0 -242.334 -44 -329.001 -132s-130 -198.333 -130 -331c0 -130.667 43.667 -239.334 131 -326.001c87.333 -86 196.666 -129 327.999 -129c126 0 232.667 45 320 135c86 88.667 129 196 129 322
s-43 234 -129 324zM881.002 1309l-177 149l-180 -149h-186l297 256h135l293 -256h-182z" />
    <glyph glyph-name="atilde" unicode="&#xe3;" horiz-adv-x="1398" 
d="M1128 0v196.999h-4c-98.667 -149.333 -244 -224 -436 -224c-168.667 0 -311 56.333 -427 169c-116.667 112.667 -175 253 -175 421c0 166.667 59 306.334 177 419.001c116.667 111.333 258.334 167 425.001 167c195.333 0 340.666 -75 435.999 -225h4v196h144v-1120h-144
zM1008 882.999c-87.333 91.333 -193.998 137.001 -319.998 137.001c-132.667 0 -242.334 -44 -329.001 -132s-130 -198.333 -130 -331c0 -130.667 43.667 -239.334 131 -326.001c87.333 -86 196.666 -129 327.999 -129c126 0 232.667 45 320 135c86 88.667 129 196 129 322
s-43 234 -129 324zM1053 1413c-72 -53.333 -139 -80.001 -201 -80.001c-27.333 0 -55.666 4.33301 -84.999 13c-19.333 6 -44 15.667 -74 29l-69 29c-25.333 8.66699 -48.333 13 -69 13c-48 0 -93.667 -20.333 -137 -61l-72 102c61.333 57.333 132.333 86 213 86
c26.667 0 54 -4.33301 82 -13c18.667 -6 43 -15.667 73 -29l8 -4c4 -1.33301 7 -2.66602 9 -3.99902l17 -7l33 -14c25.333 -8.66699 48.333 -13 69 -13c21.333 0 43.666 6 66.999 18l47 26l15 9z" />
    <glyph glyph-name="egrave" unicode="&#xe8;" horiz-adv-x="1331" 
d="M1244 508h-1020c5.33301 -110 51.666 -205.333 138.999 -286c86.667 -80 185.334 -120 296.001 -120c88 0 168.667 23.333 242 70c76 48.667 129 113.667 159 195h152c-41.333 -117.333 -112.666 -212.333 -213.999 -285s-213.666 -109 -336.999 -109
c-161.333 0 -299.333 57.667 -414 173c-113.333 114 -170 251.667 -170 413c0 160.667 56.667 299 170 415c114.667 116.667 252 175 412 175c162.667 0 301.334 -59.667 416.001 -179c114 -118 171 -258.333 171 -421zM1099 637c-18.667 110.667 -68.334 202 -149.001 274
c-81.333 72.667 -177.666 109 -288.999 109c-110.667 0 -207 -36.333 -289 -109c-80.667 -72 -130 -163.333 -148 -274h875zM824.997 1268l-406 219l66 123l407 -224z" />
    <glyph glyph-name="eacute" unicode="&#xe9;" horiz-adv-x="1331" 
d="M1244 508h-1020c5.33301 -110 51.666 -205.333 138.999 -286c86.667 -80 185.334 -120 296.001 -120c88 0 168.667 23.333 242 70c76 48.667 129 113.667 159 195h152c-41.333 -117.333 -112.666 -212.333 -213.999 -285s-213.666 -109 -336.999 -109
c-161.333 0 -299.333 57.667 -414 173c-113.333 114 -170 251.667 -170 413c0 160.667 56.667 299 170 415c114.667 116.667 252 175 412 175c162.667 0 301.334 -59.667 416.001 -179c114 -118 171 -258.333 171 -421zM1099 637c-18.667 110.667 -68.334 202 -149.001 274
c-81.333 72.667 -177.666 109 -288.999 109c-110.667 0 -207 -36.333 -289 -109c-80.667 -72 -130 -163.333 -148 -274h875zM508.997 1268l-67 118l407 224l66 -123z" />
    <glyph glyph-name="ecircumflex" unicode="&#xea;" horiz-adv-x="1331" 
d="M1244 508h-1020c5.33301 -110 51.666 -205.333 138.999 -286c86.667 -80 185.334 -120 296.001 -120c88 0 168.667 23.333 242 70c76 48.667 129 113.667 159 195h152c-41.333 -117.333 -112.666 -212.333 -213.999 -285s-213.666 -109 -336.999 -109
c-161.333 0 -299.333 57.667 -414 173c-113.333 114 -170 251.667 -170 413c0 160.667 56.667 299 170 415c114.667 116.667 252 175 412 175c162.667 0 301.334 -59.667 416.001 -179c114 -118 171 -258.333 171 -421zM1099 637c-18.667 110.667 -68.334 202 -149.001 274
c-81.333 72.667 -177.666 109 -288.999 109c-110.667 0 -207 -36.333 -289 -109c-80.667 -72 -130 -163.333 -148 -274h875zM844.997 1309l-176 149l-180 -149h-187l297 256h135l293 -256h-182z" />
    <glyph glyph-name="igrave" unicode="&#xec;" horiz-adv-x="409" 
d="M134 0v1120h143v-1120h-143zM284 1268l-406 219l66 123l407 -224z" />
    <glyph glyph-name="iacute" unicode="&#xed;" horiz-adv-x="409" 
d="M133 0v1120h143v-1120h-143zM129 1268l-68 118l408 224l65 -123z" />
    <glyph glyph-name="ograve" unicode="&#xf2;" 
d="M1084 147c-115.333 -116 -253.333 -174.001 -414 -174.001c-158 0 -294.667 57.333 -410 172c-116 114.667 -174 250.667 -174 408c0 162.667 56.667 302.334 170 419.001c114 118 252 177 414 177c159.333 0 297 -58 413 -174s174 -254 174 -414
c0 -160.667 -57.667 -298.667 -173 -414zM985 884.999c-86.667 90 -191.001 135 -313.001 135c-125.333 0 -231 -46.667 -317 -140c-84 -90.667 -126 -199 -126 -325c0 -122.667 43 -228.667 129 -318c86.667 -90 191.334 -135 314.001 -135c126.667 0 232.667 46 318 138
c82.667 90 124 199 124 327c0 122.667 -43 228.667 -129 318zM830.999 1268l-405 219l66 123l407 -224z" />
    <glyph glyph-name="oacute" unicode="&#xf3;" 
d="M1084 147c-115.333 -116 -253.333 -174.001 -414 -174.001c-158 0 -294.667 57.333 -410 172c-116 114.667 -174 250.667 -174 408c0 162.667 56.667 302.334 170 419.001c114 118 252 177 414 177c159.333 0 297 -58 413 -174s174 -254 174 -414
c0 -160.667 -57.667 -298.667 -173 -414zM985 884.999c-86.667 90 -191.001 135 -313.001 135c-125.333 0 -231 -46.667 -317 -140c-84 -90.667 -126 -199 -126 -325c0 -122.667 43 -228.667 129 -318c86.667 -90 191.334 -135 314.001 -135c126.667 0 232.667 46 318 138
c82.667 90 124 199 124 327c0 122.667 -43 228.667 -129 318zM574.999 1268l-67 118l407 224l66 -123z" />
    <glyph glyph-name="ocircumflex" unicode="&#xf4;" 
d="M1084 147c-115.333 -116 -253.333 -174.001 -414 -174.001c-158 0 -294.667 57.333 -410 172c-116 114.667 -174 250.667 -174 408c0 162.667 56.667 302.334 170 419.001c114 118 252 177 414 177c159.333 0 297 -58 413 -174s174 -254 174 -414
c0 -160.667 -57.667 -298.667 -173 -414zM985 884.999c-86.667 90 -191.001 135 -313.001 135c-125.333 0 -231 -46.667 -317 -140c-84 -90.667 -126 -199 -126 -325c0 -122.667 43 -228.667 129 -318c86.667 -90 191.334 -135 314.001 -135c126.667 0 232.667 46 318 138
c82.667 90 124 199 124 327c0 122.667 -43 228.667 -129 318zM851.999 1309l-176 149l-180 -149h-187l297 256h135l293 -256h-182z" />
    <glyph glyph-name="otilde" unicode="&#xf5;" 
d="M1084 147c-115.333 -116 -253.333 -174.001 -414 -174.001c-158 0 -294.667 57.333 -410 172c-116 114.667 -174 250.667 -174 408c0 162.667 56.667 302.334 170 419.001c114 118 252 177 414 177c159.333 0 297 -58 413 -174s174 -254 174 -414
c0 -160.667 -57.667 -298.667 -173 -414zM985 884.999c-86.667 90 -191.001 135 -313.001 135c-125.333 0 -231 -46.667 -317 -140c-84 -90.667 -126 -199 -126 -325c0 -122.667 43 -228.667 129 -318c86.667 -90 191.334 -135 314.001 -135c126.667 0 232.667 46 318 138
c82.667 90 124 199 124 327c0 122.667 -43 228.667 -129 318zM1024 1413c-72 -53.333 -139.003 -80.001 -201.003 -80.001c-27.333 0 -55.666 4.33301 -84.999 13c-19.333 6 -44 15.667 -74 29l-69 29c-25.333 8.66699 -48.333 13 -69 13c-48 0 -93.667 -20.333 -137 -61
l-72 102c62 57.333 133 86 213 86c26.667 0 54.334 -4.33301 83.001 -13c18.667 -6 42.667 -15.667 72 -29c2 -0.666992 5 -2 9 -4c3.33301 -1.33301 6 -2.66602 8 -3.99902l17 -7l34 -14c24.667 -8.66699 47.334 -13 68.001 -13c21.333 0 44 6 68 18l46 26l15 9z" />
    <glyph glyph-name="divide" unicode="&#xf7;" horiz-adv-x="1706" 
 />
    <glyph glyph-name="glyph216" unicode="&#xf9;" horiz-adv-x="1245" 
d="M972 0l-0.000976562 174.002h-4c-31.333 -66 -81 -116.667 -149 -152c-62 -32.667 -132 -49 -210 -49c-168 0 -296.333 56 -385 168c-36.667 46.667 -63 103.667 -79 171c-12.667 54.667 -19 118 -19 190v618h143v-616c0 -125.333 24.667 -221.333 74 -288
c56.667 -76 145.334 -114 266.001 -114c94.667 0 174 30.333 238 91c45.333 43.333 77 94.666 95 153.999c14.667 47.333 22 107.666 22 180.999v592h143v-1120h-135zM739.999 1268l-405 219l65 123l408 -224z" />
    <glyph glyph-name="glyph217" unicode="&#xfa;" horiz-adv-x="1245" 
d="M972 0l-0.000976562 174.002h-4c-31.333 -66 -81 -116.667 -149 -152c-62 -32.667 -132 -49 -210 -49c-168 0 -296.333 56 -385 168c-36.667 46.667 -63 103.667 -79 171c-12.667 54.667 -19 118 -19 190v618h143v-616c0 -125.333 24.667 -221.333 74 -288
c56.667 -76 145.334 -114 266.001 -114c94.667 0 174 30.333 238 91c45.333 43.333 77 94.666 95 153.999c14.667 47.333 22 107.666 22 180.999v592h143v-1120h-135zM506.999 1268l-68 118l408 224l65 -123z" />
    <glyph glyph-name="glyph234" unicode="&#xfd;" horiz-adv-x="1097" 
d="M421 -393h-149l194 430l-436 1083h152l356 -893l381 893h151zM433 1268l-67 118l407 224l66 -123z" />
    <glyph glyph-name="Abreve" unicode="&#x102;" horiz-adv-x="1515" 
d="M1327 0l-220 510h-704l-221 -510h-158l647 1516h170l651 -1516h-165zM757 1343l-297 -696h588zM1116 1823c-27.333 -74 -74.998 -129 -142.998 -165c-58.667 -30.667 -130.667 -46 -216 -46c-84.667 0 -156.334 15.333 -215.001 46
c-67.333 35.333 -114.333 90.333 -141 165h133c46 -62.667 120.333 -94 223 -94c45.333 0 86.666 7 123.999 21c44 16 77.667 40.333 101 73h134z" />
    <glyph glyph-name="abreve" unicode="&#x103;" horiz-adv-x="1398" 
d="M1128 0v196.999h-4c-98.667 -149.333 -244 -224 -436 -224c-168.667 0 -311 56.333 -427 169c-116.667 112.667 -175 253 -175 421c0 166.667 59 306.334 177 419.001c116.667 111.333 258.334 167 425.001 167c195.333 0 340.666 -75 435.999 -225h4v196h144v-1120h-144
zM1008 882.999c-87.333 91.333 -193.998 137.001 -319.998 137.001c-132.667 0 -242.334 -44 -329.001 -132s-130 -198.333 -130 -331c0 -130.667 43.667 -239.334 131 -326.001c87.333 -86 196.666 -129 327.999 -129c126 0 232.667 45 320 135c86 88.667 129 196 129 322
s-43 234 -129 324zM1068 1491c-27.333 -74 -74.999 -129 -142.999 -165c-58.667 -30.667 -130.667 -46 -216 -46c-84.667 0 -156.334 15.333 -215.001 46c-67.333 35.333 -114.333 90.333 -141 165h133c46 -62.667 120.333 -94 223 -94c45.333 0 87 7 125 21
c43.333 16 77 40.333 101 73h133z" />
    <glyph glyph-name="Ccaron" unicode="&#x10c;" horiz-adv-x="1274" 
 />
    <glyph glyph-name="ccaron" unicode="&#x10d;" horiz-adv-x="922" 
 />
    <glyph glyph-name="Dslash" unicode="&#x110;" horiz-adv-x="1523" 
d="M302 711l0.000976562 -573.998h252c50 0 93.333 1.33301 130 4c45.333 3.33301 86.666 9 123.999 17c87.333 18.667 165 52.667 233 102c76 54.667 135.333 128.667 178 222c40 88 60 180.667 60 278c0 216 -86 383.333 -258 502c-68 47.333 -147.667 79.666 -239 96.999
c-38.667 7.33301 -81.667 12.666 -129 15.999c-36.667 2 -80.667 3 -132 3h-219v-530h460v-137h-460zM151.001 848.002l0.000976562 668h442c87.333 0 172.666 -10 255.999 -30c93.333 -22 172.333 -53.667 237 -95c230 -146.667 345 -359 345 -637
c0 -270 -115 -479.667 -345 -629c-64.667 -41.333 -144 -73.333 -238 -96c-83.333 -19.333 -168.333 -29 -255 -29h-442v711h-122v137h122z" />
    <glyph glyph-name="dcroat" unicode="&#x111;" horiz-adv-x="1402" 
d="M1121 0l-0.000976562 196.999h-4c-100 -149.333 -245.333 -224 -436 -224c-168.667 0 -311 56.333 -427 169c-116.667 112.667 -175 253 -175 421c0 166.667 59 306.334 177 419.001c116.667 111.333 258.334 167 425.001 167c190 0 335.333 -73.667 436 -221h4v588h144
v-1516h-144zM1001 882.999c-87.333 91.333 -193.998 137.001 -319.998 137.001c-132.667 0 -242.334 -44 -329.001 -132s-130 -198.333 -130 -331c0 -130.667 43.667 -239.334 131 -326.001c87.333 -86 196.666 -129 327.999 -129c126 0 232.667 45 320 135
c86 88.667 129 196 129 322s-43 234 -129 324zM1393 1362v-140h-624v140h624z" />
    <glyph glyph-name="Itilde" unicode="&#x128;" horiz-adv-x="462" 
d="M155 0v1516h151v-1516h-151zM597 1726c-71.333 -52.667 -138.001 -79.002 -200.001 -79.002c-27.333 0 -55.666 4.33301 -84.999 13c-19.333 5.33301 -44 15 -74 29l-69 28c-25.333 9.33301 -48.333 14 -69 14c-48 0 -93.667 -20.667 -137 -62l-72 103
c61.333 57.333 132.333 86 213 86c26.667 0 54 -4.66699 82 -14c18.667 -5.33301 43 -14.666 73 -27.999c1.33301 -1.33301 4 -2.66602 8 -3.99902c4 -2 7 -3.33301 9 -4c6.66699 -3.33301 12.334 -6 17.001 -8l33 -13c25.333 -8.66699 48.333 -13 69 -13
c21.333 0 43.666 5.66699 66.999 17l46 26l16 10z" />
    <glyph glyph-name="itilde" unicode="&#x129;" horiz-adv-x="409" 
d="M133 0v1120h143v-1120h-143zM574 1353c-72 -53.333 -139 -80.001 -201 -80.001c-27.333 0 -55.666 4.33301 -84.999 13c-19.333 6 -44 15.667 -74 29l-69 29c-25.333 8.66699 -48.333 13 -69 13c-48 0 -93.667 -20.333 -137 -61l-72 102c61.333 57.333 132.333 86 213 86
c26.667 0 54 -4.33301 82 -13c18.667 -6 43 -15.667 73 -29l8 -4c4 -1.33301 7 -2.66602 9 -3.99902l17 -7l33 -14c25.333 -8.66699 48.333 -13 69 -13c21.333 0 43.666 6 66.999 18l47 26l15 9z" />
    <glyph glyph-name="Utilde" unicode="&#x168;" 
d="M1185 571c0 -56.667 -4.00195 -110.334 -12.002 -161.001c-10 -59.333 -25 -110.666 -45 -153.999c-88 -188.667 -241 -283 -459 -283s-371 94.333 -459 283c-20 43.333 -34.667 94.666 -44 153.999c-8.66699 50.667 -13 104.334 -13 161.001v945h152v-945
c0 -49.333 3.33301 -96 10 -140c8.66699 -56 22.334 -100.667 41.001 -134c68 -124 172.333 -186 313 -186s245 62 313 186c18.667 33.333 32.334 78 41.001 134c7.33301 44 11 90.667 11 140v945h151v-945zM1012 1726c-72 -52.667 -139.003 -79.002 -201.003 -79.002
c-27.333 0 -55.666 4.33301 -84.999 13c-19.333 5.33301 -44 15 -74 29l-69 28c-24.667 9.33301 -47.667 14 -69 14c-48 0 -93.667 -20.667 -137 -62l-71 103c61.333 57.333 132.333 86 213 86c26 0 53.333 -4.66699 82 -14c18.667 -5.33301 42.667 -14.666 72 -27.999
c2 -1.33301 5 -2.66602 9 -3.99902c3.33301 -2 6 -3.33301 8 -4c6.66699 -3.33301 12.334 -6 17.001 -8l34 -13c24.667 -8.66699 47.334 -13 68.001 -13c21.333 0 44 5.66699 68 17l46 26l15 10z" />
    <glyph glyph-name="utilde" unicode="&#x169;" horiz-adv-x="1245" 
d="M972 0l-0.000976562 174.002h-4c-31.333 -66 -81 -116.667 -149 -152c-62 -32.667 -132 -49 -210 -49c-168 0 -296.333 56 -385 168c-36.667 46.667 -63 103.667 -79 171c-12.667 54.667 -19 118 -19 190v618h143v-616c0 -125.333 24.667 -221.333 74 -288
c56.667 -76 145.334 -114 266.001 -114c94.667 0 174 30.333 238 91c45.333 43.333 77 94.666 95 153.999c14.667 47.333 22 107.666 22 180.999v592h143v-1120h-135zM1023 1413c-72 -53.333 -139.003 -80.001 -201.003 -80.001c-27.333 0 -55.666 4.33301 -84.999 13
c-19.333 6 -44 15.667 -74 29l-69 29c-25.333 8.66699 -48.333 13 -69 13c-48 0 -93.667 -20.333 -137 -61l-72 102c62 57.333 133 86 213 86c26.667 0 54.334 -4.33301 83.001 -13c18.667 -6 42.667 -15.667 72 -29c2 -0.666992 5 -2 9 -4
c3.33301 -1.33301 6 -2.66602 8 -3.99902l17 -7l34 -14c24.667 -8.66699 47.334 -13 68.001 -13c21.333 0 44 6 68 18l46 26l15 9z" />
    <glyph glyph-name="Ohorn" unicode="&#x1a0;" horiz-adv-x="1779" 
d="M1348 1214c-128 127.333 -281 191 -459 191c-180 0 -333.333 -64.333 -460 -193c-126 -128.667 -189 -282.667 -189 -462c0 -174.667 64.667 -325 194 -451c128 -125.333 279.667 -188 455 -188c177.333 0 330 63 458 189c128.667 126 193 278 193 456
s-64 330.667 -192 458zM1416 1348c12.667 -10.667 25.001 -21.999 37.001 -33.999c159.333 -153.333 239 -338.666 239 -555.999s-80 -403 -240 -557c-157.333 -152 -345 -228 -563 -228c-214.667 0 -401.334 75.333 -560.001 226c-160.667 153.333 -241 337 -241 551
c0 220 78.333 407.333 235 562c156 153.333 344.667 230 566 230c156.667 0 297.667 -39 423 -117l35 16c13.333 6 33 18.667 59 38s40.667 43 44 71h-65v180h189v-186c-4.66699 -32.667 -13 -59.834 -25 -81.501s-26.5 -39.834 -43.5 -54.501s-31.833 -26 -44.5 -34
c-10.667 -7.33301 -25.667 -16 -45 -26z" />
    <glyph glyph-name="ohorn" unicode="&#x1a1;" 
d="M985 885c-86.667 90 -191.001 135 -313.001 135c-125.333 0 -231 -46.667 -317 -140c-84 -90.667 -126 -199 -126 -325c0 -122.667 43 -228.667 129 -318c86.667 -90 191.334 -135 314.001 -135c126.667 0 232.667 46 318 138c82.667 90 124 199 124 327
c0 122.667 -43 228.667 -129 318zM1095 962c108 -113.333 162 -247 162 -401c0 -160.667 -57.667 -298.667 -173 -414c-115.333 -116 -253.333 -174 -414 -174c-158 0 -294.667 57.333 -410 172c-116 114.667 -174 250.667 -174 408c0 162.667 56.667 302.334 170 419.001
c114 118 252 177 414 177c125.333 0 237 -35.667 335 -107c9.33301 4.66699 17 8.33398 23 11.001c12.667 6 31 18.667 55 38s37.667 43 41 71h-61v180h176v-186c-4.66699 -32.667 -12.5 -59.834 -23.5 -81.501s-24.333 -39.834 -40 -54.501s-29.5 -26 -41.5 -34
c-10 -6.66699 -23 -14.667 -39 -24z" />
    <glyph glyph-name="Uhorn" unicode="&#x1af;" 
d="M1185 1344l-0.000976562 -772.997c0 -56.667 -4.33301 -110.334 -13 -161.001c-9.33301 -59.333 -24.333 -110.666 -45 -153.999c-87.333 -188.667 -240 -283 -458 -283s-371 94.333 -459 283c-20 43.333 -35 94.666 -45 153.999c-8 50.667 -12 104.334 -12 161.001v945
h151v-945c0 -49.333 3.33301 -96 10 -140c9.33301 -56 23 -100.667 41 -134c68.667 -124 173.334 -186 314.001 -186s245 62 313 186c18.667 33.333 32.334 78 41.001 134c6.66699 44 10 90.667 10 140v945h152v-36c25.333 19.333 39.666 42.666 42.999 69.999h-65v180h189
v-186c-4.66699 -32.667 -13 -59.834 -25 -81.501s-26.5 -39.834 -43.5 -54.501s-31.833 -26 -44.5 -34s-30.667 -18 -54 -30z" />
    <glyph glyph-name="uhorn" unicode="&#x1b0;" horiz-adv-x="1245" 
d="M1107 954l-0.000976562 -953.996h-135v174h-4c-31.333 -66 -81 -116.667 -149 -152c-62 -32.667 -132 -49 -210 -49c-168 0 -296.333 56 -385 168c-36.667 46.667 -63 103.667 -79 171c-12.667 54.667 -19 118 -19 190v618h143v-616c0 -125.333 24.667 -221.333 74 -288
c56.667 -76 145.334 -114 266.001 -114c94.667 0 174 30.333 238 91c45.333 43.333 77 94.666 95 153.999c14.667 47.333 22 107.666 22 180.999v592h143v-33c1.33301 1.33301 3 2.66602 5 3.99902c24 19.333 37.667 43 41 71h-61v180h176v-186
c-4.66699 -32.667 -12.5 -59.834 -23.5 -81.501s-24.333 -39.834 -40 -54.501s-29.667 -26.167 -42 -34.5s-30.5 -19.166 -54.5 -32.499z" />
    <glyph glyph-name="uni1EA0" unicode="&#x1ea0;" horiz-adv-x="1515" 
d="M1327 0l-220 510h-704l-221 -510h-158l647 1516h170l651 -1516h-165zM757 1343l-297 -696h588zM682 -385v259h152v-259h-152z" />
    <glyph glyph-name="uni1EA1" unicode="&#x1ea1;" horiz-adv-x="1398" 
d="M1128 0v196.999h-4c-98.667 -149.333 -244 -224 -436 -224c-168.667 0 -311 56.333 -427 169c-116.667 112.667 -175 253 -175 421c0 166.667 59 306.334 177 419.001c116.667 111.333 258.334 167 425.001 167c195.333 0 340.666 -75 435.999 -225h4v196h144v-1120h-144
zM1008 882.999c-87.333 91.333 -193.998 137.001 -319.998 137.001c-132.667 0 -242.334 -44 -329.001 -132s-130 -198.333 -130 -331c0 -130.667 43.667 -239.334 131 -326.001c87.333 -86 196.666 -129 327.999 -129c126 0 232.667 45 320 135c86 88.667 129 196 129 322
s-43 234 -129 324zM603.002 -385v259h152v-259h-152z" />
    <glyph glyph-name="uni1EA2" unicode="&#x1ea2;" horiz-adv-x="1515" 
d="M1327 0l-220 510h-704l-221 -510h-158l647 1516h170l651 -1516h-165zM757 1343l-297 -696h588zM954 1794c-4.66699 -7.33301 -12.333 -16.667 -23 -28l-13 -14l-41 -40c-8 -9.33301 -15.667 -19.333 -23 -30c-12 -18 -19 -47 -21 -87h-127v27c0 34 9.33301 67 28 99
c5.33301 9.33301 14.333 21.333 27 36c5.33301 6 14 14.667 26 26l27 26c8.66699 9.33301 16.667 18.666 24 27.999c10.667 14.667 16 31 16 49c0 28 -8.66699 50 -26 66c-19.333 18 -39.666 27 -60.999 27c-30.667 0 -55.334 -14 -74.001 -42
c-6.66699 -10 -11 -21.333 -13 -34c-1.33301 -7.33301 -2 -27.666 -2 -60.999h-129v39c0 54 22.333 102 67 144c41.333 38 92.333 57 153 57c62 0 112.333 -18.667 151 -56c41.333 -40.667 62 -88 62 -142c0 -30.667 -9.33301 -60.667 -28 -90z" />
    <glyph glyph-name="uni1EA3" unicode="&#x1ea3;" horiz-adv-x="1398" 
d="M1128 0v196.999h-4c-98.667 -149.333 -244 -224 -436 -224c-168.667 0 -311 56.333 -427 169c-116.667 112.667 -175 253 -175 421c0 166.667 59 306.334 177 419.001c116.667 111.333 258.334 167 425.001 167c195.333 0 340.666 -75 435.999 -225h4v196h144v-1120h-144
zM1008 882.999c-87.333 91.333 -193.998 137.001 -319.998 137.001c-132.667 0 -242.334 -44 -329.001 -132s-130 -198.333 -130 -331c0 -130.667 43.667 -239.334 131 -326.001c87.333 -86 196.666 -129 327.999 -129c126 0 232.667 45 320 135c86 88.667 129 196 129 322
s-43 234 -129 324zM876.002 1442c-4.66699 -7.33301 -12.333 -16.667 -23 -28l-13 -14l-41 -40c-8 -9.33301 -15.667 -19.333 -23 -30c-12 -18 -19 -47 -21 -87h-127v27c0 34 9.33301 67 28 99c5.33301 9.33301 14.333 21.333 27 36c5.33301 6 14 14.667 26 26l27 26
c8.66699 9.33301 16.667 18.666 24 27.999c10.667 14.667 16 31 16 49c0 28 -8.66699 50 -26 66c-19.333 18 -39.666 27 -60.999 27c-30.667 0 -55.334 -14 -74.001 -42c-6.66699 -10 -11 -21.333 -13 -34c-1.33301 -7.33301 -2 -27.666 -2 -60.999h-129v39
c0 54 22.333 102 67 144c41.333 38 92.333 57 153 57c62 0 112.333 -18.667 151 -56c41.333 -40.667 62 -88 62 -142c0 -30.667 -9.33301 -60.667 -28 -90z" />
    <glyph glyph-name="uni1EA4" unicode="&#x1ea4;" horiz-adv-x="1515" 
d="M1327 0l-220 510h-704l-221 -510h-158l647 1516h170l651 -1516h-165zM757 1343l-297 -696h588zM1004 1803l-68 118l408 224l65 -123zM937 1642l-176 150l-180 -150h-186l297 256h135l293 -256h-183z" />
    <glyph glyph-name="uni1EA5" unicode="&#x1ea5;" horiz-adv-x="1398" 
d="M1128 0v196.999h-4c-98.667 -149.333 -244 -224 -436 -224c-168.667 0 -311 56.333 -427 169c-116.667 112.667 -175 253 -175 421c0 166.667 59 306.334 177 419.001c116.667 111.333 258.334 167 425.001 167c195.333 0 340.666 -75 435.999 -225h4v196h144v-1120h-144
zM1008 882.999c-87.333 91.333 -193.998 137.001 -319.998 137.001c-132.667 0 -242.334 -44 -329.001 -132s-130 -198.333 -130 -331c0 -130.667 43.667 -239.334 131 -326.001c87.333 -86 196.666 -129 327.999 -129c126 0 232.667 45 320 135c86 88.667 129 196 129 322
s-43 234 -129 324zM1005 1448l-68 118l408 224l65 -123zM881.002 1309l-177 149l-180 -149h-186l297 256h135l293 -256h-182z" />
    <glyph glyph-name="uni1EA6" unicode="&#x1ea6;" horiz-adv-x="1515" 
d="M1327 0l-220 510h-704l-221 -510h-158l647 1516h170l651 -1516h-165zM757 1343l-297 -696h588zM1007 1863l-406 219l66 123l408 -224zM937 1642l-176 150l-180 -150h-186l297 256h135l293 -256h-183z" />
    <glyph glyph-name="uni1EA7" unicode="&#x1ea7;" horiz-adv-x="1398" 
d="M1128 0v196.999h-4c-98.667 -149.333 -244 -224 -436 -224c-168.667 0 -311 56.333 -427 169c-116.667 112.667 -175 253 -175 421c0 166.667 59 306.334 177 419.001c116.667 111.333 258.334 167 425.001 167c195.333 0 340.666 -75 435.999 -225h4v196h144v-1120h-144
zM1008 882.999c-87.333 91.333 -193.998 137.001 -319.998 137.001c-132.667 0 -242.334 -44 -329.001 -132s-130 -198.333 -130 -331c0 -130.667 43.667 -239.334 131 -326.001c87.333 -86 196.666 -129 327.999 -129c126 0 232.667 45 320 135c86 88.667 129 196 129 322
s-43 234 -129 324zM970.002 1539l-405 219l65 123l408 -224zM881.002 1309l-177 149l-180 -149h-186l297 256h135l293 -256h-182z" />
    <glyph glyph-name="uni1EA8" unicode="&#x1ea8;" horiz-adv-x="1515" 
d="M1327 0l-220 510h-704l-221 -510h-158l647 1516h170l651 -1516h-165zM757 1343l-297 -696h588zM1175 2045c-4.66699 -7.33301 -12.333 -16.667 -23 -28l-13 -14l-41 -40c-8 -9.33301 -15.667 -19.333 -23 -30c-12 -18 -19 -47 -21 -87h-127v27c0 34 9.33301 67 28 99
c5.33301 9.33301 14.333 21.333 27 36c5.33301 6 14 14.667 26 26l27 26c8.66699 9.33301 16.667 18.666 24 28c10.667 14.667 16 31 16 49c0 28 -8.66699 50 -26 66c-19.333 18 -39.666 27 -60.999 27c-30.667 0 -55.334 -14 -74.001 -42c-6.66699 -10 -11 -21.333 -13 -34
c-1.33301 -7.33301 -2 -27.666 -2 -61h-129v39c0 54 22.333 102 67 144c41.333 38 92.333 57 153 57c62 0 112.333 -18.667 151 -56c41.333 -40.667 62 -88 62 -142c0 -30.667 -9.33301 -60.667 -28 -90zM937.001 1642l-176 150l-180 -150h-186l297 256h135l293 -256h-183z
" />
    <glyph glyph-name="uni1EA9" unicode="&#x1ea9;" horiz-adv-x="1398" 
d="M1128 0v196.999h-4c-98.667 -149.333 -244 -224 -436 -224c-168.667 0 -311 56.333 -427 169c-116.667 112.667 -175 253 -175 421c0 166.667 59 306.334 177 419.001c116.667 111.333 258.334 167 425.001 167c195.333 0 340.666 -75 435.999 -225h4v196h144v-1120h-144
zM1008 882.999c-87.333 91.333 -193.998 137.001 -319.998 137.001c-132.667 0 -242.334 -44 -329.001 -132s-130 -198.333 -130 -331c0 -130.667 43.667 -239.334 131 -326.001c87.333 -86 196.666 -129 327.999 -129c126 0 232.667 45 320 135c86 88.667 129 196 129 322
s-43 234 -129 324zM881.002 1309l-177 149l-180 -149h-186l297 256h135l293 -256h-182zM1157 1683c-4.66699 -7.33301 -12.333 -16.667 -23 -28l-13 -14l-41 -40c-8 -9.33301 -15.667 -19.333 -23 -30c-12 -18 -19 -47 -21 -87h-127v27c0 34 9.33301 67 28 99
c5.33301 9.33301 14.333 21.333 27 36c5.33301 6 14 14.667 26 26l27 26c8.66699 9.33301 16.667 18.666 24 27.999c10.667 14.667 16 31 16 49c0 28 -8.66699 50 -26 66c-19.333 18 -39.666 27 -60.999 27c-30.667 0 -55.334 -14 -74.001 -42
c-6.66699 -10 -11 -21.333 -13 -34c-1.33301 -7.33301 -2 -27.666 -2 -60.999h-129v39c0 54 22.333 102 67 144c41.333 38 92.333 57 153 57c62 0 112.333 -18.667 151 -56c41.333 -40.667 62 -88 62 -142c0 -30.667 -9.33301 -60.667 -28 -90z" />
    <glyph glyph-name="uni1EAA" unicode="&#x1eaa;" horiz-adv-x="1515" 
d="M1327 0l-220 510h-704l-221 -510h-158l647 1516h170l651 -1516h-165zM757 1343l-297 -696h588zM1221 1987c-71.333 -52.667 -138.001 -79 -200.001 -79c-27.333 0 -55.666 4.33301 -84.999 13c-19.333 5.33301 -44 15 -74 29l-69 28c-25.333 9.33301 -48.333 14 -69 14
c-48 0 -93.667 -20.667 -137 -62l-72 103c61.333 57.333 132.333 86 213 86c26.667 0 54 -4.66699 82 -14c18.667 -5.33301 43 -14.666 73 -28c1.33301 -1.33301 4 -2.66602 8 -4c4 -2 7 -3.33301 9 -4c6.66699 -3.33301 12.334 -6 17.001 -8l33 -13
c25.333 -8.66699 48.333 -13 69 -13c21.333 0 43.666 5.66699 66.999 17l46 26l16 10zM936.999 1642l-176 150l-180 -150h-186l297 256h135l293 -256h-183z" />
    <glyph glyph-name="uni1EAB" unicode="&#x1eab;" horiz-adv-x="1398" 
d="M1128 0v196.999h-4c-98.667 -149.333 -244 -224 -436 -224c-168.667 0 -311 56.333 -427 169c-116.667 112.667 -175 253 -175 421c0 166.667 59 306.334 177 419.001c116.667 111.333 258.334 167 425.001 167c195.333 0 340.666 -75 435.999 -225h4v196h144v-1120h-144
zM1008 882.999c-87.333 91.333 -193.998 137.001 -319.998 137.001c-132.667 0 -242.334 -44 -329.001 -132s-130 -198.333 -130 -331c0 -130.667 43.667 -239.334 131 -326.001c87.333 -86 196.666 -129 327.999 -129c126 0 232.667 45 320 135c86 88.667 129 196 129 322
s-43 234 -129 324zM1123 1674c-72 -53.333 -139 -80.001 -201 -80.001c-27.333 0 -55.666 4.33301 -84.999 13c-19.333 6 -44 15.667 -74 29l-69 29c-25.333 8.66699 -48.333 13 -69 13c-48 0 -93.667 -20.333 -137 -61l-72 102c61.333 57.333 132.333 86 213 86
c26.667 0 54 -4.33301 82 -13c18.667 -6 43 -15.667 73 -29l8 -4c4 -1.33301 7 -2.66602 9 -3.99902l17 -7l33 -14c25.333 -8.66699 48.333 -13 69 -13c21.333 0 43.666 6 66.999 18l47 26l15 9zM881.002 1309l-177 149l-180 -149h-186l297 256h135l293 -256h-182z" />
    <glyph glyph-name="uni1EAC" unicode="&#x1eac;" horiz-adv-x="1515" 
d="M1327 0l-220 510h-704l-221 -510h-158l647 1516h170l651 -1516h-165zM757 1343l-297 -696h588zM682 -385v259h152v-259h-152zM937 1642l-176 150l-180 -150h-186l297 256h135l293 -256h-183z" />
    <glyph glyph-name="uni1EAD" unicode="&#x1ead;" horiz-adv-x="1398" 
d="M1128 0v196.999h-4c-98.667 -149.333 -244 -224 -436 -224c-168.667 0 -311 56.333 -427 169c-116.667 112.667 -175 253 -175 421c0 166.667 59 306.334 177 419.001c116.667 111.333 258.334 167 425.001 167c195.333 0 340.666 -75 435.999 -225h4v196h144v-1120h-144
zM1008 882.999c-87.333 91.333 -193.998 137.001 -319.998 137.001c-132.667 0 -242.334 -44 -329.001 -132s-130 -198.333 -130 -331c0 -130.667 43.667 -239.334 131 -326.001c87.333 -86 196.666 -129 327.999 -129c126 0 232.667 45 320 135c86 88.667 129 196 129 322
s-43 234 -129 324zM603.002 -385v259h152v-259h-152zM881.002 1309l-177 149l-180 -149h-186l297 256h135l293 -256h-182z" />
    <glyph glyph-name="uni1EAE" unicode="&#x1eae;" horiz-adv-x="1515" 
d="M1327 0l-220 510h-704l-221 -510h-158l647 1516h170l651 -1516h-165zM757 1343l-297 -696h588zM773 1803l-68 118l408 224l65 -123zM1116 1823c-26.667 -74 -74 -129 -142 -165c-59.333 -30.667 -131.333 -46 -216 -46c-85.333 0 -157 15.333 -215 46
c-67.333 35.333 -114.666 90.333 -141.999 165h134c46 -62.667 120.333 -94 223 -94c45.333 0 86.666 7 123.999 21c43.333 16 77 40.333 101 73h133z" />
    <glyph glyph-name="uni1EAF" unicode="&#x1eaf;" horiz-adv-x="1398" 
d="M1128 0v196.999h-4c-98.667 -149.333 -244 -224 -436 -224c-168.667 0 -311 56.333 -427 169c-116.667 112.667 -175 253 -175 421c0 166.667 59 306.334 177 419.001c116.667 111.333 258.334 167 425.001 167c195.333 0 340.666 -75 435.999 -225h4v196h144v-1120h-144
zM1008 882.999c-87.333 91.333 -193.998 137.001 -319.998 137.001c-132.667 0 -242.334 -44 -329.001 -132s-130 -198.333 -130 -331c0 -130.667 43.667 -239.334 131 -326.001c87.333 -86 196.666 -129 327.999 -129c126 0 232.667 45 320 135c86 88.667 129 196 129 322
s-43 234 -129 324zM703.002 1478l-68 118l408 224l65 -123zM1068 1491c-27.333 -74 -74.999 -129 -142.999 -165c-58.667 -30.667 -130.667 -46 -216 -46c-84.667 0 -156.334 15.333 -215.001 46c-67.333 35.333 -114.333 90.333 -141 165h133
c46 -62.667 120.333 -94 223 -94c45.333 0 87 7 125 21c43.333 16 77 40.333 101 73h133z" />
    <glyph glyph-name="uni1EB0" unicode="&#x1eb0;" horiz-adv-x="1515" 
d="M1327 0l-220 510h-704l-221 -510h-158l647 1516h170l651 -1516h-165zM757 1343l-297 -696h588zM856 1863l-406 219l66 123l408 -224zM1116 1823c-26.667 -74 -74 -129 -142 -165c-59.333 -30.667 -131.333 -46 -216 -46c-85.333 0 -157 15.333 -215 46
c-67.333 35.333 -114.666 90.333 -141.999 165h134c46 -62.667 120.333 -94 223 -94c45.333 0 86.666 7 123.999 21c43.333 16 77 40.333 101 73h133z" />
    <glyph glyph-name="uni1EB1" unicode="&#x1eb1;" horiz-adv-x="1398" 
d="M1128 0v196.999h-4c-98.667 -149.333 -244 -224 -436 -224c-168.667 0 -311 56.333 -427 169c-116.667 112.667 -175 253 -175 421c0 166.667 59 306.334 177 419.001c116.667 111.333 258.334 167 425.001 167c195.333 0 340.666 -75 435.999 -225h4v196h144v-1120h-144
zM1008 882.999c-87.333 91.333 -193.998 137.001 -319.998 137.001c-132.667 0 -242.334 -44 -329.001 -132s-130 -198.333 -130 -331c0 -130.667 43.667 -239.334 131 -326.001c87.333 -86 196.666 -129 327.999 -129c126 0 232.667 45 320 135c86 88.667 129 196 129 322
s-43 234 -129 324zM820.002 1539l-405 219l65 123l408 -224zM1068 1491c-27.333 -74 -74.999 -129 -142.999 -165c-58.667 -30.667 -130.667 -46 -216 -46c-84.667 0 -156.334 15.333 -215.001 46c-67.333 35.333 -114.333 90.333 -141 165h133
c46 -62.667 120.333 -94 223 -94c45.333 0 87 7 125 21c43.333 16 77 40.333 101 73h133z" />
    <glyph glyph-name="uni1EB2" unicode="&#x1eb2;" horiz-adv-x="1515" 
d="M1327 0l-220 510h-704l-221 -510h-158l647 1516h170l651 -1516h-165zM757 1343l-297 -696h588zM954 2045c-4.66699 -7.33301 -12.333 -16.667 -23 -28l-13 -14l-41 -40c-8 -9.33301 -15.667 -19.333 -23 -30c-12 -18 -19 -47 -21 -87h-127v27c0 34 9.33301 67 28 99
c5.33301 9.33301 14.333 21.333 27 36c5.33301 6 14 14.667 26 26l27 26c8.66699 9.33301 16.667 18.666 24 28c10.667 14.667 16 31 16 49c0 28 -8.66699 50 -26 66c-19.333 18 -39.666 27 -60.999 27c-30.667 0 -55.334 -14 -74.001 -42c-6.66699 -10 -11 -21.333 -13 -34
c-1.33301 -7.33301 -2 -27.666 -2 -61h-129v39c0 54 22.333 102 67 144c41.333 38 92.333 57 153 57c62 0 112.333 -18.667 151 -56c41.333 -40.667 62 -88 62 -142c0 -30.667 -9.33301 -60.667 -28 -90zM1116 1823c-26.667 -74 -74 -129 -142 -165
c-59.333 -30.667 -131.333 -46 -216 -46c-85.333 0 -157 15.333 -215 46c-67.333 35.333 -114.666 90.333 -141.999 165h134c46 -62.667 120.333 -94 223 -94c45.333 0 86.666 7 123.999 21c43.333 16 77 40.333 101 73h133z" />
    <glyph glyph-name="uni1EB3" unicode="&#x1eb3;" horiz-adv-x="1398" 
d="M1128 0v196.999h-4c-98.667 -149.333 -244 -224 -436 -224c-168.667 0 -311 56.333 -427 169c-116.667 112.667 -175 253 -175 421c0 166.667 59 306.334 177 419.001c116.667 111.333 258.334 167 425.001 167c195.333 0 340.666 -75 435.999 -225h4v196h144v-1120h-144
zM1008 882.999c-87.333 91.333 -193.998 137.001 -319.998 137.001c-132.667 0 -242.334 -44 -329.001 -132s-130 -198.333 -130 -331c0 -130.667 43.667 -239.334 131 -326.001c87.333 -86 196.666 -129 327.999 -129c126 0 232.667 45 320 135c86 88.667 129 196 129 322
s-43 234 -129 324zM906.002 1703c-4.66699 -7.33301 -12.333 -16.667 -23 -28l-13 -14l-41 -40c-8 -9.33301 -15.667 -19.333 -23 -30c-12 -18 -19 -47 -21 -87h-127v27c0 34 9.33301 67 28 99c5.33301 9.33301 14.333 21.333 27 36c5.33301 6 14 14.667 26 26l27 26
c8.66699 9.33301 16.667 18.666 24 27.999c10.667 14.667 16 31 16 49c0 28 -8.66699 50 -26 66c-19.333 18 -39.666 27 -60.999 27c-30.667 0 -55.334 -14 -74.001 -42c-6.66699 -10 -11 -21.333 -13 -34c-1.33301 -7.33301 -2 -27.666 -2 -60.999h-129v39
c0 54 22.333 102 67 144c41.333 38 92.333 57 153 57c62 0 112.333 -18.667 151 -56c41.333 -40.667 62 -88 62 -142c0 -30.667 -9.33301 -60.667 -28 -90zM1068 1491c-27.333 -74 -74.999 -129 -142.999 -165c-58.667 -30.667 -130.667 -46 -216 -46
c-84.667 0 -156.334 15.333 -215.001 46c-67.333 35.333 -114.333 90.333 -141 165h133c46 -62.667 120.333 -94 223 -94c45.333 0 87 7 125 21c43.333 16 77 40.333 101 73h133z" />
    <glyph glyph-name="uni1EB4" unicode="&#x1eb4;" horiz-adv-x="1515" 
d="M1327 0l-220 510h-704l-221 -510h-158l647 1516h170l651 -1516h-165zM757 1343l-297 -696h588zM1221 1987c-71.333 -52.667 -138.001 -79 -200.001 -79c-27.333 0 -55.666 4.33301 -84.999 13c-19.333 5.33301 -44 15 -74 29l-69 28c-25.333 9.33301 -48.333 14 -69 14
c-48 0 -93.667 -20.667 -137 -62l-72 103c61.333 57.333 132.333 86 213 86c26.667 0 54 -4.66699 82 -14c18.667 -5.33301 43 -14.666 73 -28c1.33301 -1.33301 4 -2.66602 8 -4c4 -2 7 -3.33301 9 -4c6.66699 -3.33301 12.334 -6 17.001 -8l33 -13
c25.333 -8.66699 48.333 -13 69 -13c21.333 0 43.666 5.66699 66.999 17l46 26l16 10zM1116 1823c-26.667 -74 -74 -129 -142 -165c-59.333 -30.667 -131.333 -46 -216 -46c-85.333 0 -157 15.333 -215 46c-67.333 35.333 -114.666 90.333 -141.999 165h134
c46 -62.667 120.333 -94 223 -94c45.333 0 86.666 7 123.999 21c43.333 16 77 40.333 101 73h133z" />
    <glyph glyph-name="uni1EB5" unicode="&#x1eb5;" horiz-adv-x="1398" 
d="M1128 0v196.999h-4c-98.667 -149.333 -244 -224 -436 -224c-168.667 0 -311 56.333 -427 169c-116.667 112.667 -175 253 -175 421c0 166.667 59 306.334 177 419.001c116.667 111.333 258.334 167 425.001 167c195.333 0 340.666 -75 435.999 -225h4v196h144v-1120h-144
zM1008 882.999c-87.333 91.333 -193.998 137.001 -319.998 137.001c-132.667 0 -242.334 -44 -329.001 -132s-130 -198.333 -130 -331c0 -130.667 43.667 -239.334 131 -326.001c87.333 -86 196.666 -129 327.999 -129c126 0 232.667 45 320 135c86 88.667 129 196 129 322
s-43 234 -129 324zM1123 1674c-72 -53.333 -139 -80.001 -201 -80.001c-27.333 0 -55.666 4.33301 -84.999 13c-19.333 6 -44 15.667 -74 29l-69 29c-25.333 8.66699 -48.333 13 -69 13c-48 0 -93.667 -20.333 -137 -61l-72 102c61.333 57.333 132.333 86 213 86
c26.667 0 54 -4.33301 82 -13c18.667 -6 43 -15.667 73 -29l8 -4c4 -1.33301 7 -2.66602 9 -3.99902l17 -7l33 -14c25.333 -8.66699 48.333 -13 69 -13c21.333 0 43.666 6 66.999 18l47 26l15 9zM1068 1491c-27.333 -74 -74.999 -129 -142.999 -165
c-58.667 -30.667 -130.667 -46 -216 -46c-84.667 0 -156.334 15.333 -215.001 46c-67.333 35.333 -114.333 90.333 -141 165h133c46 -62.667 120.333 -94 223 -94c45.333 0 87 7 125 21c43.333 16 77 40.333 101 73h133z" />
    <glyph glyph-name="uni1EB6" unicode="&#x1eb6;" horiz-adv-x="1515" 
d="M1327 0l-220 510h-704l-221 -510h-158l647 1516h170l651 -1516h-165zM757 1343l-297 -696h588zM682 -385v259h152v-259h-152zM1116 1823c-26.667 -74 -74 -129 -142 -165c-59.333 -30.667 -131.333 -46 -216 -46c-85.333 0 -157 15.333 -215 46
c-67.333 35.333 -114.666 90.333 -141.999 165h134c46 -62.667 120.333 -94 223 -94c45.333 0 86.666 7 123.999 21c43.333 16 77 40.333 101 73h133z" />
    <glyph glyph-name="uni1EB7" unicode="&#x1eb7;" horiz-adv-x="1398" 
d="M1128 0v196.999h-4c-98.667 -149.333 -244 -224 -436 -224c-168.667 0 -311 56.333 -427 169c-116.667 112.667 -175 253 -175 421c0 166.667 59 306.334 177 419.001c116.667 111.333 258.334 167 425.001 167c195.333 0 340.666 -75 435.999 -225h4v196h144v-1120h-144
zM1008 882.999c-87.333 91.333 -193.998 137.001 -319.998 137.001c-132.667 0 -242.334 -44 -329.001 -132s-130 -198.333 -130 -331c0 -130.667 43.667 -239.334 131 -326.001c87.333 -86 196.666 -129 327.999 -129c126 0 232.667 45 320 135c86 88.667 129 196 129 322
s-43 234 -129 324zM603.002 -385v259h152v-259h-152zM1068 1491c-27.333 -74 -74.999 -129 -142.999 -165c-58.667 -30.667 -130.667 -46 -216 -46c-84.667 0 -156.334 15.333 -215.001 46c-67.333 35.333 -114.333 90.333 -141 165h133c46 -62.667 120.333 -94 223 -94
c45.333 0 87 7 125 21c43.333 16 77 40.333 101 73h133z" />
    <glyph glyph-name="uni1EB8" unicode="&#x1eb8;" horiz-adv-x="1097" 
d="M143 0v1516h829v-138h-677v-544h655v-138h-655v-559h677v-137h-829zM482 -385v259h152v-259h-152z" />
    <glyph glyph-name="uni1EB9" unicode="&#x1eb9;" horiz-adv-x="1331" 
d="M1244 508h-1020c5.33301 -110 51.666 -205.333 138.999 -286c86.667 -80 185.334 -120 296.001 -120c88 0 168.667 23.333 242 70c76 48.667 129 113.667 159 195h152c-41.333 -117.333 -112.666 -212.333 -213.999 -285s-213.666 -109 -336.999 -109
c-161.333 0 -299.333 57.667 -414 173c-113.333 114 -170 251.667 -170 413c0 160.667 56.667 299 170 415c114.667 116.667 252 175 412 175c162.667 0 301.334 -59.667 416.001 -179c114 -118 171 -258.333 171 -421zM1099 637c-18.667 110.667 -68.334 202 -149.001 274
c-81.333 72.667 -177.666 109 -288.999 109c-110.667 0 -207 -36.333 -289 -109c-80.667 -72 -130 -163.333 -148 -274h875zM585.997 -385v259h152v-259h-152z" />
    <glyph glyph-name="uni1EBA" unicode="&#x1eba;" horiz-adv-x="1097" 
d="M143 0v1516h829v-138h-677v-544h655v-138h-655v-559h677v-137h-829zM744 1794c-4.66699 -7.33301 -12.333 -16.667 -23 -28l-13 -14l-41 -40c-8 -9.33301 -15.667 -19.333 -23 -30c-12 -18 -19 -47 -21 -87h-127v27c0 34 9.33301 67 28 99
c5.33301 9.33301 14.333 21.333 27 36c5.33301 6 14 14.667 26 26l27 26c8.66699 9.33301 16.667 18.666 24 27.999c10.667 14.667 16 31 16 49c0 28 -8.66699 50 -26 66c-19.333 18 -39.666 27 -60.999 27c-30.667 0 -55.334 -14 -74.001 -42
c-6.66699 -10 -11 -21.333 -13 -34c-1.33301 -7.33301 -2 -27.666 -2 -60.999h-129v39c0 54 22.333 102 67 144c41.333 38 92.333 57 153 57c62 0 112.333 -18.667 151 -56c41.333 -40.667 62 -88 62 -142c0 -30.667 -9.33301 -60.667 -28 -90z" />
    <glyph glyph-name="uni1EBB" unicode="&#x1ebb;" horiz-adv-x="1331" 
d="M1244 508h-1020c5.33301 -110 51.666 -205.333 138.999 -286c86.667 -80 185.334 -120 296.001 -120c88 0 168.667 23.333 242 70c76 48.667 129 113.667 159 195h152c-41.333 -117.333 -112.666 -212.333 -213.999 -285s-213.666 -109 -336.999 -109
c-161.333 0 -299.333 57.667 -414 173c-113.333 114 -170 251.667 -170 413c0 160.667 56.667 299 170 415c114.667 116.667 252 175 412 175c162.667 0 301.334 -59.667 416.001 -179c114 -118 171 -258.333 171 -421zM1099 637c-18.667 110.667 -68.334 202 -149.001 274
c-81.333 72.667 -177.666 109 -288.999 109c-110.667 0 -207 -36.333 -289 -109c-80.667 -72 -130 -163.333 -148 -274h875zM834.997 1442c-4.66699 -7.33301 -12.333 -16.667 -23 -28l-13 -14l-41 -40c-8 -9.33301 -15.667 -19.333 -23 -30c-12 -18 -19 -47 -21 -87h-127
v27c0 34 9.33301 67 28 99c5.33301 9.33301 14.333 21.333 27 36c5.33301 6 14 14.667 26 26l27 26c8.66699 9.33301 16.667 18.666 24 27.999c10.667 14.667 16 31 16 49c0 28 -8.66699 50 -26 66c-19.333 18 -39.666 27 -60.999 27c-30.667 0 -55.334 -14 -74.001 -42
c-6.66699 -10 -11 -21.333 -13 -34c-1.33301 -7.33301 -2 -27.666 -2 -60.999h-129v39c0 54 22.333 102 67 144c41.333 38 92.333 57 153 57c62 0 112.333 -18.667 151 -56c41.333 -40.667 62 -88 62 -142c0 -30.667 -9.33301 -60.667 -28 -90z" />
    <glyph glyph-name="uni1EBC" unicode="&#x1ebc;" horiz-adv-x="1097" 
d="M143 0v1516h829v-138h-677v-544h655v-138h-655v-559h677v-137h-829zM930 1726c-71.333 -52.667 -138.001 -79.002 -200.001 -79.002c-27.333 0 -55.666 4.33301 -84.999 13c-19.333 5.33301 -44 15 -74 29l-69 28c-25.333 9.33301 -48.333 14 -69 14
c-48 0 -93.667 -20.667 -137 -62l-72 103c61.333 57.333 132.333 86 213 86c26.667 0 54 -4.66699 82 -14c18.667 -5.33301 43 -14.666 73 -27.999c1.33301 -1.33301 4 -2.66602 8 -3.99902c4 -2 7 -3.33301 9 -4c6.66699 -3.33301 12.334 -6 17.001 -8l33 -13
c25.333 -8.66699 48.333 -13 69 -13c21.333 0 43.666 5.66699 66.999 17l46 26l16 10z" />
    <glyph glyph-name="uni1EBD" unicode="&#x1ebd;" horiz-adv-x="1331" 
d="M1244 508h-1020c5.33301 -110 51.666 -205.333 138.999 -286c86.667 -80 185.334 -120 296.001 -120c88 0 168.667 23.333 242 70c76 48.667 129 113.667 159 195h152c-41.333 -117.333 -112.666 -212.333 -213.999 -285s-213.666 -109 -336.999 -109
c-161.333 0 -299.333 57.667 -414 173c-113.333 114 -170 251.667 -170 413c0 160.667 56.667 299 170 415c114.667 116.667 252 175 412 175c162.667 0 301.334 -59.667 416.001 -179c114 -118 171 -258.333 171 -421zM1099 637c-18.667 110.667 -68.334 202 -149.001 274
c-81.333 72.667 -177.666 109 -288.999 109c-110.667 0 -207 -36.333 -289 -109c-80.667 -72 -130 -163.333 -148 -274h875zM1015 1413c-72 -53.333 -139.003 -80.001 -201.003 -80.001c-27.333 0 -55.666 4.33301 -84.999 13c-19.333 6 -44 15.667 -74 29l-69 29
c-25.333 8.66699 -48.333 13 -69 13c-48 0 -93.667 -20.333 -137 -61l-72 102c62 57.333 133 86 213 86c26.667 0 54.334 -4.33301 83.001 -13c18.667 -6 42.667 -15.667 72 -29c2 -0.666992 5 -2 9 -4c3.33301 -1.33301 6 -2.66602 8 -3.99902l17 -7l34 -14
c24.667 -8.66699 47.334 -13 68.001 -13c21.333 0 44 6 68 18l46 26l15 9z" />
    <glyph glyph-name="uni1EBE" unicode="&#x1ebe;" horiz-adv-x="1097" 
d="M143 0v1516h829v-138h-677v-544h655v-138h-655v-559h677v-137h-829zM814 1793l-68 118l408 224l65 -123zM729 1642l-176 150l-181 -150h-186l297 256h135l293 -256h-182z" />
    <glyph glyph-name="uni1EBF" unicode="&#x1ebf;" horiz-adv-x="1331" 
d="M1244 508h-1020c5.33301 -110 51.666 -205.333 138.999 -286c86.667 -80 185.334 -120 296.001 -120c88 0 168.667 23.333 242 70c76 48.667 129 113.667 159 195h152c-41.333 -117.333 -112.666 -212.333 -213.999 -285s-213.666 -109 -336.999 -109
c-161.333 0 -299.333 57.667 -414 173c-113.333 114 -170 251.667 -170 413c0 160.667 56.667 299 170 415c114.667 116.667 252 175 412 175c162.667 0 301.334 -59.667 416.001 -179c114 -118 171 -258.333 171 -421zM1099 637c-18.667 110.667 -68.334 202 -149.001 274
c-81.333 72.667 -177.666 109 -288.999 109c-110.667 0 -207 -36.333 -289 -109c-80.667 -72 -130 -163.333 -148 -274h875zM920.997 1459l-67 118l407 224l66 -123zM844.997 1309l-176 149l-180 -149h-187l297 256h135l293 -256h-182z" />
    <glyph glyph-name="uni1EC0" unicode="&#x1ec0;" horiz-adv-x="1097" 
d="M143 0v1516h829v-138h-677v-544h655v-138h-655v-559h677v-137h-829zM779 1853l-405 219l65 123l408 -224zM729 1642l-176 150l-181 -150h-186l297 256h135l293 -256h-182z" />
    <glyph glyph-name="uni1EC1" unicode="&#x1ec1;" horiz-adv-x="1331" 
d="M1244 508h-1020c5.33301 -110 51.666 -205.333 138.999 -286c86.667 -80 185.334 -120 296.001 -120c88 0 168.667 23.333 242 70c76 48.667 129 113.667 159 195h152c-41.333 -117.333 -112.666 -212.333 -213.999 -285s-213.666 -109 -336.999 -109
c-161.333 0 -299.333 57.667 -414 173c-113.333 114 -170 251.667 -170 413c0 160.667 56.667 299 170 415c114.667 116.667 252 175 412 175c162.667 0 301.334 -59.667 416.001 -179c114 -118 171 -258.333 171 -421zM1099 637c-18.667 110.667 -68.334 202 -149.001 274
c-81.333 72.667 -177.666 109 -288.999 109c-110.667 0 -207 -36.333 -289 -109c-80.667 -72 -130 -163.333 -148 -274h875zM914.997 1539l-406 219l66 123l407 -224zM844.997 1309l-176 149l-180 -149h-187l297 256h135l293 -256h-182z" />
    <glyph glyph-name="uni1EC2" unicode="&#x1ec2;" horiz-adv-x="1097" 
d="M143 0v1516h829v-138h-677v-544h655v-138h-655v-559h677v-137h-829zM974 2045c-4.66699 -7.33301 -12.333 -16.667 -23 -28l-13 -14l-41 -40c-8 -9.33301 -15.667 -19.333 -23 -30c-12 -18 -19 -47 -21 -87h-127v27c0 34 9.33301 67 28 99
c5.33301 9.33301 14.333 21.333 27 36c5.33301 6 14 14.667 26 26l27 26c8.66699 9.33301 16.667 18.666 24 28c10.667 14.667 16 31 16 49c0 28 -8.66699 50 -26 66c-19.333 18 -39.666 27 -60.999 27c-30.667 0 -55.334 -14 -74.001 -42c-6.66699 -10 -11 -21.333 -13 -34
c-1.33301 -7.33301 -2 -27.666 -2 -61h-129v39c0 54 22.333 102 67 144c41.333 38 92.333 57 153 57c62 0 112.333 -18.667 151 -56c41.333 -40.667 62 -88 62 -142c0 -30.667 -9.33301 -60.667 -28 -90zM729.001 1642l-176 150l-181 -150h-186l297 256h135l293 -256h-182z
" />
    <glyph glyph-name="uni1EC3" unicode="&#x1ec3;" horiz-adv-x="1331" 
d="M1244 508h-1020c5.33301 -110 51.666 -205.333 138.999 -286c86.667 -80 185.334 -120 296.001 -120c88 0 168.667 23.333 242 70c76 48.667 129 113.667 159 195h152c-41.333 -117.333 -112.666 -212.333 -213.999 -285s-213.666 -109 -336.999 -109
c-161.333 0 -299.333 57.667 -414 173c-113.333 114 -170 251.667 -170 413c0 160.667 56.667 299 170 415c114.667 116.667 252 175 412 175c162.667 0 301.334 -59.667 416.001 -179c114 -118 171 -258.333 171 -421zM1099 637c-18.667 110.667 -68.334 202 -149.001 274
c-81.333 72.667 -177.666 109 -288.999 109c-110.667 0 -207 -36.333 -289 -109c-80.667 -72 -130 -163.333 -148 -274h875zM1096 1713c-4.66699 -7.33301 -12.333 -16.667 -23 -28l-13 -14l-41 -40c-8 -9.33301 -15.667 -19.333 -23 -30c-12 -18 -19 -47 -21 -87h-127v27
c0 34 9.33301 67 28 99c5.33301 9.33301 14.333 21.333 27 36c5.33301 6 14 14.667 26 26l27 26c8.66699 9.33301 16.667 18.666 24 27.999c10.667 14.667 16 31 16 49c0 28 -8.66699 50 -26 66c-19.333 18 -39.666 27 -60.999 27c-30.667 0 -55.334 -14 -74.001 -42
c-6.66699 -10 -11 -21.333 -13 -34c-1.33301 -7.33301 -2 -27.666 -2 -60.999h-129v39c0 54 22.333 102 67 144c41.333 38 92.333 57 153 57c62 0 112.333 -18.667 151 -56c41.333 -40.667 62 -88 62 -142c0 -30.667 -9.33301 -60.667 -28 -90zM844.998 1309l-176 149
l-180 -149h-187l297 256h135l293 -256h-182z" />
    <glyph glyph-name="uni1EC4" unicode="&#x1ec4;" horiz-adv-x="1097" 
d="M143 0v1516h829v-138h-677v-544h655v-138h-655v-559h677v-137h-829zM1001 1977c-71.333 -52.667 -138.001 -79 -200.001 -79c-27.333 0 -55.666 4.33301 -84.999 13c-19.333 5.33301 -44 15 -74 29l-69 28c-25.333 9.33301 -48.333 14 -69 14
c-48 0 -93.667 -20.667 -137 -62l-72 103c61.333 57.333 132.333 86 213 86c26.667 0 54 -4.66699 82 -14c18.667 -5.33301 43 -14.666 73 -28c1.33301 -1.33301 4 -2.66602 8 -4c4 -2 7 -3.33301 9 -4c6.66699 -3.33301 12.334 -6 17.001 -8l33 -13
c25.333 -8.66699 48.333 -13 69 -13c21.333 0 43.666 5.66699 66.999 17l46 26l16 10zM728.999 1642l-176 150l-181 -150h-186l297 256h135l293 -256h-182z" />
    <glyph glyph-name="uni1EC5" unicode="&#x1ec5;" horiz-adv-x="1331" 
d="M1244 508h-1020c5.33301 -110 51.666 -205.333 138.999 -286c86.667 -80 185.334 -120 296.001 -120c88 0 168.667 23.333 242 70c76 48.667 129 113.667 159 195h152c-41.333 -117.333 -112.666 -212.333 -213.999 -285s-213.666 -109 -336.999 -109
c-161.333 0 -299.333 57.667 -414 173c-113.333 114 -170 251.667 -170 413c0 160.667 56.667 299 170 415c114.667 116.667 252 175 412 175c162.667 0 301.334 -59.667 416.001 -179c114 -118 171 -258.333 171 -421zM1099 637c-18.667 110.667 -68.334 202 -149.001 274
c-81.333 72.667 -177.666 109 -288.999 109c-110.667 0 -207 -36.333 -289 -109c-80.667 -72 -130 -163.333 -148 -274h875zM1135 1663c-72 -53.333 -139.003 -80.001 -201.003 -80.001c-27.333 0 -55.666 4.33301 -84.999 13c-19.333 6 -44 15.667 -74 29l-69 29
c-25.333 8.66699 -48.333 13 -69 13c-48 0 -93.667 -20.333 -137 -61l-72 102c62 57.333 133 86 213 86c26.667 0 54.334 -4.33301 83.001 -13c18.667 -6 42.667 -15.667 72 -29c2 -0.666992 5 -2 9 -4c3.33301 -1.33301 6 -2.66602 8 -3.99902l17 -7l34 -14
c24.667 -8.66699 47.334 -13 68.001 -13c21.333 0 44 6 68 18l46 26l15 9zM844.994 1309l-176 149l-180 -149h-187l297 256h135l293 -256h-182z" />
    <glyph glyph-name="uni1EC6" unicode="&#x1ec6;" horiz-adv-x="1097" 
d="M143 0v1516h829v-138h-677v-544h655v-138h-655v-559h677v-137h-829zM482 -385v259h152v-259h-152zM729 1642l-176 150l-181 -150h-186l297 256h135l293 -256h-182z" />
    <glyph glyph-name="uni1EC7" unicode="&#x1ec7;" horiz-adv-x="1331" 
d="M1244 508h-1020c5.33301 -110 51.666 -205.333 138.999 -286c86.667 -80 185.334 -120 296.001 -120c88 0 168.667 23.333 242 70c76 48.667 129 113.667 159 195h152c-41.333 -117.333 -112.666 -212.333 -213.999 -285s-213.666 -109 -336.999 -109
c-161.333 0 -299.333 57.667 -414 173c-113.333 114 -170 251.667 -170 413c0 160.667 56.667 299 170 415c114.667 116.667 252 175 412 175c162.667 0 301.334 -59.667 416.001 -179c114 -118 171 -258.333 171 -421zM1099 637c-18.667 110.667 -68.334 202 -149.001 274
c-81.333 72.667 -177.666 109 -288.999 109c-110.667 0 -207 -36.333 -289 -109c-80.667 -72 -130 -163.333 -148 -274h875zM585.997 -385v259h152v-259h-152zM844.997 1309l-176 149l-180 -149h-187l297 256h135l293 -256h-182z" />
    <glyph glyph-name="uni1EC8" unicode="&#x1ec8;" horiz-adv-x="462" 
d="M155 0v1516h151v-1516h-151zM422 1794c-4.66699 -7.33301 -12.333 -16.667 -23 -28l-13 -14l-41 -40c-8 -9.33301 -15.667 -19.333 -23 -30c-12 -18 -19 -47 -21 -87h-127v27c0 34 9.33301 67 28 99c5.33301 9.33301 14.333 21.333 27 36c5.33301 6 14 14.667 26 26
l27 26c8.66699 9.33301 16.667 18.666 24 27.999c10.667 14.667 16 31 16 49c0 28 -8.66699 50 -26 66c-19.333 18 -39.666 27 -60.999 27c-30.667 0 -55.334 -14 -74.001 -42c-6.66699 -10 -11 -21.333 -13 -34c-1.33301 -7.33301 -2 -27.666 -2 -60.999h-129v39
c0 54 22.333 102 67 144c41.333 38 92.333 57 153 57c62 0 112.333 -18.667 151 -56c41.333 -40.667 62 -88 62 -142c0 -30.667 -9.33301 -60.667 -28 -90z" />
    <glyph glyph-name="uni1EC9" unicode="&#x1ec9;" horiz-adv-x="409" 
d="M133 0v1120h144v-1120h-144zM384 1442c-4.66699 -7.33301 -12.333 -16.667 -23 -28l-13 -14l-41 -40c-8 -9.33301 -15.667 -19.333 -23 -30c-12 -18 -19 -47 -21 -87h-127v27c0 34 9.33301 67 28 99c5.33301 9.33301 14.333 21.333 27 36c5.33301 6 14 14.667 26 26
l27 26c8.66699 9.33301 16.667 18.666 24 27.999c10.667 14.667 16 31 16 49c0 28 -8.66699 50 -26 66c-19.333 18 -39.666 27 -60.999 27c-30.667 0 -55.334 -14 -74.001 -42c-6.66699 -10 -11 -21.333 -13 -34c-1.33301 -7.33301 -2 -27.666 -2 -60.999h-129v39
c0 54 22.333 102 67 144c41.333 38 92.333 57 153 57c62 0 112.333 -18.667 151 -56c41.333 -40.667 62 -88 62 -142c0 -30.667 -9.33301 -60.667 -28 -90z" />
    <glyph glyph-name="uni1ECA" unicode="&#x1eca;" horiz-adv-x="462" 
d="M155 0v1516h152v-1516h-152zM160 -385v259h152v-259h-152z" />
    <glyph glyph-name="uni1ECB" unicode="&#x1ecb;" horiz-adv-x="409" 
d="M134 1257v259h143v-259h-143zM134 0v1120h143v-1120h-143zM125 -385v259h152v-259h-152z" />
    <glyph glyph-name="uni1ECC" unicode="&#x1ecc;" horiz-adv-x="1779" 
d="M1452 201c-157.333 -152 -344.999 -228.001 -562.999 -228.001c-214.667 0 -401.334 75.333 -560.001 226c-160.667 153.333 -241 337 -241 551c0 220 78.333 407.333 235 562c156 153.333 344.667 230 566 230c218.667 0 406.667 -76 564 -228
c159.333 -153.333 239 -338.666 239 -555.999s-80 -403 -240 -557zM1348 1214c-128 127.333 -281 191 -459 191c-180 0 -333.333 -64.333 -460 -193c-126 -128.667 -189 -282.667 -189 -462c0 -174.667 64.667 -325 194 -451c128 -125.333 279.667 -188 455 -188
c177.333 0 330 63 458 189c128.667 126 193 278 193 456s-64 330.667 -192 458zM814.001 -385.001v259h152v-259h-152z" />
    <glyph glyph-name="uni1ECD" unicode="&#x1ecd;" 
d="M1084 147c-115.333 -116 -253.333 -174.001 -414 -174.001c-158 0 -294.667 57.333 -410 172c-116 114.667 -174 250.667 -174 408c0 162.667 56.667 302.334 170 419.001c114 118 252 177 414 177c159.333 0 297 -58 413 -174s174 -254 174 -414
c0 -160.667 -57.667 -298.667 -173 -414zM985 884.999c-86.667 90 -191.001 135 -313.001 135c-125.333 0 -231 -46.667 -317 -140c-84 -90.667 -126 -199 -126 -325c0 -122.667 43 -228.667 129 -318c86.667 -90 191.334 -135 314.001 -135c126.667 0 232.667 46 318 138
c82.667 90 124 199 124 327c0 122.667 -43 228.667 -129 318zM595.999 -385.001v259h152v-259h-152z" />
    <glyph glyph-name="uni1ECE" unicode="&#x1ece;" horiz-adv-x="1779" 
d="M1452 201c-157.333 -152 -344.999 -228.001 -562.999 -228.001c-214.667 0 -401.334 75.333 -560.001 226c-160.667 153.333 -241 337 -241 551c0 220 78.333 407.333 235 562c156 153.333 344.667 230 566 230c218.667 0 406.667 -76 564 -228
c159.333 -153.333 239 -338.666 239 -555.999s-80 -403 -240 -557zM1348 1214c-128 127.333 -281 191 -459 191c-180 0 -333.333 -64.333 -460 -193c-126 -128.667 -189 -282.667 -189 -462c0 -174.667 64.667 -325 194 -451c128 -125.333 279.667 -188 455 -188
c177.333 0 330 63 458 189c128.667 126 193 278 193 456s-64 330.667 -192 458zM1078 1794c-4.66699 -7.33301 -12.333 -16.667 -23 -28l-13 -14l-41 -40c-8 -9.33301 -15.667 -19.333 -23 -30c-12 -18 -19 -47 -21 -87h-127v27c0 34 9.33301 67 28 99
c5.33301 9.33301 14.333 21.333 27 36c5.33301 6 14 14.667 26 26l27 26c8.66699 9.33301 16.667 18.666 24 27.999c10.667 14.667 16 31 16 49c0 28 -8.66699 50 -26 66c-19.333 18 -39.666 27 -60.999 27c-30.667 0 -55.334 -14 -74.001 -42
c-6.66699 -10 -11 -21.333 -13 -34c-1.33301 -7.33301 -2 -27.666 -2 -60.999h-129v39c0 54 22.333 102 67 144c41.333 38 92.333 57 153 57c62 0 112.333 -18.667 151 -56c41.333 -40.667 62 -88 62 -142c0 -30.667 -9.33301 -60.667 -28 -90z" />
    <glyph glyph-name="uni1ECF" unicode="&#x1ecf;" 
d="M1084 147c-115.333 -116 -253.333 -174.001 -414 -174.001c-158 0 -294.667 57.333 -410 172c-116 114.667 -174 250.667 -174 408c0 162.667 56.667 302.334 170 419.001c114 118 252 177 414 177c159.333 0 297 -58 413 -174s174 -254 174 -414
c0 -160.667 -57.667 -298.667 -173 -414zM985 884.999c-86.667 90 -191.001 135 -313.001 135c-125.333 0 -231 -46.667 -317 -140c-84 -90.667 -126 -199 -126 -325c0 -122.667 43 -228.667 129 -318c86.667 -90 191.334 -135 314.001 -135c126.667 0 232.667 46 318 138
c82.667 90 124 199 124 327c0 122.667 -43 228.667 -129 318zM865.999 1442c-4.66699 -7.33301 -12.333 -16.667 -23 -28l-13 -14l-41 -40c-8 -9.33301 -15.667 -19.333 -23 -30c-12 -18 -19 -47 -21 -87h-127v27c0 34 9.33301 67 28 99
c5.33301 9.33301 14.333 21.333 27 36c5.33301 6 14 14.667 26 26l27 26c8.66699 9.33301 16.667 18.666 24 27.999c10.667 14.667 16 31 16 49c0 28 -8.66699 50 -26 66c-19.333 18 -39.666 27 -60.999 27c-30.667 0 -55.334 -14 -74.001 -42
c-6.66699 -10 -11 -21.333 -13 -34c-1.33301 -7.33301 -2 -27.666 -2 -60.999h-129v39c0 54 22.333 102 67 144c41.333 38 92.333 57 153 57c62 0 112.333 -18.667 151 -56c41.333 -40.667 62 -88 62 -142c0 -30.667 -9.33301 -60.667 -28 -90z" />
    <glyph glyph-name="uni1ED0" unicode="&#x1ed0;" horiz-adv-x="1779" 
d="M1452 201c-157.333 -152 -344.999 -228.001 -562.999 -228.001c-214.667 0 -401.334 75.333 -560.001 226c-160.667 153.333 -241 337 -241 551c0 220 78.333 407.333 235 562c156 153.333 344.667 230 566 230c218.667 0 406.667 -76 564 -228
c159.333 -153.333 239 -338.666 239 -555.999s-80 -403 -240 -557zM1348 1214c-128 127.333 -281 191 -459 191c-180 0 -333.333 -64.333 -460 -193c-126 -128.667 -189 -282.667 -189 -462c0 -174.667 64.667 -325 194 -451c128 -125.333 279.667 -188 455 -188
c177.333 0 330 63 458 189c128.667 126 193 278 193 456s-64 330.667 -192 458zM1157 1773l-68 118l408 224l66 -123zM1071 1642l-176 150l-180 -150h-187l297 256h136l292 -256h-182z" />
    <glyph glyph-name="uni1ED1" unicode="&#x1ed1;" 
d="M1084 147c-115.333 -116 -253.333 -174.001 -414 -174.001c-158 0 -294.667 57.333 -410 172c-116 114.667 -174 250.667 -174 408c0 162.667 56.667 302.334 170 419.001c114 118 252 177 414 177c159.333 0 297 -58 413 -174s174 -254 174 -414
c0 -160.667 -57.667 -298.667 -173 -414zM985 884.999c-86.667 90 -191.001 135 -313.001 135c-125.333 0 -231 -46.667 -317 -140c-84 -90.667 -126 -199 -126 -325c0 -122.667 43 -228.667 129 -318c86.667 -90 191.334 -135 314.001 -135c126.667 0 232.667 46 318 138
c82.667 90 124 199 124 327c0 122.667 -43 228.667 -129 318zM946.999 1449l-67 118l407 224l66 -123zM851.999 1309l-176 149l-180 -149h-187l297 256h135l293 -256h-182z" />
    <glyph glyph-name="uni1ED2" unicode="&#x1ed2;" horiz-adv-x="1779" 
d="M1452 201c-157.333 -152 -344.999 -228.001 -562.999 -228.001c-214.667 0 -401.334 75.333 -560.001 226c-160.667 153.333 -241 337 -241 551c0 220 78.333 407.333 235 562c156 153.333 344.667 230 566 230c218.667 0 406.667 -76 564 -228
c159.333 -153.333 239 -338.666 239 -555.999s-80 -403 -240 -557zM1348 1214c-128 127.333 -281 191 -459 191c-180 0 -333.333 -64.333 -460 -193c-126 -128.667 -189 -282.667 -189 -462c0 -174.667 64.667 -325 194 -451c128 -125.333 279.667 -188 455 -188
c177.333 0 330 63 458 189c128.667 126 193 278 193 456s-64 330.667 -192 458zM1121 1863l-406 219l66 123l407 -224zM1071 1642l-176 150l-180 -150h-187l297 256h136l292 -256h-182z" />
    <glyph glyph-name="uni1ED3" unicode="&#x1ed3;" 
d="M1084 147c-115.333 -116 -253.333 -174.001 -414 -174.001c-158 0 -294.667 57.333 -410 172c-116 114.667 -174 250.667 -174 408c0 162.667 56.667 302.334 170 419.001c114 118 252 177 414 177c159.333 0 297 -58 413 -174s174 -254 174 -414
c0 -160.667 -57.667 -298.667 -173 -414zM985 884.999c-86.667 90 -191.001 135 -313.001 135c-125.333 0 -231 -46.667 -317 -140c-84 -90.667 -126 -199 -126 -325c0 -122.667 43 -228.667 129 -318c86.667 -90 191.334 -135 314.001 -135c126.667 0 232.667 46 318 138
c82.667 90 124 199 124 327c0 122.667 -43 228.667 -129 318zM930.999 1539l-405 219l66 123l407 -224zM851.999 1309l-176 149l-180 -149h-187l297 256h135l293 -256h-182z" />
    <glyph glyph-name="uni1ED4" unicode="&#x1ed4;" horiz-adv-x="1779" 
d="M1452 201c-157.333 -152 -344.999 -228.001 -562.999 -228.001c-214.667 0 -401.334 75.333 -560.001 226c-160.667 153.333 -241 337 -241 551c0 220 78.333 407.333 235 562c156 153.333 344.667 230 566 230c218.667 0 406.667 -76 564 -228
c159.333 -153.333 239 -338.666 239 -555.999s-80 -403 -240 -557zM1348 1214c-128 127.333 -281 191 -459 191c-180 0 -333.333 -64.333 -460 -193c-126 -128.667 -189 -282.667 -189 -462c0 -174.667 64.667 -325 194 -451c128 -125.333 279.667 -188 455 -188
c177.333 0 330 63 458 189c128.667 126 193 278 193 456s-64 330.667 -192 458zM1309 2055c-4.66699 -7.33301 -12.333 -16.668 -23 -28.001l-13 -14l-41 -40c-8 -9.33301 -15.667 -19.333 -23 -30c-12 -18 -19 -47 -21 -87h-127v27c0 34 9.33301 67 28 99
c5.33301 9.33301 14.333 21.333 27 36c5.33301 6 14 14.667 26 26l27 26c8.66699 9.33301 16.667 18.666 24 28c10.667 14.667 16 31 16 49c0 28 -8.66699 50 -26 66c-19.333 18 -39.666 27 -60.999 27c-30.667 0 -55.334 -14 -74.001 -42c-6.66699 -10 -11 -21.333 -13 -34
c-1.33301 -7.33301 -2 -27.666 -2 -60.999h-129v39c0 54 22.333 102 67 144c41.333 38 92.333 57 153 57c62 0 112.333 -18.667 151 -56c41.333 -40.667 62 -88 62 -142c0 -30.667 -9.33301 -60.667 -28 -90zM1071 1642l-176 150l-180 -150h-187l297 256h135l293 -256h-182z
" />
    <glyph glyph-name="uni1ED5" unicode="&#x1ed5;" 
d="M1084 147c-115.333 -116 -253.333 -174.001 -414 -174.001c-158 0 -294.667 57.333 -410 172c-116 114.667 -174 250.667 -174 408c0 162.667 56.667 302.334 170 419.001c114 118 252 177 414 177c159.333 0 297 -58 413 -174s174 -254 174 -414
c0 -160.667 -57.667 -298.667 -173 -414zM985 884.999c-86.667 90 -191.001 135 -313.001 135c-125.333 0 -231 -46.667 -317 -140c-84 -90.667 -126 -199 -126 -325c0 -122.667 43 -228.667 129 -318c86.667 -90 191.334 -135 314.001 -135c126.667 0 232.667 46 318 138
c82.667 90 124 199 124 327c0 122.667 -43 228.667 -129 318zM1107 1703c-4.66699 -7.33301 -12.333 -16.667 -23 -28l-13 -14l-41 -40c-8 -9.33301 -15.667 -19.333 -23 -30c-12 -18 -19 -47 -21 -87h-127v27c0 34 9.33301 67 28 99c5.33301 9.33301 14.333 21.333 27 36
c5.33301 6 14 14.667 26 26l27 26c8.66699 9.33301 16.667 18.666 24 27.999c10.667 14.667 16 31 16 49c0 28 -8.66699 50 -26 66c-19.333 18 -39.666 27 -60.999 27c-30.667 0 -55.334 -14 -74.001 -42c-6.66699 -10 -11 -21.333 -13 -34
c-1.33301 -7.33301 -2 -27.666 -2 -60.999h-129v39c0 54 22.333 102 67 144c41.333 38 92.333 57 153 57c62 0 112.333 -18.667 151 -56c41.333 -40.667 62 -88 62 -142c0 -30.667 -9.33301 -60.667 -28 -90zM852 1309l-176 149l-180 -149h-187l297 256h135l293 -256h-182z
" />
    <glyph glyph-name="uni1ED6" unicode="&#x1ed6;" horiz-adv-x="1779" 
d="M1452 201c-157.333 -152 -344.999 -228.001 -562.999 -228.001c-214.667 0 -401.334 75.333 -560.001 226c-160.667 153.333 -241 337 -241 551c0 220 78.333 407.333 235 562c156 153.333 344.667 230 566 230c218.667 0 406.667 -76 564 -228
c159.333 -153.333 239 -338.666 239 -555.999s-80 -403 -240 -557zM1348 1214c-128 127.333 -281 191 -459 191c-180 0 -333.333 -64.333 -460 -193c-126 -128.667 -189 -282.667 -189 -462c0 -174.667 64.667 -325 194 -451c128 -125.333 279.667 -188 455 -188
c177.333 0 330 63 458 189c128.667 126 193 278 193 456s-64 330.667 -192 458zM1354 1997c-72 -52.667 -139.003 -79.001 -201.003 -79.001c-27.333 0 -55.666 4.33301 -84.999 13c-19.333 5.33301 -44 15 -74 29l-69 28c-24.667 9.33301 -47.667 14 -69 14
c-48 0 -93.667 -20.667 -137 -62l-71 103c61.333 57.333 132.333 86 213 86c26 0 53.333 -4.66699 82 -14c18.667 -5.33301 42.667 -14.666 72 -28c2 -1.33301 5 -2.66602 9 -3.99902c3.33301 -2 6 -3.33301 8 -4c6.66699 -3.33301 12.334 -6 17.001 -8l34 -13
c24.667 -8.66699 47.334 -13 68.001 -13c21.333 0 44 5.66699 68 17l46 26l15 10zM1071 1642l-176 150l-180 -150h-187l297 256h136l292 -256h-182z" />
    <glyph glyph-name="uni1ED7" unicode="&#x1ed7;" 
d="M1084 147c-115.333 -116 -253.333 -174.001 -414 -174.001c-158 0 -294.667 57.333 -410 172c-116 114.667 -174 250.667 -174 408c0 162.667 56.667 302.334 170 419.001c114 118 252 177 414 177c159.333 0 297 -58 413 -174s174 -254 174 -414
c0 -160.667 -57.667 -298.667 -173 -414zM985 884.999c-86.667 90 -191.001 135 -313.001 135c-125.333 0 -231 -46.667 -317 -140c-84 -90.667 -126 -199 -126 -325c0 -122.667 43 -228.667 129 -318c86.667 -90 191.334 -135 314.001 -135c126.667 0 232.667 46 318 138
c82.667 90 124 199 124 327c0 122.667 -43 228.667 -129 318zM1114 1663c-72 -53.333 -139.003 -80.001 -201.003 -80.001c-27.333 0 -55.666 4.33301 -84.999 13c-19.333 6 -44 15.667 -74 29l-69 29c-25.333 8.66699 -48.333 13 -69 13c-48 0 -93.667 -20.333 -137 -61
l-72 102c62 57.333 133 86 213 86c26.667 0 54.334 -4.33301 83.001 -13c18.667 -6 42.667 -15.667 72 -29c2 -0.666992 5 -2 9 -4c3.33301 -1.33301 6 -2.66602 8 -3.99902l17 -7l34 -14c24.667 -8.66699 47.334 -13 68.001 -13c21.333 0 44 6 68 18l46 26l15 9z
M851.996 1309l-176 149l-180 -149h-187l297 256h135l293 -256h-182z" />
    <glyph glyph-name="uni1ED8" unicode="&#x1ed8;" horiz-adv-x="1779" 
d="M1452 201c-157.333 -152 -344.999 -228.001 -562.999 -228.001c-214.667 0 -401.334 75.333 -560.001 226c-160.667 153.333 -241 337 -241 551c0 220 78.333 407.333 235 562c156 153.333 344.667 230 566 230c218.667 0 406.667 -76 564 -228
c159.333 -153.333 239 -338.666 239 -555.999s-80 -403 -240 -557zM1348 1214c-128 127.333 -281 191 -459 191c-180 0 -333.333 -64.333 -460 -193c-126 -128.667 -189 -282.667 -189 -462c0 -174.667 64.667 -325 194 -451c128 -125.333 279.667 -188 455 -188
c177.333 0 330 63 458 189c128.667 126 193 278 193 456s-64 330.667 -192 458zM814.001 -385.001v259h152v-259h-152zM1071 1642l-176 150l-180 -150h-187l297 256h135l293 -256h-182z" />
    <glyph glyph-name="uni1ED9" unicode="&#x1ed9;" 
d="M1084 147c-115.333 -116 -253.333 -174.001 -414 -174.001c-158 0 -294.667 57.333 -410 172c-116 114.667 -174 250.667 -174 408c0 162.667 56.667 302.334 170 419.001c114 118 252 177 414 177c159.333 0 297 -58 413 -174s174 -254 174 -414
c0 -160.667 -57.667 -298.667 -173 -414zM985 884.999c-86.667 90 -191.001 135 -313.001 135c-125.333 0 -231 -46.667 -317 -140c-84 -90.667 -126 -199 -126 -325c0 -122.667 43 -228.667 129 -318c86.667 -90 191.334 -135 314.001 -135c126.667 0 232.667 46 318 138
c82.667 90 124 199 124 327c0 122.667 -43 228.667 -129 318zM595.999 -385.001v259h152v-259h-152zM851.999 1309l-176 149l-180 -149h-187l297 256h135l293 -256h-182z" />
    <glyph glyph-name="uni1EDA" unicode="&#x1eda;" horiz-adv-x="1779" 
d="M1348 1214c-128 127.333 -281 191 -459 191c-180 0 -333.333 -64.333 -460 -193c-126 -128.667 -189 -282.667 -189 -462c0 -174.667 64.667 -325 194 -451c128 -125.333 279.667 -188 455 -188c177.333 0 330 63 458 189c128.667 126 193 278 193 456
s-64 330.667 -192 458zM815 1602l-68 118l408 224l66 -123zM1416 1348c12.667 -10.667 25.001 -21.999 37.001 -33.999c159.333 -153.333 239 -338.666 239 -555.999s-80 -403 -240 -557c-157.333 -152 -345 -228 -563 -228c-214.667 0 -401.334 75.333 -560.001 226
c-160.667 153.333 -241 337 -241 551c0 220 78.333 407.333 235 562c156 153.333 344.667 230 566 230c156.667 0 297.667 -39 423 -117l35 16c13.333 6 33 18.667 59 38s40.667 43 44 71h-65v180h189v-186c-4.66699 -32.667 -13 -59.834 -25 -81.501
s-26.5 -39.834 -43.5 -54.501s-31.833 -26 -44.5 -34c-10.667 -7.33301 -25.667 -16 -45 -26z" />
    <glyph glyph-name="uni1EDB" unicode="&#x1edb;" 
d="M985 885c-86.667 90 -191.001 135 -313.001 135c-125.333 0 -231 -46.667 -317 -140c-84 -90.667 -126 -199 -126 -325c0 -122.667 43 -228.667 129 -318c86.667 -90 191.334 -135 314.001 -135c126.667 0 232.667 46 318 138c82.667 90 124 199 124 327
c0 122.667 -43 228.667 -129 318zM574.999 1268l-67 118l407 224l66 -123zM1095 962c108 -113.333 162 -247 162 -401c0 -160.667 -57.667 -298.667 -173 -414c-115.333 -116 -253.333 -174 -414 -174c-158 0 -294.667 57.333 -410 172c-116 114.667 -174 250.667 -174 408
c0 162.667 56.667 302.334 170 419.001c114 118 252 177 414 177c125.333 0 237 -35.667 335 -107c9.33301 4.66699 17 8.33398 23 11.001c12.667 6 31 18.667 55 38s37.667 43 41 71h-61v180h176v-186c-4.66699 -32.667 -12.5 -59.834 -23.5 -81.501
s-24.333 -39.834 -40 -54.501s-29.5 -26 -41.5 -34c-10 -6.66699 -23 -14.667 -39 -24z" />
    <glyph glyph-name="uni1EDC" unicode="&#x1edc;" horiz-adv-x="1779" 
d="M1348 1214c-128 127.333 -281 191 -459 191c-180 0 -333.333 -64.333 -460 -193c-126 -128.667 -189 -282.667 -189 -462c0 -174.667 64.667 -325 194 -451c128 -125.333 279.667 -188 455 -188c177.333 0 330 63 458 189c128.667 126 193 278 193 456
s-64 330.667 -192 458zM1051 1602l-406 219l66 123l407 -224zM1416 1348c12.667 -10.667 25.001 -21.999 37.001 -33.999c159.333 -153.333 239 -338.666 239 -555.999s-80 -403 -240 -557c-157.333 -152 -345 -228 -563 -228c-214.667 0 -401.334 75.333 -560.001 226
c-160.667 153.333 -241 337 -241 551c0 220 78.333 407.333 235 562c156 153.333 344.667 230 566 230c156.667 0 297.667 -39 423 -117l35 16c13.333 6 33 18.667 59 38s40.667 43 44 71h-65v180h189v-186c-4.66699 -32.667 -13 -59.834 -25 -81.501
s-26.5 -39.834 -43.5 -54.501s-31.833 -26 -44.5 -34c-10.667 -7.33301 -25.667 -16 -45 -26z" />
    <glyph glyph-name="uni1EDD" unicode="&#x1edd;" 
d="M985 885c-86.667 90 -191.001 135 -313.001 135c-125.333 0 -231 -46.667 -317 -140c-84 -90.667 -126 -199 -126 -325c0 -122.667 43 -228.667 129 -318c86.667 -90 191.334 -135 314.001 -135c126.667 0 232.667 46 318 138c82.667 90 124 199 124 327
c0 122.667 -43 228.667 -129 318zM830.999 1268l-405 219l66 123l407 -224zM1095 962c108 -113.333 162 -247 162 -401c0 -160.667 -57.667 -298.667 -173 -414c-115.333 -116 -253.333 -174 -414 -174c-158 0 -294.667 57.333 -410 172c-116 114.667 -174 250.667 -174 408
c0 162.667 56.667 302.334 170 419.001c114 118 252 177 414 177c125.333 0 237 -35.667 335 -107c9.33301 4.66699 17 8.33398 23 11.001c12.667 6 31 18.667 55 38s37.667 43 41 71h-61v180h176v-186c-4.66699 -32.667 -12.5 -59.834 -23.5 -81.501
s-24.333 -39.834 -40 -54.501s-29.5 -26 -41.5 -34c-10 -6.66699 -23 -14.667 -39 -24z" />
    <glyph glyph-name="uni1EDE" unicode="&#x1ede;" horiz-adv-x="1779" 
d="M1348 1214c-128 127.333 -281 191 -459 191c-180 0 -333.333 -64.333 -460 -193c-126 -128.667 -189 -282.667 -189 -462c0 -174.667 64.667 -325 194 -451c128 -125.333 279.667 -188 455 -188c177.333 0 330 63 458 189c128.667 126 193 278 193 456
s-64 330.667 -192 458zM1078 1794c-4.66699 -7.33301 -12.333 -16.667 -23 -28l-13 -14l-41 -40c-8 -9.33301 -15.667 -19.333 -23 -30c-12 -18 -19 -47 -21 -87h-127v27c0 34 9.33301 67 28 99c5.33301 9.33301 14.333 21.333 27 36c5.33301 6 14 14.667 26 26l27 26
c8.66699 9.33301 16.667 18.666 24 27.999c10.667 14.667 16 31 16 49c0 28 -8.66699 50 -26 66c-19.333 18 -39.666 27 -60.999 27c-30.667 0 -55.334 -14 -74.001 -42c-6.66699 -10 -11 -21.333 -13 -34c-1.33301 -7.33301 -2 -27.666 -2 -60.999h-129v39
c0 54 22.333 102 67 144c41.333 38 92.333 57 153 57c62 0 112.333 -18.667 151 -56c41.333 -40.667 62 -88 62 -142c0 -30.667 -9.33301 -60.667 -28 -90zM1416 1348c12.667 -10.667 25.001 -21.999 37.001 -33.999c159.333 -153.333 239 -338.666 239 -555.999
s-80 -403 -240 -557c-157.333 -152 -345 -228 -563 -228c-214.667 0 -401.334 75.333 -560.001 226c-160.667 153.333 -241 337 -241 551c0 220 78.333 407.333 235 562c156 153.333 344.667 230 566 230c156.667 0 297.667 -39 423 -117l35 16c13.333 6 33 18.667 59 38
s40.667 43 44 71h-65v180h189v-186c-4.66699 -32.667 -13 -59.834 -25 -81.501s-26.5 -39.834 -43.5 -54.501s-31.833 -26 -44.5 -34c-10.667 -7.33301 -25.667 -16 -45 -26z" />
    <glyph glyph-name="uni1EDF" unicode="&#x1edf;" 
d="M985 885c-86.667 90 -191.001 135 -313.001 135c-125.333 0 -231 -46.667 -317 -140c-84 -90.667 -126 -199 -126 -325c0 -122.667 43 -228.667 129 -318c86.667 -90 191.334 -135 314.001 -135c126.667 0 232.667 46 318 138c82.667 90 124 199 124 327
c0 122.667 -43 228.667 -129 318zM865.999 1442c-4.66699 -7.33301 -12.333 -16.667 -23 -28l-13 -14l-41 -40c-8 -9.33301 -15.667 -19.333 -23 -30c-12 -18 -19 -47 -21 -87h-127v27c0 34 9.33301 67 28 99c5.33301 9.33301 14.333 21.333 27 36
c5.33301 6 14 14.667 26 26l27 26c8.66699 9.33301 16.667 18.666 24 27.999c10.667 14.667 16 31 16 49c0 28 -8.66699 50 -26 66c-19.333 18 -39.666 27 -60.999 27c-30.667 0 -55.334 -14 -74.001 -42c-6.66699 -10 -11 -21.333 -13 -34
c-1.33301 -7.33301 -2 -27.666 -2 -60.999h-129v39c0 54 22.333 102 67 144c41.333 38 92.333 57 153 57c62 0 112.333 -18.667 151 -56c41.333 -40.667 62 -88 62 -142c0 -30.667 -9.33301 -60.667 -28 -90zM1095 961.999c108 -113.333 162 -247 162 -401
c0 -160.667 -57.667 -298.667 -173 -414c-115.333 -116 -253.333 -174 -414 -174c-158 0 -294.667 57.333 -410 172c-116 114.667 -174 250.667 -174 408c0 162.667 56.667 302.334 170 419.001c114 118 252 177 414 177c125.333 0 237 -35.667 335 -107
c9.33301 4.66699 17 8.33398 23 11.001c12.667 6 31 18.667 55 38s37.667 43 41 71h-61v180h176v-186c-4.66699 -32.667 -12.5 -59.834 -23.5 -81.501s-24.333 -39.834 -40 -54.501s-29.5 -26 -41.5 -34c-10 -6.66699 -23 -14.667 -39 -24z" />
    <glyph glyph-name="uni1EE0" unicode="&#x1ee0;" horiz-adv-x="1779" 
d="M1348 1214c-128 127.333 -281 191 -459 191c-180 0 -333.333 -64.333 -460 -193c-126 -128.667 -189 -282.667 -189 -462c0 -174.667 64.667 -325 194 -451c128 -125.333 279.667 -188 455 -188c177.333 0 330 63 458 189c128.667 126 193 278 193 456
s-64 330.667 -192 458zM1243 1726c-72 -52.667 -139.003 -79.002 -201.003 -79.002c-27.333 0 -55.666 4.33301 -84.999 13c-19.333 5.33301 -44 15 -74 29l-69 28c-24.667 9.33301 -47.667 14 -69 14c-48 0 -93.667 -20.667 -137 -62l-71 103
c61.333 57.333 132.333 86 213 86c26 0 53.333 -4.66699 82 -14c18.667 -5.33301 42.667 -14.666 72 -27.999c2 -1.33301 5 -2.66602 9 -3.99902c3.33301 -2 6 -3.33301 8 -4c6.66699 -3.33301 12.334 -6 17.001 -8l34 -13c24.667 -8.66699 47.334 -13 68.001 -13
c21.333 0 44 5.66699 68 17l46 26l15 10zM1416 1348c12.667 -10.667 25.001 -21.999 37.001 -33.999c159.333 -153.333 239 -338.666 239 -555.999s-80 -403 -240 -557c-157.333 -152 -345 -228 -563 -228c-214.667 0 -401.334 75.333 -560.001 226
c-160.667 153.333 -241 337 -241 551c0 220 78.333 407.333 235 562c156 153.333 344.667 230 566 230c156.667 0 297.667 -39 423 -117l35 16c13.333 6 33 18.667 59 38s40.667 43 44 71h-65v180h189v-186c-4.66699 -32.667 -13 -59.834 -25 -81.501
s-26.5 -39.834 -43.5 -54.501s-31.833 -26 -44.5 -34c-10.667 -7.33301 -25.667 -16 -45 -26z" />
    <glyph glyph-name="uni1EE1" unicode="&#x1ee1;" 
d="M985 885c-86.667 90 -191.001 135 -313.001 135c-125.333 0 -231 -46.667 -317 -140c-84 -90.667 -126 -199 -126 -325c0 -122.667 43 -228.667 129 -318c86.667 -90 191.334 -135 314.001 -135c126.667 0 232.667 46 318 138c82.667 90 124 199 124 327
c0 122.667 -43 228.667 -129 318zM1024 1413c-72 -53.333 -139.003 -80.001 -201.003 -80.001c-27.333 0 -55.666 4.33301 -84.999 13c-19.333 6 -44 15.667 -74 29l-69 29c-25.333 8.66699 -48.333 13 -69 13c-48 0 -93.667 -20.333 -137 -61l-72 102
c62 57.333 133 86 213 86c26.667 0 54.334 -4.33301 83.001 -13c18.667 -6 42.667 -15.667 72 -29c2 -0.666992 5 -2 9 -4c3.33301 -1.33301 6 -2.66602 8 -3.99902l17 -7l34 -14c24.667 -8.66699 47.334 -13 68.001 -13c21.333 0 44 6 68 18l46 26l15 9zM1095 961.999
c108 -113.333 162 -247 162 -401c0 -160.667 -57.667 -298.667 -173 -414c-115.333 -116 -253.333 -174 -414 -174c-158 0 -294.667 57.333 -410 172c-116 114.667 -174 250.667 -174 408c0 162.667 56.667 302.334 170 419.001c114 118 252 177 414 177
c125.333 0 237 -35.667 335 -107c9.33301 4.66699 17 8.33398 23 11.001c12.667 6 31 18.667 55 38s37.667 43 41 71h-61v180h176v-186c-4.66699 -32.667 -12.5 -59.834 -23.5 -81.501s-24.333 -39.834 -40 -54.501s-29.5 -26 -41.5 -34c-10 -6.66699 -23 -14.667 -39 -24z
" />
    <glyph glyph-name="uni1EE2" unicode="&#x1ee2;" horiz-adv-x="1779" 
d="M1348 1214c-128 127.333 -281 191 -459 191c-180 0 -333.333 -64.333 -460 -193c-126 -128.667 -189 -282.667 -189 -462c0 -174.667 64.667 -325 194 -451c128 -125.333 279.667 -188 455 -188c177.333 0 330 63 458 189c128.667 126 193 278 193 456
s-64 330.667 -192 458zM814 -385v259h152v-259h-152zM1416 1348c12.667 -10.667 25.001 -21.999 37.001 -33.999c159.333 -153.333 239 -338.666 239 -555.999s-80 -403 -240 -557c-157.333 -152 -345 -228 -563 -228c-214.667 0 -401.334 75.333 -560.001 226
c-160.667 153.333 -241 337 -241 551c0 220 78.333 407.333 235 562c156 153.333 344.667 230 566 230c156.667 0 297.667 -39 423 -117l35 16c13.333 6 33 18.667 59 38s40.667 43 44 71h-65v180h189v-186c-4.66699 -32.667 -13 -59.834 -25 -81.501
s-26.5 -39.834 -43.5 -54.501s-31.833 -26 -44.5 -34c-10.667 -7.33301 -25.667 -16 -45 -26z" />
    <glyph glyph-name="uni1EE3" unicode="&#x1ee3;" 
d="M985 885c-86.667 90 -191.001 135 -313.001 135c-125.333 0 -231 -46.667 -317 -140c-84 -90.667 -126 -199 -126 -325c0 -122.667 43 -228.667 129 -318c86.667 -90 191.334 -135 314.001 -135c126.667 0 232.667 46 318 138c82.667 90 124 199 124 327
c0 122.667 -43 228.667 -129 318zM595.999 -385v259h152v-259h-152zM1095 962c108 -113.333 162 -247 162 -401c0 -160.667 -57.667 -298.667 -173 -414c-115.333 -116 -253.333 -174 -414 -174c-158 0 -294.667 57.333 -410 172c-116 114.667 -174 250.667 -174 408
c0 162.667 56.667 302.334 170 419.001c114 118 252 177 414 177c125.333 0 237 -35.667 335 -107c9.33301 4.66699 17 8.33398 23 11.001c12.667 6 31 18.667 55 38s37.667 43 41 71h-61v180h176v-186c-4.66699 -32.667 -12.5 -59.834 -23.5 -81.501
s-24.333 -39.834 -40 -54.501s-29.5 -26 -41.5 -34c-10 -6.66699 -23 -14.667 -39 -24z" />
    <glyph glyph-name="uni1EE4" unicode="&#x1ee4;" 
d="M1185 571c0 -56.667 -4.00195 -110.334 -12.002 -161.001c-10 -59.333 -25 -110.666 -45 -153.999c-88 -188.667 -241 -283 -459 -283s-371 94.333 -459 283c-20 43.333 -34.667 94.666 -44 153.999c-8.66699 50.667 -13 104.334 -13 161.001v945h152v-945
c0 -49.333 3.33301 -96 10 -140c8.66699 -56 22.334 -100.667 41.001 -134c68 -124 172.333 -186 313 -186s245 62 313 186c18.667 33.333 32.334 78 41.001 134c7.33301 44 11 90.667 11 140v945h151v-945zM592.998 -385v259h152v-259h-152z" />
    <glyph glyph-name="uni1EE5" unicode="&#x1ee5;" horiz-adv-x="1245" 
d="M972 0l-0.000976562 174.002h-4c-31.333 -66 -81 -116.667 -149 -152c-62 -32.667 -132 -49 -210 -49c-168 0 -296.333 56 -385 168c-36.667 46.667 -63 103.667 -79 171c-12.667 54.667 -19 118 -19 190v618h143v-616c0 -125.333 24.667 -221.333 74 -288
c56.667 -76 145.334 -114 266.001 -114c94.667 0 174 30.333 238 91c45.333 43.333 77 94.666 95 153.999c14.667 47.333 22 107.666 22 180.999v592h143v-1120h-135zM594.999 -384.998v259h152v-259h-152z" />
    <glyph glyph-name="uni1EE6" unicode="&#x1ee6;" 
d="M1185 571c0 -56.667 -4.00195 -110.334 -12.002 -161.001c-10 -59.333 -25 -110.666 -45 -153.999c-88 -188.667 -241 -283 -459 -283s-371 94.333 -459 283c-20 43.333 -34.667 94.666 -44 153.999c-8.66699 50.667 -13 104.334 -13 161.001v945h152v-945
c0 -49.333 3.33301 -96 10 -140c8.66699 -56 22.334 -100.667 41.001 -134c68 -124 172.333 -186 313 -186s245 62 313 186c18.667 33.333 32.334 78 41.001 134c7.33301 44 11 90.667 11 140v945h151v-945zM846.998 1794c-4.66699 -7.33301 -12.333 -16.667 -23 -28
l-13 -14l-41 -40c-8 -9.33301 -15.667 -19.333 -23 -30c-12 -18 -19 -47 -21 -87h-127v27c0 34 9.33301 67 28 99c5.33301 9.33301 14.333 21.333 27 36c5.33301 6 14 14.667 26 26l27 26c8.66699 9.33301 16.667 18.666 24 27.999c10.667 14.667 16 31 16 49
c0 28 -8.66699 50 -26 66c-19.333 18 -39.666 27 -60.999 27c-30.667 0 -55.334 -14 -74.001 -42c-6.66699 -10 -11 -21.333 -13 -34c-1.33301 -7.33301 -2 -27.666 -2 -60.999h-129v39c0 54 22.333 102 67 144c41.333 38 92.333 57 153 57c62 0 112.333 -18.667 151 -56
c41.333 -40.667 62 -88 62 -142c0 -30.667 -9.33301 -60.667 -28 -90z" />
    <glyph glyph-name="uni1EE7" unicode="&#x1ee7;" horiz-adv-x="1245" 
d="M972 0l-0.000976562 174.002h-4c-31.333 -66 -81 -116.667 -149 -152c-62 -32.667 -132 -49 -210 -49c-168 0 -296.333 56 -385 168c-36.667 46.667 -63 103.667 -79 171c-12.667 54.667 -19 118 -19 190v618h143v-616c0 -125.333 24.667 -221.333 74 -288
c56.667 -76 145.334 -114 266.001 -114c94.667 0 174 30.333 238 91c45.333 43.333 77 94.666 95 153.999c14.667 47.333 22 107.666 22 180.999v592h143v-1120h-135zM814.999 1442c-4.66699 -7.33301 -12.333 -16.667 -23 -28l-13 -14l-41 -40
c-8 -9.33301 -15.667 -19.333 -23 -30c-12 -18 -19 -47 -21 -87h-127v27c0 34 9.33301 67 28 99c5.33301 9.33301 14.333 21.333 27 36c5.33301 6 14 14.667 26 26l27 26c8.66699 9.33301 16.667 18.666 24 27.999c10.667 14.667 16 31 16 49c0 28 -8.66699 50 -26 66
c-19.333 18 -39.666 27 -60.999 27c-30.667 0 -55.334 -14 -74.001 -42c-6.66699 -10 -11 -21.333 -13 -34c-1.33301 -7.33301 -2 -27.666 -2 -60.999h-129v39c0 54 22.333 102 67 144c41.333 38 92.333 57 153 57c62 0 112.333 -18.667 151 -56
c41.333 -40.667 62 -88 62 -142c0 -30.667 -9.33301 -60.667 -28 -90z" />
    <glyph glyph-name="uni1EE8" unicode="&#x1ee8;" 
d="M554 1602l-67 118l407 224l66 -123zM1186 1344l-0.000976562 -772.997c0 -56.667 -4.33301 -110.334 -13 -161.001c-9.33301 -59.333 -24.333 -110.666 -45 -153.999c-87.333 -188.667 -240 -283 -458 -283s-371 94.333 -459 283c-20 43.333 -35 94.666 -45 153.999
c-8 50.667 -12 104.334 -12 161.001v945h151v-945c0 -49.333 3.33301 -96 10 -140c9.33301 -56 23 -100.667 41 -134c68.667 -124 173.334 -186 314.001 -186s245 62 313 186c18.667 33.333 32.334 78 41.001 134c6.66699 44 10 90.667 10 140v945h152v-36
c25.333 19.333 39.666 42.666 42.999 69.999h-65v180h189v-186c-4.66699 -32.667 -13 -59.834 -25 -81.501s-26.5 -39.834 -43.5 -54.501s-31.833 -26 -44.5 -34s-30.667 -18 -54 -30z" />
    <glyph glyph-name="uni1EE9" unicode="&#x1ee9;" horiz-adv-x="1245" 
d="M507 1268l-68 118l408 224l65 -123zM1107 954l-0.000976562 -953.996h-135v174h-4c-31.333 -66 -81 -116.667 -149 -152c-62 -32.667 -132 -49 -210 -49c-168 0 -296.333 56 -385 168c-36.667 46.667 -63 103.667 -79 171c-12.667 54.667 -19 118 -19 190v618h143v-616
c0 -125.333 24.667 -221.333 74 -288c56.667 -76 145.334 -114 266.001 -114c94.667 0 174 30.333 238 91c45.333 43.333 77 94.666 95 153.999c14.667 47.333 22 107.666 22 180.999v592h143v-33c1.33301 1.33301 3 2.66602 5 3.99902c24 19.333 37.667 43 41 71h-61v180
h176v-186c-4.66699 -32.667 -12.5 -59.834 -23.5 -81.501s-24.333 -39.834 -40 -54.501s-29.667 -26.167 -42 -34.5s-30.5 -19.166 -54.5 -32.499z" />
    <glyph glyph-name="uni1EEA" unicode="&#x1eea;" 
d="M790 1602l-406 219l66 123l408 -224zM1186 1344l-0.000976562 -772.997c0 -56.667 -4.33301 -110.334 -13 -161.001c-9.33301 -59.333 -24.333 -110.666 -45 -153.999c-87.333 -188.667 -240 -283 -458 -283s-371 94.333 -459 283c-20 43.333 -35 94.666 -45 153.999
c-8 50.667 -12 104.334 -12 161.001v945h151v-945c0 -49.333 3.33301 -96 10 -140c9.33301 -56 23 -100.667 41 -134c68.667 -124 173.334 -186 314.001 -186s245 62 313 186c18.667 33.333 32.334 78 41.001 134c6.66699 44 10 90.667 10 140v945h152v-36
c25.333 19.333 39.666 42.666 42.999 69.999h-65v180h189v-186c-4.66699 -32.667 -13 -59.834 -25 -81.501s-26.5 -39.834 -43.5 -54.501s-31.833 -26 -44.5 -34s-30.667 -18 -54 -30z" />
    <glyph glyph-name="uni1EEB" unicode="&#x1eeb;" horiz-adv-x="1245" 
d="M740 1268l-405 219l65 123l408 -224zM1107 954l-0.000976562 -953.996h-135v174h-4c-31.333 -66 -81 -116.667 -149 -152c-62 -32.667 -132 -49 -210 -49c-168 0 -296.333 56 -385 168c-36.667 46.667 -63 103.667 -79 171c-12.667 54.667 -19 118 -19 190v618h143v-616
c0 -125.333 24.667 -221.333 74 -288c56.667 -76 145.334 -114 266.001 -114c94.667 0 174 30.333 238 91c45.333 43.333 77 94.666 95 153.999c14.667 47.333 22 107.666 22 180.999v592h143v-33c1.33301 1.33301 3 2.66602 5 3.99902c24 19.333 37.667 43 41 71h-61v180
h176v-186c-4.66699 -32.667 -12.5 -59.834 -23.5 -81.501s-24.333 -39.834 -40 -54.501s-29.667 -26.167 -42 -34.5s-30.5 -19.166 -54.5 -32.499z" />
    <glyph glyph-name="uni1EEC" unicode="&#x1eec;" 
d="M846 1794c-4.66699 -7.33301 -12.333 -16.667 -23 -28l-13 -14l-41 -40c-8 -9.33301 -15.667 -19.333 -23 -30c-12 -18 -19 -47 -21 -87h-127v27c0 34 9.33301 67 28 99c5.33301 9.33301 14.333 21.333 27 36c5.33301 6 14 14.667 26 26l27 26
c8.66699 9.33301 16.667 18.666 24 27.999c10.667 14.667 16 31 16 49c0 28 -8.66699 50 -26 66c-19.333 18 -39.666 27 -60.999 27c-30.667 0 -55.334 -14 -74.001 -42c-6.66699 -10 -11 -21.333 -13 -34c-1.33301 -7.33301 -2 -27.666 -2 -60.999h-129v39
c0 54 22.333 102 67 144c41.333 38 92.333 57 153 57c62 0 112.333 -18.667 151 -56c41.333 -40.667 62 -88 62 -142c0 -30.667 -9.33301 -60.667 -28 -90zM1185 1344l-0.000976562 -772.997c0 -56.667 -4.33301 -110.334 -13 -161.001
c-9.33301 -59.333 -24.333 -110.666 -45 -153.999c-87.333 -188.667 -240 -283 -458 -283s-371 94.333 -459 283c-20 43.333 -35 94.666 -45 153.999c-8 50.667 -12 104.334 -12 161.001v945h151v-945c0 -49.333 3.33301 -96 10 -140c9.33301 -56 23 -100.667 41 -134
c68.667 -124 173.334 -186 314.001 -186s245 62 313 186c18.667 33.333 32.334 78 41.001 134c6.66699 44 10 90.667 10 140v945h152v-36c25.333 19.333 39.666 42.666 42.999 69.999h-65v180h189v-186c-4.66699 -32.667 -13 -59.834 -25 -81.501
s-26.5 -39.834 -43.5 -54.501s-31.833 -26 -44.5 -34s-30.667 -18 -54 -30z" />
    <glyph glyph-name="uni1EED" unicode="&#x1eed;" horiz-adv-x="1245" 
d="M815 1442c-4.66699 -7.33301 -12.333 -16.667 -23 -28l-13 -14l-41 -40c-8 -9.33301 -15.667 -19.333 -23 -30c-12 -18 -19 -47 -21 -87h-127v27c0 34 9.33301 67 28 99c5.33301 9.33301 14.333 21.333 27 36c5.33301 6 14 14.667 26 26l27 26
c8.66699 9.33301 16.667 18.666 24 27.999c10.667 14.667 16 31 16 49c0 28 -8.66699 50 -26 66c-19.333 18 -39.666 27 -60.999 27c-30.667 0 -55.334 -14 -74.001 -42c-6.66699 -10 -11 -21.333 -13 -34c-1.33301 -7.33301 -2 -27.666 -2 -60.999h-129v39
c0 54 22.333 102 67 144c41.333 38 92.333 57 153 57c62 0 112.333 -18.667 151 -56c41.333 -40.667 62 -88 62 -142c0 -30.667 -9.33301 -60.667 -28 -90zM1107 953.999l-0.000976562 -953.996h-135v174h-4c-31.333 -66 -81 -116.667 -149 -152
c-62 -32.667 -132 -49 -210 -49c-168 0 -296.333 56 -385 168c-36.667 46.667 -63 103.667 -79 171c-12.667 54.667 -19 118 -19 190v618h143v-616c0 -125.333 24.667 -221.333 74 -288c56.667 -76 145.334 -114 266.001 -114c94.667 0 174 30.333 238 91
c45.333 43.333 77 94.666 95 153.999c14.667 47.333 22 107.666 22 180.999v592h143v-33c1.33301 1.33301 3 2.66602 5 3.99902c24 19.333 37.667 43 41 71h-61v180h176v-186c-4.66699 -32.667 -12.5 -59.834 -23.5 -81.501s-24.333 -39.834 -40 -54.501
s-29.667 -26.167 -42 -34.5s-30.5 -19.166 -54.5 -32.499z" />
    <glyph glyph-name="uni1EEE" unicode="&#x1eee;" 
d="M1012 1726c-72 -52.667 -139.003 -79.002 -201.003 -79.002c-27.333 0 -55.666 4.33301 -84.999 13c-19.333 5.33301 -44 15 -74 29l-69 28c-24.667 9.33301 -47.667 14 -69 14c-48 0 -93.667 -20.667 -137 -62l-71 103c61.333 57.333 132.333 86 213 86
c26 0 53.333 -4.66699 82 -14c18.667 -5.33301 42.667 -14.666 72 -27.999c2 -1.33301 5 -2.66602 9 -3.99902c3.33301 -2 6 -3.33301 8 -4c6.66699 -3.33301 12.334 -6 17.001 -8l34 -13c24.667 -8.66699 47.334 -13 68.001 -13c21.333 0 44 5.66699 68 17l46 26l15 10z
M1185 1344l-0.000976562 -772.997c0 -56.667 -4.33301 -110.334 -13 -161.001c-9.33301 -59.333 -24.333 -110.666 -45 -153.999c-87.333 -188.667 -240 -283 -458 -283s-371 94.333 -459 283c-20 43.333 -35 94.666 -45 153.999c-8 50.667 -12 104.334 -12 161.001v945h151
v-945c0 -49.333 3.33301 -96 10 -140c9.33301 -56 23 -100.667 41 -134c68.667 -124 173.334 -186 314.001 -186s245 62 313 186c18.667 33.333 32.334 78 41.001 134c6.66699 44 10 90.667 10 140v945h152v-36c25.333 19.333 39.666 42.666 42.999 69.999h-65v180h189v-186
c-4.66699 -32.667 -13 -59.834 -25 -81.501s-26.5 -39.834 -43.5 -54.501s-31.833 -26 -44.5 -34s-30.667 -18 -54 -30z" />
    <glyph glyph-name="uni1EEF" unicode="&#x1eef;" horiz-adv-x="1245" 
d="M1023 1413c-72 -53.333 -139.003 -80.001 -201.003 -80.001c-27.333 0 -55.666 4.33301 -84.999 13c-19.333 6 -44 15.667 -74 29l-69 29c-25.333 8.66699 -48.333 13 -69 13c-48 0 -93.667 -20.333 -137 -61l-72 102c62 57.333 133 86 213 86
c26.667 0 54.334 -4.33301 83.001 -13c18.667 -6 42.667 -15.667 72 -29c2 -0.666992 5 -2 9 -4c3.33301 -1.33301 6 -2.66602 8 -3.99902l17 -7l34 -14c24.667 -8.66699 47.334 -13 68.001 -13c21.333 0 44 6 68 18l46 26l15 9zM1107 953.999l-0.000976562 -953.996h-135
v174h-4c-31.333 -66 -81 -116.667 -149 -152c-62 -32.667 -132 -49 -210 -49c-168 0 -296.333 56 -385 168c-36.667 46.667 -63 103.667 -79 171c-12.667 54.667 -19 118 -19 190v618h143v-616c0 -125.333 24.667 -221.333 74 -288c56.667 -76 145.334 -114 266.001 -114
c94.667 0 174 30.333 238 91c45.333 43.333 77 94.666 95 153.999c14.667 47.333 22 107.666 22 180.999v592h143v-33c1.33301 1.33301 3 2.66602 5 3.99902c24 19.333 37.667 43 41 71h-61v180h176v-186c-4.66699 -32.667 -12.5 -59.834 -23.5 -81.501
s-24.333 -39.834 -40 -54.501s-29.667 -26.167 -42 -34.5s-30.5 -19.166 -54.5 -32.499z" />
    <glyph glyph-name="uni1EF0" unicode="&#x1ef0;" 
d="M593 -385v259h152v-259h-152zM1185 1344l-0.000976562 -772.997c0 -56.667 -4.33301 -110.334 -13 -161.001c-9.33301 -59.333 -24.333 -110.666 -45 -153.999c-87.333 -188.667 -240 -283 -458 -283s-371 94.333 -459 283c-20 43.333 -35 94.666 -45 153.999
c-8 50.667 -12 104.334 -12 161.001v945h151v-945c0 -49.333 3.33301 -96 10 -140c9.33301 -56 23 -100.667 41 -134c68.667 -124 173.334 -186 314.001 -186s245 62 313 186c18.667 33.333 32.334 78 41.001 134c6.66699 44 10 90.667 10 140v945h152v-36
c25.333 19.333 39.666 42.666 42.999 69.999h-65v180h189v-186c-4.66699 -32.667 -13 -59.834 -25 -81.501s-26.5 -39.834 -43.5 -54.501s-31.833 -26 -44.5 -34s-30.667 -18 -54 -30z" />
    <glyph glyph-name="uni1EF1" unicode="&#x1ef1;" horiz-adv-x="1245" 
d="M595 -385v259h152v-259h-152zM1107 954l-0.000976562 -953.996h-135v174h-4c-31.333 -66 -81 -116.667 -149 -152c-62 -32.667 -132 -49 -210 -49c-168 0 -296.333 56 -385 168c-36.667 46.667 -63 103.667 -79 171c-12.667 54.667 -19 118 -19 190v618h143v-616
c0 -125.333 24.667 -221.333 74 -288c56.667 -76 145.334 -114 266.001 -114c94.667 0 174 30.333 238 91c45.333 43.333 77 94.666 95 153.999c14.667 47.333 22 107.666 22 180.999v592h143v-33c1.33301 1.33301 3 2.66602 5 3.99902c24 19.333 37.667 43 41 71h-61v180
h176v-186c-4.66699 -32.667 -12.5 -59.834 -23.5 -81.501s-24.333 -39.834 -40 -54.501s-29.667 -26.167 -42 -34.5s-30.5 -19.166 -54.5 -32.499z" />
    <glyph glyph-name="Ygrave" unicode="&#x1ef2;" horiz-adv-x="1212" 
d="M680 506v-506h-152v506l-526 1010h168l432 -850l444 850h166zM790 1602l-406 219l66 123l408 -224z" />
    <glyph glyph-name="ygrave" unicode="&#x1ef3;" horiz-adv-x="1097" 
d="M421 -393h-149l194 430l-436 1083h152l356 -893l381 893h151zM310 1487l65 123l408 -224l-68 -118z" />
    <glyph glyph-name="uni1EF4" unicode="&#x1ef4;" horiz-adv-x="1212" 
d="M680 506v-506h-152v506l-526 1010h168l432 -850l444 850h166zM533 -385v259h152v-259h-152z" />
    <glyph glyph-name="uni1EF5" unicode="&#x1ef5;" horiz-adv-x="1097" 
d="M421 -393h-149l194 430l-436 1083h152l356 -893l381 893h151zM595 -385v259h152v-259h-152z" />
    <glyph glyph-name="uni1EF6" unicode="&#x1ef6;" horiz-adv-x="1212" 
d="M680 506v-506h-152v506l-526 1010h168l432 -850l444 850h166zM796 1794c-4.66699 -7.33301 -12.333 -16.667 -23 -28l-13 -14l-41 -40c-8 -9.33301 -15.667 -19.333 -23 -30c-12 -18 -19 -47 -21 -87h-127v27c0 34 9.33301 67 28 99c5.33301 9.33301 14.333 21.333 27 36
c5.33301 6 14 14.667 26 26l27 26c8.66699 9.33301 16.667 18.666 24 27.999c10.667 14.667 16 31 16 49c0 28 -8.66699 50 -26 66c-19.333 18 -39.666 27 -60.999 27c-30.667 0 -55.334 -14 -74.001 -42c-6.66699 -10 -11 -21.333 -13 -34
c-1.33301 -7.33301 -2 -27.666 -2 -60.999h-129v39c0 54 22.333 102 67 144c41.333 38 92.333 57 153 57c62 0 112.333 -18.667 151 -56c41.333 -40.667 62 -88 62 -142c0 -30.667 -9.33301 -60.667 -28 -90z" />
    <glyph glyph-name="uni1EF7" unicode="&#x1ef7;" horiz-adv-x="1097" 
d="M421 -393h-149l194 430l-436 1083h152l356 -893l381 893h151zM775 1442c-4.66699 -7.33301 -12.333 -16.667 -23 -28l-13 -14l-41 -40c-8 -9.33301 -15.667 -19.333 -23 -30c-12 -18 -19 -47 -21 -87h-127v27c0 34 9.33301 67 28 99c5.33301 9.33301 14.333 21.333 27 36
c5.33301 6 14 14.667 26 26l27 26c8.66699 9.33301 16.667 18.666 24 27.999c10.667 14.667 16 31 16 49c0 28 -8.66699 50 -26 66c-19.333 18 -39.666 27 -60.999 27c-30.667 0 -55.334 -14 -74.001 -42c-6.66699 -10 -11 -21.333 -13 -34
c-1.33301 -7.33301 -2 -27.666 -2 -60.999h-129v39c0 54 22.333 102 67 144c41.333 38 92.333 57 153 57c62 0 112.333 -18.667 151 -56c41.333 -40.667 62 -88 62 -142c0 -30.667 -9.33301 -60.667 -28 -90z" />
    <glyph glyph-name="uni1EF8" unicode="&#x1ef8;" horiz-adv-x="1212" 
d="M680 506v-506h-152v506l-526 1010h168l432 -850l444 850h166zM960 1726c-72 -52.667 -139.003 -79.002 -201.003 -79.002c-27.333 0 -55.666 4.33301 -84.999 13c-19.333 5.33301 -44 15 -74 29l-69 28c-24.667 9.33301 -47.667 14 -69 14
c-48 0 -93.667 -20.667 -137 -62l-71 103c61.333 57.333 132.333 86 213 86c26 0 53.333 -4.66699 82 -14c18.667 -5.33301 42.667 -14.666 72 -27.999c2 -1.33301 5 -2.66602 9 -3.99902c3.33301 -2 6 -3.33301 8 -4c6.66699 -3.33301 12.334 -6 17.001 -8l34 -13
c24.667 -8.66699 47.334 -13 68.001 -13c21.333 0 44 5.66699 68 17l46 26l15 10z" />
    <glyph glyph-name="uni1EF9" unicode="&#x1ef9;" horiz-adv-x="1097" 
d="M421 -393h-149l194 430l-436 1083h152l356 -893l381 893h151zM933 1413c-72 -53.333 -138.666 -80.001 -199.999 -80.001c-28 0 -56.333 4.33301 -85 13c-19.333 6 -44.333 15.667 -75 29l-69 29c-24.667 8.66699 -47.334 13 -68.001 13
c-48.667 0 -94.667 -20.333 -138 -61l-71 102c61.333 57.333 132.333 86 213 86c26.667 0 54 -4.33301 82 -13c18.667 -6 42.667 -15.667 72 -29c2 -0.666992 5 -2 9 -4c3.33301 -1.33301 6 -2.66602 8 -3.99902l17 -7l34 -14c24.667 -8.66699 47.667 -13 69 -13
c20.667 0 43 6 67 18l46 26l16 9z" />
    <glyph glyph-name="quoteleft" unicode="&#x2018;" horiz-adv-x="802" 
d="M378 1118l-180 398h152l180 -398h-152z" />
    <glyph glyph-name="quoteright" unicode="&#x2019;" horiz-adv-x="731" 
d="M389 1118h-152l180 398h152z" />
    <glyph glyph-name="quotedblleft" unicode="&#x201c;" horiz-adv-x="1028" 
d="M679 1118l-178 398h150l180 -398h-152zM378 1118l-180 398h152l180 -398h-152z" />
    <glyph glyph-name="quotedblright" unicode="&#x201d;" horiz-adv-x="991" 
d="M649 1118h-152l180 398h152zM348 1118h-152l180 398h150z" />
    <glyph glyph-name="ellipsis" unicode="&#x2026;" horiz-adv-x="2048" 
d="M1630 0v258h152v-258h-152zM948 0v258h152v-258h-152zM266 0v258h152v-258h-152z" />
    <glyph glyph-name=".null" horiz-adv-x="0" 
 />
    <glyph glyph-name="nonmarkingreturn" horiz-adv-x="571" 
 />
    <glyph glyph-name="ugrave" horiz-adv-x="582" 
 />
    <glyph glyph-name="uacute" horiz-adv-x="580" 
 />
    <glyph glyph-name="yacute" horiz-adv-x="629" 
 />
    </font>
</defs>
</svg>
