<?xml version="1.0" standalone="no"?>
<!DOCTYPE svg PUBLIC "-//W3C//DTD SVG 1.1//EN" "http://www.w3.org/Graphics/SVG/1.1/DTD/svg11.dtd" >
<svg xmlns="http://www.w3.org/2000/svg" xmlns:xlink="http://www.w3.org/1999/xlink" version="1.1">
<metadata></metadata>
<defs>
<font id="toyota_displaybold" horiz-adv-x="1024" >
<font-face units-per-em="2048" ascent="1536" descent="-512" />
<missing-glyph horiz-adv-x="409" />
<glyph horiz-adv-x="0" />
<glyph horiz-adv-x="0" />
<glyph unicode="&#xd;" horiz-adv-x="972" />
<glyph unicode=" "  horiz-adv-x="409" />
<glyph unicode="&#x09;" horiz-adv-x="409" />
<glyph unicode="&#xa0;" horiz-adv-x="409" />
<glyph unicode="!" horiz-adv-x="587" d="M123 143q0 76 42 125t130 49q86 0 128 -49t42 -125q0 -78 -42 -127t-128 -49q-88 0 -130 49.5t-42 126.5zM137 1477h328l-45 -1033h-252z" />
<glyph unicode="&#x22;" horiz-adv-x="800" d="M90 844v633h256v-633h-256zM457 844v633h256v-633h-256z" />
<glyph unicode="#" horiz-adv-x="1458" d="M70 354v244h247l52 246h-197v243h248l53 271h275l-52 -271h224l53 271h274l-53 -271h209v-243h-258l-51 -246h206v-244h-256l-57 -284h-280l61 284h-221l-64 -284h-276l59 284h-196zM598 598h219l53 246h-223z" />
<glyph unicode="$" horiz-adv-x="1300" d="M61 98l84 260q119 -49 229.5 -74.5t219.5 -25.5q150 0 217.5 47t67.5 133q0 49 -26 82t-69 54.5t-102 36t-127 26.5q-76 14 -152.5 38.5t-138 70t-100.5 115t-39 175.5q0 158 98.5 274.5t300.5 151.5v207h256v-196q117 -8 213.5 -32t180.5 -57l-74 -245 q-123 41 -218.5 61.5t-195.5 20.5q-113 0 -178.5 -39t-65.5 -117q0 -47 21.5 -75.5t59.5 -47t88.5 -32t109.5 -25.5q80 -18 164 -43t153.5 -71t113.5 -121t44 -191q0 -172 -105.5 -290t-310.5 -157v-225h-256v211q-160 6 -276.5 39t-186.5 61z" />
<glyph unicode="%" horiz-adv-x="2027" d="M59 1057q0 88 26 163.5t76 133t125.5 90.5t176.5 33q88 0 157.5 -32t116.5 -87t72 -132t25 -167q0 -88 -26 -164t-75 -131t-122 -86t-165 -31q-102 0 -174.5 32t-120 87t-70 130t-22.5 161zM305 0l1135 1456h299l-1131 -1456h-303zM305 1059q0 -92 37 -147.5t109 -55.5 q66 0 103.5 50t37.5 153q0 104 -38 155.5t-103 51.5q-72 0 -109 -54.5t-37 -152.5zM1194 383q0 86 25.5 163t76 133t125 89t174.5 33q90 0 159 -32t116 -88t71.5 -132t24.5 -164q0 -90 -25.5 -166t-74.5 -131t-122 -86t-165 -31q-102 0 -175 32t-119 88t-68.5 131t-22.5 161 zM1438 385q0 -94 36.5 -149.5t108.5 -55.5q66 0 103.5 50.5t37.5 154.5t-36.5 153.5t-104.5 49.5q-72 0 -108.5 -52.5t-36.5 -150.5z" />
<glyph unicode="&#x26;" horiz-adv-x="1495" d="M70 348q0 78 20.5 145.5t61.5 130t103 122t146 120.5q-96 121 -96 267q0 76 35 143t96.5 118.5t147.5 80t188 28.5q55 0 101.5 -6t88.5 -18.5t82.5 -28.5t83.5 -37l-98 -233q-78 41 -137 58t-109 17q-76 0 -123 -35.5t-47 -97.5q0 -47 21.5 -90t56.5 -84l322 -373 l211 267l219 -158l-246 -322l197 -221l-205 -186l-186 205q-98 -94 -210 -144.5t-259 -50.5q-135 0 -224.5 36t-143.5 92.5t-75.5 124t-21.5 130.5zM381 393q0 -31 10 -61.5t32.5 -54t58.5 -39t87 -15.5q70 0 130.5 34t125.5 105l-264 306q-90 -72 -135 -132.5t-45 -142.5z " />
<glyph unicode="'" horiz-adv-x="436" d="M90 844v633h256v-633h-256z" />
<glyph unicode="(" horiz-adv-x="856" d="M82 580q0 86 38 163.5t81 147.5l381 614l233 -147l-360 -586q-29 -45 -52.5 -92t-23.5 -94q0 -55 27.5 -106.5t56.5 -98.5l352 -571l-231 -154l-389 610q-49 78 -81 153t-32 161z" />
<glyph unicode=")" horiz-adv-x="856" d="M41 -190l352 571q29 47 56.5 98t27.5 107q0 47 -23.5 94t-52.5 92l-360 586l233 147l381 -614q43 -70 81 -147.5t38 -163.5t-31.5 -161t-80.5 -153l-390 -610z" />
<glyph unicode="*" d="M66 1071l73 227l262 -96l-10 275h246l-10 -275l258 96l73 -229l-264 -76l180 -223l-200 -145l-160 229l-164 -229l-200 145l180 223z" />
<glyph unicode="+" horiz-adv-x="1372" d="M209 571v244h352v363h250v-363h350v-244h-350v-356h-250v356h-352z" />
<glyph unicode="," horiz-adv-x="497" d="M47 -283l105 541l270 -59l-152 -531z" />
<glyph unicode="-" horiz-adv-x="962" d="M145 502v260h676v-260h-676z" />
<glyph unicode="." horiz-adv-x="524" d="M92 143q0 76 41 125t129 49t129 -49t41 -125q0 -78 -41 -127t-129 -49t-129 49.5t-41 126.5z" />
<glyph unicode="/" horiz-adv-x="962" d="M-16 -160l700 1723h281l-701 -1723h-280z" />
<glyph unicode="0" horiz-adv-x="1425" d="M80 717q0 156 39 295t119.5 241.5t203.5 163t291 60.5q154 0 267.5 -57.5t190.5 -158t114.5 -237.5t37.5 -297t-40.5 -298t-120.5 -238.5t-198.5 -158t-276.5 -57.5q-172 0 -292 57.5t-194 157t-107.5 234.5t-33.5 293zM391 721q0 -231 77 -364.5t243 -133.5 q168 0 243.5 125t75.5 379q0 256 -75.5 378t-243.5 122q-84 0 -143.5 -36t-99.5 -102.5t-58.5 -159.5t-18.5 -208z" />
<glyph unicode="1" horiz-adv-x="1198" d="M92 1165l336 236q106 76 215 76q78 0 130 -44t52 -149v-1034h318v-250h-957v250h336v852q0 33 -18 33q-10 0 -29 -13l-221 -157z" />
<glyph unicode="2" horiz-adv-x="1212" d="M33 203q0 45 24.5 97t87.5 103l488 390q84 66 125 125t41 133q0 45 -17.5 76.5t-45 52t-64.5 30t-74 9.5q-104 0 -201.5 -41t-183.5 -86l-123 213q49 31 110.5 61.5t131 55t144.5 40t151 15.5q117 0 206 -30t149 -83t92 -127t32 -162q0 -80 -21.5 -145.5t-61.5 -123.5 t-95.5 -111.5t-122.5 -106.5l-363 -287q-14 -12 -14 -27q0 -23 31 -22h678v-252h-881q-98 0 -160.5 52t-62.5 151z" />
<glyph unicode="3" horiz-adv-x="1198" d="M31 78l78 254q123 -49 216 -75t193 -26q55 0 106.5 12.5t91.5 38t64.5 66.5t24.5 101q0 39 -11.5 74.5t-42 63t-85 44t-140.5 16.5h-172v189l326 313q16 16 16 31q0 18 -30 18h-551v260h710q129 0 183.5 -50t54.5 -130q0 -111 -115 -213l-239 -215q121 -8 199.5 -48 t124.5 -97.5t64.5 -126t18.5 -132.5q0 -98 -39 -184t-114.5 -150.5t-186 -101.5t-254.5 -37q-90 0 -164.5 10.5t-135 27t-107.5 33.5t-84 34z" />
<glyph unicode="4" horiz-adv-x="1370" d="M68 559q0 106 110 225l633 674h260v-872h221v-254h-221v-332h-301v332h-438q-131 0 -197.5 63.5t-66.5 163.5zM352 616q0 -12 9.5 -21t31.5 -9h377v481l-401 -414q-16 -20 -17 -37z" />
<glyph unicode="5" horiz-adv-x="1234" d="M45 76l78 254q123 -51 220 -76t202 -25q131 0 205.5 62.5t74.5 175.5t-71.5 167t-182.5 54q-55 0 -114.5 -13t-137.5 -46l-149 90l25 739h872v-260h-606l-12 -297q41 14 97 21.5t111 7.5q94 0 182.5 -24.5t155 -79t106.5 -140.5t40 -209q0 -104 -35 -195.5t-106.5 -160 t-185.5 -108.5t-269 -40q-182 0 -307 36t-193 67z" />
<glyph unicode="6" horiz-adv-x="1341" d="M121 643q0 154 31.5 303.5t108.5 267t207 190.5t327 73q109 0 209 -21.5t198 -73.5l-92 -227q-104 43 -179 55.5t-140 12.5q-164 0 -244 -95.5t-98 -263.5q70 43 152.5 67.5t168.5 24.5q113 0 202 -33.5t150.5 -95t94 -147.5t32.5 -191q0 -113 -41 -208t-113.5 -163.5 t-173 -106.5t-221.5 -38q-283 0 -431 177.5t-148 492.5zM440 621q0 -78 11.5 -150t41 -126t80 -86t129.5 -32q111 0 170.5 67.5t59.5 182.5q0 121 -66.5 177.5t-173.5 56.5q-76 0 -144.5 -29.5t-107.5 -60.5z" />
<glyph unicode="7" horiz-adv-x="1159" d="M51 1198v260h883q100 0 155.5 -43t55.5 -115t-49 -159l-629 -1141h-344l635 1135q14 29 14 39q0 25 -33 24h-688z" />
<glyph unicode="8" horiz-adv-x="1320" d="M92 385q0 111 62 208t168 169q-86 53 -129 132t-43 171q0 88 34.5 163t102 130t164 87t219.5 32q129 0 224 -30t157.5 -81t93.5 -119.5t31 -146.5q0 -111 -49.5 -194t-127.5 -144q229 -111 230 -346q0 -94 -39 -175t-112.5 -140.5t-183.5 -93.5t-251 -34 q-143 0 -246.5 32t-171 87t-100.5 130t-33 163zM406 406q0 -76 61 -127.5t188 -51.5q125 0 190.5 54.5t65.5 140.5q0 76 -49 118t-135 62l-166 43q-66 -45 -110.5 -102.5t-44.5 -136.5zM453 1065q0 -61 41 -106.5t129 -67.5l127 -33q51 41 83.5 96.5t32.5 118.5 q0 55 -48 104.5t-154 49.5q-102 0 -156.5 -48.5t-54.5 -113.5z" />
<glyph unicode="9" horiz-adv-x="1331" d="M106 950q0 117 41 214.5t115 166t175.5 107.5t221.5 39q137 0 245 -46.5t181.5 -132.5t111.5 -209.5t38 -281.5t-28.5 -308.5t-103.5 -267t-205 -187.5t-333 -71q-109 0 -220.5 20.5t-203.5 67.5l92 238q92 -41 176.5 -56.5t155.5 -15.5q172 0 250 93.5t96 257.5 q-66 -43 -149.5 -66t-175.5 -23q-115 0 -204 33t-150.5 93.5t-93.5 145.5t-32 189zM424 973q0 -121 66.5 -179.5t173.5 -58.5q76 0 145.5 29.5t108.5 60.5q0 76 -11.5 147.5t-41 127t-80 88.5t-130.5 33q-111 0 -171 -67t-60 -181z" />
<glyph unicode=":" horiz-adv-x="514" d="M86 143q0 76 41 125t129 49t129 -49t41 -125q0 -78 -41 -127t-129 -49t-129 49.5t-41 126.5zM86 866q0 76 41 126t129 50t129 -50t41 -126t-41 -126t-129 -50t-129 50.5t-41 125.5z" />
<glyph unicode=";" horiz-adv-x="542" d="M51 -283l103 543l272 -61l-158 -531zM121 866q0 76 41 126t129 50q86 0 128 -50t42 -126t-42 -126t-128 -50q-88 0 -129 50.5t-41 125.5z" />
<glyph unicode="&#x3c;" horiz-adv-x="1372" d="M147 674q0 92 58.5 150.5t163.5 101.5l759 313l97 -248l-695 -286q-27 -12 -26 -31q0 -18 28 -31l693 -293l-97 -252l-759 320q-53 23 -95.5 46t-70 53t-42 68t-14.5 89z" />
<glyph unicode="=" horiz-adv-x="1372" d="M209 375v250h952v-250h-952zM209 764v252h952v-252h-952z" />
<glyph unicode="&#x3e;" horiz-adv-x="1372" d="M147 350l693 289q29 12 28 31q0 18 -26 30l-695 291l97 248l760 -313q102 -43 161.5 -97.5t59.5 -144.5q0 -104 -56.5 -162.5t-164.5 -103.5l-760 -320z" />
<glyph unicode="?" horiz-adv-x="1200" d="M66 1325q100 70 233 122t305 52q127 0 225.5 -28.5t166 -80t103.5 -120t36 -148.5q0 -66 -17.5 -119t-49.5 -98t-75 -83t-92 -74l-102 -74q-29 -23 -49.5 -39.5t-34 -33.5t-19.5 -37.5t-6 -51.5v-68h-291v103q0 86 25 148.5t111 123.5l127 92q66 47 106.5 89t40.5 96 q0 72 -66.5 106.5t-171.5 34.5q-98 0 -185 -37t-189 -98zM375 143q0 76 42 125t130 49q86 0 128 -49t42 -125q0 -78 -42 -127t-128 -49q-88 0 -130 49.5t-42 126.5z" />
<glyph unicode="@" horiz-adv-x="1943" d="M86 473q0 201 73.5 369t200.5 288.5t298 188t368 67.5q199 0 354.5 -56t261 -157.5t161 -241.5t55.5 -308q0 -135 -39 -246t-111 -191t-174 -127t-227 -55q-29 -2 -66 -3t-65 -1h-238q-74 0 -139.5 15.5t-112.5 49t-74.5 88t-27.5 132.5q0 94 36.5 150.5t96 86 t132.5 38.5t144 9h105v13q0 59 -24.5 91t-90.5 32q-53 0 -112.5 -11.5t-141.5 -40.5l-74 195q72 31 165 53.5t204 22.5q104 0 168.5 -27t98.5 -74t45.5 -112.5t11.5 -143.5v-329q111 16 178 106t67 270q0 248 -141 389.5t-426 141.5q-154 0 -276.5 -47t-209.5 -134 t-133.5 -210t-46.5 -275q0 -160 47.5 -285.5t136.5 -214t218 -135.5t295 -47q162 0 272.5 30t179.5 58l80 -219q-27 -14 -81 -32.5t-127.5 -35t-163 -27.5t-187.5 -11q-209 0 -383 60.5t-298 177t-193.5 286.5t-69.5 389zM838 303q0 -47 30.5 -67.5t77.5 -20.5h154v172h-158 q-43 0 -73.5 -19.5t-30.5 -64.5z" />
<glyph unicode="A" horiz-adv-x="1505" d="M25 37l356 1175q20 70 50 124.5t74 91t107.5 56t149.5 19.5q84 0 143.5 -18.5t101.5 -54t68.5 -87t46.5 -116.5l359 -1190l-307 -68l-134 451h-581l-135 -451zM530 680h435l-140 494q-12 41 -30.5 54t-42.5 13q-27 0 -44.5 -14.5t-29.5 -52.5z" />
<glyph unicode="B" horiz-adv-x="1378" d="M141 0v1477h584q106 0 198.5 -20.5t161 -65.5t107.5 -117t39 -172q0 -111 -53.5 -188.5t-118.5 -122.5q49 -18 93 -49t79 -74t55.5 -100.5t20.5 -127.5q0 -106 -38 -188t-106.5 -138.5t-164 -85t-210.5 -28.5h-647zM444 256h316q47 0 89 10t72.5 34t49 59.5t18.5 86.5 q0 57 -21.5 95.5t-58.5 60t-88 29.5t-108 8h-269v-383zM444 883h256q92 0 156 39t64 135q0 100 -68 132t-203 32h-205v-338z" />
<glyph unicode="C" horiz-adv-x="1421" d="M78 737q0 166 49 306.5t145.5 243t239.5 159.5t332 57q154 0 271.5 -30.5t221.5 -75.5l-94 -248q-74 31 -130 48t-103 26.5t-88 12.5t-84 3q-211 0 -324 -131t-113 -371q0 -256 114 -382t321 -126q59 0 108 6.5t97.5 18.5t101.5 31.5t123 48.5l94 -242 q-66 -31 -127.5 -54.5t-127 -39.5t-136 -24.5t-154.5 -8.5q-203 0 -343 58.5t-227 162t-127 244.5t-40 307z" />
<glyph unicode="D" horiz-adv-x="1560" d="M141 0v1477h611q174 0 310 -53.5t229 -149.5t142.5 -231.5t49.5 -299.5q0 -162 -44 -298t-134.5 -235t-228.5 -154.5t-324 -55.5h-611zM449 260h288q203 0 312.5 111.5t109.5 361.5q0 252 -110.5 368t-311.5 116h-288v-957z" />
<glyph unicode="E" horiz-adv-x="1294" d="M141 0v1477h1061v-260h-758v-316h586v-262h-586v-379h775v-260h-1078z" />
<glyph unicode="F" horiz-adv-x="1273" d="M141 0v1477h1061v-260h-756v-316h584v-262h-584v-639h-305z" />
<glyph unicode="G" horiz-adv-x="1558" d="M78 737q0 166 52 306.5t152.5 243t248 159.5t335.5 57q154 0 276 -30.5t226 -75.5l-94 -248q-74 31 -132.5 48t-105.5 26.5t-90 12.5t-86 3q-211 0 -335 -131t-124 -371q0 -256 110 -381t310 -125q92 0 168 17.5t125 44.5v280h-305v263h614v-699q-53 -37 -121.5 -68.5 t-147.5 -55t-164 -36t-169 -12.5q-209 0 -351 58.5t-229 162t-125 244.5t-38 307z" />
<glyph unicode="H" horiz-adv-x="1511" d="M141 0v1477h318v-590h594v590h317v-1477h-317v618h-594v-618h-318z" />
<glyph unicode="I" horiz-adv-x="602" d="M145 0v1477h312v-1477h-312z" />
<glyph unicode="J" horiz-adv-x="1097" d="M20 63l117 250q53 -33 135 -57.5t166 -24.5q45 0 86 10.5t71 36t47 70.5t17 117v1012h306v-1020q0 -248 -131.5 -370t-382.5 -122q-141 0 -256 32t-175 66z" />
<glyph unicode="K" horiz-adv-x="1413" d="M141 0v1477h308v-603h59q41 0 69.5 13.5t51.5 42.5l465 569l233 -172l-475 -567l551 -598l-227 -197l-541 586q-29 31 -55.5 47t-73.5 16h-57v-614h-308z" />
<glyph unicode="L" horiz-adv-x="1255" d="M141 0v1477h305v-1217h773v-260h-1078z" />
<glyph unicode="M" horiz-adv-x="1718" d="M141 0v1477h287l383 -680q16 -29 27.5 -40.5t27.5 -11.5t27.5 11.5t28.5 40.5l378 680h277v-1477h-301v901l-156 -268q-66 -117 -129 -157t-135 -40q-74 0 -135.5 42t-124.5 157l-150 264v-899h-305z" />
<glyph unicode="N" horiz-adv-x="1527" d="M141 0v1477h314l635 -1102v1102h296v-1133q0 -51 -5 -107.5t-13 -84.5q-16 -55 -42 -88t-54.5 -49.5t-57 -20.5t-51.5 -4q-43 0 -79.5 12t-71.5 40t-69 72t-71 107l-432 717v-938h-299z" />
<glyph unicode="O" horiz-adv-x="1585" d="M78 735q0 147 40 285.5t127 246t222 172t326 64.5q199 0 335 -64.5t220 -172t121.5 -245.5t37.5 -286q0 -147 -40 -286.5t-127 -247t-222 -172t-325 -64.5q-199 0 -335 64.5t-221 172t-122 247t-37 286.5zM401 735q0 -104 22.5 -196.5t71 -160t122.5 -107.5t176 -40 t175.5 40t122 107.5t71 160t22.5 196.5t-22.5 195.5t-71 160t-122 107.5t-175.5 39t-176 -39t-122.5 -107.5t-71 -159.5t-22.5 -196z" />
<glyph unicode="P" horiz-adv-x="1302" d="M141 0v1477h566q106 0 201.5 -27t167 -85t113.5 -150.5t42 -221.5q0 -113 -41 -203t-112.5 -152.5t-170 -96t-213.5 -33.5h-248v-508h-305zM446 766h222q45 0 90 10t80.5 37t57.5 70t22 108q0 74 -20.5 120t-56.5 71.5t-81 34t-94 8.5h-220v-459z" />
<glyph unicode="Q" horiz-adv-x="1589" d="M78 735q0 147 40 285.5t127 246t222 172t326 64.5q199 0 335 -64.5t220 -172t121.5 -245.5t37.5 -286q0 -168 -52 -323.5t-167 -266.5l225 -276l-227 -182l-254 311q-53 -16 -113.5 -24.5t-125.5 -8.5q-199 0 -335 64.5t-221 172t-122 247t-37 286.5zM401 735 q0 -104 22.5 -196.5t71 -160t122.5 -107.5t176 -40t175.5 40t122 107.5t71 160t22.5 196.5t-22.5 195.5t-71 160t-122 107.5t-175.5 39t-176 -39t-122.5 -107.5t-71 -159.5t-22.5 -196z" />
<glyph unicode="R" horiz-adv-x="1366" d="M141 0v1477h564q106 0 199 -21.5t162 -72t107.5 -131.5t38.5 -199q0 -80 -25.5 -149.5t-68.5 -125t-100 -94.5t-119 -59q35 -16 62.5 -43t58.5 -64l326 -379l-236 -170l-365 428q-37 43 -64.5 72t-52 46t-50 23.5t-56.5 6.5h-73v-545h-308zM449 801h198q115 0 184.5 53 t69.5 158q0 66 -18.5 107.5t-51 65t-79.5 32t-105 8.5h-198v-424z" />
<glyph unicode="S" horiz-adv-x="1320" d="M41 76l86 260q133 -53 252 -80t229 -27q164 0 241 51.5t77 139.5q0 49 -22.5 83t-63.5 56.5t-98.5 37.5t-129.5 28q-92 16 -183 41.5t-161.5 72.5t-114.5 121t-44 187q0 98 32.5 181t105 144.5t189.5 96t283 34.5q145 0 276 -30.5t232 -71.5l-76 -250 q-123 43 -233.5 66.5t-215.5 23.5q-141 0 -207.5 -42t-66.5 -122q0 -43 19.5 -72.5t57.5 -50t92 -35t122 -26.5q94 -18 188 -44t170 -75t123 -129t47 -203q0 -109 -42 -196.5t-123 -150t-199.5 -96.5t-274.5 -34q-94 0 -180 11.5t-158.5 27.5t-131 35.5t-97.5 36.5z" />
<glyph unicode="T" horiz-adv-x="1249" d="M31 1217v260h1188v-260h-441v-1217h-307v1217h-440z" />
<glyph unicode="U" horiz-adv-x="1499" d="M135 612v865h307v-822q0 -100 11.5 -180t45 -135t93 -85t158.5 -30q96 0 155.5 30t93 84t45 132t11.5 174v832h309v-838q0 -147 -25.5 -271t-94 -213t-188.5 -139.5t-306 -50.5q-190 0 -310.5 45t-188 129t-92 204t-24.5 269z" />
<glyph unicode="V" horiz-adv-x="1497" d="M20 1436l299 65l359 -1198q14 -47 29.5 -62.5t42.5 -15.5t42 15.5t29 62.5l365 1198l291 -65l-359 -1196q-35 -119 -121 -197t-247 -78q-168 0 -252 73t-121 200z" />
<glyph unicode="W" horiz-adv-x="1945" d="M68 1454l303 43l127 -1063q12 -106 57 -152t133 -46q31 0 65.5 7t63.5 23v1211h309v-1209q29 -16 65 -23t73 -7q78 0 124 42t58 152l125 1065l307 -43l-131 -1069q-12 -94 -43 -171t-86 -131t-136 -84t-192 -30q-92 0 -176 18.5t-145 57.5q-72 -37 -148 -56.5t-166 -19.5 q-117 0 -197.5 30t-135 84t-83 131t-40.5 171z" />
<glyph unicode="X" horiz-adv-x="1517" d="M27 121l462 637l-401 594l256 149l348 -518q16 -27 28.5 -39t35.5 -12t34 11t27 40l338 514l254 -147l-387 -582l469 -647l-240 -156l-422 572q-23 31 -36 43t-33 12t-34.5 -12.5t-37.5 -42.5l-420 -572z" />
<glyph unicode="Y" horiz-adv-x="1388" d="M20 1384l275 115l309 -665q23 -47 42.5 -61.5t45.5 -14.5q31 0 49.5 15t40.5 63l312 663l274 -110l-281 -605q-51 -109 -104 -180.5t-141 -103.5v-500h-310v498q-84 29 -134 95t-99 175z" />
<glyph unicode="Z" horiz-adv-x="1357" d="M61 197q0 35 17.5 80t71.5 110l690 830h-686v260h1122v-191l-817 -973q-6 -8 -10.5 -13t-4.5 -15q0 -25 35 -25h793v-260h-961q-123 0 -186.5 51t-63.5 146z" />
<glyph unicode="[" horiz-adv-x="782" d="M139 -297v1774h602v-244h-313v-1286h313v-244h-602z" />
<glyph unicode="\" horiz-adv-x="976" d="M2 1563h303l699 -1723h-304z" />
<glyph unicode="]" horiz-adv-x="782" d="M41 -53h313v1286h-313v244h602v-1774h-602v244z" />
<glyph unicode="^" horiz-adv-x="1159" d="M76 774l231 512q49 109 111.5 163t167.5 54q51 0 89 -11t68.5 -35.5t56 -63.5t50.5 -97l233 -522l-243 -92l-199 446q-12 29 -23.5 45.5t-35.5 16.5q-27 0 -38.5 -17.5t-23.5 -46.5l-196 -444z" />
<glyph unicode="_" horiz-adv-x="1230" d="M102 0h1026v-250h-1026v250z" />
<glyph unicode="`" d="M254 1532l238 162l270 -412l-176 -123z" />
<glyph unicode="a" horiz-adv-x="1128" d="M57 301q0 94 36 159.5t96.5 105.5t136 57.5t155.5 17.5h219v37q0 86 -47 122t-129 36q-63 0 -129.5 -10.5t-169.5 -45.5l-80 217q84 33 189.5 56.5t230.5 23.5q131 0 215 -30.5t132.5 -87t66.5 -135.5t18 -177v-399l101 -146l-213 -149l-88 104q-53 -31 -142.5 -61.5 t-195.5 -30.5q-84 0 -157 18.5t-127 58.5t-86 103.5t-32 155.5zM360 311q0 -63 38 -95t108 -32q61 0 109.5 16.5t89.5 43.5v190h-203q-66 0 -104 -32.5t-38 -90.5z" />
<glyph unicode="b" horiz-adv-x="1206" d="M125 25v1452h299v-435q43 16 102.5 25.5t118.5 9.5q109 0 198 -34.5t153.5 -104.5t100.5 -171t36 -237q0 -127 -37 -231t-109 -178t-175 -115t-239 -41q-84 0 -204.5 11.5t-243.5 48.5zM424 225q33 -8 67.5 -11t83.5 -3q51 0 97.5 17.5t80 55.5t53 97t19.5 143 q0 164 -66.5 232.5t-164.5 68.5q-90 0 -170 -30v-570z" />
<glyph unicode="c" horiz-adv-x="1124" d="M74 514q0 119 39 222.5t112.5 179t180 118.5t241.5 43q123 0 221.5 -20.5t175.5 -55.5l-94 -233q-55 20 -96 32.5t-73.5 17.5t-61.5 6t-60 1q-68 0 -119 -23.5t-86.5 -64.5t-54 -97t-18.5 -124q0 -145 80 -223t203 -78q31 0 62.5 3t67 11.5t78.5 23.5t97 38l88 -236 q-90 -41 -192.5 -65.5t-215.5 -24.5q-150 0 -258 41t-179 114t-104.5 173t-33.5 221z" />
<glyph unicode="d" horiz-adv-x="1232" d="M74 506q0 127 36.5 232.5t108.5 180t176.5 116.5t237.5 42q45 0 82 -3t71 -7v412h299v-1231l103 -150l-213 -147l-90 100q-61 -35 -142 -60.5t-174 -25.5q-131 0 -224 41t-153.5 114t-89 171t-28.5 215zM381 506q0 -160 63.5 -224.5t165.5 -64.5q47 0 95.5 16.5 t80.5 36.5v543q-33 6 -66.5 10t-70.5 4q-57 0 -106 -18t-85 -57t-56.5 -99.5t-20.5 -146.5z" />
<glyph unicode="e" horiz-adv-x="1183" d="M74 518q0 109 34.5 210t104.5 179t170 124t233 46q125 0 215.5 -39t149.5 -111.5t88 -176t29 -230.5l-86 -82h-617q4 -96 77 -158.5t204 -62.5q78 0 161 18.5t179 53.5l80 -230q-82 -35 -196 -64.5t-251 -29.5q-158 0 -267.5 41t-178 115t-99 175t-30.5 222zM399 635h383 q-2 104 -51 151.5t-121 47.5q-84 0 -144 -56.5t-67 -142.5z" />
<glyph unicode="f" horiz-adv-x="819" d="M45 799v243h131v107q0 76 24.5 142.5t77 113.5t131 74.5t187.5 27.5q57 0 116.5 -9t137.5 -28l-47 -227q-53 14 -92 21.5t-82 7.5q-152 0 -152 -146v-84h307v-243h-307v-799h-301v799h-131z" />
<glyph unicode="g" horiz-adv-x="1226" d="M80 520q0 131 41 235.5t111.5 175t166 108.5t203.5 38q66 0 133.5 -14t122.5 -43l55 80l254 -96l-73 -205v-858q0 -119 -44 -197t-118 -124t-169 -64.5t-196 -18.5q-113 0 -213 18.5t-186 51.5l65 243q76 -25 156 -44t166 -19q37 0 79 6t78 21.5t58.5 44t22.5 75.5v58 q-43 -10 -91.5 -18.5t-99.5 -8.5q-145 0 -244.5 42t-161 117t-89 176t-27.5 220zM387 520q0 -160 62.5 -234.5t175.5 -74.5q45 0 87 7t83 20v538q-33 20 -79 32.5t-91 12.5q-47 0 -90 -16.5t-76 -52t-52.5 -93t-19.5 -139.5z" />
<glyph unicode="h" horiz-adv-x="1220" d="M125 0v1477h299v-457q66 25 128 41t146 16q113 0 192 -31.5t126 -87t68.5 -128t21.5 -154.5v-676h-301v655q0 88 -47 128t-115 40q-70 0 -126 -17.5t-95 -35.5v-770h-297z" />
<glyph unicode="i" horiz-adv-x="610" d="M45 799v243h440v-1042h-301v799h-139zM133 1329q0 72 46 123t138 51q88 0 134.5 -51t46.5 -123t-46 -122t-135 -50q-92 0 -138 50t-46 122z" />
<glyph unicode="j" horiz-adv-x="598" d="M-246 -395l70 229q41 -16 95 -31.5t108 -15.5q145 0 145 137v1118h301v-1142q0 -76 -22.5 -141.5t-71.5 -115t-129 -77t-193 -27.5q-57 0 -141 15.5t-162 50.5zM143 1329q0 72 46.5 123t138.5 51q88 0 134 -51t46 -123t-46 -122t-134 -50q-92 0 -138.5 50t-46.5 122z" />
<glyph unicode="k" horiz-adv-x="1196" d="M125 0v1479h301v-809h41q23 0 42 7t36 28l334 389l227 -179l-328 -356l398 -412l-218 -188l-380 395q-29 29 -50.5 44.5t-56.5 15.5h-45v-414h-301z" />
<glyph unicode="l" horiz-adv-x="571" d="M27 1233v244h419v-1477h-301v1233h-118z" />
<glyph unicode="m" horiz-adv-x="1783" d="M59 983l252 117l62 -107q59 33 137 58.5t172 25.5q92 0 159.5 -23.5t110.5 -62.5q68 31 157 58.5t181 27.5q113 0 185.5 -31.5t115.5 -88t60.5 -132t17.5 -161.5v-664h-299v639q0 102 -32.5 142t-104.5 40q-45 0 -97.5 -12t-93.5 -33q8 -29 10.5 -62.5t2.5 -68.5v-645 h-301v639q0 102 -29 142t-107 40q-51 0 -98 -15t-88 -36v-770h-299v788z" />
<glyph unicode="n" horiz-adv-x="1226" d="M59 983l256 117l60 -107q72 35 148.5 59.5t178.5 24.5q115 0 194 -31.5t127 -88t68.5 -132t20.5 -161.5v-664h-301v641q0 100 -39 140t-121 40q-63 0 -115.5 -15t-101.5 -38v-768h-301v788z" />
<glyph unicode="o" horiz-adv-x="1232" d="M74 522q0 117 35.5 218.5t104.5 176t170 117.5t234 43q141 0 244 -43t168.5 -117.5t97 -176t31.5 -218.5t-33.5 -218t-101.5 -177t-169.5 -119t-236.5 -43q-139 0 -241.5 43t-170 119t-100 177.5t-32.5 217.5zM383 522q0 -154 60 -232.5t175 -78.5t173.5 79t58.5 232 q0 309 -232 309q-115 0 -175 -77.5t-60 -231.5z" />
<glyph unicode="p" horiz-adv-x="1218" d="M59 989l242 111l70 -103q57 29 135 54.5t174 25.5q211 0 338 -141t127 -412q0 -121 -31 -223t-95.5 -176t-164.5 -116t-242 -42q-39 0 -86 6.5t-92 16.5v-439h-297v1237zM434 240q35 -12 74 -19.5t90 -7.5q49 0 92 16.5t75 53t50.5 96t18.5 145.5q0 160 -57.5 227.5 t-155.5 67.5q-45 0 -89.5 -11t-97.5 -38v-530z" />
<glyph unicode="q" horiz-adv-x="1202" d="M74 516q0 133 44 237.5t120.5 176t181 109.5t225.5 38q102 0 205.5 -13t226.5 -50v-1463h-301v439q-43 -10 -94 -17.5t-88 -7.5q-135 0 -233.5 40t-162 111.5t-94 174t-30.5 225.5zM383 522q0 -166 62.5 -237.5t164.5 -71.5q47 0 86 6t80 21v569q-31 8 -62.5 11t-62.5 3 q-115 0 -191.5 -73.5t-76.5 -227.5z" />
<glyph unicode="r" horiz-adv-x="880" d="M45 799v243h322l41 -96q80 61 149.5 89t144.5 28q35 0 76 -3t82 -18l-45 -241q-31 8 -53.5 10t-56.5 2q-78 0 -133.5 -27.5t-86.5 -56.5v-729h-301v799h-139z" />
<glyph unicode="s" horiz-adv-x="1017" d="M47 43l70 246q12 -6 48 -18.5t85 -26t106.5 -22.5t112.5 -9q80 0 126 25.5t46 66.5q0 25 -13.5 41t-42 27.5t-71.5 20.5t-102 24q-49 12 -105.5 28.5t-105.5 49t-82 88t-33 145.5q0 72 26.5 135.5t81 110.5t139.5 74.5t202 27.5q135 0 242.5 -27.5t166.5 -56.5l-84 -221 q-80 29 -158.5 45.5t-154.5 16.5q-160 0 -160 -84q0 -29 16.5 -46.5t43 -29.5t62.5 -19.5t75 -15.5q66 -14 130 -31.5t116.5 -51.5t84 -90t31.5 -147q0 -160 -124 -257t-367 -97q-68 0 -133.5 9.5t-121 21.5t-95 25.5t-58.5 21.5z" />
<glyph unicode="t" horiz-adv-x="884" d="M37 799v243h139v289h295v-289h311v-243h-311v-443q0 -84 41 -113.5t100 -29.5q39 0 85 7t112 24l55 -224q-29 -10 -66.5 -20t-79.5 -18.5t-86 -12.5t-83 -4q-84 0 -152.5 18.5t-118 59.5t-76 107.5t-26.5 164.5v484h-139z" />
<glyph unicode="u" horiz-adv-x="1230" d="M115 379v663h299v-645q0 -102 48 -140t124 -38q61 0 108 16.5t94 38.5v768h299v-804l95 -136l-217 -157l-107 108q-66 -35 -143.5 -61.5t-190.5 -26.5t-190.5 32t-126.5 87t-70.5 131t-21.5 164z" />
<glyph unicode="v" horiz-adv-x="1224" d="M31 997l286 74l240 -774q10 -31 23.5 -41t31.5 -10q20 0 33.5 11t24.5 42l233 772l291 -74l-254 -790q-37 -117 -113.5 -179.5t-218.5 -62.5q-139 0 -215 63.5t-112 178.5z" />
<glyph unicode="w" horiz-adv-x="1671" d="M82 1014l303 35l82 -744q2 -31 15.5 -49t31.5 -27.5t38.5 -12.5t39.5 -3q27 0 53.5 6t46.5 19v804h291v-804q18 -12 46 -18.5t54 -6.5q14 0 35 3t38.5 12.5t30.5 25.5t17 45l84 750l301 -35l-90 -748q-8 -61 -32.5 -116.5t-68.5 -96.5t-111.5 -64.5t-162.5 -23.5 q-78 0 -152.5 18.5t-135.5 53.5q-59 -33 -134 -52.5t-153 -19.5q-94 0 -162 21.5t-113 61.5t-69.5 95.5t-32.5 122.5z" />
<glyph unicode="x" horiz-adv-x="1220" d="M31 111l352 421l-307 388l229 165l270 -356q23 -31 41 -31q12 0 19.5 6.5t19.5 22.5l285 356l217 -163l-311 -381l344 -416l-225 -168l-312 383q-25 31 -41 31q-10 0 -18 -7.5t-25 -23.5l-319 -383z" />
<glyph unicode="y" horiz-adv-x="1202" d="M31 1006l293 65l174 -690q23 -86 48 -121t81 -35h32l220 846l292 -67l-303 -1178q-41 -154 -146.5 -220.5t-264.5 -66.5q-72 0 -159 14.5t-159 36.5l47 242q57 -16 118 -30.5t124 -14.5q51 0 90 21.5t55 87.5l21 73q-86 0 -148.5 17.5t-107.5 54.5t-75 92t-48 133z" />
<glyph unicode="z" horiz-adv-x="1091" d="M61 176q0 59 28 103.5t79 95.5l416 422h-492v245h905v-208l-530 -539q-14 -14 -14 -27q0 -20 28 -20h539v-248h-723q-117 0 -176.5 48t-59.5 128z" />
<glyph unicode="{" horiz-adv-x="892" d="M72 489v240h172v479q0 68 13 118t45 84t84 50.5t130 16.5h336v-242h-250q-41 0 -57.5 -18.5t-16.5 -59.5v-1134q0 -41 15.5 -59.5t58.5 -18.5h250v-242h-336q-78 0 -130 16.5t-84 50t-45 85t-13 118.5v516h-172z" />
<glyph unicode="|" horiz-adv-x="583" d="M145 -463v2083h291v-2083h-291z" />
<glyph unicode="}" horiz-adv-x="892" d="M41 -55h250q43 0 58.5 18.5t15.5 59.5v1134q0 41 -16.5 59.5t-57.5 18.5h-250v242h334q158 0 216 -68t58 -201v-479h172v-240h-172v-516q0 -137 -58.5 -203.5t-215.5 -66.5h-334v242z" />
<glyph unicode="~" horiz-adv-x="1298" d="M106 698q27 33 66 69t85 65.5t97.5 49t102.5 19.5q47 0 94 -13.5t93 -28.5t92 -28.5t89 -13.5q31 0 62 11.5t60.5 28.5t56 39t49.5 42l155 -176q-35 -37 -76.5 -75t-89 -68.5t-99.5 -49t-107 -18.5q-53 0 -102.5 13.5t-95.5 28.5t-90 28.5t-85 13.5q-53 0 -103.5 -36 t-93.5 -75z" />
<glyph unicode="&#xa2;" horiz-adv-x="1200" d="M150 653q0 100 26.5 190.5t78.5 162t129 121t177 69.5v240h256v-230q88 -10 163 -31.5t134 -46.5l-94 -231q-55 20 -98 33.5t-77 20.5t-63.5 9.5t-60.5 2.5q-68 0 -117 -22.5t-80.5 -63.5t-48 -97.5t-16.5 -124.5q0 -143 64.5 -220t187.5 -77q61 0 135 14.5t182 61.5 l90 -237q-70 -29 -145.5 -50.5t-155.5 -31.5v-240h-256v244q-111 18 -189.5 64t-127.5 116t-71.5 160t-22.5 194z" />
<glyph unicode="&#xa3;" horiz-adv-x="1282" d="M84 584v254h240l71 254q25 92 63 163.5t95 120.5t136 75t188 26q104 0 204.5 -30t194.5 -77l-109 -227q-63 31 -132.5 55.5t-135.5 24.5q-82 0 -130 -30t-73 -116l-67 -239h387v-254h-455l-69 -244q-10 -35 -11 -49q0 -39 60 -39h614v-252h-788q-63 0 -104.5 13.5t-66 37 t-34.5 55t-10 68.5t9 76t19 76l76 258h-172z" />
<glyph unicode="&#xa5;" horiz-adv-x="1390" d="M29 1384l274 115l291 -627q23 -47 42 -61t46 -14q31 0 49.5 15t40.5 62l289 625l274 -110l-245 -515q-27 -55 -54 -83h111v-234h-318v-100h318v-234h-318v-223h-309v223h-305v234h305v100h-305v234h104q-14 16 -28.5 38.5t-26.5 49.5z" />
<glyph unicode="&#xa8;" d="M111 1376q0 70 42 119t123 49q78 0 120 -49t42 -119t-42 -118t-120 -48q-82 0 -123.5 48t-41.5 118zM569 1376q0 70 40 119t124 49q80 0 121 -49t41 -119t-41 -118t-121 -48q-84 0 -124 48.5t-40 117.5z" />
<glyph unicode="&#xa9;" horiz-adv-x="1726" d="M123 737q0 154 53 288t150.5 233.5t234.5 158t305 58.5t305.5 -58.5t232.5 -158t147.5 -233.5t52.5 -288t-53.5 -288t-150.5 -233t-234.5 -157.5t-305.5 -58.5q-172 0 -309 58.5t-232.5 157.5t-145.5 233t-50 288zM303 737q0 -119 39 -222t111.5 -180t177 -122t235.5 -45 t235.5 45t177.5 122t110.5 180t37.5 222q0 117 -37.5 220.5t-110.5 180t-177.5 122t-235.5 45.5t-235.5 -45.5t-177 -122t-111.5 -180t-39 -220.5zM467 737q0 90 26.5 167t79 133.5t130 88t178.5 31.5q92 0 168.5 -20.5t130.5 -49.5l-74 -198q-76 29 -122 39t-99 10 q-86 0 -125 -54.5t-39 -146.5q0 -195 162 -194q51 0 103 12t122 43l68 -201q-72 -29 -145 -48t-157 -19q-113 0 -190.5 29.5t-125.5 83t-69.5 129t-21.5 165.5z" />
<glyph unicode="&#xab;" horiz-adv-x="1435" d="M115 551q0 78 47 130t121 107l309 230l141 -199l-303 -217q-25 -16 -24 -35q0 -18 18 -30l317 -230l-141 -201l-332 226q-76 51 -114.5 98t-38.5 121zM713 551q0 78 47 130t121 107l309 230l141 -199l-303 -217q-25 -16 -24 -35q0 -18 18 -30l317 -230l-141 -201 l-332 226q-76 51 -114.5 98t-38.5 121z" />
<glyph unicode="&#xad;" horiz-adv-x="962" d="M145 502v260h676v-260h-676z" />
<glyph unicode="&#xae;" horiz-adv-x="1267" d="M109 954q0 106 36.5 201.5t104 167.5t165 113t218.5 41q125 0 222 -40t164.5 -111t102.5 -165t35 -200q0 -109 -39 -202t-108.5 -163t-165.5 -110t-211 -40q-117 0 -214 39t-166 108t-106.5 162t-37.5 199zM248 954q0 -78 25.5 -147.5t74.5 -121.5t121 -82t164 -30 q98 0 171 31t121 84t71.5 124t23.5 149q0 80 -23.5 150.5t-71.5 123.5t-121 84t-171 31t-171 -32t-120 -86t-70.5 -126t-23.5 -152zM440 711v518h215q78 0 132.5 -34t54.5 -116q0 -53 -29 -88t-68 -53q8 -4 15.5 -11t15.5 -16l113 -135l-111 -84l-139 168q-14 16 -25.5 21.5 t-29.5 5.5v-176h-144zM584 1006h53q57 0 57 53q0 33 -15 42t-42 9h-53v-104z" />
<glyph unicode="&#xb4;" d="M330 1282l268 412l231 -162l-325 -373z" />
<glyph unicode="&#xb8;" d="M207 -449l76 160q6 -4 24.5 -11t45 -16.5t55 -15.5t57.5 -6q74 0 74 55q0 27 -18.5 42.5t-46.5 22.5t-61.5 10t-66.5 3l60 225h192l-27 -116q92 -12 146.5 -58.5t54.5 -132.5q0 -109 -71.5 -174t-213.5 -65q-33 0 -70.5 5t-75.5 14t-73 24.5t-61 33.5z" />
<glyph unicode="&#xbb;" horiz-adv-x="1435" d="M96 817l142 201l331 -225q76 -51 115 -98.5t39 -121.5q0 -78 -47 -130t-121 -107l-309 -230l-142 199l306 223q25 16 24 35q0 18 -18 31zM694 817l142 201l331 -225q76 -51 115 -98.5t39 -121.5q0 -78 -47 -130t-121 -107l-309 -230l-142 199l306 223q25 16 24 35 q0 18 -18 31z" />
<glyph unicode="&#x2c6;" d="M129 1276l264 344h193l252 -344l-162 -115l-189 225l-190 -223z" />
<glyph unicode="&#x2da;" d="M225 1454q0 59 22.5 111.5t61.5 91.5t91.5 61.5t111.5 22.5t111.5 -22.5t91.5 -61.5t61.5 -91.5t22.5 -111.5t-22.5 -111.5t-61.5 -91.5t-91.5 -61.5t-111.5 -22.5t-111.5 22.5t-91.5 61.5t-61.5 91.5t-22.5 111.5zM399 1454q0 -47 30 -83t83 -36t83 36t30 83t-31 82 t-82 35q-49 0 -81 -35t-32 -82z" />
<glyph unicode="&#x2dc;" d="M113 1229q0 139 40 218t130 91q12 2 24 2h25q49 -4 101 -21.5t99 -37.5l52 -19q29 -10 52 -17t40 -7q43 0 52 29.5t9 74.5h183q0 -154 -49.5 -233.5t-143.5 -79.5q-53 0 -112.5 20.5t-110.5 38.5l-55 21q-31 10 -56.5 18t-42.5 8q-41 0 -50 -28.5t-9 -77.5h-178z" />
<glyph unicode="&#x401;" horiz-adv-x="1296" d="M141 0v1477h1061v-260h-758v-316h586v-262h-586v-379h775v-260h-1078zM279 1755q0 70 42 119t123 49q78 0 121 -49t43 -119t-43 -119t-121 -49q-82 0 -123.5 49.5t-41.5 118.5zM739 1755q0 70 40 119t122 49q80 0 121 -49t41 -119t-41 -119t-121 -49q-82 0 -122 49.5 t-40 118.5z" />
<glyph unicode="&#x402;" horiz-adv-x="1587" d="M31 1217v260h1042v-260h-364v-299q59 25 138 45t185 20q94 0 177 -28.5t145.5 -88t99.5 -149.5t37 -213q0 -92 -22.5 -185.5t-78 -167t-148.5 -119.5t-236 -46q-47 0 -102.5 8t-80.5 16l35 236q23 -6 49.5 -10.5t55.5 -4.5q109 0 161 63.5t52 180.5q0 129 -61.5 186.5 t-156.5 57.5q-80 0 -147.5 -21.5t-99.5 -38.5v-659h-316v1217h-364z" />
<glyph unicode="&#x403;" horiz-adv-x="1183" d="M143 0v1477h1010v-263h-698v-1214h-312zM480 1733l268 412l231 -162l-325 -373z" />
<glyph unicode="&#x404;" horiz-adv-x="1427" d="M82 737q0 166 49 306.5t145.5 243t241 159.5t334.5 57q152 0 276.5 -29.5t229.5 -76.5l-94 -248q-61 25 -113.5 42t-99.5 28.5t-93.5 15.5t-97.5 4q-186 0 -298.5 -96t-143.5 -277h569v-260h-569q31 -186 143.5 -280.5t294.5 -94.5q57 0 107.5 6.5t99.5 18.5t102.5 30.5 t116.5 45.5l92 -246q-113 -53 -247 -86t-273 -33q-197 0 -342 52.5t-240.5 151.5t-142.5 241.5t-47 324.5z" />
<glyph unicode="&#x405;" horiz-adv-x="1331" d="M41 76l86 260q133 -53 252 -80t229 -27q164 0 241 51.5t77 139.5q0 49 -22.5 83t-63.5 56.5t-98.5 37.5t-129.5 28q-92 16 -183 41.5t-161.5 72.5t-114.5 121t-44 187q0 98 32.5 181t105 144.5t189.5 96t283 34.5q145 0 276 -30.5t232 -71.5l-76 -250 q-123 43 -233.5 66.5t-215.5 23.5q-141 0 -207.5 -42t-66.5 -122q0 -43 19.5 -72.5t57.5 -50t92 -35t122 -26.5q94 -18 188 -44t170 -75t123 -129t47 -203q0 -109 -42 -196.5t-123 -150t-199.5 -96.5t-274.5 -34q-94 0 -180 11.5t-158.5 27.5t-131 35.5t-97.5 36.5z" />
<glyph unicode="&#x406;" horiz-adv-x="602" d="M145 0v1477h312v-1477h-312z" />
<glyph unicode="&#x407;" horiz-adv-x="602" d="M-86 1755q0 70 42 119t123 49q78 0 121 -49t43 -119t-43 -119t-121 -49q-82 0 -123.5 49.5t-41.5 118.5zM145 0v1477h312v-1477h-312zM374 1755q0 70 40 119t122 49q80 0 121 -49t41 -119t-41 -119t-121 -49q-82 0 -122 49.5t-40 118.5z" />
<glyph unicode="&#x408;" horiz-adv-x="1073" d="M20 63l117 250q53 -33 135 -57.5t166 -24.5q45 0 86 10.5t71 36t47 70.5t17 117v1012h306v-1020q0 -248 -131.5 -370t-382.5 -122q-141 0 -256 32t-175 66z" />
<glyph unicode="&#x409;" horiz-adv-x="2183" d="M16 201q43 25 73 43t51.5 33.5t37 30t29.5 30.5q18 25 34.5 66.5t26.5 119.5l111 953h891v-559h305q246 0 383 -106.5t137 -334.5q0 -229 -149.5 -353t-436.5 -124h-555v1214h-290l-89 -716q-12 -104 -34.5 -182t-69.5 -140q-43 -55 -112.5 -109.5t-200.5 -119.5z M1270 254h231q55 0 104.5 10t86.5 35t58.5 66t21.5 102q0 63 -21.5 102t-56.5 59.5t-82 28t-99 7.5h-243v-410z" />
<glyph unicode="&#x40a;" horiz-adv-x="2271" d="M143 0v1477h314v-559h583v559h316v-559h305q246 0 383 -106.5t137 -334.5q0 -229 -149.5 -353t-434.5 -124h-557v664h-583v-664h-314zM1356 254h233q55 0 103.5 10t85.5 35t58.5 66t21.5 102q0 63 -21.5 102t-56.5 59.5t-82 28t-99 7.5h-243v-410z" />
<glyph unicode="&#x40b;" horiz-adv-x="1568" d="M31 1217v260h1044v-260h-366v-256q61 25 136 43t167 18q211 0 313 -106.5t102 -311.5v-604h-317v543q0 115 -45 158.5t-129 43.5q-74 0 -133.5 -20t-93.5 -39v-686h-314v1217h-364z" />
<glyph unicode="&#x40c;" horiz-adv-x="1384" d="M143 0v1477h312v-600h61q35 0 54.5 9t41.5 44l265 405q43 66 102 111t162 45q29 0 79 -6t91 -23l-35 -233q-16 4 -28.5 5t-24.5 1q-43 0 -68 -22.5t-47 -55.5l-213 -317q-10 -16 -25.5 -34t-31.5 -28l520 -622l-225 -193l-551 649h-127v-612h-312zM576 1733l268 412 l231 -162l-325 -373z" />
<glyph unicode="&#x40e;" horiz-adv-x="1345" d="M35 1401l282 117l285 -830q16 -49 41 -68.5t80 -15.5l301 905l295 -92l-387 -1087q-35 -98 -77 -165t-95 -107t-123 -56t-162 -16q-61 0 -124.5 9t-110.5 23l41 246q41 -10 90 -18t90 -8q66 0 103.5 22.5t68.5 97.5q-127 4 -200 57.5t-109 159.5zM287 1882l208 68 q20 -66 69.5 -103t127.5 -37q70 0 119 38t65 102l213 -64q-18 -72 -55 -126t-89 -90t-116.5 -53.5t-134.5 -17.5q-72 0 -138.5 17.5t-120.5 52.5t-93 88t-55 125z" />
<glyph unicode="&#x40f;" horiz-adv-x="1476" d="M143 0v1477h314v-1215h563v1215h313v-1477h-430v-291h-313v291h-447z" />
<glyph unicode="&#x410;" horiz-adv-x="1503" d="M25 37l356 1175q20 70 50 124.5t74 91t107.5 56t149.5 19.5q84 0 143.5 -18.5t101.5 -54t68.5 -87t46.5 -116.5l359 -1190l-307 -68l-134 451h-581l-135 -451zM530 680h435l-140 494q-12 41 -30.5 54t-42.5 13q-27 0 -44.5 -14.5t-29.5 -52.5z" />
<glyph unicode="&#x411;" horiz-adv-x="1376" d="M143 0v1477h1031v-260h-721v-304h317q119 0 216 -23.5t166 -74.5t105.5 -134t36.5 -202q0 -233 -153.5 -356t-438.5 -123h-559zM453 254h241q55 0 104.5 9t88.5 32.5t61.5 64.5t22.5 103q0 68 -22.5 106.5t-61.5 59t-88 25.5t-101 5h-245v-405z" />
<glyph unicode="&#x412;" horiz-adv-x="1361" d="M141 0v1477h584q106 0 198.5 -20.5t161 -65.5t107.5 -117t39 -172q0 -111 -53.5 -188.5t-118.5 -122.5q49 -18 93 -49t79 -74t55.5 -100.5t20.5 -127.5q0 -106 -38 -188t-106.5 -138.5t-164 -85t-210.5 -28.5h-647zM444 256h316q47 0 89 10t72.5 34t49 59.5t18.5 86.5 q0 57 -21.5 95.5t-58.5 60t-88 29.5t-108 8h-269v-383zM444 883h256q92 0 156 39t64 135q0 100 -68 132t-203 32h-205v-338z" />
<glyph unicode="&#x413;" horiz-adv-x="1183" d="M143 0v1477h1010v-263h-698v-1214h-312z" />
<glyph unicode="&#x414;" horiz-adv-x="1486" d="M16 262h146q37 41 65.5 93.5t51 121t39 155.5t28.5 199l72 646h901v-1215h111v-553h-316v291h-784v-291h-314v553zM516 262h490v952h-301l-54 -458q-23 -182 -53.5 -297t-81.5 -197z" />
<glyph unicode="&#x415;" horiz-adv-x="1296" d="M141 0v1477h1061v-260h-758v-316h586v-262h-586v-379h775v-260h-1078z" />
<glyph unicode="&#x416;" horiz-adv-x="2048" d="M31 143l461 623q-12 12 -24.5 30.5t-23.5 34.5l-147 299q-18 37 -45 69t-78 32q-25 0 -57 -6l-35 235q43 16 95 22.5t81 6.5q104 0 164.5 -38t101.5 -116l203 -403q18 -35 36.5 -45t55.5 -10h51v600h308v-600h51q37 0 55.5 10t36.5 45l203 403q41 78 101.5 116t164.5 38 q29 0 81 -6t95 -23l-35 -235q-35 6 -57 6q-51 0 -78 -32t-45 -69l-147 -299q-10 -16 -22.5 -34.5t-25.5 -30.5l461 -623l-227 -180l-492 649h-120v-612h-308v612h-120l-492 -649z" />
<glyph unicode="&#x417;" horiz-adv-x="1255" d="M27 139l139 230q43 -31 95 -56.5t107.5 -44t111 -29t106.5 -10.5q57 0 109.5 12.5t90 37t60 64.5t22.5 95q0 39 -12 74t-44 60.5t-85 40t-135 14.5h-279v254h262q74 0 122 18.5t76 47t38 62t10 64.5q0 96 -64.5 135t-160.5 39q-90 0 -192.5 -33.5t-192.5 -80.5l-129 215 q39 25 94 52t125 50t152 38t174 15q135 0 231 -29.5t155.5 -83t87 -126t27.5 -158.5q0 -106 -57 -195.5t-170 -138.5q129 -31 204 -123t75 -225q0 -96 -37 -178t-109.5 -142.5t-182.5 -95.5t-253 -35q-180 0 -326.5 48.5t-244.5 117.5z" />
<glyph unicode="&#x418;" horiz-adv-x="1484" d="M143 0v1477h312v-869l573 635v234h315v-1477h-315v852l-573 -639v-213h-312z" />
<glyph unicode="&#x419;" horiz-adv-x="1484" d="M143 0v1477h312v-869l573 635v234h315v-1477h-315v852l-573 -639v-213h-312zM347 1884l208 68q20 -66 69.5 -103t127.5 -37q70 0 119 38t65 102l213 -64q-18 -72 -55 -126t-89 -90t-116.5 -53.5t-134.5 -17.5q-72 0 -138.5 17.5t-120.5 52.5t-93 88t-55 125z" />
<glyph unicode="&#x41a;" horiz-adv-x="1384" d="M143 0v1477h312v-600h61q35 0 54.5 9t41.5 44l265 405q43 66 102 111t162 45q29 0 79 -6t91 -23l-35 -233q-16 4 -28.5 5t-24.5 1q-43 0 -68 -22.5t-47 -55.5l-213 -317q-10 -16 -25.5 -34t-31.5 -28l520 -622l-225 -193l-551 649h-127v-612h-312z" />
<glyph unicode="&#x41b;" horiz-adv-x="1439" d="M16 201q43 25 73 43t51.5 33.5t37 30t29.5 30.5q18 25 34.5 66.5t26.5 119.5l111 953h917v-1477h-313v1214h-319l-89 -716q-12 -104 -32.5 -180t-69.5 -142q-43 -55 -113.5 -109.5t-201.5 -119.5z" />
<glyph unicode="&#x41c;" horiz-adv-x="1722" d="M141 0v1477h287l383 -680q16 -29 27.5 -40.5t27.5 -11.5t27.5 11.5t28.5 40.5l378 680h277v-1477h-301v901l-156 -268q-66 -117 -129 -157t-135 -40q-74 0 -135.5 42t-124.5 157l-150 264v-899h-305z" />
<glyph unicode="&#x41d;" horiz-adv-x="1509" d="M141 0v1477h318v-590h594v590h317v-1477h-317v618h-594v-618h-318z" />
<glyph unicode="&#x41e;" horiz-adv-x="1591" d="M78 735q0 147 40 285.5t127 246t222 172t326 64.5q199 0 335 -64.5t220 -172t121.5 -245.5t37.5 -286q0 -147 -40 -286.5t-127 -247t-222 -172t-325 -64.5q-199 0 -335 64.5t-221 172t-122 247t-37 286.5zM401 735q0 -104 22.5 -196.5t71 -160t122.5 -107.5t176 -40 t175.5 40t122 107.5t71 160t22.5 196.5t-22.5 195.5t-71 160t-122 107.5t-175.5 39t-176 -39t-122.5 -107.5t-71 -159.5t-22.5 -196z" />
<glyph unicode="&#x41f;" horiz-adv-x="1488" d="M143 0v1477h1205v-1477h-316v1212h-575v-1212h-314z" />
<glyph unicode="&#x420;" horiz-adv-x="1294" d="M141 0v1477h566q106 0 201.5 -27t167 -85t113.5 -150.5t42 -221.5q0 -113 -41 -203t-112.5 -152.5t-170 -96t-213.5 -33.5h-248v-508h-305zM446 766h222q45 0 90 10t80.5 37t57.5 70t22 108q0 74 -20.5 120t-56.5 71.5t-81 34t-94 8.5h-220v-459z" />
<glyph unicode="&#x421;" horiz-adv-x="1423" d="M78 737q0 166 49 306.5t145.5 243t239.5 159.5t332 57q154 0 271.5 -30.5t221.5 -75.5l-94 -248q-74 31 -130 48t-103 26.5t-88 12.5t-84 3q-211 0 -324 -131t-113 -371q0 -256 114 -382t321 -126q59 0 108 6.5t97.5 18.5t101.5 31.5t123 48.5l94 -242 q-66 -31 -127.5 -54.5t-127 -39.5t-136 -24.5t-154.5 -8.5q-203 0 -343 58.5t-227 162t-127 244.5t-40 307z" />
<glyph unicode="&#x422;" horiz-adv-x="1245" d="M31 1217v260h1188v-260h-441v-1217h-307v1217h-440z" />
<glyph unicode="&#x423;" horiz-adv-x="1345" d="M35 1401l282 117l285 -830q16 -49 41 -68.5t80 -15.5l301 905l295 -92l-387 -1087q-35 -98 -77 -165t-95 -107t-123 -56t-162 -16q-61 0 -124.5 9t-110.5 23l41 246q41 -10 90 -18t90 -8q66 0 103.5 22.5t68.5 97.5q-127 4 -200 57.5t-109 159.5z" />
<glyph unicode="&#x424;" horiz-adv-x="1646" d="M88 723q0 133 44 235.5t123 174t185.5 112.5t233.5 53v201h301v-199q131 -10 239.5 -50t184.5 -109.5t118 -171t42 -232.5q0 -133 -45.5 -232t-123 -169t-184 -110t-231.5 -52v-199h-301v197q-133 8 -240.5 47t-184.5 107.5t-119 168t-42 228.5zM395 737q0 -135 72 -217 t211 -94v623q-139 -8 -211 -92.5t-72 -219.5zM969 426q139 12 210.5 94t71.5 217t-73.5 218t-208.5 94v-623z" />
<glyph unicode="&#x425;" horiz-adv-x="1501" d="M27 121l462 637l-401 594l256 149l348 -518q16 -27 28.5 -39t35.5 -12t34 11t27 40l338 514l254 -147l-387 -582l469 -647l-240 -156l-422 572q-23 31 -36 43t-33 12t-34.5 -12.5t-37.5 -42.5l-420 -572z" />
<glyph unicode="&#x426;" horiz-adv-x="1482" d="M143 0v1477h314v-1215h544v1215h314v-1215h108v-553h-313v291h-967z" />
<glyph unicode="&#x427;" horiz-adv-x="1417" d="M119 987v490h319v-410q0 -74 2 -113t13 -67q20 -63 73.5 -90t157.5 -27q80 0 155.5 13.5t116.5 27.5v666h318v-1477h-318v537q-66 -16 -152.5 -28.5t-166.5 -12.5q-221 0 -338 72.5t-160 219.5q-10 35 -15 87.5t-5 111.5z" />
<glyph unicode="&#x428;" horiz-adv-x="1921" d="M143 0v1477h314v-1215h346v1215h313v-1215h348v1215h314v-1477h-1635z" />
<glyph unicode="&#x429;" horiz-adv-x="1953" d="M143 0v1477h314v-1215h346v1215h313v-1215h348v1215h314v-1215h118v-553h-313v291h-1440z" />
<glyph unicode="&#x42a;" horiz-adv-x="1611" d="M27 1217v260h661v-559h324q248 0 380 -111t132 -332q0 -229 -147.5 -352t-434.5 -123h-565v1217h-350zM690 254h244q55 0 103 10t84 35t56.5 66t20.5 102t-19.5 99t-53 59.5t-79 30t-96.5 8.5h-260v-410z" />
<glyph unicode="&#x42b;" horiz-adv-x="1918" d="M143 0v1477h312v-559h311q246 0 379 -110t133 -333q0 -229 -146.5 -352t-433.5 -123h-555zM457 254h233q55 0 103.5 10t84 35t56 66t20.5 102t-19.5 99t-53 59.5t-79.5 30t-97 8.5h-248v-410zM1466 0v1477h312v-1477h-312z" />
<glyph unicode="&#x42c;" horiz-adv-x="1363" d="M143 0v1477h312v-559h309q248 0 379 -111t131 -332q0 -229 -146.5 -352t-433.5 -123h-551zM457 254h229q55 0 103.5 10t84 35t56 66t20.5 102t-19.5 99t-53 59.5t-79.5 30t-98 8.5h-243v-410z" />
<glyph unicode="&#x42d;" horiz-adv-x="1392" d="M45 78l94 246q59 -25 111.5 -43.5t102.5 -29.5t100.5 -16.5t107.5 -5.5q193 0 292 98.5t124 278.5h-567v260h567q-14 193 -111.5 283t-271.5 90q-115 0 -219.5 -22.5t-227.5 -69.5l-90 244q104 47 240.5 79.5t316.5 32.5q344 0 522.5 -187.5t178.5 -549.5 q0 -176 -43 -322.5t-133 -253t-229.5 -166t-329.5 -59.5q-160 0 -292 30t-243 83z" />
<glyph unicode="&#x42e;" horiz-adv-x="2146" d="M143 0v1477h314v-598h239q16 127 64.5 240.5t131.5 198.5t204 135t280 50q188 0 319.5 -65.5t214.5 -173t119.5 -246.5t36.5 -289q0 -152 -38.5 -290t-122.5 -243.5t-214 -168t-315 -62.5q-170 0 -292.5 52.5t-205.5 141.5t-128 207.5t-58 251.5h-235v-618h-314z M1010 731q0 -104 20.5 -195.5t65.5 -158t113.5 -105.5t166.5 -39t168 39t114 105.5t64.5 158t20.5 195.5t-20.5 196.5t-64.5 161t-113.5 108.5t-168.5 40q-98 0 -166.5 -40t-113.5 -108.5t-65.5 -160.5t-20.5 -197z" />
<glyph unicode="&#x42f;" horiz-adv-x="1314" d="M80 201q53 29 94 57.5t76 65.5q35 35 59.5 82t36.5 108l16 74q-55 20 -106 55t-90 85t-61.5 115.5t-22.5 145.5q0 119 41 210t111.5 152.5t167 93.5t208.5 32h564v-1477h-308v535h-211l-24 -103q-20 -80 -46 -145.5t-73 -122.5q-47 -59 -122 -110.5t-181 -100.5z M399 1006q0 -111 70.5 -161t183.5 -50h213v428h-217q-51 0 -97 -10.5t-80 -35t-53.5 -66.5t-19.5 -105z" />
<glyph unicode="&#x430;" horiz-adv-x="1148" d="M68 301q0 94 35.5 159.5t95 106.5t135.5 59.5t155 18.5h216v51q0 154 -170 154q-74 0 -148 -15.5t-158 -43.5l-79 217q84 31 198.5 57.5t237.5 26.5q131 0 212 -30t126 -85t60 -133t15 -174v-422l101 -144l-211 -151l-90 104q-53 -33 -139.5 -62.5t-192.5 -29.5 q-84 0 -156.5 18.5t-127 58.5t-85 103.5t-30.5 155.5zM369 317q0 -133 145 -133q61 0 107.5 16.5t87.5 43.5v207h-195q-68 0 -106.5 -37t-38.5 -97z" />
<glyph unicode="&#x431;" horiz-adv-x="1212" d="M76 623q0 135 23.5 258t76.5 223t139 172t209 102q35 10 72 17.5t72 17.5q74 16 114.5 55t67.5 111l240 -80q-10 -86 -36 -144.5t-75 -92.5q-57 -41 -141 -60.5t-193 -44.5q-125 -29 -186.5 -96.5t-79.5 -179.5q70 47 153.5 76.5t172.5 29.5q111 0 191.5 -38 t132.5 -102.5t78 -150.5t26 -180q0 -117 -31 -217t-95.5 -174t-166 -116t-242.5 -42q-145 0 -244.5 48t-161 134.5t-89 207t-27.5 266.5zM381 559q0 -78 11 -141.5t37 -109.5t69 -71.5t106 -25.5q109 0 165 75.5t56 213.5q0 238 -202 237q-33 0 -69 -8t-68.5 -21.5 t-60.5 -29.5t-44 -33v-86z" />
<glyph unicode="&#x432;" horiz-adv-x="1146" d="M129 0v1065h535q82 0 149.5 -15.5t115.5 -49t74.5 -87t26.5 -129.5q0 -78 -36 -133t-87 -84q31 -12 61.5 -31.5t55.5 -50t40 -72.5t15 -100q0 -145 -100 -229t-289 -84h-561zM426 223h227q59 0 93 26.5t34 80.5q0 39 -14 62.5t-37.5 34.5t-51.5 14t-54 3h-197v-221z M426 649h186q53 0 86 24.5t33 74.5q0 51 -28.5 72.5t-86.5 21.5h-190v-193z" />
<glyph unicode="&#x433;" horiz-adv-x="960" d="M129 0v1065h786v-252h-485v-813h-301z" />
<glyph unicode="&#x434;" horiz-adv-x="1206" d="M20 -231v473h127q31 51 60 109.5t45 131.5q20 92 30.5 227.5t10.5 354.5h762v-823h119v-486h-289v244h-576v-231h-289zM465 242h293v571h-174q-4 -102 -15.5 -204.5t-31.5 -184.5q-12 -47 -33 -96t-39 -86z" />
<glyph unicode="&#x435;" horiz-adv-x="1165" d="M80 524q0 115 32.5 218.5t98 181t163 123t228.5 45.5q246 0 363.5 -148.5t117.5 -415.5l-88 -82h-598q2 -47 19.5 -89t50.5 -73.5t78 -50t104 -18.5q39 0 75 3t76 11.5t87 21.5t108 34l80 -230q-80 -35 -196.5 -62.5t-253.5 -27.5q-147 0 -251 42t-169.5 117t-95 177 t-29.5 223zM397 635h387q0 123 -51 175t-131 52q-98 0 -147 -61.5t-58 -165.5z" />
<glyph unicode="&#x436;" horiz-adv-x="1536" d="M20 129l316 432q-12 10 -23.5 26.5t-17.5 28.5l-74 152q-20 35 -39.5 54.5t-56.5 19.5q-10 0 -21.5 -1t-25.5 -3l-23 217q51 16 90 19t62 3q90 0 137 -40t76 -95l119 -233q16 -37 49 -37h30v393h300v-393h30q33 0 49 37l119 233q29 53 76 94t137 41q20 0 59 -3t93 -19 l-23 -217q-14 2 -28.5 3t-24.5 1q-31 0 -48.5 -14.5t-31.5 -39.5l-84 -172q-6 -12 -17.5 -28.5t-23.5 -26.5l316 -432l-213 -162l-330 447h-55v-414h-300v414h-51l-334 -447z" />
<glyph unicode="&#x437;" d="M23 104l127 211q33 -20 73.5 -38.5t84.5 -33t89 -23.5t86 -9q74 0 119 25.5t45 85.5q0 45 -29.5 72.5t-101.5 27.5h-252v233h230q66 0 95 29t29 68q0 47 -32.5 72.5t-98.5 25.5t-147.5 -22.5t-151.5 -53.5l-112 203q33 18 80 38.5t106.5 37t127 28t140.5 11.5 q207 0 299.5 -78t92.5 -203q0 -162 -150 -250q90 -31 138 -92t48 -162q0 -72 -27.5 -132t-86 -105t-146.5 -71t-206 -26q-68 0 -135.5 10.5t-129 29t-115 42t-89.5 49.5z" />
<glyph unicode="&#x438;" horiz-adv-x="1208" d="M129 0v1065h299v-543l352 355v188h299v-1065h-299v543l-352 -359v-184h-299z" />
<glyph unicode="&#x439;" horiz-adv-x="1208" d="M129 0v1065h299v-543l352 355v188h299v-1065h-299v543l-352 -359v-184h-299zM209 1493l208 68q20 -66 69.5 -103t127.5 -37q70 0 119 38t65 102l213 -64q-18 -72 -55 -126t-89 -90t-116.5 -53.5t-134.5 -17.5q-72 0 -138.5 17.5t-120.5 52.5t-93 88t-55 125z" />
<glyph unicode="&#x43a;" horiz-adv-x="1101" d="M129 0v1065h299v-393h53q18 0 29.5 10t21.5 27l166 247q31 45 78 83t129 38q23 0 59.5 -3t90.5 -19l-23 -224q-12 4 -22.5 4.5t-20.5 0.5q-31 0 -53.5 -15.5t-42.5 -44.5l-105 -149q-12 -18 -25 -37t-30 -29l359 -432l-218 -164l-374 449h-72v-414h-299z" />
<glyph unicode="&#x43b;" horiz-adv-x="1155" d="M16 176q47 27 77 47.5t50 46.5q20 27 31.5 65t20.5 103l71 627h758v-1065h-299v813h-188l-54 -446q-10 -78 -25.5 -130.5t-54.5 -101.5q-29 -39 -85 -82t-173 -102z" />
<glyph unicode="&#x43c;" horiz-adv-x="1359" d="M129 0v1065h256l248 -440q10 -20 19.5 -29.5t27.5 -9.5q16 0 25.5 10t17.5 25l250 444h256v-1065h-293v551l-90 -148q-61 -100 -166 -100q-111 0 -168 98l-90 152v-553h-293z" />
<glyph unicode="&#x43d;" horiz-adv-x="1210" d="M129 0v1065h299v-393h352v393h301v-1065h-301v422h-352v-422h-299z" />
<glyph unicode="&#x43e;" horiz-adv-x="1249" d="M80 528q0 117 35 219.5t103.5 179.5t169.5 121t237 44q141 0 243.5 -44t169 -120t99 -178.5t32.5 -219.5t-33.5 -220t-101 -180t-170 -121t-239.5 -44q-145 0 -248 44t-169.5 121t-97 179.5t-30.5 218.5zM389 528q0 -154 61.5 -235.5t174.5 -81.5t174 84t61 235 q0 154 -61.5 235t-173.5 81q-115 0 -175.5 -82t-60.5 -236z" />
<glyph unicode="&#x43f;" horiz-adv-x="1191" d="M129 0v1065h934v-1065h-303v815h-328v-815h-303z" />
<glyph unicode="&#x440;" horiz-adv-x="1228" d="M57 1016l248 98l64 -100q59 29 137 53.5t174 24.5q106 0 193.5 -36t148.5 -105.5t94 -173t33 -236.5q0 -127 -32 -232.5t-97.5 -181.5t-167.5 -119t-244 -43q-39 0 -85 5t-91 16v-432h-299v1261zM432 236q37 -10 74 -17.5t88 -7.5q49 0 94 17.5t78 55.5t52.5 97t19.5 145 q0 166 -56.5 239t-152.5 73q-51 0 -97.5 -13.5t-99.5 -36.5v-552z" />
<glyph unicode="&#x441;" horiz-adv-x="1087" d="M80 522q0 119 38 223.5t109.5 181.5t178 121t241.5 44q121 0 219.5 -22.5t175.5 -55.5l-92 -234q-96 35 -160.5 48.5t-130.5 13.5q-131 0 -200.5 -88t-69.5 -230q0 -145 68.5 -227t189.5 -82q33 0 65.5 2t69.5 10.5t80 22.5t96 37l89 -236q-86 -41 -196 -63.5t-224 -22.5 q-150 0 -253.5 42t-169 117t-95 177t-29.5 221z" />
<glyph unicode="&#x442;" horiz-adv-x="1038" d="M33 815v250h971v-250h-336v-815h-299v815h-336z" />
<glyph unicode="&#x443;" horiz-adv-x="1202" d="M31 1026l293 66l174 -711q23 -86 48 -121t81 -35h32l220 867l292 -68l-303 -1198q-41 -154 -146.5 -220.5t-264.5 -66.5q-72 0 -159 14.5t-159 36.5l47 242q57 -16 118 -30.5t124 -14.5q51 0 90 21.5t55 87.5l21 73q-86 0 -148.5 17.5t-107.5 54.5t-75 92t-48 133z" />
<glyph unicode="&#x444;" horiz-adv-x="1511" d="M80 514q0 102 32.5 192.5t98 161t166 118.5t233.5 65v426h297v-424q143 -18 242.5 -67.5t163 -120t92.5 -160t29 -189.5q0 -102 -31 -193.5t-94.5 -163t-164 -119.5t-237.5 -67v-417h-297v419q-147 14 -248.5 61.5t-164 118t-90 163t-27.5 196.5zM373 514 q0 -123 62.5 -202t187.5 -99v594q-125 -16 -187.5 -94t-62.5 -199zM897 217q113 20 176.5 94t63.5 203t-63.5 203t-176.5 92v-592z" />
<glyph unicode="&#x445;" horiz-adv-x="1171" d="M12 117l336 411l-291 416l234 148l254 -383q23 -33 43 -33q12 0 21 6t22 25l270 383l223 -146l-293 -412l326 -415l-223 -160l-303 387q-14 16 -23.5 22.5t-19.5 6.5q-12 0 -20.5 -6.5t-22.5 -22.5l-312 -387z" />
<glyph unicode="&#x446;" horiz-adv-x="1230" d="M129 0v1065h303v-823h346v823h301v-823h119v-486h-289v244h-780z" />
<glyph unicode="&#x447;" horiz-adv-x="1159" d="M106 692v373h302v-279q0 -63 6 -103t23.5 -62.5t48 -30.5t81.5 -8q47 0 92.5 6t67.5 14v463h301v-1065h-301v352q-45 -10 -103.5 -15t-105.5 -5q-203 0 -307.5 84t-104.5 276z" />
<glyph unicode="&#x448;" horiz-adv-x="1583" d="M129 0v1065h303v-823h209v823h297v-823h213v823h301v-1065h-1323z" />
<glyph unicode="&#x449;" horiz-adv-x="1603" d="M129 0v1065h303v-823h209v823h297v-823h213v823h301v-815h117v-494h-287v244h-1153z" />
<glyph unicode="&#x44a;" horiz-adv-x="1241" d="M33 817v248h520v-391h221q121 0 198 -28t122 -74t61 -106t16 -124q0 -158 -105 -250t-282 -92h-526v817h-225zM553 221h192q55 0 91 32t36 91q0 57 -37.5 88t-105.5 31h-176v-242z" />
<glyph unicode="&#x44b;" horiz-adv-x="1613" d="M129 0v1065h293v-391h217q121 0 198.5 -28t122 -74t61.5 -106t17 -124q0 -158 -106.5 -250t-282.5 -92h-520zM422 221h190q53 0 89 32t36 91q0 57 -36.5 88t-104.5 31h-174v-242zM1182 0v1065h301v-1065h-301z" />
<glyph unicode="&#x44c;" horiz-adv-x="1105" d="M129 0v1065h293v-391h217q121 0 198.5 -28t122 -74t61.5 -106t17 -124q0 -158 -106.5 -250t-282.5 -92h-520zM422 221h190q53 0 89 32t36 91q0 57 -36.5 88t-104.5 31h-174v-242z" />
<glyph unicode="&#x44d;" horiz-adv-x="1087" d="M53 47l88 229q96 -37 166 -50t133 -13q109 0 169.5 53t72.5 154h-416v217h420q-12 104 -66.5 156.5t-164.5 52.5q-66 0 -139.5 -17.5t-172.5 -56.5l-88 223q82 41 197 69t240 28q139 0 237 -42t159.5 -117t90.5 -176.5t29 -217.5q0 -123 -34 -228.5t-103.5 -182.5 t-174 -120t-245.5 -43q-125 0 -223.5 22.5t-174.5 59.5z" />
<glyph unicode="&#x44e;" horiz-adv-x="1720" d="M131 0v1065h301v-428h160q12 98 50 181t102.5 143.5t155.5 95.5t210 35q141 0 240.5 -44t162 -120t92 -178.5t29.5 -219.5t-30.5 -220t-94 -180t-163 -121t-236.5 -44q-125 0 -217 34t-154.5 92.5t-98.5 139t-48 177.5h-160v-408h-301zM893 528q0 -154 52 -235.5 t165 -81.5t164 84t51 235q0 154 -51 235t-164 81q-115 0 -166 -82t-51 -236z" />
<glyph unicode="&#x44f;" horiz-adv-x="1126" d="M80 166q45 23 79 44t60 50q23 25 35 58.5t29 87.5q-86 33 -143.5 106.5t-57.5 189.5q0 92 29.5 161t85 114t132.5 66.5t171 21.5h495v-1065h-297v367h-139q-16 -68 -34.5 -130.5t-65.5 -119.5q-39 -47 -99.5 -89t-152.5 -81zM383 700q0 -63 39 -94t102 -31h174v250h-178 q-61 0 -99 -30.5t-38 -94.5z" />
<glyph unicode="&#x451;" horiz-adv-x="1165" d="M80 524q0 115 32.5 218.5t98 181t163 123t228.5 45.5q246 0 363.5 -148.5t117.5 -415.5l-88 -82h-598q2 -47 19.5 -89t50.5 -73.5t78 -50t104 -18.5q39 0 75 3t76 11.5t87 21.5t108 34l80 -230q-80 -35 -196.5 -62.5t-253.5 -27.5q-147 0 -251 42t-169.5 117t-95 177 t-29.5 223zM215 1376q0 70 42 119t123 49q78 0 120 -49t42 -119t-42 -118t-120 -48q-82 0 -123.5 48t-41.5 118zM397 635h387q0 123 -51 175t-131 52q-98 0 -147 -61.5t-58 -165.5zM673 1376q0 70 40 119t124 49q80 0 121 -49t41 -119t-41 -118t-121 -48q-84 0 -124 48.5 t-40 117.5z" />
<glyph unicode="&#x452;" horiz-adv-x="1245" d="M16 1104v239h123v134h299v-134h301v-239h-301v-199q66 25 134.5 41.5t150.5 16.5q113 0 189.5 -32t122.5 -87.5t65.5 -128t19.5 -154.5v-661q0 -76 -18.5 -141.5t-62.5 -115t-119.5 -77t-188.5 -27.5q-29 0 -68.5 4t-85 11.5t-90.5 19.5t-84 31l70 229 q39 -16 101.5 -31.5t117.5 -15.5q72 0 99.5 33t27.5 104v617q0 88 -44 128t-111 40q-70 0 -128.5 -16.5t-97.5 -35.5v-657h-299v1104h-123z" />
<glyph unicode="&#x453;" horiz-adv-x="960" d="M129 0v1065h786v-252h-485v-813h-301zM344 1282l268 412l231 -162l-325 -373z" />
<glyph unicode="&#x454;" horiz-adv-x="1091" d="M80 522q0 119 38 223.5t109.5 181.5t178 121t241.5 44q121 0 222.5 -25t172.5 -59l-92 -228q-51 18 -91 30.5t-73.5 20t-64.5 10.5t-62 3q-106 0 -170.5 -54.5t-80.5 -150.5h413v-217h-418q10 -96 76 -152.5t180 -56.5q66 0 138.5 12.5t163.5 53.5l83 -224 q-88 -43 -194.5 -66.5t-214.5 -23.5q-152 0 -258.5 42t-172 117t-95 177t-29.5 221z" />
<glyph unicode="&#x455;" horiz-adv-x="1021" d="M47 43l68 233q23 -10 64.5 -22t93 -23.5t104.5 -18.5t98 -7q92 0 129 26.5t37 69.5q0 55 -53 77.5t-158 45.5q-57 12 -117.5 31.5t-110.5 54.5t-83 92t-33 146q0 72 26.5 134t81 109t139.5 74t202 27q133 0 241.5 -26t167.5 -52l-84 -219q-82 29 -160.5 47t-158.5 18 q-86 0 -120 -24.5t-34 -65.5q0 -29 16.5 -48.5t43 -31.5t62.5 -21.5t75 -17.5q66 -14 131 -33.5t116.5 -56.5t83 -94t31.5 -148q0 -162 -113.5 -258t-357.5 -96q-68 0 -137.5 9.5t-127.5 21.5t-101 25.5t-62 21.5z" />
<glyph unicode="&#x456;" horiz-adv-x="624" d="M53 823v242h432v-1065h-299v823h-133zM133 1350q0 72 48 121t138 49q86 0 135.5 -49.5t49.5 -120.5q0 -72 -49.5 -120t-135.5 -48q-94 0 -140 49t-46 119z" />
<glyph unicode="&#x457;" horiz-adv-x="624" d="M-111 1376q0 70 41 119t125 49q78 0 120 -49t42 -119q0 -74 -43 -120t-119 -46q-84 0 -125 49.5t-41 116.5zM47 823v242h440v-1065h-301v823h-139zM375 1376q0 72 39 120t125 48q80 0 120.5 -49t40.5 -119q0 -74 -41.5 -120t-119.5 -46q-86 0 -125 49.5t-39 116.5z" />
<glyph unicode="&#x458;" horiz-adv-x="593" d="M-270 -395l69 229l43 -14q41 -12 88 -22.5t88 -10.5q53 0 80 21.5t38 56.5t11 80v94v1026h302v-1165q0 -168 -89.5 -264.5t-300.5 -96.5q-29 0 -69.5 4t-85.5 11.5t-91 19.5t-83 31zM113 1337q0 72 48 121t138 49q86 0 135 -49t49 -121t-49 -121t-135 -49 q-94 0 -140 50.5t-46 119.5z" />
<glyph unicode="&#x459;" horiz-adv-x="1656" d="M27 180q47 27 75.5 47.5t49.5 46.5q18 23 25 52.5t11 70.5l78 668h721v-395h203q121 0 197.5 -28t121.5 -74t61.5 -105.5t16.5 -122.5q0 -160 -105.5 -250t-283.5 -90h-510v813h-149l-56 -448q-10 -80 -25.5 -138.5t-60.5 -111.5q-33 -41 -89 -79t-150 -85zM987 221h174 q53 0 89 30t36 91q0 55 -37 85t-104 30h-158v-236z" />
<glyph unicode="&#x45a;" horiz-adv-x="1738" d="M129 0v1065h299v-395h340v395h301v-395h203q121 0 197.5 -28t121.5 -74t61.5 -104t16.5 -122q0 -160 -105.5 -251t-283.5 -91h-512v455h-340v-455h-299zM1069 221h174q53 0 89 30t36 91q0 57 -37 86t-104 29h-158v-236z" />
<glyph unicode="&#x45b;" horiz-adv-x="1245" d="M16 1104v239h123v134h299v-134h301v-239h-301v-201q66 27 133.5 43.5t151.5 16.5q113 0 189.5 -32t122.5 -87.5t65.5 -128t19.5 -154.5v-561h-301v541q0 94 -44 131t-111 37q-70 0 -128.5 -16.5t-97.5 -35.5v-657h-299v1104h-123z" />
<glyph unicode="&#x45c;" horiz-adv-x="1101" d="M129 0v1065h299v-393h53q18 0 29.5 10t21.5 27l166 247q31 45 78 83t129 38q23 0 59.5 -3t90.5 -19l-23 -224q-12 4 -22.5 4.5t-20.5 0.5q-31 0 -53.5 -15.5t-42.5 -44.5l-105 -149q-12 -18 -25 -37t-30 -29l359 -432l-218 -164l-374 449h-72v-414h-299zM439 1282 l268 412l231 -162l-325 -373z" />
<glyph unicode="&#x45e;" horiz-adv-x="1202" d="M31 1026l293 66l174 -711q23 -86 48 -121t81 -35h32l220 867l292 -68l-303 -1198q-41 -154 -146.5 -220.5t-264.5 -66.5q-72 0 -159 14.5t-159 36.5l47 242q57 -16 118 -30.5t124 -14.5q51 0 90 21.5t55 87.5l21 73q-86 0 -148.5 17.5t-107.5 54.5t-75 92t-48 133z M213 1493l208 68q20 -66 69.5 -103t127.5 -37q70 0 119 38t65 102l213 -64q-18 -72 -55 -126t-89 -90t-116.5 -53.5t-134.5 -17.5q-72 0 -138.5 17.5t-120.5 52.5t-93 88t-55 125z" />
<glyph unicode="&#x45f;" horiz-adv-x="1208" d="M129 0v1065h301v-823h348v823h301v-1065h-329v-244h-289v244h-332z" />
<glyph unicode="&#x490;" horiz-adv-x="1189" d="M143 0v1477h705v235h305v-498h-698v-1214h-312z" />
<glyph unicode="&#x491;" horiz-adv-x="960" d="M129 0v1065h496v225h290v-477h-485v-813h-301z" />
<glyph unicode="&#x2000;" horiz-adv-x="1072" />
<glyph unicode="&#x2001;" horiz-adv-x="2145" />
<glyph unicode="&#x2002;" horiz-adv-x="1072" />
<glyph unicode="&#x2003;" horiz-adv-x="2145" />
<glyph unicode="&#x2004;" horiz-adv-x="715" />
<glyph unicode="&#x2005;" horiz-adv-x="536" />
<glyph unicode="&#x2006;" horiz-adv-x="357" />
<glyph unicode="&#x2007;" horiz-adv-x="357" />
<glyph unicode="&#x2008;" horiz-adv-x="268" />
<glyph unicode="&#x2009;" horiz-adv-x="429" />
<glyph unicode="&#x200a;" horiz-adv-x="119" />
<glyph unicode="&#x2010;" horiz-adv-x="962" d="M145 502v260h676v-260h-676z" />
<glyph unicode="&#x2011;" horiz-adv-x="962" d="M145 502v260h676v-260h-676z" />
<glyph unicode="&#x2012;" horiz-adv-x="962" d="M145 502v260h676v-260h-676z" />
<glyph unicode="&#x2013;" d="M0 492v239h1024v-239h-1024z" />
<glyph unicode="&#x2014;" horiz-adv-x="2048" d="M0 492v239h2048v-239h-2048z" />
<glyph unicode="&#x2018;" horiz-adv-x="522" d="M88 1047q0 20 4 44.5t15.5 61.5t32 92t55.5 137l49 113l182 -57l-80 -240q39 -16 69.5 -51t30.5 -94q0 -74 -44 -121t-134 -47q-92 0 -136 49t-44 113z" />
<glyph unicode="&#x2019;" horiz-adv-x="522" d="M78 1333q0 74 44 121t134 47q92 0 136 -49t44 -113q0 -20 -4 -44.5t-15 -61.5t-31.5 -92.5t-55.5 -136.5l-49 -113l-183 57l80 240q-39 16 -69.5 51t-30.5 94z" />
<glyph unicode="&#x201a;" horiz-adv-x="522" d="M78 150q0 74 44 120.5t134 46.5q92 0 136 -49t44 -112q0 -20 -4 -45t-15 -62t-31.5 -92t-55.5 -137l-49 -113l-183 57l80 240q-39 16 -69.5 51t-30.5 95z" />
<glyph unicode="&#x201c;" horiz-adv-x="946" d="M88 1047q0 20 4 44.5t15.5 61.5t32 92t55.5 137l49 113l182 -57l-80 -240q39 -16 69.5 -51t30.5 -94q0 -74 -44 -121t-134 -47q-92 0 -136 49t-44 113zM512 1047q0 20 4 44.5t15.5 61.5t32 92t55.5 137l49 113l182 -57l-80 -240q39 -16 69.5 -51t30.5 -94q0 -74 -44 -121 t-134 -47q-92 0 -136 49t-44 113z" />
<glyph unicode="&#x201d;" horiz-adv-x="946" d="M78 1333q0 74 44 121t134 47q92 0 136 -49t44 -113q0 -20 -4 -44.5t-15 -61.5t-31.5 -92.5t-55.5 -136.5l-49 -113l-183 57l80 240q-39 16 -69.5 51t-30.5 94zM502 1333q0 74 44 121t134 47q92 0 136 -49t44 -113q0 -20 -4 -44.5t-15 -61.5t-31.5 -92.5t-55.5 -136.5 l-49 -113l-183 57l80 240q-39 16 -69.5 51t-30.5 94z" />
<glyph unicode="&#x201e;" horiz-adv-x="946" d="M78 150q0 74 44 120.5t134 46.5q92 0 136 -49t44 -112q0 -20 -4 -45t-15 -62t-31.5 -92t-55.5 -137l-49 -113l-183 57l80 240q-39 16 -69.5 51t-30.5 95zM502 150q0 74 44 120.5t134 46.5q92 0 136 -49t44 -112q0 -20 -4 -45t-15 -62t-31.5 -92t-55.5 -137l-49 -113 l-183 57l80 240q-39 16 -69.5 51t-30.5 95z" />
<glyph unicode="&#x2022;" d="M254 678q0 117 61.5 192.5t198.5 75.5q131 0 193.5 -75.5t62.5 -192.5t-62.5 -192.5t-193.5 -75.5q-137 0 -198.5 75.5t-61.5 192.5z" />
<glyph unicode="&#x2026;" horiz-adv-x="1724" d="M92 143q0 76 41 125t129 49t129 -49t41 -125q0 -78 -41 -127t-129 -49t-129 49.5t-41 126.5zM692 143q0 76 41 125t129 49t129 -49t41 -125q0 -78 -41 -127t-129 -49t-129 49.5t-41 126.5zM1292 143q0 76 41 125t129 49t129 -49t41 -125q0 -78 -41 -127t-129 -49 t-129 49.5t-41 126.5z" />
<glyph unicode="&#x202f;" horiz-adv-x="429" />
<glyph unicode="&#x2039;" horiz-adv-x="837" d="M115 551q0 78 47 130t121 107l309 230l141 -199l-303 -217q-25 -16 -24 -35q0 -18 18 -30l317 -230l-141 -201l-332 226q-76 51 -114.5 98t-38.5 121z" />
<glyph unicode="&#x203a;" horiz-adv-x="837" d="M96 817l142 201l331 -225q76 -51 115 -98.5t39 -121.5q0 -78 -47 -130t-121 -107l-309 -230l-142 199l306 223q25 16 24 35q0 18 -18 31z" />
<glyph unicode="&#x205f;" horiz-adv-x="536" />
<glyph unicode="&#x20ac;" horiz-adv-x="1427" d="M96 424v229h942v-229h-458q35 -100 107.5 -151.5t201.5 -51.5q45 0 86 5t86 17.5t96 31t117 44.5l88 -235q-113 -55 -226.5 -87t-261.5 -32q-141 0 -248.5 36t-184 97.5t-123 145.5t-64.5 180h-158zM96 752v231h156q27 111 80 202t132 155.5t183.5 100.5t237.5 36 q141 0 256.5 -33t210.5 -76l-90 -233q-61 27 -110.5 43t-92.5 25t-84 12.5t-84 3.5q-141 0 -217 -60.5t-105 -175.5h469v-231h-942z" />
<glyph unicode="&#x2122;" horiz-adv-x="1867" d="M78 1247v230h696v-230h-221v-596h-256v596h-219zM874 651v826h207l189 -351q16 -29 33 -28q16 0 32 28l185 351h209v-826h-234v385l-70 -108q-25 -41 -52 -59.5t-68 -18.5t-69 19.5t-56 60.5l-72 106v-385h-234z" />
<glyph unicode="&#x25fc;" horiz-adv-x="1085" d="M0 0v1085h1085v-1085h-1085z" />
</font>
</defs>
</svg>
