<?xml version="1.0" standalone="no"?>
<!DOCTYPE svg PUBLIC "-//W3C//DTD SVG 1.1//EN" "http://www.w3.org/Graphics/SVG/1.1/DTD/svg11.dtd" >
<svg xmlns="http://www.w3.org/2000/svg">
<metadata>Generated by IcoMoon</metadata>
<defs>
<font id="ouf-fonts" horiz-adv-x="1024">
<font-face units-per-em="1024" ascent="960" descent="-64" />
<missing-glyph horiz-adv-x="1024" />
<glyph unicode="&#x20;" horiz-adv-x="512" d="" />
<glyph unicode="&#xe900;" glyph-name="add" d="M512 960c-281.6 0-512-230.4-512-512s230.4-512 512-512 512 230.4 512 512-230.4 512-512 512zM768 396.8h-204.8v-204.8h-102.4v204.8h-204.8v102.4h204.8v204.8h102.4v-204.8h204.8v-102.4z" />
<glyph unicode="&#xe901;" glyph-name="arrow-down" d="M955.349 705.005c-45.786 78.439-107.891 140.545-186.333 186.328-78.456 45.781-164.101 68.667-257.001 68.667-92.891 0-178.562-22.886-257.003-68.667-78.446-45.776-140.552-107.882-186.338-186.328-45.788-78.451-68.674-164.122-68.674-257.006 0-92.889 22.893-178.546 68.667-257.001 45.783-78.439 107.889-140.545 186.335-186.333 78.451-45.779 164.115-68.667 257.003-68.667s178.562 22.888 257.008 68.667c78.442 45.772 140.545 107.894 186.326 186.333 45.774 78.449 68.658 164.117 68.658 257.001 0.002 92.893-22.884 178.567-68.648 257.006zM844.668 482.002l-302.656-302.668c-8.439-8.439-18.447-12.675-30.003-12.675-11.554 0-21.55 4.233-29.998 12.675l-302.668 302.668c-8.446 8.441-12.67 18.442-12.67 29.994 0 11.556 4.224 21.564 12.67 30.008l67.995 67.999c8.455 8.448 18.447 12.67 30.008 12.67 11.554 0 21.555-4.224 29.998-12.67l204.668-204.668 204.668 204.668c8.439 8.448 18.442 12.67 29.998 12.67s21.56-4.224 29.998-12.67l68.004-67.999c8.455-8.444 12.675-18.452 12.675-30.008-0.005-11.552-4.224-21.553-12.686-29.994z" />
<glyph unicode="&#xe902;" glyph-name="arrow-left" d="M955.349 705.005c-45.786 78.439-107.891 140.545-186.333 186.328-78.456 45.781-164.101 68.667-257.001 68.667-92.891 0-178.562-22.886-257.003-68.667-78.446-45.776-140.552-107.882-186.338-186.328-45.788-78.451-68.674-164.122-68.674-257.006 0-92.889 22.893-178.546 68.667-257.001 45.783-78.439 107.889-140.545 186.335-186.333 78.451-45.779 164.115-68.667 257.003-68.667s178.562 22.888 257.008 68.667c78.442 45.772 140.545 107.894 186.326 186.333 45.774 78.449 68.658 164.117 68.658 257.001 0.002 92.893-22.884 178.567-68.648 257.006zM674.005 243.34c8.455-8.439 12.691-18.449 12.691-29.998 0-11.554-4.233-21.567-12.691-29.998l-68.011-68.020c-8.43-8.446-18.426-12.675-29.982-12.658-11.561 0-21.557 4.229-30.015 12.658l-302.661 302.684c-8.446 8.453-12.665 18.442-12.665 30.001 0 11.556 4.219 21.56 12.665 29.998l302.661 302.673c8.455 8.441 18.452 12.665 30.015 12.665 11.556 0 21.55-4.224 29.982-12.665l68.011-68.020c8.455-8.441 12.691-18.442 12.691-29.998 0-11.549-4.233-21.56-12.691-29.994l-204.658-204.668 204.658-204.658z" />
<glyph unicode="&#xe903;" glyph-name="arrow-right" d="M955.349 705.005c-45.786 78.439-107.891 140.545-186.333 186.328-78.456 45.781-164.101 68.667-257.001 68.667-92.891 0-178.562-22.886-257.003-68.667-78.446-45.776-140.552-107.882-186.338-186.328-45.788-78.451-68.674-164.122-68.674-257.006 0-92.889 22.893-178.546 68.667-257.001 45.783-78.439 107.889-140.545 186.335-186.333 78.451-45.779 164.115-68.667 257.003-68.667s178.562 22.888 257.008 68.667c78.442 45.772 140.545 107.894 186.326 186.333 45.774 78.449 68.658 164.117 68.658 257.001 0.002 92.893-22.884 178.567-68.648 257.006zM780.685 418.007l-302.675-302.682c-8.446-8.437-18.438-12.675-29.998-12.675-11.563 0-21.564 4.236-30.005 12.675l-67.999 68.020c-8.446 8.437-12.67 18.442-12.67 29.998 0 11.538 4.224 21.557 12.67 29.998l204.675 204.658-204.684 204.668c-8.446 8.434-12.67 18.442-12.67 29.994 0 11.556 4.224 21.555 12.67 29.998l67.999 68.020c8.451 8.441 18.442 12.665 30.005 12.665 11.559 0 21.56-4.224 30.005-12.665l302.675-302.673c8.437-8.439 12.656-18.442 12.656-29.998 0.002-11.561-4.217-21.567-12.654-30.003z" />
<glyph unicode="&#xe904;" glyph-name="arrow-up" d="M955.349 705.005c-45.786 78.439-107.891 140.545-186.333 186.328-78.456 45.781-164.101 68.667-257.001 68.667-92.891 0-178.562-22.886-257.003-68.667-78.446-45.776-140.552-107.882-186.338-186.328-45.788-78.451-68.674-164.122-68.674-257.006 0-92.889 22.893-178.546 68.667-257.001 45.783-78.439 107.889-140.545 186.335-186.333 78.451-45.779 164.115-68.667 257.003-68.667s178.562 22.888 257.008 68.667c78.442 45.772 140.545 107.894 186.326 186.333 45.774 78.449 68.658 164.117 68.658 257.001 0.002 92.893-22.884 178.567-68.648 257.006zM844.684 354.013l-68.004-68.018c-8.455-8.439-18.449-12.665-29.998-12.665-11.554 0-21.567 4.226-29.998 12.665l-204.677 204.675-204.658-204.675c-8.444-8.439-18.442-12.665-29.998-12.665-11.559 0-21.56 4.226-30.005 12.665l-67.997 68.018c-8.446 8.423-12.67 18.442-12.67 29.998 0 11.54 4.224 21.546 12.67 30.001l302.67 302.661c8.446 8.446 18.442 12.665 29.998 12.665s21.571-4.219 29.996-12.665l302.673-302.661c8.437-8.455 12.665-18.459 12.665-30.001 0-11.554-4.219-21.574-12.665-29.998z" />
<glyph unicode="&#xe905;" glyph-name="buy" d="M377.655 336.332h515.676c29.353 0 45.114 31.535 53.351 59.908l77.318 362.203h-776.993l77.298-362.203c6.146-28.714 24.009-59.908 53.35-59.908zM811.885 428.804l53.351 251.167c3.057 14.403 17.184 23.617 31.628 20.55 14.403-3.057 23.607-17.224 20.55-31.628l-53.351-251.167c-2.667-12.541-13.734-21.136-26.068-21.136-1.832 0-3.696 0.196-5.56 0.587-14.414 3.057-23.599 17.214-20.55 31.627zM678.003 425.149l17.791 251.167c1.029 14.692 13.744 25.749 28.488 24.72 14.692-1.039 25.759-13.795 24.72-28.498l-17.791-251.167c-0.989-14.053-12.694-24.792-26.572-24.792-0.637 0-1.267 0.020-1.914 0.062-14.694 1.061-25.762 13.815-24.721 28.508zM542.691 701.044c14.578 1.061 27.457-10.027 28.488-24.72l17.781-251.167c1.051-14.692-10.037-27.447-24.72-28.498-0.649-0.042-1.277-0.062-1.914-0.062-13.877 0-25.585 10.739-26.572 24.792l-17.779 251.155c-1.054 14.694 10.024 27.46 24.716 28.499zM370.109 700.521c14.425 3.057 28.56-6.146 31.628-20.55l53.351-251.167c3.059-14.403-6.136-28.57-20.56-31.628-1.864-0.402-3.726-0.587-5.56-0.587-12.323 0-23.401 8.597-26.068 21.136l-53.351 251.167c-3.057 14.416 6.147 28.571 20.56 31.63zM411.403 190.99c-50.314 0-91.103-40.791-91.103-91.103s40.791-91.103 91.103-91.103 91.103 40.791 91.103 91.103c0.002 50.314-40.789 91.103-91.103 91.103zM411.403 65.727c-18.872 0-34.16 15.288-34.16 34.16 0 18.862 15.288 34.16 34.16 34.16s34.16-15.3 34.16-34.16c0.012-18.872-15.288-34.16-34.16-34.16zM844.151 190.99c-50.324 0-91.115-40.791-91.115-91.103s40.791-91.103 91.115-91.103c50.314 0 91.103 40.791 91.103 91.103 0 50.314-40.791 91.103-91.103 91.103zM844.151 65.727c-18.872 0-34.16 15.288-34.16 34.16 0 18.862 15.288 34.16 34.16 34.16 18.862 0 34.16-15.3 34.16-34.16 0.010-18.872-15.3-34.16-34.16-34.16zM982.139 228.147h-689.543c-24.812 0-46.051 16.884-51.641 41.048l-129.001 556.249h-81.066c-17.060 0-30.887 13.827-30.887 30.887s13.827 30.885 30.885 30.885h88.036c24.792 0 46.031-16.874 51.641-41.016l129.011-556.281h682.575c17.060 0 30.885-13.827 30.885-30.887-0.008-17.068-13.826-30.885-30.895-30.885z" />
<glyph unicode="&#xe906;" glyph-name="cancel" d="M0.006 448.003c0-282.316 229.681-511.997 511.997-511.997 282.311 0 511.991 229.681 511.991 511.997s-229.681 511.997-511.991 511.997c-282.316 0-511.997-229.681-511.997-511.997zM512.003 819.437c204.812 0 371.44-166.629 371.44-371.44 0-77.060-23.603-148.706-63.937-208.108l-515.618 515.612c59.408 40.334 131.054 63.937 208.114 63.937zM720.111 140.499c-59.408-40.334-131.049-63.937-208.108-63.937-204.812 0-371.435 166.629-371.435 371.44 0 77.060 23.603 148.7 63.931 208.108l515.612-515.612z" />
<glyph unicode="&#xe907;" glyph-name="config" d="M248.257 528.775c28.435 3.82 56.869-5.942 77.028-26.1l50.928-50.928 48.169 47.957-69.601 69.389c-10.822 10.822-10.822 28.435 0 39.257s28.435 10.822 39.257 0l69.601-69.601 48.169 47.957-51.14 51.14c-20.159 20.159-29.92 48.806-26.1 77.028 8.488 64.508-12.095 131.987-61.537 181.642-50.503 50.503-119.68 70.874-185.249 61.113-10.398-1.485-14.642-14.429-7.215-21.856l65.569-65.569c31.193-31.193 31.193-81.696 0-112.677l-40.318-40.318c-31.193-31.193-81.696-31.193-112.677 0l-65.781 65.569c-7.427 7.427-20.159 3.183-21.856-7.215-9.761-65.569 10.61-134.746 61.113-185.249 49.654-49.442 117.133-70.025 181.642-61.537zM656.102 442.411l-48.169-47.957 286.043-286.043c10.822-10.822 10.822-28.435 0-39.257s-28.435-10.822-39.257 0l-286.043 286.043-48.169-47.957 294.743-294.743c37.347-37.347 97.823-37.135 135.17 0.212s37.347 97.823 0.212 135.17l-294.531 294.531zM766.657 633.389h127.107l127.107 254.001-63.447 63.447-254.213-126.894v-127.107l-345.458-344.397-62.174 61.962-250.394-250.394c-52.201-52.201-52.201-136.656 0-188.856s136.656-52.201 188.856 0l250.394 250.394-63.447 63.447 345.671 344.397z" />
<glyph unicode="&#xe908;" glyph-name="consult" d="M511.714 260.96c103.138 0 187.047 83.909 187.047 187.047s-83.909 187.047-187.047 187.047-187.047-83.909-187.047-187.047 83.909-187.047 187.047-187.047zM511.714 529.317c44.835 0 81.31-36.474 81.31-81.31s-36.474-81.31-81.31-81.31c-44.835 0-81.31 36.474-81.31 81.31s36.474 81.31 81.31 81.31zM1020.928 460.222c-1.576 2.938-39.536 72.776-121.187 142.832-75.328 64.622-203.738 141.66-387.737 141.66s-312.413-77.038-387.741-141.66c-81.655-70.053-119.615-139.892-121.191-142.832-4.089-7.62-4.096-16.777-0.021-24.407 1.569-2.941 39.395-72.794 120.987-142.864 75.259-64.626 203.659-141.667 387.965-141.667s312.703 77.041 387.962 141.671c81.592 70.063 119.415 139.923 120.984 142.864 4.075 7.627 4.068 16.784-0.021 24.404zM511.714 686.771c131.655 0 238.764-107.106 238.764-238.764s-107.11-238.764-238.764-238.764c-131.658 0-238.764 107.11-238.764 238.764s107.106 238.764 238.764 238.764z" />
<glyph unicode="&#xe909;" glyph-name="delete" d="M511.908 960c-282.721 0-511.908-229.26-511.908-512.018 0-282.721 229.187-511.982 511.908-511.982 282.868 0 512.092 229.297 512.092 511.982 0 282.758-229.224 512.018-512.092 512.018zM732.051 309.349l-81.547-81.437c0 0-129.002 138.413-138.633 138.413-9.484 0-138.523-138.413-138.523-138.413l-81.583 81.437c0 0 138.559 127.135 138.559 138.45 0 11.498-138.559 138.669-138.559 138.669l81.583 81.62c0 0 130.101-138.486 138.523-138.486 8.495 0 138.633 138.486 138.633 138.486l81.547-81.62c0 0-138.596-129.002-138.596-138.669 0-9.191 138.596-138.45 138.596-138.45z" />
<glyph unicode="&#xe90a;" glyph-name="download" d="M969.913 332.343h-335.48l-44.984-51.161c-19.511-22.221-47.804-35.012-77.395-35.012s-57.883 12.792-77.394 35.012l-44.984 51.161h-335.48c-29.917 0-54.197-24.28-54.197-54.197v-215.163c0-29.917 24.28-54.197 54.197-54.197h915.606c29.919 0 54.197 24.28 54.197 54.197v215.163c0.111 29.917-24.171 54.197-54.087 54.197zM150.885 124.334c-25.473 0-46.176 20.705-46.176 46.178s20.703 46.176 46.176 46.176 46.176-20.703 46.176-46.176-20.703-46.178-46.176-46.178zM454.606 332.343l16.693-19.077c10.839-12.25 25.798-18.427 40.756-18.427s29.917 6.177 40.756 18.427l16.693 19.077 226.219 257.762c30.784 35.011 5.853 89.967-40.756 89.967h-71.107v152.944c0 29.917-24.28 54.197-54.197 54.197h-235.216c-29.917 0-54.197-24.28-54.197-54.197v-153.053h-71.107c-46.61 0-71.432-54.956-40.756-89.967l226.219-257.653z" />
<glyph unicode="&#xe90b;" glyph-name="edit" d="M967.665 903.672c-37.54 37.55-82.77 56.328-135.654 56.328h-640.005c-52.884 0-98.114-18.778-135.671-56.328-37.55-37.557-56.328-82.784-56.328-135.671v-639.998c0-52.882 18.778-98.114 56.328-135.671 37.557-37.557 82.787-56.335 135.671-56.335h639.998c52.884 0 98.114 18.778 135.654 56.335 37.557 37.557 56.335 82.787 56.335 135.671v639.998c-0.002 52.886-18.781 98.121-56.328 135.671zM362.669 106.671h-192.004v192.006l362.669 362.658 191.989-191.996-362.655-362.667zM829.335 573.336l-61.323-61.339-192.006 192.008 61.323 61.33c12.448 12.434 27.553 18.664 45.34 18.664 17.772 0 32.891-6.221 45.323-18.664l101.341-101.336c12.432-12.439 18.666-27.549 18.666-45.333 0.002-17.777-6.214-32.884-18.664-45.33zM234.676 271.999v-37.316h63.999v-64.015h37.328l34.671 34.673-101.334 101.341zM331.345 370.67c-7.559-7.542-8.222-14.206-2.006-19.993 5.777-6.235 12.446-5.562 20.002 1.996l193.998 194.002c7.559 7.542 8.217 14.211 1.996 19.99-5.786 6.228-12.441 5.564-19.993-1.996l-193.998-194z" />
<glyph unicode="&#xe90c;" glyph-name="employee" d="M522.435 722.11c65.693 0 118.909 53.275 118.909 118.978 0 65.629-53.216 118.912-118.909 118.912-65.709 0-118.978-53.283-118.978-118.912-0.003-65.701 53.269-118.978 118.978-118.978zM770.221 373.023c-14.797 33.923-27.229 69.358-39.251 103.615-31.496 89.847-69.166 216.526-129.438 216.526-2.373 0-139.199 0-158.731 0-62.602 0-98.003-126.677-129.435-216.526-12.086-34.258-24.452-69.692-39.299-103.615-9.421-21.563-8.589-46.74 10.202-58.077 3.006-1.812 2.046-10.662 1.897-15.764-0.056-1.961-0.332-5.775-5.315-5.775-1.222 0-4.892 0-4.892 0-14.616 0-26.575-11.959-26.575-26.575v-161.846c0-14.616 11.959-26.575 26.575-26.575h50.226c14.616 0 26.575 11.959 26.575 26.575v161.846c0 14.616-11.959 26.575-26.575 26.575 0 0-3.521 0-4.698 0-3.433 0-3.883 4.047-4.473 5.775-1.161 3.394-0.013 10.298 3.224 11.592 11.475 4.595 20.083 15.565 25.751 28.541 11.595 26.588 30.457 84.341 42.839 119.791 2.878 8.236 6.46 13.609 5.745-0.72v-110.931c0-5.528-1.113-22.296 3.553-28.013 3.564-4.369 9.748-2.657 9.748-13.287v-312.757c0-31.701 21.81-57.399 52.246-57.399s46.947 25.153 46.947 56.854c0 0 0 225.426 0 300.567 0 3.766 0.702 9.219 11.688 9.219 0.986 0 1.557 0 2.541 0 11.106 0 11.906-6.45 11.906-8.504 0-75.14 0-300.567 0-300.567 0-31.701 16.737-57.569 47.173-57.569s52.246 25.698 52.246 57.399l-0.21 311.098c0 5.134 6.806 8.392 9.373 11.573 4.94 6.125 7.917 13.891 7.917 22.328v124.644c0 11.999 2.477 5.182 3.726 0.582 9.694-35.576 28.645-99.773 40.776-127.586 7.587-17.337 18.77-27.736 36.567-27.736 6.187 0 12.482 1.276 18.493 3.877 23.346 10.223 31.17 37.439 20.96 60.843zM568.255 513.615l-39.19-36.043c-3.667-3.37-9.668-3.37-13.335 0l-39.19 36.043c-3.67 3.37-5.831 10.117-4.813 14.991l20.433 97.591c0.306 1.456 1.23 5.873 1.153 6.875-0.401 5.145-1.605 20.582-1.605 20.582-0.388 4.967 3.37 9.030 8.35 9.030h44.68c4.98 0 8.735-4.066 8.35-9.030 0 0-1.204-15.435-1.605-20.582-0.077-0.999 0.845-5.419 1.153-6.875l20.433-97.591c1.018-4.874-1.145-11.621-4.815-14.991z" />
<glyph unicode="&#xe90d;" glyph-name="event" d="M832 429.575c-18.009 4.153-36.728 6.425-56 6.425-5.384 0-10.703-0.233-15.999-0.569-122.873-7.832-221.351-105.102-231.128-227.432-0.527-6.607-0.872-13.257-0.872-20 0-20.696 2.575-40.784 7.352-59.999 26.833-107.967 124.378-187.999 240.648-187.999 136.967 0 247.999 111.032 247.999 247.999 0 117.696-82.017 216.178-192 241.575zM776 24c-90.575 0-164.001 73.425-164.001 164.001s73.425 164.001 164.001 164.001 164.001-73.425 164.001-164.001-73.425-164.001-164.001-164.001zM752.001 59.999c84.017 0 152 67.984 152 152h-152v-152zM207.999 768c15.44 0 27.999 12.561 27.999 27.999v132.001c0 15.44-12.559 27.999-27.999 27.999h-24c-15.44 0-27.999-12.561-27.999-27.999v-132.001c0-15.44 12.559-27.999 27.999-27.999h24zM648 768c15.44 0 27.999 12.561 27.999 27.999v132.001c0 15.44-12.561 27.999-27.999 27.999h-24c-15.44 0-27.999-12.561-27.999-27.999v-132.001c0-15.44 12.561-27.999 27.999-27.999h24zM477.977 128c-3.904 19.409-5.977 39.464-5.977 59.999 0 6.728 0.296 13.384 0.728 20h-352.728c-26.512 0-48.001 21.489-48.001 48.001v384h688.001v-148.425c5.296 0.273 10.632 0.423 15.999 0.423 19.136 0 37.831-1.856 56-5.256v313.257c0 35.345-28.655 64-64 64h-52v-68.001c0-37.496-30.502-68.001-68.001-68.001h-24c-37.496 0-68.001 30.504-68.001 68.001v68.001h-279.999v-68.001c0-37.496-30.504-68.001-68.001-68.001h-24c-37.496 0-68.001 30.504-68.001 68.001v68.001h-51.998c-35.345 0-64-28.655-64-64v-608c0-35.345 28.655-64 64-64h413.977zM289.009 520c0-35.073-28.432-63.505-63.505-63.505s-63.505 28.432-63.505 63.505c0 35.073 28.432 63.505 63.505 63.505s63.505-28.432 63.505-63.505zM479.505 520c0-35.073-28.432-63.505-63.505-63.505s-63.505 28.432-63.505 63.505c0 35.073 28.432 63.505 63.505 63.505s63.505-28.432 63.505-63.505zM670.002 520c0-35.073-28.432-63.505-63.505-63.505s-63.505 28.432-63.505 63.505c0 35.073 28.432 63.505 63.505 63.505s63.505-28.432 63.505-63.505zM479.503 328c0-35.072-28.431-63.503-63.503-63.503s-63.503 28.431-63.503 63.503c0 35.072 28.431 63.503 63.503 63.503s63.503-28.431 63.503-63.503zM289.007 328c0-35.072-28.431-63.503-63.503-63.503s-63.503 28.431-63.503 63.503c0 35.072 28.431 63.503 63.503 63.503s63.503-28.431 63.503-63.503z" />
<glyph unicode="&#xe90e;" glyph-name="excel" d="M910.222 960h-796.444c-62.578 0-113.778-51.2-113.778-113.778v-796.444c0-62.578 51.2-113.778 113.778-113.778h796.444c62.578 0 113.778 51.2 113.778 113.778v796.444c0 62.578-51.2 113.778-113.778 113.778zM750.933 163.556h-113.778l-125.156 216.178-125.156-216.178h-113.778l182.044 284.444-182.044 284.444h113.778l125.156-216.178 125.156 216.178h113.778l-182.044-284.444 182.044-284.444z" />
<glyph unicode="&#xe90f;" glyph-name="filter" d="M0 959.916h1023.958v-182.806h-1023.958v182.806zM0 740.608l402.325-402.241v-402.241h109.633l109.801 74.562v329.278l164.66 163.102 237.58 237.496-1024 0.042z" />
<glyph unicode="&#xe910;" glyph-name="history" d="M537.6 934.4c-179.2 0-337.92-97.28-419.84-245.76l-117.76 117.76v-332.8h332.8l-143.36 143.36c66.56 128 194.56 215.040 348.16 215.040 209.92 0 384-174.080 384-384s-174.080-384-384-384c-168.96 0-307.2 107.52-363.52 256h-107.52c56.32-204.8 245.76-358.4 471.040-358.4 271.36 0 486.4 220.16 486.4 486.4s-220.16 486.4-486.4 486.4zM460.8 678.4v-261.12l240.64-143.36 40.96 66.56-204.8 122.88v215.040h-76.8z" />
<glyph unicode="&#xe911;" glyph-name="info" d="M511.998 960c-282.77 0-511.998-229.228-511.998-512.017 0-282.755 229.228-511.983 511.998-511.983 282.772 0 512.002 229.228 512.002 511.983 0 282.789-229.23 512.017-512.002 512.017zM511.868 742.382c42.871 0 77.647-34.763 77.647-77.647 0-42.89-34.776-77.649-77.647-77.649-42.888 0-77.666 34.759-77.666 77.649-0.002 42.883 34.778 77.647 77.666 77.647zM645.249 159.472c0-7.759-6.289-14.050-14.036-14.050h-238.679c-7.746 0-14.033 6.291-14.033 14.050v28.808c0 7.757 6.285 14.046 14.033 14.046h45.13v273.222h-46.518c-7.746 0-14.038 6.291-14.038 14.052v28.84c0 7.759 6.291 14.048 14.038 14.048h181.323c7.74 0 14.033-6.289 14.033-14.048v-316.112h44.712c7.744 0 14.036-6.289 14.036-14.046v-28.81z" />
<glyph unicode="&#xe912;" glyph-name="invoice" d="M317.366 528.587c-9.451-7.918-20.434-10.983-36.015-12.516v84.29c18.646-6.13 31.162-12.516 39.080-18.646 6.13-6.13 10.983-15.581 10.983-26.564-1.53-10.983-6.128-20.179-14.048-26.564zM250.192 749.019c-14.048-1.533-25.032-6.13-32.95-12.516-7.918-7.918-12.516-17.113-12.516-26.564 0-10.983 3.065-18.646 9.451-25.032 6.13-6.13 18.646-12.516 36.015-18.646v82.758zM984.792 570.732v-519.024c0-64.112-51.593-115.71-115.705-115.71h-714.169c-64.112 0-115.708 51.598-115.708 115.71v792.585c0 64.112 51.596 115.708 115.708 115.708h446.994c45.208 0 67.174-12.516 95.271-42.145l243.931-246.996c32.697-31.162 43.678-51.596 43.678-100.127zM470.621 686.44h171.899c20.434 0 36.020 15.581 36.020 34.482v26.564c0 18.646-15.586 34.482-36.020 34.482h-171.899v-95.529zM250.192 608.279v-92.209c-28.097 4.598-54.661 17.113-81.225 40.613l-34.482-40.613c34.482-29.629 73.562-46.998 115.708-51.596v-34.227h29.629v34.482c32.95 1.533 57.726 10.983 78.16 28.097 18.646 17.113 29.629 40.613 29.629 67.177 0 28.097-7.918 48.531-25.032 62.579s-43.678 26.564-79.693 34.482h-1.533v89.143c25.032-3.065 46.998-14.048 67.177-28.097l31.162 43.678c-31.162 20.434-64.112 32.95-98.594 34.482v26.564h-29.629v-23.499c-29.629-1.533-54.661-10.983-73.562-28.097-18.646-17.113-29.629-40.613-29.629-67.177s9.451-46.998 25.032-62.579c15.836-12.771 40.868-25.287 76.883-33.205zM892.584 101.771c0 18.649-15.581 34.482-36.015 34.482h-692.458c-20.434 0-34.482-15.581-34.482-34.482v-26.564c0-18.643 15.581-34.482 34.482-34.482h692.458c18.649 0 36.015 15.581 36.015 34.482v26.564zM892.584 317.605c0 18.649-15.581 34.482-36.015 34.482h-692.458c-20.434 0-34.482-15.581-34.482-34.482v-26.564c0-18.643 15.581-34.482 34.482-34.482h692.458c18.649 0 36.015 15.581 36.015 34.482v26.564zM892.584 533.44c0 18.646-15.581 34.482-36.015 34.482h-385.948v-95.274h386.203c18.649 0 36.015 15.581 36.015 34.482v26.309h-0.255z" />
<glyph unicode="&#xe913;" glyph-name="money" d="M512 960c-282.75 0-512-229.25-512-512s229.25-512 512-512c282.812 0 512 229.25 512 512s-229.188 512-512 512zM651.624 250.312c-25.188-28.25-61.56-44.876-109.124-49.876v-72.436h-60.626v72.062c-79.312 8.124-128.376 54.25-147.312 138.25l93.75 24.438c8.688-52.812 37.438-79.188 86.25-79.188 22.812 0 39.688 5.624 50.438 16.938s16.124 24.938 16.124 40.938c0 16.562-5.376 29.126-16.124 37.626-10.75 8.56-34.688 19.376-71.75 32.5-33.312 11.56-59.376 22.938-78.126 34.31-18.75 11.25-34 27.062-45.688 47.376-11.688 20.376-17.562 44.126-17.562 71.126 0 35.438 10.5 67.376 31.376 95.75 20.876 28.312 53.75 45.626 98.626 51.938v55.936h60.626v-55.938c67.75-8.126 111.626-46.438 131.562-115l-83.5-34.25c-16.312 47-41.44 70.5-75.562 70.5-17.126 0-30.876-5.25-41.188-15.75-10.376-10.5-15.562-23.25-15.562-38.188 0-15.25 5-26.938 15-35.126 9.938-8.126 31.376-18.188 64.126-30.25 36-13.126 64.25-25.562 84.688-37.25 20.5-11.688 36.812-27.876 49.062-48.438 12.188-20.626 18.31-44.69 18.31-72.252 0-42.308-12.626-77.558-37.814-105.746z" />
<glyph unicode="&#xe914;" glyph-name="ok" d="M674.906 629.002l72.401-72.401-289.584-289.603-181.050 181.002 72.401 72.401 108.601-108.601 217.231 217.202zM1024 755.206v-614.402c0-112.647-92.147-204.804-204.804-204.804h-614.402c-112.647 0-204.794 92.157-204.794 204.804v614.402c0 112.647 92.147 204.794 204.794 204.794h614.392c112.666 0 204.814-92.147 204.814-204.794zM896 448.010c0 212.123-171.906 384-384.010 384-212.123 0-384-171.877-384-384 0-212.104 171.877-384.010 384-384.010 212.104 0 384.010 171.906 384.010 384.010z" />
<glyph unicode="&#xe915;" glyph-name="pdf" d="M472.178 641.422v0c5.689 0 5.689 0 0 0 5.689 22.756 11.378 34.133 11.378 51.2v11.378c5.689 28.444 5.689 51.2 0 56.889 0 0 0 0 0 5.689l-5.689 5.689c0 0 0-5.689-5.689-5.689-11.378-34.133-11.378-73.956 0-125.156v0zM301.511 248.889c-11.378-5.689-22.756-11.378-28.444-17.067-39.822-34.133-68.267-73.953-73.956-91.022v0 0 0c34.133 5.689 68.267 39.822 102.4 108.089 5.689 0 5.689 0 0 0 5.689 0 0 0 0 0zM824.889 334.222c-5.689 5.689-28.444 22.756-108.089 22.756-5.689 0-5.689 0-11.378 0v0c0 0 0 0 0-5.689 39.822-17.067 79.644-28.444 108.089-28.444 5.689 0 5.689 0 11.378 0v0h5.689c0 0 0 0 0 5.689v0c0 0-5.689 0-5.689 5.689zM910.222 960h-796.444c-62.578 0-113.778-51.2-113.778-113.778v-796.444c0-62.578 51.2-113.778 113.778-113.778h796.444c62.578 0 113.778 51.2 113.778 113.778v796.444c0 62.578-51.2 113.778-113.778 113.778zM847.644 288.711c-11.38-5.689-28.444-11.378-51.2-11.378-45.511 0-113.778 11.378-170.667 39.822-96.711-11.378-170.667-22.753-227.556-45.509-5.689 0-5.689 0-11.378-5.689-68.267-119.469-125.156-176.358-170.667-176.358-11.378 0-17.067 0-22.756 5.691l-28.444 17.064v5.689c-5.689 11.38-5.689 17.067-5.689 28.444 5.689 28.444 39.822 79.644 108.089 119.469 11.378 5.689 28.444 17.064 51.2 28.444 17.067 28.444 34.133 62.578 56.889 102.398 28.444 56.889 45.511 113.778 62.578 164.978v0c-22.756 68.267-34.133 108.089-11.378 187.733 5.689 22.756 22.756 45.511 45.511 45.511h11.378c11.378 0 22.756-5.689 34.133-11.378 39.824-39.822 22.756-130.844 0-204.8 0-5.689 0-5.689 0-5.689 22.756-62.578 56.889-113.778 91.022-147.911 17.067-11.378 28.444-22.756 51.2-34.133 28.444 0 51.2 5.689 73.956 5.689 68.267 0 113.778-11.378 130.842-39.822 5.691-11.38 5.691-22.756 5.691-34.133-5.689-5.689-11.378-22.756-22.756-34.133zM477.867 510.578c-11.378-39.822-34.133-85.333-56.889-136.533-11.378-22.753-22.756-39.822-34.133-62.578h11.378c73.956 28.444 142.222 45.511 187.733 51.2-11.38 5.689-17.067 11.378-22.756 17.067-28.444 34.133-62.578 79.644-85.333 130.844z" />
<glyph unicode="&#xe916;" glyph-name="print" d="M256.004 895.997h511.996v-127.999h64.003v127.999c0 35.312-28.621 64.003-64.003 64.003h-511.996c-35.309 0-64.003-28.691-64.003-64.003v-127.999h64.003v127.999zM960.008 703.998h-896.003c-35.309 0-64.003-28.683-64.003-63.996v-320.001c0-35.379 28.691-64.003 64.003-64.003h127.999v-255.998c0-35.379 28.691-64.001 64.003-64.001h511.996c35.381 0 64.003 28.621 64.003 64.001v255.998h128.003c35.368 0 63.992 28.624 63.992 64.003v320.001c0 35.314-28.626 63.996-63.992 63.996zM768 0.001h-511.996v447.999h511.996v-447.999zM896.003 511.996c-35.379 0-64.001 28.626-64.001 64.003 0 35.309 28.621 64.003 64.001 64.003s64.003-28.691 64.003-64.003c0.002-35.375-28.621-64.003-64.003-64.003zM320.001 384.004h256.002v-64.003h-256.002v64.003zM320.001 255.998h384.007v-63.99h-384.007v63.99zM320.001 127.995h384.007v-63.992h-384.007v63.992z" />
<glyph unicode="&#xe917;" glyph-name="product" d="M0 789.333h113.778v-682.667h-113.778v682.667zM286.168 789.333h113.778v-682.667h-113.778v682.667zM458.559 789.333h113.778v-682.667h-113.778v682.667zM855.057 789.333h168.943v-682.667h-168.943v682.667zM172.391 789.333h55.165v-682.667h-55.165v682.667zM627.502 789.333h55.165v-682.667h-55.165v682.667zM741.279 789.333h55.165v-682.667h-55.165v682.667z" />
<glyph unicode="&#xe918;" glyph-name="reset" d="M512 960c-282.752 0-512-229.248-512-512s229.248-512 512-512 512 229.248 512 512-229.248 512-512 512zM512 64c-176.768 0-320 143.232-320 320 0 39.36 7.104 77.056 20.096 111.936l109.44-87.552c-1.024-8-1.536-16.128-1.536-24.384 0-106.048 85.952-192 192-192s192 85.952 192 192-85.952 192-192 192v-128l-256 192 256 192v-128c176.768 0 320-143.232 320-320s-143.232-320-320-320z" />
<glyph unicode="&#xe919;" glyph-name="run" d="M102.837-64c-29.001 0-52.513 23.513-52.513 52.513v918.976c0 29.001 23.513 52.511 52.513 52.511l853.334-472.613c0 0 39.385-39.385 0-78.772-39.385-39.383-853.334-472.615-853.334-472.615z" />
<glyph unicode="&#xe91a;" glyph-name="search" d="M995.060 104.681l-255.14 255.137c-18.884 18.887-43.516 28.505-68.269 28.903 95.716 142.606 80.632 338.025-45.297 463.954-143.1 143.097-375.934 143.097-519.031 0-143.1-143.097-143.1-375.934 0-519.031 125.93-125.93 321.348-141.017 463.954-45.297 0.401-24.751 10.017-49.383 28.903-68.269l255.137-255.14c38.59-38.587 101.151-38.587 139.74 0 38.59 38.593 38.59 101.156 0.003 139.743zM546.503 413.497c-99.067-99.067-260.261-99.067-359.328 0s-99.067 260.261 0 359.328c99.067 99.067 260.261 99.067 359.328 0 99.067-99.064 99.067-260.261 0-359.328z" />
<glyph unicode="&#xe91b;" glyph-name="sell" d="M926.371 782.149c4.031-10-1.491-18.18-12.27-18.18h-804.205c-10.779 0-16.527 8.266-12.772 18.37l59.164 159.288c3.755 10.103 15.645 18.373 26.421 18.373h652.374c10.779 0 22.895-8.177 26.93-18.175l64.359-159.676zM90.298 663.962c0-39.233 31.804-71.034 71.037-71.034 29.534 0 54.85 18.021 65.562 43.669 2.125 5.084 7.035 5.011 9.179-0.106 10.737-25.592 36.031-43.563 65.52-43.563 29.618 0 55.001 18.13 65.663 43.898 2.072 5.014 6.753 5.416 8.71 0.567 10.519-26.067 36.056-44.465 65.895-44.465 29.836 0 55.367 18.392 65.886 44.462 1.957 4.849 6.536 4.849 8.493 0 10.522-26.070 36.056-44.462 65.889-44.462 29.836 0 55.37 18.392 65.886 44.462 1.963 4.849 6.533 4.849 8.484 0 10.522-26.067 36.059-44.465 65.897-44.465s55.372 18.392 65.892 44.462c1.951 4.849 6.53 4.849 8.481 0 10.522-26.067 36.053-44.465 65.895-44.465 39.233 0 71.037 31.804 71.037 71.034v30.028c0 0 0 14.018-14.802 14.018-202.24 0-603.012 0-808.949 0-19.654 0-19.654-14.57-19.654-14.57l-0.003-29.47zM913.096 3.257c0 0.014 0.003 0.025 0.003 0.036v281.675c0 17.086-13.984 31.067-31.064 31.067h-740.070c-17.086 0-31.067-13.981-31.067-31.067v-281.675c0-1.837 0-10.023 0-12.409 0-30.313 24.573-54.884 54.884-54.884 20.779 0 38.817 11.569 48.122 28.607 1.329 2.437 2.284 7.619 15.489 7.619h566.074c12.426 0 14.718-5.117 16.025-7.518 9.288-17.091 27.357-28.708 48.175-28.708 30.31 0 53.435 24.571 53.435 54.884 0 4.26-0.006 5.343-0.006 12.373zM254.684 544.632c-0.371 5.062-4.584 9.096-9.729 9.096h-28.306c-5.391 0-9.799-4.408-9.799-9.799v-162.476c0-5.394 4.411-9.799 9.799-9.799h28.306c5.148 0 9.361 4.034 9.729 9.096 0.025 0.084 0.070 0.168 0.070 0.254v163.378c0 0.087-0.045 0.168-0.070 0.251zM819.753 544.632c-0.371 5.062-4.584 9.096-9.729 9.096h-28.306c-5.394 0-9.802-4.408-9.802-9.799v-162.476c0-5.394 4.408-9.799 9.802-9.799h28.306c5.148 0 9.361 4.034 9.729 9.096 0.025 0.084 0.070 0.168 0.070 0.254v163.378c0.003 0.087-0.047 0.168-0.070 0.251z" />
<glyph unicode="&#xe91c;" glyph-name="signature" d="M982.759 33.698c-1.572 0-3.032-0.112-4.605-0.337l-275.911-35.71c-14.15-1.798-24.031 13.7-16.396 25.828 4.155 6.401 8.198 12.914 12.24 19.427 10.668 17.294-3.593 40.314-23.358 40.314-1.348 0-2.695-0.113-4.155-0.338l-522.739-78.607c-13.363-2.021-22.347-13.362-21.224-26.951 0.449-6.063 2.92-11.791 6.85-16.058 4.605-5.053 11.006-7.861 17.967-7.861 1.348 0 2.695 0.113 4.155 0.337l430.994 64.795c14.711 2.246 24.817-14.374 16.17-26.502-2.807-3.818-5.615-7.748-8.422-11.567-7.747-10.556-5.952-28.187 3.032-37.282 4.604-4.716 10.444-7.187 16.62-7.187 0.675 0 1.46 0 2.134 0.113h0.226l372.263 47.388c6.4 1.011 12.015 4.716 15.721 10.445 4.043 6.289 5.501 14.037 3.706 20.998-2.921 11.343-12.803 18.755-25.268 18.755zM52.385 8.544c-3.593-4.83 1.908-11.117 7.186-8.31 60.192 32.903 120.718 48.063 153.959 51.656 11.903 1.235 21.784 9.882 24.367 21.561 15.946 70.747 115.442 233.688 115.442 233.688l-133.296 98.035c0 0-125.885-142.953-188.771-179.336-10.33-5.953-15.945-17.855-13.588-29.646 6.401-32.678 11.117-93.543-2.358-160.584-1.123-5.839 6.513-9.208 9.993-4.38l162.381 220.439c5.838 7.861 16.957 9.207 24.481 2.807l1.010-0.899c6.738-5.727 7.974-15.721 2.695-22.796l-163.501-222.235zM236.214 435.27l140.933-103.762c12.353-9.096 29.871-6.625 39.079 5.727 28.748 38.294 93.543 113.419 174.507 135.655l193.037 267.377c9.208 12.465 6.513 30.095-5.952 39.304l-237.731 174.958c-12.465 9.208-30.095 6.513-39.304-5.952l-192.813-267.265c2.807-83.885-49.747-168.107-77.821-206.962-8.984-12.467-6.289-29.873 6.064-39.080z" />
<glyph unicode="&#xe91d;" glyph-name="switch" d="M294.54 513.681h432.95c123.241 0 223.17 99.908 223.17 223.17s-99.93 223.149-223.192 223.149h-432.928c-123.241 0-223.17-99.908-223.17-223.17s99.908-223.149 223.17-223.149zM294.54 879.246c78.654 0 142.417-63.763 142.417-142.417s-63.763-142.417-142.417-142.417-142.417 63.763-142.417 142.417 63.763 142.417 142.417 142.417zM729.46 382.341h-432.928c-123.241 0-223.17-99.908-223.17-223.17s99.908-223.17 223.17-223.17h432.928c123.241 0 223.17 99.908 223.17 223.17s-99.908 223.17-223.17 223.17zM729.46 16.775c-78.654 0-142.395 63.806-142.395 142.417s63.784 142.417 142.395 142.417 142.417-63.806 142.417-142.417-63.763-142.417-142.417-142.417z" />
<glyph unicode="&#xe91e;" glyph-name="time" d="M512 844.191c-218.811 0-396.189-177.379-396.189-396.189s177.379-396.189 396.189-396.189c218.805 0 396.189 177.379 396.189 396.189s-177.384 396.189-396.189 396.189zM735.424 316.322c-5.857-8.23-17.275-10.149-25.501-4.291l-208.527 148.498c-0.353 0.251-0.625 0.565-0.953 0.837-0.54 0.444-1.092 0.874-1.576 1.383-0.407 0.422-0.743 0.885-1.103 1.337-0.378 0.474-0.766 0.93-1.101 1.439-0.316 0.494-0.565 1.020-0.833 1.533-0.278 0.534-0.567 1.059-0.791 1.624-0.216 0.548-0.361 1.113-0.521 1.678-0.164 0.575-0.353 1.132-0.461 1.728-0.127 0.671-0.156 1.35-0.204 2.027-0.033 0.442-0.133 0.86-0.133 1.313v256c0 10.099 8.187 18.286 18.286 18.286s18.286-8.187 18.286-18.286v-246.576l200.851-143.030c8.22-5.854 10.141-17.273 4.28-25.501zM512 960c-282.768 0-512-229.232-512-512s229.232-512 512-512c282.765 0 512 229.232 512 512s-229.235 512-512 512zM512-27.428c-262.571 0-475.428 212.859-475.428 475.428s212.857 475.428 475.428 475.428 475.428-212.859 475.428-475.428-212.857-475.428-475.428-475.428z" />
<glyph unicode="&#xe91f;" glyph-name="validate" d="M512 960c-283.927 0-512-228.073-512-512s228.073-512 512-512 512 228.073 512 512-228.073 512-512 512zM807.564 608.582v0l-372.364-386.327c-4.655-4.655-9.309-6.982-16.291-6.982s-13.964 2.327-16.291 6.982l-181.527 195.491-4.655 4.655c-4.655 4.655-6.982 11.636-6.982 16.291s2.327 11.636 6.982 16.291l32.582 32.582c9.309 9.309 23.273 9.309 32.582 0l2.327-2.327 128-137.309c4.655-4.655 11.636-4.655 16.291 0l311.855 323.491h2.327c9.309 9.309 23.273 9.309 32.582 0l32.582-32.582c9.309-6.982 9.309-20.945 0-30.255z" />
<glyph unicode="&#xe920;" glyph-name="word" d="M910.222 960h-796.444c-62.578 0-113.778-51.2-113.778-113.778v-796.444c0-62.578 51.2-113.778 113.778-113.778h796.444c62.578 0 113.778 51.2 113.778 113.778v796.444c0 62.578-51.2 113.778-113.778 113.778zM711.111 163.556h-85.333l-113.778 426.667-113.778-426.667h-85.333l-136.533 568.889h96.711l85.333-426.667 113.778 426.667h79.644l113.778-426.667 85.333 426.667h96.713l-136.536-568.889z" />
</font>
</defs>
</svg>
