<?xml version="1.0" standalone="no"?>
<!DOCTYPE svg PUBLIC "-//W3C//DTD SVG 1.1//EN" "http://www.w3.org/Graphics/SVG/1.1/DTD/svg11.dtd" >
<svg xmlns="http://www.w3.org/2000/svg" xmlns:xlink="http://www.w3.org/1999/xlink" version="1.1">
<metadata>
Created by FontForge 20170731 at Fri Dec  2 11:32:37 2016
 By Aleksey,,,
Digitized data copyright 2012-2016, The Mozilla Foundation and Telefonica S.A.
</metadata>
<defs>
<font id="FiraSansCondensed-ThinItalic" horiz-adv-x="504" >
  <font-face 
    font-family="Fira Sans Condensed Thin"
    font-weight="250"
    font-style="italic"
    font-stretch="condensed"
    units-per-em="1000"
    panose-1="2 11 3 3 5 0 0 2 0 4"
    ascent="800"
    descent="-200"
    x-height="519"
    cap-height="681"
    bbox="-675 -350 1417 1050"
    underline-thickness="50"
    underline-position="-150"
    slope="-8"
    unicode-range="U+000D-FEFF"
  />
<missing-glyph horiz-adv-x="666" 
d="M654 1050l-198 -1400h-420l198 1400h420zM610 1012h-341l-188 -1324h341zM424 426.5q23 -24.5 23 -65.5q0 -8 -2 -26q-7 -53 -33 -81.5t-77 -35.5l-7 -46q-1 -11 -9.5 -17t-17.5 -6q-11 0 -17.5 7t-5.5 18l11 83q53 3 75 20t28 58q1 7 1 20q0 23 -11.5 35.5t-40.5 12.5
t-53 -12l-13 -2q-12 0 -18 7t-4 17q2 19 32.5 28.5t64.5 9.5q51 0 74 -24.5zM316.5 111.5q8.5 -8.5 8.5 -22.5q0 -17 -11 -29t-27 -12t-24.5 11t-6.5 27q1 15 12 24.5t26 9.5q14 0 22.5 -8.5z" />
    <glyph glyph-name="fi" unicode="fi" horiz-adv-x="499" 
d="M357 0h-22l70 499h-238l-69 -498q-9 -60 -24.5 -95.5t-39.5 -57t-66 -43.5l-7 17q37 20 58.5 39.5t35 52t21.5 88.5l69 497h-81l3 20h81l14 98q8 58 44 89t94 31q60 0 115 -40l-11 -15q-51 35 -106 35q-101 0 -115 -103l-13 -95h260z" />
    <glyph glyph-name="fl" unicode="fl" horiz-adv-x="523" 
d="M443 18l6 -18q-26 -10 -45 -10q-28 0 -43 15.5t-15 45.5q0 12 1 18l88 620q-36 14 -67 21t-67 7q-104 0 -118 -103l-13 -95h131l-6 -20h-128l-69 -498q-9 -60 -24.5 -95.5t-39.5 -57t-66 -43.5l-7 17q37 20 58.5 39.5t35 52t21.5 88.5l69 497h-81l3 20h81l14 98
q8 58 44.5 89t96.5 31q69 0 136 -31l20 3l-90 -641q-1 -6 -1 -16q0 -41 38 -41q18 0 37 7z" />
    <glyph glyph-name=".notdef" horiz-adv-x="666" 
d="M654 1050l-198 -1400h-420l198 1400h420zM610 1012h-341l-188 -1324h341zM424 426.5q23 -24.5 23 -65.5q0 -8 -2 -26q-7 -53 -33 -81.5t-77 -35.5l-7 -46q-1 -11 -9.5 -17t-17.5 -6q-11 0 -17.5 7t-5.5 18l11 83q53 3 75 20t28 58q1 7 1 20q0 23 -11.5 35.5t-40.5 12.5
t-53 -12l-13 -2q-12 0 -18 7t-4 17q2 19 32.5 28.5t64.5 9.5q51 0 74 -24.5zM316.5 111.5q8.5 -8.5 8.5 -22.5q0 -17 -11 -29t-27 -12t-24.5 11t-6.5 27q1 15 12 24.5t26 9.5q14 0 22.5 -8.5z" />
    <glyph glyph-name=".null" horiz-adv-x="0" 
 />
    <glyph glyph-name="nonmarkingreturn" unicode="&#xd;" horiz-adv-x="265" 
 />
    <glyph glyph-name="space" unicode=" " horiz-adv-x="265" 
 />
    <glyph glyph-name="exclam" unicode="!" horiz-adv-x="226" 
d="M93 202l66 479h21l-67 -479h-20zM62.5 -2q-5.5 6 -5.5 15q0 10 7 17t17 7t16 -6t6 -15q0 -10 -7 -17t-18 -7q-10 0 -15.5 6z" />
    <glyph glyph-name="quotedbl" unicode="&#x22;" horiz-adv-x="316" 
d="M106 441l30 240h23l-36 -240h-17zM244 441l30 240h23l-36 -240h-17z" />
    <glyph glyph-name="numbersign" unicode="#" horiz-adv-x="440" 
d="M454 459h-74l-62 -239h70l-3 -20h-72l-52 -200h-24l52 200h-186l-52 -200h-24l52 200h-74l4 20h75l62 239h-71l2 20h74l48 183h23l-47 -183h186l48 183h24l-48 -183h72zM294 220l62 239h-186l-62 -239h186z" />
    <glyph glyph-name="dollar" unicode="$" horiz-adv-x="471" 
d="M383.5 650q32.5 -17 61.5 -48l-15 -14q-30 32 -62.5 47.5t-73.5 15.5q-75 0 -119 -42.5t-44 -109.5q0 -48 28.5 -77.5t96.5 -55.5q74 -27 108.5 -65.5t34.5 -99.5q0 -50 -20.5 -97t-65 -78.5t-112.5 -35.5l-20 -136h-20l20 136q-51 1 -92.5 22t-71.5 57l15 13
q28 -33 66 -52t86 -19q68 0 111 28.5t62 71.5t19 89q0 53 -30.5 87t-97.5 60q-75 29 -107 63t-32 89q0 47 21.5 85.5t62.5 61.5t96 24l19 141h20l-20 -141q43 -3 75.5 -20z" />
    <glyph glyph-name="percent" unicode="%" horiz-adv-x="699" 
d="M616 695l-519 -699l17 -11l519 699zM125 393.5q-27 32.5 -27 88.5q0 43 16 87t49 74t82 30q48 0 75.5 -32t27.5 -88q0 -43 -16 -87.5t-49 -74.5t-82 -30t-76 32.5zM273 408.5q28 28.5 40.5 69t12.5 77.5q0 45 -20.5 72t-60.5 27q-44 0 -72.5 -28.5t-40.5 -68.5t-12 -77
q0 -46 20.5 -73t60.5 -27q44 0 72 28.5zM399 22.5q-27 32.5 -27 88.5q0 43 15.5 87.5t48.5 74t82 29.5t76 -32t27 -88q0 -43 -15.5 -87.5t-48.5 -74.5t-82 -30t-76 32.5zM547 37.5q28 28.5 40.5 69t12.5 77.5q0 46 -20 72.5t-61 26.5q-44 0 -72.5 -28.5t-40.5 -68.5t-12 -77
q0 -46 20.5 -73t60.5 -27q44 0 72 28.5z" />
    <glyph glyph-name="ampersand" unicode="&#x26;" horiz-adv-x="653" 
d="M427.5 658q35.5 -34 35.5 -87q0 -41 -15.5 -72.5t-54.5 -64t-112 -73.5l176 -221q28 45 48.5 89t45.5 107l19 -8q-27 -66 -49 -112t-52 -91l94 -119l-18 -13l-90 114q-89 -117 -211 -117q-73 0 -115.5 43t-42.5 110t35.5 120t127.5 103q-34 44 -50.5 82t-16.5 77
q0 43 17.5 81t52.5 62t85 24q55 0 90.5 -34zM237.5 627.5q-33.5 -44.5 -33.5 -102.5q0 -34 14.5 -69.5t49.5 -80.5q71 40 107.5 70.5t50.5 59t14 66.5q0 46 -29.5 73.5t-73.5 27.5q-66 0 -99.5 -44.5zM141.5 255.5q-32.5 -49.5 -32.5 -112.5q0 -58 36 -95t99 -37
q117 0 198 111l-180 230q-88 -47 -120.5 -96.5z" />
    <glyph glyph-name="quotesingle" unicode="'" horiz-adv-x="178" 
d="M106 441l30 240h23l-36 -240h-17z" />
    <glyph glyph-name="parenleft" unicode="(" horiz-adv-x="293" 
d="M309 820q-78 -104 -126 -192.5t-72.5 -186.5t-24.5 -218q0 -98 23 -172.5t69 -171.5l-16 -8q-33 66 -52.5 114.5t-32 107.5t-12.5 130q0 124 25.5 223.5t75 188.5t130.5 195z" />
    <glyph glyph-name="parenright" unicode=")" horiz-adv-x="292" 
d="M208.5 713q19.5 -48 32 -106.5t12.5 -128.5q0 -123 -25.5 -223t-75 -189.5t-130.5 -195.5l-14 10q78 105 126 193.5t72.5 186.5t24.5 218q0 98 -22.5 172.5t-68.5 170.5l16 8q33 -68 52.5 -116z" />
    <glyph glyph-name="asterisk" unicode="*" horiz-adv-x="397" 
d="M398 602l-143 -46l67 -129l-19 -11l-64 130l-100 -130l-17 12l104 128l-131 47l9 19l129 -51l21 161h22l-25 -161l142 50z" />
    <glyph glyph-name="plus" unicode="+" horiz-adv-x="444" 
d="M267 496l-22 -155h137l-3 -21h-137l-22 -155h-23l22 155h-138l3 21h139l22 155h22z" />
    <glyph glyph-name="comma" unicode="," horiz-adv-x="155" 
d="M60 31q6 -6 6 -15q0 -8 -5.5 -19l-7.5 -15l-57 -112h-17l53 124q-12 4 -12 19q0 11 7 17.5t17 6.5t16 -6z" />
    <glyph glyph-name="hyphen" unicode="-" horiz-adv-x="360" 
d="M75 302l3 21h221l-3 -21h-221z" />
    <glyph glyph-name="period" unicode="." horiz-adv-x="156" 
d="M26.5 -2q-5.5 6 -5.5 15q0 10 7 17t17 7t16 -6t6 -15q0 -10 -7 -17t-18 -7q-10 0 -15.5 6z" />
    <glyph glyph-name="slash" unicode="/" horiz-adv-x="474" 
d="M408 798l18 -6l-334 -887l-18 5z" />
    <glyph glyph-name="zero" unicode="0" horiz-adv-x="500" 
d="M178.5 599.5q-54.5 -73.5 -80.5 -183.5t-26 -219q0 -102 34.5 -154.5t100.5 -52.5q80 0 134.5 73.5t81 183t26.5 218.5q0 103 -34.5 155.5t-101.5 52.5q-80 0 -134.5 -73.5zM426 466q0 -105 -24.5 -210.5t-74 -175t-119.5 -69.5q-113 0 -113 185q0 105 24.5 210.5
t73.5 175.5t120 70q113 0 113 -186z" />
    <glyph glyph-name="one" unicode="1" horiz-adv-x="358" 
d="M290 661l-93 -661h-22l89 634l-170 -109l-10 17l188 119h18z" />
    <glyph glyph-name="two" unicode="2" horiz-adv-x="419" 
d="M347 634q37 -39 37 -104q1 -60 -25 -114.5t-98 -141t-230 -253.5l297 1l-8 -22h-320l4 22q162 171 236 259.5t98 140t24 107.5q-1 58 -31.5 91t-84.5 33q-44 0 -80.5 -20t-72.5 -59l-15 13q41 44 81 65t87 21q64 0 101 -39z" />
    <glyph glyph-name="three" unicode="3" horiz-adv-x="434" 
d="M356 636.5q35 -36.5 35 -97.5q0 -71 -40.5 -124.5t-112.5 -61.5q53 -4 84.5 -38.5t31.5 -100.5q0 -53 -22 -104.5t-69 -85.5t-117 -34q-51 0 -87 20.5t-64 62.5l17 12q26 -40 57.5 -57t76.5 -17q66 0 107.5 32t60 78.5t18.5 93.5q0 64 -33.5 95.5t-93.5 31.5h-35l6 20h28
q53 0 90 26t55.5 66.5t18.5 84.5q0 54 -29 84.5t-80 30.5q-40 0 -76.5 -16.5t-74.5 -51.5l-13 14q40 37 79.5 55t84.5 18q62 0 97 -36.5z" />
    <glyph glyph-name="four" unicode="4" horiz-adv-x="454" 
d="M411 207l-3 -20h-84l-26 -187h-22l27 187h-268l4 18l249 468l18 -8l-244 -458h244l32 211h19l-30 -211h84z" />
    <glyph glyph-name="five" unicode="5" horiz-adv-x="427" 
d="M408 641h-251l-38 -265q27 18 54.5 28.5t61.5 10.5q64 0 100.5 -43t36.5 -116q0 -61 -22.5 -122t-71 -102.5t-122.5 -41.5q-95 0 -147 76l17 13q23 -34 54.5 -51t76.5 -17q66 0 109.5 38t63 94.5t19.5 111.5q0 66 -31 103t-85 37q-34 0 -61 -9.5t-59 -31.5h-18l43 307
h276z" />
    <glyph glyph-name="six" unicode="6" horiz-adv-x="471" 
d="M236 608q-49 -45 -83.5 -123t-50.5 -175q36 54 82 85.5t99 31.5q59 0 94.5 -39t35.5 -113q0 -63 -21.5 -129t-66.5 -111t-113 -45q-74 0 -108.5 53.5t-34.5 144.5q0 112 33.5 225t96 186.5t143.5 73.5q55 0 95 -38l-13 -15q-19 16 -38 24.5t-44 8.5q-57 0 -106 -45z
M96 275q-4 -44 -4 -88q0 -176 120 -176q62 0 102 43t58.5 104.5t18.5 116.5q0 64 -29.5 98t-79.5 34q-97 0 -186 -132z" />
    <glyph glyph-name="seven" unicode="7" horiz-adv-x="390" 
d="M409 661l-3 -18l-337 -649l-20 7l332 639l-292 1l2 20h318z" />
    <glyph glyph-name="eight" unicode="8" horiz-adv-x="482" 
d="M384.5 282q26.5 -34 26.5 -86q0 -60 -26.5 -107t-74 -73t-106.5 -26q-75 0 -117 41t-42 109q0 153 172 222q-47 24 -68.5 55t-21.5 78q0 52 25 92.5t66.5 63t86.5 22.5q60 0 98 -35.5t38 -98.5t-32.5 -107.5t-110.5 -86.5q60 -29 86.5 -63zM170 423q21 -29 71 -52l40 -17
q75 39 106.5 82.5t31.5 102.5q0 55 -31 84.5t-83 29.5q-41 0 -77 -20t-57.5 -56t-21.5 -82q0 -43 21 -72zM297.5 33.5q42.5 22.5 67 64.5t24.5 99q0 50 -27 80.5t-90 59.5l-34 15q-100 -39 -135.5 -93t-35.5 -120q0 -60 36.5 -94t100.5 -34q51 0 93.5 22.5z" />
    <glyph glyph-name="nine" unicode="9" horiz-adv-x="464" 
d="M389.5 626.5q34.5 -46.5 34.5 -133.5q0 -399 -356 -508l-5 17q134 45 216.5 128.5t111.5 231.5q-78 -107 -178 -107q-60 0 -96 43.5t-36 119.5q0 59 22.5 118t68.5 98t111 39q72 0 106.5 -46.5zM395 394q6 44 6 99q0 78 -28 119t-90 41q-60 0 -101 -37t-60 -91.5
t-19 -107.5q0 -67 29.5 -104t82.5 -37q96 0 180 118z" />
    <glyph glyph-name="colon" unicode=":" horiz-adv-x="156" 
d="M26.5 -2q-5.5 6 -5.5 15q0 10 7 17t17 7t16 -6t6 -15q0 -10 -7 -17t-18 -7q-10 0 -15.5 6zM85.5 413q-5.5 6 -5.5 15q0 10 7 17t17 7t16 -6t6 -15q0 -10 -7 -17t-18 -7q-10 0 -15.5 6z" />
    <glyph glyph-name="semicolon" unicode=";" horiz-adv-x="156" 
d="M60 31q6 -6 6 -15q0 -8 -5.5 -19l-7.5 -15l-57 -112h-17l53 124q-12 4 -12 19q0 11 7 17.5t17 6.5t16 -6zM85.5 413q-5.5 6 -5.5 15q0 10 7 17t17 7t16 -6t6 -15q0 -10 -7 -17t-18 -7q-10 0 -15.5 6z" />
    <glyph glyph-name="less" unicode="&#x3c;" horiz-adv-x="452" 
d="M404 503l6 -18l-303 -155l260 -153l-12 -18l-272 164l2 16z" />
    <glyph glyph-name="equal" unicode="=" horiz-adv-x="444" 
d="M93 399l3 21h298l-3 -21h-298zM70 241l3 21h298l-3 -21h-298z" />
    <glyph glyph-name="greater" unicode="&#x3e;" horiz-adv-x="453" 
d="M118 503l273 -162l-3 -16l-319 -166l-7 18l304 157l-261 151z" />
    <glyph glyph-name="question" unicode="?" horiz-adv-x="414" 
d="M360.5 659q32.5 -32 32.5 -82q0 -42 -15.5 -73.5t-38 -52t-58.5 -46.5q-33 -24 -51.5 -41t-31.5 -40.5t-13 -54.5q0 -23 6 -51l-20 -5q-8 29 -8 56q0 35 13.5 60.5t33.5 43.5t54 43q36 27 56.5 46t35 47.5t14.5 66.5q0 43 -26 69.5t-74 26.5q-44 0 -79 -18.5t-74 -58.5
l-14 13q40 43 79.5 63t87.5 20q58 0 90.5 -32zM151.5 -3q-5.5 6 -5.5 15q0 10 7 17t17 7t16 -6t6 -15q0 -10 -7 -17t-18 -7q-10 0 -15.5 6z" />
    <glyph glyph-name="at" unicode="@" horiz-adv-x="930" 
d="M708.5 650.5q69.5 -41.5 104.5 -114t35 -163.5q0 -83 -22 -165.5t-67 -137.5t-109 -55q-46 0 -68.5 33t-21.5 89q-60 -120 -153 -120q-53 0 -85.5 40t-32.5 116q0 69 23.5 139t74 117.5t124.5 47.5q54 0 108 -29l-36 -265q-3 -24 -3 -48q0 -101 69 -101q58 0 97.5 53
t59 131.5t19.5 153.5q0 87 -32.5 154.5t-97 106t-156.5 38.5q-144 0 -241.5 -81t-144.5 -199.5t-47 -231.5q0 -102 39 -178t109 -116.5t161 -40.5t173 32l3 -20q-43 -16 -84.5 -24.5t-91.5 -8.5q-97 0 -172 43.5t-117 124t-42 188.5q0 118 49 241.5t151.5 207.5t254.5 84
q100 0 169.5 -41.5zM495.5 73.5q39.5 36.5 64.5 95.5l37 266q-22 10 -41.5 15.5t-44.5 5.5q-69 0 -114 -45.5t-65.5 -111.5t-20.5 -128q0 -66 26.5 -100t71.5 -34q47 0 86.5 36.5z" />
    <glyph glyph-name="A" unicode="A" horiz-adv-x="509" 
d="M421 0l-34 203h-281l-91 -203h-24l308 681h28l118 -681h-24zM115 224h269l-73 438z" />
    <glyph glyph-name="B" unicode="B" horiz-adv-x="537" 
d="M435 319.5q35 -35.5 35 -100.5q0 -55 -23 -104.5t-76 -82t-138 -32.5h-160l96 681h142q87 0 133 -36.5t46 -105.5q0 -71 -41 -119.5t-108 -58.5q59 -6 94 -41.5zM148 370h150q51 0 89 22.5t59 61t21 84.5q0 122 -155 122h-123zM397.5 79.5q49.5 58.5 49.5 139.5
q0 65 -38.5 98t-108.5 33h-155l-46 -329h137q112 0 161.5 58.5z" />
    <glyph glyph-name="C" unicode="C" horiz-adv-x="488" 
d="M455 676.5q32 -14.5 59 -43.5l-14 -15q-28 27 -55.5 39.5t-68.5 12.5q-96 0 -159 -66.5t-92 -165t-29 -195.5q0 -112 46 -171.5t125 -59.5q47 0 81 15t69 43l13 -17q-35 -29 -74.5 -46t-88.5 -17q-89 0 -141 65.5t-52 185.5q0 104 31.5 207.5t99.5 173t171 69.5
q47 0 79 -14.5z" />
    <glyph glyph-name="D" unicode="D" horiz-adv-x="567" 
d="M517 445q0 -116 -33 -216.5t-107 -164.5t-189 -64h-115l96 681h121q227 0 227 -236zM189 660l-90 -639h93q107 0 174.5 61.5t97.5 157.5t30 205q0 122 -56.5 168.5t-149.5 46.5h-99z" />
    <glyph glyph-name="E" unicode="E" horiz-adv-x="445" 
d="M459 681l-6 -21h-264l-41 -290h229l-4 -21h-228l-46 -328h275l-4 -21h-297l96 681h290z" />
    <glyph glyph-name="F" unicode="F" horiz-adv-x="424" 
d="M455 681l-6 -21h-260l-43 -304h225l-3 -21h-225l-47 -335h-23l96 681h286z" />
    <glyph glyph-name="G" unicode="G" horiz-adv-x="546" 
d="M458 676.5q35 -14.5 68 -44.5l-16 -15q-29 28 -60 40.5t-73 12.5q-90 0 -153 -61.5t-95 -159.5t-32 -207q0 -114 47 -172t134 -58q77 0 150 41l40 280h-130v21h155l-44 -314q-39 -23 -84 -36.5t-87 -13.5q-97 0 -150.5 65t-53.5 188q0 114 35 217t104 167t165 64
q45 0 80 -14.5z" />
    <glyph glyph-name="H" unicode="H" horiz-adv-x="595" 
d="M96 0h-23l96 681h23l-44 -309h330l43 309h23l-96 -681h-23l50 351h-329z" />
    <glyph glyph-name="I" unicode="I" horiz-adv-x="243" 
d="M192 681l-96 -681h-23l96 681h23z" />
    <glyph glyph-name="J" unicode="J" horiz-adv-x="255" 
d="M126 87q-8 -53 -22 -85t-42.5 -55t-81.5 -47l-6 17q47 22 72 43t37.5 51t19.5 79l83 591h23z" />
    <glyph glyph-name="K" unicode="K" horiz-adv-x="466" 
d="M73 0l96 681h23l-96 -681h-23zM395 0l-245 367l326 314h27l-326 -316l244 -365h-26z" />
    <glyph glyph-name="L" unicode="L" horiz-adv-x="405" 
d="M192 681l-93 -659h260l-8 -22h-278l96 681h23z" />
    <glyph glyph-name="M" unicode="M" horiz-adv-x="687" 
d="M580 0h-21l14 346q8 215 15 317l-258 -579h-23l-97 578l-62 -268q-3 -10 -10 -41l-82 -353h-22l161 681h32l95 -571l252 571h35z" />
    <glyph glyph-name="N" unicode="N" horiz-adv-x="596" 
d="M449 0h-28l-237 658q-4 -58 -22 -182l-67 -476h-22l96 681h29l236 -656q14 114 23 180l66 476h22z" />
    <glyph glyph-name="O" unicode="O" horiz-adv-x="623" 
d="M521 627q52 -64 52 -184q0 -102 -30.5 -206t-98.5 -175.5t-174 -71.5q-93 0 -145 65.5t-52 185.5q0 99 31.5 203t100 175.5t171.5 71.5q93 0 145 -64zM216.5 602q-62.5 -69 -91 -168.5t-28.5 -193.5q0 -111 45.5 -169.5t127.5 -58.5q101 0 163.5 69.5t89.5 168.5t27 193
q0 111 -45.5 169.5t-128.5 58.5q-97 0 -159.5 -69z" />
    <glyph glyph-name="P" unicode="P" horiz-adv-x="505" 
d="M492 523q0 -101 -60 -171t-197 -70h-99l-40 -282h-23l96 681h128q195 0 195 -158zM416 366.5q52 63.5 52 156.5q0 72 -42.5 104.5t-129.5 32.5h-107l-50 -357h100q125 0 177 63.5z" />
    <glyph glyph-name="Q" unicode="Q" horiz-adv-x="618" 
d="M518 -65l-18 -17q-38 42 -89 57.5t-138 14.5h-3h-1v0q-92 0 -144 65.5t-52 185.5q0 99 31.5 203t100 175.5t171.5 71.5q93 0 145 -64t52 -184q0 -89 -23.5 -181.5t-76 -164t-133.5 -93.5q119 -3 178 -69zM142.5 70.5q45.5 -58.5 127.5 -58.5q101 0 163.5 69.5t89.5 168.5
t27 193q0 111 -45.5 169.5t-128.5 58.5q-97 0 -159.5 -69.5t-91 -169t-28.5 -192.5q0 -111 45.5 -169.5z" />
    <glyph glyph-name="R" unicode="R" horiz-adv-x="516" 
d="M445 400q-44 -59 -131 -73l126 -327h-25l-124 324h-149l-46 -324h-23l96 681h139q94 0 137.5 -37t43.5 -109q0 -76 -44 -135zM274 345q67 0 110 27.5t62 70.5t19 91q0 64 -36.5 95t-121.5 31h-118l-44 -315h129z" />
    <glyph glyph-name="S" unicode="S" horiz-adv-x="483" 
d="M390 673q37 -18 68 -52l-15 -14q-30 33 -62.5 48.5t-77.5 15.5q-51 0 -89 -21.5t-58.5 -57t-20.5 -77.5q0 -51 28.5 -79.5t101.5 -56.5q78 -30 112 -68.5t34 -103.5q0 -53 -24.5 -103t-74.5 -82t-121 -32q-58 0 -99 21t-74 62l15 13q31 -36 68 -55t90 -19q66 0 110 29
t65.5 73.5t21.5 91.5q0 58 -30 91.5t-102 61.5q-80 31 -111.5 64.5t-31.5 90.5q0 45 22.5 85.5t65.5 66t102 25.5q50 0 87 -18z" />
    <glyph glyph-name="T" unicode="T" horiz-adv-x="429" 
d="M477 681l-7 -22h-188l-93 -659h-22l92 659h-188l2 22h404z" />
    <glyph glyph-name="U" unicode="U" horiz-adv-x="576" 
d="M465 186q-11 -87 -65 -141.5t-148 -54.5q-84 0 -124.5 42.5t-40.5 114.5q0 19 3 40l69 494h23l-69 -493q-3 -21 -3 -39q0 -64 34.5 -100.5t107.5 -36.5q85 0 132.5 49.5t58.5 127.5l69 492h22z" />
    <glyph glyph-name="V" unicode="V" horiz-adv-x="488" 
d="M519 681l-298 -681h-28l-106 681h23l100 -659l285 659h24z" />
    <glyph glyph-name="W" unicode="W" horiz-adv-x="716" 
d="M739 681l-238 -681h-27l-60 659l-245 -659h-27l-47 681h22l42 -655l244 655h28l60 -657l225 657h23z" />
    <glyph glyph-name="X" unicode="X" horiz-adv-x="438" 
d="M455 681l-210 -312l142 -369h-24l-133 352l-228 -352h-25l241 370l-123 311h25l113 -295l197 295h25z" />
    <glyph glyph-name="Y" unicode="Y" horiz-adv-x="446" 
d="M486 681l-249 -411l-39 -270h-22l38 270l-136 411h23l126 -388l234 388h25z" />
    <glyph glyph-name="Z" unicode="Z" horiz-adv-x="457" 
d="M-1 0l3 21l440 639h-317l3 21h343l-2 -19l-440 -640h339l-7 -22h-362z" />
    <glyph glyph-name="bracketleft" unicode="[" horiz-adv-x="282" 
d="M283 796l-2 -17h-96l-123 -868h96l-2 -17h-116l127 902h116z" />
    <glyph glyph-name="backslash" unicode="\" horiz-adv-x="474" 
d="M218 797l84 -887l-20 -5l-84 887z" />
    <glyph glyph-name="bracketright" unicode="]" horiz-adv-x="282" 
d="M266 796l-127 -902h-116l2 17h97l122 868h-97l3 17h116z" />
    <glyph glyph-name="asciicircum" unicode="^" horiz-adv-x="478" 
d="M326 823l118 -296h-26l-103 269l-179 -269h-28l202 296h16z" />
    <glyph glyph-name="underscore" unicode="_" horiz-adv-x="475" 
d="M-10 -100l3 21h394l-3 -21h-394z" />
    <glyph glyph-name="grave" unicode="`" horiz-adv-x="228" 
d="M111 760l145 -92l-10 -14l-149 84z" />
    <glyph glyph-name="a" unicode="a" horiz-adv-x="499" 
d="M432 492l-54 -380q-5 -33 -5 -50q0 -21 7 -34t23 -21l-7 -17q-22 10 -32.5 28t-10.5 48q0 9 2 29q-29 -49 -69 -77t-87 -28q-66 0 -103.5 50.5t-37.5 137.5q0 82 26 163t81.5 134.5t138.5 53.5q69 0 128 -37zM178 459q-50 -51 -73.5 -127t-23.5 -153q0 -79 31 -123.5
t88 -44.5q91 0 159 120l50 351q-46 28 -105 28q-76 0 -126 -51z" />
    <glyph glyph-name="b" unicode="b" horiz-adv-x="512" 
d="M420.5 483.5q34.5 -45.5 34.5 -131.5q0 -81 -24.5 -164.5t-78 -140.5t-136.5 -57q-38 0 -70 8t-73 26l100 709l22 3l-42 -300q38 44 78.5 68.5t88.5 24.5q66 0 100.5 -45.5zM231.5 483q-40.5 -26 -82.5 -75l-52 -371q30 -13 57.5 -19.5t61.5 -6.5q76 0 124.5 54.5t70 133
t22.5 153.5q0 77 -28.5 117t-84.5 40q-48 0 -88.5 -26z" />
    <glyph glyph-name="c" unicode="c" horiz-adv-x="419" 
d="M361 517q28 -12 51 -38l-14 -14q-21 22 -45.5 33t-57.5 11q-71 0 -119 -49t-71 -123.5t-23 -151.5q0 -85 35 -129.5t97 -44.5q35 0 64.5 12t58.5 35l11 -15q-63 -53 -134 -53q-72 0 -113.5 51t-41.5 144q0 82 26 161t79.5 131t131.5 52q37 0 65 -12z" />
    <glyph glyph-name="d" unicode="d" horiz-adv-x="513" 
d="M474 733l-103 -733h-18l15 128q-34 -62 -76 -100t-98 -38q-63 0 -99.5 49.5t-36.5 137.5q0 80 24.5 161.5t75.5 136t127 54.5q89 0 127 -82l40 289zM171.5 458q-46.5 -51 -68.5 -127.5t-22 -152.5q0 -79 30 -123t83 -44q55 0 96.5 41t83.5 119l34 246q-36 92 -122 92
q-68 0 -114.5 -51z" />
    <glyph glyph-name="e" unicode="e" horiz-adv-x="462" 
d="M339.5 274.5q-90.5 -49.5 -257.5 -60.5q-1 -10 -1 -31q0 -85 35 -128.5t96 -43.5q40 0 72 13.5t69 41.5l12 -15q-39 -31 -75 -46t-78 -15q-73 0 -113 49.5t-40 142.5q0 82 26.5 162t81.5 132.5t135 52.5q59 0 93.5 -30.5t34.5 -83.5q0 -91 -90.5 -140.5zM189.5 469.5
q-46.5 -39.5 -72 -102t-33.5 -133.5q324 21 324 181q0 44 -27.5 69t-79.5 25q-65 0 -111.5 -39.5z" />
    <glyph glyph-name="f" unicode="f" horiz-adv-x="277" 
d="M218.5 691.5q-28.5 -25.5 -35.5 -77.5l-13 -95h132l-7 -20h-128l-69 -498q-9 -60 -24.5 -95.5t-39.5 -57t-66 -43.5l-7 17q37 20 58.5 39.5t35 52t21.5 88.5l69 497h-81l3 20h81l14 98q8 58 42.5 89t86.5 31q28 0 52 -8.5t50 -26.5l-11 -16q-25 17 -45 24t-45 7
q-45 0 -73.5 -25.5z" />
    <glyph glyph-name="g" unicode="g" horiz-adv-x="501" 
d="M433 492l-71 -500q-14 -101 -61.5 -145t-117.5 -44q-80 0 -146 47l10 15q65 -43 136 -43q133 0 157 169l16 114q-29 -49 -69 -77t-86 -28q-67 0 -104.5 51t-37.5 138q0 79 26 157t81.5 130.5t138.5 52.5q69 0 128 -37zM179 460.5q-50 -49.5 -73.5 -123.5t-23.5 -148
q0 -77 31.5 -122.5t88.5 -45.5q91 0 159 120l49 341q-44 28 -105 28q-76 0 -126 -49.5z" />
    <glyph glyph-name="h" unicode="h" horiz-adv-x="524" 
d="M415 498q27 -31 27 -88q0 -17 -3 -37l-53 -373h-22l53 371q3 21 3 38q0 101 -87 101q-54 0 -102.5 -49t-94.5 -140l-45 -321h-22l103 733l22 3l-52 -370q84 163 193 163q53 0 80 -31z" />
    <glyph glyph-name="i" unicode="i" horiz-adv-x="233" 
d="M164 519l-73 -519h-22l73 519h22zM165 690q-5 5 -5 12q0 9 5.5 15t15.5 6q8 0 13 -4.5t5 -12.5t-6 -14.5t-16 -6.5q-7 0 -12 5z" />
    <glyph glyph-name="j" unicode="j" horiz-adv-x="234" 
d="M-45 -178q37 20 58.5 39.5t35 52t21.5 88.5l73 517h22l-73 -518q-8 -60 -24 -95.5t-40 -57t-66 -43.5zM166 690q-5 5 -5 12q0 9 5.5 15t15.5 6q8 0 13 -4.5t5 -12.5t-6 -14.5t-16 -6.5q-7 0 -12 5z" />
    <glyph glyph-name="k" unicode="k" horiz-adv-x="461" 
d="M140 348q84 181 197 181q47 0 73 -27.5t26 -72.5q0 -130 -169 -188l106 -241h-23l-109 250q173 55 173 179q0 38 -19.5 59.5t-59.5 21.5q-56 0 -106 -54.5t-96 -157.5l-42 -298h-22l103 733l22 3z" />
    <glyph glyph-name="l" unicode="l" horiz-adv-x="249" 
d="M96 68q-2 -12 -2 -18q0 -39 39 -39q17 0 36 7l6 -18q-26 -10 -44 -10q-28 0 -43 15.5t-15 45.5q0 12 1 18l93 664l22 3z" />
    <glyph glyph-name="m" unicode="m" horiz-adv-x="763" 
d="M655.5 498.5q24.5 -30.5 24.5 -85.5q0 -20 -3 -44l-52 -369h-22l52 367q3 24 3 44q0 49 -18.5 74t-54.5 25q-48 0 -93 -48t-89 -141l-45 -321h-22l52 367q3 24 3 44q0 49 -19 74t-55 25q-48 0 -93 -49.5t-89 -145.5l-44 -315h-22l73 519h19l-20 -158q38 83 83.5 125.5
t94.5 42.5q45 0 69.5 -30.5t24.5 -86.5q0 -18 -3 -41q38 78 83 118t93 40q45 0 69.5 -30.5z" />
    <glyph glyph-name="n" unicode="n" horiz-adv-x="523" 
d="M414 498.5q27 -30.5 27 -86.5q0 -18 -3 -39l-52 -373h-22l52 371q3 21 3 40q0 99 -85 99q-55 0 -103.5 -48.5t-94.5 -140.5l-45 -321h-22l73 519h19l-20 -155q42 82 90 123.5t104 41.5q52 0 79 -30.5z" />
    <glyph glyph-name="o" unicode="o" horiz-adv-x="506" 
d="M99 41.5q-40 51.5 -40 142.5q0 78 24.5 157.5t77 133.5t133.5 54q73 0 113.5 -50t40.5 -142q0 -77 -24 -157t-77 -135t-134 -55q-74 0 -114 51.5zM334.5 63q47.5 52 69 127.5t21.5 147.5q0 83 -34 127t-97 44q-74 0 -122 -52t-69 -127.5t-21 -146.5q0 -83 34 -127.5
t97 -44.5q74 0 121.5 52z" />
    <glyph glyph-name="p" unicode="p" horiz-adv-x="509" 
d="M142 519h19l-9 -81q76 91 165 91q66 0 100.5 -45.5t34.5 -131.5q0 -82 -24 -165.5t-77.5 -140t-136.5 -56.5q-61 0 -121 27l-30 -211l-22 -3zM338.5 65q48.5 54 70 132.5t21.5 154.5q0 77 -28.5 117t-84.5 40q-48 0 -89 -26.5t-79 -74.5l-52 -370q56 -27 117 -27
q76 0 124.5 54z" />
    <glyph glyph-name="q" unicode="q" 
d="M358 95q-30 -50 -70.5 -77.5t-87.5 -27.5q-66 0 -104 50.5t-38 137.5q0 82 26 163t82 134.5t140 53.5q70 0 129 -37l-96 -686l-22 -3zM362 132l50 350q-44 28 -106 28q-77 0 -127.5 -51t-74 -127t-23.5 -153q0 -79 31.5 -123.5t88.5 -44.5q94 0 161 121z" />
    <glyph glyph-name="r" unicode="r" horiz-adv-x="327" 
d="M347 522l-6 -19q-18 6 -37 6q-54 0 -93 -45t-74 -140l-46 -324h-22l73 519h19l-20 -144q30 78 69 116t95 38q21 0 42 -7z" />
    <glyph glyph-name="s" unicode="s" horiz-adv-x="414" 
d="M314 516q32 -13 61 -40l-15 -14q-27 24 -54.5 35.5t-65.5 11.5q-58 0 -95 -31t-37 -83q0 -38 23 -62t85 -47q68 -25 96 -57t28 -82q0 -70 -47 -113.5t-126 -43.5q-51 0 -88 17.5t-67 48.5l14 14q29 -29 61.5 -44t79.5 -15q66 0 108 34.5t42 100.5q0 44 -24 70.5t-87 50.5
q-68 26 -94.5 54.5t-26.5 73.5q0 59 44.5 96.5t111.5 37.5q41 0 73 -13z" />
    <glyph glyph-name="t" unicode="t" horiz-adv-x="294" 
d="M102 112q-2 -18 -2 -26q0 -76 68 -76q39 0 84 26l9 -16q-49 -30 -95 -30q-41 0 -64.5 24t-23.5 70q0 7 2 27l54 388h-77l3 20h77l24 131l17 2l-19 -133h129l-6 -20h-126z" />
    <glyph glyph-name="u" unicode="u" horiz-adv-x="519" 
d="M110.5 21q-28.5 31 -28.5 87q0 17 3 36l52 375h22l-52 -375q-3 -19 -3 -36q0 -48 22.5 -72.5t64.5 -24.5q59 0 107 50t85 138l45 320h22l-74 -519h-17l21 157q-33 -77 -81.5 -122t-108.5 -45q-51 0 -79.5 31z" />
    <glyph glyph-name="v" unicode="v" horiz-adv-x="409" 
d="M423 519l-237 -519h-29l-98 519h23l92 -500l225 500h24z" />
    <glyph glyph-name="w" unicode="w" horiz-adv-x="619" 
d="M623 519l-195 -519h-29l-55 496l-194 -496h-30l-51 519h21l48 -498l195 498h28l55 -498l185 498h22z" />
    <glyph glyph-name="x" unicode="x" horiz-adv-x="396" 
d="M392 519l-179 -242l128 -277h-24l-119 263l-191 -263h-26l206 279l-110 240h24l101 -226l164 226h26z" />
    <glyph glyph-name="y" unicode="y" horiz-adv-x="406" 
d="M185 -2q-29 -64 -53 -99t-55.5 -56.5t-84.5 -37.5l-2 18q48 15 77 35t49.5 51.5t47.5 90.5h-10l-95 519h23l89 -503l225 503h24z" />
    <glyph glyph-name="z" unicode="z" horiz-adv-x="370" 
d="M374 519l-3 -18l-349 -480h275l-5 -21h-301l3 18l350 481h-258l3 20h285z" />
    <glyph glyph-name="braceleft" unicode="{" horiz-adv-x="296" 
d="M298 801q-39 0 -59.5 -22t-27.5 -68l-38 -274q-7 -44 -25.5 -63.5t-54.5 -24.5q29 -6 42.5 -20t13.5 -44q0 -18 -2 -28l-38 -271q-2 -20 -2 -26q0 -33 15 -48t47 -15l-1 -17q-81 0 -81 80q0 7 2 23l40 284q1 6 1 17q0 55 -62 55l2 20q72 0 83 74l39 283q7 53 34 77.5
t73 24.5z" />
    <glyph glyph-name="bar" unicode="|" horiz-adv-x="378" 
d="M276 801l-126 -899h-22l126 899h22z" />
    <glyph glyph-name="braceright" unicode="}" horiz-adv-x="296" 
d="M23 -103q39 0 59.5 22t27.5 68l38 274q6 44 25 63t55 25q-29 6 -43 20.5t-14 44.5q0 7 2 27l39 271q2 20 2 26q0 33 -15 48t-47 15l1 17q37 0 58.5 -19.5t21.5 -59.5q0 -6 -2 -24l-39 -284q-1 -6 -1 -17q0 -55 62 -55l-3 -20q-71 0 -82 -74l-40 -283q-14 -102 -106 -102z
" />
    <glyph glyph-name="asciitilde" unicode="~" horiz-adv-x="420" 
d="M250.5 287.5q-14.5 7.5 -36.5 21.5q-21 14 -33.5 20t-25.5 6q-21 0 -36 -10.5t-33 -32.5l-14 10q22 28 40.5 41.5t43.5 13.5q17 0 32.5 -7.5t35.5 -21.5q22 -14 33.5 -20t25.5 -6q20 0 34.5 10.5t32.5 31.5l14 -10q-21 -27 -39.5 -40.5t-42.5 -13.5q-17 0 -31.5 7.5z" />
    <glyph glyph-name="uni00A0" unicode="&#xa0;" horiz-adv-x="266" 
 />
    <glyph glyph-name="exclamdown" unicode="&#xa1;" horiz-adv-x="226" 
d="M121.5 412q-5.5 6 -5.5 15q0 10 7 17t17 7t16 -6t6 -15q0 -10 -7 -17t-18 -7q-10 0 -15.5 6zM123 252l-62 -444h-22l64 444h20z" />
    <glyph glyph-name="cent" unicode="&#xa2;" horiz-adv-x="419" 
d="M361 517q28 -12 51 -38l-14 -14q-21 22 -45.5 33t-57.5 11q-71 0 -119 -49t-71 -123.5t-23 -151.5q0 -85 35 -129.5t97 -44.5q35 0 64.5 12t58.5 35l11 -15q-58 -50 -127 -53l-20 -136h-20l19 137q-65 5 -103 55.5t-38 138.5q0 79 24 155.5t73.5 129t121.5 58.5l21 148
h19l-21 -147q36 0 64 -12z" />
    <glyph glyph-name="sterling" unicode="&#xa3;" horiz-adv-x="450" 
d="M401 656q29 -17 51 -51l-16 -12q-19 30 -44 44.5t-62 14.5q-58 0 -94.5 -41t-45.5 -107l-19 -140h193l-2 -21h-194l-29 -207q-6 -48 -24.5 -72.5t-57.5 -42.5h305l-7 -21h-332l2 21q45 21 65.5 45.5t26.5 69.5l29 207h-57l3 21h56l20 142q10 73 52.5 120t109.5 47
q42 0 71 -17z" />
    <glyph glyph-name="currency" unicode="&#xa4;" 
d="M433 120l-72 79q-41 -38 -103 -38q-60 0 -101 38l-72 -79l-14 13l72 79q-41 50 -41 128t40 126l-73 80l16 13l70 -79q40 40 103 40t104 -39l70 78l15 -13l-71 -80q40 -48 40 -126t-41 -127l73 -80zM159 223q36 -43 99 -43q65 0 100.5 43t35.5 117t-35.5 117.5
t-100.5 43.5q-63 0 -99 -43.5t-36 -117.5t36 -117z" />
    <glyph glyph-name="yen" unicode="&#xa5;" horiz-adv-x="438" 
d="M476 661l-226 -333h110l-3 -20h-119l-16 -118h118l-2 -22h-119l-24 -168h-23l24 168h-119l3 22h119l16 118h-119l4 20h110l-135 333h25l129 -331l221 331h26z" />
    <glyph glyph-name="brokenbar" unicode="&#xa6;" horiz-adv-x="378" 
d="M276 801l-50 -358h-22l50 358h22zM200 262l-50 -360h-21l49 360h22z" />
    <glyph glyph-name="section" unicode="&#xa7;" horiz-adv-x="493" 
d="M221 619.5q-33 -32.5 -33 -79.5q0 -37 22 -61t83 -49q60 -25 85.5 -55t25.5 -74q0 -45 -21.5 -78.5t-75.5 -66.5q21 -16 30.5 -37t9.5 -49q0 -57 -41 -95.5t-114 -38.5q-42 0 -74.5 11t-62.5 33l13 16q51 -39 124 -39q66 0 99.5 32.5t33.5 80.5q0 37 -22.5 61.5
t-78.5 47.5q-64 26 -91.5 55t-27.5 74q0 43 23.5 77.5t78.5 68.5q-23 18 -32.5 38.5t-9.5 48.5q0 35 18 65t52.5 48t80.5 18q39 0 69.5 -11t58.5 -32l-12 -16q-29 20 -55.5 29.5t-60.5 9.5q-62 0 -95 -32.5zM361 362.5q-21 26.5 -75 49.5q-42 18 -64 32q-52 -34 -73.5 -64.5
t-21.5 -71.5q0 -38 23 -62.5t83 -49.5q34 -13 60 -29q52 33 70.5 64.5t18.5 69.5q0 35 -21 61.5z" />
    <glyph glyph-name="dieresis" unicode="&#xa8;" horiz-adv-x="249" 
d="M95.5 677.5q-4.5 4.5 -4.5 12.5q0 9 5.5 15t15.5 6q7 0 12 -4.5t5 -12.5q0 -9 -6 -15t-15 -6q-8 0 -12.5 4.5zM246 677.5q-5 4.5 -5 12.5q0 9 5.5 15t15.5 6q8 0 12.5 -4.5t4.5 -12.5q0 -9 -5.5 -15t-14.5 -6q-8 0 -13 4.5z" />
    <glyph glyph-name="copyright" unicode="&#xa9;" horiz-adv-x="727" 
d="M518 687q57 -35 89.5 -100t32.5 -152q0 -86 -32.5 -151.5t-90 -100.5t-129.5 -35t-129 35t-89.5 100t-32.5 152q0 86 32.5 151t89.5 100.5t129 35.5q73 0 130 -35zM269.5 668.5q-52.5 -32.5 -82 -92.5t-29.5 -141q0 -82 29.5 -142.5t82 -92t119.5 -31.5q66 0 118 32.5
t81.5 92.5t29.5 141q0 82 -29 142.5t-81 92t-119 31.5t-119.5 -32.5zM431.5 598.5q18.5 -7.5 35.5 -21.5l-11 -15q-15 12 -30 18t-38 6q-39 0 -68.5 -35.5t-29.5 -113.5q0 -77 27 -114.5t72 -37.5q25 0 42 7.5t34 20.5l10 -16q-36 -32 -87 -32q-54 0 -87 44.5t-33 127.5
q0 58 17.5 96t45 55.5t57.5 17.5q25 0 43.5 -7.5z" />
    <glyph glyph-name="ordfeminine" unicode="&#xaa;" horiz-adv-x="462" 
d="M130 305q-26 28 -26 73q0 64 44 101.5t121 37.5h84l6 45q2 18 2 25q0 38 -18.5 56t-58.5 18q-50 0 -107 -23l-7 18q63 25 115 25q98 0 98 -93q0 -7 -2 -25l-27 -196q-3 -18 -3 -33t5.5 -25t18.5 -16l-6 -16q-23 7 -31 24t-6 47q-27 -36 -58 -53.5t-70 -17.5q-48 0 -74 28
zM333 378l17 118h-81q-72 0 -107.5 -32.5t-35.5 -85.5q0 -38 20.5 -59.5t58.5 -21.5q78 0 128 81zM45 0l3 21h298l-3 -21h-298z" />
    <glyph glyph-name="guillemotleft" unicode="&#xab;" horiz-adv-x="496" 
d="M253 503l14 -9l-156 -207l98 -204l-15 -9l-108 207l2 14zM432 503l14 -9l-156 -207l98 -204l-15 -9l-108 207l2 14z" />
    <glyph glyph-name="logicalnot" unicode="&#xac;" horiz-adv-x="453" 
d="M389 330l-19 -132h-22l16 111h-284l3 21h306z" />
    <glyph glyph-name="uni00AD" unicode="&#xad;" horiz-adv-x="360" 
d="M75 302l3 21h221l-3 -21h-221z" />
    <glyph glyph-name="registered" unicode="&#xae;" horiz-adv-x="572" 
d="M423 694q46 -27 72.5 -77t26.5 -115t-26 -116t-72 -79.5t-104 -28.5q-57 0 -103 27t-72 77t-26 116q0 64 25.5 115t71.5 79.5t104 28.5q57 0 103 -27zM414 323q41 26 64.5 72.5t23.5 106.5t-23.5 105.5t-65 70t-93.5 24.5q-53 0 -94 -26t-64.5 -72t-23.5 -106
q0 -61 24 -106.5t65 -70t93 -24.5q53 0 94 26zM344 489l66 -120h-24l-64 118h-48v-118h-21v269h55q46 0 69.5 -19.5t23.5 -56.5q0 -60 -57 -73zM274 506h49q57 0 57 56t-68 56h-38v-112z" />
    <glyph glyph-name="macron" unicode="&#xaf;" horiz-adv-x="249" 
d="M278 685h-188l3 21h188z" />
    <glyph glyph-name="degree" unicode="&#xb0;" horiz-adv-x="467" 
d="M147 441.5q-29 30.5 -29 85.5q0 45 19 82.5t51.5 59.5t70.5 22q48 0 77 -30.5t29 -84.5q0 -45 -19 -83t-51.5 -60t-71.5 -22q-47 0 -76 30.5zM309 473q33 41 33 103q0 45 -22 70t-61 25q-51 0 -85 -41.5t-34 -102.5q0 -45 22 -70t61 -25q53 0 86 41z" />
    <glyph glyph-name="plusminus" unicode="&#xb1;" horiz-adv-x="445" 
d="M36 0l3 21h298l-3 -21h-298zM268 496l-22 -155h137l-3 -21h-137l-22 -155h-23l22 155h-138l3 21h139l22 155h22z" />
    <glyph glyph-name="uni00B2" unicode="&#xb2;" horiz-adv-x="367" 
d="M309.5 712q23.5 -26 23.5 -66q0 -44 -23.5 -87t-62 -83.5t-108.5 -106.5l-28 -26h190l-6 -21h-211l3 21l32 31q71 68 109 108.5t60.5 81.5t22.5 82q0 34 -18 53.5t-50 19.5q-52 0 -98 -49l-15 13q29 29 56 42t58 13q42 0 65.5 -26z" />
    <glyph glyph-name="uni00B3" unicode="&#xb3;" horiz-adv-x="367" 
d="M313.5 717q23.5 -23 23.5 -62q0 -47 -26.5 -77.5t-68.5 -36.5q35 -2 55.5 -23t20.5 -60q0 -62 -38.5 -102.5t-98.5 -40.5q-64 0 -101 53l15 11q17 -24 38 -34t48 -10q53 0 84 35t31 89q0 71 -81 71h-24l6 19h18q44 0 72.5 30.5t28.5 75.5q0 31 -18 48.5t-50 17.5
q-27 0 -50 -9t-48 -31l-11 14q26 23 52 34t57 11q42 0 65.5 -23z" />
    <glyph glyph-name="acute" unicode="&#xb4;" horiz-adv-x="231" 
d="M258 761l9 -23l-173 -84l-7 15z" />
    <glyph glyph-name="uni00B5" unicode="&#xb5;" horiz-adv-x="526" 
d="M393 83q0 -38 7 -84l-20 -3q-9 45 -9 84q0 11 2 41q-37 -61 -80 -96t-98 -35q-43 0 -67 20.5t-30 57.5q-8 -81 -16 -133l-19 -127l-21 -2l100 713h22l-53 -378q-3 -18 -3 -34q0 -50 24.5 -73t63.5 -23q100 0 179 143l51 365h22l-49 -350q-6 -49 -6 -86z" />
    <glyph glyph-name="paragraph" unicode="&#xb6;" horiz-adv-x="619" 
d="M530 681l-122 -873l-23 -4l120 857h-126l-120 -853l-23 -4l71 502q-89 3 -129.5 44.5t-40.5 110.5q0 100 60.5 160t164.5 60h168z" />
    <glyph glyph-name="periodcentered" unicode="&#xb7;" horiz-adv-x="156" 
d="M70.5 310q-5.5 6 -5.5 15q0 10 7 17t17 7t16 -6t6 -15q0 -10 -7 -17t-18 -7q-10 0 -15.5 6z" />
    <glyph glyph-name="cedilla" unicode="&#xb8;" horiz-adv-x="201" 
d="M39 -74q38 -3 56.5 -18t18.5 -45q0 -34 -24 -54.5t-62 -20.5q-36 0 -61 18l10 16q21 -14 51 -14q29 0 46 14t17 40q0 25 -16.5 35.5t-57.5 11.5l21 100h16z" />
    <glyph glyph-name="uni00B9" unicode="&#xb9;" horiz-adv-x="367" 
d="M283 732l-58 -410h-21l54 385l-107 -64l-9 15l124 74h17z" />
    <glyph glyph-name="ordmasculine" unicode="&#xba;" horiz-adv-x="457" 
d="M381.5 642q33.5 -39 33.5 -111q0 -62 -20.5 -120t-62.5 -96t-102 -38q-61 0 -93.5 39.5t-32.5 111.5q0 62 20.5 120t62 95.5t101.5 37.5t93.5 -39zM197.5 626q-36.5 -35 -54 -88t-17.5 -110q0 -63 27 -97t77 -34q55 0 91.5 35t54 89t17.5 110q0 63 -27 96.5t-77 33.5
q-55 0 -91.5 -35zM43 0l3 21h298l-3 -21h-298z" />
    <glyph glyph-name="guillemotright" unicode="&#xbb;" horiz-adv-x="495" 
d="M131 503l108 -207l-2 -15l-165 -207l-14 9l155 206l-97 205zM310 503l108 -207l-2 -15l-165 -207l-14 9l155 206l-97 205z" />
    <glyph glyph-name="onequarter" unicode="&#xbc;" horiz-adv-x="818" 
d="M276 681l-58 -410h-21l54 385l-107 -64l-9 15l124 74h17zM648 742l17 -9l-479 -799l-16 9zM740 132l-3 -20h-53l-16 -112h-21l17 112h-173l2 18l159 288l18 -7l-154 -279h151l19 127h18l-18 -127h54z" />
    <glyph glyph-name="onehalf" unicode="&#xbd;" horiz-adv-x="818" 
d="M276 681l-58 -410h-21l54 385l-107 -64l-9 15l124 74h17zM648 742l17 -9l-479 -799l-16 9zM715.5 390q23.5 -26 23.5 -66q0 -44 -23.5 -87t-62 -83.5t-108.5 -106.5l-28 -26h190l-6 -21h-211l3 21l32 31q71 68 109 108.5t60.5 81.5t22.5 82q0 34 -18 53.5t-50 19.5
q-52 0 -98 -49l-15 13q29 29 56 42t58 13q42 0 65.5 -26z" />
    <glyph glyph-name="threequarters" unicode="&#xbe;" horiz-adv-x="818" 
d="M306.5 666q23.5 -23 23.5 -62q0 -47 -26.5 -77.5t-68.5 -36.5q35 -2 55.5 -23t20.5 -60q0 -62 -38.5 -102.5t-98.5 -40.5q-64 0 -101 53l15 11q17 -24 38 -34t48 -10q53 0 84 35t31 89q0 71 -81 71h-24l6 19h18q44 0 72.5 30.5t28.5 75.5q0 31 -18 48.5t-50 17.5
q-27 0 -50 -9t-48 -31l-11 14q26 23 52 34t57 11q42 0 65.5 -23zM648 742l17 -9l-479 -799l-16 9zM740 132l-3 -20h-53l-16 -112h-21l17 112h-173l2 18l159 288l18 -7l-154 -279h151l19 127h18l-18 -127h54z" />
    <glyph glyph-name="questiondown" unicode="&#xbf;" horiz-adv-x="413" 
d="M249.5 497q5.5 -6 5.5 -15q0 -10 -7 -17t-17 -7t-16 6t-6 15q0 10 7 17t18 7q10 0 15.5 -6zM40 -166q-32 32 -32 83q0 42 15.5 73.5t38 52t58.5 46.5q33 24 51.5 41t31.5 40.5t13 54.5q0 27 -7 51l20 5q9 -32 9 -56q0 -35 -13.5 -61t-34 -44.5t-53.5 -42.5
q-35 -25 -56.5 -44.5t-36 -48t-14.5 -66.5q0 -43 26 -69.5t74 -26.5q44 0 79 18.5t74 58.5l14 -13q-41 -44 -80 -64t-87 -20q-58 0 -90 32z" />
    <glyph glyph-name="Agrave" unicode="&#xc0;" horiz-adv-x="509" 
d="M421 0l-34 203h-281l-91 -203h-24l308 681h28l118 -681h-24zM115 224h269l-73 438zM267 859l145 -81l-9 -14l-150 72z" />
    <glyph glyph-name="Aacute" unicode="&#xc1;" horiz-adv-x="509" 
d="M421 0l-34 203h-281l-91 -203h-24l308 681h28l118 -681h-24zM115 224h269l-73 438zM405 860l10 -24l-172 -72l-7 15z" />
    <glyph glyph-name="Acircumflex" unicode="&#xc2;" horiz-adv-x="509" 
d="M421 0l-34 203h-281l-91 -203h-24l308 681h28l118 -681h-24zM115 224h269l-73 438zM217 766l-10 13l121 90h12l95 -90l-12 -13l-90 79z" />
    <glyph glyph-name="Atilde" unicode="&#xc3;" horiz-adv-x="509" 
d="M421 0l-34 203h-281l-91 -203h-24l308 681h28l118 -681h-24zM115 224h269l-73 438zM357 810q-13 6 -29 17t-25 15.5t-20 4.5q-16 0 -28 -8t-30 -28l-13 10q37 46 71 46q13 0 24.5 -5.5t27.5 -16.5q15 -10 26.5 -15.5t23.5 -5.5q15 0 28 9.5t30 31.5l14 -9
q-34 -52 -72 -52q-15 0 -28 6z" />
    <glyph glyph-name="Adieresis" unicode="&#xc4;" horiz-adv-x="509" 
d="M421 0l-34 203h-281l-91 -203h-24l308 681h28l118 -681h-24zM115 224h269l-73 438zM242.5 803.5q-4.5 4.5 -4.5 12.5q0 9 5.5 15t15.5 6q7 0 12 -4.5t5 -12.5q0 -9 -6 -15t-15 -6q-8 0 -12.5 4.5zM393 803.5q-5 4.5 -5 12.5q0 9 5.5 15t15.5 6q8 0 12.5 -4.5t4.5 -12.5
q0 -9 -5.5 -15t-14.5 -6q-8 0 -13 4.5z" />
    <glyph glyph-name="Aring" unicode="&#xc5;" horiz-adv-x="509" 
d="M421 0l-34 203h-281l-91 -203h-24l308 681h28l118 -681h-24zM115 224h269l-73 438zM394 909q17 -18 17 -48q0 -41 -23.5 -66t-59.5 -25q-29 0 -46.5 18.5t-17.5 47.5q0 41 23.5 66t59.5 25q30 0 47 -18zM301.5 889q-16.5 -20 -17.5 -51q0 -23 11.5 -36.5t33.5 -13.5
q28 0 44.5 20t17.5 51q0 23 -11.5 36.5t-33.5 13.5q-28 0 -44.5 -20z" />
    <glyph glyph-name="AE" unicode="&#xc6;" horiz-adv-x="684" 
d="M651 660h-307l28 -290h235l-3 -21h-230l31 -328h208l-4 -21h-224l-18 196h-271l-95 -196h-24l334 681h346zM365 217l-42 446l-217 -446h259z" />
    <glyph glyph-name="Ccedilla" unicode="&#xc7;" horiz-adv-x="488" 
d="M217 603.5q-63 -66.5 -92 -165t-29 -195.5q0 -112 46 -171.5t125 -59.5q47 0 81 15t69 43l13 -17q-35 -29 -73.5 -45.5t-85.5 -17.5l-12 -64q38 -3 56.5 -18t18.5 -45q0 -34 -24 -54.5t-62 -20.5q-36 0 -61 18l10 16q21 -14 51 -14q29 0 46 14t17 40q0 25 -16.5 35.5
t-57.5 11.5l17 81q-84 5 -132 70t-48 181q0 104 31.5 207.5t99.5 173t171 69.5q47 0 79 -14.5t59 -43.5l-14 -15q-28 27 -55.5 39.5t-68.5 12.5q-96 0 -159 -66.5z" />
    <glyph glyph-name="Egrave" unicode="&#xc8;" horiz-adv-x="445" 
d="M459 681l-6 -21h-264l-41 -290h229l-4 -21h-228l-46 -328h275l-4 -21h-297l96 681h290zM272 859l145 -81l-9 -14l-150 72z" />
    <glyph glyph-name="Eacute" unicode="&#xc9;" horiz-adv-x="445" 
d="M459 681l-6 -21h-264l-41 -290h229l-4 -21h-228l-46 -328h275l-4 -21h-297l96 681h290zM410 860l10 -24l-172 -72l-7 15z" />
    <glyph glyph-name="Ecircumflex" unicode="&#xca;" horiz-adv-x="445" 
d="M459 681l-6 -21h-264l-41 -290h229l-4 -21h-228l-46 -328h275l-4 -21h-297l96 681h290zM222 766l-10 13l121 90h12l95 -90l-12 -13l-90 79z" />
    <glyph glyph-name="Edieresis" unicode="&#xcb;" horiz-adv-x="445" 
d="M459 681l-6 -21h-264l-41 -290h229l-4 -21h-228l-46 -328h275l-4 -21h-297l96 681h290zM247.5 803.5q-4.5 4.5 -4.5 12.5q0 9 5.5 15t15.5 6q7 0 12 -4.5t5 -12.5q0 -9 -6 -15t-15 -6q-8 0 -12.5 4.5zM398 803.5q-5 4.5 -5 12.5q0 9 5.5 15t15.5 6q8 0 12.5 -4.5
t4.5 -12.5q0 -9 -5.5 -15t-14.5 -6q-8 0 -13 4.5z" />
    <glyph glyph-name="Igrave" unicode="&#xcc;" horiz-adv-x="243" 
d="M192 681l-96 -681h-23l96 681h23zM135 859l145 -81l-9 -14l-150 72z" />
    <glyph glyph-name="Iacute" unicode="&#xcd;" horiz-adv-x="243" 
d="M192 681l-96 -681h-23l96 681h23zM273 860l10 -24l-172 -72l-7 15z" />
    <glyph glyph-name="Icircumflex" unicode="&#xce;" horiz-adv-x="243" 
d="M192 681l-96 -681h-23l96 681h23zM85 766l-10 13l121 90h12l95 -90l-12 -13l-90 79z" />
    <glyph glyph-name="Idieresis" unicode="&#xcf;" horiz-adv-x="243" 
d="M192 681l-96 -681h-23l96 681h23zM110.5 803.5q-4.5 4.5 -4.5 12.5q0 9 5.5 15t15.5 6q7 0 12 -4.5t5 -12.5q0 -9 -6 -15t-15 -6q-8 0 -12.5 4.5zM261 803.5q-5 4.5 -5 12.5q0 9 5.5 15t15.5 6q8 0 12.5 -4.5t4.5 -12.5q0 -9 -5.5 -15t-14.5 -6q-8 0 -13 4.5z" />
    <glyph glyph-name="Eth" unicode="&#xd0;" horiz-adv-x="569" 
d="M519 445q0 -116 -33 -216.5t-107 -164.5t-189 -64h-115l48 343h-80l3 20h80l45 318h121q227 0 227 -236zM368.5 82.5q67.5 61.5 97.5 157.5t30 205q0 122 -56.5 168.5t-149.5 46.5h-99l-42 -297h174l-4 -20h-173l-45 -322h93q107 0 174.5 61.5z" />
    <glyph glyph-name="Ntilde" unicode="&#xd1;" horiz-adv-x="596" 
d="M449 0h-28l-237 658q-4 -58 -22 -182l-67 -476h-22l96 681h29l236 -656q14 114 23 180l66 476h22zM406 810q-13 6 -29 17t-25 15.5t-20 4.5q-16 0 -28 -8t-30 -28l-13 10q37 46 71 46q13 0 24.5 -5.5t27.5 -16.5q15 -10 26.5 -15.5t23.5 -5.5q15 0 28 9.5t30 31.5l14 -9
q-34 -52 -72 -52q-15 0 -28 6z" />
    <glyph glyph-name="Ograve" unicode="&#xd2;" horiz-adv-x="623" 
d="M521 627q52 -64 52 -184q0 -102 -30.5 -206t-98.5 -175.5t-174 -71.5q-93 0 -145 65.5t-52 185.5q0 99 31.5 203t100 175.5t171.5 71.5q93 0 145 -64zM216.5 602q-62.5 -69 -91 -168.5t-28.5 -193.5q0 -111 45.5 -169.5t127.5 -58.5q101 0 163.5 69.5t89.5 168.5t27 193
q0 111 -45.5 169.5t-128.5 58.5q-97 0 -159.5 -69zM330 859l145 -81l-9 -14l-150 72z" />
    <glyph glyph-name="Oacute" unicode="&#xd3;" horiz-adv-x="623" 
d="M521 627q52 -64 52 -184q0 -102 -30.5 -206t-98.5 -175.5t-174 -71.5q-93 0 -145 65.5t-52 185.5q0 99 31.5 203t100 175.5t171.5 71.5q93 0 145 -64zM216.5 602q-62.5 -69 -91 -168.5t-28.5 -193.5q0 -111 45.5 -169.5t127.5 -58.5q101 0 163.5 69.5t89.5 168.5t27 193
q0 111 -45.5 169.5t-128.5 58.5q-97 0 -159.5 -69zM468 860l10 -24l-172 -72l-7 15z" />
    <glyph glyph-name="Ocircumflex" unicode="&#xd4;" horiz-adv-x="623" 
d="M521 627q52 -64 52 -184q0 -102 -30.5 -206t-98.5 -175.5t-174 -71.5q-93 0 -145 65.5t-52 185.5q0 99 31.5 203t100 175.5t171.5 71.5q93 0 145 -64zM216.5 602q-62.5 -69 -91 -168.5t-28.5 -193.5q0 -111 45.5 -169.5t127.5 -58.5q101 0 163.5 69.5t89.5 168.5t27 193
q0 111 -45.5 169.5t-128.5 58.5q-97 0 -159.5 -69zM280 766l-10 13l121 90h12l95 -90l-12 -13l-90 79z" />
    <glyph glyph-name="Otilde" unicode="&#xd5;" horiz-adv-x="623" 
d="M521 627q52 -64 52 -184q0 -102 -30.5 -206t-98.5 -175.5t-174 -71.5q-93 0 -145 65.5t-52 185.5q0 99 31.5 203t100 175.5t171.5 71.5q93 0 145 -64zM216.5 602q-62.5 -69 -91 -168.5t-28.5 -193.5q0 -111 45.5 -169.5t127.5 -58.5q101 0 163.5 69.5t89.5 168.5t27 193
q0 111 -45.5 169.5t-128.5 58.5q-97 0 -159.5 -69zM420 810q-13 6 -29 17t-25 15.5t-20 4.5q-16 0 -28 -8t-30 -28l-13 10q37 46 71 46q13 0 24.5 -5.5t27.5 -16.5q15 -10 26.5 -15.5t23.5 -5.5q15 0 28 9.5t30 31.5l14 -9q-34 -52 -72 -52q-15 0 -28 6z" />
    <glyph glyph-name="Odieresis" unicode="&#xd6;" horiz-adv-x="623" 
d="M521 627q52 -64 52 -184q0 -102 -30.5 -206t-98.5 -175.5t-174 -71.5q-93 0 -145 65.5t-52 185.5q0 99 31.5 203t100 175.5t171.5 71.5q93 0 145 -64zM216.5 602q-62.5 -69 -91 -168.5t-28.5 -193.5q0 -111 45.5 -169.5t127.5 -58.5q101 0 163.5 69.5t89.5 168.5t27 193
q0 111 -45.5 169.5t-128.5 58.5q-97 0 -159.5 -69zM305.5 803.5q-4.5 4.5 -4.5 12.5q0 9 5.5 15t15.5 6q7 0 12 -4.5t5 -12.5q0 -9 -6 -15t-15 -6q-8 0 -12.5 4.5zM456 803.5q-5 4.5 -5 12.5q0 9 5.5 15t15.5 6q8 0 12.5 -4.5t4.5 -12.5q0 -9 -5.5 -15t-14.5 -6
q-8 0 -13 4.5z" />
    <glyph glyph-name="multiply" unicode="&#xd7;" horiz-adv-x="444" 
d="M364 455l15 -15l-136 -133l99 -133l-17 -14l-98 132l-134 -132l-14 15l135 132l-99 134l18 14l97 -133z" />
    <glyph glyph-name="Oslash" unicode="&#xd8;" horiz-adv-x="623" 
d="M546 586.5q27 -57.5 27 -143.5q0 -102 -30.5 -206t-98.5 -175.5t-174 -71.5q-40 0 -72 12l-46 -113l-20 7l48 114q-51 26 -79 85.5t-28 145.5q0 99 31.5 203t100 175.5t171.5 71.5q42 0 75 -13l47 120l20 -6l-50 -121q51 -27 78 -84.5zM121 106.5q24 -53.5 69 -76.5
l253 629q-29 12 -67 12q-97 0 -159.5 -69.5t-91 -169t-28.5 -192.5q0 -80 24 -133.5zM433.5 81.5q62.5 69.5 89.5 168.5t27 193q0 161 -92 209l-252 -629q30 -11 64 -11q101 0 163.5 69.5z" />
    <glyph glyph-name="Ugrave" unicode="&#xd9;" horiz-adv-x="576" 
d="M465 186q-11 -87 -65 -141.5t-148 -54.5q-84 0 -124.5 42.5t-40.5 114.5q0 19 3 40l69 494h23l-69 -493q-3 -21 -3 -39q0 -64 34.5 -100.5t107.5 -36.5q85 0 132.5 49.5t58.5 127.5l69 492h22zM301 859l145 -81l-9 -14l-150 72z" />
    <glyph glyph-name="Uacute" unicode="&#xda;" horiz-adv-x="576" 
d="M465 186q-11 -87 -65 -141.5t-148 -54.5q-84 0 -124.5 42.5t-40.5 114.5q0 19 3 40l69 494h23l-69 -493q-3 -21 -3 -39q0 -64 34.5 -100.5t107.5 -36.5q85 0 132.5 49.5t58.5 127.5l69 492h22zM439 860l10 -24l-172 -72l-7 15z" />
    <glyph glyph-name="Ucircumflex" unicode="&#xdb;" horiz-adv-x="576" 
d="M465 186q-11 -87 -65 -141.5t-148 -54.5q-84 0 -124.5 42.5t-40.5 114.5q0 19 3 40l69 494h23l-69 -493q-3 -21 -3 -39q0 -64 34.5 -100.5t107.5 -36.5q85 0 132.5 49.5t58.5 127.5l69 492h22zM251 766l-10 13l121 90h12l95 -90l-12 -13l-90 79z" />
    <glyph glyph-name="Udieresis" unicode="&#xdc;" horiz-adv-x="576" 
d="M465 186q-11 -87 -65 -141.5t-148 -54.5q-84 0 -124.5 42.5t-40.5 114.5q0 19 3 40l69 494h23l-69 -493q-3 -21 -3 -39q0 -64 34.5 -100.5t107.5 -36.5q85 0 132.5 49.5t58.5 127.5l69 492h22zM276.5 803.5q-4.5 4.5 -4.5 12.5q0 9 5.5 15t15.5 6q7 0 12 -4.5t5 -12.5
q0 -9 -6 -15t-15 -6q-8 0 -12.5 4.5zM427 803.5q-5 4.5 -5 12.5q0 9 5.5 15t15.5 6q8 0 12.5 -4.5t4.5 -12.5q0 -9 -5.5 -15t-14.5 -6q-8 0 -13 4.5z" />
    <glyph glyph-name="Yacute" unicode="&#xdd;" horiz-adv-x="446" 
d="M486 681l-249 -411l-39 -270h-22l38 270l-136 411h23l126 -388l234 388h25zM372 860l10 -24l-172 -72l-7 15z" />
    <glyph glyph-name="Thorn" unicode="&#xde;" horiz-adv-x="500" 
d="M420 514.5q49 -39.5 49 -124.5q0 -101 -59.5 -172t-197.5 -71h-95l-21 -147h-23l96 681h23l-18 -127h101q96 0 145 -39.5zM393 232.5q53 64.5 53 157.5q0 77 -42.5 110t-130.5 33h-102l-51 -365h96q124 0 177 64.5z" />
    <glyph glyph-name="germandbls" unicode="&#xdf;" horiz-adv-x="518" 
d="M-45 -178q37 20 58.5 39.5t35 52t21.5 88.5l76 540q13 93 63.5 144t121.5 51q53 0 85 -30t32 -77q0 -34 -11.5 -59.5t-27.5 -41.5t-42 -38q-29 -22 -43 -39.5t-14 -41.5q0 -20 12.5 -36.5t39.5 -40.5q28 -25 45.5 -45.5t30.5 -51.5t13 -73q0 -38 -17 -78t-52.5 -67.5
t-88.5 -27.5q-28 0 -53.5 8t-41.5 19l9 17q39 -23 85 -23q47 0 78 24.5t45 60t14 67.5q0 38 -12 66.5t-28.5 47.5t-43.5 43q-29 26 -43 45t-14 45q0 29 15 48.5t46 43.5q37 28 56.5 55.5t19.5 72.5q0 39 -25.5 63t-69.5 24q-62 0 -106 -46t-56 -134l-76 -536
q-8 -60 -23.5 -95.5t-40 -57t-66.5 -43.5z" />
    <glyph glyph-name="agrave" unicode="&#xe0;" horiz-adv-x="499" 
d="M432 492l-54 -380q-5 -33 -5 -50q0 -21 7 -34t23 -21l-7 -17q-22 10 -32.5 28t-10.5 48q0 9 2 29q-29 -49 -69 -77t-87 -28q-66 0 -103.5 50.5t-37.5 137.5q0 82 26 163t81.5 134.5t138.5 53.5q69 0 128 -37zM178 459q-50 -51 -73.5 -127t-23.5 -153q0 -79 31 -123.5
t88 -44.5q91 0 159 120l50 351q-46 28 -105 28q-76 0 -126 -51zM279 760l145 -92l-10 -14l-149 84z" />
    <glyph glyph-name="aacute" unicode="&#xe1;" horiz-adv-x="499" 
d="M432 492l-54 -380q-5 -33 -5 -50q0 -21 7 -34t23 -21l-7 -17q-22 10 -32.5 28t-10.5 48q0 9 2 29q-29 -49 -69 -77t-87 -28q-66 0 -103.5 50.5t-37.5 137.5q0 82 26 163t81.5 134.5t138.5 53.5q69 0 128 -37zM178 459q-50 -51 -73.5 -127t-23.5 -153q0 -79 31 -123.5
t88 -44.5q91 0 159 120l50 351q-46 28 -105 28q-76 0 -126 -51zM416 761l9 -23l-173 -84l-7 15z" />
    <glyph glyph-name="acircumflex" unicode="&#xe2;" horiz-adv-x="499" 
d="M432 492l-54 -380q-5 -33 -5 -50q0 -21 7 -34t23 -21l-7 -17q-22 10 -32.5 28t-10.5 48q0 9 2 29q-29 -49 -69 -77t-87 -28q-66 0 -103.5 50.5t-37.5 137.5q0 82 26 163t81.5 134.5t138.5 53.5q69 0 128 -37zM178 459q-50 -51 -73.5 -127t-23.5 -153q0 -79 31 -123.5
t88 -44.5q91 0 159 120l50 351q-46 28 -105 28q-76 0 -126 -51zM225 654l-11 13l122 95h12l95 -95l-13 -13l-90 84z" />
    <glyph glyph-name="atilde" unicode="&#xe3;" horiz-adv-x="499" 
d="M432 492l-54 -380q-5 -33 -5 -50q0 -21 7 -34t23 -21l-7 -17q-22 10 -32.5 28t-10.5 48q0 9 2 29q-29 -49 -69 -77t-87 -28q-66 0 -103.5 50.5t-37.5 137.5q0 82 26 163t81.5 134.5t138.5 53.5q69 0 128 -37zM178 459q-50 -51 -73.5 -127t-23.5 -153q0 -79 31 -123.5
t88 -44.5q91 0 159 120l50 351q-46 28 -105 28q-76 0 -126 -51zM359 684q-13 6 -29 17t-25 15.5t-20 4.5q-16 0 -28 -8t-30 -28l-13 10q37 46 71 46q13 0 24.5 -5.5t27.5 -16.5q15 -10 26.5 -15.5t23.5 -5.5q15 0 28 9.5t30 31.5l14 -9q-34 -52 -72 -52q-15 0 -28 6z" />
    <glyph glyph-name="adieresis" unicode="&#xe4;" horiz-adv-x="499" 
d="M432 492l-54 -380q-5 -33 -5 -50q0 -21 7 -34t23 -21l-7 -17q-22 10 -32.5 28t-10.5 48q0 9 2 29q-29 -49 -69 -77t-87 -28q-66 0 -103.5 50.5t-37.5 137.5q0 82 26 163t81.5 134.5t138.5 53.5q69 0 128 -37zM178 459q-50 -51 -73.5 -127t-23.5 -153q0 -79 31 -123.5
t88 -44.5q91 0 159 120l50 351q-46 28 -105 28q-76 0 -126 -51zM243.5 677.5q-4.5 4.5 -4.5 12.5q0 9 5.5 15t15.5 6q7 0 12 -4.5t5 -12.5q0 -9 -6 -15t-15 -6q-8 0 -12.5 4.5zM394 677.5q-5 4.5 -5 12.5q0 9 5.5 15t15.5 6q8 0 12.5 -4.5t4.5 -12.5q0 -9 -5.5 -15t-14.5 -6
q-8 0 -13 4.5z" />
    <glyph glyph-name="aring" unicode="&#xe5;" horiz-adv-x="499" 
d="M432 492l-54 -380q-5 -33 -5 -50q0 -21 7 -34t23 -21l-7 -17q-22 10 -32.5 28t-10.5 48q0 9 2 29q-29 -49 -69 -77t-87 -28q-66 0 -103.5 50.5t-37.5 137.5q0 82 26 163t81.5 134.5t138.5 53.5q69 0 128 -37zM178 459q-50 -51 -73.5 -127t-23.5 -153q0 -79 31 -123.5
t88 -44.5q91 0 159 120l50 351q-46 28 -105 28q-76 0 -126 -51zM394 783q17 -18 17 -48q0 -41 -23.5 -66t-59.5 -25q-29 0 -46.5 18.5t-17.5 47.5q0 41 23.5 66t59.5 25q30 0 47 -18zM301.5 763q-16.5 -20 -17.5 -51q0 -23 11.5 -36.5t33.5 -13.5q28 0 44.5 20t17.5 51
q0 23 -11.5 36.5t-33.5 13.5q-28 0 -44.5 -20z" />
    <glyph glyph-name="ae" unicode="&#xe6;" horiz-adv-x="740" 
d="M351 497q34 -32 42 -89q25 50 73 85.5t113 35.5q59 0 94 -31t35 -83q0 -91 -90.5 -140.5t-257.5 -60.5q-5 -92 26.5 -147.5t102.5 -55.5q40 0 72.5 13.5t69.5 41.5l11 -15q-38 -31 -74 -46t-79 -15q-54 0 -91 29t-51 85q-48 -61 -92.5 -87.5t-95.5 -26.5q-59 0 -92 35.5
t-33 94.5q0 76 51 127.5t157 51.5h108q12 48 27 81q-4 62 -35 95.5t-84 33.5q-58 0 -133 -32l-6 18q77 34 140 34q58 0 92 -32zM465.5 468q-46.5 -41 -71.5 -103.5t-32 -130.5q324 21 324 181q0 44 -28.5 69t-79.5 25q-66 0 -112.5 -41zM244 279q-98 0 -143 -44.5
t-45 -114.5q0 -50 27.5 -79.5t75.5 -29.5q50 0 93.5 27.5t88.5 88.5q-5 28 -5 57q0 45 10 95h-102z" />
    <glyph glyph-name="ccedilla" unicode="&#xe7;" horiz-adv-x="419" 
d="M361 517q28 -12 51 -38l-14 -14q-21 22 -45.5 33t-57.5 11q-71 0 -119 -49t-71 -123.5t-23 -151.5q0 -85 35 -129.5t97 -44.5q35 0 64.5 12t58.5 35l11 -15q-62 -52 -131 -53l-12 -64q38 -3 56.5 -18t18.5 -45q0 -34 -24 -54.5t-62 -20.5q-36 0 -61 18l10 16
q21 -14 51 -14q29 0 46 14t17 40q0 25 -16.5 35.5t-57.5 11.5l17 82q-66 5 -103.5 55t-37.5 139q0 82 26 161t79.5 131t131.5 52q37 0 65 -12z" />
    <glyph glyph-name="egrave" unicode="&#xe8;" horiz-adv-x="462" 
d="M339.5 274.5q-90.5 -49.5 -257.5 -60.5q-1 -10 -1 -31q0 -85 35 -128.5t96 -43.5q40 0 72 13.5t69 41.5l12 -15q-39 -31 -75 -46t-78 -15q-73 0 -113 49.5t-40 142.5q0 82 26.5 162t81.5 132.5t135 52.5q59 0 93.5 -30.5t34.5 -83.5q0 -91 -90.5 -140.5zM189.5 469.5
q-46.5 -39.5 -72 -102t-33.5 -133.5q324 21 324 181q0 44 -27.5 69t-79.5 25q-65 0 -111.5 -39.5zM258 760l145 -92l-10 -14l-149 84z" />
    <glyph glyph-name="eacute" unicode="&#xe9;" horiz-adv-x="462" 
d="M339.5 274.5q-90.5 -49.5 -257.5 -60.5q-1 -10 -1 -31q0 -85 35 -128.5t96 -43.5q40 0 72 13.5t69 41.5l12 -15q-39 -31 -75 -46t-78 -15q-73 0 -113 49.5t-40 142.5q0 82 26.5 162t81.5 132.5t135 52.5q59 0 93.5 -30.5t34.5 -83.5q0 -91 -90.5 -140.5zM189.5 469.5
q-46.5 -39.5 -72 -102t-33.5 -133.5q324 21 324 181q0 44 -27.5 69t-79.5 25q-65 0 -111.5 -39.5zM395 761l9 -23l-173 -84l-7 15z" />
    <glyph glyph-name="ecircumflex" unicode="&#xea;" horiz-adv-x="462" 
d="M339.5 274.5q-90.5 -49.5 -257.5 -60.5q-1 -10 -1 -31q0 -85 35 -128.5t96 -43.5q40 0 72 13.5t69 41.5l12 -15q-39 -31 -75 -46t-78 -15q-73 0 -113 49.5t-40 142.5q0 82 26.5 162t81.5 132.5t135 52.5q59 0 93.5 -30.5t34.5 -83.5q0 -91 -90.5 -140.5zM189.5 469.5
q-46.5 -39.5 -72 -102t-33.5 -133.5q324 21 324 181q0 44 -27.5 69t-79.5 25q-65 0 -111.5 -39.5zM204 654l-11 13l122 95h12l95 -95l-13 -13l-90 84z" />
    <glyph glyph-name="edieresis" unicode="&#xeb;" horiz-adv-x="462" 
d="M339.5 274.5q-90.5 -49.5 -257.5 -60.5q-1 -10 -1 -31q0 -85 35 -128.5t96 -43.5q40 0 72 13.5t69 41.5l12 -15q-39 -31 -75 -46t-78 -15q-73 0 -113 49.5t-40 142.5q0 82 26.5 162t81.5 132.5t135 52.5q59 0 93.5 -30.5t34.5 -83.5q0 -91 -90.5 -140.5zM189.5 469.5
q-46.5 -39.5 -72 -102t-33.5 -133.5q324 21 324 181q0 44 -27.5 69t-79.5 25q-65 0 -111.5 -39.5zM222.5 677.5q-4.5 4.5 -4.5 12.5q0 9 5.5 15t15.5 6q7 0 12 -4.5t5 -12.5q0 -9 -6 -15t-15 -6q-8 0 -12.5 4.5zM373 677.5q-5 4.5 -5 12.5q0 9 5.5 15t15.5 6q8 0 12.5 -4.5
t4.5 -12.5q0 -9 -5.5 -15t-14.5 -6q-8 0 -13 4.5z" />
    <glyph glyph-name="igrave" unicode="&#xec;" horiz-adv-x="233" 
d="M164 519l-73 -519h-22l73 519h22zM123 760l145 -92l-10 -14l-149 84z" />
    <glyph glyph-name="iacute" unicode="&#xed;" horiz-adv-x="233" 
d="M164 519l-73 -519h-22l73 519h22zM260 761l9 -23l-173 -84l-7 15z" />
    <glyph glyph-name="icircumflex" unicode="&#xee;" horiz-adv-x="233" 
d="M164 519l-73 -519h-22l73 519h22zM69 654l-11 13l122 95h12l95 -95l-13 -13l-90 84z" />
    <glyph glyph-name="idieresis" unicode="&#xef;" horiz-adv-x="233" 
d="M164 519l-73 -519h-22l73 519h22zM87.5 677.5q-4.5 4.5 -4.5 12.5q0 9 5.5 15t15.5 6q7 0 12 -4.5t5 -12.5q0 -9 -6 -15t-15 -6q-8 0 -12.5 4.5zM238 677.5q-5 4.5 -5 12.5q0 9 5.5 15t15.5 6q8 0 12.5 -4.5t4.5 -12.5q0 -9 -5.5 -15t-14.5 -6q-8 0 -13 4.5z" />
    <glyph glyph-name="eth" unicode="&#xf0;" horiz-adv-x="503" 
d="M437 414q0 -104 -25.5 -201.5t-79 -160t-131.5 -62.5q-71 0 -108.5 47t-37.5 129q0 68 23 136t70.5 113.5t117.5 45.5q92 0 148 -97q1 13 1 39q0 80 -20 140t-68 108l-89 -85l-16 7l91 90q-54 43 -110 56l7 19q66 -18 118 -60l72 68l13 -12l-71 -69q95 -87 95 -251z
M345.5 106q51.5 95 66.5 229q-57 106 -146 106q-63 0 -105.5 -42t-62.5 -105.5t-20 -127.5q0 -73 32 -114t91 -41q93 0 144.5 95z" />
    <glyph glyph-name="ntilde" unicode="&#xf1;" horiz-adv-x="523" 
d="M414 498.5q27 -30.5 27 -86.5q0 -18 -3 -39l-52 -373h-22l52 371q3 21 3 40q0 99 -85 99q-55 0 -103.5 -48.5t-94.5 -140.5l-45 -321h-22l73 519h19l-20 -155q42 82 90 123.5t104 41.5q52 0 79 -30.5zM350 684q-13 6 -29 17t-25 15.5t-20 4.5q-16 0 -28 -8t-30 -28
l-13 10q37 46 71 46q13 0 24.5 -5.5t27.5 -16.5q15 -10 26.5 -15.5t23.5 -5.5q15 0 28 9.5t30 31.5l14 -9q-34 -52 -72 -52q-15 0 -28 6z" />
    <glyph glyph-name="ograve" unicode="&#xf2;" horiz-adv-x="506" 
d="M99 41.5q-40 51.5 -40 142.5q0 78 24.5 157.5t77 133.5t133.5 54q73 0 113.5 -50t40.5 -142q0 -77 -24 -157t-77 -135t-134 -55q-74 0 -114 51.5zM334.5 63q47.5 52 69 127.5t21.5 147.5q0 83 -34 127t-97 44q-74 0 -122 -52t-69 -127.5t-21 -146.5q0 -83 34 -127.5
t97 -44.5q74 0 121.5 52zM264 760l145 -92l-10 -14l-149 84z" />
    <glyph glyph-name="oacute" unicode="&#xf3;" horiz-adv-x="506" 
d="M99 41.5q-40 51.5 -40 142.5q0 78 24.5 157.5t77 133.5t133.5 54q73 0 113.5 -50t40.5 -142q0 -77 -24 -157t-77 -135t-134 -55q-74 0 -114 51.5zM334.5 63q47.5 52 69 127.5t21.5 147.5q0 83 -34 127t-97 44q-74 0 -122 -52t-69 -127.5t-21 -146.5q0 -83 34 -127.5
t97 -44.5q74 0 121.5 52zM401 761l9 -23l-173 -84l-7 15z" />
    <glyph glyph-name="ocircumflex" unicode="&#xf4;" horiz-adv-x="506" 
d="M99 41.5q-40 51.5 -40 142.5q0 78 24.5 157.5t77 133.5t133.5 54q73 0 113.5 -50t40.5 -142q0 -77 -24 -157t-77 -135t-134 -55q-74 0 -114 51.5zM334.5 63q47.5 52 69 127.5t21.5 147.5q0 83 -34 127t-97 44q-74 0 -122 -52t-69 -127.5t-21 -146.5q0 -83 34 -127.5
t97 -44.5q74 0 121.5 52zM210 654l-11 13l122 95h12l95 -95l-13 -13l-90 84z" />
    <glyph glyph-name="otilde" unicode="&#xf5;" horiz-adv-x="506" 
d="M99 41.5q-40 51.5 -40 142.5q0 78 24.5 157.5t77 133.5t133.5 54q73 0 113.5 -50t40.5 -142q0 -77 -24 -157t-77 -135t-134 -55q-74 0 -114 51.5zM334.5 63q47.5 52 69 127.5t21.5 147.5q0 83 -34 127t-97 44q-74 0 -122 -52t-69 -127.5t-21 -146.5q0 -83 34 -127.5
t97 -44.5q74 0 121.5 52zM344 684q-13 6 -29 17t-25 15.5t-20 4.5q-16 0 -28 -8t-30 -28l-13 10q37 46 71 46q13 0 24.5 -5.5t27.5 -16.5q15 -10 26.5 -15.5t23.5 -5.5q15 0 28 9.5t30 31.5l14 -9q-34 -52 -72 -52q-15 0 -28 6z" />
    <glyph glyph-name="odieresis" unicode="&#xf6;" horiz-adv-x="506" 
d="M99 41.5q-40 51.5 -40 142.5q0 78 24.5 157.5t77 133.5t133.5 54q73 0 113.5 -50t40.5 -142q0 -77 -24 -157t-77 -135t-134 -55q-74 0 -114 51.5zM334.5 63q47.5 52 69 127.5t21.5 147.5q0 83 -34 127t-97 44q-74 0 -122 -52t-69 -127.5t-21 -146.5q0 -83 34 -127.5
t97 -44.5q74 0 121.5 52zM228.5 677.5q-4.5 4.5 -4.5 12.5q0 9 5.5 15t15.5 6q7 0 12 -4.5t5 -12.5q0 -9 -6 -15t-15 -6q-8 0 -12.5 4.5zM379 677.5q-5 4.5 -5 12.5q0 9 5.5 15t15.5 6q8 0 12.5 -4.5t4.5 -12.5q0 -9 -5.5 -15t-14.5 -6q-8 0 -13 4.5z" />
    <glyph glyph-name="divide" unicode="&#xf7;" horiz-adv-x="443" 
d="M185.5 107q-5.5 6 -5.5 15q0 10 7 17t17 7t16 -6t6 -15q0 -10 -7 -17t-18 -7q-10 0 -15.5 6zM243.5 521q-5.5 6 -5.5 15q0 10 7 17t17 7t16 -6t6 -15q0 -10 -7 -17t-18 -7q-10 0 -15.5 6zM81 320l3 21h298l-3 -21h-298z" />
    <glyph glyph-name="oslash" unicode="&#xf8;" horiz-adv-x="506" 
d="M429 442.5q19 -43.5 19 -105.5q0 -77 -24 -157t-77 -135t-134 -55q-34 0 -62 11l-54 -119l-18 5l54 124q-36 22 -55 66.5t-19 106.5q0 78 24.5 157.5t77 133.5t133.5 54q35 0 62 -12l54 122l18 -6l-54 -125q36 -22 55 -65.5zM144 29l205 469q-25 11 -55 11
q-74 0 -122 -52t-69 -127.5t-21 -146.5q0 -114 62 -154zM334.5 63q47.5 52 69 127.5t21.5 147.5q0 112 -60 152l-206 -469q23 -10 54 -10q74 0 121.5 52z" />
    <glyph glyph-name="ugrave" unicode="&#xf9;" horiz-adv-x="519" 
d="M110.5 21q-28.5 31 -28.5 87q0 17 3 36l52 375h22l-52 -375q-3 -19 -3 -36q0 -48 22.5 -72.5t64.5 -24.5q59 0 107 50t85 138l45 320h22l-74 -519h-17l21 157q-33 -77 -81.5 -122t-108.5 -45q-51 0 -79.5 31zM264 760l145 -92l-10 -14l-149 84z" />
    <glyph glyph-name="uacute" unicode="&#xfa;" horiz-adv-x="519" 
d="M110.5 21q-28.5 31 -28.5 87q0 17 3 36l52 375h22l-52 -375q-3 -19 -3 -36q0 -48 22.5 -72.5t64.5 -24.5q59 0 107 50t85 138l45 320h22l-74 -519h-17l21 157q-33 -77 -81.5 -122t-108.5 -45q-51 0 -79.5 31zM401 761l9 -23l-173 -84l-7 15z" />
    <glyph glyph-name="ucircumflex" unicode="&#xfb;" horiz-adv-x="519" 
d="M110.5 21q-28.5 31 -28.5 87q0 17 3 36l52 375h22l-52 -375q-3 -19 -3 -36q0 -48 22.5 -72.5t64.5 -24.5q59 0 107 50t85 138l45 320h22l-74 -519h-17l21 157q-33 -77 -81.5 -122t-108.5 -45q-51 0 -79.5 31zM210 654l-11 13l122 95h12l95 -95l-13 -13l-90 84z" />
    <glyph glyph-name="udieresis" unicode="&#xfc;" horiz-adv-x="519" 
d="M110.5 21q-28.5 31 -28.5 87q0 17 3 36l52 375h22l-52 -375q-3 -19 -3 -36q0 -48 22.5 -72.5t64.5 -24.5q59 0 107 50t85 138l45 320h22l-74 -519h-17l21 157q-33 -77 -81.5 -122t-108.5 -45q-51 0 -79.5 31zM228.5 677.5q-4.5 4.5 -4.5 12.5q0 9 5.5 15t15.5 6
q7 0 12 -4.5t5 -12.5q0 -9 -6 -15t-15 -6q-8 0 -12.5 4.5zM379 677.5q-5 4.5 -5 12.5q0 9 5.5 15t15.5 6q8 0 12.5 -4.5t4.5 -12.5q0 -9 -5.5 -15t-14.5 -6q-8 0 -13 4.5z" />
    <glyph glyph-name="yacute" unicode="&#xfd;" horiz-adv-x="406" 
d="M185 -2q-29 -64 -53 -99t-55.5 -56.5t-84.5 -37.5l-2 18q48 15 77 35t49.5 51.5t47.5 90.5h-10l-95 519h23l89 -503l225 503h24zM342 761l9 -23l-173 -84l-7 15z" />
    <glyph glyph-name="thorn" unicode="&#xfe;" horiz-adv-x="509" 
d="M417.5 483.5q34.5 -45.5 34.5 -131.5q0 -82 -24 -165.5t-77 -140t-136 -56.5q-64 0 -121 28l-30 -211l-23 -3l131 929l22 3l-42 -299q38 44 78 68t87 24q66 0 100.5 -45.5zM339 65.5q48 54.5 69.5 133t21.5 154.5q0 77 -28.5 116.5t-84.5 39.5q-48 0 -87.5 -25.5
t-80.5 -75.5l-52 -370q28 -13 56 -20t62 -7q76 0 124 54.5z" />
    <glyph glyph-name="ydieresis" unicode="&#xff;" horiz-adv-x="406" 
d="M185 -2q-29 -64 -53 -99t-55.5 -56.5t-84.5 -37.5l-2 18q48 15 77 35t49.5 51.5t47.5 90.5h-10l-95 519h23l89 -503l225 503h24zM169.5 677.5q-4.5 4.5 -4.5 12.5q0 9 5.5 15t15.5 6q7 0 12 -4.5t5 -12.5q0 -9 -6 -15t-15 -6q-8 0 -12.5 4.5zM320 677.5q-5 4.5 -5 12.5
q0 9 5.5 15t15.5 6q8 0 12.5 -4.5t4.5 -12.5q0 -9 -5.5 -15t-14.5 -6q-8 0 -13 4.5z" />
    <glyph glyph-name="Amacron" unicode="&#x100;" horiz-adv-x="509" 
d="M421 0l-34 203h-281l-91 -203h-24l308 681h28l118 -681h-24zM115 224h269l-73 438zM424 811h-188l3 21h188z" />
    <glyph glyph-name="amacron" unicode="&#x101;" horiz-adv-x="499" 
d="M432 492l-54 -380q-5 -33 -5 -50q0 -21 7 -34t23 -21l-7 -17q-22 10 -32.5 28t-10.5 48q0 9 2 29q-29 -49 -69 -77t-87 -28q-66 0 -103.5 50.5t-37.5 137.5q0 82 26 163t81.5 134.5t138.5 53.5q69 0 128 -37zM178 459q-50 -51 -73.5 -127t-23.5 -153q0 -79 31 -123.5
t88 -44.5q91 0 159 120l50 351q-46 28 -105 28q-76 0 -126 -51zM425 685h-188l3 21h188z" />
    <glyph glyph-name="Abreve" unicode="&#x102;" horiz-adv-x="509" 
d="M421 0l-34 203h-281l-91 -203h-24l308 681h28l118 -681h-24zM115 224h269l-73 438zM259.5 793.5q-24.5 22.5 -26.5 54.5l16 2q5 -26 24 -42t50 -16q32 0 55 16t36 43l17 -5q-12 -32 -40.5 -53.5t-67.5 -21.5t-63.5 22.5z" />
    <glyph glyph-name="abreve" unicode="&#x103;" horiz-adv-x="499" 
d="M432 492l-54 -380q-5 -33 -5 -50q0 -21 7 -34t23 -21l-7 -17q-22 10 -32.5 28t-10.5 48q0 9 2 29q-29 -49 -69 -77t-87 -28q-66 0 -103.5 50.5t-37.5 137.5q0 82 26 163t81.5 134.5t138.5 53.5q69 0 128 -37zM178 459q-50 -51 -73.5 -127t-23.5 -153q0 -79 31 -123.5
t88 -44.5q91 0 159 120l50 351q-46 28 -105 28q-76 0 -126 -51zM265 686q-23 24 -25 63l17 2q8 -67 71 -67q32 0 56.5 18t37.5 51l16 -6q-12 -38 -41.5 -61.5t-68.5 -23.5q-40 0 -63 24z" />
    <glyph glyph-name="Aogonek" unicode="&#x104;" horiz-adv-x="509" 
d="M370 -181q21 0 50 7l-5 -22q-27 -7 -47 -7q-36 0 -56.5 18.5t-20.5 51.5q0 45 31.5 76.5t97.5 61.5l-33 198h-281l-91 -203h-24l308 681h28l118 -681q-67 -29 -99 -58.5t-32 -70.5q0 -52 56 -52zM115 224h269l-73 438z" />
    <glyph glyph-name="aogonek" unicode="&#x105;" horiz-adv-x="499" 
d="M373 62q0 -21 7 -34t23 -21l-7 -17q-67 -29 -99 -58.5t-32 -70.5q0 -52 56 -52q21 0 50 7l-5 -22q-27 -7 -47 -7q-36 0 -56.5 18.5t-20.5 51.5q0 47 33.5 79t104.5 63q-27 21 -27 67q0 9 2 29q-29 -49 -69 -77t-87 -28q-66 0 -103.5 50.5t-37.5 137.5q0 82 26 163
t81.5 134.5t138.5 53.5q69 0 128 -37l-54 -380q-5 -33 -5 -50zM359 131l50 351q-46 28 -105 28q-76 0 -126 -51t-73.5 -127t-23.5 -153q0 -79 31 -123.5t88 -44.5q91 0 159 120z" />
    <glyph glyph-name="Cacute" unicode="&#x106;" horiz-adv-x="488" 
d="M455 676.5q32 -14.5 59 -43.5l-14 -15q-28 27 -55.5 39.5t-68.5 12.5q-96 0 -159 -66.5t-92 -165t-29 -195.5q0 -112 46 -171.5t125 -59.5q47 0 81 15t69 43l13 -17q-35 -29 -74.5 -46t-88.5 -17q-89 0 -141 65.5t-52 185.5q0 104 31.5 207.5t99.5 173t171 69.5
q47 0 79 -14.5zM464 860l10 -24l-172 -72l-7 15z" />
    <glyph glyph-name="cacute" unicode="&#x107;" horiz-adv-x="419" 
d="M361 517q28 -12 51 -38l-14 -14q-21 22 -45.5 33t-57.5 11q-71 0 -119 -49t-71 -123.5t-23 -151.5q0 -85 35 -129.5t97 -44.5q35 0 64.5 12t58.5 35l11 -15q-63 -53 -134 -53q-72 0 -113.5 51t-41.5 144q0 82 26 161t79.5 131t131.5 52q37 0 65 -12zM399 761l9 -23
l-173 -84l-7 15z" />
    <glyph glyph-name="Ccircumflex" unicode="&#x108;" horiz-adv-x="488" 
d="M455 676.5q32 -14.5 59 -43.5l-14 -15q-28 27 -55.5 39.5t-68.5 12.5q-96 0 -159 -66.5t-92 -165t-29 -195.5q0 -112 46 -171.5t125 -59.5q47 0 81 15t69 43l13 -17q-35 -29 -74.5 -46t-88.5 -17q-89 0 -141 65.5t-52 185.5q0 104 31.5 207.5t99.5 173t171 69.5
q47 0 79 -14.5zM276 766l-10 13l121 90h12l95 -90l-12 -13l-90 79z" />
    <glyph glyph-name="ccircumflex" unicode="&#x109;" horiz-adv-x="419" 
d="M361 517q28 -12 51 -38l-14 -14q-21 22 -45.5 33t-57.5 11q-71 0 -119 -49t-71 -123.5t-23 -151.5q0 -85 35 -129.5t97 -44.5q35 0 64.5 12t58.5 35l11 -15q-63 -53 -134 -53q-72 0 -113.5 51t-41.5 144q0 82 26 161t79.5 131t131.5 52q37 0 65 -12zM208 654l-11 13
l122 95h12l95 -95l-13 -13l-90 84z" />
    <glyph glyph-name="Cdotaccent" unicode="&#x10a;" horiz-adv-x="488" 
d="M455 676.5q32 -14.5 59 -43.5l-14 -15q-28 27 -55.5 39.5t-68.5 12.5q-96 0 -159 -66.5t-92 -165t-29 -195.5q0 -112 46 -171.5t125 -59.5q47 0 81 15t69 43l13 -17q-35 -29 -74.5 -46t-88.5 -17q-89 0 -141 65.5t-52 185.5q0 104 31.5 207.5t99.5 173t171 69.5
q47 0 79 -14.5zM377 816q-5 5 -5 12q0 9 5.5 15t15.5 6q8 0 13 -4.5t5 -12.5t-6 -14.5t-16 -6.5q-7 0 -12 5z" />
    <glyph glyph-name="cdotaccent" unicode="&#x10b;" horiz-adv-x="419" 
d="M361 517q28 -12 51 -38l-14 -14q-21 22 -45.5 33t-57.5 11q-71 0 -119 -49t-71 -123.5t-23 -151.5q0 -85 35 -129.5t97 -44.5q35 0 64.5 12t58.5 35l11 -15q-63 -53 -134 -53q-72 0 -113.5 51t-41.5 144q0 82 26 161t79.5 131t131.5 52q37 0 65 -12zM304 690q-5 5 -5 12
q0 9 5.5 15t15.5 6q8 0 13 -4.5t5 -12.5t-6 -14.5t-16 -6.5q-7 0 -12 5z" />
    <glyph glyph-name="Ccaron" unicode="&#x10c;" horiz-adv-x="488" 
d="M455 676.5q32 -14.5 59 -43.5l-14 -15q-28 27 -55.5 39.5t-68.5 12.5q-96 0 -159 -66.5t-92 -165t-29 -195.5q0 -112 46 -171.5t125 -59.5q47 0 81 15t69 43l13 -17q-35 -29 -74.5 -46t-88.5 -17q-89 0 -141 65.5t-52 185.5q0 104 31.5 207.5t99.5 173t171 69.5
q47 0 79 -14.5zM500 862l10 -12l-121 -90h-12l-95 90l12 12l91 -78z" />
    <glyph glyph-name="ccaron" unicode="&#x10d;" horiz-adv-x="419" 
d="M361 517q28 -12 51 -38l-14 -14q-21 22 -45.5 33t-57.5 11q-71 0 -119 -49t-71 -123.5t-23 -151.5q0 -85 35 -129.5t97 -44.5q35 0 64.5 12t58.5 35l11 -15q-63 -53 -134 -53q-72 0 -113.5 51t-41.5 144q0 82 26 161t79.5 131t131.5 52q37 0 65 -12zM426 749l11 -13
l-122 -95h-12l-95 95l13 13l90 -84z" />
    <glyph glyph-name="Dcaron" unicode="&#x10e;" horiz-adv-x="567" 
d="M517 445q0 -116 -33 -216.5t-107 -164.5t-189 -64h-115l96 681h121q227 0 227 -236zM189 660l-90 -639h93q107 0 174.5 61.5t97.5 157.5t30 205q0 122 -56.5 168.5t-149.5 46.5h-99zM466 862l10 -12l-121 -90h-12l-95 90l12 12l91 -78z" />
    <glyph glyph-name="dcaron" unicode="&#x10f;" horiz-adv-x="513" 
d="M474 733l-103 -733h-18l15 128q-34 -62 -76 -100t-98 -38q-63 0 -99.5 49.5t-36.5 137.5q0 80 24.5 161.5t75.5 136t127 54.5q89 0 127 -82l40 289zM171.5 458q-46.5 -51 -68.5 -127.5t-22 -152.5q0 -79 30 -123t83 -44q55 0 96.5 41t83.5 119l34 246q-36 92 -122 92
q-68 0 -114.5 -51zM571 737l23 -2l-45 -145l-15 3z" />
    <glyph glyph-name="Dcroat" unicode="&#x110;" horiz-adv-x="569" 
d="M519 445q0 -116 -33 -216.5t-107 -164.5t-189 -64h-115l48 343h-80l3 20h80l45 318h121q227 0 227 -236zM368.5 82.5q67.5 61.5 97.5 157.5t30 205q0 122 -56.5 168.5t-149.5 46.5h-99l-42 -297h174l-4 -20h-173l-45 -322h93q107 0 174.5 61.5z" />
    <glyph glyph-name="dcroat" unicode="&#x111;" horiz-adv-x="518" 
d="M530 649l-3 -20h-68l-88 -629h-18l15 128q-34 -62 -76 -100t-98 -38q-63 0 -99.5 49.5t-36.5 137.5q0 80 24.5 161.5t75.5 136t127 54.5q89 0 127 -82l25 182h-152l1 20h154l12 87l22 -3l-12 -84h68zM408 417q-36 92 -122 92q-68 0 -114.5 -51t-68.5 -127.5t-22 -152.5
q0 -79 30 -123t83 -44q55 0 96.5 41t83.5 119z" />
    <glyph glyph-name="Emacron" unicode="&#x112;" horiz-adv-x="445" 
d="M459 681l-6 -21h-264l-41 -290h229l-4 -21h-228l-46 -328h275l-4 -21h-297l96 681h290zM429 811h-188l3 21h188z" />
    <glyph glyph-name="emacron" unicode="&#x113;" horiz-adv-x="462" 
d="M339.5 274.5q-90.5 -49.5 -257.5 -60.5q-1 -10 -1 -31q0 -85 35 -128.5t96 -43.5q40 0 72 13.5t69 41.5l12 -15q-39 -31 -75 -46t-78 -15q-73 0 -113 49.5t-40 142.5q0 82 26.5 162t81.5 132.5t135 52.5q59 0 93.5 -30.5t34.5 -83.5q0 -91 -90.5 -140.5zM189.5 469.5
q-46.5 -39.5 -72 -102t-33.5 -133.5q324 21 324 181q0 44 -27.5 69t-79.5 25q-65 0 -111.5 -39.5zM404 685h-188l3 21h188z" />
    <glyph glyph-name="Ebreve" unicode="&#x114;" horiz-adv-x="445" 
d="M459 681l-6 -21h-264l-41 -290h229l-4 -21h-228l-46 -328h275l-4 -21h-297l96 681h290zM264.5 793.5q-24.5 22.5 -26.5 54.5l16 2q5 -26 24 -42t50 -16q32 0 55 16t36 43l17 -5q-12 -32 -40.5 -53.5t-67.5 -21.5t-63.5 22.5z" />
    <glyph glyph-name="ebreve" unicode="&#x115;" horiz-adv-x="462" 
d="M339.5 274.5q-90.5 -49.5 -257.5 -60.5q-1 -10 -1 -31q0 -85 35 -128.5t96 -43.5q40 0 72 13.5t69 41.5l12 -15q-39 -31 -75 -46t-78 -15q-73 0 -113 49.5t-40 142.5q0 82 26.5 162t81.5 132.5t135 52.5q59 0 93.5 -30.5t34.5 -83.5q0 -91 -90.5 -140.5zM189.5 469.5
q-46.5 -39.5 -72 -102t-33.5 -133.5q324 21 324 181q0 44 -27.5 69t-79.5 25q-65 0 -111.5 -39.5zM244 686q-23 24 -25 63l17 2q8 -67 71 -67q32 0 56.5 18t37.5 51l16 -6q-12 -38 -41.5 -61.5t-68.5 -23.5q-40 0 -63 24z" />
    <glyph glyph-name="Edotaccent" unicode="&#x116;" horiz-adv-x="445" 
d="M459 681l-6 -21h-264l-41 -290h229l-4 -21h-228l-46 -328h275l-4 -21h-297l96 681h290zM323 816q-5 5 -5 12q0 9 5.5 15t15.5 6q8 0 13 -4.5t5 -12.5t-6 -14.5t-16 -6.5q-7 0 -12 5z" />
    <glyph glyph-name="edotaccent" unicode="&#x117;" horiz-adv-x="462" 
d="M339.5 274.5q-90.5 -49.5 -257.5 -60.5q-1 -10 -1 -31q0 -85 35 -128.5t96 -43.5q40 0 72 13.5t69 41.5l12 -15q-39 -31 -75 -46t-78 -15q-73 0 -113 49.5t-40 142.5q0 82 26.5 162t81.5 132.5t135 52.5q59 0 93.5 -30.5t34.5 -83.5q0 -91 -90.5 -140.5zM189.5 469.5
q-46.5 -39.5 -72 -102t-33.5 -133.5q324 21 324 181q0 44 -27.5 69t-79.5 25q-65 0 -111.5 -39.5zM300 690q-5 5 -5 12q0 9 5.5 15t15.5 6q8 0 13 -4.5t5 -12.5t-6 -14.5t-16 -6.5q-7 0 -12 5z" />
    <glyph glyph-name="Eogonek" unicode="&#x118;" horiz-adv-x="445" 
d="M189 660l-41 -290h229l-4 -21h-228l-46 -328h275l-4 -21h-24q-67 -29 -99 -58.5t-32 -70.5q0 -52 56 -52q21 0 50 7l-5 -22q-27 -7 -47 -7q-36 0 -56.5 18.5t-20.5 51.5q0 43 29.5 74t88.5 59h-237l96 681h290l-6 -21h-264z" />
    <glyph glyph-name="eogonek" unicode="&#x119;" horiz-adv-x="462" 
d="M339.5 274.5q-90.5 -49.5 -257.5 -60.5q-1 -10 -1 -31q0 -85 35 -128.5t96 -43.5q40 0 72 13.5t69 41.5l12 -15q-44 -34 -76 -46q-56 -28 -83.5 -54.5t-27.5 -66.5q0 -28 16.5 -43.5t46.5 -15.5q21 0 48 7l-2 -22q-27 -7 -49 -7q-41 0 -62.5 22t-21.5 58q0 65 78 108
q-6 -1 -20 -1q-73 0 -113 49.5t-40 142.5q0 82 26.5 162t81.5 132.5t135 52.5q59 0 93.5 -30.5t34.5 -83.5q0 -91 -90.5 -140.5zM189.5 469.5q-46.5 -39.5 -72 -102t-33.5 -133.5q324 21 324 181q0 44 -27.5 69t-79.5 25q-65 0 -111.5 -39.5z" />
    <glyph glyph-name="Ecaron" unicode="&#x11a;" horiz-adv-x="445" 
d="M459 681l-6 -21h-264l-41 -290h229l-4 -21h-228l-46 -328h275l-4 -21h-297l96 681h290zM446 862l10 -12l-121 -90h-12l-95 90l12 12l91 -78z" />
    <glyph glyph-name="ecaron" unicode="&#x11b;" horiz-adv-x="462" 
d="M339.5 274.5q-90.5 -49.5 -257.5 -60.5q-1 -10 -1 -31q0 -85 35 -128.5t96 -43.5q40 0 72 13.5t69 41.5l12 -15q-39 -31 -75 -46t-78 -15q-73 0 -113 49.5t-40 142.5q0 82 26.5 162t81.5 132.5t135 52.5q59 0 93.5 -30.5t34.5 -83.5q0 -91 -90.5 -140.5zM189.5 469.5
q-46.5 -39.5 -72 -102t-33.5 -133.5q324 21 324 181q0 44 -27.5 69t-79.5 25q-65 0 -111.5 -39.5zM422 749l11 -13l-122 -95h-12l-95 95l13 13l90 -84z" />
    <glyph glyph-name="Gcircumflex" unicode="&#x11c;" horiz-adv-x="546" 
d="M458 676.5q35 -14.5 68 -44.5l-16 -15q-29 28 -60 40.5t-73 12.5q-90 0 -153 -61.5t-95 -159.5t-32 -207q0 -114 47 -172t134 -58q77 0 150 41l40 280h-130v21h155l-44 -314q-39 -23 -84 -36.5t-87 -13.5q-97 0 -150.5 65t-53.5 188q0 114 35 217t104 167t165 64
q45 0 80 -14.5zM280 766l-10 13l121 90h12l95 -90l-12 -13l-90 79z" />
    <glyph glyph-name="gcircumflex" unicode="&#x11d;" horiz-adv-x="501" 
d="M433 492l-71 -500q-14 -101 -61.5 -145t-117.5 -44q-80 0 -146 47l10 15q65 -43 136 -43q133 0 157 169l16 114q-29 -49 -69 -77t-86 -28q-67 0 -104.5 51t-37.5 138q0 79 26 157t81.5 130.5t138.5 52.5q69 0 128 -37zM179 460.5q-50 -49.5 -73.5 -123.5t-23.5 -148
q0 -77 31.5 -122.5t88.5 -45.5q91 0 159 120l49 341q-44 28 -105 28q-76 0 -126 -49.5zM213 654l-11 13l122 95h12l95 -95l-13 -13l-90 84z" />
    <glyph glyph-name="Gbreve" unicode="&#x11e;" horiz-adv-x="546" 
d="M458 676.5q35 -14.5 68 -44.5l-16 -15q-29 28 -60 40.5t-73 12.5q-90 0 -153 -61.5t-95 -159.5t-32 -207q0 -114 47 -172t134 -58q77 0 150 41l40 280h-130v21h155l-44 -314q-39 -23 -84 -36.5t-87 -13.5q-97 0 -150.5 65t-53.5 188q0 114 35 217t104 167t165 64
q45 0 80 -14.5zM322.5 793.5q-24.5 22.5 -26.5 54.5l16 2q5 -26 24 -42t50 -16q32 0 55 16t36 43l17 -5q-12 -32 -40.5 -53.5t-67.5 -21.5t-63.5 22.5z" />
    <glyph glyph-name="gbreve" unicode="&#x11f;" horiz-adv-x="501" 
d="M433 492l-71 -500q-14 -101 -61.5 -145t-117.5 -44q-80 0 -146 47l10 15q65 -43 136 -43q133 0 157 169l16 114q-29 -49 -69 -77t-86 -28q-67 0 -104.5 51t-37.5 138q0 79 26 157t81.5 130.5t138.5 52.5q69 0 128 -37zM179 460.5q-50 -49.5 -73.5 -123.5t-23.5 -148
q0 -77 31.5 -122.5t88.5 -45.5q91 0 159 120l49 341q-44 28 -105 28q-76 0 -126 -49.5zM253 686q-23 24 -25 63l17 2q8 -67 71 -67q32 0 56.5 18t37.5 51l16 -6q-12 -38 -41.5 -61.5t-68.5 -23.5q-40 0 -63 24z" />
    <glyph glyph-name="Gdotaccent" unicode="&#x120;" horiz-adv-x="546" 
d="M458 676.5q35 -14.5 68 -44.5l-16 -15q-29 28 -60 40.5t-73 12.5q-90 0 -153 -61.5t-95 -159.5t-32 -207q0 -114 47 -172t134 -58q77 0 150 41l40 280h-130v21h155l-44 -314q-39 -23 -84 -36.5t-87 -13.5q-97 0 -150.5 65t-53.5 188q0 114 35 217t104 167t165 64
q45 0 80 -14.5zM381 816q-5 5 -5 12q0 9 5.5 15t15.5 6q8 0 13 -4.5t5 -12.5t-6 -14.5t-16 -6.5q-7 0 -12 5z" />
    <glyph glyph-name="gdotaccent" unicode="&#x121;" horiz-adv-x="501" 
d="M433 492l-71 -500q-14 -101 -61.5 -145t-117.5 -44q-80 0 -146 47l10 15q65 -43 136 -43q133 0 157 169l16 114q-29 -49 -69 -77t-86 -28q-67 0 -104.5 51t-37.5 138q0 79 26 157t81.5 130.5t138.5 52.5q69 0 128 -37zM179 460.5q-50 -49.5 -73.5 -123.5t-23.5 -148
q0 -77 31.5 -122.5t88.5 -45.5q91 0 159 120l49 341q-44 28 -105 28q-76 0 -126 -49.5zM309 690q-5 5 -5 12q0 9 5.5 15t15.5 6q8 0 13 -4.5t5 -12.5t-6 -14.5t-16 -6.5q-7 0 -12 5z" />
    <glyph glyph-name="Gcommaaccent" unicode="&#x122;" horiz-adv-x="546" 
d="M458 676.5q35 -14.5 68 -44.5l-16 -15q-29 28 -60 40.5t-73 12.5q-90 0 -153 -61.5t-95 -159.5t-32 -207q0 -114 47 -172t134 -58q77 0 150 41l40 280h-130v21h155l-44 -314q-39 -23 -84 -36.5t-87 -13.5q-97 0 -150.5 65t-53.5 188q0 114 35 217t104 167t165 64
q45 0 80 -14.5zM277 -102q6 -6 6 -15q0 -8 -4 -17.5t-11 -22.5l-49 -101h-15l45 116q-13 7 -13 21q0 11 7 18t18 7q10 0 16 -6z" />
    <glyph glyph-name="gcommaaccent" unicode="&#x123;" horiz-adv-x="501" 
d="M433 492l-71 -500q-14 -101 -61.5 -145t-117.5 -44q-80 0 -146 47l10 15q65 -43 136 -43q133 0 157 169l16 114q-29 -49 -69 -77t-86 -28q-67 0 -104.5 51t-37.5 138q0 79 26 157t81.5 130.5t138.5 52.5q69 0 128 -37zM179 460.5q-50 -49.5 -73.5 -123.5t-23.5 -148
q0 -77 31.5 -122.5t88.5 -45.5q91 0 159 120l49 341q-44 28 -105 28q-76 0 -126 -49.5zM289 601q-6 6 -6 15q0 8 4 17.5t11 22.5l49 101h15l-45 -116q13 -7 13 -21q0 -11 -7 -18t-18 -7q-10 0 -16 6z" />
    <glyph glyph-name="Hcircumflex" unicode="&#x124;" horiz-adv-x="595" 
d="M96 0h-23l96 681h23l-44 -309h330l43 309h23l-96 -681h-23l50 351h-329zM259 766l-10 13l121 90h12l95 -90l-12 -13l-90 79z" />
    <glyph glyph-name="hcircumflex" unicode="&#x125;" horiz-adv-x="524" 
d="M415 498q27 -31 27 -88q0 -17 -3 -37l-53 -373h-22l53 371q3 21 3 38q0 101 -87 101q-54 0 -102.5 -49t-94.5 -140l-45 -321h-22l103 733l22 3l-52 -370q84 163 193 163q53 0 80 -31zM226 817l-10 13l121 90h12l95 -90l-12 -13l-90 79z" />
    <glyph glyph-name="Hbar" unicode="&#x126;" horiz-adv-x="594" 
d="M577 538l-2 -18h-53l-73 -520h-23l50 351h-329l-50 -351h-23l73 520h-54l3 18h54l20 143h23l-20 -143h329l20 143h23l-20 -143h52zM479 372l21 148h-330l-21 -148h330z" />
    <glyph glyph-name="hbar" unicode="&#x127;" horiz-adv-x="527" 
d="M419 498q27 -31 27 -88q0 -17 -3 -37l-53 -373h-22l53 371q3 21 3 38q0 101 -87 101q-54 0 -102.5 -49t-94.5 -140l-45 -321h-22l88 629h-67l3 20h67l12 84l22 3l-12 -87h166l-7 -20h-162l-37 -263q84 163 193 163q53 0 80 -31z" />
    <glyph glyph-name="Itilde" unicode="&#x128;" horiz-adv-x="243" 
d="M192 681l-96 -681h-23l96 681h23zM225 810q-13 6 -29 17t-25 15.5t-20 4.5q-16 0 -28 -8t-30 -28l-13 10q37 46 71 46q13 0 24.5 -5.5t27.5 -16.5q15 -10 26.5 -15.5t23.5 -5.5q15 0 28 9.5t30 31.5l14 -9q-34 -52 -72 -52q-15 0 -28 6z" />
    <glyph glyph-name="itilde" unicode="&#x129;" horiz-adv-x="233" 
d="M164 519l-73 -519h-22l73 519h22zM203 684q-13 6 -29 17t-25 15.5t-20 4.5q-16 0 -28 -8t-30 -28l-13 10q37 46 71 46q13 0 24.5 -5.5t27.5 -16.5q15 -10 26.5 -15.5t23.5 -5.5q15 0 28 9.5t30 31.5l14 -9q-34 -52 -72 -52q-15 0 -28 6z" />
    <glyph glyph-name="Imacron" unicode="&#x12a;" horiz-adv-x="243" 
d="M192 681l-96 -681h-23l96 681h23zM292 811h-188l3 21h188z" />
    <glyph glyph-name="imacron" unicode="&#x12b;" horiz-adv-x="233" 
d="M164 519l-73 -519h-22l73 519h22zM269 685h-188l3 21h188z" />
    <glyph glyph-name="Ibreve" unicode="&#x12c;" horiz-adv-x="243" 
d="M192 681l-96 -681h-23l96 681h23zM127.5 793.5q-24.5 22.5 -26.5 54.5l16 2q5 -26 24 -42t50 -16q32 0 55 16t36 43l17 -5q-12 -32 -40.5 -53.5t-67.5 -21.5t-63.5 22.5z" />
    <glyph glyph-name="ibreve" unicode="&#x12d;" horiz-adv-x="233" 
d="M164 519l-73 -519h-22l73 519h22zM109 686q-23 24 -25 63l17 2q8 -67 71 -67q32 0 56.5 18t37.5 51l16 -6q-12 -38 -41.5 -61.5t-68.5 -23.5q-40 0 -63 24z" />
    <glyph glyph-name="Iogonek" unicode="&#x12e;" horiz-adv-x="243" 
d="M-3 -58.5q-32 -29.5 -32 -70.5q0 -52 56 -52q21 0 50 7l-5 -22q-27 -7 -47 -7q-36 0 -56.5 18.5t-20.5 51.5q0 46 32.5 77.5t99.5 61.5l95 675h23l-96 -681q-67 -29 -99 -58.5z" />
    <glyph glyph-name="iogonek" unicode="&#x12f;" horiz-adv-x="233" 
d="M194 718.5q5 -4.5 5 -12.5t-6 -14.5t-16 -6.5q-7 0 -12 5t-5 12q0 9 5.5 15t15.5 6q8 0 13 -4.5zM142 519h22l-73 -519q-67 -29 -99 -58.5t-32 -70.5q0 -52 56 -52q21 0 50 7l-5 -22q-27 -7 -47 -7q-36 0 -56.5 18.5t-20.5 51.5q0 46 32.5 78.5t100.5 61.5z" />
    <glyph glyph-name="Idotaccent" unicode="&#x130;" horiz-adv-x="243" 
d="M192 681l-96 -681h-23l96 681h23zM186 816q-5 5 -5 12q0 9 5.5 15t15.5 6q8 0 13 -4.5t5 -12.5t-6 -14.5t-16 -6.5q-7 0 -12 5z" />
    <glyph glyph-name="dotlessi" unicode="&#x131;" horiz-adv-x="233" 
d="M164 519l-73 -519h-22l73 519h22z" />
    <glyph glyph-name="IJ" unicode="&#x132;" horiz-adv-x="498" 
d="M192 681l-96 -681h-23l96 681h23zM369 87q-8 -53 -22 -85t-42.5 -55t-81.5 -47l-6 17q47 22 72 43t37.5 51t19.5 79l83 591h23z" />
    <glyph glyph-name="ij" unicode="&#x133;" horiz-adv-x="467" 
d="M164 519l-73 -519h-22l73 519h22zM165 690q-5 5 -5 12q0 9 5.5 15t15.5 6q8 0 13 -4.5t5 -12.5t-6 -14.5t-16 -6.5q-7 0 -12 5zM188 -178q37 20 58.5 39.5t35 52t21.5 88.5l73 517h22l-73 -518q-8 -60 -24 -95.5t-40 -57t-66 -43.5zM399 690q-5 5 -5 12q0 9 5.5 15
t15.5 6q8 0 13 -4.5t5 -12.5t-6 -14.5t-16 -6.5q-7 0 -12 5z" />
    <glyph glyph-name="Jcircumflex" unicode="&#x134;" horiz-adv-x="255" 
d="M126 87q-8 -53 -22 -85t-42.5 -55t-81.5 -47l-6 17q47 22 72 43t37.5 51t19.5 79l83 591h23zM101 766l-10 13l121 90h12l95 -90l-12 -13l-90 79z" />
    <glyph glyph-name="jcircumflex" unicode="&#x135;" horiz-adv-x="234" 
d="M-45 -178q37 20 58.5 39.5t35 52t21.5 88.5l73 517h22l-73 -518q-8 -60 -24 -95.5t-40 -57t-66 -43.5zM70 654l-11 13l122 95h12l95 -95l-13 -13l-90 84z" />
    <glyph glyph-name="Kcommaaccent" unicode="&#x136;" horiz-adv-x="466" 
d="M73 0l96 681h23l-96 -681h-23zM395 0l-245 367l326 314h27l-326 -316l244 -365h-26zM237 -102q6 -6 6 -15q0 -8 -4 -17.5t-11 -22.5l-49 -101h-15l45 116q-13 7 -13 21q0 11 7 18t18 7q10 0 16 -6z" />
    <glyph glyph-name="kcommaaccent" unicode="&#x137;" horiz-adv-x="461" 
d="M140 348q84 181 197 181q47 0 73 -27.5t26 -72.5q0 -130 -169 -188l106 -241h-23l-109 250q173 55 173 179q0 38 -19.5 59.5t-59.5 21.5q-56 0 -106 -54.5t-96 -157.5l-42 -298h-22l103 733l22 3zM219 -102q6 -6 6 -15q0 -8 -4 -17.5t-11 -22.5l-49 -101h-15l45 116
q-13 7 -13 21q0 11 7 18t18 7q10 0 16 -6z" />
    <glyph glyph-name="kgreenlandic" unicode="&#x138;" horiz-adv-x="420" 
d="M164 519l-73 -519h-22l73 519h22zM417 519l-254 -247l202 -272h-26l-204 274l254 245h28z" />
    <glyph glyph-name="Lacute" unicode="&#x139;" horiz-adv-x="405" 
d="M192 681l-93 -659h260l-8 -22h-278l96 681h23zM273 860l10 -24l-172 -72l-7 15z" />
    <glyph glyph-name="lacute" unicode="&#x13a;" horiz-adv-x="249" 
d="M96 68q-2 -12 -2 -18q0 -39 39 -39q17 0 36 7l6 -18q-26 -10 -44 -10q-28 0 -43 15.5t-15 45.5q0 12 1 18l93 664l22 3zM270 912l10 -24l-172 -72l-7 15z" />
    <glyph glyph-name="Lcommaaccent" unicode="&#x13b;" horiz-adv-x="405" 
d="M192 681l-93 -659h260l-8 -22h-278l96 681h23zM219 -102q6 -6 6 -15q0 -8 -4 -17.5t-11 -22.5l-49 -101h-15l45 116q-13 7 -13 21q0 11 7 18t18 7q10 0 16 -6z" />
    <glyph glyph-name="lcommaaccent" unicode="&#x13c;" horiz-adv-x="249" 
d="M96 68q-2 -12 -2 -18q0 -39 39 -39q17 0 36 7l6 -18q-26 -10 -44 -10q-28 0 -43 15.5t-15 45.5q0 12 1 18l93 664l22 3zM128 -102q6 -6 6 -15q0 -8 -4 -17.5t-11 -22.5l-49 -101h-15l45 116q-13 7 -13 21q0 11 7 18t18 7q10 0 16 -6z" />
    <glyph glyph-name="Lcaron" unicode="&#x13d;" horiz-adv-x="405" 
d="M192 681l-93 -659h260l-8 -22h-278l96 681h23zM286 686l23 -2l-45 -145l-15 3z" />
    <glyph glyph-name="lcaron" unicode="&#x13e;" horiz-adv-x="249" 
d="M96 68q-2 -12 -2 -18q0 -39 39 -39q17 0 36 7l6 -18q-26 -10 -44 -10q-28 0 -43 15.5t-15 45.5q0 12 1 18l93 664l22 3zM274 737l23 -2l-45 -145l-15 3z" />
    <glyph glyph-name="Ldot" unicode="&#x13f;" horiz-adv-x="405" 
d="M192 681l-93 -659h260l-8 -22h-278l96 681h23zM316 340q-5 5 -5 12q0 9 5.5 15t15.5 6q8 0 13 -4.5t5 -12.5t-6 -14.5t-16 -6.5q-7 0 -12 5z" />
    <glyph glyph-name="ldot" unicode="&#x140;" horiz-adv-x="250" 
d="M96 68q-2 -12 -2 -18q0 -39 39 -39q17 0 36 7l6 -18q-26 -10 -44 -10q-28 0 -43 15.5t-15 45.5q0 12 1 18l93 664l22 3zM236 361q-5 5 -5 12q0 9 5.5 15t15.5 6q8 0 13 -4.5t5 -12.5t-6 -14.5t-16 -6.5q-7 0 -12 5z" />
    <glyph glyph-name="Lslash" unicode="&#x141;" horiz-adv-x="419" 
d="M113 22h260l-8 -22h-278l43 308l-71 -46l-10 17l85 54l49 348h23l-47 -333l193 122l10 -17l-206 -130z" />
    <glyph glyph-name="lslash" unicode="&#x142;" horiz-adv-x="253" 
d="M169 18l6 -18q-26 -10 -44 -10q-28 0 -43 15.5t-15 45.5q0 12 1 18l39 281l-54 -34l-9 15l67 42l50 360l22 3l-49 -348l110 68l9 -15l-122 -76l-41 -297q-2 -12 -2 -18q0 -39 39 -39q17 0 36 7z" />
    <glyph glyph-name="Nacute" unicode="&#x143;" horiz-adv-x="596" 
d="M449 0h-28l-237 658q-4 -58 -22 -182l-67 -476h-22l96 681h29l236 -656q14 114 23 180l66 476h22zM454 860l10 -24l-172 -72l-7 15z" />
    <glyph glyph-name="nacute" unicode="&#x144;" horiz-adv-x="523" 
d="M414 498.5q27 -30.5 27 -86.5q0 -18 -3 -39l-52 -373h-22l52 371q3 21 3 40q0 99 -85 99q-55 0 -103.5 -48.5t-94.5 -140.5l-45 -321h-22l73 519h19l-20 -155q42 82 90 123.5t104 41.5q52 0 79 -30.5zM407 761l9 -23l-173 -84l-7 15z" />
    <glyph glyph-name="Ncommaaccent" unicode="&#x145;" horiz-adv-x="596" 
d="M449 0h-28l-237 658q-4 -58 -22 -182l-67 -476h-22l96 681h29l236 -656q14 114 23 180l66 476h22zM267 -102q6 -6 6 -15q0 -8 -4 -17.5t-11 -22.5l-49 -101h-15l45 116q-13 7 -13 21q0 11 7 18t18 7q10 0 16 -6z" />
    <glyph glyph-name="ncommaaccent" unicode="&#x146;" horiz-adv-x="523" 
d="M414 498.5q27 -30.5 27 -86.5q0 -18 -3 -39l-52 -373h-22l52 371q3 21 3 40q0 99 -85 99q-55 0 -103.5 -48.5t-94.5 -140.5l-45 -321h-22l73 519h19l-20 -155q42 82 90 123.5t104 41.5q52 0 79 -30.5zM231 -102q6 -6 6 -15q0 -8 -4 -17.5t-11 -22.5l-49 -101h-15l45 116
q-13 7 -13 21q0 11 7 18t18 7q10 0 16 -6z" />
    <glyph glyph-name="Ncaron" unicode="&#x147;" horiz-adv-x="596" 
d="M449 0h-28l-237 658q-4 -58 -22 -182l-67 -476h-22l96 681h29l236 -656q14 114 23 180l66 476h22zM490 862l10 -12l-121 -90h-12l-95 90l12 12l91 -78z" />
    <glyph glyph-name="ncaron" unicode="&#x148;" horiz-adv-x="523" 
d="M414 498.5q27 -30.5 27 -86.5q0 -18 -3 -39l-52 -373h-22l52 371q3 21 3 40q0 99 -85 99q-55 0 -103.5 -48.5t-94.5 -140.5l-45 -321h-22l73 519h19l-20 -155q42 82 90 123.5t104 41.5q52 0 79 -30.5zM434 749l11 -13l-122 -95h-12l-95 95l13 13l90 -84z" />
    <glyph glyph-name="napostrophe" unicode="&#x149;" horiz-adv-x="581" 
d="M172 731q6 -6 6 -15t-4 -19t-11 -22l-47 -105h-15l43 121q-14 6 -14 21q0 11 7 18t18 7t17 -6zM472 498.5q27 -30.5 27 -86.5q0 -18 -3 -39l-52 -373h-22l52 371q3 21 3 40q0 99 -85 99q-55 0 -103.5 -48.5t-94.5 -140.5l-45 -321h-22l73 519h19l-20 -155q42 82 90 123.5
t104 41.5q52 0 79 -30.5z" />
    <glyph glyph-name="Eng" unicode="&#x14a;" horiz-adv-x="596" 
d="M545 681l-96 -681h-1l-13 -93q-7 -51 -35 -77.5t-69 -26.5q-45 0 -76 31l12 14q14 -12 28 -18t36 -6q31 0 53.5 21t28.5 65l13 90h-5l-237 658q-4 -58 -22 -182l-67 -476h-22l96 681h29l236 -656q14 114 23 180l66 476h22z" />
    <glyph glyph-name="eng" unicode="&#x14b;" horiz-adv-x="523" 
d="M414 498.5q27 -30.5 27 -86.5q0 -18 -3 -39l-52 -373h-1l-13 -93q-7 -51 -35 -77.5t-69 -26.5q-44 0 -76 30l12 15q14 -13 28 -19t36 -6q32 0 54 20.5t28 65.5l13 91h1l52 371q3 21 3 40q0 99 -85 99q-55 0 -103.5 -48.5t-94.5 -140.5l-45 -321h-22l73 519h19l-20 -155
q42 82 90 123.5t104 41.5q52 0 79 -30.5z" />
    <glyph glyph-name="Omacron" unicode="&#x14c;" horiz-adv-x="623" 
d="M521 627q52 -64 52 -184q0 -102 -30.5 -206t-98.5 -175.5t-174 -71.5q-93 0 -145 65.5t-52 185.5q0 99 31.5 203t100 175.5t171.5 71.5q93 0 145 -64zM216.5 602q-62.5 -69 -91 -168.5t-28.5 -193.5q0 -111 45.5 -169.5t127.5 -58.5q101 0 163.5 69.5t89.5 168.5t27 193
q0 111 -45.5 169.5t-128.5 58.5q-97 0 -159.5 -69zM487 811h-188l3 21h188z" />
    <glyph glyph-name="omacron" unicode="&#x14d;" horiz-adv-x="506" 
d="M99 41.5q-40 51.5 -40 142.5q0 78 24.5 157.5t77 133.5t133.5 54q73 0 113.5 -50t40.5 -142q0 -77 -24 -157t-77 -135t-134 -55q-74 0 -114 51.5zM334.5 63q47.5 52 69 127.5t21.5 147.5q0 83 -34 127t-97 44q-74 0 -122 -52t-69 -127.5t-21 -146.5q0 -83 34 -127.5
t97 -44.5q74 0 121.5 52zM410 685h-188l3 21h188z" />
    <glyph glyph-name="Obreve" unicode="&#x14e;" horiz-adv-x="623" 
d="M521 627q52 -64 52 -184q0 -102 -30.5 -206t-98.5 -175.5t-174 -71.5q-93 0 -145 65.5t-52 185.5q0 99 31.5 203t100 175.5t171.5 71.5q93 0 145 -64zM216.5 602q-62.5 -69 -91 -168.5t-28.5 -193.5q0 -111 45.5 -169.5t127.5 -58.5q101 0 163.5 69.5t89.5 168.5t27 193
q0 111 -45.5 169.5t-128.5 58.5q-97 0 -159.5 -69zM322.5 793.5q-24.5 22.5 -26.5 54.5l16 2q5 -26 24 -42t50 -16q32 0 55 16t36 43l17 -5q-12 -32 -40.5 -53.5t-67.5 -21.5t-63.5 22.5z" />
    <glyph glyph-name="obreve" unicode="&#x14f;" horiz-adv-x="506" 
d="M99 41.5q-40 51.5 -40 142.5q0 78 24.5 157.5t77 133.5t133.5 54q73 0 113.5 -50t40.5 -142q0 -77 -24 -157t-77 -135t-134 -55q-74 0 -114 51.5zM334.5 63q47.5 52 69 127.5t21.5 147.5q0 83 -34 127t-97 44q-74 0 -122 -52t-69 -127.5t-21 -146.5q0 -83 34 -127.5
t97 -44.5q74 0 121.5 52zM250 686q-23 24 -25 63l17 2q8 -67 71 -67q32 0 56.5 18t37.5 51l16 -6q-12 -38 -41.5 -61.5t-68.5 -23.5q-40 0 -63 24z" />
    <glyph glyph-name="Ohungarumlaut" unicode="&#x150;" horiz-adv-x="623" 
d="M521 627q52 -64 52 -184q0 -102 -30.5 -206t-98.5 -175.5t-174 -71.5q-93 0 -145 65.5t-52 185.5q0 99 31.5 203t100 175.5t171.5 71.5q93 0 145 -64zM216.5 602q-62.5 -69 -91 -168.5t-28.5 -193.5q0 -111 45.5 -169.5t127.5 -58.5q101 0 163.5 69.5t89.5 168.5t27 193
q0 111 -45.5 169.5t-128.5 58.5q-97 0 -159.5 -69zM506 917l21 -11l-88 -128l-16 9zM406 916l21 -12l-83 -122l-14 8z" />
    <glyph glyph-name="ohungarumlaut" unicode="&#x151;" horiz-adv-x="506" 
d="M99 41.5q-40 51.5 -40 142.5q0 78 24.5 157.5t77 133.5t133.5 54q73 0 113.5 -50t40.5 -142q0 -77 -24 -157t-77 -135t-134 -55q-74 0 -114 51.5zM334.5 63q47.5 52 69 127.5t21.5 147.5q0 83 -34 127t-97 44q-74 0 -122 -52t-69 -127.5t-21 -146.5q0 -83 34 -127.5
t97 -44.5q74 0 121.5 52zM430 791l21 -11l-88 -128l-16 9zM330 790l21 -12l-83 -122l-14 8z" />
    <glyph glyph-name="OE" unicode="&#x152;" horiz-adv-x="761" 
d="M769 660h-306q42 -27 64.5 -82t22.5 -133q0 -40 -4 -75h146l-3 -21h-146q-14 -109 -58 -199t-118 -129h322l-4 -21h-363q-29 -10 -63 -10q-86 0 -136 65.5t-50 184.5q0 98 31 202.5t96.5 176.5t162.5 72q35 0 61 -10h351zM483.5 613q-43.5 58 -120.5 58q-91 0 -151 -69.5
t-88 -169.5t-28 -193q0 -109 43.5 -168t119.5 -59q95 0 155 70.5t86.5 171t26.5 192.5q0 109 -43.5 167z" />
    <glyph glyph-name="oe" unicode="&#x153;" horiz-adv-x="816" 
d="M694.5 275q-90.5 -50 -257.5 -61q-1 -10 -1 -31q0 -86 34.5 -129t95.5 -43q40 0 72.5 13.5t68.5 41.5l12 -15q-38 -31 -74 -46t-79 -15q-67 0 -106 43t-45 128q-28 -77 -78 -124t-124 -47t-114 51.5t-40 142.5q0 78 24.5 157.5t77 133.5t133.5 54q69 0 107.5 -44
t45.5 -129q29 78 80.5 125.5t126.5 47.5q60 0 95.5 -31t35.5 -83q0 -90 -90.5 -140zM334.5 63q47.5 52 69 127.5t21.5 147.5q0 83 -34 127t-97 44q-74 0 -122 -52t-69 -127.5t-21 -146.5q0 -83 34 -127.5t97 -44.5q74 0 121.5 52zM543 469.5q-46 -39.5 -71.5 -102
t-32.5 -133.5q159 11 241.5 56t82.5 125q0 44 -28.5 69t-80.5 25q-65 0 -111 -39.5z" />
    <glyph glyph-name="Racute" unicode="&#x154;" horiz-adv-x="516" 
d="M445 400q-44 -59 -131 -73l126 -327h-25l-124 324h-149l-46 -324h-23l96 681h139q94 0 137.5 -37t43.5 -109q0 -76 -44 -135zM274 345q67 0 110 27.5t62 70.5t19 91q0 64 -36.5 95t-121.5 31h-118l-44 -315h129zM412 860l10 -24l-172 -72l-7 15z" />
    <glyph glyph-name="racute" unicode="&#x155;" horiz-adv-x="327" 
d="M347 522l-6 -19q-18 6 -37 6q-54 0 -93 -45t-74 -140l-46 -324h-22l73 519h19l-20 -144q30 78 69 116t95 38q21 0 42 -7zM345 761l9 -23l-173 -84l-7 15z" />
    <glyph glyph-name="Rcommaaccent" unicode="&#x156;" horiz-adv-x="516" 
d="M445 400q-44 -59 -131 -73l126 -327h-25l-124 324h-149l-46 -324h-23l96 681h139q94 0 137.5 -37t43.5 -109q0 -76 -44 -135zM274 345q67 0 110 27.5t62 70.5t19 91q0 64 -36.5 95t-121.5 31h-118l-44 -315h129zM253 -102q6 -6 6 -15q0 -8 -4 -17.5t-11 -22.5l-49 -101
h-15l45 116q-13 7 -13 21q0 11 7 18t18 7q10 0 16 -6z" />
    <glyph glyph-name="rcommaaccent" unicode="&#x157;" horiz-adv-x="327" 
d="M347 522l-6 -19q-18 6 -37 6q-54 0 -93 -45t-74 -140l-46 -324h-22l73 519h19l-20 -144q30 78 69 116t95 38q21 0 42 -7zM82 -102q6 -6 6 -15q0 -8 -4 -17.5t-11 -22.5l-49 -101h-15l45 116q-13 7 -13 21q0 11 7 18t18 7q10 0 16 -6z" />
    <glyph glyph-name="Rcaron" unicode="&#x158;" horiz-adv-x="516" 
d="M445 400q-44 -59 -131 -73l126 -327h-25l-124 324h-149l-46 -324h-23l96 681h139q94 0 137.5 -37t43.5 -109q0 -76 -44 -135zM274 345q67 0 110 27.5t62 70.5t19 91q0 64 -36.5 95t-121.5 31h-118l-44 -315h129zM448 862l10 -12l-121 -90h-12l-95 90l12 12l91 -78z" />
    <glyph glyph-name="rcaron" unicode="&#x159;" horiz-adv-x="327" 
d="M347 522l-6 -19q-18 6 -37 6q-54 0 -93 -45t-74 -140l-46 -324h-22l73 519h19l-20 -144q30 78 69 116t95 38q21 0 42 -7zM372 749l11 -13l-122 -95h-12l-95 95l13 13l90 -84z" />
    <glyph glyph-name="Sacute" unicode="&#x15a;" horiz-adv-x="483" 
d="M390 673q37 -18 68 -52l-15 -14q-30 33 -62.5 48.5t-77.5 15.5q-51 0 -89 -21.5t-58.5 -57t-20.5 -77.5q0 -51 28.5 -79.5t101.5 -56.5q78 -30 112 -68.5t34 -103.5q0 -53 -24.5 -103t-74.5 -82t-121 -32q-58 0 -99 21t-74 62l15 13q31 -36 68 -55t90 -19q66 0 110 29
t65.5 73.5t21.5 91.5q0 58 -30 91.5t-102 61.5q-80 31 -111.5 64.5t-31.5 90.5q0 45 22.5 85.5t65.5 66t102 25.5q50 0 87 -18zM397 860l10 -24l-172 -72l-7 15z" />
    <glyph glyph-name="sacute" unicode="&#x15b;" horiz-adv-x="414" 
d="M314 516q32 -13 61 -40l-15 -14q-27 24 -54.5 35.5t-65.5 11.5q-58 0 -95 -31t-37 -83q0 -38 23 -62t85 -47q68 -25 96 -57t28 -82q0 -70 -47 -113.5t-126 -43.5q-51 0 -88 17.5t-67 48.5l14 14q29 -29 61.5 -44t79.5 -15q66 0 108 34.5t42 100.5q0 44 -24 70.5t-87 50.5
q-68 26 -94.5 54.5t-26.5 73.5q0 59 44.5 96.5t111.5 37.5q41 0 73 -13zM351 761l9 -23l-173 -84l-7 15z" />
    <glyph glyph-name="Scircumflex" unicode="&#x15c;" horiz-adv-x="483" 
d="M390 673q37 -18 68 -52l-15 -14q-30 33 -62.5 48.5t-77.5 15.5q-51 0 -89 -21.5t-58.5 -57t-20.5 -77.5q0 -51 28.5 -79.5t101.5 -56.5q78 -30 112 -68.5t34 -103.5q0 -53 -24.5 -103t-74.5 -82t-121 -32q-58 0 -99 21t-74 62l15 13q31 -36 68 -55t90 -19q66 0 110 29
t65.5 73.5t21.5 91.5q0 58 -30 91.5t-102 61.5q-80 31 -111.5 64.5t-31.5 90.5q0 45 22.5 85.5t65.5 66t102 25.5q50 0 87 -18zM209 766l-10 13l121 90h12l95 -90l-12 -13l-90 79z" />
    <glyph glyph-name="scircumflex" unicode="&#x15d;" horiz-adv-x="414" 
d="M314 516q32 -13 61 -40l-15 -14q-27 24 -54.5 35.5t-65.5 11.5q-58 0 -95 -31t-37 -83q0 -38 23 -62t85 -47q68 -25 96 -57t28 -82q0 -70 -47 -113.5t-126 -43.5q-51 0 -88 17.5t-67 48.5l14 14q29 -29 61.5 -44t79.5 -15q66 0 108 34.5t42 100.5q0 44 -24 70.5t-87 50.5
q-68 26 -94.5 54.5t-26.5 73.5q0 59 44.5 96.5t111.5 37.5q41 0 73 -13zM160 654l-11 13l122 95h12l95 -95l-13 -13l-90 84z" />
    <glyph glyph-name="Scedilla" unicode="&#x15e;" horiz-adv-x="483" 
d="M390 673q37 -18 68 -52l-15 -14q-30 33 -62.5 48.5t-77.5 15.5q-51 0 -89 -21.5t-58.5 -57t-20.5 -77.5q0 -51 28.5 -79.5t101.5 -56.5q78 -30 112 -68.5t34 -103.5q0 -51 -23 -99.5t-69.5 -81t-112.5 -36.5l-12 -64q38 -3 56.5 -18t18.5 -45q0 -34 -24 -54.5t-62 -20.5
q-36 0 -61 18l10 16q21 -14 51 -14q29 0 46 14t17 40q0 25 -16.5 35.5t-57.5 11.5l17 81q-58 1 -98 22t-73 61l15 13q31 -36 68 -55t90 -19q66 0 110 29t65.5 73.5t21.5 91.5q0 58 -30 91.5t-102 61.5q-80 31 -111.5 64.5t-31.5 90.5q0 45 22.5 85.5t65.5 66t102 25.5
q50 0 87 -18z" />
    <glyph glyph-name="scedilla" unicode="&#x15f;" horiz-adv-x="414" 
d="M145 478q-37 -31 -37 -83q0 -38 23 -62t85 -47q68 -25 96 -57t28 -82q0 -69 -44.5 -112t-121.5 -45l-12 -64q38 -3 56.5 -18t18.5 -45q0 -34 -24 -54.5t-62 -20.5q-36 0 -61 18l10 16q21 -14 51 -14q29 0 46 14t17 40q0 25 -16.5 35.5t-57.5 11.5l17 81q-47 2 -81.5 19.5
t-63.5 46.5l14 14q29 -29 61.5 -44t79.5 -15q66 0 108 34.5t42 100.5q0 44 -24 70.5t-87 50.5q-68 26 -94.5 54.5t-26.5 73.5q0 59 44.5 96.5t111.5 37.5q41 0 73 -13t61 -40l-15 -14q-27 24 -54.5 35.5t-65.5 11.5q-58 0 -95 -31z" />
    <glyph glyph-name="Scaron" unicode="&#x160;" horiz-adv-x="483" 
d="M390 673q37 -18 68 -52l-15 -14q-30 33 -62.5 48.5t-77.5 15.5q-51 0 -89 -21.5t-58.5 -57t-20.5 -77.5q0 -51 28.5 -79.5t101.5 -56.5q78 -30 112 -68.5t34 -103.5q0 -53 -24.5 -103t-74.5 -82t-121 -32q-58 0 -99 21t-74 62l15 13q31 -36 68 -55t90 -19q66 0 110 29
t65.5 73.5t21.5 91.5q0 58 -30 91.5t-102 61.5q-80 31 -111.5 64.5t-31.5 90.5q0 45 22.5 85.5t65.5 66t102 25.5q50 0 87 -18zM433 862l10 -12l-121 -90h-12l-95 90l12 12l91 -78z" />
    <glyph glyph-name="scaron" unicode="&#x161;" horiz-adv-x="414" 
d="M314 516q32 -13 61 -40l-15 -14q-27 24 -54.5 35.5t-65.5 11.5q-58 0 -95 -31t-37 -83q0 -38 23 -62t85 -47q68 -25 96 -57t28 -82q0 -70 -47 -113.5t-126 -43.5q-51 0 -88 17.5t-67 48.5l14 14q29 -29 61.5 -44t79.5 -15q66 0 108 34.5t42 100.5q0 44 -24 70.5t-87 50.5
q-68 26 -94.5 54.5t-26.5 73.5q0 59 44.5 96.5t111.5 37.5q41 0 73 -13zM378 749l11 -13l-122 -95h-12l-95 95l13 13l90 -84z" />
    <glyph glyph-name="uni0162" unicode="&#x162;" horiz-adv-x="429" 
d="M477 681l-7 -22h-188l-93 -658l1 -1l-12 -74q73 -5 73 -59q0 -34 -25 -56.5t-61 -22.5t-61 18l10 17q20 -15 51 -15q27 0 45 16t18 41q0 23 -16.5 33.5t-55.5 11.5l17 90h-6l92 659h-188l2 22h404z" />
    <glyph glyph-name="uni0163" unicode="&#x163;" horiz-adv-x="294" 
d="M102 112q-2 -18 -2 -26q0 -76 68 -76q39 0 84 26l9 -16q-45 -27 -88 -30l-12 -64q38 -3 56.5 -18t18.5 -45q0 -34 -24 -54.5t-62 -20.5q-36 0 -61 18l10 16q21 -14 51 -14q29 0 46 14t17 40q0 25 -16.5 35.5t-57.5 11.5l17 81q-37 3 -57.5 27t-20.5 67q0 9 2 27l54 388
h-77l3 20h77l24 131l17 2l-19 -133h129l-6 -20h-126z" />
    <glyph glyph-name="Tcaron" unicode="&#x164;" horiz-adv-x="429" 
d="M477 681l-7 -22h-188l-93 -659h-22l92 659h-188l2 22h404zM402 862l10 -12l-121 -90h-12l-95 90l12 12l91 -78z" />
    <glyph glyph-name="tcaron" unicode="&#x165;" horiz-adv-x="294" 
d="M102 112q-2 -18 -2 -26q0 -76 68 -76q39 0 84 26l9 -16q-49 -30 -95 -30q-41 0 -64.5 24t-23.5 70q0 7 2 27l54 388h-77l3 20h77l24 131l17 2l-19 -133h129l-6 -20h-126zM283 738l23 -2l-45 -145l-15 3z" />
    <glyph glyph-name="Tbar" unicode="&#x166;" horiz-adv-x="429" 
d="M470 659h-188l-39 -279h110l-3 -20h-110l-51 -360h-22l50 360h-110l3 20h110l39 279h-188l2 22h404z" />
    <glyph glyph-name="tbar" unicode="&#x167;" horiz-adv-x="294" 
d="M156 499l-22 -158h123l-6 -19h-119l-30 -210q-2 -18 -2 -26q0 -76 68 -76q39 0 84 26l9 -16q-49 -30 -95 -30q-41 0 -64.5 24t-23.5 70q0 7 2 27l29 211h-74l3 19h74l22 158h-77l3 20h77l24 131l17 2l-19 -133h129l-6 -20h-126z" />
    <glyph glyph-name="Utilde" unicode="&#x168;" horiz-adv-x="576" 
d="M465 186q-11 -87 -65 -141.5t-148 -54.5q-84 0 -124.5 42.5t-40.5 114.5q0 19 3 40l69 494h23l-69 -493q-3 -21 -3 -39q0 -64 34.5 -100.5t107.5 -36.5q85 0 132.5 49.5t58.5 127.5l69 492h22zM391 810q-13 6 -29 17t-25 15.5t-20 4.5q-16 0 -28 -8t-30 -28l-13 10
q37 46 71 46q13 0 24.5 -5.5t27.5 -16.5q15 -10 26.5 -15.5t23.5 -5.5q15 0 28 9.5t30 31.5l14 -9q-34 -52 -72 -52q-15 0 -28 6z" />
    <glyph glyph-name="utilde" unicode="&#x169;" horiz-adv-x="519" 
d="M110.5 21q-28.5 31 -28.5 87q0 17 3 36l52 375h22l-52 -375q-3 -19 -3 -36q0 -48 22.5 -72.5t64.5 -24.5q59 0 107 50t85 138l45 320h22l-74 -519h-17l21 157q-33 -77 -81.5 -122t-108.5 -45q-51 0 -79.5 31zM344 684q-13 6 -29 17t-25 15.5t-20 4.5q-16 0 -28 -8
t-30 -28l-13 10q37 46 71 46q13 0 24.5 -5.5t27.5 -16.5q15 -10 26.5 -15.5t23.5 -5.5q15 0 28 9.5t30 31.5l14 -9q-34 -52 -72 -52q-15 0 -28 6z" />
    <glyph glyph-name="Umacron" unicode="&#x16a;" horiz-adv-x="576" 
d="M465 186q-11 -87 -65 -141.5t-148 -54.5q-84 0 -124.5 42.5t-40.5 114.5q0 19 3 40l69 494h23l-69 -493q-3 -21 -3 -39q0 -64 34.5 -100.5t107.5 -36.5q85 0 132.5 49.5t58.5 127.5l69 492h22zM458 811h-188l3 21h188z" />
    <glyph glyph-name="umacron" unicode="&#x16b;" horiz-adv-x="519" 
d="M110.5 21q-28.5 31 -28.5 87q0 17 3 36l52 375h22l-52 -375q-3 -19 -3 -36q0 -48 22.5 -72.5t64.5 -24.5q59 0 107 50t85 138l45 320h22l-74 -519h-17l21 157q-33 -77 -81.5 -122t-108.5 -45q-51 0 -79.5 31zM410 685h-188l3 21h188z" />
    <glyph glyph-name="Ubreve" unicode="&#x16c;" horiz-adv-x="576" 
d="M465 186q-11 -87 -65 -141.5t-148 -54.5q-84 0 -124.5 42.5t-40.5 114.5q0 19 3 40l69 494h23l-69 -493q-3 -21 -3 -39q0 -64 34.5 -100.5t107.5 -36.5q85 0 132.5 49.5t58.5 127.5l69 492h22zM293.5 793.5q-24.5 22.5 -26.5 54.5l16 2q5 -26 24 -42t50 -16q32 0 55 16
t36 43l17 -5q-12 -32 -40.5 -53.5t-67.5 -21.5t-63.5 22.5z" />
    <glyph glyph-name="ubreve" unicode="&#x16d;" horiz-adv-x="519" 
d="M110.5 21q-28.5 31 -28.5 87q0 17 3 36l52 375h22l-52 -375q-3 -19 -3 -36q0 -48 22.5 -72.5t64.5 -24.5q59 0 107 50t85 138l45 320h22l-74 -519h-17l21 157q-33 -77 -81.5 -122t-108.5 -45q-51 0 -79.5 31zM250 686q-23 24 -25 63l17 2q8 -67 71 -67q32 0 56.5 18
t37.5 51l16 -6q-12 -38 -41.5 -61.5t-68.5 -23.5q-40 0 -63 24z" />
    <glyph glyph-name="Uring" unicode="&#x16e;" horiz-adv-x="576" 
d="M465 186q-11 -87 -65 -141.5t-148 -54.5q-84 0 -124.5 42.5t-40.5 114.5q0 19 3 40l69 494h23l-69 -493q-3 -21 -3 -39q0 -64 34.5 -100.5t107.5 -36.5q85 0 132.5 49.5t58.5 127.5l69 492h22zM428 909q17 -18 17 -48q0 -41 -23.5 -66t-59.5 -25q-29 0 -46.5 18.5
t-17.5 47.5q0 41 23.5 66t59.5 25q30 0 47 -18zM335.5 889q-16.5 -20 -17.5 -51q0 -23 11.5 -36.5t33.5 -13.5q28 0 44.5 20t17.5 51q0 23 -11.5 36.5t-33.5 13.5q-28 0 -44.5 -20z" />
    <glyph glyph-name="uring" unicode="&#x16f;" horiz-adv-x="519" 
d="M110.5 21q-28.5 31 -28.5 87q0 17 3 36l52 375h22l-52 -375q-3 -19 -3 -36q0 -48 22.5 -72.5t64.5 -24.5q59 0 107 50t85 138l45 320h22l-74 -519h-17l21 157q-33 -77 -81.5 -122t-108.5 -45q-51 0 -79.5 31zM379 783q17 -18 17 -48q0 -41 -23.5 -66t-59.5 -25
q-29 0 -46.5 18.5t-17.5 47.5q0 41 23.5 66t59.5 25q30 0 47 -18zM286.5 763q-16.5 -20 -17.5 -51q0 -23 11.5 -36.5t33.5 -13.5q28 0 44.5 20t17.5 51q0 23 -11.5 36.5t-33.5 13.5q-28 0 -44.5 -20z" />
    <glyph glyph-name="Uhungarumlaut" unicode="&#x170;" horiz-adv-x="576" 
d="M465 186q-11 -87 -65 -141.5t-148 -54.5q-84 0 -124.5 42.5t-40.5 114.5q0 19 3 40l69 494h23l-69 -493q-3 -21 -3 -39q0 -64 34.5 -100.5t107.5 -36.5q85 0 132.5 49.5t58.5 127.5l69 492h22zM477 917l21 -11l-88 -128l-16 9zM377 916l21 -12l-83 -122l-14 8z" />
    <glyph glyph-name="uhungarumlaut" unicode="&#x171;" horiz-adv-x="519" 
d="M110.5 21q-28.5 31 -28.5 87q0 17 3 36l52 375h22l-52 -375q-3 -19 -3 -36q0 -48 22.5 -72.5t64.5 -24.5q59 0 107 50t85 138l45 320h22l-74 -519h-17l21 157q-33 -77 -81.5 -122t-108.5 -45q-51 0 -79.5 31zM430 791l21 -11l-88 -128l-16 9zM330 790l21 -12l-83 -122
l-14 8z" />
    <glyph glyph-name="Uogonek" unicode="&#x172;" horiz-adv-x="576" 
d="M534 681l-69 -495q-9 -71 -47 -121t-103 -67q-54 -27 -81.5 -53.5t-27.5 -66.5q0 -28 16.5 -43.5t46.5 -15.5q21 0 48 7l-2 -22q-27 -7 -49 -7q-41 0 -62.5 22t-21.5 58t22.5 63.5t66.5 50.5q-6 -1 -19 -1q-84 0 -124.5 42.5t-40.5 114.5q0 19 3 40l69 494h23l-69 -493
q-3 -21 -3 -39q0 -64 34.5 -100.5t107.5 -36.5q85 0 132.5 49.5t58.5 127.5l69 492h22z" />
    <glyph glyph-name="uogonek" unicode="&#x173;" horiz-adv-x="519" 
d="M278 -58.5q-32 -29.5 -32 -70.5q0 -52 56 -52q21 0 50 7l-5 -22q-27 -7 -47 -7q-36 0 -56.5 18.5t-20.5 51.5q0 46 34 78.5t103 62.5l20 149q-33 -77 -81.5 -122t-108.5 -45q-51 0 -79.5 31t-28.5 87q0 17 3 36l52 375h22l-52 -375q-3 -19 -3 -36q0 -48 22.5 -72.5
t64.5 -24.5q59 0 107 50t85 138l45 320h22l-74 -517l1 -2q-67 -29 -99 -58.5z" />
    <glyph glyph-name="Wcircumflex" unicode="&#x174;" horiz-adv-x="716" 
d="M739 681l-238 -681h-27l-60 659l-245 -659h-27l-47 681h22l42 -655l244 655h28l60 -657l225 657h23zM321 766l-10 13l121 90h12l95 -90l-12 -13l-90 79z" />
    <glyph glyph-name="wcircumflex" unicode="&#x175;" horiz-adv-x="619" 
d="M623 519l-195 -519h-29l-55 496l-194 -496h-30l-51 519h21l48 -498l195 498h28l55 -498l185 498h22zM263 654l-11 13l122 95h12l95 -95l-13 -13l-90 84z" />
    <glyph glyph-name="Ycircumflex" unicode="&#x176;" horiz-adv-x="446" 
d="M486 681l-249 -411l-39 -270h-22l38 270l-136 411h23l126 -388l234 388h25zM184 766l-10 13l121 90h12l95 -90l-12 -13l-90 79z" />
    <glyph glyph-name="ycircumflex" unicode="&#x177;" horiz-adv-x="406" 
d="M185 -2q-29 -64 -53 -99t-55.5 -56.5t-84.5 -37.5l-2 18q48 15 77 35t49.5 51.5t47.5 90.5h-10l-95 519h23l89 -503l225 503h24zM151 654l-11 13l122 95h12l95 -95l-13 -13l-90 84z" />
    <glyph glyph-name="Ydieresis" unicode="&#x178;" horiz-adv-x="446" 
d="M486 681l-249 -411l-39 -270h-22l38 270l-136 411h23l126 -388l234 388h25zM209.5 803.5q-4.5 4.5 -4.5 12.5q0 9 5.5 15t15.5 6q7 0 12 -4.5t5 -12.5q0 -9 -6 -15t-15 -6q-8 0 -12.5 4.5zM360 803.5q-5 4.5 -5 12.5q0 9 5.5 15t15.5 6q8 0 12.5 -4.5t4.5 -12.5
q0 -9 -5.5 -15t-14.5 -6q-8 0 -13 4.5z" />
    <glyph glyph-name="Zacute" unicode="&#x179;" horiz-adv-x="457" 
d="M-1 0l3 21l440 639h-317l3 21h343l-2 -19l-440 -640h339l-7 -22h-362zM380 860l10 -24l-172 -72l-7 15z" />
    <glyph glyph-name="zacute" unicode="&#x17a;" horiz-adv-x="370" 
d="M374 519l-3 -18l-349 -480h275l-5 -21h-301l3 18l350 481h-258l3 20h285zM338 761l9 -23l-173 -84l-7 15z" />
    <glyph glyph-name="Zdotaccent" unicode="&#x17b;" horiz-adv-x="457" 
d="M-1 0l3 21l440 639h-317l3 21h343l-2 -19l-440 -640h339l-7 -22h-362zM293 816q-5 5 -5 12q0 9 5.5 15t15.5 6q8 0 13 -4.5t5 -12.5t-6 -14.5t-16 -6.5q-7 0 -12 5z" />
    <glyph glyph-name="zdotaccent" unicode="&#x17c;" horiz-adv-x="370" 
d="M374 519l-3 -18l-349 -480h275l-5 -21h-301l3 18l350 481h-258l3 20h285zM243 690q-5 5 -5 12q0 9 5.5 15t15.5 6q8 0 13 -4.5t5 -12.5t-6 -14.5t-16 -6.5q-7 0 -12 5z" />
    <glyph glyph-name="Zcaron" unicode="&#x17d;" horiz-adv-x="457" 
d="M-1 0l3 21l440 639h-317l3 21h343l-2 -19l-440 -640h339l-7 -22h-362zM416 862l10 -12l-121 -90h-12l-95 90l12 12l91 -78z" />
    <glyph glyph-name="zcaron" unicode="&#x17e;" horiz-adv-x="370" 
d="M374 519l-3 -18l-349 -480h275l-5 -21h-301l3 18l350 481h-258l3 20h285zM365 749l11 -13l-122 -95h-12l-95 95l13 13l90 -84z" />
    <glyph glyph-name="longs" unicode="&#x17f;" horiz-adv-x="277" 
d="M393 702l-11 -16q-24 16 -45 23.5t-46 7.5q-92 0 -108 -103l-85 -614h-22l70 499h-82l3 20h81l14 98q8 58 42.5 89t87.5 31q50 0 101 -35z" />
    <glyph glyph-name="uni0180" unicode="&#x180;" horiz-adv-x="515" 
d="M423.5 483.5q34.5 -45.5 34.5 -131.5q0 -81 -24.5 -164.5t-78 -140.5t-136.5 -57q-38 0 -70 8t-73 26l85 605h-67l3 20h67l12 84l22 3l-12 -87h166l-7 -20h-162l-27 -193q38 44 78.5 68.5t88.5 24.5q66 0 100.5 -45.5zM343.5 65.5q48.5 54.5 70 133t22.5 153.5
q0 77 -28.5 117t-84.5 40q-48 0 -88.5 -26t-82.5 -75l-52 -371q30 -13 57.5 -19.5t61.5 -6.5q76 0 124.5 54.5z" />
    <glyph glyph-name="uni0181" unicode="&#x181;" horiz-adv-x="577" 
d="M475 319.5q35 -35.5 35 -100.5q0 -55 -23 -104.5t-76 -82t-138 -32.5h-160l93 661h-29q-45 0 -68 -25t-23 -65q0 -20 4 -34t11 -31l-18 -8q-9 18 -14 34t-5 39q0 49 30 79.5t84 30.5h173q87 0 133 -36.5t46 -105.5q0 -71 -41 -119.5t-108 -58.5q59 -6 94 -41.5zM188 370
h150q51 0 89 22.5t59 61t21 84.5q0 122 -155 122h-123zM437.5 79.5q49.5 58.5 49.5 139.5q0 65 -38.5 98t-108.5 33h-155l-46 -329h137q112 0 161.5 58.5z" />
    <glyph glyph-name="uni0182" unicode="&#x182;" horiz-adv-x="508" 
d="M402 364.5q47 -40.5 47 -120.5q0 -60 -23 -115.5t-76 -92t-137 -36.5h-140l96 681h286l-7 -21h-260l-35 -255h114q88 0 135 -40.5zM340 55.5q46 34.5 65.5 85t19.5 102.5q0 141 -158 141h-117l-51 -363h121q74 0 120 34.5z" />
    <glyph glyph-name="uni0183" unicode="&#x183;" horiz-adv-x="512" 
d="M420.5 483.5q34.5 -45.5 34.5 -131.5q0 -82 -24 -165t-78 -140t-137 -57q-38 0 -70 8t-73 26l100 708h241l-8 -21h-214l-39 -275q38 44 78.5 68.5t88.5 24.5q66 0 100.5 -45.5zM341 65.5q49 54.5 70.5 133.5t21.5 154q0 77 -28.5 116.5t-84.5 39.5q-49 0 -89 -26t-81 -75
l-52 -371q29 -13 56.5 -19.5t61.5 -6.5q76 0 125 54.5z" />
    <glyph glyph-name="uni0184" unicode="&#x184;" horiz-adv-x="501" 
d="M405 367q47 -41 47 -123q0 -61 -23.5 -116.5t-76 -91.5t-136.5 -36h-139l82 587l-26 22q29 29 44 72h18l-38 -273h113q88 0 135 -41zM344 56q46 35 65.5 85.5t19.5 101.5q0 144 -158 144h-117l-51 -366h120q75 0 121 35z" />
    <glyph glyph-name="uni0185" unicode="&#x185;" horiz-adv-x="444" 
d="M355 298q39 -37 39 -102q0 -51 -19.5 -98t-63.5 -77.5t-113 -30.5q-59 0 -127 26l60 418l-28 22q26 24 43 63h19l-26 -184h95q82 0 121 -37zM330.5 67q41.5 55 41.5 129q0 119 -139 119h-97l-40 -285q52 -19 102 -19q91 1 132.5 56z" />
    <glyph glyph-name="uni0186" unicode="&#x186;" horiz-adv-x="491" 
d="M392.5 629q48.5 -62 48.5 -182q0 -118 -35.5 -223t-102.5 -169.5t-158 -64.5q-50 0 -85.5 17t-66.5 47l15 16q31 -29 60.5 -43.5t76.5 -14.5q84 0 146 62t94.5 162t32.5 211q0 112 -42.5 167.5t-116.5 55.5q-46 0 -81 -13t-74 -40l-12 17q39 28 78 42.5t90 14.5
q84 0 132.5 -62z" />
    <glyph glyph-name="uni0187" unicode="&#x187;" horiz-adv-x="481" 
d="M648.5 805.5q18.5 -8.5 34.5 -22.5l-13 -14q-14 12 -29 18.5t-36 6.5q-32 0 -53 -21t-27 -65l-11 -75l-13 -13q-29 26 -57 38t-68 12q-96 0 -159 -66.5t-92 -165t-29 -195.5q0 -112 46 -171.5t125 -59.5q47 0 81 15t69 43l13 -17q-35 -29 -74.5 -46t-88.5 -17
q-89 0 -141 65.5t-52 185.5q0 104 31.5 207.5t99.5 173t171 69.5q70 0 118 -41l8 61q7 49 34.5 76t67.5 27q26 0 44.5 -8.5z" />
    <glyph glyph-name="uni0188" unicode="&#x188;" horiz-adv-x="419" 
d="M558 728.5q18 -8.5 34 -22.5l-12 -14q-16 12 -31 18.5t-35 6.5q-32 0 -54 -21.5t-28 -66.5l-20 -150l-12 -12q-23 21 -48 31.5t-58 10.5q-70 0 -118 -49t-71 -123.5t-23 -151.5q0 -85 35 -129.5t97 -44.5q35 0 64.5 12t58.5 35l11 -15q-63 -53 -134 -53q-72 0 -113.5 51
t-41.5 144q0 82 26 161t79 131t131 52q57 0 98 -33l18 135q7 51 34.5 78.5t68.5 27.5q26 0 44 -8.5z" />
    <glyph glyph-name="uni0189" unicode="&#x189;" horiz-adv-x="569" 
d="M519 445q0 -116 -33 -216.5t-107 -164.5t-189 -64h-115l48 343h-80l3 20h80l45 318h121q227 0 227 -236zM368.5 82.5q67.5 61.5 97.5 157.5t30 205q0 122 -56.5 168.5t-149.5 46.5h-99l-42 -297h174l-4 -20h-173l-45 -322h93q107 0 174.5 61.5z" />
    <glyph glyph-name="uni018A" unicode="&#x18a;" horiz-adv-x="607" 
d="M557 445q0 -116 -33 -216.5t-107 -164.5t-189 -64h-115l93 661h-29q-45 0 -68 -25t-23 -65q0 -20 4 -34t11 -31l-18 -8q-9 18 -14 34t-5 39q0 49 30 79.5t84 30.5h152q227 0 227 -236zM406.5 82.5q67.5 61.5 97.5 157.5t30 205q0 122 -56.5 168.5t-149.5 46.5h-99
l-90 -639h93q107 0 174.5 61.5z" />
    <glyph glyph-name="uni018B" unicode="&#x18b;" horiz-adv-x="510" 
d="M458 680l-95 -680h-132q-89 0 -137.5 43.5t-48.5 132.5q0 70 30 122t84 79.5t125 27.5h113l36 255h-261l3 21h284zM394 384h-112q-99 0 -156.5 -56t-57.5 -152q0 -155 165 -155h110z" />
    <glyph glyph-name="uni018C" unicode="&#x18c;" horiz-adv-x="513" 
d="M371 0h-18l15 128q-34 -62 -76 -100t-99 -38q-63 0 -99 49.5t-36 137.5q0 80 24.5 161.5t75.5 136t127 54.5q89 0 127 -82l37 264h-217l3 21h239zM408 417q-36 92 -122 92q-68 0 -114.5 -51t-68.5 -127.5t-22 -152.5q0 -79 30 -123t83 -44q55 0 96.5 41t83.5 119z" />
    <glyph glyph-name="uni018D" unicode="&#x18d;" horiz-adv-x="503" 
d="M43 -143l15 14q26 -24 55 -35.5t67 -11.5q64 0 97.5 28t33.5 72q0 34 -23 57t-80 49q-77 35 -111 78.5t-34 114.5q0 69 22 139t73 118.5t132 48.5q74 0 114.5 -50t40.5 -137q0 -110 -45.5 -187t-156.5 -120q48 -25 69 -49.5t21 -60.5q0 -53 -40.5 -87.5t-112.5 -34.5
q-81 0 -137 54zM379.5 161.5q43.5 74.5 43.5 180.5q0 77 -35 122t-99 45q-74 0 -119.5 -46.5t-64.5 -111.5t-19 -127q0 -66 30.5 -106t106.5 -74q113 43 156.5 117.5z" />
    <glyph glyph-name="uni018E" unicode="&#x18e;" horiz-adv-x="445" 
d="M103 681h291l-95 -681h-297l3 21h274l46 328h-228l3 21h228l40 290h-268z" />
    <glyph glyph-name="uni018F" unicode="&#x18f;" horiz-adv-x="583" 
d="M486.5 634q47.5 -57 47.5 -175q0 -121 -32 -228t-98 -174t-161 -67q-88 0 -135.5 60.5t-47.5 175.5q0 59 15 134h429q6 70 6 98q0 212 -159 212q-50 0 -93.5 -17.5t-91.5 -56.5l-11 16q48 41 95 60t102 19q87 0 134.5 -57zM406 92.5q69 80.5 95 245.5h-406
q-11 -56 -11 -111q0 -107 41 -161t119 -54q93 0 162 80.5z" />
    <glyph glyph-name="uni0190" unicode="&#x190;" horiz-adv-x="469" 
d="M405 670.5q39 -20.5 72 -63.5l-17 -13q-29 37 -64.5 56.5t-84.5 19.5q-48 0 -86.5 -21.5t-60 -60t-21.5 -87.5q0 -57 36 -89t99 -32h46l-5 -21l-46 1q-93 1 -147.5 -54t-54.5 -146q0 -71 38.5 -109.5t105.5 -38.5q52 0 96 21.5t87 63.5l15 -15q-47 -46 -95.5 -69
t-103.5 -23q-76 0 -121.5 45.5t-45.5 124.5q0 92 50 148t128 63q-48 9 -76.5 41t-28.5 86q0 56 24.5 100t68 68.5t98.5 24.5t94 -20.5z" />
    <glyph glyph-name="uni0191" unicode="&#x191;" horiz-adv-x="424" 
d="M189 660l-43 -304h225l-3 -21h-225l-47 -335l-13 -93q-7 -51 -35 -77.5t-69 -26.5q-45 0 -76 31l12 14q14 -12 28 -18t36 -6q31 0 53.5 21t28.5 65l13 90h-1l96 681h286l-6 -21h-260z" />
    <glyph glyph-name="florin" unicode="&#x192;" horiz-adv-x="277" 
d="M218 691.5q-28 -25.5 -35 -77.5l-13 -95h131l-6 -20h-128l-69 -498q-9 -60 -24.5 -95.5t-39.5 -57t-66 -43.5l-7 17q37 20 58.5 39.5t35 52t21.5 88.5l69 497h-81l3 20h81l14 98q8 58 42.5 89t86.5 31q27 0 51.5 -9t50.5 -26l-11 -16q-25 17 -45.5 24t-46.5 7
q-44 0 -72 -25.5z" />
    <glyph glyph-name="uni0193" unicode="&#x193;" horiz-adv-x="493" 
d="M661 805.5q18 -8.5 34 -22.5l-12 -14q-15 12 -30 18.5t-36 6.5q-31 0 -52.5 -22t-28.5 -69l-10 -71l-14 -13q-31 27 -62.5 39t-72.5 12q-90 0 -153 -61.5t-95 -159.5t-32 -207q0 -114 47 -172t134 -58q77 0 150 41l40 280h-130v21h155l-44 -314q-39 -23 -84 -36.5
t-87 -13.5q-97 0 -150.5 65t-53.5 188q0 114 35 217t104 167t165 64q76 0 128 -43l8 57q7 53 34.5 81t68.5 28q26 0 44 -8.5z" />
    <glyph glyph-name="uni0194" unicode="&#x194;" horiz-adv-x="488" 
d="M228 54q17 -64 23.5 -95t6.5 -61q0 -42 -20.5 -68.5t-55.5 -26.5q-27 0 -42 17t-15 45q0 35 18 76.5t59 115.5l-115 624h23l108 -606l277 606h24zM230.5 -46q-5.5 28 -18.5 83q-33 -62 -49 -101t-16 -71q0 -42 35 -42q26 0 40 20.5t14 54.5q0 28 -5.5 56z" />
    <glyph glyph-name="uni0195" unicode="&#x195;" horiz-adv-x="802" 
d="M414.5 24q-31.5 34 -31.5 90q0 20 2 31l32 226q3 21 3 40q0 49 -22 74t-65 25q-54 0 -102.5 -49t-94.5 -140l-45 -321h-22l103 733l22 3l-52 -370q84 163 193 163q53 0 80 -31t27 -88q0 -17 -3 -37l-32 -228q-2 -10 -2 -30q0 -49 26.5 -76.5t75.5 -27.5q114 0 158 125.5
t44 301.5q0 42 -3 81h22l1 -25q2 -36 2 -56q0 -189 -49 -318.5t-177 -129.5q-59 0 -90.5 34z" />
    <glyph glyph-name="uni0196" unicode="&#x196;" horiz-adv-x="283" 
d="M236 19q-37 -29 -83 -29q-37 0 -57.5 21.5t-20.5 61.5q0 6 2 22l13 92l69 494h23l-70 -494l-12 -92q-2 -16 -2 -22q0 -32 15 -47t40 -15q39 0 72 24z" />
    <glyph glyph-name="uni0197" unicode="&#x197;" horiz-adv-x="287" 
d="M270 371l-3 -21h-97l-49 -350h-23l49 350h-101l3 21h101l44 310h23l-44 -310h97z" />
    <glyph glyph-name="uni0198" unicode="&#x198;" horiz-adv-x="497" 
d="M150 367l219 257q33 39 55.5 53t50.5 14q41 0 70 -35l-14 -13q-13 14 -25.5 21t-31.5 7q-22 0 -40 -12t-51 -51l-206 -241l244 -367h-26zM73 0l96 681h23l-96 -681h-23z" />
    <glyph glyph-name="uni0199" unicode="&#x199;" horiz-adv-x="461" 
d="M267 241l106 -241h-23l-109 250q173 55 173 179q0 38 -19.5 59.5t-58.5 21.5q-57 0 -107 -54.5t-96 -157.5l-42 -298h-22l73 518l14 100q8 57 42 88t85 31q55 0 102 -31l-10 -17q-43 27 -91 27q-43 0 -71.5 -25.5t-35.5 -76.5l-13 -96l-24 -170q84 181 197 181
q47 0 73 -27.5t26 -72.5q0 -130 -169 -188z" />
    <glyph glyph-name="uni019A" unicode="&#x19a;" horiz-adv-x="252" 
d="M109 68q-2 -12 -2 -18q0 -39 39 -39q17 0 36 7l6 -18q-26 -10 -44 -10q-28 0 -43 15.5t-15 45.5q0 12 1 18l41 291h-98l3 21h98l49 352l22 3l-49 -355h101l-3 -21h-101z" />
    <glyph glyph-name="uni019B" unicode="&#x19b;" horiz-adv-x="406" 
d="M292.5 254q15.5 -96 33.5 -142t51 -109l-21 -8q-32 61 -50 109t-33.5 142.5t-21.5 247.5l-226 -499l-21 5l238 521l9 -1q-3 45 -7 74.5t-13 51.5l-82 -81l-17 8l90 90q-22 40 -79 56l4 17q62 -17 90 -60l70 70l13 -12l-74 -75q22 -49 25 -149q6 -160 21.5 -256z" />
    <glyph glyph-name="uni019C" unicode="&#x19c;" horiz-adv-x="830" 
d="M779 681l-96 -681h-19l13 109q-36 -55 -81 -87t-96 -32q-54 0 -84.5 31.5t-32.5 91.5q-80 -123 -182 -123q-56 0 -86.5 34t-30.5 98q0 20 3 44l72 515h23l-73 -520q-3 -21 -3 -40q0 -54 24.5 -82t70.5 -28q53 0 97.5 35t85.5 98q0 8 2 22l71 515h23l-72 -520
q-3 -21 -3 -40q0 -54 24.5 -82t70.5 -28q98 0 181 133l75 537h23z" />
    <glyph glyph-name="uni019D" unicode="&#x19d;" horiz-adv-x="596" 
d="M545 681l-96 -681h-28l-237 658q-4 -58 -22 -182l-67 -476l-13 -93q-7 -51 -35 -77.5t-68 -26.5q-44 0 -77 31l13 14q14 -12 28 -18t36 -6q31 0 53 21t28 65l13 90l96 681h29l236 -656q14 114 23 180l66 476h22z" />
    <glyph glyph-name="uni019E" unicode="&#x19e;" horiz-adv-x="523" 
d="M414 498.5q27 -30.5 27 -86.5q0 -18 -3 -39l-80 -567l-22 -3l80 568q3 21 3 40q0 99 -85 99q-55 0 -103.5 -48.5t-94.5 -140.5l-45 -321h-22l73 519h19l-20 -155q42 82 90 123.5t104 41.5q52 0 79 -30.5z" />
    <glyph glyph-name="uni019F" unicode="&#x19f;" horiz-adv-x="623" 
d="M521 627q52 -64 52 -184q0 -102 -30.5 -206t-98.5 -175.5t-174 -71.5q-93 0 -145 65.5t-52 185.5q0 99 31.5 203t100 175.5t171.5 71.5q93 0 145 -64zM197.5 579.5q-66.5 -91.5 -89.5 -222.5h437q5 50 5 86q0 111 -45.5 169.5t-128.5 58.5q-112 0 -178.5 -91.5z
M455.5 107q66.5 95 86.5 230h-438q-7 -48 -7 -97q0 -111 45.5 -169.5t127.5 -58.5q119 0 185.5 95z" />
    <glyph glyph-name="Ohorn" unicode="&#x1a0;" horiz-adv-x="623" 
d="M591.5 642q-18.5 -24 -58.5 -32q40 -62 40 -167q0 -102 -30.5 -206t-98.5 -175.5t-174 -71.5q-93 0 -145 65.5t-52 185.5q0 99 31.5 203t100 175.5t171.5 71.5q96 0 147 -66q37 7 52 27t15 57q0 32 -7 50l18 5q9 -29 9 -56q0 -42 -18.5 -66zM433.5 81.5
q62.5 69.5 89.5 168.5t27 193q0 111 -45.5 169.5t-128.5 58.5q-97 0 -159.5 -69t-91 -168.5t-28.5 -193.5q0 -111 45.5 -169.5t127.5 -58.5q101 0 163.5 69.5z" />
    <glyph glyph-name="ohorn" unicode="&#x1a1;" horiz-adv-x="515" 
d="M490 476q-19 -24 -62 -31q20 -45 20 -108q0 -77 -24 -157t-77 -135t-134 -55q-74 0 -114 51.5t-40 142.5q0 78 24.5 157.5t77 133.5t133.5 54q88 0 126 -69q39 6 54 25.5t15 58.5q0 28 -7 51l18 5q9 -29 9 -56q0 -44 -19 -68zM334.5 63q47.5 52 69 127.5t21.5 147.5
q0 83 -34 127t-97 44q-74 0 -122 -52t-69 -127.5t-21 -146.5q0 -83 34 -127.5t97 -44.5q74 0 121.5 52z" />
    <glyph glyph-name="uni01A2" unicode="&#x1a2;" horiz-adv-x="797" 
d="M709 666q24 -25 24 -68q0 -7 -2 -23l-108 -767h-22l107 767q2 18 2 25q0 72 -73 72q-32 0 -60 -10t-61 -29q57 -65 57 -190q0 -102 -30.5 -206t-98.5 -175.5t-174 -71.5q-93 0 -145 65.5t-52 185.5q0 99 31.5 203t100 175.5t171.5 71.5q77 0 126 -44q35 21 67.5 32.5
t67.5 11.5q48 0 72 -25zM433.5 81.5q62.5 69.5 89.5 168.5t27 193q0 111 -45.5 169.5t-128.5 58.5q-97 0 -159.5 -69t-91 -168.5t-28.5 -193.5q0 -111 45.5 -169.5t127.5 -58.5q101 0 163.5 69.5z" />
    <glyph glyph-name="uni01A3" unicode="&#x1a3;" horiz-adv-x="662" 
d="M560 504q24 -25 24 -68q0 -8 -2 -26l-84 -604l-23 -3l85 608q2 18 2 25q0 73 -75 73q-46 0 -91 -21q49 -49 49 -151q0 -77 -24 -157t-76.5 -135t-133.5 -55q-72 0 -112 51.5t-40 142.5q0 77 24 157t76.5 134t132.5 54q53 0 89 -27q56 27 107 27q48 0 72 -25zM331.5 63
q47.5 52 69 127.5t21.5 147.5q0 83 -33.5 127t-96.5 44q-73 0 -120.5 -52t-68.5 -127.5t-21 -146.5q0 -83 33.5 -127.5t95.5 -44.5q73 0 120.5 52z" />
    <glyph glyph-name="uni01A4" unicode="&#x1a4;" horiz-adv-x="544" 
d="M532 523q0 -101 -60 -171t-197 -70h-99l-40 -282h-23l93 661h-29q-45 0 -68 -25t-23 -65q0 -20 4 -34t11 -31l-18 -8q-9 18 -14 34t-5 39q0 49 30 79.5t84 30.5h159q195 0 195 -158zM456 366.5q52 63.5 52 156.5q0 72 -42.5 104.5t-129.5 32.5h-107l-50 -357h100
q125 0 177 63.5z" />
    <glyph glyph-name="uni01A5" unicode="&#x1a5;" horiz-adv-x="509" 
d="M417.5 483.5q34.5 -45.5 34.5 -131.5q0 -82 -24 -165.5t-77.5 -140t-136.5 -56.5q-33 0 -61 6.5t-59 20.5l-30 -210l-23 -3l101 714l14 100q8 57 42 88t85 31q55 0 102 -31l-10 -17q-43 27 -91 27q-43 0 -71.5 -25.5t-35.5 -76.5l-13 -96l-11 -81q38 44 77.5 68t86.5 24
q66 0 100.5 -45.5zM339.5 66q48.5 55 69.5 134.5t21 156.5q0 74 -29 113t-84 39q-48 0 -87.5 -25.5t-80.5 -75.5l-52 -370q28 -13 55.5 -20t61.5 -7q77 0 125.5 55z" />
    <glyph glyph-name="uni01A6" unicode="&#x1a6;" horiz-adv-x="512" 
d="M423 268q-43 -59 -132 -74l126 -327h-24l-125 324h-145l-27 -191h-23l96 681h23l-19 -132h110q95 0 139 -37t44 -109q0 -76 -43 -135zM251 212q68 0 110.5 28t61.5 71.5t19 91.5q0 63 -36.5 93.5t-121.5 30.5h-114l-44 -315h125z" />
    <glyph glyph-name="uni01A7" unicode="&#x1a7;" horiz-adv-x="474" 
d="M425 655.5q37 -35.5 37 -94.5q0 -55 -23 -92.5t-65.5 -62t-110.5 -48.5q-101 -36 -146 -83t-45 -131q0 -62 36 -97t99 -35q55 0 98 19t84 56l13 -16q-44 -39 -91 -60t-104 -21q-71 0 -114.5 41.5t-43.5 112.5q0 91 51 144.5t157 90.5q64 22 102 44t59 55t21 83
t-30.5 79.5t-87.5 29.5q-47 0 -85.5 -15t-80.5 -48l-13 15q44 35 85.5 52t94.5 17q66 0 103 -35.5z" />
    <glyph glyph-name="uni01A8" unicode="&#x1a8;" horiz-adv-x="419" 
d="M340.5 498.5q33.5 -30.5 33.5 -78.5q0 -34 -11 -60t-45 -50.5t-99 -44.5q-66 -20 -100.5 -44.5t-46 -50.5t-11.5 -60q0 -47 31.5 -73t81.5 -26q47 0 84.5 15t75.5 46l12 -16q-82 -66 -172 -66q-61 0 -98.5 32.5t-37.5 87.5q0 58 36.5 100t136.5 73q59 19 90 40t41 44
t10 53q0 40 -27.5 64.5t-71.5 24.5q-37 0 -68.5 -12.5t-66.5 -38.5l-11 16q36 28 72 41.5t75 13.5q53 0 86.5 -30.5z" />
    <glyph glyph-name="uni01A9" unicode="&#x1a9;" horiz-adv-x="442" 
d="M451 681l-2 -21h-311l162 -319l-2 -9l-247 -311h308l-3 -21h-342l1 12l261 327l-168 330l1 12h342z" />
    <glyph glyph-name="uni01AA" unicode="&#x1aa;" horiz-adv-x="241" 
d="M225 -168q-15 -13 -36.5 -21t-44.5 -8q-38 0 -59 21.5t-21 61.5q0 7 2 23l13 91h-1l76 538q-31 -17 -62 -17q-34 0 -55 22.5t-21 61.5q0 56 30.5 94t74.5 38q33 0 51.5 -21t18.5 -58q0 -13 -1 -20l-90 -638h1l-13 -92q-2 -16 -2 -22q0 -63 58 -63q21 0 37 6t33 18z
M157 559l11 79q1 7 1 19q0 28 -12 44t-37 16q-36 0 -58.5 -32t-22.5 -80q0 -32 14.5 -48t40.5 -16q31 0 63 18z" />
    <glyph glyph-name="uni01AB" unicode="&#x1ab;" horiz-adv-x="294" 
d="M102 112q-2 -18 -2 -26q0 -76 68 -76q40 0 85 24l8 -14l-16 -113q-7 -51 -35 -77.5t-69 -26.5q-44 0 -76 30l12 15q15 -12 29 -18.5t35 -6.5q32 0 54 20.5t28 65.5l14 98q-36 -17 -71 -17q-41 0 -64.5 24t-23.5 70q0 7 2 27l54 388h-77l3 20h77l24 131l17 2l-19 -133h129
l-6 -20h-126z" />
    <glyph glyph-name="uni01AC" unicode="&#x1ac;" horiz-adv-x="448" 
d="M489 659h-188l-92 -659h-23l93 659h-102q-45 0 -68 -24t-23 -64q0 -20 4 -34t11 -31l-18 -8q-9 18 -14 34t-5 39q0 49 30 79.5t83 30.5h319z" />
    <glyph glyph-name="uni01AD" unicode="&#x1ad;" horiz-adv-x="294" 
d="M160 521v-2h128l-6 -20h-125l-55 -387q-2 -20 -2 -28q0 -37 17.5 -55.5t50.5 -18.5q39 0 84 26l9 -16q-49 -30 -95 -30q-41 0 -64.5 24t-23.5 70q0 7 2 27l55 388h-78l3 20h78v2l12 91q9 62 40.5 93.5t79.5 31.5q46 0 87 -30l-12 -15q-36 25 -75 25q-83 0 -98 -106z" />
    <glyph glyph-name="uni01AE" unicode="&#x1ae;" horiz-adv-x="429" 
d="M177 -92q-2 -16 -2 -22q0 -32 15 -47t40 -15q39 0 72 24l11 -16q-37 -29 -83 -29q-37 0 -57.5 21.5t-20.5 61.5q0 6 2 22l13 92l92 659h-188l2 22h404l-7 -22h-188l-93 -659z" />
    <glyph glyph-name="Uhorn" unicode="&#x1af;" horiz-adv-x="576" 
d="M588 639.5q-20 -23.5 -64 -30.5l-59 -423q-11 -87 -65 -141.5t-148 -54.5q-84 0 -124.5 42.5t-40.5 114.5q0 19 3 40l69 494h23l-69 -493q-3 -21 -3 -39q0 -64 34.5 -100.5t107.5 -36.5q85 0 132.5 49.5t58.5 127.5l69 492h22l-8 -55q35 7 48.5 27t13.5 56q0 32 -7 50
l18 5q9 -29 9 -56q0 -45 -20 -68.5z" />
    <glyph glyph-name="uhorn" unicode="&#x1b0;" horiz-adv-x="527" 
d="M503 475q-20 -24 -64 -31l-63 -444h-17l21 157q-33 -77 -81.5 -122t-108.5 -45q-51 0 -79.5 31t-28.5 87q0 17 3 36l52 375h22l-52 -375q-3 -19 -3 -36q0 -48 22.5 -72.5t64.5 -24.5q59 0 107 50t85 138l45 320h22l-8 -57q34 7 47.5 26t13.5 56q0 28 -7 51l18 5
q9 -29 9 -56q0 -45 -20 -69z" />
    <glyph glyph-name="uni01B1" unicode="&#x1b1;" horiz-adv-x="634" 
d="M131 55q-52 65 -52 184q0 134 49 250t149 171h-120l3 21h152l-2 -21q-108 -55 -158 -172t-50 -250q0 -110 45.5 -168.5t128.5 -58.5q91 0 154 64t93.5 161.5t30.5 197.5q0 157 -110 226l3 21h152l-4 -21h-119q102 -71 102 -225q0 -107 -34 -209.5t-102.5 -169
t-165.5 -66.5q-93 0 -145 65z" />
    <glyph glyph-name="uni01B2" unicode="&#x1b2;" horiz-adv-x="568" 
d="M510 674.5q16 -16.5 16 -47.5q0 -6 -2 -20l-47 -333q-20 -140 -86.5 -212t-161.5 -72q-68 0 -106 39t-38 106q0 22 2 34l72 512h23l-72 -512q-3 -18 -3 -34q0 -58 32.5 -90.5t90.5 -32.5q86 0 146.5 67t78.5 199l46 329q2 14 2 20q0 45 -40 45q-18 0 -42 -11l-8 16
q26 14 53 14q28 0 44 -16.5z" />
    <glyph glyph-name="uni01B3" unicode="&#x1b3;" horiz-adv-x="463" 
d="M214 270l-136 411h24l126 -388l183 328q22 38 43 54t51 16q42 0 76 -38l-13 -13q-30 32 -63 32q-24 0 -40 -13t-35 -46l-193 -343l-39 -270h-22z" />
    <glyph glyph-name="uni01B4" unicode="&#x1b4;" horiz-adv-x="401" 
d="M-10 -177q48 15 77.5 35.5t50 52.5t45.5 89h-9l-95 519h23l89 -503l201 487q14 34 31.5 49t45.5 15q22 0 42 -10l-9 -18q-16 8 -33 8q-20 0 -33 -11t-24 -38l-208 -499q-26 -63 -50 -99t-56.5 -57.5t-85.5 -37.5z" />
    <glyph glyph-name="uni01B5" unicode="&#x1b5;" horiz-adv-x="457" 
d="M471 681l-2 -19l-212 -309h101l-4 -21h-112l-213 -310h339l-7 -22h-362l3 21l214 311h-104l3 21h116l211 307h-317l3 21h343z" />
    <glyph glyph-name="uni01B6" unicode="&#x1b6;" horiz-adv-x="370" 
d="M374 519l-3 -18l-161 -222h89l-3 -20h-101l-173 -238h275l-5 -21h-301l3 18l175 241h-94l3 20h106l160 220h-258l3 20h285z" />
    <glyph glyph-name="uni01B7" unicode="&#x1b7;" horiz-adv-x="424" 
d="M410 662l-255 -289h39q88 0 132.5 -39.5t44.5 -113.5q0 -66 -27 -118.5t-75.5 -82t-111.5 -29.5q-57 0 -96.5 21t-69.5 62l16 12q30 -38 64 -55.5t86 -17.5q57 0 100.5 26.5t67 74t23.5 107.5q0 132 -154 132h-68l3 21l251 288h-293l2 20h324z" />
    <glyph glyph-name="uni01B8" unicode="&#x1b8;" horiz-adv-x="425" 
d="M450 661h-296l173 -287l-2 -22h-70q-93 0 -146.5 -53.5t-53.5 -144.5q0 -66 37 -104t102 -38q54 0 93 17.5t80 55.5l14 -14q-41 -41 -85 -61t-103 -20q-73 0 -116.5 45t-43.5 119q0 100 61 159.5t163 59.5h47l-178 289l3 19h324z" />
    <glyph glyph-name="uni01B9" unicode="&#x1b9;" horiz-adv-x="402" 
d="M399 499h-282l159 -305l-3 -21l-7 7l6 -7h-46q-97 0 -152.5 -55t-55.5 -151q0 -65 34.5 -104t99.5 -39q48 0 87.5 17.5t75.5 55.5l14 -13q-38 -40 -80.5 -60.5t-96.5 -20.5q-73 0 -115 45.5t-42 118.5q0 105 63.5 166t170.5 61h23l-161 307l3 18h308z" />
    <glyph glyph-name="uni01BA" unicode="&#x1ba;" horiz-adv-x="399" 
d="M5 -155.5q-20 23.5 -20 55.5q0 47 39.5 73.5t126.5 40.5q90 16 132.5 46.5t42.5 97.5q0 46 -25 67.5t-76 21.5h-124l3 20l233 232h-269l2 20h303l-3 -18l-238 -234h95q60 0 91 -27.5t31 -80.5q0 -75 -47.5 -111.5t-145.5 -53.5q-82 -13 -115 -34.5t-33 -60.5
q0 -26 15.5 -44t49.5 -35l-9 -16q-39 17 -59 40.5z" />
    <glyph glyph-name="uni01BB" unicode="&#x1bb;" horiz-adv-x="419" 
d="M259 272q-74 -88 -228 -251l297 1l-8 -22h-320l4 22q164 173 228 250h-131l4 20h144q48 58 72 98t32.5 71t8.5 68q-1 58 -31.5 91t-84.5 33q-44 0 -80.5 -20t-72.5 -59l-15 13q41 44 81 65t87 21q64 0 101 -39t37 -104q1 -56 -21.5 -107t-87.5 -131h116l-3 -20h-129z" />
    <glyph glyph-name="uni01BC" unicode="&#x1bc;" horiz-adv-x="435" 
d="M9 69l17 13q24 -36 56.5 -53.5t79.5 -17.5q68 0 112 39.5t64 97.5t20 117q0 68 -31.5 104t-89.5 36q-36 0 -67 -10.5t-63 -30.5h-18l45 317h285l-7 -20h-260l-38 -275q59 39 124 39q69 0 106 -42.5t37 -118.5q0 -62 -22.5 -125t-72 -106t-125.5 -43q-100 0 -152 79z" />
    <glyph glyph-name="uni01BD" unicode="&#x1bd;" horiz-adv-x="380" 
d="M341 499h-207l-29 -203q45 30 95 30q55 0 85 -34t30 -94q0 -58 -22 -105.5t-62 -75t-91 -27.5q-78 0 -126 61l16 12q22 -26 48 -39t63 -13q45 0 79.5 24.5t53.5 67.5t19 95t-25 79.5t-70 27.5q-29 0 -51 -7t-50 -23h-17l35 244h233z" />
    <glyph glyph-name="uni01BE" unicode="&#x1be;" horiz-adv-x="441" 
d="M332.5 352.5q37.5 -38.5 38.5 -115.5q0 -68 -26.5 -123.5t-73.5 -87t-106 -31.5q-53 0 -89 20t-67 59l15 12q29 -34 61 -52t79 -18q53 0 95 29t65.5 79.5t23.5 112.5q0 68 -33 102t-86 48l-58 15l24 170h-57l3 20h57l20 141l22 3l-20 -144h113l-3 -20h-113l-21 -155
l38 -10q61 -16 98.5 -54.5z" />
    <glyph glyph-name="uni01BF" unicode="&#x1bf;" horiz-adv-x="509" 
d="M425 492q35 -37 35 -104q0 -120 -78 -203t-218 -157l-75 -40l-26 -181l-22 -4l101 716h19l-9 -82q41 45 84 68.5t94 23.5q60 0 95 -37zM364.5 196.5q72.5 78.5 72.5 190.5q0 59 -29 90.5t-80 31.5t-95 -26t-85 -74l-56 -399l67 37q133 71 205.5 149.5z" />
    <glyph glyph-name="uni01C0" unicode="&#x1c0;" horiz-adv-x="242" 
d="M198 736l-103 -736h-22l104 733z" />
    <glyph glyph-name="uni01C1" unicode="&#x1c1;" horiz-adv-x="378" 
d="M198 736l-103 -736h-22l104 733zM334 736l-103 -736h-22l104 733z" />
    <glyph glyph-name="uni01C2" unicode="&#x1c2;" horiz-adv-x="287" 
d="M279 430h-103l-18 -131h101l-2 -18h-102l-39 -281h-22l40 281h-98l3 18h97l19 131h-97l2 18h98l40 285l21 3l-40 -288h102z" />
    <glyph glyph-name="uni01C3" unicode="&#x1c3;" horiz-adv-x="266" 
d="M210 736l-76 -544h-21l76 541zM81.5 -2q-5.5 6 -5.5 15q0 10 7 17t17 7t16 -6t6 -15q0 -10 -7 -17t-18 -7q-10 0 -15.5 6z" />
    <glyph glyph-name="uni01C4" unicode="&#x1c4;" horiz-adv-x="999" 
d="M517 445q0 -116 -33 -216.5t-107 -164.5t-189 -64h-115l96 681h121q227 0 227 -236zM189 660l-90 -639h93q107 0 174.5 61.5t97.5 157.5t30 205q0 122 -56.5 168.5t-149.5 46.5h-99zM541 0l3 21l440 639h-317l3 21h343l-2 -19l-440 -640h339l-7 -22h-362zM958 862l10 -12
l-121 -90h-12l-95 90l12 12l91 -78z" />
    <glyph glyph-name="uni01C5" unicode="&#x1c5;" horiz-adv-x="927" 
d="M517 445q0 -116 -33 -216.5t-107 -164.5t-189 -64h-115l96 681h121q227 0 227 -236zM189 660l-90 -639h93q107 0 174.5 61.5t97.5 157.5t30 205q0 122 -56.5 168.5t-149.5 46.5h-99zM931 519l-3 -18l-349 -480h275l-5 -21h-301l3 18l350 481h-258l3 20h285zM922 749
l11 -13l-122 -95h-12l-95 95l13 13l90 -84z" />
    <glyph glyph-name="uni01C6" unicode="&#x1c6;" horiz-adv-x="883" 
d="M474 733l-103 -733h-18l15 128q-34 -62 -76 -100t-98 -38q-63 0 -99.5 49.5t-36.5 137.5q0 80 24.5 161.5t75.5 136t127 54.5q89 0 127 -82l40 289zM171.5 458q-46.5 -51 -68.5 -127.5t-22 -152.5q0 -79 30 -123t83 -44q55 0 96.5 41t83.5 119l34 246q-36 92 -122 92
q-68 0 -114.5 -51zM887 519l-3 -18l-349 -480h275l-5 -21h-301l3 18l350 481h-258l3 20h285zM878 749l11 -13l-122 -95h-12l-95 95l13 13l90 -84z" />
    <glyph glyph-name="uni01C7" unicode="&#x1c7;" horiz-adv-x="645" 
d="M192 681l-93 -659h260l-8 -22h-278l96 681h23zM516 87q-8 -53 -22 -85t-42.5 -55t-81.5 -47l-6 17q47 22 72 43t37.5 51t19.5 79l83 591h23z" />
    <glyph glyph-name="uni01C8" unicode="&#x1c8;" horiz-adv-x="624" 
d="M192 681l-93 -659h260l-8 -22h-278l96 681h23zM345 -178q37 20 58.5 39.5t35 52t21.5 88.5l73 517h22l-73 -518q-8 -60 -24 -95.5t-40 -57t-66 -43.5zM556 690q-5 5 -5 12q0 9 5.5 15t15.5 6q8 0 13 -4.5t5 -12.5t-6 -14.5t-16 -6.5q-7 0 -12 5z" />
    <glyph glyph-name="uni01C9" unicode="&#x1c9;" horiz-adv-x="483" 
d="M96 68q-2 -12 -2 -18q0 -39 39 -39q17 0 36 7l6 -18q-26 -10 -44 -10q-28 0 -43 15.5t-15 45.5q0 12 1 18l93 664l22 3zM204 -178q37 20 58.5 39.5t35 52t21.5 88.5l73 517h22l-73 -518q-8 -60 -24 -95.5t-40 -57t-66 -43.5zM415 690q-5 5 -5 12q0 9 5.5 15t15.5 6
q8 0 13 -4.5t5 -12.5t-6 -14.5t-16 -6.5q-7 0 -12 5z" />
    <glyph glyph-name="uni01CA" unicode="&#x1ca;" horiz-adv-x="851" 
d="M449 0h-28l-237 658q-4 -58 -22 -182l-67 -476h-22l96 681h29l236 -656q14 114 23 180l66 476h22zM722 87q-8 -53 -22 -85t-42.5 -55t-81.5 -47l-6 17q47 22 72 43t37.5 51t19.5 79l83 591h23z" />
    <glyph glyph-name="uni01CB" unicode="&#x1cb;" horiz-adv-x="830" 
d="M449 0h-28l-237 658q-4 -58 -22 -182l-67 -476h-22l96 681h29l236 -656q14 114 23 180l66 476h22zM551 -178q37 20 58.5 39.5t35 52t21.5 88.5l73 517h22l-73 -518q-8 -60 -24 -95.5t-40 -57t-66 -43.5zM762 690q-5 5 -5 12q0 9 5.5 15t15.5 6q8 0 13 -4.5t5 -12.5
t-6 -14.5t-16 -6.5q-7 0 -12 5z" />
    <glyph glyph-name="uni01CC" unicode="&#x1cc;" horiz-adv-x="757" 
d="M414 498.5q27 -30.5 27 -86.5q0 -18 -3 -39l-52 -373h-22l52 371q3 21 3 40q0 99 -85 99q-55 0 -103.5 -48.5t-94.5 -140.5l-45 -321h-22l73 519h19l-20 -155q42 82 90 123.5t104 41.5q52 0 79 -30.5zM478 -178q37 20 58.5 39.5t35 52t21.5 88.5l73 517h22l-73 -518
q-8 -60 -24 -95.5t-40 -57t-66 -43.5zM689 690q-5 5 -5 12q0 9 5.5 15t15.5 6q8 0 13 -4.5t5 -12.5t-6 -14.5t-16 -6.5q-7 0 -12 5z" />
    <glyph glyph-name="uni01CD" unicode="&#x1cd;" horiz-adv-x="509" 
d="M421 0l-34 203h-281l-91 -203h-24l308 681h28l118 -681h-24zM115 224h269l-73 438zM441 862l10 -12l-121 -90h-12l-95 90l12 12l91 -78z" />
    <glyph glyph-name="uni01CE" unicode="&#x1ce;" horiz-adv-x="499" 
d="M432 492l-54 -380q-5 -33 -5 -50q0 -21 7 -34t23 -21l-7 -17q-22 10 -32.5 28t-10.5 48q0 9 2 29q-29 -49 -69 -77t-87 -28q-66 0 -103.5 50.5t-37.5 137.5q0 82 26 163t81.5 134.5t138.5 53.5q69 0 128 -37zM178 459q-50 -51 -73.5 -127t-23.5 -153q0 -79 31 -123.5
t88 -44.5q91 0 159 120l50 351q-46 28 -105 28q-76 0 -126 -51zM443 749l11 -13l-122 -95h-12l-95 95l13 13l90 -84z" />
    <glyph glyph-name="uni01CF" unicode="&#x1cf;" horiz-adv-x="243" 
d="M192 681l-96 -681h-23l96 681h23zM309 862l10 -12l-121 -90h-12l-95 90l12 12l91 -78z" />
    <glyph glyph-name="uni01D0" unicode="&#x1d0;" horiz-adv-x="233" 
d="M164 519l-73 -519h-22l73 519h22zM287 749l11 -13l-122 -95h-12l-95 95l13 13l90 -84z" />
    <glyph glyph-name="uni01D1" unicode="&#x1d1;" horiz-adv-x="623" 
d="M521 627q52 -64 52 -184q0 -102 -30.5 -206t-98.5 -175.5t-174 -71.5q-93 0 -145 65.5t-52 185.5q0 99 31.5 203t100 175.5t171.5 71.5q93 0 145 -64zM216.5 602q-62.5 -69 -91 -168.5t-28.5 -193.5q0 -111 45.5 -169.5t127.5 -58.5q101 0 163.5 69.5t89.5 168.5t27 193
q0 111 -45.5 169.5t-128.5 58.5q-97 0 -159.5 -69zM504 862l10 -12l-121 -90h-12l-95 90l12 12l91 -78z" />
    <glyph glyph-name="uni01D2" unicode="&#x1d2;" horiz-adv-x="506" 
d="M99 41.5q-40 51.5 -40 142.5q0 78 24.5 157.5t77 133.5t133.5 54q73 0 113.5 -50t40.5 -142q0 -77 -24 -157t-77 -135t-134 -55q-74 0 -114 51.5zM334.5 63q47.5 52 69 127.5t21.5 147.5q0 83 -34 127t-97 44q-74 0 -122 -52t-69 -127.5t-21 -146.5q0 -83 34 -127.5
t97 -44.5q74 0 121.5 52zM428 749l11 -13l-122 -95h-12l-95 95l13 13l90 -84z" />
    <glyph glyph-name="uni01D3" unicode="&#x1d3;" horiz-adv-x="576" 
d="M465 186q-11 -87 -65 -141.5t-148 -54.5q-84 0 -124.5 42.5t-40.5 114.5q0 19 3 40l69 494h23l-69 -493q-3 -21 -3 -39q0 -64 34.5 -100.5t107.5 -36.5q85 0 132.5 49.5t58.5 127.5l69 492h22zM475 862l10 -12l-121 -90h-12l-95 90l12 12l91 -78z" />
    <glyph glyph-name="uni01D4" unicode="&#x1d4;" horiz-adv-x="519" 
d="M110.5 21q-28.5 31 -28.5 87q0 17 3 36l52 375h22l-52 -375q-3 -19 -3 -36q0 -48 22.5 -72.5t64.5 -24.5q59 0 107 50t85 138l45 320h22l-74 -519h-17l21 157q-33 -77 -81.5 -122t-108.5 -45q-51 0 -79.5 31zM428 749l11 -13l-122 -95h-12l-95 95l13 13l90 -84z" />
    <glyph glyph-name="uni01D5" unicode="&#x1d5;" horiz-adv-x="576" 
d="M465 186q-11 -87 -65 -141.5t-148 -54.5q-84 0 -124.5 42.5t-40.5 114.5q0 19 3 40l69 494h23l-69 -493q-3 -21 -3 -39q0 -64 34.5 -100.5t107.5 -36.5q85 0 132.5 49.5t58.5 127.5l69 492h22zM265.5 746.5q-4.5 4.5 -4.5 12.5q0 9 5.5 15t15.5 6q7 0 12 -4.5t5 -12.5
q0 -9 -6 -15t-15 -6q-8 0 -12.5 4.5zM416 746.5q-5 4.5 -5 12.5q0 9 5.5 15t15.5 6q8 0 12.5 -4.5t4.5 -12.5q0 -9 -5.5 -15t-14.5 -6q-8 0 -13 4.5zM458 850h-188l3 21h188z" />
    <glyph glyph-name="uni01D6" unicode="&#x1d6;" horiz-adv-x="519" 
d="M110.5 21q-28.5 31 -28.5 87q0 17 3 36l52 375h22l-52 -375q-3 -19 -3 -36q0 -48 22.5 -72.5t64.5 -24.5q59 0 107 50t85 138l45 320h22l-74 -519h-17l21 157q-33 -77 -81.5 -122t-108.5 -45q-51 0 -79.5 31zM222.5 647.5q-4.5 4.5 -4.5 12.5q0 9 5.5 15t15.5 6
q7 0 12 -4.5t5 -12.5q0 -9 -6 -15t-15 -6q-8 0 -12.5 4.5zM373 647.5q-5 4.5 -5 12.5q0 9 5.5 15t15.5 6q8 0 12.5 -4.5t4.5 -12.5q0 -9 -5.5 -15t-14.5 -6q-8 0 -13 4.5zM416 753h-188l3 21h188z" />
    <glyph glyph-name="uni01D7" unicode="&#x1d7;" horiz-adv-x="576" 
d="M465 186q-11 -87 -65 -141.5t-148 -54.5q-84 0 -124.5 42.5t-40.5 114.5q0 19 3 40l69 494h23l-69 -493q-3 -21 -3 -39q0 -64 34.5 -100.5t107.5 -36.5q85 0 132.5 49.5t58.5 127.5l69 492h22zM450 921l17 -17l-110 -112l-11 11zM265 747.5q-5 4.5 -5 12.5q0 9 6 15t15 6
q8 0 13 -4.5t5 -12.5q0 -9 -6 -15t-15 -6q-8 0 -13 4.5zM416 748q-5 5 -5 12q0 9 6 15t15 6q8 0 12.5 -4.5t4.5 -12.5q0 -9 -6 -15t-15 -6q-7 0 -12 5z" />
    <glyph glyph-name="uni01D8" unicode="&#x1d8;" horiz-adv-x="519" 
d="M110.5 21q-28.5 31 -28.5 87q0 17 3 36l52 375h22l-52 -375q-3 -19 -3 -36q0 -48 22.5 -72.5t64.5 -24.5q59 0 107 50t85 138l45 320h22l-74 -519h-17l21 157q-33 -77 -81.5 -122t-108.5 -45q-51 0 -79.5 31zM405 821l17 -17l-110 -112l-11 11zM219.5 648q-4.5 5 -4.5 12
q0 9 6 15.5t15 6.5q7 0 12 -5t5 -12q0 -9 -6 -15.5t-15 -6.5q-8 0 -12.5 5zM370 648q-5 5 -5 12q0 9 6 15.5t15 6.5q8 0 12.5 -5t4.5 -12q0 -9 -5.5 -15.5t-14.5 -6.5q-8 0 -13 5z" />
    <glyph glyph-name="uni01D9" unicode="&#x1d9;" horiz-adv-x="576" 
d="M465 186q-11 -87 -65 -141.5t-148 -54.5q-84 0 -124.5 42.5t-40.5 114.5q0 19 3 40l69 494h23l-69 -493q-3 -21 -3 -39q0 -64 34.5 -100.5t107.5 -36.5q85 0 132.5 49.5t58.5 127.5l69 492h22zM475 893l10 -12l-121 -90h-12l-95 90l12 12l91 -78zM265 747.5
q-5 4.5 -5 12.5q0 9 6 15t15 6q8 0 13 -4.5t5 -12.5q0 -9 -6 -15t-15 -6q-8 0 -13 4.5zM416 748q-5 5 -5 12q0 9 6 15t15 6q8 0 12.5 -4.5t4.5 -12.5q0 -9 -6 -15t-15 -6q-7 0 -12 5z" />
    <glyph glyph-name="uni01DA" unicode="&#x1da;" horiz-adv-x="519" 
d="M110.5 21q-28.5 31 -28.5 87q0 17 3 36l52 375h22l-52 -375q-3 -19 -3 -36q0 -48 22.5 -72.5t64.5 -24.5q59 0 107 50t85 138l45 320h22l-74 -519h-17l21 157q-33 -77 -81.5 -122t-108.5 -45q-51 0 -79.5 31zM430 793l10 -12l-121 -90h-12l-95 90l12 12l91 -78z
M221.5 648q-4.5 5 -4.5 12q0 9 6 15.5t15 6.5q7 0 12 -5t5 -12q0 -9 -6 -15.5t-15 -6.5q-8 0 -12.5 5zM372 648q-5 5 -5 12q0 9 6 15.5t15 6.5q8 0 12.5 -5t4.5 -12q0 -9 -5.5 -15.5t-14.5 -6.5q-8 0 -13 5z" />
    <glyph glyph-name="uni01DB" unicode="&#x1db;" horiz-adv-x="576" 
d="M465 186q-11 -87 -65 -141.5t-148 -54.5q-84 0 -124.5 42.5t-40.5 114.5q0 19 3 40l69 494h23l-69 -493q-3 -21 -3 -39q0 -64 34.5 -100.5t107.5 -36.5q85 0 132.5 49.5t58.5 127.5l69 492h22zM297 921l71 -120l-13 -9l-79 115zM265.5 747.5q-4.5 4.5 -4.5 12.5q0 9 6 15
t15 6q8 0 12.5 -4.5t4.5 -12.5q0 -9 -6 -15t-15 -6q-8 0 -12.5 4.5zM416 747.5q-5 4.5 -5 12.5q0 9 6 15t15 6q8 0 13 -4.5t5 -12.5t-6 -14.5t-15 -6.5q-8 0 -13 4.5z" />
    <glyph glyph-name="uni01DC" unicode="&#x1dc;" horiz-adv-x="519" 
d="M110.5 21q-28.5 31 -28.5 87q0 17 3 36l52 375h22l-52 -375q-3 -19 -3 -36q0 -48 22.5 -72.5t64.5 -24.5q59 0 107 50t85 138l45 320h22l-74 -519h-17l21 157q-33 -77 -81.5 -122t-108.5 -45q-51 0 -79.5 31zM253 821l71 -120l-13 -9l-79 115zM222 648q-5 5 -5 12
q0 9 6 15.5t15 6.5q8 0 13 -5t5 -12q0 -9 -6 -15.5t-15 -6.5q-8 0 -13 5zM373 648q-5 5 -5 12q0 9 6 15.5t15 6.5q8 0 12.5 -5t4.5 -12q0 -9 -6 -15.5t-15 -6.5q-7 0 -12 5z" />
    <glyph glyph-name="uni01DD" unicode="&#x1dd;" horiz-adv-x="462" 
d="M363 479.5q40 -49.5 40 -142.5q0 -82 -26.5 -162t-81.5 -132.5t-135 -52.5q-59 0 -93.5 30.5t-34.5 83.5q0 91 90.5 140.5t257.5 60.5q1 10 1 31q0 85 -35 128.5t-96 43.5q-40 0 -72 -13.5t-69 -41.5l-12 15q39 31 75 46t78 15q73 0 113 -49.5zM272.5 49.5
q46.5 39.5 72 102t33.5 133.5q-324 -21 -324 -181q0 -44 27.5 -69t79.5 -25q65 0 111.5 39.5z" />
    <glyph glyph-name="uni01DE" unicode="&#x1de;" horiz-adv-x="509" 
d="M421 0l-34 203h-281l-91 -203h-24l308 681h28l118 -681h-24zM115 224h269l-73 438zM231.5 746.5q-4.5 4.5 -4.5 12.5q0 9 5.5 15t15.5 6q7 0 12 -4.5t5 -12.5q0 -9 -6 -15t-15 -6q-8 0 -12.5 4.5zM382 746.5q-5 4.5 -5 12.5q0 9 5.5 15t15.5 6q8 0 12.5 -4.5t4.5 -12.5
q0 -9 -5.5 -15t-14.5 -6q-8 0 -13 4.5zM424 850h-188l3 21h188z" />
    <glyph glyph-name="uni01DF" unicode="&#x1df;" horiz-adv-x="499" 
d="M432 492l-54 -380q-5 -33 -5 -50q0 -21 7 -34t23 -21l-7 -17q-22 10 -32.5 28t-10.5 48q0 9 2 29q-29 -49 -69 -77t-87 -28q-66 0 -103.5 50.5t-37.5 137.5q0 82 26 163t81.5 134.5t138.5 53.5q69 0 128 -37zM178 459q-50 -51 -73.5 -127t-23.5 -153q0 -79 31 -123.5
t88 -44.5q91 0 159 120l50 351q-46 28 -105 28q-76 0 -126 -51zM237.5 647.5q-4.5 4.5 -4.5 12.5q0 9 5.5 15t15.5 6q7 0 12 -4.5t5 -12.5q0 -9 -6 -15t-15 -6q-8 0 -12.5 4.5zM388 647.5q-5 4.5 -5 12.5q0 9 5.5 15t15.5 6q8 0 12.5 -4.5t4.5 -12.5q0 -9 -5.5 -15t-14.5 -6
q-8 0 -13 4.5zM431 753h-188l3 21h188z" />
    <glyph glyph-name="uni01E0" unicode="&#x1e0;" horiz-adv-x="509" 
d="M421 0l-34 203h-281l-91 -203h-24l308 681h28l118 -681h-24zM115 224h269l-73 438zM307 752q-5 5 -5 12q0 9 5.5 15t15.5 6q8 0 13 -4.5t5 -12.5t-6 -14.5t-16 -6.5q-7 0 -12 5zM425 849h-188l3 21h188z" />
    <glyph glyph-name="uni01E1" unicode="&#x1e1;" horiz-adv-x="499" 
d="M432 492l-54 -380q-5 -33 -5 -50q0 -21 7 -34t23 -21l-7 -17q-22 10 -32.5 28t-10.5 48q0 9 2 29q-29 -49 -69 -77t-87 -28q-66 0 -103.5 50.5t-37.5 137.5q0 82 26 163t81.5 134.5t138.5 53.5q69 0 128 -37zM178 459q-50 -51 -73.5 -127t-23.5 -153q0 -79 31 -123.5
t88 -44.5q91 0 159 120l50 351q-46 28 -105 28q-76 0 -126 -51zM312 637q-5 5 -5 12q0 9 5.5 15t15.5 6q8 0 13 -4.5t5 -12.5t-6 -14.5t-16 -6.5q-7 0 -12 5zM431 745h-188l3 21h188z" />
    <glyph glyph-name="uni01E2" unicode="&#x1e2;" horiz-adv-x="684" 
d="M651 660h-307l28 -290h235l-3 -21h-230l31 -328h208l-4 -21h-224l-18 196h-271l-95 -196h-24l334 681h346zM365 217l-42 446l-217 -446h259zM576 811h-188l3 21h188z" />
    <glyph glyph-name="uni01E3" unicode="&#x1e3;" horiz-adv-x="740" 
d="M351 497q34 -32 42 -89q25 50 73 85.5t113 35.5q59 0 94 -31t35 -83q0 -91 -90.5 -140.5t-257.5 -60.5q-5 -92 26.5 -147.5t102.5 -55.5q40 0 72.5 13.5t69.5 41.5l11 -15q-38 -31 -74 -46t-79 -15q-54 0 -91 29t-51 85q-48 -61 -92.5 -87.5t-95.5 -26.5q-59 0 -92 35.5
t-33 94.5q0 76 51 127.5t157 51.5h108q12 48 27 81q-4 62 -35 95.5t-84 33.5q-58 0 -133 -32l-6 18q77 34 140 34q58 0 92 -32zM465.5 468q-46.5 -41 -71.5 -103.5t-32 -130.5q324 21 324 181q0 44 -28.5 69t-79.5 25q-66 0 -112.5 -41zM244 279q-98 0 -143 -44.5
t-45 -114.5q0 -50 27.5 -79.5t75.5 -29.5q50 0 93.5 27.5t88.5 88.5q-5 28 -5 57q0 45 10 95h-102zM519 685h-188l3 21h188z" />
    <glyph glyph-name="uni01E4" unicode="&#x1e4;" horiz-adv-x="553" 
d="M543 212h-70l-24 -172q-39 -23 -84 -36.5t-87 -13.5q-97 0 -150.5 65t-53.5 188q0 114 35 217t104 167t165 64q45 0 80 -14.5t68 -44.5l-16 -15q-29 28 -60 40.5t-73 12.5q-90 0 -153 -61.5t-95 -159.5t-32 -207q0 -114 47 -172t134 -58q77 0 150 41l23 159h-127l2 21
h128l14 100h-130v21h155l-17 -121h69z" />
    <glyph glyph-name="uni01E5" unicode="&#x1e5;" horiz-adv-x="472" 
d="M351 -60h68l-3 -20h-71q-43 -117 -162 -117q-80 0 -146 47l10 15q65 -43 136 -43q101 0 139 98h-127l3 20h131q6 17 11 51l16 114q-29 -49 -69 -77t-86 -28q-67 0 -104.5 51t-37.5 138q0 79 26 157t81.5 130.5t138.5 52.5q69 0 128 -37l-71 -500q-5 -34 -11 -52zM361 141
l49 341q-44 28 -105 28q-76 0 -126 -49.5t-73.5 -123.5t-23.5 -148q0 -77 31.5 -122.5t88.5 -45.5q91 0 159 120z" />
    <glyph glyph-name="Gcaron" unicode="&#x1e6;" horiz-adv-x="546" 
d="M458 676.5q35 -14.5 68 -44.5l-16 -15q-29 28 -60 40.5t-73 12.5q-90 0 -153 -61.5t-95 -159.5t-32 -207q0 -114 47 -172t134 -58q77 0 150 41l40 280h-130v21h155l-44 -314q-39 -23 -84 -36.5t-87 -13.5q-97 0 -150.5 65t-53.5 188q0 114 35 217t104 167t165 64
q45 0 80 -14.5zM504 862l10 -12l-121 -90h-12l-95 90l12 12l91 -78z" />
    <glyph glyph-name="gcaron" unicode="&#x1e7;" horiz-adv-x="501" 
d="M433 492l-71 -500q-14 -101 -61.5 -145t-117.5 -44q-80 0 -146 47l10 15q65 -43 136 -43q133 0 157 169l16 114q-29 -49 -69 -77t-86 -28q-67 0 -104.5 51t-37.5 138q0 79 26 157t81.5 130.5t138.5 52.5q69 0 128 -37zM179 460.5q-50 -49.5 -73.5 -123.5t-23.5 -148
q0 -77 31.5 -122.5t88.5 -45.5q91 0 159 120l49 341q-44 28 -105 28q-76 0 -126 -49.5zM431 749l11 -13l-122 -95h-12l-95 95l13 13l90 -84z" />
    <glyph glyph-name="uni01E8" unicode="&#x1e8;" horiz-adv-x="466" 
d="M73 0l96 681h23l-96 -681h-23zM395 0l-245 367l326 314h27l-326 -316l244 -365h-26zM448 862l10 -12l-121 -90h-12l-95 90l12 12l91 -78z" />
    <glyph glyph-name="uni01E9" unicode="&#x1e9;" horiz-adv-x="461" 
d="M140 348q84 181 197 181q47 0 73 -27.5t26 -72.5q0 -130 -169 -188l106 -241h-23l-109 250q173 55 173 179q0 38 -19.5 59.5t-59.5 21.5q-56 0 -106 -54.5t-96 -157.5l-42 -298h-22l103 733l22 3zM454 913l10 -12l-121 -90h-12l-95 90l12 12l91 -78z" />
    <glyph glyph-name="uni01EA" unicode="&#x1ea;" horiz-adv-x="623" 
d="M240.5 -59q-31.5 -29 -31.5 -70q0 -52 56 -52q21 0 50 7l-5 -22q-27 -7 -47 -7q-36 0 -56.5 18.5t-20.5 51.5q0 40 24.5 69t73.5 54h-14q-93 0 -145 65.5t-52 185.5q0 99 31.5 203t100 175.5t171.5 71.5q93 0 145 -64t52 -184q0 -89 -24 -183t-77 -166.5t-135 -94.5
q-65 -29 -96.5 -58zM142.5 70.5q45.5 -58.5 127.5 -58.5q101 0 163.5 69.5t89.5 168.5t27 193q0 111 -45.5 169.5t-128.5 58.5q-97 0 -159.5 -69t-91 -168.5t-28.5 -193.5q0 -111 45.5 -169.5z" />
    <glyph glyph-name="uni01EB" unicode="&#x1eb;" horiz-adv-x="506" 
d="M174 -59q-31 -29 -31 -70q0 -52 56 -52q21 0 50 7l-5 -22q-27 -7 -47 -7q-36 0 -56.5 18.5t-20.5 51.5q0 40 24.5 69t73.5 54h-5q-74 0 -114 51.5t-40 142.5q0 78 24.5 157.5t77 133.5t133.5 54q73 0 113.5 -50t40.5 -142q0 -67 -18.5 -138t-58.5 -126.5t-101 -74.5
q-65 -28 -96 -57zM116 55.5q34 -44.5 97 -44.5q74 0 121.5 52t69 127.5t21.5 147.5q0 83 -34 127t-97 44q-74 0 -122 -52t-69 -127.5t-21 -146.5q0 -83 34 -127.5z" />
    <glyph glyph-name="uni01EC" unicode="&#x1ec;" horiz-adv-x="623" 
d="M490 832l-3 -21h-188l3 21h188zM240.5 -59q-31.5 -29 -31.5 -70q0 -52 56 -52q21 0 50 7l-5 -22q-27 -7 -47 -7q-36 0 -56.5 18.5t-20.5 51.5q0 40 24.5 69t73.5 54h-14q-93 0 -145 65.5t-52 185.5q0 99 31.5 203t100 175.5t171.5 71.5q93 0 145 -64t52 -184
q0 -89 -24 -183t-77 -166.5t-135 -94.5q-65 -29 -96.5 -58zM142.5 70.5q45.5 -58.5 127.5 -58.5q101 0 163.5 69.5t89.5 168.5t27 193q0 111 -45.5 169.5t-128.5 58.5q-97 0 -159.5 -69t-91 -168.5t-28.5 -193.5q0 -111 45.5 -169.5z" />
    <glyph glyph-name="uni01ED" unicode="&#x1ed;" horiz-adv-x="506" 
d="M413 706l-3 -21h-188l3 21h188zM174 -59q-31 -29 -31 -70q0 -52 56 -52q21 0 50 7l-5 -22q-27 -7 -47 -7q-36 0 -56.5 18.5t-20.5 51.5q0 40 24.5 69t73.5 54h-5q-74 0 -114 51.5t-40 142.5q0 78 24.5 157.5t77 133.5t133.5 54q73 0 113.5 -50t40.5 -142
q0 -67 -18.5 -138t-58.5 -126.5t-101 -74.5q-65 -28 -96 -57zM116 55.5q34 -44.5 97 -44.5q74 0 121.5 52t69 127.5t21.5 147.5q0 83 -34 127t-97 44q-74 0 -122 -52t-69 -127.5t-21 -146.5q0 -83 34 -127.5z" />
    <glyph glyph-name="uni01EE" unicode="&#x1ee;" horiz-adv-x="424" 
d="M410 662l-255 -289h39q88 0 132.5 -39.5t44.5 -113.5q0 -66 -27 -118.5t-75.5 -82t-111.5 -29.5q-57 0 -96.5 21t-69.5 62l16 12q30 -38 64 -55.5t86 -17.5q57 0 100.5 26.5t67 74t23.5 107.5q0 132 -154 132h-68l3 21l251 288h-293l2 20h324zM379 862l10 -12l-121 -90
h-12l-95 90l12 12l91 -78z" />
    <glyph glyph-name="uni01EF" unicode="&#x1ef;" horiz-adv-x="401" 
d="M377 501l-244 -308h20q181 0 181 -152q0 -69 -26.5 -123.5t-74.5 -84.5t-110 -30q-52 0 -89.5 21t-66.5 61l16 12q28 -38 61.5 -55.5t78.5 -17.5q86 0 137 60t51 156q0 69 -39 101t-120 32h-47l3 21l240 305h-279l3 20h307zM360 749l11 -13l-122 -95h-12l-95 95l13 13
l90 -84z" />
    <glyph glyph-name="uni01F0" unicode="&#x1f0;" horiz-adv-x="234" 
d="M-45 -178q37 20 58.5 39.5t35 52t21.5 88.5l73 517h22l-73 -518q-8 -60 -24 -95.5t-40 -57t-66 -43.5zM288 749l11 -13l-122 -95h-12l-95 95l13 13l90 -84z" />
    <glyph glyph-name="uni01F1" unicode="&#x1f1;" horiz-adv-x="999" 
d="M517 445q0 -116 -33 -216.5t-107 -164.5t-189 -64h-115l96 681h121q227 0 227 -236zM189 660l-90 -639h93q107 0 174.5 61.5t97.5 157.5t30 205q0 122 -56.5 168.5t-149.5 46.5h-99zM541 0l3 21l440 639h-317l3 21h343l-2 -19l-440 -640h339l-7 -22h-362z" />
    <glyph glyph-name="uni01F2" unicode="&#x1f2;" horiz-adv-x="927" 
d="M517 445q0 -116 -33 -216.5t-107 -164.5t-189 -64h-115l96 681h121q227 0 227 -236zM189 660l-90 -639h93q107 0 174.5 61.5t97.5 157.5t30 205q0 122 -56.5 168.5t-149.5 46.5h-99zM931 519l-3 -18l-349 -480h275l-5 -21h-301l3 18l350 481h-258l3 20h285z" />
    <glyph glyph-name="uni01F3" unicode="&#x1f3;" horiz-adv-x="883" 
d="M474 733l-103 -733h-18l15 128q-34 -62 -76 -100t-98 -38q-63 0 -99.5 49.5t-36.5 137.5q0 80 24.5 161.5t75.5 136t127 54.5q89 0 127 -82l40 289zM171.5 458q-46.5 -51 -68.5 -127.5t-22 -152.5q0 -79 30 -123t83 -44q55 0 96.5 41t83.5 119l34 246q-36 92 -122 92
q-68 0 -114.5 -51zM887 519l-3 -18l-349 -480h275l-5 -21h-301l3 18l350 481h-258l3 20h285z" />
    <glyph glyph-name="uni01F4" unicode="&#x1f4;" horiz-adv-x="546" 
d="M458 676.5q35 -14.5 68 -44.5l-16 -15q-29 28 -60 40.5t-73 12.5q-90 0 -153 -61.5t-95 -159.5t-32 -207q0 -114 47 -172t134 -58q77 0 150 41l40 280h-130v21h155l-44 -314q-39 -23 -84 -36.5t-87 -13.5q-97 0 -150.5 65t-53.5 188q0 114 35 217t104 167t165 64
q45 0 80 -14.5zM468 860l10 -24l-172 -72l-7 15z" />
    <glyph glyph-name="uni01F5" unicode="&#x1f5;" horiz-adv-x="501" 
d="M433 492l-71 -500q-14 -101 -61.5 -145t-117.5 -44q-80 0 -146 47l10 15q65 -43 136 -43q133 0 157 169l16 114q-29 -49 -69 -77t-86 -28q-67 0 -104.5 51t-37.5 138q0 79 26 157t81.5 130.5t138.5 52.5q69 0 128 -37zM179 460.5q-50 -49.5 -73.5 -123.5t-23.5 -148
q0 -77 31.5 -122.5t88.5 -45.5q91 0 159 120l49 341q-44 28 -105 28q-76 0 -126 -49.5zM404 761l9 -23l-173 -84l-7 15z" />
    <glyph glyph-name="uni01F6" unicode="&#x1f6;" horiz-adv-x="863" 
d="M475.5 24.5q-31.5 34.5 -31.5 89.5q0 20 2 31l29 206h-329l-50 -351h-23l96 681h23l-44 -309h330l43 309h23l-76 -536q-2 -20 -2 -29q0 -49 26 -77t76 -28q114 0 158 125.5t44 301.5q0 29 -2 81h21q3 -39 3 -81q0 -189 -49 -318.5t-177 -129.5q-59 0 -90.5 34.5z" />
    <glyph glyph-name="uni01F7" unicode="&#x1f7;" horiz-adv-x="500" 
d="M453 652.5q37 -38.5 37 -106.5q0 -111 -67 -175t-190 -109l-105 -38l-32 -224h-23l96 681h23l-9 -61q37 33 78 52t91 19q64 0 101 -38.5zM406.5 384q60.5 60 60.5 162q0 60 -31 92t-85 32q-51 0 -92 -20t-79 -54l-49 -351l102 38q113 41 173.5 101z" />
    <glyph glyph-name="uni01F8" unicode="&#x1f8;" horiz-adv-x="596" 
d="M449 0h-28l-237 658q-4 -58 -22 -182l-67 -476h-22l96 681h29l236 -656q14 114 23 180l66 476h22zM316 859l145 -81l-9 -14l-150 72z" />
    <glyph glyph-name="uni01F9" unicode="&#x1f9;" horiz-adv-x="523" 
d="M414 498.5q27 -30.5 27 -86.5q0 -18 -3 -39l-52 -373h-22l52 371q3 21 3 40q0 99 -85 99q-55 0 -103.5 -48.5t-94.5 -140.5l-45 -321h-22l73 519h19l-20 -155q42 82 90 123.5t104 41.5q52 0 79 -30.5zM270 760l145 -92l-10 -14l-149 84z" />
    <glyph glyph-name="Aringacute" unicode="&#x1fa;" horiz-adv-x="509" 
d="M421 0l-34 203h-281l-91 -203h-24l308 681h28l118 -681h-24zM115 224h269l-73 438zM382 869q17 -18 17 -48q0 -41 -23.5 -66t-59.5 -25q-29 0 -46.5 18.5t-17.5 47.5q0 41 23.5 66t59.5 25q30 0 47 -18zM289.5 849q-16.5 -20 -17.5 -51q0 -23 11.5 -36.5t33.5 -13.5
q28 0 44.5 20t17.5 51q0 23 -11.5 36.5t-33.5 13.5q-28 0 -44.5 -20zM422 995l10 -24l-172 -72l-7 15z" />
    <glyph glyph-name="aringacute" unicode="&#x1fb;" horiz-adv-x="499" 
d="M432 492l-54 -380q-5 -33 -5 -50q0 -21 7 -34t23 -21l-7 -17q-22 10 -32.5 28t-10.5 48q0 9 2 29q-29 -49 -69 -77t-87 -28q-66 0 -103.5 50.5t-37.5 137.5q0 82 26 163t81.5 134.5t138.5 53.5q69 0 128 -37zM178 459q-50 -51 -73.5 -127t-23.5 -153q0 -79 31 -123.5
t88 -44.5q91 0 159 120l50 351q-46 28 -105 28q-76 0 -126 -51zM384 727q17 -18 17 -48q0 -41 -23.5 -66t-59.5 -25q-29 0 -46.5 18.5t-17.5 47.5q0 41 23.5 66t59.5 25q30 0 47 -18zM291.5 707q-16.5 -20 -17.5 -51q0 -23 11.5 -36.5t33.5 -13.5q28 0 44.5 20t17.5 51
q0 23 -11.5 36.5t-33.5 13.5q-28 0 -44.5 -20zM417 856l10 -24l-172 -72l-7 15z" />
    <glyph glyph-name="AEacute" unicode="&#x1fc;" horiz-adv-x="684" 
d="M651 660h-307l28 -290h235l-3 -21h-230l31 -328h208l-4 -21h-224l-18 196h-271l-95 -196h-24l334 681h346zM365 217l-42 446l-217 -446h259zM557 860l10 -24l-172 -72l-7 15z" />
    <glyph glyph-name="aeacute" unicode="&#x1fd;" horiz-adv-x="740" 
d="M351 497q34 -32 42 -89q25 50 73 85.5t113 35.5q59 0 94 -31t35 -83q0 -91 -90.5 -140.5t-257.5 -60.5q-5 -92 26.5 -147.5t102.5 -55.5q40 0 72.5 13.5t69.5 41.5l11 -15q-38 -31 -74 -46t-79 -15q-54 0 -91 29t-51 85q-48 -61 -92.5 -87.5t-95.5 -26.5q-59 0 -92 35.5
t-33 94.5q0 76 51 127.5t157 51.5h108q12 48 27 81q-4 62 -35 95.5t-84 33.5q-58 0 -133 -32l-6 18q77 34 140 34q58 0 92 -32zM465.5 468q-46.5 -41 -71.5 -103.5t-32 -130.5q324 21 324 181q0 44 -28.5 69t-79.5 25q-66 0 -112.5 -41zM244 279q-98 0 -143 -44.5
t-45 -114.5q0 -50 27.5 -79.5t75.5 -29.5q50 0 93.5 27.5t88.5 88.5q-5 28 -5 57q0 45 10 95h-102zM510 761l9 -23l-173 -84l-7 15z" />
    <glyph glyph-name="Oslashacute" unicode="&#x1fe;" horiz-adv-x="623" 
d="M546 586.5q27 -57.5 27 -143.5q0 -102 -30.5 -206t-98.5 -175.5t-174 -71.5q-40 0 -72 12l-46 -113l-20 7l48 114q-51 26 -79 85.5t-28 145.5q0 99 31.5 203t100 175.5t171.5 71.5q42 0 75 -13l47 120l20 -6l-50 -121q51 -27 78 -84.5zM121 106.5q24 -53.5 69 -76.5
l253 629q-29 12 -67 12q-97 0 -159.5 -69.5t-91 -169t-28.5 -192.5q0 -80 24 -133.5zM433.5 81.5q62.5 69.5 89.5 168.5t27 193q0 161 -92 209l-252 -629q30 -11 64 -11q101 0 163.5 69.5zM468 860l10 -24l-172 -72l-7 15z" />
    <glyph glyph-name="oslashacute" unicode="&#x1ff;" horiz-adv-x="506" 
d="M429 442.5q19 -43.5 19 -105.5q0 -77 -24 -157t-77 -135t-134 -55q-34 0 -62 11l-54 -119l-18 5l54 124q-36 22 -55 66.5t-19 106.5q0 78 24.5 157.5t77 133.5t133.5 54q35 0 62 -12l54 122l18 -6l-54 -125q36 -22 55 -65.5zM144 29l205 469q-25 11 -55 11
q-74 0 -122 -52t-69 -127.5t-21 -146.5q0 -114 62 -154zM334.5 63q47.5 52 69 127.5t21.5 147.5q0 112 -60 152l-206 -469q23 -10 54 -10q74 0 121.5 52zM401 761l9 -23l-173 -84l-7 15z" />
    <glyph glyph-name="uni0200" unicode="&#x200;" horiz-adv-x="509" 
d="M421 0l-34 203h-281l-91 -203h-24l308 681h28l118 -681h-24zM115 224h269l-73 438zM239 917l46 -131l-18 -8l-53 129zM339 916l41 -127l-18 -7l-48 123z" />
    <glyph glyph-name="uni0201" unicode="&#x201;" horiz-adv-x="499" 
d="M432 492l-54 -380q-5 -33 -5 -50q0 -21 7 -34t23 -21l-7 -17q-22 10 -32.5 28t-10.5 48q0 9 2 29q-29 -49 -69 -77t-87 -28q-66 0 -103.5 50.5t-37.5 137.5q0 82 26 163t81.5 134.5t138.5 53.5q69 0 128 -37zM178 459q-50 -51 -73.5 -127t-23.5 -153q0 -79 31 -123.5
t88 -44.5q91 0 159 120l50 351q-46 28 -105 28q-76 0 -126 -51zM242 791l46 -131l-18 -8l-53 129zM342 790l41 -127l-18 -7l-48 123z" />
    <glyph glyph-name="uni0202" unicode="&#x202;" horiz-adv-x="509" 
d="M421 0l-34 203h-281l-91 -203h-24l308 681h28l118 -681h-24zM115 224h269l-73 438zM228 802q12 38 40.5 61.5t67.5 23.5q40 0 63.5 -24t25.5 -63l-17 -2q-8 68 -72 68q-33 0 -56.5 -18t-36.5 -51z" />
    <glyph glyph-name="uni0203" unicode="&#x203;" horiz-adv-x="499" 
d="M432 492l-54 -380q-5 -33 -5 -50q0 -21 7 -34t23 -21l-7 -17q-22 10 -32.5 28t-10.5 48q0 9 2 29q-29 -49 -69 -77t-87 -28q-66 0 -103.5 50.5t-37.5 137.5q0 82 26 163t81.5 134.5t138.5 53.5q69 0 128 -37zM178 459q-50 -51 -73.5 -127t-23.5 -153q0 -79 31 -123.5
t88 -44.5q91 0 159 120l50 351q-46 28 -105 28q-76 0 -126 -51zM224 640q12 38 40.5 61.5t67.5 23.5q40 0 63.5 -24t25.5 -63l-17 -2q-8 68 -72 68q-33 0 -56.5 -18t-36.5 -51z" />
    <glyph glyph-name="uni0204" unicode="&#x204;" horiz-adv-x="445" 
d="M459 681l-6 -21h-264l-41 -290h229l-4 -21h-228l-46 -328h275l-4 -21h-297l96 681h290zM244 917l46 -131l-18 -8l-53 129zM344 916l41 -127l-18 -7l-48 123z" />
    <glyph glyph-name="uni0205" unicode="&#x205;" horiz-adv-x="462" 
d="M339.5 274.5q-90.5 -49.5 -257.5 -60.5q-1 -10 -1 -31q0 -85 35 -128.5t96 -43.5q40 0 72 13.5t69 41.5l12 -15q-39 -31 -75 -46t-78 -15q-73 0 -113 49.5t-40 142.5q0 82 26.5 162t81.5 132.5t135 52.5q59 0 93.5 -30.5t34.5 -83.5q0 -91 -90.5 -140.5zM189.5 469.5
q-46.5 -39.5 -72 -102t-33.5 -133.5q324 21 324 181q0 44 -27.5 69t-79.5 25q-65 0 -111.5 -39.5zM221 791l46 -131l-18 -8l-53 129zM321 790l41 -127l-18 -7l-48 123z" />
    <glyph glyph-name="uni0206" unicode="&#x206;" horiz-adv-x="445" 
d="M459 681l-6 -21h-264l-41 -290h229l-4 -21h-228l-46 -328h275l-4 -21h-297l96 681h290zM233 802q12 38 40.5 61.5t67.5 23.5q40 0 63.5 -24t25.5 -63l-17 -2q-8 68 -72 68q-33 0 -56.5 -18t-36.5 -51z" />
    <glyph glyph-name="uni0207" unicode="&#x207;" horiz-adv-x="462" 
d="M339.5 274.5q-90.5 -49.5 -257.5 -60.5q-1 -10 -1 -31q0 -85 35 -128.5t96 -43.5q40 0 72 13.5t69 41.5l12 -15q-39 -31 -75 -46t-78 -15q-73 0 -113 49.5t-40 142.5q0 82 26.5 162t81.5 132.5t135 52.5q59 0 93.5 -30.5t34.5 -83.5q0 -91 -90.5 -140.5zM189.5 469.5
q-46.5 -39.5 -72 -102t-33.5 -133.5q324 21 324 181q0 44 -27.5 69t-79.5 25q-65 0 -111.5 -39.5zM203 640q12 38 40.5 61.5t67.5 23.5q40 0 63.5 -24t25.5 -63l-17 -2q-8 68 -72 68q-33 0 -56.5 -18t-36.5 -51z" />
    <glyph glyph-name="uni0208" unicode="&#x208;" horiz-adv-x="243" 
d="M192 681l-96 -681h-23l96 681h23zM107 917l46 -131l-18 -8l-53 129zM207 916l41 -127l-18 -7l-48 123z" />
    <glyph glyph-name="uni0209" unicode="&#x209;" horiz-adv-x="233" 
d="M164 519l-73 -519h-22l73 519h22zM86 791l46 -131l-18 -8l-53 129zM186 790l41 -127l-18 -7l-48 123z" />
    <glyph glyph-name="uni020A" unicode="&#x20a;" horiz-adv-x="243" 
d="M192 681l-96 -681h-23l96 681h23zM96 802q12 38 40.5 61.5t67.5 23.5q40 0 63.5 -24t25.5 -63l-17 -2q-8 68 -72 68q-33 0 -56.5 -18t-36.5 -51z" />
    <glyph glyph-name="uni020B" unicode="&#x20b;" horiz-adv-x="233" 
d="M164 519l-73 -519h-22l73 519h22zM68 640q12 38 40.5 61.5t67.5 23.5q40 0 63.5 -24t25.5 -63l-17 -2q-8 68 -72 68q-33 0 -56.5 -18t-36.5 -51z" />
    <glyph glyph-name="uni020C" unicode="&#x20c;" horiz-adv-x="623" 
d="M521 627q52 -64 52 -184q0 -102 -30.5 -206t-98.5 -175.5t-174 -71.5q-93 0 -145 65.5t-52 185.5q0 99 31.5 203t100 175.5t171.5 71.5q93 0 145 -64zM216.5 602q-62.5 -69 -91 -168.5t-28.5 -193.5q0 -111 45.5 -169.5t127.5 -58.5q101 0 163.5 69.5t89.5 168.5t27 193
q0 111 -45.5 169.5t-128.5 58.5q-97 0 -159.5 -69zM302 917l46 -131l-18 -8l-53 129zM402 916l41 -127l-18 -7l-48 123z" />
    <glyph glyph-name="uni020D" unicode="&#x20d;" horiz-adv-x="506" 
d="M99 41.5q-40 51.5 -40 142.5q0 78 24.5 157.5t77 133.5t133.5 54q73 0 113.5 -50t40.5 -142q0 -77 -24 -157t-77 -135t-134 -55q-74 0 -114 51.5zM334.5 63q47.5 52 69 127.5t21.5 147.5q0 83 -34 127t-97 44q-74 0 -122 -52t-69 -127.5t-21 -146.5q0 -83 34 -127.5
t97 -44.5q74 0 121.5 52zM227 791l46 -131l-18 -8l-53 129zM327 790l41 -127l-18 -7l-48 123z" />
    <glyph glyph-name="uni020E" unicode="&#x20e;" horiz-adv-x="623" 
d="M521 627q52 -64 52 -184q0 -102 -30.5 -206t-98.5 -175.5t-174 -71.5q-93 0 -145 65.5t-52 185.5q0 99 31.5 203t100 175.5t171.5 71.5q93 0 145 -64zM216.5 602q-62.5 -69 -91 -168.5t-28.5 -193.5q0 -111 45.5 -169.5t127.5 -58.5q101 0 163.5 69.5t89.5 168.5t27 193
q0 111 -45.5 169.5t-128.5 58.5q-97 0 -159.5 -69zM291 802q12 38 40.5 61.5t67.5 23.5q40 0 63.5 -24t25.5 -63l-17 -2q-8 68 -72 68q-33 0 -56.5 -18t-36.5 -51z" />
    <glyph glyph-name="uni020F" unicode="&#x20f;" horiz-adv-x="506" 
d="M99 41.5q-40 51.5 -40 142.5q0 78 24.5 157.5t77 133.5t133.5 54q73 0 113.5 -50t40.5 -142q0 -77 -24 -157t-77 -135t-134 -55q-74 0 -114 51.5zM334.5 63q47.5 52 69 127.5t21.5 147.5q0 83 -34 127t-97 44q-74 0 -122 -52t-69 -127.5t-21 -146.5q0 -83 34 -127.5
t97 -44.5q74 0 121.5 52zM209 640q12 38 40.5 61.5t67.5 23.5q40 0 63.5 -24t25.5 -63l-17 -2q-8 68 -72 68q-33 0 -56.5 -18t-36.5 -51z" />
    <glyph glyph-name="uni0210" unicode="&#x210;" horiz-adv-x="516" 
d="M445 400q-44 -59 -131 -73l126 -327h-25l-124 324h-149l-46 -324h-23l96 681h139q94 0 137.5 -37t43.5 -109q0 -76 -44 -135zM274 345q67 0 110 27.5t62 70.5t19 91q0 64 -36.5 95t-121.5 31h-118l-44 -315h129zM246 917l46 -131l-18 -8l-53 129zM346 916l41 -127l-18 -7
l-48 123z" />
    <glyph glyph-name="uni0211" unicode="&#x211;" horiz-adv-x="327" 
d="M347 522l-6 -19q-18 6 -37 6q-54 0 -93 -45t-74 -140l-46 -324h-22l73 519h19l-20 -144q30 78 69 116t95 38q21 0 42 -7zM171 791l46 -131l-18 -8l-53 129zM271 790l41 -127l-18 -7l-48 123z" />
    <glyph glyph-name="uni0212" unicode="&#x212;" horiz-adv-x="516" 
d="M445 400q-44 -59 -131 -73l126 -327h-25l-124 324h-149l-46 -324h-23l96 681h139q94 0 137.5 -37t43.5 -109q0 -76 -44 -135zM274 345q67 0 110 27.5t62 70.5t19 91q0 64 -36.5 95t-121.5 31h-118l-44 -315h129zM235 802q12 38 40.5 61.5t67.5 23.5q40 0 63.5 -24
t25.5 -63l-17 -2q-8 68 -72 68q-33 0 -56.5 -18t-36.5 -51z" />
    <glyph glyph-name="uni0213" unicode="&#x213;" horiz-adv-x="327" 
d="M347 522l-6 -19q-18 6 -37 6q-54 0 -93 -45t-74 -140l-46 -324h-22l73 519h19l-20 -144q30 78 69 116t95 38q21 0 42 -7zM153 640q12 38 40.5 61.5t67.5 23.5q40 0 63.5 -24t25.5 -63l-17 -2q-8 68 -72 68q-33 0 -56.5 -18t-36.5 -51z" />
    <glyph glyph-name="uni0214" unicode="&#x214;" horiz-adv-x="576" 
d="M465 186q-11 -87 -65 -141.5t-148 -54.5q-84 0 -124.5 42.5t-40.5 114.5q0 19 3 40l69 494h23l-69 -493q-3 -21 -3 -39q0 -64 34.5 -100.5t107.5 -36.5q85 0 132.5 49.5t58.5 127.5l69 492h22zM273 917l46 -131l-18 -8l-53 129zM373 916l41 -127l-18 -7l-48 123z" />
    <glyph glyph-name="uni0215" unicode="&#x215;" horiz-adv-x="519" 
d="M110.5 21q-28.5 31 -28.5 87q0 17 3 36l52 375h22l-52 -375q-3 -19 -3 -36q0 -48 22.5 -72.5t64.5 -24.5q59 0 107 50t85 138l45 320h22l-74 -519h-17l21 157q-33 -77 -81.5 -122t-108.5 -45q-51 0 -79.5 31zM227 791l46 -131l-18 -8l-53 129zM327 790l41 -127l-18 -7
l-48 123z" />
    <glyph glyph-name="uni0216" unicode="&#x216;" horiz-adv-x="576" 
d="M465 186q-11 -87 -65 -141.5t-148 -54.5q-84 0 -124.5 42.5t-40.5 114.5q0 19 3 40l69 494h23l-69 -493q-3 -21 -3 -39q0 -64 34.5 -100.5t107.5 -36.5q85 0 132.5 49.5t58.5 127.5l69 492h22zM262 802q12 38 40.5 61.5t67.5 23.5q40 0 63.5 -24t25.5 -63l-17 -2
q-8 68 -72 68q-33 0 -56.5 -18t-36.5 -51z" />
    <glyph glyph-name="uni0217" unicode="&#x217;" horiz-adv-x="519" 
d="M110.5 21q-28.5 31 -28.5 87q0 17 3 36l52 375h22l-52 -375q-3 -19 -3 -36q0 -48 22.5 -72.5t64.5 -24.5q59 0 107 50t85 138l45 320h22l-74 -519h-17l21 157q-33 -77 -81.5 -122t-108.5 -45q-51 0 -79.5 31zM209 640q12 38 40.5 61.5t67.5 23.5q40 0 63.5 -24t25.5 -63
l-17 -2q-8 68 -72 68q-33 0 -56.5 -18t-36.5 -51z" />
    <glyph glyph-name="Scommaaccent" unicode="&#x218;" horiz-adv-x="483" 
d="M390 673q37 -18 68 -52l-15 -14q-30 33 -62.5 48.5t-77.5 15.5q-51 0 -89 -21.5t-58.5 -57t-20.5 -77.5q0 -51 28.5 -79.5t101.5 -56.5q78 -30 112 -68.5t34 -103.5q0 -53 -24.5 -103t-74.5 -82t-121 -32q-58 0 -99 21t-74 62l15 13q31 -36 68 -55t90 -19q66 0 110 29
t65.5 73.5t21.5 91.5q0 58 -30 91.5t-102 61.5q-80 31 -111.5 64.5t-31.5 90.5q0 45 22.5 85.5t65.5 66t102 25.5q50 0 87 -18zM207 -102q6 -6 6 -15q0 -8 -4 -17.5t-11 -22.5l-49 -101h-15l45 116q-13 7 -13 21q0 11 7 18t18 7q10 0 16 -6z" />
    <glyph glyph-name="scommaaccent" unicode="&#x219;" horiz-adv-x="414" 
d="M314 516q32 -13 61 -40l-15 -14q-27 24 -54.5 35.5t-65.5 11.5q-58 0 -95 -31t-37 -83q0 -38 23 -62t85 -47q68 -25 96 -57t28 -82q0 -70 -47 -113.5t-126 -43.5q-51 0 -88 17.5t-67 48.5l14 14q29 -29 61.5 -44t79.5 -15q66 0 108 34.5t42 100.5q0 44 -24 70.5t-87 50.5
q-68 26 -94.5 54.5t-26.5 73.5q0 59 44.5 96.5t111.5 37.5q41 0 73 -13zM174 -102q6 -6 6 -15q0 -8 -4 -17.5t-11 -22.5l-49 -101h-15l45 116q-13 7 -13 21q0 11 7 18t18 7q10 0 16 -6z" />
    <glyph glyph-name="uni021A" unicode="&#x21a;" horiz-adv-x="429" 
d="M477 681l-7 -22h-188l-93 -659h-22l92 659h-188l2 22h404zM185 -102q6 -6 6 -15q0 -8 -4 -17.5t-11 -22.5l-49 -101h-15l45 116q-13 7 -13 21q0 11 7 18t18 7q10 0 16 -6z" />
    <glyph glyph-name="uni021B" unicode="&#x21b;" horiz-adv-x="294" 
d="M102 112q-2 -18 -2 -26q0 -76 68 -76q39 0 84 26l9 -16q-49 -30 -95 -30q-41 0 -64.5 24t-23.5 70q0 7 2 27l54 388h-77l3 20h77l24 131l17 2l-19 -133h129l-6 -20h-126zM173 -102q6 -6 6 -15q0 -8 -4 -17.5t-11 -22.5l-49 -101h-15l45 116q-13 7 -13 21q0 11 7 18t18 7
q10 0 16 -6z" />
    <glyph glyph-name="uni021C" unicode="&#x21c;" horiz-adv-x="443" 
d="M372 653q38 -38 38 -104q0 -79 -42.5 -127t-112.5 -61q123 -14 123 -129q0 -127 -99.5 -198t-276.5 -114v21q165 41 258.5 107.5t93.5 181.5q0 122 -148 120l-52 -1l6 21h44q82 0 132 49.5t50 129.5q0 57 -31 89t-87 32q-49 0 -90.5 -19.5t-85.5 -57.5l-13 16
q47 41 92 61.5t97 20.5q66 0 104 -38z" />
    <glyph glyph-name="uni021D" unicode="&#x21d;" horiz-adv-x="407" 
d="M312 496q34 -33 34 -87q0 -60 -34 -97.5t-93 -45.5q115 -2 115 -97q0 -176 -311 -256l-3 18q134 36 212 91.5t78 145.5q0 46 -29.5 66.5t-95.5 20.5h-56l5 19h35q71 0 112.5 36t41.5 98q0 47 -27 74t-78 27q-40 0 -72 -11.5t-71 -36.5l-10 16q38 26 75 39t78 13
q60 0 94 -33z" />
    <glyph glyph-name="uni021E" unicode="&#x21e;" horiz-adv-x="595" 
d="M96 0h-23l96 681h23l-44 -309h330l43 309h23l-96 -681h-23l50 351h-329zM483 862l10 -12l-121 -90h-12l-95 90l12 12l91 -78z" />
    <glyph glyph-name="uni021F" unicode="&#x21f;" horiz-adv-x="524" 
d="M415 498q27 -31 27 -88q0 -17 -3 -37l-53 -373h-22l53 371q3 21 3 38q0 101 -87 101q-54 0 -102.5 -49t-94.5 -140l-45 -321h-22l103 733l22 3l-52 -370q84 163 193 163q53 0 80 -31zM450 913l10 -12l-121 -90h-12l-95 90l12 12l91 -78z" />
    <glyph glyph-name="uni0220" unicode="&#x220;" horiz-adv-x="586" 
d="M485 655q34 -36 34 -103q0 -20 -3 -44l-98 -700h-23l99 698q3 23 3 42q0 61 -28.5 91.5t-81.5 30.5q-62 0 -114.5 -34.5t-100.5 -94.5l-76 -541h-23l96 681h20l-13 -108q97 118 212 118q63 0 97 -36z" />
    <glyph glyph-name="uni0221" unicode="&#x221;" horiz-adv-x="587" 
d="M574.5 160.5q20.5 -20.5 20.5 -53.5q0 -51 -38.5 -84t-94.5 -33q-59 0 -83 38l-54 -84l-17 8l61 96q-6 17 -6 38q0 12 4 38v3q-73 -137 -174 -137q-63 0 -99 49.5t-36 137.5q0 80 24.5 161.5t75.5 136t127 54.5q89 0 127 -82l40 289l22 -3l-87 -617q-2 -20 -2 -28
q0 -10 1 -15q33 56 63.5 82t70.5 26q34 0 54.5 -20.5zM291 52.5q42 41.5 83 119.5l34 245q-36 92 -122 92q-68 0 -114.5 -51t-68.5 -127.5t-22 -152.5q0 -79 30 -123t83 -44q55 0 97 41.5zM541 36.5q32 25.5 32 70.5q0 26 -14 40.5t-40 14.5q-34 0 -62 -24.5t-66 -88.5
q16 -38 71 -38q47 0 79 25.5z" />
    <glyph glyph-name="uni0222" unicode="&#x222;" horiz-adv-x="567" 
d="M456 438q-31 -42 -90 -57q61 -15 92.5 -56t31.5 -102q0 -70 -31 -123t-86 -81.5t-126 -28.5q-92 0 -140.5 46t-48.5 121q0 87 48.5 147t129.5 78q-85 25 -85 123q0 19 3 41l19 135h22l-19 -136q-3 -21 -3 -39q0 -59 31.5 -87t96.5 -28q83 0 122.5 41t49.5 114l20 135h22
l-19 -136q-9 -65 -40 -107zM425 331q-42 39 -125 39q-65 0 -114.5 -26.5t-77 -75t-27.5 -111.5q0 -67 42 -106t124 -39q100 0 160 56.5t60 154.5q0 69 -42 108z" />
    <glyph glyph-name="uni0223" unicode="&#x223;" horiz-adv-x="500" 
d="M407 464.5q-30 -40.5 -85 -54.5q53 -13 80.5 -54.5t27.5 -105.5q0 -75 -27 -134t-76 -92.5t-113 -33.5q-75 0 -117.5 46t-42.5 125q0 94 45 162t122 87q-81 22 -81 120q0 18 3 37l24 165h22l-24 -167q-3 -19 -3 -37q0 -109 110 -109q68 0 105.5 41t46.5 107l24 165h22
l-24 -167q-9 -60 -39 -100.5zM373.5 360q-34.5 39 -102.5 39q-59 0 -103 -31.5t-67.5 -86t-23.5 -120.5q0 -71 35.5 -110.5t101.5 -39.5q60 0 103.5 31t67 85.5t23.5 122.5q0 71 -34.5 110z" />
    <glyph glyph-name="uni0224" unicode="&#x224;" horiz-adv-x="457" 
d="M469 662l-440 -640h337l-3 -22l-13 -93q-7 -51 -35.5 -77.5t-68.5 -26.5q-44 0 -77 31l13 14q14 -12 28 -18t36 -6q31 0 53 21t28 65l13 90h-341l3 21l440 639h-317l3 21h343z" />
    <glyph glyph-name="uni0225" unicode="&#x225;" horiz-adv-x="370" 
d="M371 501l-349 -480h274l-3 -21l-13 -92q-7 -52 -35 -78.5t-69 -26.5q-44 0 -76 30l12 15q14 -12 28.5 -18.5t35.5 -6.5q31 0 53.5 21t28.5 66l13 90h-280l3 18l350 481h-258l3 20h285z" />
    <glyph glyph-name="uni0226" unicode="&#x226;" horiz-adv-x="509" 
d="M421 0l-34 203h-281l-91 -203h-24l308 681h28l118 -681h-24zM115 224h269l-73 438zM318 816q-5 5 -5 12q0 9 5.5 15t15.5 6q8 0 13 -4.5t5 -12.5t-6 -14.5t-16 -6.5q-7 0 -12 5z" />
    <glyph glyph-name="uni0227" unicode="&#x227;" horiz-adv-x="499" 
d="M432 492l-54 -380q-5 -33 -5 -50q0 -21 7 -34t23 -21l-7 -17q-22 10 -32.5 28t-10.5 48q0 9 2 29q-29 -49 -69 -77t-87 -28q-66 0 -103.5 50.5t-37.5 137.5q0 82 26 163t81.5 134.5t138.5 53.5q69 0 128 -37zM178 459q-50 -51 -73.5 -127t-23.5 -153q0 -79 31 -123.5
t88 -44.5q91 0 159 120l50 351q-46 28 -105 28q-76 0 -126 -51zM321 690q-5 5 -5 12q0 9 5.5 15t15.5 6q8 0 13 -4.5t5 -12.5t-6 -14.5t-16 -6.5q-7 0 -12 5z" />
    <glyph glyph-name="uni0228" unicode="&#x228;" horiz-adv-x="445" 
d="M189 660l-41 -290h229l-4 -21h-228l-46 -328h275l-4 -21h-143l-14 -74q38 -3 56.5 -18t18.5 -45q0 -33 -24.5 -54t-61.5 -21q-36 0 -61 18l10 16q21 -14 51 -14q29 0 46 14.5t17 39.5t-16.5 35.5t-57.5 11.5l19 91h-137l96 681h290l-6 -21h-264z" />
    <glyph glyph-name="uni0229" unicode="&#x229;" horiz-adv-x="462" 
d="M339.5 274.5q-90.5 -49.5 -257.5 -60.5q-1 -10 -1 -31q0 -85 35 -128.5t96 -43.5q40 0 72 13.5t69 41.5l12 -15q-39 -31 -75 -46t-78 -15h-1l-12 -64q38 -3 56.5 -18t18.5 -45q0 -34 -24 -54.5t-62 -20.5q-36 0 -61 18l10 16q21 -14 51 -14q29 0 46 14t17 40
q0 25 -16.5 35.5t-57.5 11.5l17 82q-64 6 -99.5 55t-35.5 136q0 82 26.5 162t81.5 132.5t135 52.5q59 0 93.5 -30.5t34.5 -83.5q0 -91 -90.5 -140.5zM189.5 469.5q-46.5 -39.5 -72 -102t-33.5 -133.5q324 21 324 181q0 44 -27.5 69t-79.5 25q-65 0 -111.5 -39.5z" />
    <glyph glyph-name="uni022A" unicode="&#x22a;" horiz-adv-x="623" 
d="M521 627q52 -64 52 -184q0 -102 -30.5 -206t-98.5 -175.5t-174 -71.5q-93 0 -145 65.5t-52 185.5q0 99 31.5 203t100 175.5t171.5 71.5q93 0 145 -64zM216.5 602q-62.5 -69 -91 -168.5t-28.5 -193.5q0 -111 45.5 -169.5t127.5 -58.5q101 0 163.5 69.5t89.5 168.5t27 193
q0 111 -45.5 169.5t-128.5 58.5q-97 0 -159.5 -69zM294.5 746.5q-4.5 4.5 -4.5 12.5q0 9 5.5 15t15.5 6q7 0 12 -4.5t5 -12.5q0 -9 -6 -15t-15 -6q-8 0 -12.5 4.5zM445 746.5q-5 4.5 -5 12.5q0 9 5.5 15t15.5 6q8 0 12.5 -4.5t4.5 -12.5q0 -9 -5.5 -15t-14.5 -6
q-8 0 -13 4.5zM487 850h-188l3 21h188z" />
    <glyph glyph-name="uni022B" unicode="&#x22b;" horiz-adv-x="506" 
d="M99 41.5q-40 51.5 -40 142.5q0 78 24.5 157.5t77 133.5t133.5 54q73 0 113.5 -50t40.5 -142q0 -77 -24 -157t-77 -135t-134 -55q-74 0 -114 51.5zM334.5 63q47.5 52 69 127.5t21.5 147.5q0 83 -34 127t-97 44q-74 0 -122 -52t-69 -127.5t-21 -146.5q0 -83 34 -127.5
t97 -44.5q74 0 121.5 52zM222.5 647.5q-4.5 4.5 -4.5 12.5q0 9 5.5 15t15.5 6q7 0 12 -4.5t5 -12.5q0 -9 -6 -15t-15 -6q-8 0 -12.5 4.5zM373 647.5q-5 4.5 -5 12.5q0 9 5.5 15t15.5 6q8 0 12.5 -4.5t4.5 -12.5q0 -9 -5.5 -15t-14.5 -6q-8 0 -13 4.5zM416 753h-188l3 21h188
z" />
    <glyph glyph-name="uni022C" unicode="&#x22c;" horiz-adv-x="623" 
d="M494 878h-188l3 21h188zM414 763q-13 6 -29 17t-25 15.5t-20 4.5q-16 0 -28 -8t-30 -28l-13 10q37 46 71 46q13 0 24.5 -5.5t27.5 -16.5q15 -10 26.5 -15.5t23.5 -5.5q15 0 28 9.5t30 31.5l14 -9q-34 -52 -72 -52q-15 0 -28 6zM521 627q52 -64 52 -184q0 -102 -30.5 -206
t-98.5 -175.5t-174 -71.5q-93 0 -145 65.5t-52 185.5q0 99 31.5 203t100 175.5t171.5 71.5q93 0 145 -64zM216.5 602q-62.5 -69 -91 -168.5t-28.5 -193.5q0 -111 45.5 -169.5t127.5 -58.5q101 0 163.5 69.5t89.5 168.5t27 193q0 111 -45.5 169.5t-128.5 58.5
q-97 0 -159.5 -69z" />
    <glyph glyph-name="uni022D" unicode="&#x22d;" horiz-adv-x="506" 
d="M99 41.5q-40 51.5 -40 142.5q0 78 24.5 157.5t77 133.5t133.5 54q73 0 113.5 -50t40.5 -142q0 -77 -24 -157t-77 -135t-134 -55q-74 0 -114 51.5zM334.5 63q47.5 52 69 127.5t21.5 147.5q0 83 -34 127t-97 44q-74 0 -122 -52t-69 -127.5t-21 -146.5q0 -83 34 -127.5
t97 -44.5q74 0 121.5 52zM329 611q-13 6 -29 17t-25 15.5t-20 4.5q-16 0 -28 -8t-30 -28l-13 10q37 46 71 46q13 0 24.5 -5.5t27.5 -16.5q15 -10 26.5 -15.5t23.5 -5.5q15 0 28 9.5t30 31.5l14 -9q-34 -52 -72 -52q-15 0 -28 6zM409 728h-188l3 21h188z" />
    <glyph glyph-name="uni022E" unicode="&#x22e;" horiz-adv-x="623" 
d="M521 627q52 -64 52 -184q0 -102 -30.5 -206t-98.5 -175.5t-174 -71.5q-93 0 -145 65.5t-52 185.5q0 99 31.5 203t100 175.5t171.5 71.5q93 0 145 -64zM216.5 602q-62.5 -69 -91 -168.5t-28.5 -193.5q0 -111 45.5 -169.5t127.5 -58.5q101 0 163.5 69.5t89.5 168.5t27 193
q0 111 -45.5 169.5t-128.5 58.5q-97 0 -159.5 -69zM381 816q-5 5 -5 12q0 9 5.5 15t15.5 6q8 0 13 -4.5t5 -12.5t-6 -14.5t-16 -6.5q-7 0 -12 5z" />
    <glyph glyph-name="uni022F" unicode="&#x22f;" horiz-adv-x="506" 
d="M99 41.5q-40 51.5 -40 142.5q0 78 24.5 157.5t77 133.5t133.5 54q73 0 113.5 -50t40.5 -142q0 -77 -24 -157t-77 -135t-134 -55q-74 0 -114 51.5zM334.5 63q47.5 52 69 127.5t21.5 147.5q0 83 -34 127t-97 44q-74 0 -122 -52t-69 -127.5t-21 -146.5q0 -83 34 -127.5
t97 -44.5q74 0 121.5 52zM306 690q-5 5 -5 12q0 9 5.5 15t15.5 6q8 0 13 -4.5t5 -12.5t-6 -14.5t-16 -6.5q-7 0 -12 5z" />
    <glyph glyph-name="uni0230" unicode="&#x230;" horiz-adv-x="623" 
d="M521 627q52 -64 52 -184q0 -102 -30.5 -206t-98.5 -175.5t-174 -71.5q-93 0 -145 65.5t-52 185.5q0 99 31.5 203t100 175.5t171.5 71.5q93 0 145 -64zM216.5 602q-62.5 -69 -91 -168.5t-28.5 -193.5q0 -111 45.5 -169.5t127.5 -58.5q101 0 163.5 69.5t89.5 168.5t27 193
q0 111 -45.5 169.5t-128.5 58.5q-97 0 -159.5 -69zM370 752q-5 5 -5 12q0 9 5.5 15t15.5 6q8 0 13 -4.5t5 -12.5t-6 -14.5t-16 -6.5q-7 0 -12 5zM488 849h-188l3 21h188z" />
    <glyph glyph-name="uni0231" unicode="&#x231;" horiz-adv-x="506" 
d="M99 41.5q-40 51.5 -40 142.5q0 78 24.5 157.5t77 133.5t133.5 54q73 0 113.5 -50t40.5 -142q0 -77 -24 -157t-77 -135t-134 -55q-74 0 -114 51.5zM334.5 63q47.5 52 69 127.5t21.5 147.5q0 83 -34 127t-97 44q-74 0 -122 -52t-69 -127.5t-21 -146.5q0 -83 34 -127.5
t97 -44.5q74 0 121.5 52zM297 637q-5 5 -5 12q0 9 5.5 15t15.5 6q8 0 13 -4.5t5 -12.5t-6 -14.5t-16 -6.5q-7 0 -12 5zM416 745h-188l3 21h188z" />
    <glyph glyph-name="uni0232" unicode="&#x232;" horiz-adv-x="446" 
d="M486 681l-249 -411l-39 -270h-22l38 270l-136 411h23l126 -388l234 388h25zM391 811h-188l3 21h188z" />
    <glyph glyph-name="uni0233" unicode="&#x233;" horiz-adv-x="406" 
d="M185 -2q-29 -64 -53 -99t-55.5 -56.5t-84.5 -37.5l-2 18q48 15 77 35t49.5 51.5t47.5 90.5h-10l-95 519h23l89 -503l225 503h24zM351 685h-188l3 21h188z" />
    <glyph glyph-name="uni0234" unicode="&#x234;" horiz-adv-x="302" 
d="M289.5 160.5q20.5 -20.5 20.5 -53.5q0 -51 -38.5 -84t-95.5 -33q-59 0 -83 38l-54 -84l-16 8l60 95q-5 20 -5 38q0 13 1 20l88 628l22 3l-89 -632q-2 -14 -2 -20l1 -13q34 57 65 83.5t71 26.5q34 0 54.5 -20.5zM256 36.5q32 25.5 32 70.5q0 26 -14 40.5t-40 14.5
q-34 0 -62.5 -25.5t-66.5 -89.5q17 -36 72 -36q47 0 79 25.5z" />
    <glyph glyph-name="uni0235" unicode="&#x235;" horiz-adv-x="602" 
d="M589.5 160.5q20.5 -20.5 20.5 -53.5q0 -51 -38.5 -84t-95.5 -33q-29 0 -50.5 10t-32.5 28l-54 -84l-16 8l60 95q-5 20 -5 38q0 13 1 20l37 266q3 21 3 40q0 99 -85 99q-55 0 -103.5 -48.5t-94.5 -140.5l-45 -321h-22l73 519h19l-20 -155q42 82 90 123.5t104 41.5
q52 0 79 -30.5t27 -86.5q0 -18 -3 -39l-37 -269q-2 -14 -2 -20l1 -13q33 57 64 83.5t71 26.5q34 0 54.5 -20.5zM556 36.5q32 25.5 32 70.5q0 26 -14 40.5t-40 14.5q-34 0 -62 -25t-66 -90q15 -36 71 -36q47 0 79 25.5z" />
    <glyph glyph-name="uni0236" unicode="&#x236;" horiz-adv-x="303" 
d="M290.5 160.5q20.5 -20.5 20.5 -53.5q0 -51 -38.5 -84t-94.5 -33q-60 0 -84 38l-54 -84l-16 8l61 96q-6 18 -6 42q0 8 2 26l53 383h-77l3 20h77l24 131l17 2l-19 -133h129l-6 -20h-125l-54 -384q-3 -26 -2 -42q34 56 64.5 82t70.5 26q34 0 54.5 -20.5zM257 36.5
q32 25.5 32 70.5q0 26 -14 40.5t-40 14.5q-34 0 -62 -24.5t-66 -88.5q15 -38 71 -38q47 0 79 25.5z" />
    <glyph glyph-name="uni0237" unicode="&#x237;" horiz-adv-x="234" 
d="M-45 -178q37 20 58.5 39.5t35 52t21.5 88.5l73 517h22l-73 -518q-8 -60 -24 -95.5t-40 -57t-66 -43.5z" />
    <glyph glyph-name="uni0238" unicode="&#x238;" horiz-adv-x="753" 
d="M662 482q33 -47 33 -136q0 -91 -24 -172.5t-70.5 -132.5t-111.5 -51q-46 0 -77 30.5t-45 82.5l-17 -103h-16l11 102q-60 -112 -153 -112q-61 0 -96.5 52t-35.5 144q0 88 26 167t75 127.5t114 48.5q78 0 118 -88l41 292l22 3l-42 -296q68 89 153 89q62 0 95 -47z
M279.5 43.5q37.5 32.5 71.5 99.5l38 270q-23 47 -49 71.5t-65 24.5q-58 0 -102 -46t-67.5 -120.5t-23.5 -156.5q0 -83 30 -129t81 -46q49 0 86.5 32.5zM588.5 60q41.5 49 62.5 126.5t21 160.5q0 79 -27 120.5t-78 41.5q-44 0 -82.5 -26t-74.5 -73l-38 -269
q16 -65 45.5 -97.5t71.5 -32.5q58 0 99.5 49z" />
    <glyph glyph-name="uni0239" unicode="&#x239;" horiz-adv-x="753" 
d="M661 481q33 -48 33 -138q0 -88 -23 -169t-69.5 -132.5t-112.5 -51.5q-45 0 -76.5 29t-46.5 73l-40 -285l-23 -3l40 282q-65 -96 -150 -96q-61 0 -97.5 52t-36.5 145q0 86 26.5 165t76 128t115.5 49q44 0 72 -25.5t43 -65.5l15 81h16l-9 -82q69 92 154 92q60 0 93 -48z
M278 40q37 29 70 84l41 284q-40 101 -112 101q-60 0 -104.5 -47.5t-67.5 -121.5t-23 -153q0 -84 30 -130t82 -46q47 0 84 29zM589.5 60.5q41.5 49.5 62 126t20.5 156.5q0 81 -27 123.5t-77 42.5q-45 0 -82 -25.5t-76 -73.5l-40 -286q39 -113 119 -113q59 0 100.5 49.5z" />
    <glyph glyph-name="uni023A" unicode="&#x23a;" horiz-adv-x="509" 
d="M421 0l-34 203h-160l-101 -269l-17 4l100 265h-103l-91 -203h-24l308 681h28l20 -114l64 170l16 -5l-75 -198l93 -534h-24zM115 224h102l116 306l-22 132zM235 224h149l-46 273z" />
    <glyph glyph-name="uni023B" unicode="&#x23b;" horiz-adv-x="488" 
d="M462.5 648.5q-18.5 11.5 -40.5 16.5l-238 -631q35 -22 83 -22q47 0 81 15t69 43l13 -17q-35 -29 -74.5 -46t-88.5 -17q-50 0 -91 22l-30 -78l-16 4l31 83q-42 30 -64.5 86t-22.5 134q0 104 31.5 207.5t99.5 173t171 69.5q19 0 37 -3l18 49l16 -5l-18 -47q46 -12 85 -52
l-14 -15q-19 19 -37.5 30.5zM405 668q-18 2 -29 2q-96 0 -159 -66.5t-92 -165t-29 -195.5q0 -71 19.5 -121.5t54.5 -78.5z" />
    <glyph glyph-name="uni023C" unicode="&#x23c;" horiz-adv-x="419" 
d="M412 479l-14 -14q-27 27 -53 36l-186 -479q25 -11 55 -11q35 0 64.5 12t58.5 35l11 -15q-63 -53 -134 -53q-35 0 -63 12l-26 -68l-16 4l28 72q-37 21 -57.5 66t-20.5 109q0 82 26 161t79.5 131t131.5 52q24 0 40 -4l24 61l16 -4l-24 -62q34 -12 60 -41zM329 506
q-15 3 -34 3q-71 0 -119 -49t-71 -123.5t-23 -151.5q0 -58 16.5 -97t46.5 -58z" />
    <glyph glyph-name="uni023D" unicode="&#x23d;" horiz-adv-x="426" 
d="M120 22h260l-8 -22h-278l50 352h-98l3 21h98l43 308h23l-43 -308h100l-3 -21h-100z" />
    <glyph glyph-name="uni023E" unicode="&#x23e;" horiz-adv-x="429" 
d="M470 659h-112l-121 -318l-48 -341h-22l35 248l-120 -314l-17 4l147 388l47 333h-188l2 22h275l21 56l17 -5l-19 -51h110zM248 420l91 239h-57z" />
    <glyph glyph-name="uni023F" unicode="&#x23f;" horiz-adv-x="414" 
d="M145.5 478q-37.5 -31 -37.5 -82q0 -38 23.5 -62.5t85.5 -47.5q67 -25 95 -57t28 -83q0 -70 -46 -113t-125 -43q-44 0 -86 20q25 -25 40.5 -51t30.5 -62q17 -39 30.5 -56.5t39.5 -17.5q28 0 56 19l11 -14q-30 -25 -67 -25q-24 0 -39.5 10t-25 26t-23.5 47q-24 53 -49.5 92
t-74.5 78l12 13q38 -29 69 -43.5t76 -14.5q65 0 107 34.5t42 99.5q0 44 -24 71.5t-88 50.5q-68 26 -94 55t-26 74q0 58 44.5 95.5t110.5 37.5q41 0 73.5 -13t60.5 -40l-14 -14q-27 24 -55 35.5t-66 11.5q-57 0 -94.5 -31z" />
    <glyph glyph-name="uni0240" unicode="&#x240;" horiz-adv-x="366" 
d="M-6 18l350 481h-258l3 20h285l-3 -18l-353 -487q42 -8 70 -27t45 -40.5t35 -53.5q21 -37 37.5 -53.5t45.5 -16.5q30 0 56 19l11 -14q-30 -25 -68 -25q-36 0 -55.5 18.5t-43.5 59.5q-20 33 -37.5 55t-47.5 40t-75 24z" />
    <glyph glyph-name="uni0241" unicode="&#x241;" horiz-adv-x="409" 
d="M153 289l60 16q86 23 129 75.5t43 142.5q0 69 -34 108t-99 39q-47 0 -87 -19.5t-83 -57.5l-13 16q45 41 89 61.5t95 20.5q74 0 115 -45.5t41 -121.5q0 -99 -48 -156t-142 -82l-45 -13l-39 -273h-23z" />
    <glyph glyph-name="uni0242" unicode="&#x242;" horiz-adv-x="376" 
d="M109 171l65 17q71 20 108.5 66.5t37.5 120.5q0 63 -32 98.5t-89 35.5q-45 0 -79 -17t-69 -48l-12 16q37 34 74.5 51.5t86.5 17.5q67 0 105 -42t38 -112q0 -161 -167 -206l-47 -13l-22 -156h-22z" />
    <glyph glyph-name="uni0243" unicode="&#x243;" horiz-adv-x="541" 
d="M439 319.5q35 -35.5 35 -100.5q0 -55 -23 -104.5t-76 -82t-138 -32.5h-160l26 183h-82l3 21h82l67 477h142q87 0 133 -36.5t46 -105.5q0 -71 -41 -119.5t-108 -58.5q59 -6 94 -41.5zM152 370h150q51 0 89 22.5t59 61t21 84.5q0 122 -155 122h-123zM401.5 79.5
q49.5 58.5 49.5 139.5q0 65 -38.5 98t-108.5 33h-155l-20 -146h171l-3 -21h-171l-23 -162h137q112 0 161.5 58.5z" />
    <glyph glyph-name="uni0244" unicode="&#x244;" horiz-adv-x="595" 
d="M576 520h-53l-47 -334q-11 -87 -65 -141.5t-148 -54.5q-84 0 -124.5 42.5t-40.5 114.5q0 19 3 40l47 333h-55l3 18h54l20 143h23l-20 -143h330l20 143h22l-20 -143h54zM500 520h-330l-46 -332q-3 -21 -3 -39q0 -64 34.5 -100.5t107.5 -36.5q85 0 132.5 49.5t58.5 127.5z
" />
    <glyph glyph-name="uni0245" unicode="&#x245;" horiz-adv-x="509" 
d="M327 681l118 -681h-24l-110 663l-296 -663h-24l308 681h28z" />
    <glyph glyph-name="uni0246" unicode="&#x246;" horiz-adv-x="445" 
d="M453 660h-48l-110 -290h82l-4 -21h-85l-124 -328h210l-4 -21h-214l-25 -66l-17 4l23 62h-64l96 681h226l21 56l16 -5l-19 -51h46zM277 370l110 290h-198l-41 -290h129zM145 21l124 328h-124l-46 -328h46z" />
    <glyph glyph-name="uni0247" unicode="&#x247;" horiz-adv-x="462" 
d="M240 237l-83 -215q25 -11 55 -11q40 0 72 13.5t69 41.5l12 -15q-39 -31 -75 -46t-78 -15q-34 0 -63 12l-26 -68l-16 5l27 70q-36 21 -55.5 65t-19.5 108q0 82 26.5 162t81.5 132.5t135 52.5q18 0 34 -3l23 60l15 -4l-23 -60q37 -11 58 -39t21 -68q0 -131 -190 -178z
M189.5 469.5q-46.5 -39.5 -72.5 -102.5t-33 -133q89 6 146 20l98 253q-16 2 -27 2q-65 0 -111.5 -39.5zM391.5 471.5q-16.5 22.5 -47.5 31.5l-95 -244q159 44 159 156q0 34 -16.5 56.5zM221 232q-61 -13 -139 -18q-1 -10 -1 -31q0 -113 61 -153z" />
    <glyph glyph-name="uni0248" unicode="&#x248;" horiz-adv-x="274" 
d="M261 332h-99l-34 -245q-8 -53 -22 -85t-42.5 -55t-81.5 -47l-6 17q47 22 72 43t37.5 51t19.5 79l34 242h-99l3 21h99l46 328h23l-46 -328h99z" />
    <glyph glyph-name="uni0249" unicode="&#x249;" horiz-adv-x="255" 
d="M236 233h-100l-33 -232q-8 -60 -24 -95.5t-40 -57t-66 -43.5l-7 17q37 20 58.5 39.5t35 52t21.5 88.5l33 231h-99l3 21h99l37 265h22l-37 -265h100zM177 690q-5 5 -5 12q0 9 5.5 15t15.5 6q8 0 13 -4.5t5 -12.5t-6 -14.5t-16 -6.5q-7 0 -12 5z" />
    <glyph glyph-name="uni024A" unicode="&#x24a;" horiz-adv-x="593" 
d="M566 -168q-37 -29 -83 -29q-37 0 -57.5 21.5t-20.5 61.5q0 6 2 22l13 92l12 84q-69 -94 -173 -94q-84 0 -134.5 66t-50.5 190q0 112 35 214.5t100 166.5t151 64q95 0 145 -89l13 79h20l-96 -681l-12 -92q-2 -16 -2 -22q0 -32 15 -47t40 -15q39 0 72 24zM437 119l64 457
q-25 47 -59.5 70.5t-81.5 23.5q-80 0 -140 -62t-91.5 -160t-31.5 -202q0 -115 44 -174.5t118 -59.5q107 0 178 107z" />
    <glyph glyph-name="uni024B" unicode="&#x24b;" horiz-adv-x="503" 
d="M421 -169l6 -18q-22 -10 -44 -10q-27 0 -42 15t-15 45q0 12 1 18l16 120l14 94q-30 -50 -70 -77.5t-87 -27.5q-66 0 -104 50.5t-38 137.5q0 82 26 163t82 134.5t140 53.5q69 0 128 -37l-69 -491l-16 -121q-1 -6 -1 -16q0 -40 37 -40q15 0 36 7zM288 42q41 31 74 90
l49 350q-44 28 -105 28q-77 0 -127.5 -51t-74 -127t-23.5 -153q0 -79 31.5 -123.5t88.5 -44.5q46 0 87 31z" />
    <glyph glyph-name="uni024C" unicode="&#x24c;" horiz-adv-x="521" 
d="M450 400q-44 -59 -131 -73l126 -327h-25l-124 324h-149l-46 -324h-23l46 324h-83l3 21h83l47 336h139q94 0 137.5 -37t43.5 -109q0 -76 -44 -135zM389 372.5q43 27.5 62 70.5t19 91q0 64 -36.5 95t-121.5 31h-118l-44 -315h129q67 0 110 27.5z" />
    <glyph glyph-name="uni024D" unicode="&#x24d;" horiz-adv-x="334" 
d="M354 522l-6 -19q-18 6 -37 6q-54 0 -93 -45t-74 -140l-5 -33h102l-3 -19h-101l-39 -272h-22l38 272h-97l3 19h97l32 228h19l-20 -144q30 78 69 116t95 38q21 0 42 -7z" />
    <glyph glyph-name="uni024E" unicode="&#x24e;" horiz-adv-x="450" 
d="M429 584h48l-4 -17h-54l-180 -296l-38 -271h-23l38 270l-98 297h-56l3 17h47l-32 97h25l31 -97h269l58 97h25zM230 293l165 274h-253z" />
    <glyph glyph-name="uni024F" unicode="&#x24f;" horiz-adv-x="395" 
d="M396 382l-3 -18h-49l-165 -366q-29 -64 -53 -99t-55.5 -56.5t-84.5 -37.5l-2 18q48 15 77 35t49.5 51.5t47.5 90.5h-10l-67 364h-50l3 18h44l-25 137h23l24 -137h229l61 137h24l-62 -137h44zM165 16l156 348h-218z" />
    <glyph glyph-name="uni0250" unicode="&#x250;" horiz-adv-x="465" 
d="M106 137q-2 -12 -2 -33q0 -47 24 -70t76 -23q34 0 65.5 8t68.5 24l7 -19q-39 -17 -72 -25.5t-70 -8.5q-61 0 -91 28.5t-30 83.5q0 22 2 34l38 273q4 25 4 47q0 21 -6.5 34t-23.5 21l7 17q22 -10 32.5 -27.5t10.5 -45.5q0 -15 -1 -23q33 48 72.5 72.5t90.5 24.5
q58 0 90.5 -34.5t32.5 -92.5q0 -90 -58.5 -140.5t-150.5 -50.5h-106zM119 231h102q84 0 135.5 45.5t51.5 125.5q0 50 -26 78t-75 28q-52 0 -91.5 -27.5t-72.5 -80.5z" />
    <glyph glyph-name="uni0251" unicode="&#x251;" horiz-adv-x="498" 
d="M372 62q0 -21 7 -34t23 -21l-7 -17q-22 10 -32.5 28t-10.5 48q0 9 2 29q-29 -50 -68.5 -77.5t-86.5 -27.5q-67 0 -104 50t-37 138q0 80 26.5 161.5t77.5 135.5t121 54q92 0 121 -95l15 85h18l-60 -407q-5 -33 -5 -50zM358 131l40 263q-13 61 -42.5 88t-73.5 27
q-62 0 -108 -51t-70 -128t-24 -151q0 -79 31 -123.5t88 -44.5q91 0 159 120z" />
    <glyph glyph-name="uni0252" unicode="&#x252;" horiz-adv-x="498" 
d="M403 479q37 -50 37 -138q0 -80 -26.5 -161.5t-77.5 -135.5t-121 -54q-92 0 -121 95l-15 -85h-18l60 407q5 33 5 50q0 21 -7 34t-23 21l7 17q22 -10 32.5 -28t10.5 -48q0 -9 -2 -29q29 50 68.5 77.5t86.5 27.5q67 0 104 -50zM324 61q46 51 70 128t24 151q0 79 -31 123.5
t-88 44.5q-91 0 -159 -120l-40 -263q13 -61 42.5 -88t73.5 -27q62 0 108 51z" />
    <glyph glyph-name="uni0253" unicode="&#x253;" horiz-adv-x="512" 
d="M420.5 483.5q34.5 -45.5 34.5 -131.5q0 -82 -24 -165t-78 -140t-137 -57q-38 0 -70 8t-73 26l69 495h1l14 99q8 57 42 88t85 31q55 0 102 -31l-10 -17q-43 27 -91 27q-43 0 -71.5 -25.5t-35.5 -76.5l-13 -96h-1l-11 -82q38 44 78.5 68.5t88.5 24.5q66 0 100.5 -45.5z
M341 65.5q49 54.5 70.5 133.5t21.5 154q0 77 -28.5 116.5t-84.5 39.5q-49 0 -89 -26t-81 -75l-52 -371q29 -13 56.5 -19.5t61.5 -6.5q76 0 125 54.5z" />
    <glyph glyph-name="uni0254" unicode="&#x254;" horiz-adv-x="420" 
d="M59.5 6q-30.5 16 -54.5 44l15 13q21 -25 47.5 -38.5t64.5 -13.5q64 0 110.5 46t71 121t24.5 162q0 81 -32 125t-91 44q-37 0 -66 -12t-61 -36l-11 16q63 52 139 52q68 0 106.5 -49.5t38.5 -139.5q0 -92 -27.5 -172.5t-79.5 -129t-122 -48.5q-42 0 -72.5 16z" />
    <glyph glyph-name="uni0255" unicode="&#x255;" horiz-adv-x="425" 
d="M361 517q28 -12 51 -38l-14 -14q-21 22 -45 33t-57 11q-71 0 -119.5 -49t-71.5 -124t-23 -152q0 -90 43 -135q44 83 82.5 117.5t84.5 34.5q40 0 61.5 -22.5t21.5 -59.5q0 -59 -42 -94t-110 -35q-29 0 -51 6.5t-42 20.5l-43 -73l-16 8l43 77q-27 26 -41 66t-14 90
q0 82 26 161t79.5 131t131.5 52q37 0 65 -12zM216.5 150q-33.5 -32 -75.5 -114q34 -25 83 -25q56 0 92.5 28t36.5 80q0 29 -15.5 46t-45.5 17q-42 0 -75.5 -32z" />
    <glyph glyph-name="uni0256" unicode="&#x256;" horiz-adv-x="513" 
d="M495 -168q-15 -13 -36.5 -21t-44.5 -8q-38 0 -59 21.5t-21 61.5q0 7 2 23l13 91l17 124q-34 -61 -75 -97.5t-98 -36.5q-63 0 -99 49.5t-36 137.5q0 80 24.5 161.5t75.5 136t127 54.5q89 0 127 -82l40 289l22 -3l-103 -733l-13 -92q-2 -16 -2 -22q0 -63 58 -63q21 0 37 6
t33 18zM290.5 52q41.5 41 83.5 119l34 246q-36 92 -122 92q-68 0 -114.5 -51t-68.5 -127.5t-22 -152.5q0 -79 30 -123t83 -44q55 0 96.5 41z" />
    <glyph glyph-name="uni0257" unicode="&#x257;" horiz-adv-x="513" 
d="M619 706l-13 -14q-14 12 -28.5 18.5t-36.5 6.5q-31 0 -52.5 -21t-27.5 -65l-16 -112h-1l-73 -519h-18l15 128q-34 -62 -76 -100t-99 -38q-63 0 -99 49.5t-36 137.5q0 80 24.5 161.5t75.5 136t127 54.5q89 0 127 -82l10 72h1l16 114q7 51 34 77.5t68 26.5q45 0 78 -31z
M408 417q-36 92 -122 92q-68 0 -114.5 -51t-68.5 -127.5t-22 -152.5q0 -79 30 -123t83 -44q55 0 96.5 41t83.5 119z" />
    <glyph glyph-name="uni0258" unicode="&#x258;" horiz-adv-x="460" 
d="M357.5 472q41.5 -57 41.5 -146q0 -91 -29.5 -168t-83 -122.5t-122.5 -45.5q-44 0 -75.5 15t-60.5 46l15 15q26 -28 53.5 -41.5t67.5 -13.5q74 0 126.5 56t73.5 147q-154 5 -224 41.5t-70 114.5q0 45 20.5 81.5t57.5 57t84 20.5q84 0 125.5 -57zM120.5 294
q27.5 -29 87.5 -43t160 -17q8 46 8 91q0 80 -34.5 132t-109.5 52q-64 0 -101.5 -39t-37.5 -100q0 -47 27.5 -76z" />
    <glyph glyph-name="uni0259" unicode="&#x259;" horiz-adv-x="462" 
d="M363 479.5q40 -49.5 40 -142.5q0 -82 -26.5 -162t-81.5 -132.5t-135 -52.5q-59 0 -93.5 30.5t-34.5 83.5q0 91 90.5 140.5t257.5 60.5q1 10 1 31q0 85 -35 128.5t-96 43.5q-40 0 -72 -13.5t-69 -41.5l-12 15q39 31 75 46t78 15q73 0 113 -49.5zM272.5 49.5
q46.5 39.5 72 102t33.5 133.5q-324 -21 -324 -181q0 -44 27.5 -69t79.5 -25q65 0 111.5 39.5z" />
    <glyph glyph-name="uni025A" unicode="&#x25a;" horiz-adv-x="572" 
d="M620 363q-39 -29 -82 -29q-36 0 -57.5 21.5t-21.5 62.5q0 8 2 26l8 54l-90 -43q24 -45 24 -118q0 -82 -26.5 -162t-81.5 -132.5t-135 -52.5q-59 0 -93.5 30.5t-34.5 83.5q0 91 90.5 140.5t257.5 60.5q1 10 1 31q0 85 -35 128.5t-96 43.5q-40 0 -72 -13.5t-69 -41.5
l-12 15q39 31 75 46t78 15q79 0 119 -58l103 48h22l-11 -77q-2 -18 -2 -24q0 -34 15.5 -49.5t41.5 -15.5q22 0 37.5 6.5t34.5 18.5zM272.5 49.5q46.5 39.5 72 102t33.5 133.5q-324 -21 -324 -181q0 -44 27.5 -69t79.5 -25q65 0 111.5 39.5z" />
    <glyph glyph-name="uni025B" unicode="&#x25b;" horiz-adv-x="414" 
d="M86.5 26.5q-39.5 36.5 -39.5 99.5q0 60 37.5 102t109.5 46q-91 19 -91 106q0 36 18.5 70.5t56 56.5t90.5 22q76 0 131 -46l-14 -15q-24 20 -52 30.5t-65 10.5q-48 0 -80 -19t-47 -48t-15 -61q0 -45 28 -71.5t86 -26.5h50l-7 -20h-47q-91 0 -128.5 -40t-37.5 -98
q0 -53 32.5 -83.5t87.5 -30.5q47 0 81 14t67 42l12 -16q-33 -29 -71 -45t-89 -16q-64 0 -103.5 36.5z" />
    <glyph glyph-name="uni025C" unicode="&#x25c;" horiz-adv-x="421" 
d="M329.5 497.5q33.5 -31.5 33.5 -84.5q0 -57 -34 -94t-94 -44q51 -5 81.5 -33.5t30.5 -80.5q0 -43 -19.5 -82t-61 -64t-104.5 -25q-53 0 -90 19t-66 51l15 13q26 -29 59.5 -45.5t82.5 -16.5q83 0 122.5 44.5t39.5 105.5q0 51 -36 77.5t-101 26.5h-49l6 19h44q74 0 112.5 36
t38.5 93q0 44 -26.5 70t-76.5 26q-40 0 -71.5 -11.5t-72.5 -36.5l-10 16q40 26 76 39t78 13q59 0 92.5 -31.5z" />
    <glyph glyph-name="uni025D" unicode="&#x25d;" horiz-adv-x="541" 
d="M589 363q-39 -29 -82 -29q-36 0 -57.5 21.5t-21.5 62.5q0 8 2 26l8 54l-83 -39q8 -22 8 -46q0 -57 -34 -94t-94 -44q51 -5 81.5 -33.5t30.5 -80.5q0 -43 -19.5 -82t-61 -64t-104.5 -25q-53 0 -90 19t-66 51l15 13q26 -29 59.5 -45.5t82.5 -16.5q83 0 122.5 44.5
t39.5 105.5q0 51 -36 77.5t-101 26.5h-49l6 19h44q74 0 112.5 36t38.5 93q0 18 -5 36l-3 -1l1 6q-10 26 -34.5 40.5t-61.5 14.5q-40 0 -71.5 -11.5t-72.5 -36.5l-10 16q40 26 76 39t78 13q38 0 66.5 -14t43.5 -39l94 43h22l-11 -77q-2 -18 -2 -24q0 -34 15.5 -49.5
t41.5 -15.5q22 0 37.5 6.5t34.5 18.5z" />
    <glyph glyph-name="uni025E" unicode="&#x25e;" horiz-adv-x="486" 
d="M101.5 40.5q-42.5 50.5 -42.5 142.5q0 94 28.5 173t84 126t131.5 47q58 0 91.5 -32t33.5 -86q0 -57 -32.5 -92.5t-93.5 -43.5q51 -6 80.5 -34t29.5 -80q0 -43 -19.5 -82t-61.5 -64t-106 -25q-81 0 -123.5 50.5zM349.5 55q39.5 44 39.5 105q0 52 -33.5 78.5t-99.5 26.5
h-34l5 19h30q72 0 110 35t38 91q0 46 -26.5 72.5t-76.5 26.5q-71 0 -120.5 -45t-74.5 -119.5t-25 -161.5q0 -83 36.5 -127.5t107.5 -44.5q84 0 123.5 44z" />
    <glyph glyph-name="uni025F" unicode="&#x25f;" horiz-adv-x="255" 
d="M236 233h-100l-33 -232q-8 -60 -24 -95.5t-40 -57t-66 -43.5l-7 17q37 20 58.5 39.5t35 52t21.5 88.5l33 231h-99l3 21h99l37 265h22l-37 -265h100z" />
    <glyph glyph-name="uni0260" unicode="&#x260;" horiz-adv-x="507" 
d="M613 706l-13 -14q-14 12 -28.5 18.5t-36.5 6.5q-31 0 -52.5 -21t-27.5 -65l-16 -112h-1l-76 -527q-28 -189 -179 -189q-80 0 -146 47l10 15q65 -43 136 -43q133 0 157 169l16 114q-29 -49 -69 -77t-86 -28q-67 0 -104.5 51t-37.5 138q0 79 26 157t81.5 130.5t138.5 52.5
q63 0 108 -28l3 18h1l16 114q7 51 34 77.5t68 26.5q45 0 78 -31zM411 482q-49 28 -106 28q-76 0 -126 -49.5t-73.5 -123.5t-23.5 -148q0 -77 31.5 -122.5t88.5 -45.5q91 0 159 120z" />
    <glyph glyph-name="uni0261" unicode="&#x261;" horiz-adv-x="501" 
d="M433 492l-71 -500q-14 -101 -61.5 -145t-117.5 -44q-80 0 -146 47l10 15q65 -43 136 -43q133 0 157 169l16 114q-29 -49 -69 -77t-86 -28q-67 0 -104.5 51t-37.5 138q0 79 26 157t81.5 130.5t138.5 52.5q69 0 128 -37zM179 460.5q-50 -49.5 -73.5 -123.5t-23.5 -148
q0 -77 31.5 -122.5t88.5 -45.5q91 0 159 120l49 341q-44 28 -105 28q-76 0 -126 -49.5z" />
    <glyph glyph-name="uni0262" unicode="&#x262;" horiz-adv-x="493" 
d="M368.5 518.5q30.5 -12.5 58.5 -37.5l-15 -15q-48 45 -112 45q-67 0 -116.5 -44.5t-75.5 -118.5t-26 -159q0 -90 39 -133t110 -43q68 0 125 32l29 207h-111v20h137l-34 -239q-69 -41 -147 -41q-80 0 -125 49.5t-45 147.5q0 92 29.5 170t84 125t125.5 47q39 0 69.5 -12.5z
" />
    <glyph glyph-name="uni0263" unicode="&#x263;" horiz-adv-x="408" 
d="M187 43q15 -49 22.5 -82.5t7.5 -63.5q0 -42 -20 -68t-55 -26q-27 0 -41.5 16.5t-14.5 45.5q0 32 19 74.5t58 105.5l-104 474h23l95 -457l221 457h24zM173 28q-31 -52 -48.5 -92.5t-17.5 -70.5q0 -42 35 -42q26 0 40 19.5t14 54.5q0 51 -23 131z" />
    <glyph glyph-name="uni0264" unicode="&#x264;" horiz-adv-x="463" 
d="M491 504l-12 -14q-12 10 -21.5 14.5t-21.5 4.5q-18 0 -32 -11t-27 -36l-140 -254q18 -46 26.5 -76.5t8.5 -56.5q0 -37 -20 -61t-54 -24q-28 0 -43.5 17t-15.5 45q0 29 18.5 67t54.5 90l-68 253q-7 25 -17.5 36t-28.5 11q-13 0 -24 -4.5t-24 -14.5l-9 15q27 24 58 24
q27 0 42 -16t24 -48l61 -240l129 240q18 33 36.5 48.5t44.5 15.5q30 0 55 -25zM245 122.5q-6 23.5 -22 69.5q-31 -48 -46.5 -79.5t-15.5 -61.5q0 -19 9 -30t28 -11q25 0 39 17.5t14 47.5q0 24 -6 47.5z" />
    <glyph glyph-name="uni0265" unicode="&#x265;" horiz-adv-x="519" 
d="M381 153q-84 -163 -193 -163q-52 0 -79 31t-27 87q0 18 3 39l52 372h22l-52 -371q-3 -21 -3 -39q0 -100 86 -100q55 0 103.5 49t94.5 140l45 321h22l-100 -713l-23 -3z" />
    <glyph glyph-name="uni0266" unicode="&#x266;" horiz-adv-x="524" 
d="M415 498.5q27 -30.5 27 -86.5q0 -18 -3 -39l-53 -373h-22l53 371q3 23 3 40q0 99 -86 99q-55 0 -103.5 -48.5t-94.5 -140.5l-45 -321h-22l73 518l14 100q8 57 42 88t85 31q55 0 102 -31l-10 -17q-43 27 -91 27q-43 0 -71.5 -25.5t-35.5 -76.5l-13 -96l-22 -152
q84 163 193 163q53 0 80 -30.5z" />
    <glyph glyph-name="uni0267" unicode="&#x267;" horiz-adv-x="524" 
d="M415 498.5q27 -30.5 27 -86.5q0 -18 -3 -39l-53 -373l-13 -93q-7 -51 -35 -77.5t-69 -26.5q-44 0 -76 30l12 15q14 -13 28 -19t36 -6q32 0 54 20.5t28 65.5l66 462q3 23 3 40q0 99 -86 99q-55 0 -103.5 -48.5t-94.5 -140.5l-45 -321h-22l73 518l14 100q8 57 42 88t85 31
q55 0 102 -31l-10 -17q-43 27 -91 27q-43 0 -71.5 -25.5t-35.5 -76.5l-13 -96l-22 -152q84 163 193 163q53 0 80 -30.5z" />
    <glyph glyph-name="uni0268" unicode="&#x268;" horiz-adv-x="252" 
d="M175 690q-5 5 -5 12q0 9 5.5 15t15.5 6q8 0 13 -4.5t5 -12.5t-6 -14.5t-16 -6.5q-7 0 -12 5zM241 291l-3 -19h-99l-38 -272h-22l38 272h-100l3 19h100l32 228h22l-32 -228h99z" />
    <glyph glyph-name="uni0269" unicode="&#x269;" horiz-adv-x="249" 
d="M137 519h22l-63 -450q-2 -14 -2 -18q0 -41 39 -41q12 0 36 8l6 -18q-26 -10 -45 -10q-27 0 -42.5 15.5t-15.5 44.5q0 6 2 20z" />
    <glyph glyph-name="uni026A" unicode="&#x26a;" horiz-adv-x="271" 
d="M279 501h-99l-67 -483h99l-3 -18h-220l3 18h99l67 483h-99l3 18h220z" />
    <glyph glyph-name="uni026B" unicode="&#x26b;" horiz-adv-x="254" 
d="M276 377q-21 -27 -39.5 -40.5t-42.5 -13.5q-14 0 -26.5 5.5t-29.5 15.5l-38 -276q-2 -12 -2 -18q0 -39 39 -39q17 0 36 7l6 -18q-26 -10 -44 -10q-28 0 -43 15.5t-15 45.5q0 12 1 18l40 288q-16 11 -27.5 16t-23.5 5q-21 0 -36 -10.5t-33 -32.5l-14 10q22 28 40.5 41.5
t43.5 13.5q14 0 26 -5t28 -14l49 352l22 3l-51 -369q17 -11 28.5 -16.5t24.5 -5.5q20 0 34.5 10.5t32.5 31.5z" />
    <glyph glyph-name="uni026C" unicode="&#x26c;" horiz-adv-x="277" 
d="M196 18l6 -18q-26 -10 -44 -10q-28 0 -43 15.5t-15 45.5q0 12 1 18l30 211q-46 0 -71 19.5t-25 57.5q0 40 26.5 63.5t66.5 23.5q13 0 25 -2l41 291l22 3l-61 -436q42 1 76 8l1 -18q-33 -7 -79 -9l-30 -213q-2 -12 -2 -18q0 -39 39 -39q17 0 36 7zM75 314q19 -14 58 -14
l17 122q-12 2 -23 2q-32 0 -51.5 -17.5t-19.5 -49.5q0 -29 19 -43z" />
    <glyph glyph-name="uni026D" unicode="&#x26d;" horiz-adv-x="233" 
d="M215 -168q-15 -13 -36.5 -21t-44.5 -8q-38 0 -59 21.5t-21 61.5q0 7 2 23l13 91l103 733l22 3l-103 -736l-13 -92q-2 -16 -2 -22q0 -63 58 -63q21 0 37 6t33 18z" />
    <glyph glyph-name="uni026E" unicode="&#x26e;" horiz-adv-x="543" 
d="M518 501l-243 -308h18q183 0 183 -151q0 -70 -26.5 -124t-74.5 -84.5t-110 -30.5q-52 0 -89 21t-65 61l16 12q27 -38 60 -55.5t78 -17.5q87 0 137.5 60t50.5 157q0 68 -39 100t-120 32h-47l3 21l239 305h-333l-60 -431q-2 -12 -2 -18q0 -39 39 -39q17 0 36 7l6 -18
q-26 -10 -44 -10q-28 0 -43 15.5t-15 45.5q0 12 1 18l93 664l22 3l-30 -217h362z" />
    <glyph glyph-name="uni026F" unicode="&#x26f;" horiz-adv-x="763" 
d="M694 519l-73 -519h-19l20 158q-38 -83 -83.5 -125.5t-94.5 -42.5q-45 0 -69.5 30.5t-24.5 86.5q0 19 3 41q-38 -78 -83 -118t-93 -40q-45 0 -69.5 30.5t-24.5 85.5q0 20 3 44l52 369h22l-52 -367q-3 -24 -3 -44q0 -49 18.5 -74t54.5 -25q48 0 93 48t89 141l45 321h22
l-52 -367q-3 -24 -3 -44q0 -49 19 -74t55 -25q48 0 93 49.5t89 145.5l44 315h22z" />
    <glyph glyph-name="uni0270" unicode="&#x270;" horiz-adv-x="758" 
d="M694 519l-100 -712l-23 -3l50 352q-77 -166 -177 -166q-46 0 -70 31.5t-24 87.5q0 20 3 42q-37 -80 -82 -120.5t-95 -40.5q-45 0 -69 30.5t-24 85.5q0 20 3 44l51 369h22l-51 -367q-3 -24 -3 -45q0 -98 73 -98q49 0 94 49t89 143l44 318h22l-52 -367q-3 -24 -3 -44
q0 -49 18.5 -74t54.5 -25q49 0 94 49.5t88 145.5l45 315h22z" />
    <glyph glyph-name="uni0271" unicode="&#x271;" horiz-adv-x="763" 
d="M655.5 498.5q24.5 -30.5 24.5 -85.5q0 -20 -3 -44l-52 -369l-13 -93q-7 -51 -35 -77.5t-69 -26.5q-44 0 -76 30l12 15q14 -13 28 -19t36 -6q32 0 54 20.5t28 65.5l13 91l52 367q3 24 3 44q0 49 -18.5 74t-54.5 25q-48 0 -93 -48t-89 -141l-45 -321h-22l52 367q3 24 3 44
q0 49 -19 74t-55 25q-48 0 -93 -49.5t-89 -145.5l-44 -315h-22l73 519h19l-20 -158q38 83 83.5 125.5t94.5 42.5q45 0 69.5 -30.5t24.5 -86.5q0 -18 -3 -41q38 78 83 118t93 40q45 0 69.5 -30.5z" />
    <glyph glyph-name="uni0272" unicode="&#x272;" horiz-adv-x="523" 
d="M414 498.5q27 -30.5 27 -86.5q0 -18 -3 -39l-52 -373h-22l52 371q3 21 3 40q0 99 -85 99q-55 0 -103.5 -48.5t-94.5 -140.5l-45 -321h-1l-13 -93q-7 -51 -35 -77.5t-69 -26.5q-44 0 -76 30l12 15q14 -13 28 -19t36 -6q32 0 54 20.5t28 65.5l13 91h1l73 519h19l-20 -155
q42 82 90 123.5t104 41.5q52 0 79 -30.5z" />
    <glyph glyph-name="uni0273" unicode="&#x273;" horiz-adv-x="523" 
d="M510 -168q-15 -13 -36.5 -21t-44.5 -8q-38 0 -59 21.5t-21 61.5q0 7 2 23l13 91l52 371q3 21 3 40q0 99 -85 99q-55 0 -103.5 -48.5t-94.5 -140.5l-45 -321h-22l73 519h19l-20 -155q42 82 90 123.5t104 41.5q52 0 79 -30.5t27 -86.5q0 -18 -3 -39l-52 -373l-13 -92
q-2 -16 -2 -22q0 -63 58 -63q21 0 37 6t33 18z" />
    <glyph glyph-name="uni0274" unicode="&#x274;" horiz-adv-x="525" 
d="M383 0h-28l-198 497q-6 -67 -16 -133l-51 -364h-21l73 519h28l198 -497l14 123q2 10 4 30l49 344h21z" />
    <glyph glyph-name="uni0275" unicode="&#x275;" horiz-adv-x="506" 
d="M407.5 479q40.5 -50 40.5 -142q0 -77 -24 -157t-77 -135t-134 -55q-74 0 -114 51.5t-40 142.5q0 78 24.5 157.5t77 133.5t133.5 54q73 0 113.5 -50zM157.5 440.5q-50.5 -68.5 -67.5 -167.5h331q4 31 4 65q0 83 -34 127t-97 44q-86 0 -136.5 -68.5zM350.5 81.5
q50.5 70.5 67.5 171.5h-331q-5 -42 -5 -70q0 -83 34 -127.5t97 -44.5q87 0 137.5 70.5z" />
    <glyph glyph-name="uni0276" unicode="&#x276;" horiz-adv-x="641" 
d="M627 499h-243q30 -21 47 -63.5t17 -100.5q0 -16 -2 -50h119l-4 -20h-118q-11 -80 -44 -146.5t-87 -97.5h254l-3 -21h-293q-28 -10 -57 -10q-74 0 -114 51.5t-40 142.5q0 78 24.5 157.5t77 133.5t133.5 54q30 0 57 -10h282zM391.5 464.5q-33.5 44.5 -97.5 44.5
q-74 0 -122 -52t-69 -127.5t-21 -146.5q0 -83 34 -127.5t97 -44.5q74 0 121.5 52t69 127t21.5 148q0 82 -33.5 126.5z" />
    <glyph glyph-name="uni0277" unicode="&#x277;" horiz-adv-x="667" 
d="M546.5 471q57.5 -58 57.5 -165q0 -80 -21 -152t-64.5 -118t-107.5 -46q-52 0 -77.5 33.5t-21.5 93.5q-18 -64 -54 -95.5t-84 -31.5q-55 0 -87 40t-32 121q0 114 37.5 199.5t110 132t173.5 46.5q113 0 170.5 -58zM507 54.5q38 43.5 56 111t18 139.5q0 99 -51.5 151.5
t-155.5 52.5q-95 0 -162 -44.5t-100.5 -125.5t-33.5 -188q0 -140 97 -140q48 0 84 38.5t49 118.5l23 144l23 4l-24 -151q-4 -32 -4 -47q0 -107 86 -107q57 0 95 43.5z" />
    <glyph glyph-name="uni0278" unicode="&#x278;" horiz-adv-x="558" 
d="M443 92.5q-67 -81.5 -189 -85.5l-28 -199l-22 -4l29 203q-90 3 -137 55t-47 146q0 90 30.5 158t88 106t137.5 40l31 221l22 3l-31 -224q89 -4 136 -55.5t47 -143.5q0 -139 -67 -220.5zM427.5 107.5q60.5 76.5 60.5 204.5q-1 86 -42.5 132t-123.5 49l-65 -466
q110 4 170.5 80.5zM113 75q42 -46 124 -48l64 466q-109 -4 -169.5 -81.5t-60.5 -203.5q0 -87 42 -133z" />
    <glyph glyph-name="uni0279" unicode="&#x279;" horiz-adv-x="327" 
d="M-20 -3l6 19q18 -6 37 -6q54 0 93 45t74 140l46 324h22l-73 -519h-19l20 144q-30 -78 -69 -116t-95 -38q-21 0 -42 7z" />
    <glyph glyph-name="uni027A" unicode="&#x27a;" horiz-adv-x="327" 
d="M288 733l-30 -214l-73 -519h-19l20 144q-30 -78 -69 -116t-95 -38q-21 0 -42 7l6 19q18 -6 37 -6q54 0 93 45t74 140l46 324l30 217z" />
    <glyph glyph-name="uni027B" unicode="&#x27b;" horiz-adv-x="327" 
d="M309 -168q-15 -13 -36.5 -21t-44.5 -8q-38 0 -59 21.5t-21 61.5q0 7 2 23l13 91h-1l19 137q-28 -74 -66 -110.5t-93 -36.5q-20 0 -43 7l7 19q20 -6 37 -6q54 0 93 45t74 140l46 324h22l-74 -519h1l-13 -92q-2 -16 -2 -22q0 -63 58 -63q21 0 37 6t33 18z" />
    <glyph glyph-name="uni027C" unicode="&#x27c;" horiz-adv-x="327" 
d="M348 522l-6 -19q-18 6 -38 6q-54 0 -92.5 -45t-74.5 -140l-73 -518l-23 -3l102 716h19l-20 -144q30 78 69 116t95 38q19 0 42 -7z" />
    <glyph glyph-name="uni027D" unicode="&#x27d;" horiz-adv-x="327" 
d="M347 522l-6 -19q-18 6 -37 6q-54 0 -93 -45t-74 -140l-46 -324l-13 -92q-2 -16 -2 -22q0 -63 58 -63q21 0 37 6t33 18l11 -15q-15 -13 -36.5 -21t-44.5 -8q-38 0 -59 21.5t-21 61.5q0 7 2 23l13 91l73 519h19l-20 -144q30 78 69 116t95 38q21 0 42 -7z" />
    <glyph glyph-name="uni027E" unicode="&#x27e;" horiz-adv-x="292" 
d="M304 498l-12 -15q-14 13 -28 19t-36 6q-32 0 -54 -20.5t-28 -65.5l-13 -91l-46 -331h-22l46 331l13 93q7 51 35 77.5t69 26.5q44 0 76 -30z" />
    <glyph glyph-name="uni027F" unicode="&#x27f;" horiz-adv-x="293" 
d="M195 506.5q21 -21.5 21 -61.5q0 -7 -2 -23l-13 -91h1l-47 -331h-22l47 331h-1l13 92q2 16 2 22q0 63 -58 63q-21 0 -37 -6t-33 -18l-11 15q15 13 36.5 21t44.5 8q38 0 59 -21.5z" />
    <glyph glyph-name="uni0280" unicode="&#x280;" horiz-adv-x="458" 
d="M368 286.5q-39 -38.5 -103 -50.5l107 -236h-24l-106 234h-118l-33 -234h-22l73 519h108q157 0 157 -124q0 -70 -39 -108.5zM226 254q72 0 115.5 36.5t43.5 104.5q0 52 -33 78t-104 26h-87l-34 -245h99z" />
    <glyph glyph-name="uni0281" unicode="&#x281;" horiz-adv-x="458" 
d="M346.5 244q27.5 -29 27.5 -78q0 -83 -53 -124.5t-144 -41.5h-108l73 519h22l-33 -234h120l169 234h25l-172 -237q46 -9 73.5 -38zM351 166q0 50 -31 74.5t-85 24.5h-107l-34 -244h82q175 0 175 145z" />
    <glyph glyph-name="uni0282" unicode="&#x282;" horiz-adv-x="414" 
d="M145.5 478q-37.5 -31 -37.5 -82q0 -39 23 -63t85 -47q68 -25 96 -57t28 -83q0 -70 -47 -113t-126 -43q-44 0 -76.5 12.5t-59.5 35.5l-18 -133q-2 -16 -2 -23q0 -32 15.5 -47t42.5 -15q35 0 70 24l11 -15q-36 -29 -81 -29q-38 0 -59 21.5t-21 61.5q0 7 2 23l21 150l13 13
q30 -29 62.5 -43.5t79.5 -14.5q66 0 108 34.5t42 99.5q0 44 -24 71.5t-87 50.5q-68 26 -94.5 55t-26.5 74q0 59 44.5 96t111.5 37q41 0 73 -13t61 -40l-15 -15q-26 25 -54 36.5t-66 11.5q-57 0 -94.5 -31z" />
    <glyph glyph-name="uni0283" unicode="&#x283;" horiz-adv-x="233" 
d="M338 706l-13 -14q-14 12 -28.5 18.5t-36.5 6.5q-31 0 -52.5 -21t-27.5 -65l-16 -112l-74 -519l-13 -93q-7 -51 -35 -77.5t-69 -26.5q-44 0 -76 30l12 15q14 -13 28 -19t36 -6q32 0 54 20.5t28 65.5l13 91l74 519l16 114q7 51 34 77.5t68 26.5q45 0 78 -31z" />
    <glyph glyph-name="uni0284" unicode="&#x284;" horiz-adv-x="286" 
d="M355 706l-13 -14q-14 12 -28.5 18.5t-36.5 6.5q-31 0 -52.5 -21t-27.5 -65l-16 -112h-1l-70 -498h99l-3 -21h-99q-9 -60 -24.5 -95t-39.5 -56.5t-66 -43.5l-7 17q37 20 58.5 39.5t35 51.5t21.5 87h-99l3 21h99l70 498h1l16 114q7 51 34 77.5t68 26.5q45 0 78 -31z" />
    <glyph glyph-name="uni0285" unicode="&#x285;" horiz-adv-x="338" 
d="M294 19q-15 -13 -36.5 -21t-44.5 -8q-38 0 -59 21.5t-21 61.5q0 7 2 23l13 91l20 145l13 92q2 16 2 22q0 63 -58 63q-21 0 -37 -6t-33 -18l-11 15q15 13 36.5 21t44.5 8q38 0 59 -21.5t21 -61.5q0 -7 -2 -23l-13 -91l-20 -145l-13 -92q-2 -16 -2 -22q0 -63 58 -63
q21 0 37 6t33 18z" />
    <glyph glyph-name="uni0286" unicode="&#x286;" horiz-adv-x="248" 
d="M354 706l-13 -14q-14 12 -28.5 18.5t-36.5 6.5q-31 0 -52.5 -21t-27.5 -65l-16 -112l-77 -549q38 -11 79 -33l-9 -17q-37 20 -73 31v-1q-10 -69 -43 -108t-90 -39q-40 0 -63.5 22.5t-23.5 58.5q0 47 33 73t84 26q42 0 83 -9l78 545l16 114q7 51 34 77.5t68 26.5
q45 0 78 -31zM41.5 -144.5q25.5 32.5 35.5 99.5q-23 5 -39 7t-41 2q-44 0 -69.5 -21t-25.5 -59q0 -28 17 -44.5t48 -16.5q49 0 74.5 32.5z" />
    <glyph glyph-name="uni0287" unicode="&#x287;" horiz-adv-x="294" 
d="M234 0h-77l-24 -131l-17 -2l19 133h-129l6 20h126l54 387q2 18 2 26q0 76 -68 76q-39 0 -84 -26l-9 16q49 30 95 30q41 0 64.5 -24t23.5 -70q0 -7 -2 -27l-54 -388h77z" />
    <glyph glyph-name="uni0288" unicode="&#x288;" horiz-adv-x="294" 
d="M156 499l-70 -499h1l-13 -92q-2 -16 -2 -22q0 -63 58 -63q21 0 37 6t33 18l11 -15q-15 -13 -36.5 -21t-44.5 -8q-38 0 -59 21.5t-21 61.5q0 7 2 23l13 91h-1l70 499h-77l3 20h77l24 131l17 2l-19 -133h129l-6 -20h-126z" />
    <glyph glyph-name="uni0289" unicode="&#x289;" horiz-adv-x="535" 
d="M510 364h-78l-52 -364h-17l21 157q-33 -77 -81.5 -122t-108.5 -45q-51 0 -79.5 31t-28.5 87q0 17 3 36l31 220h-78l3 18h77l19 137h22l-19 -137h269l19 137h22l-20 -137h79zM410 364h-268l-31 -220q-3 -19 -3 -36q0 -48 22.5 -72.5t64.5 -24.5q59 0 107 50t85 138z" />
    <glyph glyph-name="uni028A" unicode="&#x28a;" horiz-adv-x="507" 
d="M98 39.5q-41 49.5 -41 136.5q0 99 39 182t106 141h-87l3 20h111l-3 -21q-146 -132 -146 -322q0 -80 34.5 -122.5t99.5 -42.5t112 39.5t71 106t24 147.5q0 115 -63 195l3 20h111l-3 -20h-86q61 -81 61 -195q0 -88 -28 -159.5t-80 -113t-122 -41.5q-75 0 -116 49.5z" />
    <glyph glyph-name="uni028B" unicode="&#x28b;" horiz-adv-x="509" 
d="M116.5 22.5q-33.5 32.5 -33.5 92.5q0 8 2 30l52 374h22l-53 -375q-2 -22 -2 -30q0 -51 28 -77t74 -26q70 0 120 56.5t68 180.5l28 200q2 14 2 19q-1 42 -38 42q-18 0 -37 -8l-5 18q20 10 44 10q27 0 42 -15t15 -46q0 -13 -1 -20l-28 -201q-18 -129 -74 -193t-137 -64
q-55 0 -88.5 32.5z" />
    <glyph glyph-name="uni028C" unicode="&#x28c;" horiz-adv-x="409" 
d="M-14 0l237 519h29l98 -519h-23l-92 500l-225 -500h-24z" />
    <glyph glyph-name="uni028D" unicode="&#x28d;" horiz-adv-x="619" 
d="M-4 0l195 519h29l55 -496l194 496h30l51 -519h-21l-48 498l-195 -498h-28l-55 498l-185 -498h-22z" />
    <glyph glyph-name="uni028E" unicode="&#x28e;" horiz-adv-x="406" 
d="M221 521q33 75 60 114.5t60 61.5t87 39l2 -18q-49 -15 -79.5 -36.5t-54.5 -58t-55 -105.5l11 1l95 -519h-24l-89 503l-224 -503h-24z" />
    <glyph glyph-name="uni028F" unicode="&#x28f;" horiz-adv-x="383" 
d="M397 519l-200 -307l-30 -212h-22l30 211l-116 308h23l105 -288l186 288h24z" />
    <glyph glyph-name="uni0290" unicode="&#x290;" horiz-adv-x="370" 
d="M421 -168q-15 -13 -36.5 -21t-44.5 -8q-38 0 -59 21.5t-21 61.5q0 7 2 23l13 91h-284l3 18l350 481h-258l3 20h285l-3 -18l-349 -480h277l-2 -21l-13 -92q-2 -16 -2 -22q0 -63 58 -63q21 0 37 6t33 18z" />
    <glyph glyph-name="uni0291" unicode="&#x291;" horiz-adv-x="380" 
d="M363 172q20 -20 20 -55q0 -66 -49.5 -91.5t-136.5 -25.5l-5 -33q-2 -13 -4.5 -31t-4.5 -39l-21 2q4 33 16 101h-187l3 18l350 481h-258l3 20h285l-3 -18l-350 -480h161q15 84 47.5 127.5t80.5 43.5q33 0 53 -20zM320 40q42 21 42 76q0 27 -13.5 41.5t-38.5 14.5
q-40 0 -66.5 -36.5t-41.5 -114.5q76 -2 118 19z" />
    <glyph glyph-name="uni0292" unicode="&#x292;" horiz-adv-x="401" 
d="M377 501l-244 -308h20q181 0 181 -152q0 -69 -26.5 -123.5t-74.5 -84.5t-110 -30q-52 0 -89.5 21t-66.5 61l16 12q28 -38 61.5 -55.5t78.5 -17.5q86 0 137 60t51 156q0 69 -39 101t-120 32h-47l3 21l240 305h-279l3 20h307z" />
    <glyph glyph-name="uni0293" unicode="&#x293;" horiz-adv-x="403" 
d="M379 501l-244 -308h22q179 0 179 -150q0 -76 -36 -133.5t-101 -85.5l18 -59l-20 -7l-16 60q-42 -15 -96 -15q-62 0 -95.5 28t-33.5 76q0 45 27.5 76t71.5 31q51 0 83 -37.5t56 -132.5q59 25 89.5 77t30.5 121q0 68 -39 99.5t-119 31.5h-49l1 1l3 20l239 305h-278l2 20
h308zM5.5 -155q28.5 -21 80.5 -21q47 0 89 13q-22 90 -49.5 124t-70.5 34q-36 0 -57 -25t-21 -63q0 -41 28.5 -62z" />
    <glyph glyph-name="uni0294" unicode="&#x294;" horiz-adv-x="384" 
d="M132 330l61 16q85 23 128 75.5t43 147.5q0 68 -34 107t-97 39q-47 0 -83 -17.5t-76 -52.5l-13 14q41 38 81.5 58t91.5 20q71 0 112 -46t41 -121q0 -105 -48.5 -162t-141.5 -82l-44 -11l-45 -315h-22z" />
    <glyph glyph-name="uni0295" unicode="&#x295;" horiz-adv-x="383" 
d="M203 0l44 314l-37 10q-65 19 -101.5 55.5t-36.5 111.5q0 68 27 124.5t75.5 89t108.5 32.5q49 0 85 -20.5t66 -58.5l-16 -14q-27 35 -59 53t-76 18q-55 0 -97.5 -30t-66 -81.5t-23.5 -114.5q0 -65 32 -97t87 -48l56 -16l-46 -328h-22z" />
    <glyph glyph-name="uni0296" unicode="&#x296;" horiz-adv-x="441" 
d="M240 736l-44 -319l38 -10q61 -16 98.5 -54.5t38.5 -115.5q0 -68 -26.5 -123.5t-73.5 -87t-106 -31.5q-53 0 -89 20t-67 59l15 12q29 -34 61 -52t79 -18q53 0 95 29t65.5 79.5t23.5 112.5q0 68 -33 102t-86 48l-58 15l47 331z" />
    <glyph glyph-name="uni0297" unicode="&#x297;" horiz-adv-x="440" 
d="M382 517q26 -12 51 -38l-14 -14q-21 23 -44 33.5t-56 10.5q-71 0 -124.5 -69.5t-82 -179t-28.5 -223.5q0 -110 34 -164t97 -54q32 0 61 12.5t59 35.5l11 -16q-63 -53 -131 -53q-74 0 -113.5 60t-40.5 179q1 125 32 238t89.5 183.5t136.5 70.5q37 0 63 -12z" />
    <glyph glyph-name="uni0298" unicode="&#x298;" horiz-adv-x="714" 
d="M598 622.5q64 -68.5 64 -195.5q0 -124 -42 -223.5t-120.5 -156.5t-184.5 -57q-112 0 -176 70t-64 195q0 122 43 221.5t122 157t182 57.5q112 0 176 -68.5zM251 616q-74 -55 -113.5 -149.5t-39.5 -210.5q0 -117 58 -181t159 -64q100 0 173.5 54t112 148.5t38.5 213.5
q0 118 -57 181t-160 63q-97 0 -171 -55zM354 325q-5 5 -5 12q0 9 5.5 15t15.5 6q8 0 13 -4.5t5 -12.5t-6 -14.5t-16 -6.5q-7 0 -12 5z" />
    </font>
</defs>
</svg>
