<?xml version="1.0" standalone="no"?>
<!DOCTYPE svg PUBLIC "-//W3C//DTD SVG 1.1//EN" "http://www.w3.org/Graphics/SVG/1.1/DTD/svg11.dtd" >
<svg xmlns="http://www.w3.org/2000/svg" xmlns:xlink="http://www.w3.org/1999/xlink" version="1.1">
<metadata>
Created by FontForge 20170731 at Fri Dec  2 11:32:36 2016
 By Aleksey,,,
Digitized data copyright 2012-2016, The Mozilla Foundation and Telefonica S.A.
</metadata>
<defs>
<font id="FiraSansCondensed-ExtraLight" horiz-adv-x="504" >
  <font-face 
    font-family="Fira Sans Condensed ExtraLight"
    font-weight="275"
    font-stretch="condensed"
    units-per-em="1000"
    panose-1="2 11 4 3 5 0 0 2 0 4"
    ascent="800"
    descent="-200"
    x-height="522"
    cap-height="684"
    bbox="-658 -350 1360 1050"
    underline-thickness="50"
    underline-position="-150"
    unicode-range="U+000D-FEFF"
  />
<missing-glyph horiz-adv-x="666" 
d="M543 1050v-1400h-420v1400h420zM489 998h-311v-1296h311v1296zM409.5 419q25.5 -32 25.5 -83q0 -53 -22.5 -82t-72.5 -36v-45q0 -11 -7.5 -17.5t-17.5 -6.5t-17.5 6.5t-7.5 17.5v84q53 3 72 19.5t19 57.5q0 33 -13 51t-48 18q-29 0 -52 -11q-8 -3 -13 -3q-11 0 -17.5 6.5
t-6.5 16.5q0 19 29.5 29t63.5 10q60 0 85.5 -32zM340 110q10 -10 10 -25q0 -16 -10 -26.5t-25 -10.5t-25 10.5t-10 26.5q0 15 10 25t25 10t25 -10z" />
    <glyph glyph-name="fi" unicode="fi" horiz-adv-x="505" 
d="M365 703l-17 -33q-60 31 -116 31q-44 0 -65.5 -19.5t-21.5 -68.5v-91h262v-522h-45v484h-217v-484h-45v484h-78v38h78v95q0 60 34 92t97 32q67 0 134 -38z" />
    <glyph glyph-name="fl" unicode="fl" horiz-adv-x="525" 
d="M494 2q-26 -13 -51 -13q-37 0 -58.5 22.5t-21.5 65.5v602q-34 12 -62 17.5t-61 5.5q-49 0 -72 -21t-23 -66v-93h126l-6 -38h-120v-484h-45v484h-78v38h78v96q0 57 35.5 90t100.5 33q34 0 63 -6t64 -18l45 5v-644q0 -49 41 -49q16 0 33 7z" />
    <glyph glyph-name=".notdef" horiz-adv-x="666" 
d="M543 1050v-1400h-420v1400h420zM489 998h-311v-1296h311v1296zM409.5 419q25.5 -32 25.5 -83q0 -53 -22.5 -82t-72.5 -36v-45q0 -11 -7.5 -17.5t-17.5 -6.5t-17.5 6.5t-7.5 17.5v84q53 3 72 19.5t19 57.5q0 33 -13 51t-48 18q-29 0 -52 -11q-8 -3 -13 -3q-11 0 -17.5 6.5
t-6.5 16.5q0 19 29.5 29t63.5 10q60 0 85.5 -32zM340 110q10 -10 10 -25q0 -16 -10 -26.5t-25 -10.5t-25 10.5t-10 26.5q0 15 10 25t25 10t25 -10z" />
    <glyph glyph-name=".null" horiz-adv-x="0" 
 />
    <glyph glyph-name="nonmarkingreturn" unicode="&#xd;" horiz-adv-x="254" 
 />
    <glyph glyph-name="space" unicode=" " horiz-adv-x="254" 
 />
    <glyph glyph-name="exclam" unicode="!" horiz-adv-x="228" 
d="M137 684l-3 -471h-41l-3 471h47zM142 55.5q11 -11.5 11 -27.5t-11 -27.5t-28 -11.5t-28 11.5t-11 27.5t11 27.5t28 11.5t28 -11.5z" />
    <glyph glyph-name="quotedbl" unicode="&#x22;" horiz-adv-x="336" 
d="M76 436l-6 248h46l-6 -248h-34zM226 436l-6 248h46l-6 -248h-34z" />
    <glyph glyph-name="numbersign" unicode="#" horiz-adv-x="450" 
d="M436 454h-70l-30 -230h67v-37h-72l-25 -187h-41l25 187h-169l-25 -187h-41l25 187h-67v37h72l30 230h-69v38h74l23 172h41l-23 -172h169l23 172h41l-23 -172h65v-38zM295 224l30 230h-169l-30 -230h169z" />
    <glyph glyph-name="dollar" unicode="$" horiz-adv-x="472" 
d="M375.5 52q-45.5 -52 -120.5 -61v-140h-39v138q-103 4 -178 82l27 28q35 -34 72.5 -52t87.5 -18q68 0 109 41t41 108q0 42 -13.5 70t-44.5 48t-87 40q-91 32 -130 72t-39 106q0 63 43.5 107.5t111.5 50.5v144h39v-144q46 -3 80 -20.5t67 -50.5l-27 -28q-33 32 -66 46.5
t-75 14.5q-57 0 -92 -33t-35 -86t31 -83.5t111 -57.5q90 -32 131 -74.5t41 -120.5q0 -75 -45.5 -127z" />
    <glyph glyph-name="percent" unicode="%" horiz-adv-x="714" 
d="M552 700l34 -20l-417 -701l-34 20zM280.5 632.5q36.5 -42.5 36.5 -116.5q0 -75 -35.5 -118t-96.5 -43q-59 0 -95.5 42.5t-36.5 116.5q0 75 35.5 118t96.5 43q59 0 95.5 -42.5zM117 606.5q-22 -34.5 -22 -92.5q0 -56 22 -90.5t68 -34.5t68 34.5t22 92.5q0 56 -22 90.5
t-68 34.5t-68 -34.5zM624 267.5q36 -42.5 36 -116.5q0 -75 -35.5 -118.5t-95.5 -43.5q-59 0 -95.5 43t-36.5 117q0 75 35.5 118t96.5 43q59 0 95 -42.5zM460 241q-22 -34 -22 -92q0 -56 22 -90.5t69 -34.5q46 0 67.5 34.5t21.5 92.5q0 56 -21.5 90t-67.5 34q-47 0 -69 -34z
" />
    <glyph glyph-name="ampersand" unicode="&#x26;" horiz-adv-x="648" 
d="M379.5 653.5q40.5 -40.5 40.5 -105.5q0 -57 -34 -98.5t-107 -87.5l191 -201q41 97 61 197l42 -11q-25 -118 -75 -213l115 -118l-34 -27l-105 110q-39 -53 -86.5 -81.5t-115.5 -28.5q-52 0 -94.5 22.5t-67 63.5t-24.5 95q0 64 32.5 109.5t98.5 89.5q-51 53 -71.5 89
t-20.5 85q0 67 41 109t108 42q65 0 105.5 -40.5zM198 625.5q-28 -31.5 -28 -81.5q0 -38 15.5 -68.5t66.5 -86.5q65 39 94 75t29 82q0 54 -28 82.5t-73 28.5q-48 0 -76 -31.5zM159.5 265q-27.5 -41 -27.5 -95q0 -64 40 -103t102 -39q57 0 97 24.5t75 73.5l-203 217
q-56 -37 -83.5 -78z" />
    <glyph glyph-name="quotesingle" unicode="'" horiz-adv-x="186" 
d="M76 436l-6 248h46l-6 -248h-34z" />
    <glyph glyph-name="parenleft" unicode="(" horiz-adv-x="291" 
d="M241 815q-50 -80 -79 -140.5t-47 -140t-18 -184.5t18 -184.5t47 -140t79 -140.5l-30 -19q-54 83 -86.5 145.5t-53 146t-20.5 192.5t20.5 192.5t53 146t86.5 145.5z" />
    <glyph glyph-name="parenright" unicode=")" horiz-adv-x="291" 
d="M166.5 688.5q32.5 -62.5 53 -146t20.5 -192.5t-20.5 -192.5t-53 -146t-86.5 -145.5l-29 19q49 81 78.5 141.5t47.5 140t18 183.5q0 105 -18 184.5t-47 139.5t-79 141l29 19q54 -83 86.5 -145.5z" />
    <glyph glyph-name="asterisk" unicode="*" horiz-adv-x="399" 
d="M361 590l-137 -42l89 -124l-36 -24l-78 128l-78 -128l-36 23l90 123l-138 44l14 38l132 -54l-5 161h43l-5 -160l131 53z" />
    <glyph glyph-name="plus" unicode="+" horiz-adv-x="443" 
d="M243 502v-151h136v-41h-136v-151h-43v151h-136v41h136v151h43z" />
    <glyph glyph-name="comma" unicode="," horiz-adv-x="188" 
d="M123.5 56q10.5 -11 10.5 -28q0 -10 -4 -22.5t-9 -25.5l-48 -125h-32l37 139q-21 11 -21 34q0 17 11 28t27 11q18 0 28.5 -11z" />
    <glyph glyph-name="hyphen" unicode="-" horiz-adv-x="361" 
d="M64 293v40h233v-40h-233z" />
    <glyph glyph-name="period" unicode="." horiz-adv-x="186" 
d="M121 55.5q11 -11.5 11 -27.5t-11 -27.5t-28 -11.5t-28 11.5t-11 27.5t11 27.5t28 11.5t28 -11.5z" />
    <glyph glyph-name="slash" unicode="/" horiz-adv-x="468" 
d="M319 801l39 -9l-210 -890l-39 9z" />
    <glyph glyph-name="zero" unicode="0" horiz-adv-x="501" 
d="M435 331q0 -172 -47 -257t-137 -85q-91 0 -138 86t-47 258t47 257t138 85q184 0 184 -344zM147 563q-35 -73 -35 -230q0 -158 35.5 -231.5t103.5 -73.5t103 73t35 230q0 158 -34.5 231.5t-103.5 73.5t-104 -73z" />
    <glyph glyph-name="one" unicode="1" horiz-adv-x="367" 
d="M253 664v-664h-45v612l-149 -103l-21 33l177 122h38z" />
    <glyph glyph-name="two" unicode="2" horiz-adv-x="421" 
d="M313.5 628q43.5 -47 43.5 -121q0 -65 -24 -123.5t-77 -130t-170 -212.5h288l-8 -41h-332v40q121 145 176.5 220.5t78 129.5t22.5 115t-31.5 96t-85.5 35q-43 0 -75.5 -19.5t-61.5 -57.5l-31 23q35 48 76.5 70.5t93.5 22.5q74 0 117.5 -47z" />
    <glyph glyph-name="three" unicode="3" horiz-adv-x="435" 
d="M316 629q44 -46 44 -119q0 -66 -33.5 -105.5t-90.5 -50.5q62 -5 101.5 -47.5t39.5 -119.5q0 -58 -23 -103t-65 -70t-98 -25q-54 0 -95 21t-77 64l30 24q33 -38 65.5 -54t75.5 -16q65 0 103 43t38 115q0 75 -38.5 110.5t-106.5 35.5h-39l5 38h31q54 0 93.5 35.5
t39.5 103.5q0 60 -32.5 94t-88.5 34q-38 0 -69.5 -14.5t-63.5 -47.5l-26 26q35 37 74 55.5t87 18.5q75 0 119 -46z" />
    <glyph glyph-name="four" unicode="4" horiz-adv-x="464" 
d="M431 217v-38h-82v-179h-43v179h-264v35l183 461l38 -15l-174 -443h217l5 201h38v-201h82z" />
    <glyph glyph-name="five" unicode="5" horiz-adv-x="436" 
d="M362 625h-245v-239q47 33 105 33q77 0 122 -54.5t45 -150.5q0 -66 -23 -117t-66 -79.5t-100 -28.5q-52 0 -92.5 20t-75.5 59l30 26q29 -33 61.5 -49t76.5 -16q66 0 104 49.5t38 136.5q0 84 -34.5 125t-94.5 41q-30 0 -54 -8t-51 -26h-34v317h296z" />
    <glyph glyph-name="six" unicode="6" horiz-adv-x="475" 
d="M380.5 378q44.5 -53 44.5 -155q0 -111 -47.5 -172.5t-124.5 -61.5q-97 0 -142 82.5t-45 223.5q0 120 25.5 205.5t73.5 130t114 44.5q32 0 58 -9.5t51 -28.5l-22 -32q-38 31 -88 31q-76 0 -119.5 -82t-47.5 -223q62 100 156 100q69 0 113.5 -53zM347.5 80
q32.5 52 32.5 142q0 86 -32 128t-85 42q-47 0 -85.5 -30.5t-66.5 -84.5q2 -121 36 -185t106 -64q62 0 94.5 52z" />
    <glyph glyph-name="seven" unicode="7" horiz-adv-x="392" 
d="M359 664v-36l-239 -635l-42 14l235 617h-284v40h330z" />
    <glyph glyph-name="eight" unicode="8" horiz-adv-x="483" 
d="M400 277.5q32 -40.5 32 -106.5q0 -84 -53 -133t-139 -49q-87 0 -138 49.5t-51 130.5q0 67 34.5 115t100.5 75q-58 27 -83.5 62t-25.5 90q0 52 22.5 89t60 56t82.5 19q69 0 117 -42.5t48 -121.5q0 -53 -26.5 -90.5t-85.5 -70.5q73 -32 105 -72.5zM145 434q23 -28 86 -56
l32 -14q53 30 76 64t23 82q0 63 -32.5 95.5t-87.5 32.5q-54 0 -87 -32.5t-33 -95.5q0 -48 23 -76zM347 64q40 36 40 106q0 42 -13 69.5t-41 47.5t-79 42l-33 14q-66 -28 -95.5 -69t-29.5 -105q0 -69 39.5 -105t105.5 -36t106 36z" />
    <glyph glyph-name="nine" unicode="9" horiz-adv-x="467" 
d="M408 404q0 -126 -33 -207t-97 -130.5t-167 -84.5l-11 35q125 45 189.5 119t71.5 208q-57 -93 -148 -93q-47 0 -84 24.5t-58 71.5t-21 111q0 102 49.5 159.5t129.5 57.5q179 0 179 -271zM297 315.5q34 26.5 66 79.5q-1 125 -32 183.5t-101 58.5q-63 0 -98.5 -45.5
t-35.5 -134.5q0 -81 33 -124.5t90 -43.5q44 0 78 26.5z" />
    <glyph glyph-name="colon" unicode=":" horiz-adv-x="186" 
d="M121 55.5q11 -11.5 11 -27.5t-11 -27.5t-28 -11.5t-28 11.5t-11 27.5t11 27.5t28 11.5t28 -11.5zM121 454.5q11 -11.5 11 -27.5t-11 -27.5t-28 -11.5t-28 11.5t-11 27.5t11 27.5t28 11.5t28 -11.5z" />
    <glyph glyph-name="semicolon" unicode=";" horiz-adv-x="188" 
d="M123.5 56q10.5 -11 10.5 -28q0 -10 -4 -22.5t-9 -25.5l-48 -125h-32l37 139q-21 11 -21 34q0 17 11 28t27 11q18 0 28.5 -11zM121 454.5q11 -11.5 11 -27.5t-11 -27.5t-28 -11.5t-28 11.5t-11 27.5t11 27.5t28 11.5t28 -11.5z" />
    <glyph glyph-name="less" unicode="&#x3c;" horiz-adv-x="446" 
d="M368 518l19 -36l-286 -149l286 -153l-19 -36l-309 169v40z" />
    <glyph glyph-name="equal" unicode="=" horiz-adv-x="442" 
d="M64 395v40h315v-40h-315zM64 226v40h315v-40h-315z" />
    <glyph glyph-name="greater" unicode="&#x3e;" horiz-adv-x="446" 
d="M78 518l309 -165v-40l-309 -169l-19 36l287 153l-287 149z" />
    <glyph glyph-name="question" unicode="?" horiz-adv-x="407" 
d="M323 653q41 -41 41 -101q0 -35 -11 -60t-27.5 -41.5t-43.5 -38.5q-28 -22 -44.5 -38.5t-27.5 -41.5t-11 -60v-59h-43v63q0 41 12.5 70t29.5 47t46 40q37 28 55.5 52.5t18.5 65.5q0 47 -29.5 75.5t-78.5 28.5q-42 0 -73 -18t-63 -57l-31 24q36 46 76.5 68t92.5 22
q70 0 111 -41zM207 55.5q11 -11.5 11 -27.5t-11 -27.5t-28 -11.5t-28 11.5t-11 27.5t11 27.5t28 11.5t28 -11.5z" />
    <glyph glyph-name="at" unicode="@" horiz-adv-x="923" 
d="M675 642.5q82 -51.5 124 -139t42 -195.5q0 -150 -44.5 -222.5t-114.5 -72.5q-44 0 -71.5 29.5t-36.5 76.5q-45 -104 -134 -104q-67 0 -109 57t-42 160q0 123 51.5 186t134.5 63q65 0 128 -35v-257q0 -139 79 -139q51 0 82.5 59.5t31.5 196.5q0 101 -37.5 180.5t-109 124
t-172.5 44.5q-103 0 -182.5 -54t-123 -148.5t-43.5 -211.5q0 -126 43 -217t121 -139t183 -48q49 0 89 8.5t80 24.5l12 -37q-45 -17 -86 -26t-95 -9q-115 0 -204 52.5t-139 152.5t-50 238q0 127 50 230.5t139.5 163t205.5 59.5t198 -51.5zM516 84q31 31 45 76v264
q-45 20 -85 20q-67 0 -104.5 -55t-37.5 -157q0 -89 29 -134t81 -45q41 0 72 31z" />
    <glyph glyph-name="A" unicode="A" horiz-adv-x="514" 
d="M445 0l-56 193h-266l-57 -193h-45l207 684h58l207 -684h-48zM135 233h242l-121 413z" />
    <glyph glyph-name="B" unicode="B" horiz-adv-x="536" 
d="M445 313q41 -42 41 -125q0 -92 -57.5 -140t-161.5 -48h-165v684h132q107 0 165 -43.5t58 -126.5q0 -64 -32 -101.5t-90 -49.5q69 -8 110 -50zM149 644v-264h121q65 0 102 35.5t37 95.5q0 133 -169 133h-91zM393.5 76.5q44.5 36.5 44.5 111.5q0 77 -43 115t-120 38h-126
v-301h118q82 0 126.5 36.5z" />
    <glyph glyph-name="C" unicode="C" horiz-adv-x="493" 
d="M395.5 679q35.5 -15 70.5 -46l-26 -30q-32 27 -60.5 38.5t-66.5 11.5q-91 0 -146.5 -75t-55.5 -236q0 -156 55 -233t145 -77q44 0 74 14t61 41l27 -30q-70 -68 -163 -68q-72 0 -128 39.5t-88 119t-32 194.5q0 117 33 196t89 117.5t126 38.5q50 0 85.5 -15z" />
    <glyph glyph-name="D" unicode="D" horiz-adv-x="567" 
d="M427 612q78 -72 78 -264q0 -193 -79.5 -270.5t-194.5 -77.5h-129v684h122q125 0 203 -72zM149 643v-603h84q223 0 223 308q0 121 -32.5 186t-82 87t-114.5 22h-78z" />
    <glyph glyph-name="E" unicode="E" horiz-adv-x="454" 
d="M410 684l-6 -41h-255v-266h221v-40h-221v-297h266v-40h-313v684h308z" />
    <glyph glyph-name="F" unicode="F" horiz-adv-x="430" 
d="M102 0v684h303l-6 -41h-250v-279h216v-40h-216v-324h-47z" />
    <glyph glyph-name="G" unicode="G" horiz-adv-x="555" 
d="M405.5 678.5q37.5 -15.5 76.5 -49.5l-27 -29q-33 28 -65 40.5t-72 12.5q-55 0 -102 -30t-76 -99t-29 -179q0 -161 54 -238t151 -77q39 0 70.5 9t61.5 28v257h-123l-5 41h174v-321q-83 -55 -177 -55q-119 0 -187 89t-68 267q0 117 35.5 195.5t94 116t126.5 37.5
q50 0 87.5 -15.5z" />
    <glyph glyph-name="H" unicode="H" horiz-adv-x="601" 
d="M452 0v340h-303v-340h-47v684h47v-304h303v304h47v-684h-47z" />
    <glyph glyph-name="I" unicode="I" horiz-adv-x="251" 
d="M149 684v-684h-47v684h47z" />
    <glyph glyph-name="J" unicode="J" horiz-adv-x="258" 
d="M161 90q0 -57 -12.5 -92.5t-41.5 -60.5t-81 -49l-13 33q42 23 63.5 44t30 50t8.5 77v592h46v-594z" />
    <glyph glyph-name="K" unicode="K" horiz-adv-x="488" 
d="M149 684v-684h-47v684h47zM468 684l-262 -315l278 -369h-55l-277 367l264 317h52z" />
    <glyph glyph-name="L" unicode="L" horiz-adv-x="424" 
d="M149 684v-641h258l-7 -43h-298v684h47z" />
    <glyph glyph-name="M" unicode="M" horiz-adv-x="696" 
d="M630 0h-44l-30 335q-16 164 -25 304l-161 -557h-44l-166 557q-2 -59 -18 -240l-5 -59l-28 -340h-44l61 684h64l159 -546l154 546h66z" />
    <glyph glyph-name="N" unicode="N" horiz-adv-x="603" 
d="M501 0h-61l-300 631q6 -86 6 -222v-409h-44v684h60l301 -632q-7 119 -7 200v432h45v-684z" />
    <glyph glyph-name="O" unicode="O" horiz-adv-x="623" 
d="M493 604.5q67 -89.5 67 -263.5q0 -170 -66.5 -261t-182.5 -91q-74 0 -130.5 40t-87.5 119t-31 192q0 114 31 193.5t87.5 120t130.5 40.5q115 0 182 -89.5zM164.5 575q-53.5 -78 -53.5 -235q0 -154 54 -232t146 -78q96 0 148.5 77t52.5 234q0 158 -53 235t-148 77
q-93 0 -146.5 -78z" />
    <glyph glyph-name="P" unicode="P" horiz-adv-x="508" 
d="M407.5 634q60.5 -50 60.5 -153q0 -108 -64 -158.5t-180 -50.5h-75v-272h-47v684h125q120 0 180.5 -50zM370 350q49 38 49 130q0 88 -47 126t-145 38h-78v-332h77q95 0 144 38z" />
    <glyph glyph-name="Q" unicode="Q" horiz-adv-x="622" 
d="M582 -52l-31 -37q-48 47 -101.5 64t-138.5 17q-75 0 -131 39t-87 117.5t-31 191.5q0 114 31 193.5t87.5 120t130.5 40.5q115 0 182 -90t67 -263q0 -265 -160 -323q114 -3 182 -70zM165 108q54 -78 146 -78q96 0 148.5 77t52.5 234q0 158 -53 235t-148 77
q-93 0 -146.5 -78t-53.5 -235q0 -154 54 -232z" />
    <glyph glyph-name="R" unicode="R" horiz-adv-x="527" 
d="M443 0l-164 314l-17 -1h-113v-313h-47v684h136q226 0 226 -183q0 -72 -36 -116.5t-102 -61.5l170 -323h-53zM372.5 389q42.5 36 42.5 112q0 72 -41.5 107.5t-138.5 35.5h-86v-291h95q86 0 128.5 36z" />
    <glyph glyph-name="S" unicode="S" horiz-adv-x="484" 
d="M335.5 675.5q39.5 -18.5 77.5 -55.5l-27 -29q-35 33 -68 47.5t-77 14.5q-59 0 -95.5 -34t-36.5 -88t32 -85.5t114 -60.5q93 -32 135 -75.5t42 -124.5q0 -56 -25 -100.5t-70.5 -70t-104.5 -25.5q-60 0 -107 22t-87 63l27 28q38 -35 76.5 -53.5t89.5 -18.5q69 0 111.5 42
t42.5 112q0 43 -14 71.5t-46 49.5t-89 41q-95 33 -134.5 74.5t-39.5 109.5q0 45 22.5 82.5t63.5 59.5t93 22q55 0 94.5 -18.5z" />
    <glyph glyph-name="T" unicode="T" horiz-adv-x="440" 
d="M431 684l-5 -42h-183v-642h-46v642h-184v42h418z" />
    <glyph glyph-name="U" unicode="U" horiz-adv-x="582" 
d="M490 192q0 -91 -51 -147t-148 -56q-98 0 -148.5 56t-50.5 147v492h47v-488q0 -78 37.5 -121.5t114.5 -43.5q78 0 115 44t37 121v488h47v-492z" />
    <glyph glyph-name="V" unicode="V" horiz-adv-x="496" 
d="M476 684l-201 -684h-54l-200 684h48l180 -637l180 637h47z" />
    <glyph glyph-name="W" unicode="W" horiz-adv-x="730" 
d="M699 684l-138 -684h-58l-138 633l-139 -633h-58l-137 684h46l122 -639l139 639h54l140 -639l122 639h45z" />
    <glyph glyph-name="X" unicode="X" horiz-adv-x="456" 
d="M253 371l193 -371h-51l-170 339l-166 -339h-49l188 368l-169 316h51l146 -286l145 286h49z" />
    <glyph glyph-name="Y" unicode="Y" horiz-adv-x="464" 
d="M450 684l-194 -415v-269h-46v268l-196 416h50l170 -373l167 373h49z" />
    <glyph glyph-name="Z" unicode="Z" horiz-adv-x="463" 
d="M420 684v-39l-336 -603h329l-6 -42h-374v40l337 602h-303v42h353z" />
    <glyph glyph-name="bracketleft" unicode="[" horiz-adv-x="284" 
d="M221 803v-37h-99v-840h99v-37h-141v914h141z" />
    <glyph glyph-name="backslash" unicode="\" horiz-adv-x="468" 
d="M148 800l210 -889l-39 -9l-210 890z" />
    <glyph glyph-name="bracketright" unicode="]" horiz-adv-x="284" 
d="M204 803v-914h-140v37h98v840h-98v37h140z" />
    <glyph glyph-name="asciicircum" unicode="^" horiz-adv-x="476" 
d="M256 829l165 -302h-52l-131 254l-132 -254h-51l165 302h36z" />
    <glyph glyph-name="underscore" unicode="_" horiz-adv-x="471" 
d="M30 -114v40h411v-40h-411z" />
    <glyph glyph-name="grave" unicode="`" horiz-adv-x="247" 
d="M55 773l166 -99l-16 -26l-172 84z" />
    <glyph glyph-name="a" unicode="a" horiz-adv-x="482" 
d="M394 48q9 -18 30 -27l-10 -32q-32 8 -48.5 29t-19.5 61q-51 -90 -147 -90q-68 0 -107 42.5t-39 113.5q0 80 52.5 123.5t145.5 43.5h89v60q0 62 -25.5 91.5t-83.5 29.5q-57 0 -130 -30l-13 35q81 34 147 34q150 0 150 -157v-272q0 -37 9 -55zM340 127v150h-84
q-155 0 -155 -131q0 -57 27.5 -88t75.5 -31q90 0 136 100z" />
    <glyph glyph-name="b" unicode="b" horiz-adv-x="518" 
d="M412.5 464q44.5 -68 44.5 -200q0 -131 -46.5 -203t-131.5 -72q-43 0 -78 22t-60 57l-4 -68h-39v735l45 6v-293q57 84 144 84q81 0 125.5 -68zM374 86.5q35 58.5 35 177.5q0 118 -33 173.5t-96 55.5q-44 0 -76.5 -23.5t-60.5 -68.5v-286q53 -87 130 -87q66 0 101 58.5z
" />
    <glyph glyph-name="c" unicode="c" horiz-adv-x="417" 
d="M327 520q31 -12 60 -39l-23 -30q-24 21 -48.5 31.5t-56.5 10.5q-70 0 -111 -58.5t-41 -176.5q0 -116 40.5 -172.5t110.5 -56.5q59 0 110 44l23 -28q-59 -56 -133 -56q-92 0 -145.5 69t-53.5 200q0 130 54 202t145 72q38 0 69 -12z" />
    <glyph glyph-name="d" unicode="d" horiz-adv-x="522" 
d="M424 735v-735h-39l-4 81q-49 -92 -143 -92q-82 0 -129.5 71.5t-47.5 198.5q0 82 22.5 144t64.5 95.5t99 33.5q81 0 132 -71v280zM321.5 53.5q32.5 25.5 57.5 76.5v281q-24 38 -54.5 60t-72.5 22q-65 0 -104 -59.5t-39 -170.5q0 -115 35.5 -175t98.5 -60q46 0 78.5 25.5z
" />
    <glyph glyph-name="e" unicode="e" horiz-adv-x="481" 
d="M425 241h-319q4 -110 44.5 -161t107.5 -51q38 0 66.5 12t60.5 39l23 -28q-34 -31 -70.5 -47t-80.5 -16q-92 0 -145 69.5t-53 198.5q0 130 50.5 202.5t137.5 72.5q88 0 134 -65.5t46 -184.5q0 -21 -2 -41zM382 297q0 94 -33 145t-101 51q-62 0 -100 -52t-42 -164h276v20z
" />
    <glyph glyph-name="f" unicode="f" horiz-adv-x="287" 
d="M147 615v-93h127l-6 -38h-121v-484h-45v484h-80v38h80v96q0 57 34 90t93 33q56 0 109 -29l-17 -33q-46 23 -89 23q-85 0 -85 -87z" />
    <glyph glyph-name="g" unicode="g" horiz-adv-x="449" 
d="M439 516q-39 -13 -127 -15q79 -41 79 -146q0 -78 -45 -123.5t-123 -45.5q-35 0 -61 10q-19 -11 -29.5 -28t-10.5 -36q0 -59 83 -59h67q72 0 113 -35.5t41 -92.5q0 -69 -50.5 -108t-149.5 -39q-103 0 -148.5 35t-45.5 111h41q2 -59 35.5 -83.5t117.5 -24.5q154 0 154 106
q0 44 -29.5 68t-84.5 24h-64q-60 0 -91.5 24.5t-31.5 64.5q0 51 52 87q-79 45 -79 148q0 79 46.5 126.5t124.5 47.5q86 -1 124 5.5t78 22.5zM129.5 459.5q-31.5 -36.5 -31.5 -101.5t33.5 -101t90.5 -36q60 0 91.5 34t31.5 101q0 65 -30.5 102.5t-91.5 37.5
q-62 0 -93.5 -36.5z" />
    <glyph glyph-name="h" unicode="h" horiz-adv-x="525" 
d="M398.5 491q33.5 -41 33.5 -114v-377h-45v371q0 123 -91 123q-46 0 -83.5 -30t-69.5 -85v-379h-45v735l45 6v-312q32 49 70.5 76t89.5 27q62 0 95.5 -41z" />
    <glyph glyph-name="i" unicode="i" horiz-adv-x="241" 
d="M143 522v-522h-45v522h45zM144.5 733q9.5 -10 9.5 -24q0 -15 -9.5 -24.5t-25.5 -9.5q-15 0 -24.5 10t-9.5 24t9.5 24t24.5 10q16 0 25.5 -10z" />
    <glyph glyph-name="j" unicode="j" horiz-adv-x="241" 
d="M143 -2q0 -58 -13 -94t-38 -58.5t-69 -45.5l-15 32q35 20 53.5 38.5t27.5 48t9 79.5v524h45v-524zM144.5 733q9.5 -10 9.5 -24q0 -15 -9.5 -24.5t-25.5 -9.5q-15 0 -24.5 10t-9.5 24t9.5 24t24.5 10q16 0 25.5 -10z" />
    <glyph glyph-name="k" unicode="k" horiz-adv-x="434" 
d="M143 741v-741h-45v735zM405 522l-205 -235l226 -287h-53l-225 285l205 237h52z" />
    <glyph glyph-name="l" unicode="l" horiz-adv-x="254" 
d="M114.5 11.5q-21.5 22.5 -21.5 64.5v659l45 6v-663q0 -49 40 -49q16 0 33 7l12 -34q-24 -13 -51 -13q-36 0 -57.5 22.5z" />
    <glyph glyph-name="m" unicode="m" horiz-adv-x="766" 
d="M641 490.5q32 -41.5 32 -113.5v-377h-44v371q0 61 -21.5 92t-61.5 31q-76 0 -138 -113v-381h-45v371q0 61 -21.5 92t-61.5 31q-76 0 -137 -113v-381h-45v522h39l4 -91q28 47 65 74t81 27q46 0 76 -28t40 -78q29 49 66.5 77.5t82.5 28.5q57 0 89 -41.5z" />
    <glyph glyph-name="n" unicode="n" horiz-adv-x="525" 
d="M399 491.5q33 -40.5 33 -114.5v-377h-45v371q0 123 -91 123q-46 0 -83.5 -30t-69.5 -85v-379h-45v522h39l4 -94q65 104 162 104q63 0 96 -40.5z" />
    <glyph glyph-name="o" unicode="o" horiz-adv-x="511" 
d="M400.5 463.5q51.5 -68.5 51.5 -200.5q0 -131 -52.5 -202.5t-144.5 -71.5t-144 71.5t-52 199.5q0 130 53 201t144 71q93 0 144.5 -68.5zM145.5 435q-39.5 -58 -39.5 -175q0 -114 39 -172.5t110 -58.5q72 0 111 58.5t39 175.5q0 115 -38.5 172.5t-110.5 57.5
q-71 0 -110.5 -58z" />
    <glyph glyph-name="p" unicode="p" horiz-adv-x="518" 
d="M413 464q44 -68 44 -200q0 -130 -46.5 -202.5t-131.5 -72.5q-43 0 -77.5 20.5t-58.5 54.5v-259l-45 -7v724h39l3 -77q59 87 146 87q83 0 127 -68zM374 87.5q35 58.5 35 176.5q0 229 -128 229q-44 0 -76.5 -24t-61.5 -68v-288q54 -84 130 -84q66 0 101 58.5z" />
    <glyph glyph-name="q" unicode="q" horiz-adv-x="522" 
d="M424 522v-724l-45 7v271q-50 -87 -139 -87q-83 0 -131 71.5t-48 198.5q0 82 22.5 144t64.5 95.5t99 33.5q47 0 79 -20.5t56 -54.5l4 65h38zM321.5 53.5q31.5 25.5 57.5 74.5v284q-50 81 -127 81q-64 0 -103.5 -60t-39.5 -170q0 -114 36 -174.5t100 -60.5q45 0 76.5 25.5z
" />
    <glyph glyph-name="r" unicode="r" horiz-adv-x="334" 
d="M322 526l-9 -41q-20 5 -40 5q-49 0 -79.5 -39t-50.5 -121v-330h-45v522h39l3 -113q20 62 53 92.5t83 30.5q22 0 46 -6z" />
    <glyph glyph-name="s" unicode="s" horiz-adv-x="418" 
d="M288.5 518q35.5 -14 69.5 -43l-23 -29q-31 25 -59.5 36.5t-63.5 11.5q-49 0 -79.5 -26t-30.5 -70q0 -38 26.5 -61t92.5 -44q81 -26 115 -60t34 -95q0 -67 -46.5 -108t-118.5 -41q-53 0 -93 17.5t-74 49.5l26 28q33 -29 65 -42.5t75 -13.5q53 0 86.5 28.5t33.5 80.5
q0 33 -11 54t-38 36t-78 32q-76 24 -108 56t-32 83q0 58 43.5 96t109.5 38q43 0 78.5 -14z" />
    <glyph glyph-name="t" unicode="t" horiz-adv-x="303" 
d="M306 21q-43 -32 -97 -32q-53 0 -83 32t-30 91v372h-77v38h77v127l45 5v-132h124l-6 -38h-118v-370q0 -85 72 -85q38 0 74 23z" />
    <glyph glyph-name="u" unicode="u" horiz-adv-x="521" 
d="M423 0h-39l-2 94q-57 -105 -154 -105q-64 0 -99.5 40t-35.5 111v382h45v-378q0 -116 97 -116q46 0 80.5 29.5t62.5 83.5v381h45v-522z" />
    <glyph glyph-name="v" unicode="v" horiz-adv-x="423" 
d="M405 522l-162 -522h-56l-170 522h49l149 -483l143 483h47z" />
    <glyph glyph-name="w" unicode="w" horiz-adv-x="632" 
d="M604 522l-117 -522h-60l-110 479l-110 -479h-60l-120 522h47l104 -483l113 483h54l112 -484l103 484h44z" />
    <glyph glyph-name="x" unicode="x" horiz-adv-x="411" 
d="M231 280l167 -280h-52l-142 252l-142 -252h-50l166 278l-144 244h50l121 -217l122 217h50z" />
    <glyph glyph-name="y" unicode="y" horiz-adv-x="420" 
d="M240 -2q-19 -60 -40.5 -98t-56 -62.5t-88.5 -38.5l-5 35q46 14 72.5 34t42.5 49.5t33 82.5h-16l-165 522h48l147 -487l143 487h48z" />
    <glyph glyph-name="z" unicode="z" horiz-adv-x="377" 
d="M346 522v-36l-270 -446h267l-5 -40h-313v36l270 446h-248v40h299z" />
    <glyph glyph-name="braceleft" unicode="{" horiz-adv-x="294" 
d="M231 790q-41 0 -58 -19t-17 -61v-265q0 -47 -16.5 -66.5t-53.5 -29.5q38 -10 54 -29.5t16 -65.5v-266q0 -41 17.5 -60t58.5 -19v-36q-60 0 -89 27.5t-29 88.5v268q0 39 -17 55.5t-53 16.5v40q36 0 53 17t17 56v267q0 61 29 88.5t89 27.5z" />
    <glyph glyph-name="bar" unicode="|" horiz-adv-x="366" 
d="M204 803v-903h-42v903h42z" />
    <glyph glyph-name="braceright" unicode="}" horiz-adv-x="294" 
d="M151.5 797.5q28.5 -27.5 28.5 -88.5v-267q0 -39 17 -56t53 -17v-40q-36 0 -53 -16.5t-17 -55.5v-268q0 -61 -29 -88.5t-88 -27.5v36q41 0 58 19t17 60v266q0 46 16 65.5t55 29.5q-38 10 -54.5 29.5t-16.5 66.5v265q0 42 -17 61t-58 19v35q60 0 88.5 -27.5z" />
    <glyph glyph-name="asciitilde" unicode="~" horiz-adv-x="421" 
d="M244 278q-18 8 -42 23q-23 13 -35.5 19t-25.5 6q-20 0 -33 -10.5t-29 -33.5l-29 16q19 32 40.5 49.5t52.5 17.5q20 0 37 -8t42 -23q20 -12 34 -18.5t27 -6.5q19 0 31.5 10.5t27.5 32.5l29 -16q-19 -32 -39.5 -49t-50.5 -17q-19 0 -37 8z" />
    <glyph glyph-name="uni00A0" unicode="&#xa0;" horiz-adv-x="255" 
 />
    <glyph glyph-name="exclamdown" unicode="&#xa1;" horiz-adv-x="228" 
d="M142 455.5q11 -11.5 11 -27.5t-11 -27.5t-28 -11.5t-28 11.5t-11 27.5t11 27.5t28 11.5t28 -11.5zM135 251l3 -446h-47l3 446h41z" />
    <glyph glyph-name="cent" unicode="&#xa2;" horiz-adv-x="417" 
d="M276 -10v-139h-40v139q-83 8 -130 76.5t-47 191.5q0 122 48 193.5t130 79.5v148h39v-148q63 -4 111 -50l-23 -30q-24 21 -48.5 31.5t-56.5 10.5q-70 0 -111 -58.5t-41 -176.5q0 -116 40.5 -172.5t110.5 -56.5q59 0 110 44l23 -28q-53 -49 -115 -55z" />
    <glyph glyph-name="sterling" unicode="&#xa3;" horiz-adv-x="458" 
d="M153.5 84.5q-14.5 -25.5 -49.5 -43.5h300l-6 -41h-350v39q44 23 60 46.5t16 71.5v178h-60v36h60v137q0 74 40 120.5t111 46.5q44 0 78 -18t63 -54l-29 -25q-25 30 -50 44t-61 14q-52 0 -80 -34.5t-28 -93.5v-137h194v-36h-194v-177q0 -48 -14.5 -73.5z" />
    <glyph glyph-name="currency" unicode="&#xa4;" 
d="M428 108l-71 78q-45 -35 -106 -35t-103 36l-72 -79l-28 26l74 81q-37 49 -37 126q0 74 36 124l-74 82l29 26l71 -79q44 36 104 36q61 0 106 -35l70 78l28 -26l-72 -80q37 -49 37 -126t-37 -126l74 -81zM345.5 229q31.5 40 31.5 112q0 73 -31.5 112.5t-93.5 39.5
q-61 0 -92.5 -40t-31.5 -112t31.5 -112t92.5 -40q62 0 93.5 40z" />
    <glyph glyph-name="yen" unicode="&#xa5;" horiz-adv-x="455" 
d="M441 664l-176 -329h108v-36h-122v-107h122v-37h-122v-155h-46v155h-120v37h120v107h-120v36h106l-177 329h50l165 -320l164 320h48z" />
    <glyph glyph-name="brokenbar" unicode="&#xa6;" horiz-adv-x="366" 
d="M204 803v-360h-42v360h42zM204 262v-362h-42v362h42z" />
    <glyph glyph-name="section" unicode="&#xa7;" horiz-adv-x="480" 
d="M368 122q12 -23 12 -56q0 -61 -42.5 -97t-109.5 -36q-83 0 -146 46l21 32q55 -40 125 -40q50 0 78.5 25.5t28.5 66.5q0 26 -9 43.5t-32.5 32.5t-70.5 33q-54 21 -84 39t-45 43.5t-15 64.5q0 72 73 126q-27 19 -38.5 41.5t-11.5 55.5q0 60 41.5 96t105.5 36q42 0 74 -12
t64 -35l-20 -31q-30 20 -57.5 30t-59.5 10q-48 0 -75 -25.5t-27 -66.5q0 -27 9 -44.5t34 -32.5t74 -34q73 -27 104.5 -60t31.5 -84q0 -38 -17.5 -69t-53.5 -57q26 -18 38 -41zM132.5 275q9.5 -19 33.5 -34t72 -33q40 -16 64 -28q30 23 42.5 47.5t12.5 57.5q0 39 -22 64
t-87 50q-42 16 -68 30q-57 -46 -57 -106q0 -29 9.5 -48z" />
    <glyph glyph-name="dieresis" unicode="&#xa8;" horiz-adv-x="290" 
d="M89 722.5q9 -9.5 9 -23.5t-9 -23.5t-24 -9.5q-14 0 -23 9.5t-9 23.5t9 23.5t23 9.5q15 0 24 -9.5zM254 722.5q9 -9.5 9 -23.5t-9 -23.5t-23 -9.5t-23.5 9.5t-9.5 23.5t9.5 23.5t23.5 9.5t23 -9.5z" />
    <glyph glyph-name="copyright" unicode="&#xa9;" horiz-adv-x="728" 
d="M499.5 694.5q59.5 -36.5 93.5 -103.5t34 -156t-34 -156.5t-94 -104t-134 -36.5q-75 0 -135 36.5t-94.5 103.5t-34.5 157q0 89 34.5 156t94.5 103.5t135 36.5t134.5 -36.5zM247.5 665.5q-51.5 -31.5 -80.5 -91t-29 -139.5q0 -81 29 -140t80.5 -90.5t117.5 -31.5
q65 0 116.5 31.5t80.5 91t29 139.5q0 81 -29 140t-80.5 90.5t-116.5 31.5q-66 0 -117.5 -31.5zM413 604q21 -8 40 -24l-19 -27q-16 12 -31.5 17.5t-37.5 5.5q-36 0 -62 -32.5t-26 -107.5q0 -74 24.5 -108t66.5 -34q22 0 39 7t35 21l18 -27q-41 -37 -94 -37q-59 0 -94.5 45.5
t-35.5 132.5t38 131.5t91 44.5q27 0 48 -8z" />
    <glyph glyph-name="ordfeminine" unicode="&#xaa;" horiz-adv-x="457" 
d="M302 520v43q0 43 -19.5 63t-66.5 20q-40 0 -101 -22l-12 34q65 26 117 26q126 0 126 -118v-205q0 -25 7 -36.5t23 -18.5l-10 -31q-26 6 -40 21t-17 43q-42 -64 -117 -64q-54 0 -86 32t-32 85q0 61 41.5 94.5t113.5 33.5h73zM302 381v104h-69q-112 0 -112 -91
q0 -40 20.5 -61t56.5 -21q66 0 104 69zM75 40h315v-40h-315v40z" />
    <glyph glyph-name="guillemotleft" unicode="&#xab;" horiz-adv-x="510" 
d="M217 514l29 -19l-126 -207l126 -207l-29 -18l-144 209v31zM409 514l29 -19l-126 -207l126 -207l-29 -18l-144 209v31z" />
    <glyph glyph-name="logicalnot" unicode="&#xac;" horiz-adv-x="449" 
d="M386 341v-162h-44v122h-278v40h322z" />
    <glyph glyph-name="uni00AD" unicode="&#xad;" horiz-adv-x="361" 
d="M64 293v40h233v-40h-233z" />
    <glyph glyph-name="registered" unicode="&#xae;" horiz-adv-x="575" 
d="M396 703q49 -29 77 -82t28 -122q0 -67 -28.5 -121t-77.5 -84t-108 -30t-107.5 29t-76.5 81.5t-28 121.5q0 68 28 121.5t76.5 84t107.5 30.5q60 0 109 -29zM378.5 320.5q41.5 25.5 65.5 72t24 106.5q0 61 -23.5 107t-64.5 70.5t-93 24.5q-50 0 -91 -26t-65 -72.5
t-24 -106.5q0 -61 24 -106.5t65 -70t91 -24.5t91.5 25.5zM318 485l67 -119h-41l-59 113h-36v-113h-34v270h59q50 0 75.5 -20t25.5 -58q0 -58 -57 -73zM249 509h37q54 0 54 49q0 48 -60 48h-31v-97z" />
    <glyph glyph-name="macron" unicode="&#xaf;" horiz-adv-x="269" 
d="M242 680h-209v37h209v-37z" />
    <glyph glyph-name="degree" unicode="&#xb0;" horiz-adv-x="461" 
d="M131.5 418q-30.5 17 -49 50.5t-18.5 79.5q0 44 18.5 77.5t49 51t65.5 17.5q57 0 95 -39.5t38 -107.5q0 -67 -38 -106.5t-95 -39.5q-35 0 -65.5 17zM264 465.5q25 29.5 25 81.5q0 54 -25 82.5t-67 28.5q-40 0 -66 -29t-26 -81t26 -82t66 -30q42 0 67 29.5z" />
    <glyph glyph-name="plusminus" unicode="&#xb1;" horiz-adv-x="443" 
d="M64 0v40h315v-40h-315zM243 508v-151h136v-41h-136v-151h-43v151h-136v41h136v151h43z" />
    <glyph glyph-name="uni00B2" unicode="&#xb2;" horiz-adv-x="360" 
d="M257.5 710.5q29.5 -30.5 29.5 -78.5q0 -41 -15 -75t-47.5 -74t-108.5 -124h182l-6 -36h-222v35q77 85 112 129t49 75.5t14 67.5t-19 56t-51 20q-49 0 -85 -46l-28 21q25 31 53 45.5t63 14.5q50 0 79.5 -30.5z" />
    <glyph glyph-name="uni00B3" unicode="&#xb3;" horiz-adv-x="360" 
d="M260 714q30 -29 30 -75q0 -40 -22 -65t-59 -31q40 -2 65.5 -29t25.5 -75q0 -54 -35 -89t-93 -35q-67 0 -113 55l25 22q37 -42 87 -42q42 0 65 24t23 65q0 85 -85 85h-26l5 33h18q33 0 56 20t23 59q0 34 -20 53.5t-52 19.5q-25 0 -45 -8.5t-43 -28.5l-21 24q25 24 51 35.5
t60 11.5q50 0 80 -29z" />
    <glyph glyph-name="acute" unicode="&#xb4;" horiz-adv-x="247" 
d="M199 773l21 -41l-172 -84l-15 26z" />
    <glyph glyph-name="uni00B5" unicode="&#xb5;" horiz-adv-x="526" 
d="M406 -8q-12 32 -17 55.5t-7 59.5q-28 -54 -63 -86t-85 -32q-71 0 -100 65q8 -56 8 -128v-121l-44 -4v721h45v-374q0 -62 26 -90t66 -28q85 0 141 124v368h45v-346q0 -54 6.5 -96t19.5 -83z" />
    <glyph glyph-name="paragraph" unicode="&#xb6;" horiz-adv-x="632" 
d="M494 684v-879l-43 -8v848h-118v-840l-42 -8v502q-103 4 -150.5 56t-47.5 136q0 92 53.5 142t151.5 50z" />
    <glyph glyph-name="periodcentered" unicode="&#xb7;" horiz-adv-x="186" 
d="M121 348.5q11 -11.5 11 -27.5t-11 -27.5t-28 -11.5t-28 11.5t-11 27.5t11 27.5t28 11.5t28 -11.5z" />
    <glyph glyph-name="cedilla" unicode="&#xb8;" horiz-adv-x="220" 
d="M111 -68q82 -7 82 -73q0 -38 -26 -59.5t-64 -21.5q-41 0 -70 20l16 29q24 -15 53 -15q22 0 36.5 12t14.5 35t-19.5 34.5t-61.5 11.5l8 111h31v-84z" />
    <glyph glyph-name="uni00B9" unicode="&#xb9;" horiz-adv-x="360" 
d="M229 736v-413h-40v368l-93 -61l-19 28l118 78h34z" />
    <glyph glyph-name="ordmasculine" unicode="&#xba;" horiz-adv-x="452" 
d="M344 632.5q42 -51.5 42 -151.5q0 -99 -43 -152.5t-118 -53.5t-117.5 52.5t-42.5 151.5q0 98 43 151.5t118 53.5q76 0 118 -51.5zM111 479q0 -84 29.5 -125.5t84.5 -41.5q56 0 86 41.5t30 127.5q0 165 -115 165t-115 -167zM68 0v40h315v-40h-315z" />
    <glyph glyph-name="guillemotright" unicode="&#xbb;" horiz-adv-x="506" 
d="M101 514l145 -211v-31l-145 -209l-28 18l125 207l-125 207zM289 514l145 -211v-31l-145 -209l-28 18l125 207l-125 207z" />
    <glyph glyph-name="onequarter" unicode="&#xbc;" horiz-adv-x="819" 
d="M229 684v-413h-40v368l-93 -61l-19 28l118 78h34zM577 746l33 -15l-367 -799l-33 15zM768 141v-35h-50v-106h-40v106h-170v30l117 284l34 -13l-110 -266h129l5 119h35v-119h50z" />
    <glyph glyph-name="onehalf" unicode="&#xbd;" horiz-adv-x="819" 
d="M229 684v-413h-40v368l-93 -61l-19 28l118 78h34zM577 746l33 -15l-367 -799l-33 15zM716.5 387.5q29.5 -30.5 29.5 -78.5q0 -41 -15 -75t-47.5 -74t-108.5 -124h182l-6 -36h-222v35q77 85 112 129t49 75.5t14 67.5t-19 56t-51 20q-49 0 -85 -46l-28 21q25 31 53 45.5
t63 14.5q50 0 79.5 -30.5z" />
    <glyph glyph-name="threequarters" unicode="&#xbe;" horiz-adv-x="819" 
d="M260 662q30 -29 30 -75q0 -40 -22 -65t-59 -31q40 -2 65.5 -29t25.5 -75q0 -54 -35 -89t-93 -35q-67 0 -113 55l25 22q37 -42 87 -42q42 0 65 24t23 65q0 85 -85 85h-26l5 33h18q33 0 56 20t23 59q0 34 -20 53.5t-52 19.5q-25 0 -45 -8.5t-43 -28.5l-21 24q25 24 51 35.5
t60 11.5q50 0 80 -29zM577 746l33 -15l-367 -799l-33 15zM768 141v-35h-50v-106h-40v106h-170v30l117 284l34 -13l-110 -266h129l5 119h35v-119h50z" />
    <glyph glyph-name="questiondown" unicode="&#xbf;" horiz-adv-x="407" 
d="M199.5 400.5q-10.5 11.5 -10.5 27.5t10.5 27.5t27.5 11.5t28 -11.5t11 -27.5t-11 -27.5t-28 -11.5t-27.5 11.5zM113.5 -184q-34.5 19 -52.5 51t-18 70q0 50 21 79.5t62 61.5q40 32 60.5 59.5t20.5 74.5v38h43v-42q0 -39 -12 -66.5t-29 -45.5t-46 -40q-38 -30 -56 -54
t-18 -65q0 -45 29.5 -73t77.5 -28q42 0 73.5 18t63.5 57l31 -24q-36 -46 -77 -68t-92 -22q-47 0 -81.5 19z" />
    <glyph glyph-name="Agrave" unicode="&#xc0;" horiz-adv-x="514" 
d="M445 0l-56 193h-266l-57 -193h-45l207 684h58l207 -684h-48zM135 233h242l-121 413zM183 877l165 -91l-14 -27l-173 76z" />
    <glyph glyph-name="Aacute" unicode="&#xc1;" horiz-adv-x="514" 
d="M445 0l-56 193h-266l-57 -193h-45l207 684h58l207 -684h-48zM135 233h242l-121 413zM329 877l21 -42l-174 -76l-13 28z" />
    <glyph glyph-name="Acircumflex" unicode="&#xc2;" horiz-adv-x="514" 
d="M445 0l-56 193h-266l-57 -193h-45l207 684h58l207 -684h-48zM135 233h242l-121 413zM149 764l-21 23l115 99h27l115 -99l-20 -23l-108 80z" />
    <glyph glyph-name="Atilde" unicode="&#xc3;" horiz-adv-x="514" 
d="M445 0l-56 193h-266l-57 -193h-45l207 684h58l207 -684h-48zM135 233h242l-121 413zM279 803.5q-14 6.5 -32 18.5q-14 10 -24 14.5t-19 4.5q-15 0 -27 -9t-25 -29l-27 15q33 59 78 59q14 0 27 -6t30 -17t27.5 -16t21.5 -5q14 0 25.5 10t25.5 33l28 -14q-30 -65 -78 -65
q-17 0 -31 6.5z" />
    <glyph glyph-name="Adieresis" unicode="&#xc4;" horiz-adv-x="514" 
d="M445 0l-56 193h-266l-57 -193h-45l207 684h58l207 -684h-48zM135 233h242l-121 413zM201 848.5q9 -9.5 9 -23.5t-9 -23.5t-24 -9.5q-14 0 -23 9.5t-9 23.5t9 23.5t23 9.5q15 0 24 -9.5zM366 848.5q9 -9.5 9 -23.5t-9 -23.5t-23 -9.5t-23.5 9.5t-9.5 23.5t9.5 23.5
t23.5 9.5t23 -9.5z" />
    <glyph glyph-name="Aring" unicode="&#xc5;" horiz-adv-x="514" 
d="M445 0l-56 193h-266l-57 -193h-45l207 684h58l207 -684h-48zM135 233h242l-121 413zM319.5 917q23.5 -24 23.5 -65q0 -42 -23.5 -66t-62.5 -24q-38 0 -61.5 24t-23.5 66q0 41 23.5 65t61.5 24q39 0 62.5 -24zM207 852q0 -60 50 -60t50 60q0 59 -50 59t-50 -59z" />
    <glyph glyph-name="AE" unicode="&#xc6;" horiz-adv-x="698" 
d="M452 40h207v-40h-243l-43 188h-260l-64 -188h-46l239 684h372l-5 -41h-295l61 -267h232v-39h-223zM127 229h237l-95 417z" />
    <glyph glyph-name="Ccedilla" unicode="&#xc7;" horiz-adv-x="493" 
d="M401 -141q0 -38 -26 -59.5t-64 -21.5q-41 0 -70 20l16 29q24 -15 53 -15q22 0 36.5 12t14.5 35t-19.5 34.5t-61.5 11.5l6 85q-102 10 -163 100t-61 252q0 117 33 196t89 117.5t126 38.5q50 0 85.5 -15t70.5 -46l-26 -30q-32 27 -60.5 38.5t-66.5 11.5q-91 0 -146.5 -75
t-55.5 -236q0 -156 55 -233t145 -77q44 0 74 14t61 41l27 -30q-66 -64 -154 -68v-57q82 -7 82 -73z" />
    <glyph glyph-name="Egrave" unicode="&#xc8;" horiz-adv-x="454" 
d="M410 684l-6 -41h-255v-266h221v-40h-221v-297h266v-40h-313v684h308zM186 877l165 -91l-14 -27l-173 76z" />
    <glyph glyph-name="Eacute" unicode="&#xc9;" horiz-adv-x="454" 
d="M410 684l-6 -41h-255v-266h221v-40h-221v-297h266v-40h-313v684h308zM332 877l21 -42l-174 -76l-13 28z" />
    <glyph glyph-name="Ecircumflex" unicode="&#xca;" horiz-adv-x="454" 
d="M410 684l-6 -41h-255v-266h221v-40h-221v-297h266v-40h-313v684h308zM152 764l-21 23l115 99h27l115 -99l-20 -23l-108 80z" />
    <glyph glyph-name="Edieresis" unicode="&#xcb;" horiz-adv-x="454" 
d="M410 684l-6 -41h-255v-266h221v-40h-221v-297h266v-40h-313v684h308zM204 848.5q9 -9.5 9 -23.5t-9 -23.5t-24 -9.5q-14 0 -23 9.5t-9 23.5t9 23.5t23 9.5q15 0 24 -9.5zM369 848.5q9 -9.5 9 -23.5t-9 -23.5t-23 -9.5t-23.5 9.5t-9.5 23.5t9.5 23.5t23.5 9.5t23 -9.5z
" />
    <glyph glyph-name="Igrave" unicode="&#xcc;" horiz-adv-x="251" 
d="M149 684v-684h-47v684h47zM51 877l165 -91l-14 -27l-173 76z" />
    <glyph glyph-name="Iacute" unicode="&#xcd;" horiz-adv-x="251" 
d="M149 684v-684h-47v684h47zM197 877l21 -42l-174 -76l-13 28z" />
    <glyph glyph-name="Icircumflex" unicode="&#xce;" horiz-adv-x="251" 
d="M149 684v-684h-47v684h47zM17 764l-21 23l115 99h27l115 -99l-20 -23l-108 80z" />
    <glyph glyph-name="Idieresis" unicode="&#xcf;" horiz-adv-x="251" 
d="M149 684v-684h-47v684h47zM69 848.5q9 -9.5 9 -23.5t-9 -23.5t-24 -9.5q-14 0 -23 9.5t-9 23.5t9 23.5t23 9.5q15 0 24 -9.5zM234 848.5q9 -9.5 9 -23.5t-9 -23.5t-23 -9.5t-23.5 9.5t-9.5 23.5t9.5 23.5t23.5 9.5t23 -9.5z" />
    <glyph glyph-name="Eth" unicode="&#xd0;" horiz-adv-x="570" 
d="M430 612q78 -72 78 -264q0 -193 -79.5 -270.5t-194.5 -77.5h-129v332h-83v40h83v312h122q125 0 203 -72zM459 348q0 121 -32.5 186t-82 87t-114.5 22h-78v-271h160v-40h-160v-292h84q223 0 223 308z" />
    <glyph glyph-name="Ntilde" unicode="&#xd1;" horiz-adv-x="603" 
d="M501 0h-61l-300 631q6 -86 6 -222v-409h-44v684h60l301 -632q-7 119 -7 200v432h45v-684zM331 803.5q-14 6.5 -32 18.5q-14 10 -24 14.5t-19 4.5q-15 0 -27 -9t-25 -29l-27 15q33 59 78 59q14 0 27 -6t30 -17t27.5 -16t21.5 -5q14 0 25.5 10t25.5 33l28 -14
q-30 -65 -78 -65q-17 0 -31 6.5z" />
    <glyph glyph-name="Ograve" unicode="&#xd2;" horiz-adv-x="623" 
d="M493 604.5q67 -89.5 67 -263.5q0 -170 -66.5 -261t-182.5 -91q-74 0 -130.5 40t-87.5 119t-31 192q0 114 31 193.5t87.5 120t130.5 40.5q115 0 182 -89.5zM164.5 575q-53.5 -78 -53.5 -235q0 -154 54 -232t146 -78q96 0 148.5 77t52.5 234q0 158 -53 235t-148 77
q-93 0 -146.5 -78zM237 877l165 -91l-14 -27l-173 76z" />
    <glyph glyph-name="Oacute" unicode="&#xd3;" horiz-adv-x="623" 
d="M493 604.5q67 -89.5 67 -263.5q0 -170 -66.5 -261t-182.5 -91q-74 0 -130.5 40t-87.5 119t-31 192q0 114 31 193.5t87.5 120t130.5 40.5q115 0 182 -89.5zM164.5 575q-53.5 -78 -53.5 -235q0 -154 54 -232t146 -78q96 0 148.5 77t52.5 234q0 158 -53 235t-148 77
q-93 0 -146.5 -78zM383 877l21 -42l-174 -76l-13 28z" />
    <glyph glyph-name="Ocircumflex" unicode="&#xd4;" horiz-adv-x="623" 
d="M493 604.5q67 -89.5 67 -263.5q0 -170 -66.5 -261t-182.5 -91q-74 0 -130.5 40t-87.5 119t-31 192q0 114 31 193.5t87.5 120t130.5 40.5q115 0 182 -89.5zM164.5 575q-53.5 -78 -53.5 -235q0 -154 54 -232t146 -78q96 0 148.5 77t52.5 234q0 158 -53 235t-148 77
q-93 0 -146.5 -78zM203 764l-21 23l115 99h27l115 -99l-20 -23l-108 80z" />
    <glyph glyph-name="Otilde" unicode="&#xd5;" horiz-adv-x="623" 
d="M493 604.5q67 -89.5 67 -263.5q0 -170 -66.5 -261t-182.5 -91q-74 0 -130.5 40t-87.5 119t-31 192q0 114 31 193.5t87.5 120t130.5 40.5q115 0 182 -89.5zM164.5 575q-53.5 -78 -53.5 -235q0 -154 54 -232t146 -78q96 0 148.5 77t52.5 234q0 158 -53 235t-148 77
q-93 0 -146.5 -78zM333 803.5q-14 6.5 -32 18.5q-14 10 -24 14.5t-19 4.5q-15 0 -27 -9t-25 -29l-27 15q33 59 78 59q14 0 27 -6t30 -17t27.5 -16t21.5 -5q14 0 25.5 10t25.5 33l28 -14q-30 -65 -78 -65q-17 0 -31 6.5z" />
    <glyph glyph-name="Odieresis" unicode="&#xd6;" horiz-adv-x="623" 
d="M493 604.5q67 -89.5 67 -263.5q0 -170 -66.5 -261t-182.5 -91q-74 0 -130.5 40t-87.5 119t-31 192q0 114 31 193.5t87.5 120t130.5 40.5q115 0 182 -89.5zM164.5 575q-53.5 -78 -53.5 -235q0 -154 54 -232t146 -78q96 0 148.5 77t52.5 234q0 158 -53 235t-148 77
q-93 0 -146.5 -78zM255 848.5q9 -9.5 9 -23.5t-9 -23.5t-24 -9.5q-14 0 -23 9.5t-9 23.5t9 23.5t23 9.5q15 0 24 -9.5zM420 848.5q9 -9.5 9 -23.5t-9 -23.5t-23 -9.5t-23.5 9.5t-9.5 23.5t9.5 23.5t23.5 9.5t23 -9.5z" />
    <glyph glyph-name="multiply" unicode="&#xd7;" horiz-adv-x="443" 
d="M335 465l30 -26l-115 -131l115 -132l-31 -26l-113 130l-113 -130l-30 26l114 130l-114 133l31 26l111 -132z" />
    <glyph glyph-name="Oslash" unicode="&#xd8;" horiz-adv-x="623" 
d="M523 551q37 -83 37 -210q0 -169 -66.5 -260.5t-182.5 -91.5q-37 0 -73 11l-29 -117l-42 12l35 121q-66 35 -103 117.5t-37 206.5q0 114 31 193.5t87.5 120t130.5 40.5q40 0 71 -10l32 123l41 -12l-36 -126q67 -35 104 -118zM139 157q28 -71 79 -102l156 588
q-29 10 -63 10q-93 0 -146.5 -78t-53.5 -235q0 -112 28 -183zM459 107q52 77 53 234q0 227 -108 289l-156 -590q29 -10 63 -10q96 0 148 77z" />
    <glyph glyph-name="Ugrave" unicode="&#xd9;" horiz-adv-x="582" 
d="M490 192q0 -91 -51 -147t-148 -56q-98 0 -148.5 56t-50.5 147v492h47v-488q0 -78 37.5 -121.5t114.5 -43.5q78 0 115 44t37 121v488h47v-492zM217 877l165 -91l-14 -27l-173 76z" />
    <glyph glyph-name="Uacute" unicode="&#xda;" horiz-adv-x="582" 
d="M490 192q0 -91 -51 -147t-148 -56q-98 0 -148.5 56t-50.5 147v492h47v-488q0 -78 37.5 -121.5t114.5 -43.5q78 0 115 44t37 121v488h47v-492zM363 877l21 -42l-174 -76l-13 28z" />
    <glyph glyph-name="Ucircumflex" unicode="&#xdb;" horiz-adv-x="582" 
d="M490 192q0 -91 -51 -147t-148 -56q-98 0 -148.5 56t-50.5 147v492h47v-488q0 -78 37.5 -121.5t114.5 -43.5q78 0 115 44t37 121v488h47v-492zM183 764l-21 23l115 99h27l115 -99l-20 -23l-108 80z" />
    <glyph glyph-name="Udieresis" unicode="&#xdc;" horiz-adv-x="582" 
d="M490 192q0 -91 -51 -147t-148 -56q-98 0 -148.5 56t-50.5 147v492h47v-488q0 -78 37.5 -121.5t114.5 -43.5q78 0 115 44t37 121v488h47v-492zM235 848.5q9 -9.5 9 -23.5t-9 -23.5t-24 -9.5q-14 0 -23 9.5t-9 23.5t9 23.5t23 9.5q15 0 24 -9.5zM400 848.5q9 -9.5 9 -23.5
t-9 -23.5t-23 -9.5t-23.5 9.5t-9.5 23.5t9.5 23.5t23.5 9.5t23 -9.5z" />
    <glyph glyph-name="Yacute" unicode="&#xdd;" horiz-adv-x="464" 
d="M450 684l-194 -415v-269h-46v268l-196 416h50l170 -373l167 373h49zM304 877l21 -42l-174 -76l-13 28z" />
    <glyph glyph-name="Thorn" unicode="&#xde;" horiz-adv-x="508" 
d="M408 510q60 -50 60 -154q0 -216 -241 -216h-78v-140h-47v684h47v-124h80q119 0 179 -50zM370.5 219.5q48.5 39.5 48.5 135.5q0 88 -46.5 126.5t-143.5 38.5h-80v-340h78q95 0 143.5 39.5z" />
    <glyph glyph-name="germandbls" unicode="&#xdf;" horiz-adv-x="522" 
d="M368.5 704.5q40.5 -36.5 40.5 -94.5q0 -40 -16 -65t-47 -53q-23 -21 -33.5 -35.5t-10.5 -33.5q0 -24 15 -41t50 -44q34 -25 56 -47t38 -56.5t16 -81.5q0 -73 -39.5 -118.5t-103.5 -45.5q-46 0 -86 22l15 33q30 -15 67 -15q46 0 73.5 32.5t27.5 91.5q0 40 -13.5 69.5
t-33 48.5t-50.5 43q-38 29 -56 51.5t-18 55.5q0 26 12 43.5t36 40.5q28 27 42 48.5t14 55.5q0 44 -27.5 68.5t-72.5 24.5q-55 0 -88 -37.5t-33 -110.5v-554h-45v557q0 86 45.5 135t120.5 49q64 0 104.5 -36.5z" />
    <glyph glyph-name="agrave" unicode="&#xe0;" horiz-adv-x="482" 
d="M394 48q9 -18 30 -27l-10 -32q-32 8 -48.5 29t-19.5 61q-51 -90 -147 -90q-68 0 -107 42.5t-39 113.5q0 80 52.5 123.5t145.5 43.5h89v60q0 62 -25.5 91.5t-83.5 29.5q-57 0 -130 -30l-13 35q81 34 147 34q150 0 150 -157v-272q0 -37 9 -55zM340 127v150h-84
q-155 0 -155 -131q0 -57 27.5 -88t75.5 -31q90 0 136 100zM165 773l166 -99l-16 -26l-172 84z" />
    <glyph glyph-name="aacute" unicode="&#xe1;" horiz-adv-x="482" 
d="M394 48q9 -18 30 -27l-10 -32q-32 8 -48.5 29t-19.5 61q-51 -90 -147 -90q-68 0 -107 42.5t-39 113.5q0 80 52.5 123.5t145.5 43.5h89v60q0 62 -25.5 91.5t-83.5 29.5q-57 0 -130 -30l-13 35q81 34 147 34q150 0 150 -157v-272q0 -37 9 -55zM340 127v150h-84
q-155 0 -155 -131q0 -57 27.5 -88t75.5 -31q90 0 136 100zM299 773l21 -41l-172 -84l-15 26z" />
    <glyph glyph-name="acircumflex" unicode="&#xe2;" horiz-adv-x="482" 
d="M394 48q9 -18 30 -27l-10 -32q-32 8 -48.5 29t-19.5 61q-51 -90 -147 -90q-68 0 -107 42.5t-39 113.5q0 80 52.5 123.5t145.5 43.5h89v60q0 62 -25.5 91.5t-83.5 29.5q-57 0 -130 -30l-13 35q81 34 147 34q150 0 150 -157v-272q0 -37 9 -55zM340 127v150h-84
q-155 0 -155 -131q0 -57 27.5 -88t75.5 -31q90 0 136 100zM125 648l-20 22l115 105h27l115 -105l-21 -22l-108 85z" />
    <glyph glyph-name="atilde" unicode="&#xe3;" horiz-adv-x="482" 
d="M394 48q9 -18 30 -27l-10 -32q-32 8 -48.5 29t-19.5 61q-51 -90 -147 -90q-68 0 -107 42.5t-39 113.5q0 80 52.5 123.5t145.5 43.5h89v60q0 62 -25.5 91.5t-83.5 29.5q-57 0 -130 -30l-13 35q81 34 147 34q150 0 150 -157v-272q0 -37 9 -55zM340 127v150h-84
q-155 0 -155 -131q0 -57 27.5 -88t75.5 -31q90 0 136 100zM256 677.5q-14 6.5 -32 18.5q-14 10 -24 14.5t-19 4.5q-15 0 -27 -9t-25 -29l-27 15q33 59 78 59q14 0 27 -6t30 -17t27.5 -16t21.5 -5q14 0 25.5 10t25.5 33l28 -14q-30 -65 -78 -65q-17 0 -31 6.5z" />
    <glyph glyph-name="adieresis" unicode="&#xe4;" horiz-adv-x="482" 
d="M394 48q9 -18 30 -27l-10 -32q-32 8 -48.5 29t-19.5 61q-51 -90 -147 -90q-68 0 -107 42.5t-39 113.5q0 80 52.5 123.5t145.5 43.5h89v60q0 62 -25.5 91.5t-83.5 29.5q-57 0 -130 -30l-13 35q81 34 147 34q150 0 150 -157v-272q0 -37 9 -55zM340 127v150h-84
q-155 0 -155 -131q0 -57 27.5 -88t75.5 -31q90 0 136 100zM174 722.5q9 -9.5 9 -23.5t-9 -23.5t-24 -9.5q-14 0 -23 9.5t-9 23.5t9 23.5t23 9.5q15 0 24 -9.5zM339 722.5q9 -9.5 9 -23.5t-9 -23.5t-23 -9.5t-23.5 9.5t-9.5 23.5t9.5 23.5t23.5 9.5t23 -9.5z" />
    <glyph glyph-name="aring" unicode="&#xe5;" horiz-adv-x="482" 
d="M394 48q9 -18 30 -27l-10 -32q-32 8 -48.5 29t-19.5 61q-51 -90 -147 -90q-68 0 -107 42.5t-39 113.5q0 80 52.5 123.5t145.5 43.5h89v60q0 62 -25.5 91.5t-83.5 29.5q-57 0 -130 -30l-13 35q81 34 147 34q150 0 150 -157v-272q0 -37 9 -55zM340 127v150h-84
q-155 0 -155 -131q0 -57 27.5 -88t75.5 -31q90 0 136 100zM296.5 791q23.5 -24 23.5 -65q0 -42 -23.5 -66t-62.5 -24q-38 0 -61.5 24t-23.5 66q0 41 23.5 65t61.5 24q39 0 62.5 -24zM184 726q0 -60 50 -60t50 60q0 59 -50 59t-50 -59z" />
    <glyph glyph-name="ae" unicode="&#xe6;" horiz-adv-x="762" 
d="M706 241h-319q5 -108 45.5 -160t107.5 -52q37 0 66 12.5t61 39.5l22 -28q-34 -32 -70 -48t-81 -16q-58 0 -100.5 28.5t-66.5 81.5q-38 -58 -79 -84t-92 -26q-68 0 -107.5 42.5t-39.5 113.5q0 80 52.5 123.5t144.5 43.5h91v55q0 65 -26 95.5t-86 30.5q-54 0 -127 -30
l-12 35q81 34 144 34q62 0 96.5 -27.5t46.5 -81.5q49 109 154 109q86 0 131.5 -65.5t45.5 -184.5q0 -21 -2 -41zM663 297q0 94 -33 145t-99 51q-62 0 -101 -53.5t-43 -162.5h276v20zM286 53.5q35 26.5 70 85.5q-15 51 -15 117v21h-87q-73 0 -113 -33t-40 -98q0 -56 28 -87.5
t76 -31.5q46 0 81 26.5z" />
    <glyph glyph-name="ccedilla" unicode="&#xe7;" horiz-adv-x="417" 
d="M349 -141q0 -38 -26 -59.5t-64 -21.5q-41 0 -70 20l16 29q24 -15 53 -15q22 0 36.5 12t14.5 35t-19.5 34.5t-61.5 11.5l6 85q-82 9 -128.5 77.5t-46.5 190.5q0 130 54 202t145 72q38 0 69 -12t60 -39l-23 -30q-24 21 -48.5 31.5t-56.5 10.5q-70 0 -111 -58.5t-41 -176.5
q0 -116 40.5 -172.5t110.5 -56.5q59 0 110 44l23 -28q-55 -52 -124 -56v-57q82 -7 82 -73z" />
    <glyph glyph-name="egrave" unicode="&#xe8;" horiz-adv-x="481" 
d="M425 241h-319q4 -110 44.5 -161t107.5 -51q38 0 66.5 12t60.5 39l23 -28q-34 -31 -70.5 -47t-80.5 -16q-92 0 -145 69.5t-53 198.5q0 130 50.5 202.5t137.5 72.5q88 0 134 -65.5t46 -184.5q0 -21 -2 -41zM382 297q0 94 -33 145t-101 51q-62 0 -100 -52t-42 -164h276v20z
M179 773l166 -99l-16 -26l-172 84z" />
    <glyph glyph-name="eacute" unicode="&#xe9;" horiz-adv-x="481" 
d="M425 241h-319q4 -110 44.5 -161t107.5 -51q38 0 66.5 12t60.5 39l23 -28q-34 -31 -70.5 -47t-80.5 -16q-92 0 -145 69.5t-53 198.5q0 130 50.5 202.5t137.5 72.5q88 0 134 -65.5t46 -184.5q0 -21 -2 -41zM382 297q0 94 -33 145t-101 51q-62 0 -100 -52t-42 -164h276v20z
M313 773l21 -41l-172 -84l-15 26z" />
    <glyph glyph-name="ecircumflex" unicode="&#xea;" horiz-adv-x="481" 
d="M425 241h-319q4 -110 44.5 -161t107.5 -51q38 0 66.5 12t60.5 39l23 -28q-34 -31 -70.5 -47t-80.5 -16q-92 0 -145 69.5t-53 198.5q0 130 50.5 202.5t137.5 72.5q88 0 134 -65.5t46 -184.5q0 -21 -2 -41zM382 297q0 94 -33 145t-101 51q-62 0 -100 -52t-42 -164h276v20z
M139 648l-20 22l115 105h27l115 -105l-21 -22l-108 85z" />
    <glyph glyph-name="edieresis" unicode="&#xeb;" horiz-adv-x="481" 
d="M425 241h-319q4 -110 44.5 -161t107.5 -51q38 0 66.5 12t60.5 39l23 -28q-34 -31 -70.5 -47t-80.5 -16q-92 0 -145 69.5t-53 198.5q0 130 50.5 202.5t137.5 72.5q88 0 134 -65.5t46 -184.5q0 -21 -2 -41zM382 297q0 94 -33 145t-101 51q-62 0 -100 -52t-42 -164h276v20z
M188 722.5q9 -9.5 9 -23.5t-9 -23.5t-24 -9.5q-14 0 -23 9.5t-9 23.5t9 23.5t23 9.5q15 0 24 -9.5zM353 722.5q9 -9.5 9 -23.5t-9 -23.5t-23 -9.5t-23.5 9.5t-9.5 23.5t9.5 23.5t23.5 9.5t23 -9.5z" />
    <glyph glyph-name="igrave" unicode="&#xec;" horiz-adv-x="241" 
d="M143 522v-522h-45v522h45zM51 773l166 -99l-16 -26l-172 84z" />
    <glyph glyph-name="iacute" unicode="&#xed;" horiz-adv-x="241" 
d="M143 522v-522h-45v522h45zM185 773l21 -41l-172 -84l-15 26z" />
    <glyph glyph-name="icircumflex" unicode="&#xee;" horiz-adv-x="241" 
d="M143 522v-522h-45v522h45zM11 648l-20 22l115 105h27l115 -105l-21 -22l-108 85z" />
    <glyph glyph-name="idieresis" unicode="&#xef;" horiz-adv-x="241" 
d="M143 522v-522h-45v522h45zM60 722.5q9 -9.5 9 -23.5t-9 -23.5t-24 -9.5q-14 0 -23 9.5t-9 23.5t9 23.5t23 9.5q15 0 24 -9.5zM225 722.5q9 -9.5 9 -23.5t-9 -23.5t-23 -9.5t-23.5 9.5t-9.5 23.5t9.5 23.5t23.5 9.5t23 -9.5z" />
    <glyph glyph-name="eth" unicode="&#xf0;" horiz-adv-x="498" 
d="M398 511.5q36 -89.5 36 -225.5q0 -145 -51 -221t-138 -76q-86 0 -136 65t-50 178q0 63 20.5 116.5t60.5 85.5t94 32q46 0 82 -20.5t67 -61.5q-9 80 -38 140.5t-84 110.5l-72 -79l-33 14l77 86q-55 36 -114 49l10 37q62 -14 129 -57l63 71l28 -22l-62 -71
q75 -62 111 -151.5zM350.5 94.5q37.5 66.5 37.5 193.5l-1 44q-64 95 -148 95q-64 0 -98.5 -54.5t-34.5 -141.5q0 -97 36.5 -150t102.5 -53q68 0 105.5 66.5z" />
    <glyph glyph-name="ntilde" unicode="&#xf1;" horiz-adv-x="525" 
d="M399 491.5q33 -40.5 33 -114.5v-377h-45v371q0 123 -91 123q-46 0 -83.5 -30t-69.5 -85v-379h-45v522h39l4 -94q65 104 162 104q63 0 96 -40.5zM290 677.5q-14 6.5 -32 18.5q-14 10 -24 14.5t-19 4.5q-15 0 -27 -9t-25 -29l-27 15q33 59 78 59q14 0 27 -6t30 -17
t27.5 -16t21.5 -5q14 0 25.5 10t25.5 33l28 -14q-30 -65 -78 -65q-17 0 -31 6.5z" />
    <glyph glyph-name="ograve" unicode="&#xf2;" horiz-adv-x="511" 
d="M400.5 463.5q51.5 -68.5 51.5 -200.5q0 -131 -52.5 -202.5t-144.5 -71.5t-144 71.5t-52 199.5q0 130 53 201t144 71q93 0 144.5 -68.5zM145.5 435q-39.5 -58 -39.5 -175q0 -114 39 -172.5t110 -58.5q72 0 111 58.5t39 175.5q0 115 -38.5 172.5t-110.5 57.5
q-71 0 -110.5 -58zM187 773l166 -99l-16 -26l-172 84z" />
    <glyph glyph-name="oacute" unicode="&#xf3;" horiz-adv-x="511" 
d="M400.5 463.5q51.5 -68.5 51.5 -200.5q0 -131 -52.5 -202.5t-144.5 -71.5t-144 71.5t-52 199.5q0 130 53 201t144 71q93 0 144.5 -68.5zM145.5 435q-39.5 -58 -39.5 -175q0 -114 39 -172.5t110 -58.5q72 0 111 58.5t39 175.5q0 115 -38.5 172.5t-110.5 57.5
q-71 0 -110.5 -58zM321 773l21 -41l-172 -84l-15 26z" />
    <glyph glyph-name="ocircumflex" unicode="&#xf4;" horiz-adv-x="511" 
d="M400.5 463.5q51.5 -68.5 51.5 -200.5q0 -131 -52.5 -202.5t-144.5 -71.5t-144 71.5t-52 199.5q0 130 53 201t144 71q93 0 144.5 -68.5zM145.5 435q-39.5 -58 -39.5 -175q0 -114 39 -172.5t110 -58.5q72 0 111 58.5t39 175.5q0 115 -38.5 172.5t-110.5 57.5
q-71 0 -110.5 -58zM147 648l-20 22l115 105h27l115 -105l-21 -22l-108 85z" />
    <glyph glyph-name="otilde" unicode="&#xf5;" horiz-adv-x="511" 
d="M400.5 463.5q51.5 -68.5 51.5 -200.5q0 -131 -52.5 -202.5t-144.5 -71.5t-144 71.5t-52 199.5q0 130 53 201t144 71q93 0 144.5 -68.5zM145.5 435q-39.5 -58 -39.5 -175q0 -114 39 -172.5t110 -58.5q72 0 111 58.5t39 175.5q0 115 -38.5 172.5t-110.5 57.5
q-71 0 -110.5 -58zM278 677.5q-14 6.5 -32 18.5q-14 10 -24 14.5t-19 4.5q-15 0 -27 -9t-25 -29l-27 15q33 59 78 59q14 0 27 -6t30 -17t27.5 -16t21.5 -5q14 0 25.5 10t25.5 33l28 -14q-30 -65 -78 -65q-17 0 -31 6.5z" />
    <glyph glyph-name="odieresis" unicode="&#xf6;" horiz-adv-x="511" 
d="M400.5 463.5q51.5 -68.5 51.5 -200.5q0 -131 -52.5 -202.5t-144.5 -71.5t-144 71.5t-52 199.5q0 130 53 201t144 71q93 0 144.5 -68.5zM145.5 435q-39.5 -58 -39.5 -175q0 -114 39 -172.5t110 -58.5q72 0 111 58.5t39 175.5q0 115 -38.5 172.5t-110.5 57.5
q-71 0 -110.5 -58zM196 722.5q9 -9.5 9 -23.5t-9 -23.5t-24 -9.5q-14 0 -23 9.5t-9 23.5t9 23.5t23 9.5q15 0 24 -9.5zM361 722.5q9 -9.5 9 -23.5t-9 -23.5t-23 -9.5t-23.5 9.5t-9.5 23.5t9.5 23.5t23.5 9.5t23 -9.5z" />
    <glyph glyph-name="divide" unicode="&#xf7;" horiz-adv-x="442" 
d="M249 142.5q11 -11.5 11 -27.5t-11 -27.5t-28 -11.5t-28 11.5t-11 27.5t11 27.5t28 11.5t28 -11.5zM249 572.5q11 -11.5 11 -27.5t-11 -27.5t-28 -11.5t-28 11.5t-11 27.5t11 27.5t28 11.5t28 -11.5zM64 311v40h315v-40h-315z" />
    <glyph glyph-name="oslash" unicode="&#xf8;" horiz-adv-x="511" 
d="M426 417q26 -62 26 -154q0 -131 -52.5 -202.5t-144.5 -71.5q-29 0 -58 8l-37 -120l-38 11l40 125q-50 29 -76.5 92.5t-26.5 154.5q0 130 53 201t144 71q30 0 59 -8l37 121l37 -10l-38 -127q49 -29 75 -91zM177 51l128 435q-21 7 -49 7q-71 0 -110.5 -58t-39.5 -175
q0 -159 71 -209zM366 86.5q39 58.5 39 176.5q0 157 -70 207l-128 -435q21 -7 48 -7q72 0 111 58.5z" />
    <glyph glyph-name="ugrave" unicode="&#xf9;" horiz-adv-x="521" 
d="M423 0h-39l-2 94q-57 -105 -154 -105q-64 0 -99.5 40t-35.5 111v382h45v-378q0 -116 97 -116q46 0 80.5 29.5t62.5 83.5v381h45v-522zM189 773l166 -99l-16 -26l-172 84z" />
    <glyph glyph-name="uacute" unicode="&#xfa;" horiz-adv-x="521" 
d="M423 0h-39l-2 94q-57 -105 -154 -105q-64 0 -99.5 40t-35.5 111v382h45v-378q0 -116 97 -116q46 0 80.5 29.5t62.5 83.5v381h45v-522zM323 773l21 -41l-172 -84l-15 26z" />
    <glyph glyph-name="ucircumflex" unicode="&#xfb;" horiz-adv-x="521" 
d="M423 0h-39l-2 94q-57 -105 -154 -105q-64 0 -99.5 40t-35.5 111v382h45v-378q0 -116 97 -116q46 0 80.5 29.5t62.5 83.5v381h45v-522zM149 648l-20 22l115 105h27l115 -105l-21 -22l-108 85z" />
    <glyph glyph-name="udieresis" unicode="&#xfc;" horiz-adv-x="521" 
d="M423 0h-39l-2 94q-57 -105 -154 -105q-64 0 -99.5 40t-35.5 111v382h45v-378q0 -116 97 -116q46 0 80.5 29.5t62.5 83.5v381h45v-522zM198 722.5q9 -9.5 9 -23.5t-9 -23.5t-24 -9.5q-14 0 -23 9.5t-9 23.5t9 23.5t23 9.5q15 0 24 -9.5zM363 722.5q9 -9.5 9 -23.5
t-9 -23.5t-23 -9.5t-23.5 9.5t-9.5 23.5t9.5 23.5t23.5 9.5t23 -9.5z" />
    <glyph glyph-name="yacute" unicode="&#xfd;" horiz-adv-x="420" 
d="M240 -2q-19 -60 -40.5 -98t-56 -62.5t-88.5 -38.5l-5 35q46 14 72.5 34t42.5 49.5t33 82.5h-16l-165 522h48l147 -487l143 487h48zM276 773l21 -41l-172 -84l-15 26z" />
    <glyph glyph-name="thorn" unicode="&#xfe;" horiz-adv-x="518" 
d="M413 464q44 -68 44 -200q0 -130 -46.5 -202.5t-131.5 -72.5q-43 0 -77.5 21t-58.5 55v-259l-45 -8v937l45 6v-293q27 40 63 62t80 22q83 0 127 -68zM374 87.5q35 58.5 35 176.5q0 229 -128 229q-44 0 -76.5 -24t-61.5 -68v-288q54 -84 130 -84q66 0 101 58.5z" />
    <glyph glyph-name="ydieresis" unicode="&#xff;" horiz-adv-x="420" 
d="M240 -2q-19 -60 -40.5 -98t-56 -62.5t-88.5 -38.5l-5 35q46 14 72.5 34t42.5 49.5t33 82.5h-16l-165 522h48l147 -487l143 487h48zM151 722.5q9 -9.5 9 -23.5t-9 -23.5t-24 -9.5q-14 0 -23 9.5t-9 23.5t9 23.5t23 9.5q15 0 24 -9.5zM316 722.5q9 -9.5 9 -23.5t-9 -23.5
t-23 -9.5t-23.5 9.5t-9.5 23.5t9.5 23.5t23.5 9.5t23 -9.5z" />
    <glyph glyph-name="Amacron" unicode="&#x100;" horiz-adv-x="514" 
d="M445 0l-56 193h-266l-57 -193h-45l207 684h58l207 -684h-48zM135 233h242l-121 413zM362 806h-209v37h209v-37z" />
    <glyph glyph-name="amacron" unicode="&#x101;" horiz-adv-x="482" 
d="M394 48q9 -18 30 -27l-10 -32q-32 8 -48.5 29t-19.5 61q-51 -90 -147 -90q-68 0 -107 42.5t-39 113.5q0 80 52.5 123.5t145.5 43.5h89v60q0 62 -25.5 91.5t-83.5 29.5q-57 0 -130 -30l-13 35q81 34 147 34q150 0 150 -157v-272q0 -37 9 -55zM340 127v150h-84
q-155 0 -155 -131q0 -57 27.5 -88t75.5 -31q90 0 136 100zM339 680h-209v37h209v-37z" />
    <glyph glyph-name="Abreve" unicode="&#x102;" horiz-adv-x="514" 
d="M445 0l-56 193h-266l-57 -193h-45l207 684h58l207 -684h-48zM135 233h242l-121 413zM181.5 792.5q-30.5 25.5 -36.5 66.5l30 7q9 -28 30 -44t52 -16t52.5 16t29.5 44l30 -7q-5 -41 -36 -66.5t-76 -25.5t-75.5 25.5z" />
    <glyph glyph-name="abreve" unicode="&#x103;" horiz-adv-x="482" 
d="M394 48q9 -18 30 -27l-10 -32q-32 8 -48.5 29t-19.5 61q-51 -90 -147 -90q-68 0 -107 42.5t-39 113.5q0 80 52.5 123.5t145.5 43.5h89v60q0 62 -25.5 91.5t-83.5 29.5q-57 0 -130 -30l-13 35q81 34 147 34q150 0 150 -157v-272q0 -37 9 -55zM340 127v150h-84
q-155 0 -155 -131q0 -57 27.5 -88t75.5 -31q90 0 136 100zM158.5 684q-30.5 27 -36.5 75l31 7q16 -71 81 -71q64 0 82 71l30 -7q-5 -47 -35.5 -74.5t-76.5 -27.5q-45 0 -75.5 27z" />
    <glyph glyph-name="Aogonek" unicode="&#x104;" horiz-adv-x="514" 
d="M399 -56q-25 -26 -25 -64q0 -53 58 -53q23 0 51 6l-4 -39q-27 -6 -51 -6q-47 0 -72 24t-25 64q0 42 27.5 73t84.5 59l-54 185h-266l-57 -193h-45l207 684h58l207 -684h-10q-59 -30 -84 -56zM135 233h242l-121 413z" />
    <glyph glyph-name="aogonek" unicode="&#x105;" horiz-adv-x="482" 
d="M330 -67q-25 -26 -25 -64q0 -53 58 -53q22 0 51 6l-4 -39q-27 -6 -51 -6q-47 0 -72 24t-25 64q0 43 29.5 76t91.5 61q-33 21 -37 77q-51 -90 -147 -90q-68 0 -107 42.5t-39 113.5q0 80 52.5 123.5t145.5 43.5h89v60q0 62 -25.5 91.5t-83.5 29.5q-57 0 -130 -30l-13 35
q81 34 147 34q150 0 150 -157v-272q0 -37 9 -55t30 -27l-10 -32q-59 -30 -84 -56zM340 127v150h-84q-155 0 -155 -131q0 -57 27.5 -88t75.5 -31q90 0 136 100z" />
    <glyph glyph-name="Cacute" unicode="&#x106;" horiz-adv-x="493" 
d="M395.5 679q35.5 -15 70.5 -46l-26 -30q-32 27 -60.5 38.5t-66.5 11.5q-91 0 -146.5 -75t-55.5 -236q0 -156 55 -233t145 -77q44 0 74 14t61 41l27 -30q-70 -68 -163 -68q-72 0 -128 39.5t-88 119t-32 194.5q0 117 33 196t89 117.5t126 38.5q50 0 85.5 -15zM382 877
l21 -42l-174 -76l-13 28z" />
    <glyph glyph-name="cacute" unicode="&#x107;" horiz-adv-x="417" 
d="M327 520q31 -12 60 -39l-23 -30q-24 21 -48.5 31.5t-56.5 10.5q-70 0 -111 -58.5t-41 -176.5q0 -116 40.5 -172.5t110.5 -56.5q59 0 110 44l23 -28q-59 -56 -133 -56q-92 0 -145.5 69t-53.5 200q0 130 54 202t145 72q38 0 69 -12zM322 773l21 -41l-172 -84l-15 26z" />
    <glyph glyph-name="Ccircumflex" unicode="&#x108;" horiz-adv-x="493" 
d="M395.5 679q35.5 -15 70.5 -46l-26 -30q-32 27 -60.5 38.5t-66.5 11.5q-91 0 -146.5 -75t-55.5 -236q0 -156 55 -233t145 -77q44 0 74 14t61 41l27 -30q-70 -68 -163 -68q-72 0 -128 39.5t-88 119t-32 194.5q0 117 33 196t89 117.5t126 38.5q50 0 85.5 -15zM202 764
l-21 23l115 99h27l115 -99l-20 -23l-108 80z" />
    <glyph glyph-name="ccircumflex" unicode="&#x109;" horiz-adv-x="417" 
d="M327 520q31 -12 60 -39l-23 -30q-24 21 -48.5 31.5t-56.5 10.5q-70 0 -111 -58.5t-41 -176.5q0 -116 40.5 -172.5t110.5 -56.5q59 0 110 44l23 -28q-59 -56 -133 -56q-92 0 -145.5 69t-53.5 200q0 130 54 202t145 72q38 0 69 -12zM148 648l-20 22l115 105h27l115 -105
l-21 -22l-108 85z" />
    <glyph glyph-name="Cdotaccent" unicode="&#x10a;" horiz-adv-x="493" 
d="M395.5 679q35.5 -15 70.5 -46l-26 -30q-32 27 -60.5 38.5t-66.5 11.5q-91 0 -146.5 -75t-55.5 -236q0 -156 55 -233t145 -77q44 0 74 14t61 41l27 -30q-70 -68 -163 -68q-72 0 -128 39.5t-88 119t-32 194.5q0 117 33 196t89 117.5t126 38.5q50 0 85.5 -15zM335.5 859
q9.5 -10 9.5 -24q0 -15 -9.5 -24.5t-25.5 -9.5q-15 0 -24.5 10t-9.5 24t9.5 24t24.5 10q16 0 25.5 -10z" />
    <glyph glyph-name="cdotaccent" unicode="&#x10b;" horiz-adv-x="417" 
d="M327 520q31 -12 60 -39l-23 -30q-24 21 -48.5 31.5t-56.5 10.5q-70 0 -111 -58.5t-41 -176.5q0 -116 40.5 -172.5t110.5 -56.5q59 0 110 44l23 -28q-59 -56 -133 -56q-92 0 -145.5 69t-53.5 200q0 130 54 202t145 72q38 0 69 -12zM281.5 733q9.5 -10 9.5 -24
q0 -15 -9.5 -24.5t-25.5 -9.5q-15 0 -24.5 10t-9.5 24t9.5 24t24.5 10q16 0 25.5 -10z" />
    <glyph glyph-name="Ccaron" unicode="&#x10c;" horiz-adv-x="493" 
d="M395.5 679q35.5 -15 70.5 -46l-26 -30q-32 27 -60.5 38.5t-66.5 11.5q-91 0 -146.5 -75t-55.5 -236q0 -156 55 -233t145 -77q44 0 74 14t61 41l27 -30q-70 -68 -163 -68q-72 0 -128 39.5t-88 119t-32 194.5q0 117 33 196t89 117.5t126 38.5q50 0 85.5 -15zM419 879
l19 -22l-115 -100h-27l-115 100l20 22l109 -80z" />
    <glyph glyph-name="ccaron" unicode="&#x10d;" horiz-adv-x="417" 
d="M327 520q31 -12 60 -39l-23 -30q-24 21 -48.5 31.5t-56.5 10.5q-70 0 -111 -58.5t-41 -176.5q0 -116 40.5 -172.5t110.5 -56.5q59 0 110 44l23 -28q-59 -56 -133 -56q-92 0 -145.5 69t-53.5 200q0 130 54 202t145 72q38 0 69 -12zM365 762l20 -22l-115 -105h-27l-115 105
l21 22l108 -85z" />
    <glyph glyph-name="Dcaron" unicode="&#x10e;" horiz-adv-x="567" 
d="M427 612q78 -72 78 -264q0 -193 -79.5 -270.5t-194.5 -77.5h-129v684h122q125 0 203 -72zM149 643v-603h84q223 0 223 308q0 121 -32.5 186t-82 87t-114.5 22h-78zM378 879l19 -22l-115 -100h-27l-115 100l20 22l109 -80z" />
    <glyph glyph-name="dcaron" unicode="&#x10f;" horiz-adv-x="525" 
d="M424 735v-735h-39l-4 81q-49 -92 -143 -92q-82 0 -129.5 71.5t-47.5 198.5q0 82 22.5 144t64.5 95.5t99 33.5q81 0 132 -71v280zM321.5 53.5q32.5 25.5 57.5 76.5v281q-24 38 -54.5 60t-72.5 22q-65 0 -104 -59.5t-39 -170.5q0 -115 35.5 -175t98.5 -60q46 0 78.5 25.5z
M509 578l33 156l-44 5l-17 -157z" />
    <glyph glyph-name="Dcroat" unicode="&#x110;" horiz-adv-x="570" 
d="M430 612q78 -72 78 -264q0 -193 -79.5 -270.5t-194.5 -77.5h-129v332h-83v40h83v312h122q125 0 203 -72zM459 348q0 121 -32.5 186t-82 87t-114.5 22h-78v-271h160v-40h-160v-292h84q223 0 223 308z" />
    <glyph glyph-name="dcroat" unicode="&#x111;" horiz-adv-x="527" 
d="M492 658v-38h-68v-620h-39l-4 81q-49 -92 -143 -92q-82 0 -129.5 71.5t-47.5 198.5q0 82 22.5 144t64.5 95.5t99 33.5q81 0 132 -71v159h-149v38h149v83l45 -6v-77h68zM321.5 53.5q32.5 25.5 57.5 76.5v281q-24 38 -54.5 60t-72.5 22q-65 0 -104 -59.5t-39 -170.5
q0 -115 35.5 -175t98.5 -60q46 0 78.5 25.5z" />
    <glyph glyph-name="Emacron" unicode="&#x112;" horiz-adv-x="454" 
d="M410 684l-6 -41h-255v-266h221v-40h-221v-297h266v-40h-313v684h308zM365 806h-209v37h209v-37z" />
    <glyph glyph-name="emacron" unicode="&#x113;" horiz-adv-x="481" 
d="M425 241h-319q4 -110 44.5 -161t107.5 -51q38 0 66.5 12t60.5 39l23 -28q-34 -31 -70.5 -47t-80.5 -16q-92 0 -145 69.5t-53 198.5q0 130 50.5 202.5t137.5 72.5q88 0 134 -65.5t46 -184.5q0 -21 -2 -41zM382 297q0 94 -33 145t-101 51q-62 0 -100 -52t-42 -164h276v20z
M353 680h-209v37h209v-37z" />
    <glyph glyph-name="Ebreve" unicode="&#x114;" horiz-adv-x="454" 
d="M410 684l-6 -41h-255v-266h221v-40h-221v-297h266v-40h-313v684h308zM184.5 792.5q-30.5 25.5 -36.5 66.5l30 7q9 -28 30 -44t52 -16t52.5 16t29.5 44l30 -7q-5 -41 -36 -66.5t-76 -25.5t-75.5 25.5z" />
    <glyph glyph-name="ebreve" unicode="&#x115;" horiz-adv-x="481" 
d="M425 241h-319q4 -110 44.5 -161t107.5 -51q38 0 66.5 12t60.5 39l23 -28q-34 -31 -70.5 -47t-80.5 -16q-92 0 -145 69.5t-53 198.5q0 130 50.5 202.5t137.5 72.5q88 0 134 -65.5t46 -184.5q0 -21 -2 -41zM382 297q0 94 -33 145t-101 51q-62 0 -100 -52t-42 -164h276v20z
M172.5 684q-30.5 27 -36.5 75l31 7q16 -71 81 -71q64 0 82 71l30 -7q-5 -47 -35.5 -74.5t-76.5 -27.5q-45 0 -75.5 27z" />
    <glyph glyph-name="Edotaccent" unicode="&#x116;" horiz-adv-x="454" 
d="M410 684l-6 -41h-255v-266h221v-40h-221v-297h266v-40h-313v684h308zM285.5 859q9.5 -10 9.5 -24q0 -15 -9.5 -24.5t-25.5 -9.5q-15 0 -24.5 10t-9.5 24t9.5 24t24.5 10q16 0 25.5 -10z" />
    <glyph glyph-name="edotaccent" unicode="&#x117;" horiz-adv-x="481" 
d="M425 241h-319q4 -110 44.5 -161t107.5 -51q38 0 66.5 12t60.5 39l23 -28q-34 -31 -70.5 -47t-80.5 -16q-92 0 -145 69.5t-53 198.5q0 130 50.5 202.5t137.5 72.5q88 0 134 -65.5t46 -184.5q0 -21 -2 -41zM382 297q0 94 -33 145t-101 51q-62 0 -100 -52t-42 -164h276v20z
M272.5 733q9.5 -10 9.5 -24q0 -15 -9.5 -24.5t-25.5 -9.5q-15 0 -24.5 10t-9.5 24t9.5 24t24.5 10q16 0 25.5 -10z" />
    <glyph glyph-name="Eogonek" unicode="&#x118;" horiz-adv-x="454" 
d="M415 40v-40h-26q-59 -30 -84 -56t-25 -64q0 -53 58 -53q23 0 51 6l-4 -39q-27 -6 -51 -6q-47 0 -72 24t-25 64q0 38 23.5 68t71.5 56h-230v684h308l-6 -41h-255v-266h221v-40h-221v-297h266z" />
    <glyph glyph-name="eogonek" unicode="&#x119;" horiz-adv-x="481" 
d="M425 241h-319q4 -110 44.5 -161t107.5 -51q38 0 66.5 12t60.5 39l23 -28q-37 -34 -78 -50q-56 -29 -80 -54.5t-24 -61.5q0 -25 15.5 -39.5t44.5 -14.5q22 0 50 7l-4 -40q-27 -6 -52 -6q-46 0 -71 24.5t-25 63.5q0 66 74 108h-1q-92 0 -145 69.5t-53 198.5
q0 130 50.5 202.5t137.5 72.5q88 0 134 -65.5t46 -184.5q0 -21 -2 -41zM382 297q0 94 -33 145t-101 51q-62 0 -100 -52t-42 -164h276v20z" />
    <glyph glyph-name="Ecaron" unicode="&#x11a;" horiz-adv-x="454" 
d="M410 684l-6 -41h-255v-266h221v-40h-221v-297h266v-40h-313v684h308zM369 879l19 -22l-115 -100h-27l-115 100l20 22l109 -80z" />
    <glyph glyph-name="ecaron" unicode="&#x11b;" horiz-adv-x="481" 
d="M425 241h-319q4 -110 44.5 -161t107.5 -51q38 0 66.5 12t60.5 39l23 -28q-34 -31 -70.5 -47t-80.5 -16q-92 0 -145 69.5t-53 198.5q0 130 50.5 202.5t137.5 72.5q88 0 134 -65.5t46 -184.5q0 -21 -2 -41zM382 297q0 94 -33 145t-101 51q-62 0 -100 -52t-42 -164h276v20z
M356 762l20 -22l-115 -105h-27l-115 105l21 22l108 -85z" />
    <glyph glyph-name="Gcircumflex" unicode="&#x11c;" horiz-adv-x="555" 
d="M405.5 678.5q37.5 -15.5 76.5 -49.5l-27 -29q-33 28 -65 40.5t-72 12.5q-55 0 -102 -30t-76 -99t-29 -179q0 -161 54 -238t151 -77q39 0 70.5 9t61.5 28v257h-123l-5 41h174v-321q-83 -55 -177 -55q-119 0 -187 89t-68 267q0 117 35.5 195.5t94 116t126.5 37.5
q50 0 87.5 -15.5zM208 764l-21 23l115 99h27l115 -99l-20 -23l-108 80z" />
    <glyph glyph-name="gcircumflex" unicode="&#x11d;" horiz-adv-x="449" 
d="M439 516q-39 -13 -127 -15q79 -41 79 -146q0 -78 -45 -123.5t-123 -45.5q-35 0 -61 10q-19 -11 -29.5 -28t-10.5 -36q0 -59 83 -59h67q72 0 113 -35.5t41 -92.5q0 -69 -50.5 -108t-149.5 -39q-103 0 -148.5 35t-45.5 111h41q2 -59 35.5 -83.5t117.5 -24.5q154 0 154 106
q0 44 -29.5 68t-84.5 24h-64q-60 0 -91.5 24.5t-31.5 64.5q0 51 52 87q-79 45 -79 148q0 79 46.5 126.5t124.5 47.5q86 -1 124 5.5t78 22.5zM129.5 459.5q-31.5 -36.5 -31.5 -101.5t33.5 -101t90.5 -36q60 0 91.5 34t31.5 101q0 65 -30.5 102.5t-91.5 37.5
q-62 0 -93.5 -36.5zM116 648l-20 22l115 105h27l115 -105l-21 -22l-108 85z" />
    <glyph glyph-name="Gbreve" unicode="&#x11e;" horiz-adv-x="555" 
d="M405.5 678.5q37.5 -15.5 76.5 -49.5l-27 -29q-33 28 -65 40.5t-72 12.5q-55 0 -102 -30t-76 -99t-29 -179q0 -161 54 -238t151 -77q39 0 70.5 9t61.5 28v257h-123l-5 41h174v-321q-83 -55 -177 -55q-119 0 -187 89t-68 267q0 117 35.5 195.5t94 116t126.5 37.5
q50 0 87.5 -15.5zM240.5 792.5q-30.5 25.5 -36.5 66.5l30 7q9 -28 30 -44t52 -16t52.5 16t29.5 44l30 -7q-5 -41 -36 -66.5t-76 -25.5t-75.5 25.5z" />
    <glyph glyph-name="gbreve" unicode="&#x11f;" horiz-adv-x="449" 
d="M439 516q-39 -13 -127 -15q79 -41 79 -146q0 -78 -45 -123.5t-123 -45.5q-35 0 -61 10q-19 -11 -29.5 -28t-10.5 -36q0 -59 83 -59h67q72 0 113 -35.5t41 -92.5q0 -69 -50.5 -108t-149.5 -39q-103 0 -148.5 35t-45.5 111h41q2 -59 35.5 -83.5t117.5 -24.5q154 0 154 106
q0 44 -29.5 68t-84.5 24h-64q-60 0 -91.5 24.5t-31.5 64.5q0 51 52 87q-79 45 -79 148q0 79 46.5 126.5t124.5 47.5q86 -1 124 5.5t78 22.5zM129.5 459.5q-31.5 -36.5 -31.5 -101.5t33.5 -101t90.5 -36q60 0 91.5 34t31.5 101q0 65 -30.5 102.5t-91.5 37.5
q-62 0 -93.5 -36.5zM149.5 684q-30.5 27 -36.5 75l31 7q16 -71 81 -71q64 0 82 71l30 -7q-5 -47 -35.5 -74.5t-76.5 -27.5q-45 0 -75.5 27z" />
    <glyph glyph-name="Gdotaccent" unicode="&#x120;" horiz-adv-x="555" 
d="M405.5 678.5q37.5 -15.5 76.5 -49.5l-27 -29q-33 28 -65 40.5t-72 12.5q-55 0 -102 -30t-76 -99t-29 -179q0 -161 54 -238t151 -77q39 0 70.5 9t61.5 28v257h-123l-5 41h174v-321q-83 -55 -177 -55q-119 0 -187 89t-68 267q0 117 35.5 195.5t94 116t126.5 37.5
q50 0 87.5 -15.5zM341.5 859q9.5 -10 9.5 -24q0 -15 -9.5 -24.5t-25.5 -9.5q-15 0 -24.5 10t-9.5 24t9.5 24t24.5 10q16 0 25.5 -10z" />
    <glyph glyph-name="gdotaccent" unicode="&#x121;" horiz-adv-x="449" 
d="M439 516q-39 -13 -127 -15q79 -41 79 -146q0 -78 -45 -123.5t-123 -45.5q-35 0 -61 10q-19 -11 -29.5 -28t-10.5 -36q0 -59 83 -59h67q72 0 113 -35.5t41 -92.5q0 -69 -50.5 -108t-149.5 -39q-103 0 -148.5 35t-45.5 111h41q2 -59 35.5 -83.5t117.5 -24.5q154 0 154 106
q0 44 -29.5 68t-84.5 24h-64q-60 0 -91.5 24.5t-31.5 64.5q0 51 52 87q-79 45 -79 148q0 79 46.5 126.5t124.5 47.5q86 -1 124 5.5t78 22.5zM129.5 459.5q-31.5 -36.5 -31.5 -101.5t33.5 -101t90.5 -36q60 0 91.5 34t31.5 101q0 65 -30.5 102.5t-91.5 37.5
q-62 0 -93.5 -36.5zM249.5 733q9.5 -10 9.5 -24q0 -15 -9.5 -24.5t-25.5 -9.5q-15 0 -24.5 10t-9.5 24t9.5 24t24.5 10q16 0 25.5 -10z" />
    <glyph glyph-name="Gcommaaccent" unicode="&#x122;" horiz-adv-x="555" 
d="M405.5 678.5q37.5 -15.5 76.5 -49.5l-27 -29q-33 28 -65 40.5t-72 12.5q-55 0 -102 -30t-76 -99t-29 -179q0 -161 54 -238t151 -77q39 0 70.5 9t61.5 28v257h-123l-5 41h174v-321q-83 -55 -177 -55q-119 0 -187 89t-68 267q0 117 35.5 195.5t94 116t126.5 37.5
q50 0 87.5 -15.5zM331 -98.5q10 -10.5 10 -26.5q0 -11 -5 -25.5t-14 -36.5l-36 -86h-28l30 114q-21 11 -21 34q0 16 10 26.5t27 10.5t27 -10.5z" />
    <glyph glyph-name="gcommaaccent" unicode="&#x123;" horiz-adv-x="449" 
d="M439 516q-39 -13 -127 -15q79 -41 79 -146q0 -78 -45 -123.5t-123 -45.5q-35 0 -61 10q-19 -11 -29.5 -28t-10.5 -36q0 -59 83 -59h67q72 0 113 -35.5t41 -92.5q0 -69 -50.5 -108t-149.5 -39q-103 0 -148.5 35t-45.5 111h41q2 -59 35.5 -83.5t117.5 -24.5q154 0 154 106
q0 44 -29.5 68t-84.5 24h-64q-60 0 -91.5 24.5t-31.5 64.5q0 51 52 87q-79 45 -79 148q0 79 46.5 126.5t124.5 47.5q86 -1 124 5.5t78 22.5zM129.5 459.5q-31.5 -36.5 -31.5 -101.5t33.5 -101t90.5 -36q60 0 91.5 34t31.5 101q0 65 -30.5 102.5t-91.5 37.5
q-62 0 -93.5 -36.5zM196 601.5q-10 10.5 -10 26.5q0 11 5 25.5t14 36.5l36 86h28l-30 -114q21 -11 21 -34q0 -16 -10 -26.5t-27 -10.5t-27 10.5z" />
    <glyph glyph-name="Hcircumflex" unicode="&#x124;" horiz-adv-x="601" 
d="M452 0v340h-303v-340h-47v684h47v-304h303v304h47v-684h-47zM191 764l-21 23l115 99h27l115 -99l-20 -23l-108 80z" />
    <glyph glyph-name="hcircumflex" unicode="&#x125;" horiz-adv-x="525" 
d="M398.5 491q33.5 -41 33.5 -114v-377h-45v371q0 123 -91 123q-46 0 -83.5 -30t-69.5 -85v-379h-45v735l45 6v-312q32 49 70.5 76t89.5 27q62 0 95.5 -41zM158 815l-21 23l115 99h27l115 -99l-20 -23l-108 80z" />
    <glyph glyph-name="Hbar" unicode="&#x126;" horiz-adv-x="602" 
d="M557 551v-35h-57v-516h-47v340h-303v-340h-47v516h-58v35h58v133h47v-133h303v133h47v-133h57zM453 380v136h-303v-136h303z" />
    <glyph glyph-name="hbar" unicode="&#x127;" horiz-adv-x="530" 
d="M403.5 491q33.5 -41 33.5 -114v-377h-45v371q0 123 -91 123q-46 0 -83.5 -30t-69.5 -85v-379h-45v621h-69v37h69v77l45 6v-83h152v-37h-152v-192q32 49 70.5 76t89.5 27q62 0 95.5 -41z" />
    <glyph glyph-name="Itilde" unicode="&#x128;" horiz-adv-x="251" 
d="M149 684v-684h-47v684h47zM147 803.5q-14 6.5 -32 18.5q-14 10 -24 14.5t-19 4.5q-15 0 -27 -9t-25 -29l-27 15q33 59 78 59q14 0 27 -6t30 -17t27.5 -16t21.5 -5q14 0 25.5 10t25.5 33l28 -14q-30 -65 -78 -65q-17 0 -31 6.5z" />
    <glyph glyph-name="itilde" unicode="&#x129;" horiz-adv-x="241" 
d="M143 522v-522h-45v522h45zM142 677.5q-14 6.5 -32 18.5q-14 10 -24 14.5t-19 4.5q-15 0 -27 -9t-25 -29l-27 15q33 59 78 59q14 0 27 -6t30 -17t27.5 -16t21.5 -5q14 0 25.5 10t25.5 33l28 -14q-30 -65 -78 -65q-17 0 -31 6.5z" />
    <glyph glyph-name="Imacron" unicode="&#x12a;" horiz-adv-x="251" 
d="M149 684v-684h-47v684h47zM230 806h-209v37h209v-37z" />
    <glyph glyph-name="imacron" unicode="&#x12b;" horiz-adv-x="241" 
d="M143 522v-522h-45v522h45zM225 680h-209v37h209v-37z" />
    <glyph glyph-name="Ibreve" unicode="&#x12c;" horiz-adv-x="251" 
d="M149 684v-684h-47v684h47zM49.5 792.5q-30.5 25.5 -36.5 66.5l30 7q9 -28 30 -44t52 -16t52.5 16t29.5 44l30 -7q-5 -41 -36 -66.5t-76 -25.5t-75.5 25.5z" />
    <glyph glyph-name="ibreve" unicode="&#x12d;" horiz-adv-x="241" 
d="M143 522v-522h-45v522h45zM44.5 684q-30.5 27 -36.5 75l31 7q16 -71 81 -71q64 0 82 71l30 -7q-5 -47 -35.5 -74.5t-76.5 -27.5q-45 0 -75.5 27z" />
    <glyph glyph-name="Iogonek" unicode="&#x12e;" horiz-adv-x="251" 
d="M149 684v-684h-3q-59 -30 -84 -56t-25 -64q0 -53 58 -53q22 0 51 6l-4 -39q-27 -6 -51 -6q-47 0 -72 24t-25 64q0 41 26.5 72t81.5 59v677h47z" />
    <glyph glyph-name="iogonek" unicode="&#x12f;" horiz-adv-x="241" 
d="M144.5 733q9.5 -10 9.5 -24q0 -15 -9.5 -24.5t-25.5 -9.5q-15 0 -24.5 10t-9.5 24t9.5 24t24.5 10q16 0 25.5 -10zM98 522h45v-522h-1q-59 -30 -84 -56t-25 -64q0 -53 58 -53q22 0 51 6l-4 -39q-27 -6 -51 -6q-47 0 -72 24t-25 64q0 41 26.5 72t81.5 59v515z" />
    <glyph glyph-name="Idotaccent" unicode="&#x130;" horiz-adv-x="251" 
d="M149 684v-684h-47v684h47zM150.5 859q9.5 -10 9.5 -24q0 -15 -9.5 -24.5t-25.5 -9.5q-15 0 -24.5 10t-9.5 24t9.5 24t24.5 10q16 0 25.5 -10z" />
    <glyph glyph-name="dotlessi" unicode="&#x131;" horiz-adv-x="241" 
d="M143 522v-522h-45v522h45z" />
    <glyph glyph-name="IJ" unicode="&#x132;" horiz-adv-x="509" 
d="M149 684v-684h-47v684h47zM412 90q0 -57 -12.5 -92.5t-41.5 -60.5t-81 -49l-13 33q42 23 63.5 44t30 50t8.5 77v592h46v-594z" />
    <glyph glyph-name="ij" unicode="&#x133;" horiz-adv-x="482" 
d="M143 522v-522h-45v522h45zM144.5 733q9.5 -10 9.5 -24q0 -15 -9.5 -24.5t-25.5 -9.5q-15 0 -24.5 10t-9.5 24t9.5 24t24.5 10q16 0 25.5 -10zM384 -2q0 -58 -13 -94t-38 -58.5t-69 -45.5l-15 32q35 20 53.5 38.5t27.5 48t9 79.5v524h45v-524zM385.5 733q9.5 -10 9.5 -24
q0 -15 -9.5 -24.5t-25.5 -9.5q-15 0 -24.5 10t-9.5 24t9.5 24t24.5 10q16 0 25.5 -10z" />
    <glyph glyph-name="Jcircumflex" unicode="&#x134;" horiz-adv-x="258" 
d="M161 90q0 -57 -12.5 -92.5t-41.5 -60.5t-81 -49l-13 33q42 23 63.5 44t30 50t8.5 77v592h46v-594zM29 764l-21 23l115 99h27l115 -99l-20 -23l-108 80z" />
    <glyph glyph-name="jcircumflex" unicode="&#x135;" horiz-adv-x="241" 
d="M143 -2q0 -58 -13 -94t-38 -58.5t-69 -45.5l-15 32q35 20 53.5 38.5t27.5 48t9 79.5v524h45v-524zM11 648l-20 22l115 105h27l115 -105l-21 -22l-108 85z" />
    <glyph glyph-name="Kcommaaccent" unicode="&#x136;" horiz-adv-x="488" 
d="M149 684v-684h-47v684h47zM468 684l-262 -315l278 -369h-55l-277 367l264 317h52zM300 -98.5q10 -10.5 10 -26.5q0 -11 -5 -25.5t-14 -36.5l-36 -86h-28l30 114q-21 11 -21 34q0 16 10 26.5t27 10.5t27 -10.5z" />
    <glyph glyph-name="kcommaaccent" unicode="&#x137;" horiz-adv-x="434" 
d="M143 741v-741h-45v735zM405 522l-205 -235l226 -287h-53l-225 285l205 237h52zM266 -98.5q10 -10.5 10 -26.5q0 -11 -5 -25.5t-14 -36.5l-36 -86h-28l30 114q-21 11 -21 34q0 16 10 26.5t27 10.5t27 -10.5z" />
    <glyph glyph-name="kgreenlandic" unicode="&#x138;" horiz-adv-x="434" 
d="M143 522v-522h-45v522h45zM404 522l-205 -245l226 -277h-53l-224 275l205 247h51z" />
    <glyph glyph-name="Lacute" unicode="&#x139;" horiz-adv-x="424" 
d="M149 684v-641h258l-7 -43h-298v684h47zM198 877l21 -42l-174 -76l-13 28z" />
    <glyph glyph-name="lacute" unicode="&#x13a;" horiz-adv-x="254" 
d="M114.5 11.5q-21.5 22.5 -21.5 64.5v659l45 6v-663q0 -49 40 -49q16 0 33 7l12 -34q-24 -13 -51 -13q-36 0 -57.5 22.5zM187 928l21 -42l-174 -76l-13 28z" />
    <glyph glyph-name="Lcommaaccent" unicode="&#x13b;" horiz-adv-x="424" 
d="M149 684v-641h258l-7 -43h-298v684h47zM279 -98.5q10 -10.5 10 -26.5q0 -11 -5 -25.5t-14 -36.5l-36 -86h-28l30 114q-21 11 -21 34q0 16 10 26.5t27 10.5t27 -10.5z" />
    <glyph glyph-name="lcommaaccent" unicode="&#x13c;" horiz-adv-x="254" 
d="M114.5 11.5q-21.5 22.5 -21.5 64.5v659l45 6v-663q0 -49 40 -49q16 0 33 7l12 -34q-24 -13 -51 -13q-36 0 -57.5 22.5zM188 -98.5q10 -10.5 10 -26.5q0 -11 -5 -25.5t-14 -36.5l-36 -86h-28l30 114q-21 11 -21 34q0 16 10 26.5t27 10.5t27 -10.5z" />
    <glyph glyph-name="Lcaron" unicode="&#x13d;" horiz-adv-x="424" 
d="M149 684v-641h258l-7 -43h-298v684h47zM236 527l33 156l-44 5l-17 -157z" />
    <glyph glyph-name="lcaron" unicode="&#x13e;" horiz-adv-x="254" 
d="M114.5 11.5q-21.5 22.5 -21.5 64.5v659l45 6v-663q0 -49 40 -49q16 0 33 7l12 -34q-24 -13 -51 -13q-36 0 -57.5 22.5zM223 578l33 156l-44 5l-17 -157z" />
    <glyph glyph-name="Ldot" unicode="&#x13f;" horiz-adv-x="424" 
d="M149 684v-641h258l-7 -43h-298v684h47zM352.5 387q9.5 -10 9.5 -24q0 -15 -9.5 -24.5t-25.5 -9.5q-15 0 -24.5 10t-9.5 24t9.5 24t24.5 10q16 0 25.5 -10z" />
    <glyph glyph-name="ldot" unicode="&#x140;" horiz-adv-x="264" 
d="M114.5 11.5q-21.5 22.5 -21.5 64.5v659l45 6v-663q0 -49 40 -49q16 0 33 7l12 -34q-24 -13 -51 -13q-36 0 -57.5 22.5zM271.5 400q9.5 -10 9.5 -24q0 -15 -9.5 -24.5t-25.5 -9.5q-15 0 -24.5 10t-9.5 24t9.5 24t24.5 10q16 0 25.5 -10z" />
    <glyph glyph-name="Lslash" unicode="&#x141;" horiz-adv-x="432" 
d="M158 43h258l-7 -43h-298v289l-60 -41l-19 32l79 53v351h47v-318l167 115l18 -32l-185 -127v-279z" />
    <glyph glyph-name="lslash" unicode="&#x142;" horiz-adv-x="268" 
d="M218 36l12 -34q-24 -13 -51 -13q-36 0 -57.5 22.5t-21.5 64.5v254l-54 -36l-18 30l72 49v362l45 6v-338l89 59l17 -30l-106 -71v-283q0 -49 40 -49q16 0 33 7z" />
    <glyph glyph-name="Nacute" unicode="&#x143;" horiz-adv-x="603" 
d="M501 0h-61l-300 631q6 -86 6 -222v-409h-44v684h60l301 -632q-7 119 -7 200v432h45v-684zM381 877l21 -42l-174 -76l-13 28z" />
    <glyph glyph-name="nacute" unicode="&#x144;" horiz-adv-x="525" 
d="M399 491.5q33 -40.5 33 -114.5v-377h-45v371q0 123 -91 123q-46 0 -83.5 -30t-69.5 -85v-379h-45v522h39l4 -94q65 104 162 104q63 0 96 -40.5zM333 773l21 -41l-172 -84l-15 26z" />
    <glyph glyph-name="Ncommaaccent" unicode="&#x145;" horiz-adv-x="603" 
d="M501 0h-61l-300 631q6 -86 6 -222v-409h-44v684h60l301 -632q-7 119 -7 200v432h45v-684zM327 -98.5q10 -10.5 10 -26.5q0 -11 -5 -25.5t-14 -36.5l-36 -86h-28l30 114q-21 11 -21 34q0 16 10 26.5t27 10.5t27 -10.5z" />
    <glyph glyph-name="ncommaaccent" unicode="&#x146;" horiz-adv-x="525" 
d="M399 491.5q33 -40.5 33 -114.5v-377h-45v371q0 123 -91 123q-46 0 -83.5 -30t-69.5 -85v-379h-45v522h39l4 -94q65 104 162 104q63 0 96 -40.5zM289 -98.5q10 -10.5 10 -26.5q0 -11 -5 -25.5t-14 -36.5l-36 -86h-28l30 114q-21 11 -21 34q0 16 10 26.5t27 10.5t27 -10.5z
" />
    <glyph glyph-name="Ncaron" unicode="&#x147;" horiz-adv-x="603" 
d="M501 0h-61l-300 631q6 -86 6 -222v-409h-44v684h60l301 -632q-7 119 -7 200v432h45v-684zM418 879l19 -22l-115 -100h-27l-115 100l20 22l109 -80z" />
    <glyph glyph-name="ncaron" unicode="&#x148;" horiz-adv-x="525" 
d="M399 491.5q33 -40.5 33 -114.5v-377h-45v371q0 123 -91 123q-46 0 -83.5 -30t-69.5 -85v-379h-45v522h39l4 -94q65 104 162 104q63 0 96 -40.5zM376 762l20 -22l-115 -105h-27l-115 105l21 22l108 -85z" />
    <glyph glyph-name="napostrophe" unicode="&#x149;" horiz-adv-x="596" 
d="M117 731.5q10 -10.5 10 -26.5q0 -11 -5 -25t-6 -17q-2 -4 -8 -20l-31 -91h-28l25 119q-22 9 -22 34q0 15 10.5 26t27.5 11t27 -10.5zM470 491.5q33 -40.5 33 -114.5v-377h-45v371q0 123 -91 123q-46 0 -83.5 -30t-69.5 -85v-379h-45v522h39l4 -94q65 104 162 104
q63 0 96 -40.5z" />
    <glyph glyph-name="Eng" unicode="&#x14a;" horiz-adv-x="603" 
d="M501 684v-769q0 -57 -29 -87t-77 -30q-52 0 -90 32l21 30q16 -11 31 -17t36 -6q28 0 44.5 18.5t16.5 58.5v86h-14l-300 631q6 -86 6 -222v-409h-44v684h60l301 -632q-7 119 -7 200v432h45z" />
    <glyph glyph-name="eng" unicode="&#x14b;" horiz-adv-x="525" 
d="M433 1v-87q0 -57 -29 -86.5t-77 -29.5q-52 0 -90 32l20 29q17 -11 32 -17t36 -6q63 0 63 77v87h-1v371q0 123 -91 123q-46 0 -83.5 -30t-69.5 -85v-379h-45v522h39l4 -94q65 104 162 104q63 0 96 -40.5t33 -114.5v-376h1z" />
    <glyph glyph-name="Omacron" unicode="&#x14c;" horiz-adv-x="623" 
d="M493 604.5q67 -89.5 67 -263.5q0 -170 -66.5 -261t-182.5 -91q-74 0 -130.5 40t-87.5 119t-31 192q0 114 31 193.5t87.5 120t130.5 40.5q115 0 182 -89.5zM164.5 575q-53.5 -78 -53.5 -235q0 -154 54 -232t146 -78q96 0 148.5 77t52.5 234q0 158 -53 235t-148 77
q-93 0 -146.5 -78zM416 806h-209v37h209v-37z" />
    <glyph glyph-name="omacron" unicode="&#x14d;" horiz-adv-x="511" 
d="M400.5 463.5q51.5 -68.5 51.5 -200.5q0 -131 -52.5 -202.5t-144.5 -71.5t-144 71.5t-52 199.5q0 130 53 201t144 71q93 0 144.5 -68.5zM145.5 435q-39.5 -58 -39.5 -175q0 -114 39 -172.5t110 -58.5q72 0 111 58.5t39 175.5q0 115 -38.5 172.5t-110.5 57.5
q-71 0 -110.5 -58zM361 680h-209v37h209v-37z" />
    <glyph glyph-name="Obreve" unicode="&#x14e;" horiz-adv-x="623" 
d="M493 604.5q67 -89.5 67 -263.5q0 -170 -66.5 -261t-182.5 -91q-74 0 -130.5 40t-87.5 119t-31 192q0 114 31 193.5t87.5 120t130.5 40.5q115 0 182 -89.5zM164.5 575q-53.5 -78 -53.5 -235q0 -154 54 -232t146 -78q96 0 148.5 77t52.5 234q0 158 -53 235t-148 77
q-93 0 -146.5 -78zM235.5 792.5q-30.5 25.5 -36.5 66.5l30 7q9 -28 30 -44t52 -16t52.5 16t29.5 44l30 -7q-5 -41 -36 -66.5t-76 -25.5t-75.5 25.5z" />
    <glyph glyph-name="obreve" unicode="&#x14f;" horiz-adv-x="511" 
d="M400.5 463.5q51.5 -68.5 51.5 -200.5q0 -131 -52.5 -202.5t-144.5 -71.5t-144 71.5t-52 199.5q0 130 53 201t144 71q93 0 144.5 -68.5zM145.5 435q-39.5 -58 -39.5 -175q0 -114 39 -172.5t110 -58.5q72 0 111 58.5t39 175.5q0 115 -38.5 172.5t-110.5 57.5
q-71 0 -110.5 -58zM180.5 684q-30.5 27 -36.5 75l31 7q16 -71 81 -71q64 0 82 71l30 -7q-5 -47 -35.5 -74.5t-76.5 -27.5q-45 0 -75.5 27z" />
    <glyph glyph-name="Ohungarumlaut" unicode="&#x150;" horiz-adv-x="623" 
d="M493 604.5q67 -89.5 67 -263.5q0 -170 -66.5 -261t-182.5 -91q-74 0 -130.5 40t-87.5 119t-31 192q0 114 31 193.5t87.5 120t130.5 40.5q115 0 182 -89.5zM164.5 575q-53.5 -78 -53.5 -235q0 -154 54 -232t146 -78q96 0 148.5 77t52.5 234q0 158 -53 235t-148 77
q-93 0 -146.5 -78zM408 929l41 -21l-81 -137l-29 14zM298 928l40 -21l-74 -131l-29 13z" />
    <glyph glyph-name="ohungarumlaut" unicode="&#x151;" horiz-adv-x="511" 
d="M400.5 463.5q51.5 -68.5 51.5 -200.5q0 -131 -52.5 -202.5t-144.5 -71.5t-144 71.5t-52 199.5q0 130 53 201t144 71q93 0 144.5 -68.5zM145.5 435q-39.5 -58 -39.5 -175q0 -114 39 -172.5t110 -58.5q72 0 111 58.5t39 175.5q0 115 -38.5 172.5t-110.5 57.5
q-71 0 -110.5 -58zM357 803l41 -21l-81 -137l-29 14zM247 802l40 -21l-74 -131l-29 13z" />
    <glyph glyph-name="OE" unicode="&#x152;" horiz-adv-x="777" 
d="M738 0h-374q-30 -11 -62 -11q-70 0 -124 41t-85 120t-31 190t31 191t85 121.5t124 41.5q34 0 63 -10h367l-6 -41h-291q49 -38 76 -105t30 -161h151v-41h-150q-1 -107 -29.5 -181.5t-81.5 -114.5h307v-40zM135.5 169.5q24.5 -69.5 67.5 -104.5t99 -35q90 0 141 80t51 238
q0 149 -52 227t-140 78q-86 0 -138.5 -80t-52.5 -233q0 -101 24.5 -170.5z" />
    <glyph glyph-name="oe" unicode="&#x153;" horiz-adv-x="826" 
d="M770 241h-318q5 -107 45.5 -159.5t105.5 -52.5q38 0 67 12.5t61 39.5l22 -28q-34 -32 -70 -48t-81 -16q-62 0 -106.5 37t-67.5 103q-24 -66 -68 -103t-105 -37q-92 0 -144 71.5t-52 199.5q0 129 53 200.5t144 71.5q63 0 106.5 -35.5t66.5 -101.5q23 65 65 101t101 36
q86 0 131.5 -66t45.5 -184q0 -21 -2 -41zM728 297q0 93 -33.5 145t-99.5 52q-62 0 -101 -54t-43 -163h277v20zM365.5 89q39.5 60 39.5 174q0 112 -39 171t-110 59t-110.5 -58t-39.5 -175q0 -114 39 -172.5t110 -58.5t110.5 60z" />
    <glyph glyph-name="Racute" unicode="&#x154;" horiz-adv-x="527" 
d="M443 0l-164 314l-17 -1h-113v-313h-47v684h136q226 0 226 -183q0 -72 -36 -116.5t-102 -61.5l170 -323h-53zM372.5 389q42.5 36 42.5 112q0 72 -41.5 107.5t-138.5 35.5h-86v-291h95q86 0 128.5 36zM332 877l21 -42l-174 -76l-13 28z" />
    <glyph glyph-name="racute" unicode="&#x155;" horiz-adv-x="334" 
d="M322 526l-9 -41q-20 5 -40 5q-49 0 -79.5 -39t-50.5 -121v-330h-45v522h39l3 -113q20 62 53 92.5t83 30.5q22 0 46 -6zM274 773l21 -41l-172 -84l-15 26z" />
    <glyph glyph-name="Rcommaaccent" unicode="&#x156;" horiz-adv-x="527" 
d="M443 0l-164 314l-17 -1h-113v-313h-47v684h136q226 0 226 -183q0 -72 -36 -116.5t-102 -61.5l170 -323h-53zM372.5 389q42.5 36 42.5 112q0 72 -41.5 107.5t-138.5 35.5h-86v-291h95q86 0 128.5 36zM301 -98.5q10 -10.5 10 -26.5q0 -11 -5 -25.5t-14 -36.5l-36 -86h-28
l30 114q-21 11 -21 34q0 16 10 26.5t27 10.5t27 -10.5z" />
    <glyph glyph-name="rcommaaccent" unicode="&#x157;" horiz-adv-x="334" 
d="M322 526l-9 -41q-20 5 -40 5q-49 0 -79.5 -39t-50.5 -121v-330h-45v522h39l3 -113q20 62 53 92.5t83 30.5q22 0 46 -6zM147 -98.5q10 -10.5 10 -26.5q0 -11 -5 -25.5t-14 -36.5l-36 -86h-28l30 114q-21 11 -21 34q0 16 10 26.5t27 10.5t27 -10.5z" />
    <glyph glyph-name="Rcaron" unicode="&#x158;" horiz-adv-x="527" 
d="M443 0l-164 314l-17 -1h-113v-313h-47v684h136q226 0 226 -183q0 -72 -36 -116.5t-102 -61.5l170 -323h-53zM372.5 389q42.5 36 42.5 112q0 72 -41.5 107.5t-138.5 35.5h-86v-291h95q86 0 128.5 36zM369 879l19 -22l-115 -100h-27l-115 100l20 22l109 -80z" />
    <glyph glyph-name="rcaron" unicode="&#x159;" horiz-adv-x="334" 
d="M322 526l-9 -41q-20 5 -40 5q-49 0 -79.5 -39t-50.5 -121v-330h-45v522h39l3 -113q20 62 53 92.5t83 30.5q22 0 46 -6zM317 762l20 -22l-115 -105h-27l-115 105l21 22l108 -85z" />
    <glyph glyph-name="Sacute" unicode="&#x15a;" horiz-adv-x="484" 
d="M335.5 675.5q39.5 -18.5 77.5 -55.5l-27 -29q-35 33 -68 47.5t-77 14.5q-59 0 -95.5 -34t-36.5 -88t32 -85.5t114 -60.5q93 -32 135 -75.5t42 -124.5q0 -56 -25 -100.5t-70.5 -70t-104.5 -25.5q-60 0 -107 22t-87 63l27 28q38 -35 76.5 -53.5t89.5 -18.5q69 0 111.5 42
t42.5 112q0 43 -14 71.5t-46 49.5t-89 41q-95 33 -134.5 74.5t-39.5 109.5q0 45 22.5 82.5t63.5 59.5t93 22q55 0 94.5 -18.5zM316 877l21 -42l-174 -76l-13 28z" />
    <glyph glyph-name="sacute" unicode="&#x15b;" horiz-adv-x="418" 
d="M288.5 518q35.5 -14 69.5 -43l-23 -29q-31 25 -59.5 36.5t-63.5 11.5q-49 0 -79.5 -26t-30.5 -70q0 -38 26.5 -61t92.5 -44q81 -26 115 -60t34 -95q0 -67 -46.5 -108t-118.5 -41q-53 0 -93 17.5t-74 49.5l26 28q33 -29 65 -42.5t75 -13.5q53 0 86.5 28.5t33.5 80.5
q0 33 -11 54t-38 36t-78 32q-76 24 -108 56t-32 83q0 58 43.5 96t109.5 38q43 0 78.5 -14zM280 773l21 -41l-172 -84l-15 26z" />
    <glyph glyph-name="Scircumflex" unicode="&#x15c;" horiz-adv-x="484" 
d="M335.5 675.5q39.5 -18.5 77.5 -55.5l-27 -29q-35 33 -68 47.5t-77 14.5q-59 0 -95.5 -34t-36.5 -88t32 -85.5t114 -60.5q93 -32 135 -75.5t42 -124.5q0 -56 -25 -100.5t-70.5 -70t-104.5 -25.5q-60 0 -107 22t-87 63l27 28q38 -35 76.5 -53.5t89.5 -18.5q69 0 111.5 42
t42.5 112q0 43 -14 71.5t-46 49.5t-89 41q-95 33 -134.5 74.5t-39.5 109.5q0 45 22.5 82.5t63.5 59.5t93 22q55 0 94.5 -18.5zM136 764l-21 23l115 99h27l115 -99l-20 -23l-108 80z" />
    <glyph glyph-name="scircumflex" unicode="&#x15d;" horiz-adv-x="418" 
d="M288.5 518q35.5 -14 69.5 -43l-23 -29q-31 25 -59.5 36.5t-63.5 11.5q-49 0 -79.5 -26t-30.5 -70q0 -38 26.5 -61t92.5 -44q81 -26 115 -60t34 -95q0 -67 -46.5 -108t-118.5 -41q-53 0 -93 17.5t-74 49.5l26 28q33 -29 65 -42.5t75 -13.5q53 0 86.5 28.5t33.5 80.5
q0 33 -11 54t-38 36t-78 32q-76 24 -108 56t-32 83q0 58 43.5 96t109.5 38q43 0 78.5 -14zM106 648l-20 22l115 105h27l115 -105l-21 -22l-108 85z" />
    <glyph glyph-name="Scedilla" unicode="&#x15e;" horiz-adv-x="484" 
d="M381 49.5q-51 -54.5 -133 -59.5v-58q82 -7 82 -73q0 -38 -26 -59.5t-64 -21.5q-41 0 -70 20l16 29q24 -15 53 -15q22 0 36.5 12t14.5 35t-19.5 34.5t-61.5 11.5l6 84q-54 4 -97 25.5t-80 59.5l27 28q38 -35 76.5 -53.5t89.5 -18.5q69 0 111.5 42t42.5 112q0 43 -14 71.5
t-46 49.5t-89 41q-95 33 -134.5 74.5t-39.5 109.5q0 45 22.5 82.5t63.5 59.5t93 22q55 0 94.5 -18.5t77.5 -55.5l-27 -29q-35 33 -68 47.5t-77 14.5q-59 0 -95.5 -34t-36.5 -88t32 -85.5t114 -60.5q93 -32 135 -75.5t42 -124.5t-51 -135.5z" />
    <glyph glyph-name="scedilla" unicode="&#x15f;" horiz-adv-x="418" 
d="M328.5 35q-41.5 -40 -107.5 -45v-58q82 -7 82 -73q0 -38 -26 -59.5t-64 -21.5q-41 0 -70 20l16 29q24 -15 53 -15q22 0 36.5 12t14.5 35t-19.5 34.5t-61.5 11.5l6 84q-47 3 -82.5 20.5t-67.5 46.5l26 28q33 -29 65 -42.5t75 -13.5q53 0 86.5 28.5t33.5 80.5q0 33 -11 54
t-38 36t-78 32q-76 24 -108 56t-32 83q0 58 43.5 96t109.5 38q43 0 78.5 -14t69.5 -43l-23 -29q-31 25 -59.5 36.5t-63.5 11.5q-49 0 -79.5 -26t-30.5 -70q0 -38 26.5 -61t92.5 -44q81 -26 115 -60t34 -95q0 -63 -41.5 -103z" />
    <glyph glyph-name="Scaron" unicode="&#x160;" horiz-adv-x="484" 
d="M335.5 675.5q39.5 -18.5 77.5 -55.5l-27 -29q-35 33 -68 47.5t-77 14.5q-59 0 -95.5 -34t-36.5 -88t32 -85.5t114 -60.5q93 -32 135 -75.5t42 -124.5q0 -56 -25 -100.5t-70.5 -70t-104.5 -25.5q-60 0 -107 22t-87 63l27 28q38 -35 76.5 -53.5t89.5 -18.5q69 0 111.5 42
t42.5 112q0 43 -14 71.5t-46 49.5t-89 41q-95 33 -134.5 74.5t-39.5 109.5q0 45 22.5 82.5t63.5 59.5t93 22q55 0 94.5 -18.5zM353 879l19 -22l-115 -100h-27l-115 100l20 22l109 -80z" />
    <glyph glyph-name="scaron" unicode="&#x161;" horiz-adv-x="418" 
d="M288.5 518q35.5 -14 69.5 -43l-23 -29q-31 25 -59.5 36.5t-63.5 11.5q-49 0 -79.5 -26t-30.5 -70q0 -38 26.5 -61t92.5 -44q81 -26 115 -60t34 -95q0 -67 -46.5 -108t-118.5 -41q-53 0 -93 17.5t-74 49.5l26 28q33 -29 65 -42.5t75 -13.5q53 0 86.5 28.5t33.5 80.5
q0 33 -11 54t-38 36t-78 32q-76 24 -108 56t-32 83q0 58 43.5 96t109.5 38q43 0 78.5 -14zM323 762l20 -22l-115 -105h-27l-115 105l21 22l108 -85z" />
    <glyph glyph-name="uni0162" unicode="&#x162;" horiz-adv-x="440" 
d="M243 642v-626h1v-83q42 -4 62.5 -22.5t20.5 -50.5q0 -38 -26 -60t-65 -22q-40 0 -69 20l16 30q24 -15 52 -15q22 0 36.5 12t14.5 35t-19 34t-61 11l8 95h-17v642h-184v42h418l-5 -42h-183z" />
    <glyph glyph-name="uni0163" unicode="&#x163;" horiz-adv-x="303" 
d="M297 -141q0 -38 -26 -59.5t-64 -21.5q-41 0 -70 20l16 29q24 -15 53 -15q22 0 36.5 12t14.5 35t-19.5 34.5t-61.5 11.5l6 86q-41 8 -63.5 39t-22.5 82v372h-77v38h77v127l45 5v-132h124l-6 -38h-118v-370q0 -85 72 -85q38 0 74 23l19 -31q-42 -31 -91 -32v-57
q82 -7 82 -73z" />
    <glyph glyph-name="Tcaron" unicode="&#x164;" horiz-adv-x="440" 
d="M431 684l-5 -42h-183v-642h-46v642h-184v42h418zM329 879l19 -22l-115 -100h-27l-115 100l20 22l109 -80z" />
    <glyph glyph-name="tcaron" unicode="&#x165;" horiz-adv-x="303" 
d="M247 737l-33 -156l-28 4l17 157zM306 21q-43 -32 -97 -32q-53 0 -83 32t-30 91v372h-77v38h77v127l45 5v-132h124l-6 -38h-118v-370q0 -85 72 -85q38 0 74 23z" />
    <glyph glyph-name="Tbar" unicode="&#x166;" horiz-adv-x="440" 
d="M426 641h-183v-258h112v-38h-112v-346h-46v346h-111v38h111v258h-184v42h418z" />
    <glyph glyph-name="tbar" unicode="&#x167;" horiz-adv-x="303" 
d="M306 21q-43 -32 -97 -32q-53 0 -83 32t-30 91v198h-75v37h75v137h-77v38h77v127l45 5v-132h124l-6 -38h-118v-137h115v-37h-115v-196q0 -85 72 -85q38 0 74 23z" />
    <glyph glyph-name="Utilde" unicode="&#x168;" horiz-adv-x="582" 
d="M490 192q0 -91 -51 -147t-148 -56q-98 0 -148.5 56t-50.5 147v492h47v-488q0 -78 37.5 -121.5t114.5 -43.5q78 0 115 44t37 121v488h47v-492zM313 803.5q-14 6.5 -32 18.5q-14 10 -24 14.5t-19 4.5q-15 0 -27 -9t-25 -29l-27 15q33 59 78 59q14 0 27 -6t30 -17t27.5 -16
t21.5 -5q14 0 25.5 10t25.5 33l28 -14q-30 -65 -78 -65q-17 0 -31 6.5z" />
    <glyph glyph-name="utilde" unicode="&#x169;" horiz-adv-x="521" 
d="M423 0h-39l-2 94q-57 -105 -154 -105q-64 0 -99.5 40t-35.5 111v382h45v-378q0 -116 97 -116q46 0 80.5 29.5t62.5 83.5v381h45v-522zM280 677.5q-14 6.5 -32 18.5q-14 10 -24 14.5t-19 4.5q-15 0 -27 -9t-25 -29l-27 15q33 59 78 59q14 0 27 -6t30 -17t27.5 -16t21.5 -5
q14 0 25.5 10t25.5 33l28 -14q-30 -65 -78 -65q-17 0 -31 6.5z" />
    <glyph glyph-name="Umacron" unicode="&#x16a;" horiz-adv-x="582" 
d="M490 192q0 -91 -51 -147t-148 -56q-98 0 -148.5 56t-50.5 147v492h47v-488q0 -78 37.5 -121.5t114.5 -43.5q78 0 115 44t37 121v488h47v-492zM396 806h-209v37h209v-37z" />
    <glyph glyph-name="umacron" unicode="&#x16b;" horiz-adv-x="521" 
d="M423 0h-39l-2 94q-57 -105 -154 -105q-64 0 -99.5 40t-35.5 111v382h45v-378q0 -116 97 -116q46 0 80.5 29.5t62.5 83.5v381h45v-522zM363 680h-209v37h209v-37z" />
    <glyph glyph-name="Ubreve" unicode="&#x16c;" horiz-adv-x="582" 
d="M490 192q0 -91 -51 -147t-148 -56q-98 0 -148.5 56t-50.5 147v492h47v-488q0 -78 37.5 -121.5t114.5 -43.5q78 0 115 44t37 121v488h47v-492zM215.5 792.5q-30.5 25.5 -36.5 66.5l30 7q9 -28 30 -44t52 -16t52.5 16t29.5 44l30 -7q-5 -41 -36 -66.5t-76 -25.5t-75.5 25.5
z" />
    <glyph glyph-name="ubreve" unicode="&#x16d;" horiz-adv-x="521" 
d="M423 0h-39l-2 94q-57 -105 -154 -105q-64 0 -99.5 40t-35.5 111v382h45v-378q0 -116 97 -116q46 0 80.5 29.5t62.5 83.5v381h45v-522zM182.5 684q-30.5 27 -36.5 75l31 7q16 -71 81 -71q64 0 82 71l30 -7q-5 -47 -35.5 -74.5t-76.5 -27.5q-45 0 -75.5 27z" />
    <glyph glyph-name="Uring" unicode="&#x16e;" horiz-adv-x="582" 
d="M490 192q0 -91 -51 -147t-148 -56q-98 0 -148.5 56t-50.5 147v492h47v-488q0 -78 37.5 -121.5t114.5 -43.5q78 0 115 44t37 121v488h47v-492zM353.5 917q23.5 -24 23.5 -65q0 -42 -23.5 -66t-62.5 -24q-38 0 -61.5 24t-23.5 66q0 41 23.5 65t61.5 24q39 0 62.5 -24z
M241 852q0 -60 50 -60t50 60q0 59 -50 59t-50 -59z" />
    <glyph glyph-name="uring" unicode="&#x16f;" horiz-adv-x="521" 
d="M423 0h-39l-2 94q-57 -105 -154 -105q-64 0 -99.5 40t-35.5 111v382h45v-378q0 -116 97 -116q46 0 80.5 29.5t62.5 83.5v381h45v-522zM320.5 791q23.5 -24 23.5 -65q0 -42 -23.5 -66t-62.5 -24q-38 0 -61.5 24t-23.5 66q0 41 23.5 65t61.5 24q39 0 62.5 -24zM208 726
q0 -60 50 -60t50 60q0 59 -50 59t-50 -59z" />
    <glyph glyph-name="Uhungarumlaut" unicode="&#x170;" horiz-adv-x="582" 
d="M490 192q0 -91 -51 -147t-148 -56q-98 0 -148.5 56t-50.5 147v492h47v-488q0 -78 37.5 -121.5t114.5 -43.5q78 0 115 44t37 121v488h47v-492zM388 929l41 -21l-81 -137l-29 14zM278 928l40 -21l-74 -131l-29 13z" />
    <glyph glyph-name="uhungarumlaut" unicode="&#x171;" horiz-adv-x="521" 
d="M423 0h-39l-2 94q-57 -105 -154 -105q-64 0 -99.5 40t-35.5 111v382h45v-378q0 -116 97 -116q46 0 80.5 29.5t62.5 83.5v381h45v-522zM359 803l41 -21l-81 -137l-29 14zM249 802l40 -21l-74 -131l-29 13z" />
    <glyph glyph-name="Uogonek" unicode="&#x172;" horiz-adv-x="582" 
d="M490 684v-492q0 -73 -33.5 -125t-98.5 -70q-57 -28 -81 -54t-24 -62q0 -25 15.5 -39.5t44.5 -14.5q22 0 50 7l-4 -40q-27 -6 -52 -6q-46 0 -71 24.5t-25 63.5q0 69 84 113h-4q-98 0 -148.5 56t-50.5 147v492h47v-488q0 -78 37.5 -121.5t114.5 -43.5q78 0 115 44t37 121
v488h47z" />
    <glyph glyph-name="uogonek" unicode="&#x173;" horiz-adv-x="521" 
d="M339 -56q-25 -26 -25 -64q0 -53 58 -53q23 0 51 6l-4 -39q-27 -6 -51 -6q-47 0 -72 24t-25 64q0 42 27.5 73.5t85.5 59.5l-2 85q-57 -105 -154 -105q-64 0 -99.5 40t-35.5 111v382h45v-378q0 -116 97 -116q46 0 80.5 29.5t62.5 83.5v381h45v-522q-59 -30 -84 -56z" />
    <glyph glyph-name="Wcircumflex" unicode="&#x174;" horiz-adv-x="730" 
d="M699 684l-138 -684h-58l-138 633l-139 -633h-58l-137 684h46l122 -639l139 639h54l140 -639l122 639h45zM257 764l-21 23l115 99h27l115 -99l-20 -23l-108 80z" />
    <glyph glyph-name="wcircumflex" unicode="&#x175;" horiz-adv-x="632" 
d="M604 522l-117 -522h-60l-110 479l-110 -479h-60l-120 522h47l104 -483l113 483h54l112 -484l103 484h44zM207 648l-20 22l115 105h27l115 -105l-21 -22l-108 85z" />
    <glyph glyph-name="Ycircumflex" unicode="&#x176;" horiz-adv-x="464" 
d="M450 684l-194 -415v-269h-46v268l-196 416h50l170 -373l167 373h49zM124 764l-21 23l115 99h27l115 -99l-20 -23l-108 80z" />
    <glyph glyph-name="ycircumflex" unicode="&#x177;" horiz-adv-x="420" 
d="M240 -2q-19 -60 -40.5 -98t-56 -62.5t-88.5 -38.5l-5 35q46 14 72.5 34t42.5 49.5t33 82.5h-16l-165 522h48l147 -487l143 487h48zM102 648l-20 22l115 105h27l115 -105l-21 -22l-108 85z" />
    <glyph glyph-name="Ydieresis" unicode="&#x178;" horiz-adv-x="464" 
d="M450 684l-194 -415v-269h-46v268l-196 416h50l170 -373l167 373h49zM176 848.5q9 -9.5 9 -23.5t-9 -23.5t-24 -9.5q-14 0 -23 9.5t-9 23.5t9 23.5t23 9.5q15 0 24 -9.5zM341 848.5q9 -9.5 9 -23.5t-9 -23.5t-23 -9.5t-23.5 9.5t-9.5 23.5t9.5 23.5t23.5 9.5t23 -9.5z" />
    <glyph glyph-name="Zacute" unicode="&#x179;" horiz-adv-x="463" 
d="M420 684v-39l-336 -603h329l-6 -42h-374v40l337 602h-303v42h353zM306 877l21 -42l-174 -76l-13 28z" />
    <glyph glyph-name="zacute" unicode="&#x17a;" horiz-adv-x="377" 
d="M346 522v-36l-270 -446h267l-5 -40h-313v36l270 446h-248v40h299zM259 773l21 -41l-172 -84l-15 26z" />
    <glyph glyph-name="Zdotaccent" unicode="&#x17b;" horiz-adv-x="463" 
d="M420 684v-39l-336 -603h329l-6 -42h-374v40l337 602h-303v42h353zM259.5 859q9.5 -10 9.5 -24q0 -15 -9.5 -24.5t-25.5 -9.5q-15 0 -24.5 10t-9.5 24t9.5 24t24.5 10q16 0 25.5 -10z" />
    <glyph glyph-name="zdotaccent" unicode="&#x17c;" horiz-adv-x="377" 
d="M346 522v-36l-270 -446h267l-5 -40h-313v36l270 446h-248v40h299zM218.5 733q9.5 -10 9.5 -24q0 -15 -9.5 -24.5t-25.5 -9.5q-15 0 -24.5 10t-9.5 24t9.5 24t24.5 10q16 0 25.5 -10z" />
    <glyph glyph-name="Zcaron" unicode="&#x17d;" horiz-adv-x="463" 
d="M420 684v-39l-336 -603h329l-6 -42h-374v40l337 602h-303v42h353zM343 879l19 -22l-115 -100h-27l-115 100l20 22l109 -80z" />
    <glyph glyph-name="zcaron" unicode="&#x17e;" horiz-adv-x="377" 
d="M346 522v-36l-270 -446h267l-5 -40h-313v36l270 446h-248v40h299zM302 762l20 -22l-115 -105h-27l-115 105l21 22l108 -85z" />
    <glyph glyph-name="longs" unicode="&#x17f;" horiz-adv-x="287" 
d="M338 712l-17 -33q-46 23 -89 23q-85 0 -85 -87v-615h-45v484h-80v38h80v96q0 57 34 90t93 33q56 0 109 -29z" />
    <glyph glyph-name="uni0180" unicode="&#x180;" horiz-adv-x="523" 
d="M417.5 464q44.5 -68 44.5 -200q0 -131 -46.5 -203t-131.5 -72q-43 0 -78 22t-60 57l-4 -68h-39v620h-69v38h69v77l45 6v-83h152v-38h-152v-172q57 84 144 84q81 0 125.5 -68zM379 86.5q35 58.5 35 177.5q0 118 -33 173.5t-96 55.5q-44 0 -76.5 -23.5t-60.5 -68.5v-286
q53 -87 130 -87q66 0 101 58.5z" />
    <glyph glyph-name="uni0181" unicode="&#x181;" horiz-adv-x="585" 
d="M494 313q41 -42 41 -125q0 -92 -57.5 -140t-161.5 -48h-165v644h-23q-36 0 -52.5 -18t-16.5 -49q0 -22 5.5 -39.5t15.5 -37.5l-33 -17q-16 25 -24 45.5t-8 49.5q0 48 29.5 77t86.5 29h152q107 0 165 -43.5t58 -126.5q0 -64 -32 -101.5t-90 -49.5q69 -8 110 -50zM198 644
v-264h121q65 0 102 35.5t37 95.5q0 133 -169 133h-91zM442.5 76.5q44.5 36.5 44.5 111.5q0 77 -43 115t-120 38h-126v-301h118q82 0 126.5 36.5z" />
    <glyph glyph-name="uni0182" unicode="&#x182;" horiz-adv-x="511" 
d="M410.5 363q57.5 -50 57.5 -150q0 -108 -59.5 -160.5t-163.5 -52.5h-143v684h306l-7 -41h-252v-230h98q106 0 163.5 -50zM376 81.5q43 41.5 43 132.5q0 159 -170 159h-100v-333h103q81 0 124 41.5z" />
    <glyph glyph-name="uni0183" unicode="&#x183;" horiz-adv-x="518" 
d="M412.5 464q44.5 -68 44.5 -200q0 -131 -46.5 -203t-131.5 -72q-43 0 -78 22t-60 57l-4 -68h-39v735h260l-7 -38h-208v-249q57 84 144 84q81 0 125.5 -68zM374 86.5q35 58.5 35 177.5q0 118 -33 173.5t-96 55.5q-44 0 -76.5 -23.5t-60.5 -68.5v-286q53 -87 130 -87
q66 0 101 58.5z" />
    <glyph glyph-name="uni0184" unicode="&#x184;" horiz-adv-x="503" 
d="M410 367.5q58 -50.5 58 -152.5q0 -110 -59.5 -162.5t-165.5 -52.5h-141v559l-43 32q34 37 49 93h40v-266h96q108 0 166 -50.5zM375.5 82q43.5 42 43.5 134q0 84 -44 123t-129 39h-98v-338h102q82 0 125.5 42z" />
    <glyph glyph-name="uni0185" unicode="&#x185;" horiz-adv-x="451" 
d="M417 176q0 -87 -49.5 -131.5t-131.5 -44.5h-137v407l-43 32q32 33 50 83h38v-179h83q190 0 190 -167zM334.5 71.5q35.5 32.5 35.5 104.5q0 64 -32.5 96t-109.5 32h-84v-265h87q68 0 103.5 32.5z" />
    <glyph glyph-name="uni0186" unicode="&#x186;" horiz-adv-x="493" 
d="M368.5 605.5q62.5 -88.5 62.5 -263.5q0 -114 -31.5 -193.5t-86.5 -119.5t-126 -40q-53 0 -93 18.5t-73 49.5l26 30q34 -28 64.5 -41.5t74.5 -13.5q56 0 100.5 33t70.5 103t26 174q0 162 -50.5 236.5t-135.5 74.5q-42 0 -76.5 -12.5t-68.5 -37.5l-24 30q76 61 171 61
q107 0 169.5 -88.5z" />
    <glyph glyph-name="uni0187" unicode="&#x187;" horiz-adv-x="493" 
d="M616 789l-20 -29q-17 11 -32 17t-36 6q-62 0 -62 -81v-69l-25 -27q-32 25 -61.5 36t-66.5 11q-91 0 -146.5 -75t-55.5 -236q0 -156 55 -233t145 -77q44 0 74 14t61 42l27 -31q-70 -68 -163 -68q-72 0 -128 39.5t-88 119t-32 194.5q0 117 33 196t89 117.5t126 38.5
q65 0 111 -32v39q0 59 28.5 90t77.5 31q50 0 89 -33z" />
    <glyph glyph-name="uni0188" unicode="&#x188;" horiz-adv-x="417" 
d="M537 708l-20 -29q-17 11 -32 17t-35 6q-63 0 -63 -80v-141l-21 -26q-26 19 -51 28.5t-56 9.5q-70 0 -111 -58.5t-41 -176.5q0 -116 40.5 -172.5t110.5 -56.5q59 0 110 44l23 -28q-59 -56 -133 -56q-92 0 -145.5 69t-53.5 200q0 130 54 202t145 72q48 0 85 -23v112
q0 58 28.5 89t76.5 31q50 0 89 -33z" />
    <glyph glyph-name="uni0189" unicode="&#x189;" horiz-adv-x="570" 
d="M430 612q78 -72 78 -264q0 -193 -79.5 -270.5t-194.5 -77.5h-129v332h-83v40h83v312h122q125 0 203 -72zM459 348q0 121 -32.5 186t-82 87t-114.5 22h-78v-271h160v-40h-160v-292h84q223 0 223 308z" />
    <glyph glyph-name="uni018A" unicode="&#x18a;" horiz-adv-x="616" 
d="M476 612q78 -72 78 -264q0 -193 -79.5 -270.5t-194.5 -77.5h-129v644h-23q-36 0 -52.5 -18t-16.5 -49q0 -22 5.5 -39.5t15.5 -37.5l-33 -17q-16 25 -24 45.5t-8 49.5q0 48 29.5 77t86.5 29h142q125 0 203 -72zM505 348q0 121 -32.5 186t-82 87t-114.5 22h-78v-603h84
q223 0 223 308z" />
    <glyph glyph-name="uni018B" unicode="&#x18b;" horiz-adv-x="511" 
d="M410 0h-147q-102 0 -160.5 50.5t-58.5 153.5q0 101 59 155t169 54h91v230h-256v41h303v-684zM363 40v333h-91q-179 0 -179 -169q0 -87 43.5 -125.5t128.5 -38.5h98z" />
    <glyph glyph-name="uni018C" unicode="&#x18c;" horiz-adv-x="522" 
d="M424 0h-39l-4 81q-49 -92 -143 -92q-82 0 -129.5 71.5t-47.5 198.5q0 82 22.5 144t64.5 95.5t99 33.5q81 0 132 -71v236h-212v38h257v-735zM321.5 53.5q32.5 25.5 57.5 76.5v281q-24 38 -54.5 60t-72.5 22q-65 0 -104 -59.5t-39 -170.5q0 -115 35.5 -175t98.5 -60
q46 0 78.5 25.5z" />
    <glyph glyph-name="uni018D" unicode="&#x18d;" horiz-adv-x="508" 
d="M377 -4q23 -31 23 -75q1 -55 -40 -92t-109 -37q-42 0 -76 11.5t-67 35.5l24 30q31 -20 56.5 -29t59.5 -9q50 0 78 25t28 66q0 27 -10 45.5t-36 36t-76 38.5q-91 39 -132 96t-41 156q0 110 52 174t145 64q90 0 141.5 -62t51.5 -175q0 -88 -38.5 -149t-107.5 -94
q51 -25 74 -56zM121 192.5q15 -40.5 49.5 -70t97.5 -55.5q62 30 98 86t36 142q0 97 -38 147.5t-108 50.5q-73 0 -111.5 -51.5t-38.5 -147.5q0 -61 15 -101.5z" />
    <glyph glyph-name="uni018E" unicode="&#x18e;" horiz-adv-x="454" 
d="M45 684h307v-684h-313v40h267v297h-221v40h221v266h-261v41z" />
    <glyph glyph-name="uni018F" unicode="&#x18f;" horiz-adv-x="583" 
d="M459.5 610.5q60.5 -83.5 60.5 -268.5q0 -180 -63 -266.5t-172 -86.5q-111 0 -172 85t-61 257q0 8 2 38h418q-4 152 -51.5 218t-134.5 66q-49 0 -89 -16.5t-80 -52.5l-26 29q44 42 90.5 61.5t105.5 19.5q112 0 172.5 -83.5zM420 101q50 71 52 228h-372q0 -155 48.5 -227
t136.5 -72q85 0 135 71z" />
    <glyph glyph-name="uni0190" unicode="&#x190;" horiz-adv-x="468" 
d="M344 673q44 -21 85 -62l-27 -28q-35 34 -72 52t-81 18q-61 0 -96.5 -35t-35.5 -93q0 -66 38.5 -101.5t103.5 -35.5h53l-6 -41l-50 1q-76 1 -117 -39t-41 -114q0 -78 43.5 -121t114.5 -43q49 0 88 19.5t73 57.5l30 -26q-81 -93 -191 -93q-60 0 -106.5 24.5t-73 71.5
t-26.5 111q0 78 39 122t99 52q-55 13 -87 51.5t-32 103.5q0 75 48 122t129 47q54 0 98 -21z" />
    <glyph glyph-name="uni0191" unicode="&#x191;" horiz-adv-x="430" 
d="M149 643v-279h216v-40h-216v-409q0 -57 -29 -87t-77 -30q-52 0 -90 32l21 30q16 -11 31 -17t36 -6q28 0 44.5 18.5t16.5 58.5v770h303l-6 -41h-250z" />
    <glyph glyph-name="florin" unicode="&#x192;" horiz-adv-x="288" 
d="M148 615v-93h127l-6 -38h-121v-470q0 -66 -13 -105t-37.5 -62t-69.5 -47l-13 33q34 19 52 38.5t27 52t9 89.5v471h-79v38h79v96q0 57 34 90t93 33q56 0 109 -29l-16 -33q-48 23 -90 23q-85 0 -85 -87z" />
    <glyph glyph-name="uni0193" unicode="&#x193;" horiz-adv-x="510" 
d="M633 789l-21 -29q-17 11 -32 17t-35 6q-63 0 -63 -81v-73l-24 -26q-35 26 -68 38t-73 12q-54 0 -100.5 -30.5t-76 -99.5t-29.5 -178q0 -161 54 -238t151 -77q39 0 70.5 9t61.5 28v257h-123l-5 41h174v-321q-83 -55 -178 -55q-118 0 -186 89.5t-68 266.5q0 116 35.5 194.5
t93.5 116.5t124 38q72 0 123 -35v42q0 59 28 90t77 31t90 -33z" />
    <glyph glyph-name="uni0194" unicode="&#x194;" horiz-adv-x="496" 
d="M276 56q30 -71 41 -105.5t11 -69.5q0 -38 -21 -60.5t-59 -22.5q-37 0 -58.5 22t-21.5 60q0 32 11 65t42 111l-200 628h48l180 -594l180 594h46zM277 -61.5q-8 28.5 -29 85.5q-20 -55 -28 -84t-8 -57q0 -47 36 -47q37 0 37 47q0 27 -8 55.5z" />
    <glyph glyph-name="uni0195" unicode="&#x195;" horiz-adv-x="801" 
d="M725 259q0 -91 -25.5 -151.5t-68 -89.5t-95.5 -29q-66 0 -107.5 41.5t-41.5 116.5v224q0 123 -91 123q-46 0 -83.5 -30t-69.5 -85v-379h-45v735l45 6v-312q32 49 70.5 76t89.5 27q62 0 95.5 -41t33.5 -114v-228q0 -60 28.5 -90t76.5 -30q61 0 101.5 54t40.5 177
q0 117 -23 262h45q24 -146 24 -263z" />
    <glyph glyph-name="uni0196" unicode="&#x196;" horiz-adv-x="303" 
d="M288 22q-38 -32 -90 -32q-48 0 -77 30t-29 87v577h47v-578q0 -40 16.5 -58.5t44.5 -18.5q21 0 36 6t31 17z" />
    <glyph glyph-name="uni0197" unicode="&#x197;" horiz-adv-x="284" 
d="M259 380v-40h-93v-340h-47v340h-93v40h93v304h47v-304h93z" />
    <glyph glyph-name="uni0198" unicode="&#x198;" horiz-adv-x="514" 
d="M152 367l166 254q25 39 50.5 56t59.5 17q46 0 82 -36l-20 -27q-17 13 -29 19t-30 6q-22 0 -39 -11.5t-39 -44.5l-147 -231l278 -369h-55zM149 684v-684h-47v684h47z" />
    <glyph glyph-name="uni0199" unicode="&#x199;" horiz-adv-x="434" 
d="M164 680.5q-21 -21.5 -21 -68.5v-612h-45v614q0 60 33.5 93.5t92.5 33.5q56 0 109 -29l-16 -33q-46 23 -90 23q-42 0 -63 -21.5zM200 287l226 -287h-53l-225 285l205 237h52z" />
    <glyph glyph-name="uni019A" unicode="&#x19a;" horiz-adv-x="262" 
d="M154 354v-276q0 -49 40 -49q16 0 33 7l12 -34q-24 -13 -51 -13q-36 0 -57.5 22.5t-21.5 64.5v278h-95v39h95v342l45 6v-348h93v-39h-93z" />
    <glyph glyph-name="uni019B" unicode="&#x19b;" horiz-adv-x="418" 
d="M311.5 257q27.5 -93 52 -141.5t62.5 -106.5l-42 -17q-37 59 -62 109t-51 140.5t-52 235.5l-146 -485l-43 11l161 513h20q-14 73 -33 111l-65 -72l-31 15l76 87q-29 35 -88 50l7 34q71 -16 107 -55l62 70l27 -22l-67 -77q16 -26 28 -62.5t22 -90.5q28 -154 55.5 -247z" />
    <glyph glyph-name="uni019C" unicode="&#x19c;" horiz-adv-x="834" 
d="M731 684v-684h-40l-4 95q-29 -49 -68.5 -77.5t-87.5 -28.5q-51 0 -85.5 29.5t-48.5 81.5q-31 -51 -72 -81t-90 -30q-68 0 -105.5 49t-37.5 132v514h47v-516q0 -66 26 -102t75 -36q47 0 83 31.5t67 88.5q-1 7 -1 21v513h46v-516q0 -65 26.5 -101.5t75.5 -36.5q47 0 83 32
t65 88v534h46z" />
    <glyph glyph-name="uni019D" unicode="&#x19d;" horiz-adv-x="603" 
d="M501 684v-684h-61l-300 631q6 -86 6 -222v-495q0 -56 -29 -86t-76 -30q-50 0 -90 32l21 29q15 -11 31 -17t37 -6q62 0 62 77v771h60l301 -632q-7 119 -7 200v432h45z" />
    <glyph glyph-name="uni019E" unicode="&#x19e;" horiz-adv-x="525" 
d="M399 491.5q33 -40.5 33 -114.5v-579l-45 7v566q0 123 -91 123q-46 0 -83.5 -30t-69.5 -85v-379h-45v522h39l4 -94q65 104 162 104q63 0 96 -40.5z" />
    <glyph glyph-name="uni019F" unicode="&#x19f;" horiz-adv-x="623" 
d="M493 604q67 -90 67 -264q0 -169 -66.5 -260t-182.5 -91q-74 0 -130.5 40t-87.5 118.5t-31 191.5q0 114 31 194t87.5 120.5t130.5 40.5q115 0 182 -90zM169 582.5q-53 -70.5 -58 -213.5h402q-5 143 -58.5 213.5t-143.5 70.5q-89 0 -142 -70.5zM459 104.5q53 74.5 54 225.5
h-403q1 -149 55.5 -224.5t145.5 -75.5q95 0 148 74.5z" />
    <glyph glyph-name="Ohorn" unicode="&#x1a0;" horiz-adv-x="627" 
d="M496 600q64 -92 64 -259q0 -170 -66.5 -261t-182.5 -91q-74 0 -130.5 40t-87.5 119t-31 192q0 114 31 193.5t87.5 120t130.5 40.5q100 0 164 -67q27 5 39 18.5t12 40.5q0 36 -12 72l34 11q17 -42 17 -82q0 -73 -69 -87zM459.5 107q52.5 77 52.5 234q0 158 -53 235
t-148 77q-93 0 -146.5 -78t-53.5 -235q0 -154 54 -232t146 -78q96 0 148.5 77z" />
    <glyph glyph-name="ohorn" unicode="&#x1a1;" horiz-adv-x="521" 
d="M474.5 462.5q-18.5 -21.5 -56.5 -27.5q34 -68 34 -172q0 -131 -52.5 -202.5t-144.5 -71.5t-144 71.5t-52 199.5q0 130 53 201t144 71q95 0 144 -69q29 4 42 17.5t13 41.5q0 33 -13 72l34 11q17 -38 17 -82q0 -39 -18.5 -60.5zM366 87.5q39 58.5 39 175.5
q0 115 -38.5 172.5t-110.5 57.5q-71 0 -110.5 -58t-39.5 -175q0 -114 39 -172.5t110 -58.5q72 0 111 58.5z" />
    <glyph glyph-name="uni01A2" unicode="&#x1a2;" horiz-adv-x="808" 
d="M674 661.5q32 -33.5 32 -99.5v-757h-47v757q0 50 -20 72t-57 22q-29 0 -53.5 -8.5t-50.5 -24.5q82 -91 82 -282q0 -170 -66.5 -261t-182.5 -91q-74 0 -130.5 40t-87.5 119t-31 192q0 114 31 193.5t87.5 120t130.5 40.5q82 0 140 -46q32 22 64.5 34.5t68.5 12.5
q58 0 90 -33.5zM459.5 107q52.5 77 52.5 234q0 158 -53 235t-148 77q-93 0 -146.5 -78t-53.5 -235q0 -154 54 -232t146 -78q96 0 148.5 77z" />
    <glyph glyph-name="uni01A3" unicode="&#x1a3;" horiz-adv-x="685" 
d="M555 497.5q32 -34.5 32 -99.5v-600l-45 7v593q0 96 -80 96q-39 0 -74 -16q64 -69 64 -215q0 -131 -52.5 -202.5t-144.5 -71.5t-144 71.5t-52 199.5q0 130 53 201t144 71q59 0 102 -29q50 29 107 29q58 0 90 -34.5zM366 87.5q39 58.5 39 175.5q0 115 -38.5 172.5
t-110.5 57.5q-71 0 -110.5 -58t-39.5 -175q0 -114 39 -172.5t110 -58.5q72 0 111 58.5z" />
    <glyph glyph-name="uni01A4" unicode="&#x1a4;" horiz-adv-x="557" 
d="M456.5 634q60.5 -50 60.5 -153q0 -108 -64 -158.5t-180 -50.5h-75v-272h-47v644h-23q-36 0 -52.5 -18t-16.5 -49q0 -22 5.5 -39.5t15.5 -37.5l-33 -17q-16 25 -24 45.5t-8 49.5q0 48 29.5 77t86.5 29h145q120 0 180.5 -50zM419 350q49 38 49 130q0 88 -47 126t-145 38
h-78v-332h77q95 0 144 38z" />
    <glyph glyph-name="uni01A5" unicode="&#x1a5;" horiz-adv-x="518" 
d="M413 464q44 -68 44 -200q0 -130 -46.5 -202.5t-131.5 -72.5q-43 0 -77.5 20.5t-58.5 54.5v-259l-45 -7v816q0 60 33.5 93.5t92.5 33.5q56 0 109 -29l-16 -33q-46 23 -90 23q-42 0 -63 -21.5t-21 -68.5v-164q27 40 63 62t80 22q83 0 127 -68zM374 87.5q35 58.5 35 176.5
q0 229 -128 229q-44 0 -76.5 -24t-61.5 -68v-288q54 -84 130 -84q66 0 101 58.5z" />
    <glyph glyph-name="uni01A6" unicode="&#x1a6;" horiz-adv-x="527" 
d="M443 -128l-164 315l-17 -1h-113v-186h-47v684h47v-128h89q226 0 226 -183q0 -72 -36 -116.5t-102 -61.5l170 -323h-53zM372.5 261q42.5 36 42.5 112q0 73 -41.5 108.5t-137.5 34.5h-87v-291h96q85 0 127.5 36z" />
    <glyph glyph-name="uni01A7" unicode="&#x1a7;" horiz-adv-x="476" 
d="M376.5 650q45.5 -44 45.5 -114q0 -48 -17.5 -81.5t-55 -58t-101.5 -48.5q-57 -21 -89 -43t-45.5 -52t-13.5 -75q0 -69 40 -108.5t104 -39.5q52 0 91 18.5t76 54.5l27 -29q-40 -41 -87.5 -63t-107.5 -22q-55 0 -98.5 24t-68 67t-24.5 99q0 81 42.5 126.5t134.5 78.5
q57 21 87.5 40.5t44 45.5t13.5 66q0 54 -32.5 85.5t-89.5 31.5q-46 0 -81.5 -14.5t-73.5 -47.5l-26 29q42 37 83.5 55.5t98.5 18.5q78 0 123.5 -44z" />
    <glyph glyph-name="uni01A8" unicode="&#x1a8;" horiz-adv-x="409" 
d="M319.5 496q41.5 -36 41.5 -93q0 -54 -32.5 -86.5t-107.5 -56.5q-52 -16 -78.5 -32.5t-37 -38t-10.5 -56.5q0 -50 31 -77t81 -27q40 0 73 14t65 41l25 -28q-71 -67 -165 -67q-68 0 -112.5 39.5t-44.5 104.5q0 63 34 98t115 61q67 21 92.5 45t25.5 67q0 42 -28.5 65.5
t-76.5 23.5q-36 0 -66 -11t-61 -35l-23 28q69 57 152 57q66 0 107.5 -36z" />
    <glyph glyph-name="uni01A9" unicode="&#x1a9;" horiz-adv-x="442" 
d="M400 684v-41h-300l196 -292v-24l-196 -286h300v-41h-358v31l210 308l-210 314v31h358z" />
    <glyph glyph-name="uni01AA" unicode="&#x1aa;" horiz-adv-x="253" 
d="M306 -170q-38 -32 -90 -32q-48 0 -77 29.5t-29 86.5v608q-26 -13 -55 -13q-45 0 -72.5 29.5t-27.5 84.5t28 86.5t73 31.5q46 0 72.5 -29.5t26.5 -80.5v-718q0 -77 63 -77q21 0 36 6t32 17zM110 559v73q0 35 -14 53t-40 18q-27 0 -42 -20.5t-15 -58.5q0 -77 60 -77
q25 0 51 12z" />
    <glyph glyph-name="uni01AB" unicode="&#x1ab;" horiz-adv-x="303" 
d="M306 21v-107q0 -57 -29 -86.5t-77 -29.5q-50 0 -90 32l21 29q17 -11 32 -17t35 -6q64 0 64 77v88q-27 -12 -56 -12q-51 0 -80.5 32t-29.5 91v372h-77v38h77v127l45 5v-132h124l-6 -38h-118v-371q0 -85 72 -85q37 0 78 18z" />
    <glyph glyph-name="uni01AC" unicode="&#x1ac;" horiz-adv-x="464" 
d="M449 641h-182v-641h-47v641h-92q-69 0 -69 -65q0 -22 5.5 -39t16.5 -36l-34 -19q-16 24 -24 45t-8 50q0 49 31 78t90 29h319z" />
    <glyph glyph-name="uni01AD" unicode="&#x1ad;" horiz-adv-x="303" 
d="M287 52l19 -31q-43 -32 -97 -32q-53 0 -83 32t-30 91v372h-77v38h77v95q0 59 31 91.5t84 32.5q51 0 95 -32l-19 -30q-36 23 -74 23q-35 0 -53.5 -21.5t-18.5 -62.5v-96h124l-6 -38h-118v-370q0 -85 73 -85q37 0 73 23z" />
    <glyph glyph-name="uni01AE" unicode="&#x1ae;" horiz-adv-x="440" 
d="M243 642v-641h1v-87q0 -40 16.5 -58.5t44.5 -18.5q21 0 36 6t31 17l21 -30q-38 -32 -90 -32q-48 0 -77 30t-29 87v727h-184v42h418l-5 -42h-183z" />
    <glyph glyph-name="Uhorn" unicode="&#x1af;" horiz-adv-x="587" 
d="M490 597v-405q0 -91 -51 -147t-148 -56q-98 0 -148.5 56t-50.5 147v492h47v-488q0 -78 37.5 -121.5t114.5 -43.5q78 0 115 44t37 121v488h47v-57q26 5 37 19t11 40q0 36 -12 72l34 11q17 -42 17 -82q0 -82 -87 -90z" />
    <glyph glyph-name="uhorn" unicode="&#x1b0;" horiz-adv-x="537" 
d="M423 433v-433h-39l-2 94q-57 -105 -154 -105q-64 0 -99.5 40t-35.5 111v382h45v-378q0 -116 97 -116q46 0 80.5 29.5t62.5 83.5v381h45v-58q26 4 37.5 18t11.5 40q0 33 -13 72l34 11q17 -38 17 -82q0 -82 -87 -90z" />
    <glyph glyph-name="uni01B1" unicode="&#x1b1;" horiz-adv-x="621" 
d="M179 27q-56 38 -86.5 111t-30.5 177q0 124 34.5 200t90.5 128h-105v41h162v-40q-62 -47 -98 -125.5t-36 -203.5q0 -141 53.5 -213t147.5 -72q93 0 146.5 72t53.5 213q0 125 -35.5 203t-97.5 126v40h163v-41h-106q58 -49 91.5 -125.5t33.5 -202.5q0 -103 -31 -176.5
t-87.5 -111.5t-130.5 -38q-76 0 -132 38z" />
    <glyph glyph-name="uni01B2" unicode="&#x1b2;" horiz-adv-x="582" 
d="M468 670q22 -24 22 -71v-325q0 -90 -28 -154t-78 -97.5t-115 -33.5q-81 0 -129 50t-48 132v513h47v-509q0 -68 34.5 -106t95.5 -38q79 0 126.5 63.5t47.5 183.5v320q0 29 -10 43t-32 14q-21 0 -38 -9l-14 33q27 15 57 15q40 0 62 -24z" />
    <glyph glyph-name="uni01B3" unicode="&#x1b3;" horiz-adv-x="484" 
d="M210 268l-196 416h50l170 -374l123 302q18 43 40.5 62.5t58.5 19.5q43 0 81 -36l-21 -27q-16 14 -28 20t-30 6q-22 0 -35 -13t-28 -48l-139 -327v-269h-46v268z" />
    <glyph glyph-name="uni01B4" unicode="&#x1b4;" horiz-adv-x="421" 
d="M50 -166q46 14 73 34t42.5 50t32.5 82h-17l-164 522h48l147 -488l124 456q11 42 30.5 61t52.5 19q24 0 50 -13l-12 -32q-19 7 -34 7q-18 0 -27.5 -10.5t-16.5 -35.5l-139 -487q-25 -89 -65 -134.5t-120 -65.5z" />
    <glyph glyph-name="uni01B5" unicode="&#x1b5;" horiz-adv-x="463" 
d="M420 684v-39l-157 -281h98v-40h-120l-158 -282h330l-6 -42h-374v40l159 284h-93v40h115l156 278h-303v42h353z" />
    <glyph glyph-name="uni01B6" unicode="&#x1b6;" horiz-adv-x="377" 
d="M346 522v-36l-120 -198h82v-39h-105l-127 -209h267l-5 -40h-313v36l129 213h-84v39h108l118 194h-249v40h299z" />
    <glyph glyph-name="uni01B7" unicode="&#x1b7;" horiz-adv-x="438" 
d="M343.5 332q51.5 -49 51.5 -145q0 -88 -52.5 -143t-143.5 -55q-61 0 -105 21t-79 64l29 26q33 -37 68.5 -53.5t84.5 -16.5q73 0 111.5 42.5t38.5 113.5q0 83 -40.5 120t-119.5 37h-73v38l205 263h-285v40h339v-39l-209 -264h28q100 0 151.5 -49z" />
    <glyph glyph-name="uni01B8" unicode="&#x1b8;" horiz-adv-x="438" 
d="M423 74q-37 -43 -81.5 -64t-106.5 -21q-89 0 -140.5 52.5t-51.5 140.5q0 96 52 147.5t152 51.5h27l-209 264v39h339v-40h-285l205 -263v-38h-73q-160 0 -160 -161q0 -72 37.5 -112t107.5 -40q51 0 86.5 16t71.5 54z" />
    <glyph glyph-name="uni01B9" unicode="&#x1b9;" horiz-adv-x="411" 
d="M398 -118q-35 -42 -77.5 -63t-99.5 -21q-88 0 -139.5 54t-51.5 142q0 95 53 149.5t159 54.5h10l-200 288v36h327v-40h-275l195 -285v-37h-54q-85 0 -126.5 -41t-41.5 -124q0 -74 37 -116t107 -42q47 0 82 16t67 53z" />
    <glyph glyph-name="uni01BA" unicode="&#x1ba;" horiz-adv-x="407" 
d="M55 -150.5q-25 28.5 -25 67.5q0 46 37.5 71.5t117.5 37.5q54 9 85 21t46 35t15 62q0 46 -26.5 67t-78.5 21h-123v38l192 212h-266v40h322v-36l-198 -216h75q73 0 111.5 -33t38.5 -94q0 -71 -42.5 -105t-132.5 -49q-70 -11 -98.5 -26t-28.5 -48q0 -27 16 -45.5t54 -40.5
l-15 -32q-51 24 -76 52.5z" />
    <glyph glyph-name="uni01BB" unicode="&#x1bb;" horiz-adv-x="422" 
d="M264 265q-48 -67 -178 -224h288l-8 -41h-332v40q130 156 180 225h-139v40h167q39 59 54 104t15 96q0 61 -31.5 96t-85.5 35q-43 0 -75.5 -19.5t-61.5 -57.5l-31 23q35 48 76.5 70.5t93.5 22.5q74 0 117.5 -47t43.5 -121q0 -53 -15 -99.5t-51 -102.5h87v-40h-114z" />
    <glyph glyph-name="uni01BC" unicode="&#x1bc;" horiz-adv-x="444" 
d="M371 645h-254v-250q25 16 51 25t59 9q79 0 125 -55t46 -155q0 -69 -23.5 -121t-67.5 -80.5t-102 -28.5q-54 0 -95 20t-77 60l30 26q30 -34 63.5 -50t78.5 -16q68 0 107 50.5t39 140.5q0 87 -35.5 129t-97.5 42q-32 0 -56.5 -8t-53.5 -26h-34v327h305z" />
    <glyph glyph-name="uni01BD" unicode="&#x1bd;" horiz-adv-x="387" 
d="M315 482h-200v-175q38 25 89 25q62 0 100 -43t38 -121q0 -82 -44 -130.5t-120 -48.5q-44 0 -78 16.5t-64 47.5l28 27q28 -26 53 -38t61 -12q54 0 85 36t31 103q0 64 -26 94t-72 30q-27 0 -47.5 -6t-44.5 -20h-33v255h252z" />
    <glyph glyph-name="uni01BE" unicode="&#x1be;" horiz-adv-x="445" 
d="M340 351q46 -47 46 -144q0 -98 -51 -155.5t-138 -57.5q-52 0 -91.5 19.5t-79.5 60.5l27 26q34 -33 67 -49.5t75 -16.5q69 0 106 45t37 128q0 81 -36 120t-96 55l-60 16v164h-61v38h61v135l45 6v-141h108v-38h-108v-137l30 -8q73 -19 119 -66z" />
    <glyph glyph-name="uni01BF" unicode="&#x1bf;" horiz-adv-x="516" 
d="M414.5 486q42.5 -46 42.5 -127q0 -109 -62.5 -185.5t-193.5 -151.5l-58 -32v-185l-45 -7v724h39l3 -79q35 43 73.5 66t89.5 23q69 0 111.5 -46zM357.5 195.5q51.5 67.5 51.5 162.5q0 66 -29.5 100.5t-82.5 34.5q-46 0 -83 -23.5t-71 -66.5v-373l48 28q115 70 166.5 137.5
z" />
    <glyph glyph-name="uni01C0" unicode="&#x1c0;" horiz-adv-x="247" 
d="M145 741v-741h-43v735z" />
    <glyph glyph-name="uni01C1" unicode="&#x1c1;" horiz-adv-x="389" 
d="M145 741v-741h-43v735zM288 741v-741h-43v735z" />
    <glyph glyph-name="uni01C2" unicode="&#x1c2;" horiz-adv-x="284" 
d="M259 423h-95v-115h95v-35h-95v-273h-43v273h-95v35h95v115h-95v35h95v277l43 6v-283h95v-35z" />
    <glyph glyph-name="uni01C3" unicode="&#x1c3;" horiz-adv-x="282" 
d="M162 741v-544h-42v538zM169 55.5q11 -11.5 11 -27.5t-11 -27.5t-28 -11.5t-28 11.5t-11 27.5t11 27.5t28 11.5t28 -11.5z" />
    <glyph glyph-name="uni01C4" unicode="&#x1c4;" horiz-adv-x="1005" 
d="M427 612q78 -72 78 -264q0 -193 -79.5 -270.5t-194.5 -77.5h-129v684h122q125 0 203 -72zM149 643v-603h84q223 0 223 308q0 121 -32.5 186t-82 87t-114.5 22h-78zM962 684v-39l-336 -603h329l-6 -42h-374v40l337 602h-303v42h353zM885 879l19 -22l-115 -100h-27
l-115 100l20 22l109 -80z" />
    <glyph glyph-name="uni01C5" unicode="&#x1c5;" horiz-adv-x="934" 
d="M427 612q78 -72 78 -264q0 -193 -79.5 -270.5t-194.5 -77.5h-129v684h122q125 0 203 -72zM149 643v-603h84q223 0 223 308q0 121 -32.5 186t-82 87t-114.5 22h-78zM903 522v-36l-270 -446h267l-5 -40h-313v36l270 446h-248v40h299zM859 762l20 -22l-115 -105h-27
l-115 105l21 22l108 -85z" />
    <glyph glyph-name="uni01C6" unicode="&#x1c6;" horiz-adv-x="899" 
d="M424 735v-735h-39l-4 81q-49 -92 -143 -92q-82 0 -129.5 71.5t-47.5 198.5q0 82 22.5 144t64.5 95.5t99 33.5q81 0 132 -71v280zM321.5 53.5q32.5 25.5 57.5 76.5v281q-24 38 -54.5 60t-72.5 22q-65 0 -104 -59.5t-39 -170.5q0 -115 35.5 -175t98.5 -60q46 0 78.5 25.5z
M868 522v-36l-270 -446h267l-5 -40h-313v36l270 446h-248v40h299zM824 762l20 -22l-115 -105h-27l-115 105l21 22l108 -85z" />
    <glyph glyph-name="uni01C7" unicode="&#x1c7;" horiz-adv-x="666" 
d="M149 684v-641h258l-7 -43h-298v684h47zM569 90q0 -57 -12.5 -92.5t-41.5 -60.5t-81 -49l-13 33q42 23 63.5 44t30 50t8.5 77v592h46v-594z" />
    <glyph glyph-name="uni01C8" unicode="&#x1c8;" horiz-adv-x="650" 
d="M149 684v-641h258l-7 -43h-298v684h47zM552 -2q0 -58 -13 -94t-38 -58.5t-69 -45.5l-15 32q35 20 53.5 38.5t27.5 48t9 79.5v524h45v-524zM553.5 733q9.5 -10 9.5 -24q0 -15 -9.5 -24.5t-25.5 -9.5q-15 0 -24.5 10t-9.5 24t9.5 24t24.5 10q16 0 25.5 -10z" />
    <glyph glyph-name="uni01C9" unicode="&#x1c9;" horiz-adv-x="495" 
d="M114.5 11.5q-21.5 22.5 -21.5 64.5v659l45 6v-663q0 -49 40 -49q16 0 33 7l12 -34q-24 -13 -51 -13q-36 0 -57.5 22.5zM397 -2q0 -58 -13 -94t-38 -58.5t-69 -45.5l-15 32q35 20 53.5 38.5t27.5 48t9 79.5v524h45v-524zM398.5 733q9.5 -10 9.5 -24q0 -15 -9.5 -24.5
t-25.5 -9.5q-15 0 -24.5 10t-9.5 24t9.5 24t24.5 10q16 0 25.5 -10z" />
    <glyph glyph-name="uni01CA" unicode="&#x1ca;" horiz-adv-x="861" 
d="M501 0h-61l-300 631q6 -86 6 -222v-409h-44v684h60l301 -632q-7 119 -7 200v432h45v-684zM764 90q0 -57 -12.5 -92.5t-41.5 -60.5t-81 -49l-13 33q42 23 63.5 44t30 50t8.5 77v592h46v-594z" />
    <glyph glyph-name="uni01CB" unicode="&#x1cb;" horiz-adv-x="844" 
d="M501 0h-61l-300 631q6 -86 6 -222v-409h-44v684h60l301 -632q-7 119 -7 200v432h45v-684zM746 -2q0 -58 -13 -94t-38 -58.5t-69 -45.5l-15 32q35 20 53.5 38.5t27.5 48t9 79.5v524h45v-524zM747.5 733q9.5 -10 9.5 -24q0 -15 -9.5 -24.5t-25.5 -9.5q-15 0 -24.5 10
t-9.5 24t9.5 24t24.5 10q16 0 25.5 -10z" />
    <glyph glyph-name="uni01CC" unicode="&#x1cc;" horiz-adv-x="766" 
d="M399 491.5q33 -40.5 33 -114.5v-377h-45v371q0 123 -91 123q-46 0 -83.5 -30t-69.5 -85v-379h-45v522h39l4 -94q65 104 162 104q63 0 96 -40.5zM668 -2q0 -58 -13 -94t-38 -58.5t-69 -45.5l-15 32q35 20 53.5 38.5t27.5 48t9 79.5v524h45v-524zM669.5 733
q9.5 -10 9.5 -24q0 -15 -9.5 -24.5t-25.5 -9.5q-15 0 -24.5 10t-9.5 24t9.5 24t24.5 10q16 0 25.5 -10z" />
    <glyph glyph-name="uni01CD" unicode="&#x1cd;" horiz-adv-x="514" 
d="M445 0l-56 193h-266l-57 -193h-45l207 684h58l207 -684h-48zM135 233h242l-121 413zM366 879l19 -22l-115 -100h-27l-115 100l20 22l109 -80z" />
    <glyph glyph-name="uni01CE" unicode="&#x1ce;" horiz-adv-x="482" 
d="M394 48q9 -18 30 -27l-10 -32q-32 8 -48.5 29t-19.5 61q-51 -90 -147 -90q-68 0 -107 42.5t-39 113.5q0 80 52.5 123.5t145.5 43.5h89v60q0 62 -25.5 91.5t-83.5 29.5q-57 0 -130 -30l-13 35q81 34 147 34q150 0 150 -157v-272q0 -37 9 -55zM340 127v150h-84
q-155 0 -155 -131q0 -57 27.5 -88t75.5 -31q90 0 136 100zM342 762l20 -22l-115 -105h-27l-115 105l21 22l108 -85z" />
    <glyph glyph-name="uni01CF" unicode="&#x1cf;" horiz-adv-x="251" 
d="M149 684v-684h-47v684h47zM234 879l19 -22l-115 -100h-27l-115 100l20 22l109 -80z" />
    <glyph glyph-name="uni01D0" unicode="&#x1d0;" horiz-adv-x="241" 
d="M143 522v-522h-45v522h45zM228 762l20 -22l-115 -105h-27l-115 105l21 22l108 -85z" />
    <glyph glyph-name="uni01D1" unicode="&#x1d1;" horiz-adv-x="623" 
d="M493 604.5q67 -89.5 67 -263.5q0 -170 -66.5 -261t-182.5 -91q-74 0 -130.5 40t-87.5 119t-31 192q0 114 31 193.5t87.5 120t130.5 40.5q115 0 182 -89.5zM164.5 575q-53.5 -78 -53.5 -235q0 -154 54 -232t146 -78q96 0 148.5 77t52.5 234q0 158 -53 235t-148 77
q-93 0 -146.5 -78zM420 879l19 -22l-115 -100h-27l-115 100l20 22l109 -80z" />
    <glyph glyph-name="uni01D2" unicode="&#x1d2;" horiz-adv-x="511" 
d="M400.5 463.5q51.5 -68.5 51.5 -200.5q0 -131 -52.5 -202.5t-144.5 -71.5t-144 71.5t-52 199.5q0 130 53 201t144 71q93 0 144.5 -68.5zM145.5 435q-39.5 -58 -39.5 -175q0 -114 39 -172.5t110 -58.5q72 0 111 58.5t39 175.5q0 115 -38.5 172.5t-110.5 57.5
q-71 0 -110.5 -58zM364 762l20 -22l-115 -105h-27l-115 105l21 22l108 -85z" />
    <glyph glyph-name="uni01D3" unicode="&#x1d3;" horiz-adv-x="582" 
d="M490 192q0 -91 -51 -147t-148 -56q-98 0 -148.5 56t-50.5 147v492h47v-488q0 -78 37.5 -121.5t114.5 -43.5q78 0 115 44t37 121v488h47v-492zM400 879l19 -22l-115 -100h-27l-115 100l20 22l109 -80z" />
    <glyph glyph-name="uni01D4" unicode="&#x1d4;" horiz-adv-x="521" 
d="M423 0h-39l-2 94q-57 -105 -154 -105q-64 0 -99.5 40t-35.5 111v382h45v-378q0 -116 97 -116q46 0 80.5 29.5t62.5 83.5v381h45v-522zM366 762l20 -22l-115 -105h-27l-115 105l21 22l108 -85z" />
    <glyph glyph-name="uni01D5" unicode="&#x1d5;" horiz-adv-x="582" 
d="M490 192q0 -91 -51 -147t-148 -56q-98 0 -148.5 56t-50.5 147v492h47v-488q0 -78 37.5 -121.5t114.5 -43.5q78 0 115 44t37 121v488h47v-492zM232 799.5q9 -9.5 9 -23.5t-9 -23.5t-24 -9.5q-14 0 -23 9.5t-9 23.5t9 23.5t23 9.5q15 0 24 -9.5zM397 799.5q9 -9.5 9 -23.5
t-9 -23.5t-23 -9.5t-23.5 9.5t-9.5 23.5t9.5 23.5t23.5 9.5t23 -9.5zM397 870h-209v37h209v-37z" />
    <glyph glyph-name="uni01D6" unicode="&#x1d6;" horiz-adv-x="521" 
d="M423 0h-39l-2 94q-57 -105 -154 -105q-64 0 -99.5 40t-35.5 111v382h45v-378q0 -116 97 -116q46 0 80.5 29.5t62.5 83.5v381h45v-522zM199 692.5q9 -9.5 9 -23.5t-9 -23.5t-24 -9.5q-14 0 -23 9.5t-9 23.5t9 23.5t23 9.5q15 0 24 -9.5zM364 692.5q9 -9.5 9 -23.5
t-9 -23.5t-23 -9.5t-23.5 9.5t-9.5 23.5t9.5 23.5t23.5 9.5t23 -9.5zM363 767h-209v37h209v-37z" />
    <glyph glyph-name="uni01D7" unicode="&#x1d7;" horiz-adv-x="582" 
d="M490 192q0 -91 -51 -147t-148 -56q-98 0 -148.5 56t-50.5 147v492h47v-488q0 -78 37.5 -121.5t114.5 -43.5q78 0 115 44t37 121v488h47v-492zM364 954l33 -28l-107 -120l-22 19zM232 799.5q9 -9.5 9 -23.5t-9 -23.5t-24 -9.5q-14 0 -23 9.5t-9 23.5t9 23.5t23 9.5
q15 0 24 -9.5zM397 799.5q9 -9.5 9 -23.5t-9 -23.5t-23 -9.5t-23.5 9.5t-9.5 23.5t9.5 23.5t23.5 9.5t23 -9.5z" />
    <glyph glyph-name="uni01D8" unicode="&#x1d8;" horiz-adv-x="521" 
d="M423 0h-39l-2 94q-57 -105 -154 -105q-64 0 -99.5 40t-35.5 111v382h45v-378q0 -116 97 -116q46 0 80.5 29.5t62.5 83.5v381h45v-522zM330 848l33 -28l-107 -120l-22 19zM198 692.5q9 -9.5 9 -23.5t-9 -23.5t-24 -9.5q-14 0 -23 9.5t-9 23.5t9 23.5t23 9.5q15 0 24 -9.5z
M363 692.5q9 -9.5 9 -23.5t-9 -23.5t-23 -9.5t-23.5 9.5t-9.5 23.5t9.5 23.5t23.5 9.5t23 -9.5z" />
    <glyph glyph-name="uni01D9" unicode="&#x1d9;" horiz-adv-x="582" 
d="M490 192q0 -91 -51 -147t-148 -56q-98 0 -148.5 56t-50.5 147v492h47v-488q0 -78 37.5 -121.5t114.5 -43.5q78 0 115 44t37 121v488h47v-492zM398 938l19 -22l-115 -100h-27l-115 100l20 22l109 -80zM232 799.5q9 -9.5 9 -23.5t-9 -23.5t-24 -9.5q-14 0 -23 9.5t-9 23.5
t9 23.5t23 9.5q15 0 24 -9.5zM397 799.5q9 -9.5 9 -23.5t-9 -23.5t-23 -9.5q-15 0 -24 9.5t-9 23.5t9 23.5t24 9.5q14 0 23 -9.5z" />
    <glyph glyph-name="uni01DA" unicode="&#x1da;" horiz-adv-x="521" 
d="M423 0h-39l-2 94q-57 -105 -154 -105q-64 0 -99.5 40t-35.5 111v382h45v-378q0 -116 97 -116q46 0 80.5 29.5t62.5 83.5v381h45v-522zM366 831l19 -22l-115 -100h-27l-115 100l20 22l109 -80zM199 692.5q9 -9.5 9 -23.5t-9 -23.5t-24 -9.5q-14 0 -23 9.5t-9 23.5t9 23.5
t23 9.5q15 0 24 -9.5zM364 692.5q9 -9.5 9 -23.5t-9 -23.5t-24 -9.5q-14 0 -23 9.5t-9 23.5t9 23.5t23 9.5q15 0 24 -9.5z" />
    <glyph glyph-name="uni01DB" unicode="&#x1db;" horiz-adv-x="582" 
d="M490 192q0 -91 -51 -147t-148 -56q-98 0 -148.5 56t-50.5 147v492h47v-488q0 -78 37.5 -121.5t114.5 -43.5q78 0 115 44t37 121v488h47v-492zM226 954l96 -129l-23 -19l-106 120zM231 799.5q9 -9.5 9 -23.5t-9 -23.5t-24 -9.5q-14 0 -23 9.5t-9 23.5t9 23.5t23 9.5
q15 0 24 -9.5zM396 799.5q9 -9.5 9 -23.5t-9 -23.5t-23 -9.5t-23.5 9.5t-9.5 23.5t9.5 23.5t23.5 9.5t23 -9.5z" />
    <glyph glyph-name="uni01DC" unicode="&#x1dc;" horiz-adv-x="521" 
d="M423 0h-39l-2 94q-57 -105 -154 -105q-64 0 -99.5 40t-35.5 111v382h45v-378q0 -116 97 -116q46 0 80.5 29.5t62.5 83.5v381h45v-522zM190 848l96 -129l-23 -19l-106 120zM198 692.5q9 -9.5 9 -23.5t-9 -23.5t-24 -9.5q-14 0 -23 9.5t-9 23.5t9 23.5t23 9.5q15 0 24 -9.5
zM363 692.5q9 -9.5 9 -23.5t-9 -23.5t-23 -9.5t-23.5 9.5t-9.5 23.5t9.5 23.5t23.5 9.5t23 -9.5z" />
    <glyph glyph-name="uni01DD" unicode="&#x1dd;" horiz-adv-x="485" 
d="M378.5 465.5q47.5 -66.5 47.5 -201.5q0 -140 -50 -207.5t-138 -67.5q-86 0 -135 66.5t-49 189.5q0 16 2 36h323q-4 212 -139 212q-37 0 -67.5 -12t-64.5 -37l-22 30q67 58 154 58q91 0 138.5 -66.5zM342 78.5q36 50.5 37 165.5h-280v-6q0 -105 36 -157.5t103 -52.5
q68 0 104 50.5z" />
    <glyph glyph-name="uni01DE" unicode="&#x1de;" horiz-adv-x="514" 
d="M445 0l-56 193h-266l-57 -193h-45l207 684h58l207 -684h-48zM135 233h242l-121 413zM198 799.5q9 -9.5 9 -23.5t-9 -23.5t-24 -9.5q-14 0 -23 9.5t-9 23.5t9 23.5t23 9.5q15 0 24 -9.5zM363 799.5q9 -9.5 9 -23.5t-9 -23.5t-23 -9.5t-23.5 9.5t-9.5 23.5t9.5 23.5
t23.5 9.5t23 -9.5zM363 870h-209v37h209v-37z" />
    <glyph glyph-name="uni01DF" unicode="&#x1df;" horiz-adv-x="482" 
d="M394 48q9 -18 30 -27l-10 -32q-32 8 -48.5 29t-19.5 61q-51 -90 -147 -90q-68 0 -107 42.5t-39 113.5q0 80 52.5 123.5t145.5 43.5h89v60q0 62 -25.5 91.5t-83.5 29.5q-57 0 -130 -30l-13 35q81 34 147 34q150 0 150 -157v-272q0 -37 9 -55zM340 127v150h-84
q-155 0 -155 -131q0 -57 27.5 -88t75.5 -31q90 0 136 100zM175 692.5q9 -9.5 9 -23.5t-9 -23.5t-24 -9.5q-14 0 -23 9.5t-9 23.5t9 23.5t23 9.5q15 0 24 -9.5zM340 692.5q9 -9.5 9 -23.5t-9 -23.5t-23 -9.5t-23.5 9.5t-9.5 23.5t9.5 23.5t23.5 9.5t23 -9.5zM339 767h-209v37
h209v-37z" />
    <glyph glyph-name="uni01E0" unicode="&#x1e0;" horiz-adv-x="514" 
d="M445 0l-56 193h-266l-57 -193h-45l207 684h58l207 -684h-48zM135 233h242l-121 413zM282.5 802q9.5 -10 9.5 -24q0 -15 -9.5 -24.5t-25.5 -9.5q-15 0 -24.5 10t-9.5 24t9.5 24t24.5 10q16 0 25.5 -10zM362 869h-209v37h209v-37z" />
    <glyph glyph-name="uni01E1" unicode="&#x1e1;" horiz-adv-x="482" 
d="M394 48q9 -18 30 -27l-10 -32q-32 8 -48.5 29t-19.5 61q-51 -90 -147 -90q-68 0 -107 42.5t-39 113.5q0 80 52.5 123.5t145.5 43.5h89v60q0 62 -25.5 91.5t-83.5 29.5q-57 0 -130 -30l-13 35q81 34 147 34q150 0 150 -157v-272q0 -37 9 -55zM340 127v150h-84
q-155 0 -155 -131q0 -57 27.5 -88t75.5 -31q90 0 136 100zM259.5 683q9.5 -10 9.5 -24q0 -15 -9.5 -24.5t-25.5 -9.5q-15 0 -24.5 10t-9.5 24t9.5 24t24.5 10q16 0 25.5 -10zM339 754h-209v37h209v-37z" />
    <glyph glyph-name="uni01E2" unicode="&#x1e2;" horiz-adv-x="698" 
d="M452 40h207v-40h-243l-43 188h-260l-64 -188h-46l239 684h372l-5 -41h-295l61 -267h232v-39h-223zM127 229h237l-95 417zM512 806h-209v37h209v-37z" />
    <glyph glyph-name="uni01E3" unicode="&#x1e3;" horiz-adv-x="762" 
d="M706 241h-319q5 -108 45.5 -160t107.5 -52q37 0 66 12.5t61 39.5l22 -28q-34 -32 -70 -48t-81 -16q-58 0 -100.5 28.5t-66.5 81.5q-38 -58 -79 -84t-92 -26q-68 0 -107.5 42.5t-39.5 113.5q0 80 52.5 123.5t144.5 43.5h91v55q0 65 -26 95.5t-86 30.5q-54 0 -127 -30
l-12 35q81 34 144 34q62 0 96.5 -27.5t46.5 -81.5q49 109 154 109q86 0 131.5 -65.5t45.5 -184.5q0 -21 -2 -41zM663 297q0 94 -33 145t-99 51q-62 0 -101 -53.5t-43 -162.5h276v20zM286 53.5q35 26.5 70 85.5q-15 51 -15 117v21h-87q-73 0 -113 -33t-40 -98q0 -56 28 -87.5
t76 -31.5q46 0 81 26.5zM487 680h-209v37h209v-37z" />
    <glyph glyph-name="uni01E4" unicode="&#x1e4;" horiz-adv-x="567" 
d="M560 200h-66v-156q-83 -55 -178 -55q-118 0 -186 89.5t-68 266.5q0 116 36 194.5t93.5 116.5t124.5 38q52 0 90 -15.5t76 -49.5l-28 -29q-33 28 -64.5 40.5t-72.5 12.5q-54 0 -100.5 -31t-76 -100t-29.5 -177q0 -160 54 -237.5t151 -77.5q39 0 70.5 9t61.5 28v133h-122
v39h122v85h-123l-5 41h174v-126h66v-39z" />
    <glyph glyph-name="uni01E5" unicode="&#x1e5;" horiz-adv-x="449" 
d="M475 -77h-50q-9 -59 -59 -92t-140 -33q-103 0 -148.5 35t-45.5 111h41q2 -59 35.5 -83.5t117.5 -24.5q141 0 156 87h-140v38h139q-6 35 -35.5 54t-79.5 19h-64q-60 0 -91.5 24.5t-31.5 64.5q0 51 52 87q-79 45 -79 148q0 79 46.5 126.5t124.5 47.5q86 -1 124 5.5t78 22.5
l14 -44q-39 -13 -127 -15q79 -41 79 -146q0 -78 -45 -123.5t-123 -45.5q-35 0 -61 10q-19 -11 -29.5 -28t-10.5 -36q0 -59 83 -59h67q66 0 106.5 -30.5t46.5 -81.5h50v-38zM131.5 257q33.5 -36 90.5 -36q60 0 91.5 34t31.5 101q0 65 -30.5 102.5t-91.5 37.5
q-62 0 -93.5 -36.5t-31.5 -101.5t33.5 -101z" />
    <glyph glyph-name="Gcaron" unicode="&#x1e6;" horiz-adv-x="555" 
d="M405.5 678.5q37.5 -15.5 76.5 -49.5l-27 -29q-33 28 -65 40.5t-72 12.5q-55 0 -102 -30t-76 -99t-29 -179q0 -161 54 -238t151 -77q39 0 70.5 9t61.5 28v257h-123l-5 41h174v-321q-83 -55 -177 -55q-119 0 -187 89t-68 267q0 117 35.5 195.5t94 116t126.5 37.5
q50 0 87.5 -15.5zM425 879l19 -22l-115 -100h-27l-115 100l20 22l109 -80z" />
    <glyph glyph-name="gcaron" unicode="&#x1e7;" horiz-adv-x="449" 
d="M439 516q-39 -13 -127 -15q79 -41 79 -146q0 -78 -45 -123.5t-123 -45.5q-35 0 -61 10q-19 -11 -29.5 -28t-10.5 -36q0 -59 83 -59h67q72 0 113 -35.5t41 -92.5q0 -69 -50.5 -108t-149.5 -39q-103 0 -148.5 35t-45.5 111h41q2 -59 35.5 -83.5t117.5 -24.5q154 0 154 106
q0 44 -29.5 68t-84.5 24h-64q-60 0 -91.5 24.5t-31.5 64.5q0 51 52 87q-79 45 -79 148q0 79 46.5 126.5t124.5 47.5q86 -1 124 5.5t78 22.5zM129.5 459.5q-31.5 -36.5 -31.5 -101.5t33.5 -101t90.5 -36q60 0 91.5 34t31.5 101q0 65 -30.5 102.5t-91.5 37.5
q-62 0 -93.5 -36.5zM333 762l20 -22l-115 -105h-27l-115 105l21 22l108 -85z" />
    <glyph glyph-name="uni01E8" unicode="&#x1e8;" horiz-adv-x="488" 
d="M149 684v-684h-47v684h47zM468 684l-262 -315l278 -369h-55l-277 367l264 317h52zM380 879l19 -22l-115 -100h-27l-115 100l20 22l109 -80z" />
    <glyph glyph-name="uni01E9" unicode="&#x1e9;" horiz-adv-x="434" 
d="M143 741v-741h-45v735zM405 522l-205 -235l226 -287h-53l-225 285l205 237h52zM349 930l19 -22l-115 -100h-27l-115 100l20 22l109 -80z" />
    <glyph glyph-name="uni01EA" unicode="&#x1ea;" horiz-adv-x="623" 
d="M299.5 -56q-24.5 -26 -24.5 -64q0 -53 58 -53q23 0 51 6l-4 -39q-27 -6 -51 -6q-47 0 -72 24t-25 64q0 35 19 62t57 51q-73 1 -128.5 41t-86.5 119t-31 191q0 114 31 193.5t87.5 120t130.5 40.5q115 0 182 -89.5t67 -263.5q0 -142 -46.5 -229t-131.5 -113
q-58 -29 -82.5 -55zM165 108q54 -78 146 -78q96 0 148.5 77t52.5 234q0 158 -53 235t-148 77q-93 0 -146.5 -78t-53.5 -235q0 -154 54 -232z" />
    <glyph glyph-name="uni01EB" unicode="&#x1eb;" horiz-adv-x="511" 
d="M233 -57q-24 -26 -24 -63q0 -53 58 -53q23 0 51 6l-4 -39q-27 -6 -51 -6q-47 0 -72 24t-25 64q0 35 19 62t58 51q-87 5 -135.5 76t-48.5 195q0 130 53 201t144 71q93 0 144.5 -68.5t51.5 -200.5q0 -108 -36.5 -176t-102.5 -89q-56 -29 -80 -55zM145 87.5
q39 -58.5 110 -58.5q72 0 111 58.5t39 175.5q0 115 -38.5 172.5t-110.5 57.5q-71 0 -110.5 -58t-39.5 -175q0 -114 39 -172.5z" />
    <glyph glyph-name="uni01EC" unicode="&#x1ec;" horiz-adv-x="623" 
d="M416 843v-37h-209v37h209zM299.5 -56q-24.5 -26 -24.5 -64q0 -53 58 -53q23 0 51 6l-4 -39q-27 -6 -51 -6q-47 0 -72 24t-25 64q0 35 19 62t57 51q-73 1 -128.5 41t-86.5 119t-31 191q0 114 31 193.5t87.5 120t130.5 40.5q115 0 182 -89.5t67 -263.5q0 -142 -46.5 -229
t-131.5 -113q-58 -29 -82.5 -55zM165 108q54 -78 146 -78q96 0 148.5 77t52.5 234q0 158 -53 235t-148 77q-93 0 -146.5 -78t-53.5 -235q0 -154 54 -232z" />
    <glyph glyph-name="uni01ED" unicode="&#x1ed;" horiz-adv-x="511" 
d="M361 717v-37h-209v37h209zM233 -57q-24 -26 -24 -63q0 -53 58 -53q23 0 51 6l-4 -39q-27 -6 -51 -6q-47 0 -72 24t-25 64q0 35 19 62t58 51q-87 5 -135.5 76t-48.5 195q0 130 53 201t144 71q93 0 144.5 -68.5t51.5 -200.5q0 -108 -36.5 -176t-102.5 -89q-56 -29 -80 -55z
M145 87.5q39 -58.5 110 -58.5q72 0 111 58.5t39 175.5q0 115 -38.5 172.5t-110.5 57.5q-71 0 -110.5 -58t-39.5 -175q0 -114 39 -172.5z" />
    <glyph glyph-name="uni01EE" unicode="&#x1ee;" horiz-adv-x="438" 
d="M343.5 332q51.5 -49 51.5 -145q0 -88 -52.5 -143t-143.5 -55q-61 0 -105 21t-79 64l29 26q33 -37 68.5 -53.5t84.5 -16.5q73 0 111.5 42.5t38.5 113.5q0 83 -40.5 120t-119.5 37h-73v38l205 263h-285v40h339v-39l-209 -264h28q100 0 151.5 -49zM312 879l19 -22l-115 -100
h-27l-115 100l20 22l109 -80z" />
    <glyph glyph-name="uni01EF" unicode="&#x1ef;" horiz-adv-x="411" 
d="M380 3q0 -92 -52 -148.5t-142 -56.5q-55 0 -97 21t-77 63l28 25q33 -37 67.5 -53.5t78.5 -16.5q71 0 109 44.5t38 122.5q0 83 -40 119.5t-127 36.5h-54v37l195 285h-276v40h327v-36l-200 -288h11q211 0 211 -195zM303 762l20 -22l-115 -105h-27l-115 105l21 22l108 -85z
" />
    <glyph glyph-name="uni01F0" unicode="&#x1f0;" horiz-adv-x="241" 
d="M143 -2q0 -58 -13 -94t-38 -58.5t-69 -45.5l-15 32q35 20 53.5 38.5t27.5 48t9 79.5v524h45v-524zM228 762l20 -22l-115 -105h-27l-115 105l21 22l108 -85z" />
    <glyph glyph-name="uni01F1" unicode="&#x1f1;" horiz-adv-x="1005" 
d="M427 612q78 -72 78 -264q0 -193 -79.5 -270.5t-194.5 -77.5h-129v684h122q125 0 203 -72zM149 643v-603h84q223 0 223 308q0 121 -32.5 186t-82 87t-114.5 22h-78zM962 684v-39l-336 -603h329l-6 -42h-374v40l337 602h-303v42h353z" />
    <glyph glyph-name="uni01F2" unicode="&#x1f2;" horiz-adv-x="934" 
d="M427 612q78 -72 78 -264q0 -193 -79.5 -270.5t-194.5 -77.5h-129v684h122q125 0 203 -72zM149 643v-603h84q223 0 223 308q0 121 -32.5 186t-82 87t-114.5 22h-78zM903 522v-36l-270 -446h267l-5 -40h-313v36l270 446h-248v40h299z" />
    <glyph glyph-name="uni01F3" unicode="&#x1f3;" horiz-adv-x="899" 
d="M424 735v-735h-39l-4 81q-49 -92 -143 -92q-82 0 -129.5 71.5t-47.5 198.5q0 82 22.5 144t64.5 95.5t99 33.5q81 0 132 -71v280zM321.5 53.5q32.5 25.5 57.5 76.5v281q-24 38 -54.5 60t-72.5 22q-65 0 -104 -59.5t-39 -170.5q0 -115 35.5 -175t98.5 -60q46 0 78.5 25.5z
M868 522v-36l-270 -446h267l-5 -40h-313v36l270 446h-248v40h299z" />
    <glyph glyph-name="uni01F4" unicode="&#x1f4;" horiz-adv-x="555" 
d="M405.5 678.5q37.5 -15.5 76.5 -49.5l-27 -29q-33 28 -65 40.5t-72 12.5q-55 0 -102 -30t-76 -99t-29 -179q0 -161 54 -238t151 -77q39 0 70.5 9t61.5 28v257h-123l-5 41h174v-321q-83 -55 -177 -55q-119 0 -187 89t-68 267q0 117 35.5 195.5t94 116t126.5 37.5
q50 0 87.5 -15.5zM388 877l21 -42l-174 -76l-13 28z" />
    <glyph glyph-name="uni01F5" unicode="&#x1f5;" horiz-adv-x="449" 
d="M439 516q-39 -13 -127 -15q79 -41 79 -146q0 -78 -45 -123.5t-123 -45.5q-35 0 -61 10q-19 -11 -29.5 -28t-10.5 -36q0 -59 83 -59h67q72 0 113 -35.5t41 -92.5q0 -69 -50.5 -108t-149.5 -39q-103 0 -148.5 35t-45.5 111h41q2 -59 35.5 -83.5t117.5 -24.5q154 0 154 106
q0 44 -29.5 68t-84.5 24h-64q-60 0 -91.5 24.5t-31.5 64.5q0 51 52 87q-79 45 -79 148q0 79 46.5 126.5t124.5 47.5q86 -1 124 5.5t78 22.5zM129.5 459.5q-31.5 -36.5 -31.5 -101.5t33.5 -101t90.5 -36q60 0 91.5 34t31.5 101q0 65 -30.5 102.5t-91.5 37.5
q-62 0 -93.5 -36.5zM290 773l21 -41l-172 -84l-15 26z" />
    <glyph glyph-name="uni01F6" unicode="&#x1f6;" horiz-adv-x="868" 
d="M791 259q0 -91 -25.5 -151.5t-68 -89.5t-95.5 -29q-65 0 -107.5 41.5t-42.5 116.5v193h-303v-340h-47v684h47v-304h303v304h47v-535q0 -60 28.5 -90t75.5 -30q61 0 101.5 54t40.5 177q0 117 -23 262h45q24 -146 24 -263z" />
    <glyph glyph-name="uni01F7" unicode="&#x1f7;" horiz-adv-x="508" 
d="M422 646q46 -48 46 -131q0 -102 -59.5 -160.5t-168.5 -102.5l-91 -35v-217h-47v684h47v-56q33 31 70.5 48.5t83.5 17.5q73 0 119 -48zM372.5 379.5q46.5 49.5 46.5 135.5q0 67 -32.5 102.5t-88.5 35.5q-45 0 -81 -17.5t-68 -48.5v-330l91 37q86 36 132.5 85.5z" />
    <glyph glyph-name="uni01F8" unicode="&#x1f8;" horiz-adv-x="603" 
d="M501 0h-61l-300 631q6 -86 6 -222v-409h-44v684h60l301 -632q-7 119 -7 200v432h45v-684zM235 877l165 -91l-14 -27l-173 76z" />
    <glyph glyph-name="uni01F9" unicode="&#x1f9;" horiz-adv-x="525" 
d="M399 491.5q33 -40.5 33 -114.5v-377h-45v371q0 123 -91 123q-46 0 -83.5 -30t-69.5 -85v-379h-45v522h39l4 -94q65 104 162 104q63 0 96 -40.5zM199 773l166 -99l-16 -26l-172 84z" />
    <glyph glyph-name="Aringacute" unicode="&#x1fa;" horiz-adv-x="514" 
d="M445 0l-56 193h-266l-57 -193h-45l207 684h58l207 -684h-48zM135 233h242l-121 413zM320.5 882q23.5 -24 23.5 -65q0 -42 -23.5 -66t-62.5 -24q-38 0 -61.5 24t-23.5 66q0 41 23.5 65t61.5 24q39 0 62.5 -24zM208 817q0 -60 50 -60t50 60q0 59 -50 59t-50 -59zM332 1037
l21 -42l-174 -76l-13 28z" />
    <glyph glyph-name="aringacute" unicode="&#x1fb;" horiz-adv-x="482" 
d="M328 851l-174 -76l-13 28l166 90zM172.5 743q23.5 24 61.5 24q39 0 62.5 -24t23.5 -65q0 -42 -23.5 -66t-62.5 -24q-38 0 -61.5 24t-23.5 66q0 41 23.5 65zM234 737q-50 0 -50 -59q0 -60 50 -60t50 60q0 59 -50 59zM394 48q9 -18 30 -27l-10 -32q-32 8 -48.5 29t-19.5 61
q-51 -90 -147 -90q-68 0 -107 42.5t-39 113.5q0 80 52.5 123.5t145.5 43.5h89v60q0 62 -25.5 91.5t-83.5 29.5q-57 0 -130 -30l-13 35q81 34 147 34q150 0 150 -157v-272q0 -37 9 -55zM340 127v150h-84q-155 0 -155 -131q0 -57 27.5 -88t75.5 -31q90 0 136 100z" />
    <glyph glyph-name="AEacute" unicode="&#x1fc;" horiz-adv-x="698" 
d="M452 40h207v-40h-243l-43 188h-260l-64 -188h-46l239 684h372l-5 -41h-295l61 -267h232v-39h-223zM127 229h237l-95 417zM479 877l21 -42l-174 -76l-13 28z" />
    <glyph glyph-name="aeacute" unicode="&#x1fd;" horiz-adv-x="762" 
d="M706 241h-319q5 -108 45.5 -160t107.5 -52q37 0 66 12.5t61 39.5l22 -28q-34 -32 -70 -48t-81 -16q-58 0 -100.5 28.5t-66.5 81.5q-38 -58 -79 -84t-92 -26q-68 0 -107.5 42.5t-39.5 113.5q0 80 52.5 123.5t144.5 43.5h91v55q0 65 -26 95.5t-86 30.5q-54 0 -127 -30
l-12 35q81 34 144 34q62 0 96.5 -27.5t46.5 -81.5q49 109 154 109q86 0 131.5 -65.5t45.5 -184.5q0 -21 -2 -41zM663 297q0 94 -33 145t-99 51q-62 0 -101 -53.5t-43 -162.5h276v20zM286 53.5q35 26.5 70 85.5q-15 51 -15 117v21h-87q-73 0 -113 -33t-40 -98q0 -56 28 -87.5
t76 -31.5q46 0 81 26.5zM447 773l21 -41l-172 -84l-15 26z" />
    <glyph glyph-name="Oslashacute" unicode="&#x1fe;" horiz-adv-x="623" 
d="M523 551q37 -83 37 -210q0 -169 -66.5 -260.5t-182.5 -91.5q-37 0 -73 11l-29 -117l-42 12l35 121q-66 35 -103 117.5t-37 206.5q0 114 31 193.5t87.5 120t130.5 40.5q40 0 71 -10l32 123l41 -12l-36 -126q67 -35 104 -118zM139 157q28 -71 79 -102l156 588
q-29 10 -63 10q-93 0 -146.5 -78t-53.5 -235q0 -112 28 -183zM459 107q52 77 53 234q0 227 -108 289l-156 -590q29 -10 63 -10q96 0 148 77zM377 888l21 -42l-174 -76l-13 28z" />
    <glyph glyph-name="oslashacute" unicode="&#x1ff;" horiz-adv-x="511" 
d="M426 417q26 -62 26 -154q0 -131 -52.5 -202.5t-144.5 -71.5q-29 0 -58 8l-37 -120l-38 11l40 125q-50 29 -76.5 92.5t-26.5 154.5q0 130 53 201t144 71q30 0 59 -8l37 121l37 -10l-38 -127q49 -29 75 -91zM177 51l128 435q-21 7 -49 7q-71 0 -110.5 -58t-39.5 -175
q0 -159 71 -209zM366 86.5q39 58.5 39 176.5q0 157 -70 207l-128 -435q21 -7 48 -7q72 0 111 58.5zM321 773l21 -41l-172 -84l-15 26z" />
    <glyph glyph-name="uni0200" unicode="&#x200;" horiz-adv-x="514" 
d="M445 0l-56 193h-266l-57 -193h-45l207 684h58l207 -684h-48zM135 233h242l-121 413zM150 929l69 -144l-29 -14l-80 137zM261 928l63 -139l-29 -13l-74 131z" />
    <glyph glyph-name="uni0201" unicode="&#x201;" horiz-adv-x="482" 
d="M394 48q9 -18 30 -27l-10 -32q-32 8 -48.5 29t-19.5 61q-51 -90 -147 -90q-68 0 -107 42.5t-39 113.5q0 80 52.5 123.5t145.5 43.5h89v60q0 62 -25.5 91.5t-83.5 29.5q-57 0 -130 -30l-13 35q81 34 147 34q150 0 150 -157v-272q0 -37 9 -55zM340 127v150h-84
q-155 0 -155 -131q0 -57 27.5 -88t75.5 -31q90 0 136 100zM135 803l69 -144l-29 -14l-80 137zM246 802l63 -139l-29 -13l-74 131z" />
    <glyph glyph-name="uni0202" unicode="&#x202;" horiz-adv-x="514" 
d="M445 0l-56 193h-266l-57 -193h-45l207 684h58l207 -684h-48zM135 233h242l-121 413zM333.5 869.5q30.5 -27.5 35.5 -74.5l-30 -7q-18 71 -82 71q-65 0 -81 -71l-31 7q6 48 36.5 75t75.5 27q46 0 76.5 -27.5z" />
    <glyph glyph-name="uni0203" unicode="&#x203;" horiz-adv-x="482" 
d="M394 48q9 -18 30 -27l-10 -32q-32 8 -48.5 29t-19.5 61q-51 -90 -147 -90q-68 0 -107 42.5t-39 113.5q0 80 52.5 123.5t145.5 43.5h89v60q0 62 -25.5 91.5t-83.5 29.5q-57 0 -130 -30l-13 35q81 34 147 34q150 0 150 -157v-272q0 -37 9 -55zM340 127v150h-84
q-155 0 -155 -131q0 -57 27.5 -88t75.5 -31q90 0 136 100zM310.5 707.5q30.5 -27.5 35.5 -74.5l-30 -7q-18 71 -82 71q-65 0 -81 -71l-31 7q6 48 36.5 75t75.5 27q46 0 76.5 -27.5z" />
    <glyph glyph-name="uni0204" unicode="&#x204;" horiz-adv-x="454" 
d="M410 684l-6 -41h-255v-266h221v-40h-221v-297h266v-40h-313v684h308zM153 929l69 -144l-29 -14l-80 137zM264 928l63 -139l-29 -13l-74 131z" />
    <glyph glyph-name="uni0205" unicode="&#x205;" horiz-adv-x="481" 
d="M425 241h-319q4 -110 44.5 -161t107.5 -51q38 0 66.5 12t60.5 39l23 -28q-34 -31 -70.5 -47t-80.5 -16q-92 0 -145 69.5t-53 198.5q0 130 50.5 202.5t137.5 72.5q88 0 134 -65.5t46 -184.5q0 -21 -2 -41zM382 297q0 94 -33 145t-101 51q-62 0 -100 -52t-42 -164h276v20z
M149 803l69 -144l-29 -14l-80 137zM260 802l63 -139l-29 -13l-74 131z" />
    <glyph glyph-name="uni0206" unicode="&#x206;" horiz-adv-x="454" 
d="M410 684l-6 -41h-255v-266h221v-40h-221v-297h266v-40h-313v684h308zM336.5 869.5q30.5 -27.5 35.5 -74.5l-30 -7q-18 71 -82 71q-65 0 -81 -71l-31 7q6 48 36.5 75t75.5 27q46 0 76.5 -27.5z" />
    <glyph glyph-name="uni0207" unicode="&#x207;" horiz-adv-x="481" 
d="M425 241h-319q4 -110 44.5 -161t107.5 -51q38 0 66.5 12t60.5 39l23 -28q-34 -31 -70.5 -47t-80.5 -16q-92 0 -145 69.5t-53 198.5q0 130 50.5 202.5t137.5 72.5q88 0 134 -65.5t46 -184.5q0 -21 -2 -41zM382 297q0 94 -33 145t-101 51q-62 0 -100 -52t-42 -164h276v20z
M324.5 707.5q30.5 -27.5 35.5 -74.5l-30 -7q-18 71 -82 71q-65 0 -81 -71l-31 7q6 48 36.5 75t75.5 27q46 0 76.5 -27.5z" />
    <glyph glyph-name="uni0208" unicode="&#x208;" horiz-adv-x="251" 
d="M149 684v-684h-47v684h47zM18 929l69 -144l-29 -14l-80 137zM129 928l63 -139l-29 -13l-74 131z" />
    <glyph glyph-name="uni0209" unicode="&#x209;" horiz-adv-x="241" 
d="M143 522v-522h-45v522h45zM21 803l69 -144l-29 -14l-80 137zM132 802l63 -139l-29 -13l-74 131z" />
    <glyph glyph-name="uni020A" unicode="&#x20a;" horiz-adv-x="251" 
d="M149 684v-684h-47v684h47zM201.5 869.5q30.5 -27.5 35.5 -74.5l-30 -7q-18 71 -82 71q-65 0 -81 -71l-31 7q6 48 36.5 75t75.5 27q46 0 76.5 -27.5z" />
    <glyph glyph-name="uni020B" unicode="&#x20b;" horiz-adv-x="241" 
d="M143 522v-522h-45v522h45zM196.5 707.5q30.5 -27.5 35.5 -74.5l-30 -7q-18 71 -82 71q-65 0 -81 -71l-31 7q6 48 36.5 75t75.5 27q46 0 76.5 -27.5z" />
    <glyph glyph-name="uni020C" unicode="&#x20c;" horiz-adv-x="623" 
d="M493 604.5q67 -89.5 67 -263.5q0 -170 -66.5 -261t-182.5 -91q-74 0 -130.5 40t-87.5 119t-31 192q0 114 31 193.5t87.5 120t130.5 40.5q115 0 182 -89.5zM164.5 575q-53.5 -78 -53.5 -235q0 -154 54 -232t146 -78q96 0 148.5 77t52.5 234q0 158 -53 235t-148 77
q-93 0 -146.5 -78zM204 929l69 -144l-29 -14l-80 137zM315 928l63 -139l-29 -13l-74 131z" />
    <glyph glyph-name="uni020D" unicode="&#x20d;" horiz-adv-x="511" 
d="M400.5 463.5q51.5 -68.5 51.5 -200.5q0 -131 -52.5 -202.5t-144.5 -71.5t-144 71.5t-52 199.5q0 130 53 201t144 71q93 0 144.5 -68.5zM145.5 435q-39.5 -58 -39.5 -175q0 -114 39 -172.5t110 -58.5q72 0 111 58.5t39 175.5q0 115 -38.5 172.5t-110.5 57.5
q-71 0 -110.5 -58zM157 803l69 -144l-29 -14l-80 137zM268 802l63 -139l-29 -13l-74 131z" />
    <glyph glyph-name="uni020E" unicode="&#x20e;" horiz-adv-x="623" 
d="M493 604.5q67 -89.5 67 -263.5q0 -170 -66.5 -261t-182.5 -91q-74 0 -130.5 40t-87.5 119t-31 192q0 114 31 193.5t87.5 120t130.5 40.5q115 0 182 -89.5zM164.5 575q-53.5 -78 -53.5 -235q0 -154 54 -232t146 -78q96 0 148.5 77t52.5 234q0 158 -53 235t-148 77
q-93 0 -146.5 -78zM387.5 869.5q30.5 -27.5 35.5 -74.5l-30 -7q-18 71 -82 71q-65 0 -81 -71l-31 7q6 48 36.5 75t75.5 27q46 0 76.5 -27.5z" />
    <glyph glyph-name="uni020F" unicode="&#x20f;" horiz-adv-x="511" 
d="M400.5 463.5q51.5 -68.5 51.5 -200.5q0 -131 -52.5 -202.5t-144.5 -71.5t-144 71.5t-52 199.5q0 130 53 201t144 71q93 0 144.5 -68.5zM145.5 435q-39.5 -58 -39.5 -175q0 -114 39 -172.5t110 -58.5q72 0 111 58.5t39 175.5q0 115 -38.5 172.5t-110.5 57.5
q-71 0 -110.5 -58zM332.5 707.5q30.5 -27.5 35.5 -74.5l-30 -7q-18 71 -82 71q-65 0 -81 -71l-31 7q6 48 36.5 75t75.5 27q46 0 76.5 -27.5z" />
    <glyph glyph-name="uni0210" unicode="&#x210;" horiz-adv-x="527" 
d="M443 0l-164 314l-17 -1h-113v-313h-47v684h136q226 0 226 -183q0 -72 -36 -116.5t-102 -61.5l170 -323h-53zM372.5 389q42.5 36 42.5 112q0 72 -41.5 107.5t-138.5 35.5h-86v-291h95q86 0 128.5 36zM153 929l69 -144l-29 -14l-80 137zM264 928l63 -139l-29 -13l-74 131z
" />
    <glyph glyph-name="uni0211" unicode="&#x211;" horiz-adv-x="334" 
d="M322 526l-9 -41q-20 5 -40 5q-49 0 -79.5 -39t-50.5 -121v-330h-45v522h39l3 -113q20 62 53 92.5t83 30.5q22 0 46 -6zM110 803l69 -144l-29 -14l-80 137zM221 802l63 -139l-29 -13l-74 131z" />
    <glyph glyph-name="uni0212" unicode="&#x212;" horiz-adv-x="527" 
d="M443 0l-164 314l-17 -1h-113v-313h-47v684h136q226 0 226 -183q0 -72 -36 -116.5t-102 -61.5l170 -323h-53zM372.5 389q42.5 36 42.5 112q0 72 -41.5 107.5t-138.5 35.5h-86v-291h95q86 0 128.5 36zM336.5 869.5q30.5 -27.5 35.5 -74.5l-30 -7q-18 71 -82 71
q-65 0 -81 -71l-31 7q6 48 36.5 75t75.5 27q46 0 76.5 -27.5z" />
    <glyph glyph-name="uni0213" unicode="&#x213;" horiz-adv-x="334" 
d="M322 526l-9 -41q-20 5 -40 5q-49 0 -79.5 -39t-50.5 -121v-330h-45v522h39l3 -113q20 62 53 92.5t83 30.5q22 0 46 -6zM285.5 707.5q30.5 -27.5 35.5 -74.5l-30 -7q-18 71 -82 71q-65 0 -81 -71l-31 7q6 48 36.5 75t75.5 27q46 0 76.5 -27.5z" />
    <glyph glyph-name="uni0214" unicode="&#x214;" horiz-adv-x="582" 
d="M490 192q0 -91 -51 -147t-148 -56q-98 0 -148.5 56t-50.5 147v492h47v-488q0 -78 37.5 -121.5t114.5 -43.5q78 0 115 44t37 121v488h47v-492zM184 929l69 -144l-29 -14l-80 137zM295 928l63 -139l-29 -13l-74 131z" />
    <glyph glyph-name="uni0215" unicode="&#x215;" horiz-adv-x="521" 
d="M423 0h-39l-2 94q-57 -105 -154 -105q-64 0 -99.5 40t-35.5 111v382h45v-378q0 -116 97 -116q46 0 80.5 29.5t62.5 83.5v381h45v-522zM159 803l69 -144l-29 -14l-80 137zM270 802l63 -139l-29 -13l-74 131z" />
    <glyph glyph-name="uni0216" unicode="&#x216;" horiz-adv-x="582" 
d="M490 192q0 -91 -51 -147t-148 -56q-98 0 -148.5 56t-50.5 147v492h47v-488q0 -78 37.5 -121.5t114.5 -43.5q78 0 115 44t37 121v488h47v-492zM367.5 869.5q30.5 -27.5 35.5 -74.5l-30 -7q-18 71 -82 71q-65 0 -81 -71l-31 7q6 48 36.5 75t75.5 27q46 0 76.5 -27.5z" />
    <glyph glyph-name="uni0217" unicode="&#x217;" horiz-adv-x="521" 
d="M423 0h-39l-2 94q-57 -105 -154 -105q-64 0 -99.5 40t-35.5 111v382h45v-378q0 -116 97 -116q46 0 80.5 29.5t62.5 83.5v381h45v-522zM334.5 707.5q30.5 -27.5 35.5 -74.5l-30 -7q-18 71 -82 71q-65 0 -81 -71l-31 7q6 48 36.5 75t75.5 27q46 0 76.5 -27.5z" />
    <glyph glyph-name="Scommaaccent" unicode="&#x218;" horiz-adv-x="484" 
d="M335.5 675.5q39.5 -18.5 77.5 -55.5l-27 -29q-35 33 -68 47.5t-77 14.5q-59 0 -95.5 -34t-36.5 -88t32 -85.5t114 -60.5q93 -32 135 -75.5t42 -124.5q0 -56 -25 -100.5t-70.5 -70t-104.5 -25.5q-60 0 -107 22t-87 63l27 28q38 -35 76.5 -53.5t89.5 -18.5q69 0 111.5 42
t42.5 112q0 43 -14 71.5t-46 49.5t-89 41q-95 33 -134.5 74.5t-39.5 109.5q0 45 22.5 82.5t63.5 59.5t93 22q55 0 94.5 -18.5zM262 -98.5q10 -10.5 10 -26.5q0 -11 -5 -25.5t-14 -36.5l-36 -86h-28l30 114q-21 11 -21 34q0 16 10 26.5t27 10.5t27 -10.5z" />
    <glyph glyph-name="scommaaccent" unicode="&#x219;" horiz-adv-x="418" 
d="M288.5 518q35.5 -14 69.5 -43l-23 -29q-31 25 -59.5 36.5t-63.5 11.5q-49 0 -79.5 -26t-30.5 -70q0 -38 26.5 -61t92.5 -44q81 -26 115 -60t34 -95q0 -67 -46.5 -108t-118.5 -41q-53 0 -93 17.5t-74 49.5l26 28q33 -29 65 -42.5t75 -13.5q53 0 86.5 28.5t33.5 80.5
q0 33 -11 54t-38 36t-78 32q-76 24 -108 56t-32 83q0 58 43.5 96t109.5 38q43 0 78.5 -14zM236 -98.5q10 -10.5 10 -26.5q0 -11 -5 -25.5t-14 -36.5l-36 -86h-28l30 114q-21 11 -21 34q0 16 10 26.5t27 10.5t27 -10.5z" />
    <glyph glyph-name="uni021A" unicode="&#x21a;" horiz-adv-x="440" 
d="M431 684l-5 -42h-183v-642h-46v642h-184v42h418zM245 -98.5q10 -10.5 10 -26.5q0 -11 -5 -25.5t-14 -36.5l-36 -86h-28l30 114q-21 11 -21 34q0 16 10 26.5t27 10.5t27 -10.5z" />
    <glyph glyph-name="uni021B" unicode="&#x21b;" horiz-adv-x="303" 
d="M306 21q-43 -32 -97 -32q-53 0 -83 32t-30 91v372h-77v38h77v127l45 5v-132h124l-6 -38h-118v-370q0 -85 72 -85q38 0 74 23zM230 -98.5q10 -10.5 10 -26.5q0 -11 -5 -25.5t-14 -36.5l-36 -86h-28l30 114q-21 11 -21 34q0 16 10 26.5t27 10.5t27 -10.5z" />
    <glyph glyph-name="uni021C" unicode="&#x21c;" horiz-adv-x="450" 
d="M334 645.5q47 -48.5 47 -127.5q0 -66 -32.5 -105.5t-89.5 -52.5q64 -8 103 -47.5t39 -110.5q0 -106 -79 -175.5t-262 -111.5l-4 41q110 26 175 61t93 79.5t28 104.5q0 66 -41 102t-119 35l-54 -1l6 41h46q66 0 104.5 36t38.5 103q0 63 -34 99.5t-96 36.5q-44 0 -81 -17.5
t-74 -52.5l-27 28q43 42 87 62.5t97 20.5q82 0 129 -48.5z" />
    <glyph glyph-name="uni021D" unicode="&#x21d;" horiz-adv-x="414" 
d="M289 494.5q42 -37.5 42 -103.5q0 -52 -24.5 -81.5t-69.5 -41.5q53 -2 85.5 -32t32.5 -85q0 -82 -73 -143.5t-219 -100.5l-7 36q132 41 191.5 89.5t59.5 117.5q0 96 -115 96h-74l4 37h48q54 0 84.5 27t30.5 80q0 50 -28.5 76.5t-78.5 26.5q-40 0 -68.5 -10t-63.5 -33
l-23 28q35 27 73 40.5t84 13.5q67 0 109 -37.5z" />
    <glyph glyph-name="uni021E" unicode="&#x21e;" horiz-adv-x="601" 
d="M452 0v340h-303v-340h-47v684h47v-304h303v304h47v-684h-47zM408 879l19 -22l-115 -100h-27l-115 100l20 22l109 -80z" />
    <glyph glyph-name="uni021F" unicode="&#x21f;" horiz-adv-x="525" 
d="M398.5 491q33.5 -41 33.5 -114v-377h-45v371q0 123 -91 123q-46 0 -83.5 -30t-69.5 -85v-379h-45v735l45 6v-312q32 49 70.5 76t89.5 27q62 0 95.5 -41zM375 930l19 -22l-115 -100h-27l-115 100l20 22l109 -80z" />
    <glyph glyph-name="uni0220" unicode="&#x220;" horiz-adv-x="593" 
d="M457.5 645q41.5 -49 41.5 -139v-701h-47v693q0 155 -119 155q-58 0 -102 -31t-82 -84v-538h-47v684h40l5 -97q81 107 192 107q77 0 118.5 -49z" />
    <glyph glyph-name="uni0221" unicode="&#x221;" horiz-adv-x="611" 
d="M612 168q24 -25 24 -64q0 -52 -36 -83.5t-92 -31.5q-48 0 -80 25l-35 -75l-32 14l42 86q-16 20 -20 46q-49 -96 -145 -96q-82 0 -129.5 71.5t-47.5 198.5q0 82 22.5 144t64.5 95.5t99 33.5q81 0 132 -71v280l45 -6v-618q0 -10 2 -28q25 52 52.5 78t69.5 26q40 0 64 -25z
M321.5 53.5q32.5 25.5 57.5 76.5v281q-24 38 -54.5 60t-72.5 22q-65 0 -104 -59.5t-39 -170.5q0 -115 35.5 -175t98.5 -60q46 0 78.5 25.5zM572 48.5q23 19.5 23 55.5q0 24 -13.5 38.5t-35.5 14.5q-32 0 -52.5 -23.5t-48.5 -82.5q20 -22 64 -22q40 0 63 19.5z" />
    <glyph glyph-name="uni0222" unicode="&#x222;" horiz-adv-x="574" 
d="M478 316q34 -49 34 -120q0 -58 -25.5 -105t-76 -74.5t-123.5 -27.5q-72 0 -122.5 26.5t-76.5 73.5t-26 106q0 69 34 118.5t97 70.5q-88 37 -88 151v149h46v-148q0 -134 136 -134q139 0 139 134v148h46v-149q0 -51 -23 -90.5t-69 -59.5q64 -20 98 -69zM420 73.5
q43 43.5 43 122.5t-43.5 122t-132.5 43q-87 0 -131.5 -44t-44.5 -122q0 -77 44 -121t132 -44q90 0 133 43.5z" />
    <glyph glyph-name="uni0223" unicode="&#x223;" horiz-adv-x="508" 
d="M419 338q30 -52 30 -131q0 -101 -51 -159.5t-144 -58.5q-92 0 -143.5 57.5t-51.5 159.5q0 76 30.5 129t88.5 74q-43 18 -64 55t-21 86v185h45v-186q0 -55 27.5 -89t88.5 -34q62 0 90.5 35t28.5 88v186h45v-185q0 -48 -22 -85t-66 -55q59 -20 89 -72zM401 207
q0 181 -147 181q-74 0 -111 -47t-37 -135q0 -89 38 -133t110 -44q147 0 147 178z" />
    <glyph glyph-name="uni0224" unicode="&#x224;" horiz-adv-x="463" 
d="M420 645l-336 -603h326v-127q0 -57 -29 -87t-77 -30q-52 0 -90 32l21 30q15 -11 31 -17t37 -6q28 0 44.5 18.5t16.5 58.5v86h-331v40l337 602h-303v42h353v-39z" />
    <glyph glyph-name="uni0225" unicode="&#x225;" horiz-adv-x="376" 
d="M346 486l-270 -446h264v-126q0 -56 -29 -86t-76 -30q-51 0 -91 32l21 29q17 -11 32 -17t36 -6q63 0 63 77v87h-271v36l270 446h-248v40h299v-36z" />
    <glyph glyph-name="uni0226" unicode="&#x226;" horiz-adv-x="514" 
d="M445 0l-56 193h-266l-57 -193h-45l207 684h58l207 -684h-48zM135 233h242l-121 413zM282.5 859q9.5 -10 9.5 -24q0 -15 -9.5 -24.5t-25.5 -9.5q-15 0 -24.5 10t-9.5 24t9.5 24t24.5 10q16 0 25.5 -10z" />
    <glyph glyph-name="uni0227" unicode="&#x227;" horiz-adv-x="482" 
d="M394 48q9 -18 30 -27l-10 -32q-32 8 -48.5 29t-19.5 61q-51 -90 -147 -90q-68 0 -107 42.5t-39 113.5q0 80 52.5 123.5t145.5 43.5h89v60q0 62 -25.5 91.5t-83.5 29.5q-57 0 -130 -30l-13 35q81 34 147 34q150 0 150 -157v-272q0 -37 9 -55zM340 127v150h-84
q-155 0 -155 -131q0 -57 27.5 -88t75.5 -31q90 0 136 100zM258.5 733q9.5 -10 9.5 -24q0 -15 -9.5 -24.5t-25.5 -9.5q-15 0 -24.5 10t-9.5 24t9.5 24t24.5 10q16 0 25.5 -10z" />
    <glyph glyph-name="uni0228" unicode="&#x228;" horiz-adv-x="454" 
d="M268 0v-68q82 -7 82 -73q0 -38 -26 -59.5t-64 -21.5q-41 0 -70 20l16 29q24 -15 53 -15q22 0 36.5 12t14.5 35t-19.5 34.5t-61.5 11.5l7 95h-134v684h308l-6 -41h-255v-266h221v-40h-221v-297h266v-40h-147z" />
    <glyph glyph-name="uni0229" unicode="&#x229;" horiz-adv-x="481" 
d="M425 241h-319q4 -110 44.5 -161t107.5 -51q38 0 66.5 12t60.5 39l23 -28q-31 -28 -63.5 -44t-72.5 -19v-57q82 -7 82 -73q0 -38 -26 -59.5t-64 -21.5q-41 0 -70 20l16 29q24 -15 53 -15q22 0 36.5 12t14.5 35t-19.5 34.5t-61.5 11.5l6 85q-84 7 -132 76t-48 191
q0 130 50.5 202.5t137.5 72.5q88 0 134 -65.5t46 -184.5q0 -21 -2 -41zM382 297q0 94 -33 145t-101 51q-62 0 -100 -52t-42 -164h276v20z" />
    <glyph glyph-name="uni022A" unicode="&#x22a;" horiz-adv-x="623" 
d="M493 604.5q67 -89.5 67 -263.5q0 -170 -66.5 -261t-182.5 -91q-74 0 -130.5 40t-87.5 119t-31 192q0 114 31 193.5t87.5 120t130.5 40.5q115 0 182 -89.5zM164.5 575q-53.5 -78 -53.5 -235q0 -154 54 -232t146 -78q96 0 148.5 77t52.5 234q0 158 -53 235t-148 77
q-93 0 -146.5 -78zM252 799.5q9 -9.5 9 -23.5t-9 -23.5t-24 -9.5q-14 0 -23 9.5t-9 23.5t9 23.5t23 9.5q15 0 24 -9.5zM417 799.5q9 -9.5 9 -23.5t-9 -23.5t-23 -9.5t-23.5 9.5t-9.5 23.5t9.5 23.5t23.5 9.5t23 -9.5zM417 870h-209v37h209v-37z" />
    <glyph glyph-name="uni022B" unicode="&#x22b;" horiz-adv-x="511" 
d="M400.5 463.5q51.5 -68.5 51.5 -200.5q0 -131 -52.5 -202.5t-144.5 -71.5t-144 71.5t-52 199.5q0 130 53 201t144 71q93 0 144.5 -68.5zM145.5 435q-39.5 -58 -39.5 -175q0 -114 39 -172.5t110 -58.5q72 0 111 58.5t39 175.5q0 115 -38.5 172.5t-110.5 57.5
q-71 0 -110.5 -58zM197 692.5q9 -9.5 9 -23.5t-9 -23.5t-24 -9.5q-14 0 -23 9.5t-9 23.5t9 23.5t23 9.5q15 0 24 -9.5zM362 692.5q9 -9.5 9 -23.5t-9 -23.5t-23 -9.5t-23.5 9.5t-9.5 23.5t9.5 23.5t23.5 9.5t23 -9.5zM361 767h-209v37h209v-37z" />
    <glyph glyph-name="uni022C" unicode="&#x22c;" horiz-adv-x="623" 
d="M493 604.5q67 -89.5 67 -263.5q0 -170 -66.5 -261t-182.5 -91q-74 0 -130.5 40t-87.5 119t-31 192q0 114 31 193.5t87.5 120t130.5 40.5q115 0 182 -89.5zM164.5 575q-53.5 -78 -53.5 -235q0 -154 54 -232t146 -78q96 0 148.5 77t52.5 234q0 158 -53 235t-148 77
q-93 0 -146.5 -78zM334 764.5q-14 6.5 -32 18.5q-14 10 -24 14.5t-19 4.5q-15 0 -27 -9t-25 -29l-27 15q33 59 78 59q14 0 27 -6t30 -17t27.5 -16t21.5 -5q14 0 25.5 10t25.5 33l28 -14q-30 -65 -78 -65q-17 0 -31 6.5zM413 888h-209v37h209v-37z" />
    <glyph glyph-name="uni022D" unicode="&#x22d;" horiz-adv-x="511" 
d="M400.5 463.5q51.5 -68.5 51.5 -200.5q0 -131 -52.5 -202.5t-144.5 -71.5t-144 71.5t-52 199.5q0 130 53 201t144 71q93 0 144.5 -68.5zM145.5 435q-39.5 -58 -39.5 -175q0 -114 39 -172.5t110 -58.5q72 0 111 58.5t39 175.5q0 115 -38.5 172.5t-110.5 57.5
q-71 0 -110.5 -58zM279 609.5q-14 6.5 -32 18.5q-14 10 -24 14.5t-19 4.5q-15 0 -27 -9t-25 -29l-27 15q33 59 78 59q14 0 27 -6t30 -17t27.5 -16t21.5 -5q14 0 25.5 10t25.5 33l28 -14q-30 -65 -78 -65q-17 0 -31 6.5zM361 734h-209v37h209v-37z" />
    <glyph glyph-name="uni022E" unicode="&#x22e;" horiz-adv-x="623" 
d="M493 604.5q67 -89.5 67 -263.5q0 -170 -66.5 -261t-182.5 -91q-74 0 -130.5 40t-87.5 119t-31 192q0 114 31 193.5t87.5 120t130.5 40.5q115 0 182 -89.5zM164.5 575q-53.5 -78 -53.5 -235q0 -154 54 -232t146 -78q96 0 148.5 77t52.5 234q0 158 -53 235t-148 77
q-93 0 -146.5 -78zM336.5 859q9.5 -10 9.5 -24q0 -15 -9.5 -24.5t-25.5 -9.5q-15 0 -24.5 10t-9.5 24t9.5 24t24.5 10q16 0 25.5 -10z" />
    <glyph glyph-name="uni022F" unicode="&#x22f;" horiz-adv-x="511" 
d="M400.5 463.5q51.5 -68.5 51.5 -200.5q0 -131 -52.5 -202.5t-144.5 -71.5t-144 71.5t-52 199.5q0 130 53 201t144 71q93 0 144.5 -68.5zM145.5 435q-39.5 -58 -39.5 -175q0 -114 39 -172.5t110 -58.5q72 0 111 58.5t39 175.5q0 115 -38.5 172.5t-110.5 57.5
q-71 0 -110.5 -58zM280.5 733q9.5 -10 9.5 -24q0 -15 -9.5 -24.5t-25.5 -9.5q-15 0 -24.5 10t-9.5 24t9.5 24t24.5 10q16 0 25.5 -10z" />
    <glyph glyph-name="uni0230" unicode="&#x230;" horiz-adv-x="623" 
d="M493 604.5q67 -89.5 67 -263.5q0 -170 -66.5 -261t-182.5 -91q-74 0 -130.5 40t-87.5 119t-31 192q0 114 31 193.5t87.5 120t130.5 40.5q115 0 182 -89.5zM164.5 575q-53.5 -78 -53.5 -235q0 -154 54 -232t146 -78q96 0 148.5 77t52.5 234q0 158 -53 235t-148 77
q-93 0 -146.5 -78zM336.5 802q9.5 -10 9.5 -24q0 -15 -9.5 -24.5t-25.5 -9.5q-15 0 -24.5 10t-9.5 24t9.5 24t24.5 10q16 0 25.5 -10zM416 869h-209v37h209v-37z" />
    <glyph glyph-name="uni0231" unicode="&#x231;" horiz-adv-x="511" 
d="M400.5 463.5q51.5 -68.5 51.5 -200.5q0 -131 -52.5 -202.5t-144.5 -71.5t-144 71.5t-52 199.5q0 130 53 201t144 71q93 0 144.5 -68.5zM145.5 435q-39.5 -58 -39.5 -175q0 -114 39 -172.5t110 -58.5q72 0 111 58.5t39 175.5q0 115 -38.5 172.5t-110.5 57.5
q-71 0 -110.5 -58zM281.5 683q9.5 -10 9.5 -24q0 -15 -9.5 -24.5t-25.5 -9.5q-15 0 -24.5 10t-9.5 24t9.5 24t24.5 10q16 0 25.5 -10zM361 754h-209v37h209v-37z" />
    <glyph glyph-name="uni0232" unicode="&#x232;" horiz-adv-x="464" 
d="M450 684l-194 -415v-269h-46v268l-196 416h50l170 -373l167 373h49zM337 806h-209v37h209v-37z" />
    <glyph glyph-name="uni0233" unicode="&#x233;" horiz-adv-x="420" 
d="M240 -2q-19 -60 -40.5 -98t-56 -62.5t-88.5 -38.5l-5 35q46 14 72.5 34t42.5 49.5t33 82.5h-16l-165 522h48l147 -487l143 487h48zM316 680h-209v37h209v-37z" />
    <glyph glyph-name="uni0234" unicode="&#x234;" horiz-adv-x="325" 
d="M325.5 168q24.5 -25 24.5 -64q0 -52 -36.5 -83.5t-92.5 -31.5q-48 0 -80 25l-34 -75l-32 14l41 86q-23 35 -23 80v616l45 6v-624q0 -11 2 -27q24 51 51.5 77t69.5 26q40 0 64.5 -25zM285 48.5q23 19.5 23 55.5q0 24 -13 38.5t-36 14.5q-32 0 -52.5 -23.5t-47.5 -82.5
q20 -22 63 -22q40 0 63 19.5z" />
    <glyph glyph-name="uni0235" unicode="&#x235;" horiz-adv-x="619" 
d="M620 168q24 -25 24 -64q0 -52 -36 -83.5t-92 -31.5q-48 0 -80 25l-35 -75l-32 14l41 87q-23 33 -23 79v252q0 123 -91 123q-46 0 -83.5 -30t-69.5 -85v-379h-45v522h39l4 -94q65 104 162 104q63 0 96 -40.5t33 -114.5v-260q0 -10 2 -28q25 52 52.5 78t69.5 26
q40 0 64 -25zM580 48.5q23 19.5 23 55.5q0 24 -13.5 38.5t-35.5 14.5q-32 0 -53.5 -24t-47.5 -82q20 -22 64 -22q40 0 63 19.5z" />
    <glyph glyph-name="uni0236" unicode="&#x236;" horiz-adv-x="328" 
d="M328.5 167.5q24.5 -25.5 24.5 -64.5q0 -52 -35.5 -83t-91.5 -31q-48 0 -81 24l-35 -74l-32 14l41 86q-23 35 -23 80v365h-77v38h77v127l45 5v-132h124l-6 -38h-118v-368q0 -9 2 -27q24 51 52 77.5t69 26.5q40 0 64.5 -25.5zM289 48.5q23 19.5 23 54.5q0 25 -13.5 39.5
t-36.5 14.5q-31 0 -52.5 -24t-47.5 -82q22 -22 65 -22q39 0 62 19.5z" />
    <glyph glyph-name="uni0237" unicode="&#x237;" horiz-adv-x="241" 
d="M143 -2q0 -58 -13 -94t-38 -58.5t-69 -45.5l-15 32q35 20 53.5 38.5t27.5 48t9 79.5v524h45v-524z" />
    <glyph glyph-name="uni0238" unicode="&#x238;" horiz-adv-x="763" 
d="M659.5 464.5q42.5 -67.5 42.5 -200.5q0 -131 -44.5 -203t-122.5 -72q-41 0 -75.5 26t-54.5 63l-5 -78h-33l-5 77q-22 -39 -55.5 -63.5t-77.5 -24.5q-76 0 -122 70.5t-46 199.5q0 84 21.5 145.5t61.5 94.5t93 33q75 0 124 -78v281l45 6v-290q57 81 134 81t119.5 -67.5z
M305 53q30 25 56 74v283q-29 41 -56 62t-63 21q-58 0 -95.5 -59t-37.5 -171q0 -116 34 -175.5t92 -59.5q40 0 70 25zM621 86.5q33 58.5 33 177.5t-31 174t-89 55q-40 0 -69.5 -22t-58.5 -64v-277q49 -102 124 -102q58 0 91 58.5z" />
    <glyph glyph-name="uni0239" unicode="&#x239;" horiz-adv-x="763" 
d="M661 464.5q41 -67.5 41 -200.5q0 -132 -44 -203.5t-124 -71.5q-39 0 -72 23t-56 62v-269l-45 -7v274q-53 -83 -132 -83q-76 0 -122 70.5t-46 199.5q0 83 22 145t62 95t93 33q76 0 126 -84l3 74h33l4 -75q57 85 140 85q76 0 117 -67.5zM305 52.5q30 24.5 56 73.5v275
q-52 92 -119 92q-58 0 -95.5 -59t-37.5 -171q0 -116 33.5 -175.5t91.5 -59.5q41 0 71 24.5zM621 87q33 58 33 177q0 229 -116 229q-41 0 -72 -23.5t-60 -67.5v-274q48 -99 122 -99q60 0 93 58z" />
    <glyph glyph-name="uni023A" unicode="&#x23a;" horiz-adv-x="514" 
d="M446 0l-57 193h-142l-62 -263l-27 7l61 256h-96l-57 -193h-45l207 684h58l28 -91l35 149l27 -6l-46 -196l163 -540h-47zM134 232h94l67 283l-39 133zM257 232h121l-67 229z" />
    <glyph glyph-name="uni023B" unicode="&#x23b;" horiz-adv-x="493" 
d="M310 -11q-45 0 -83 15l-18 -74l-27 7l19 79q-65 37 -102 119.5t-37 206.5q0 117 33 196t89 117.5t126 38.5q25 0 50 -5l13 53l27 -6l-13 -54q38 -13 79 -49l-26 -30q-32 28 -62 39l-141 -594q33 -16 74 -16q44 0 74 14t61 41l27 -30q-70 -68 -163 -68zM137.5 165.5
q26.5 -69.5 74.5 -103.5l139 588q-18 3 -38 3q-91 0 -146.5 -75t-55.5 -236q0 -107 26.5 -176.5z" />
    <glyph glyph-name="uni023C" unicode="&#x23c;" horiz-adv-x="417" 
d="M258 -11q-36 0 -65 10l-17 -69l-26 6l18 74q-52 28 -80.5 91t-28.5 157q0 130 54 202t145 72q20 0 38 -3l15 62l26 -7l-15 -62q32 -11 65 -41l-23 -30q-24 23 -52 33l-109 -445q24 -10 55 -10q59 0 110 44l23 -28q-59 -56 -133 -56zM179 53l107 438q-16 2 -27 2
q-70 0 -111 -58.5t-41 -176.5q0 -154 72 -205z" />
    <glyph glyph-name="uni023D" unicode="&#x23d;" horiz-adv-x="440" 
d="M165 43h258l-7 -43h-298v343h-92v40h92v301h47v-301h94v-40h-94v-300z" />
    <glyph glyph-name="uni023E" unicode="&#x23e;" horiz-adv-x="440" 
d="M426 641h-101l-82 -285v-356h-46v195l-76 -265l-27 8l103 358v345h-184v43h296l17 60l26 -8l-15 -52h94zM243 456l53 185h-53v-185z" />
    <glyph glyph-name="uni023F" unicode="&#x23f;" horiz-adv-x="419" 
d="M371 -175q-29 -27 -72 -27q-26 0 -44.5 11t-32 28t-35.5 52q-31 50 -63.5 89.5t-84.5 77.5l21 27q41 -29 72 -42t73 -13q53 0 86 28.5t33 79.5q0 34 -11 54.5t-38 36t-78 32.5q-76 24 -108 56t-32 84q0 58 43.5 95.5t109.5 37.5q43 0 78.5 -14t69.5 -43l-23 -29
q-31 25 -59.5 36.5t-63.5 11.5q-49 0 -79.5 -26t-30.5 -70q0 -38 26.5 -61t92.5 -44q81 -26 115 -60t34 -95q0 -44 -21.5 -78t-58.5 -52.5t-81 -18.5q-28 0 -55 9q20 -19 35 -40t32 -50q24 -39 40 -55.5t39 -16.5q16 0 28 4t24 13z" />
    <glyph glyph-name="uni0240" unicode="&#x240;" horiz-adv-x="373" 
d="M256 -182q-24 20 -54 62q-26 35 -46 56.5t-53 39.5t-78 24v36l270 446h-248v40h299v-36l-275 -456q56 -11 90 -41.5t68 -80.5q27 -38 45.5 -55t45.5 -17t52 17l18 -29q-29 -26 -72 -26q-38 0 -62 20z" />
    <glyph glyph-name="uni0241" unicode="&#x241;" horiz-adv-x="412" 
d="M141 299l64 18q63 18 95.5 57t32.5 117q0 73 -37 117.5t-102 44.5q-44 0 -81 -18t-73 -52l-27 28q42 42 85.5 62.5t96.5 20.5q86 0 136 -56.5t50 -145.5q0 -96 -42 -142t-117 -67l-35 -10v-273h-46v299z" />
    <glyph glyph-name="uni0242" unicode="&#x242;" horiz-adv-x="381" 
d="M115 181l64 18q112 32 112 151q0 66 -34 104t-93 38q-41 0 -71.5 -15t-60.5 -42l-26 28q35 33 72.5 51t87.5 18q78 0 125.5 -50t47.5 -131q0 -145 -143 -186l-36 -9v-156h-45v181z" />
    <glyph glyph-name="uni0243" unicode="&#x243;" horiz-adv-x="537" 
d="M446 313q41 -42 41 -125q0 -92 -57.5 -140t-161.5 -48h-165v177h-81v38h81v469h132q107 0 165 -43.5t58 -126.5q0 -64 -32 -101.5t-90 -49.5q69 -8 110 -50zM150 644v-264h121q65 0 102 35.5t37 95.5q0 133 -169 133h-91zM394.5 76.5q44.5 36.5 44.5 111.5q0 77 -43 115
t-120 38h-126v-126h161v-38h-161v-137h118q82 0 126.5 36.5z" />
    <glyph glyph-name="uni0244" unicode="&#x244;" horiz-adv-x="603" 
d="M558 516h-57v-324q0 -91 -51 -147t-148 -56q-98 0 -148.5 56t-50.5 147v324h-58v35h58v133h47v-133h304v133h47v-133h57v-35zM454 516h-304v-320q0 -78 37.5 -121.5t114.5 -43.5q78 0 115 44t37 121v320z" />
    <glyph glyph-name="uni0245" unicode="&#x245;" horiz-adv-x="514" 
d="M286 684l207 -684h-48l-189 646l-189 -646h-46l207 684h58z" />
    <glyph glyph-name="uni0246" unicode="&#x246;" horiz-adv-x="454" 
d="M415 40v-40h-217l-17 -70l-26 6l15 64h-68v684h229l14 58l26 -6l-12 -52h51l-6 -41h-55l-63 -266h84v-40h-93l-70 -297h208zM149 643v-266h110l63 266h-173zM149 40h31l70 297h-101v-297z" />
    <glyph glyph-name="uni0247" unicode="&#x247;" horiz-adv-x="481" 
d="M249 241l-50 -200q27 -12 59 -12q38 0 66.5 12.5t60.5 39.5l23 -28q-34 -32 -70 -48t-81 -16q-35 0 -68 11l-17 -70l-26 6l19 76q-51 28 -78.5 90.5t-27.5 154.5q0 129 51 202t137 73q22 0 45 -5l16 64l26 -7l-16 -65q54 -24 81.5 -84.5t27.5 -152.5q0 -21 -2 -41h-176z
M148 441q-38 -52 -42 -164h124l53 212q-15 4 -35 4q-62 0 -100 -52zM308 479l-50 -202h124v20q0 144 -74 182zM221 241h-115q6 -136 69 -186z" />
    <glyph glyph-name="uni0248" unicode="&#x248;" horiz-adv-x="274" 
d="M254 323h-93v-233q0 -57 -12.5 -92.5t-41.5 -60.5t-81 -49l-13 33q42 23 63.5 44t30 50t8.5 77v231h-94v40h94v321h46v-321h93v-40z" />
    <glyph glyph-name="uni0249" unicode="&#x249;" horiz-adv-x="264" 
d="M251 226h-93v-228q0 -58 -13 -94t-38 -58.5t-69 -45.5l-15 32q35 20 53.5 38.5t27.5 48t9 79.5v228h-96v38h96v258h45v-258h93v-38zM159.5 733q9.5 -10 9.5 -24q0 -15 -9.5 -24.5t-25.5 -9.5q-15 0 -24.5 10t-9.5 24t9.5 24t24.5 10q16 0 25.5 -10z" />
    <glyph glyph-name="uni024A" unicode="&#x24a;" horiz-adv-x="594" 
d="M639 -170q-38 -32 -90 -32q-48 0 -77 30t-29 87v86h1v58q-59 -70 -150 -70q-66 0 -118.5 37.5t-83 114t-30.5 188.5q0 119 30.5 201t83.5 123t120 41q92 0 150 -66l3 56h41v-770q0 -40 16.5 -58.5t44.5 -18.5q21 0 36 6t31 17zM444 108v473q-55 72 -144 72
q-85 0 -137 -80t-52 -244q0 -151 51.5 -225t134.5 -74q90 0 147 78z" />
    <glyph glyph-name="uni024B" unicode="&#x24b;" horiz-adv-x="522" 
d="M510 -190q-22 -12 -51 -12q-36 0 -58 22.5t-22 65.5v190q-50 -87 -139 -87q-83 0 -131 71.5t-48 198.5q0 82 22.5 144t64.5 95.5t99 33.5q47 0 79 -20.5t56 -54.5l4 65h38v-636q0 -49 41 -49q16 0 33 7zM321.5 53.5q31.5 25.5 57.5 74.5v284q-50 81 -127 81
q-64 0 -103.5 -60t-39.5 -170q0 -114 36 -174.5t100 -60.5q45 0 76.5 25.5z" />
    <glyph glyph-name="uni024C" unicode="&#x24c;" horiz-adv-x="528" 
d="M444 0l-164 314l-17 -1h-113v-313h-47v313h-81v40h81v331h136q226 0 226 -183q0 -72 -36 -116.5t-102 -61.5l170 -323h-53zM373.5 389q42.5 36 42.5 112q0 72 -41.5 107.5t-138.5 35.5h-86v-291h95q86 0 128.5 36z" />
    <glyph glyph-name="uni024D" unicode="&#x24d;" horiz-adv-x="344" 
d="M332 526l-9 -41q-20 5 -40 5q-49 0 -79.5 -39t-50.5 -121v-30h94v-36h-94v-264h-45v264h-94v36h94v222h39l3 -113q20 62 53 92.5t83 30.5q22 0 46 -6z" />
    <glyph glyph-name="uni024E" unicode="&#x24e;" horiz-adv-x="465" 
d="M451 591v-35h-61l-134 -287v-269h-46v268l-136 288h-59v35h43l-44 93h50l42 -93h253l42 93h49l-43 -93h44zM234 310l110 246h-222z" />
    <glyph glyph-name="uni024F" unicode="&#x24f;" horiz-adv-x="413" 
d="M356 383h43v-35h-54l-109 -350q-19 -60 -40.5 -98t-56 -62.5t-88.5 -38.5l-5 35q46 14 72.5 34t42.5 49.5t33 82.5h-16l-110 348h-54v35h43l-44 139h48l42 -139h207l41 139h48zM208 35l92 313h-186z" />
    <glyph glyph-name="uni0250" unicode="&#x250;" horiz-adv-x="482" 
d="M381 59l13 -35q-81 -34 -147 -34q-150 0 -150 157v272q0 37 -9 55t-30 27l10 32q32 -8 48.5 -29t19.5 -61q51 90 147 90q68 0 107 -42.5t39 -113.5q0 -80 -52.5 -123.5t-145.5 -43.5h-89v-60q0 -62 25.5 -91.5t83.5 -29.5q57 0 130 30zM142 395v-150h84q155 0 155 131
q0 57 -27.5 88t-75.5 31q-90 0 -136 -100z" />
    <glyph glyph-name="uni0251" unicode="&#x251;" horiz-adv-x="522" 
d="M431.5 57q9.5 -17 33.5 -27l-14 -37q-34 12 -50.5 31.5t-21.5 51.5q-21 -39 -56 -63t-83 -24q-85 0 -133 70t-48 200q0 84 23 145.5t65.5 94.5t99.5 33q84 0 132 -74l4 64h39v-412q0 -36 9.5 -53zM321 53q31 25 56 76v284q-24 37 -54 58.5t-72 21.5q-65 0 -104.5 -59
t-39.5 -171q0 -118 35.5 -176.5t101.5 -58.5q46 0 77 25z" />
    <glyph glyph-name="uni0252" unicode="&#x252;" horiz-adv-x="522" 
d="M415 463q48 -70 48 -200q0 -84 -23 -145.5t-65.5 -94.5t-99.5 -33q-84 0 -132 74l-4 -64h-39v412q0 36 -9.5 53t-33.5 27l14 37q34 -12 50.5 -31.5t21.5 -51.5q21 39 56 63t83 24q85 0 133 -70zM375.5 88q39.5 59 39.5 171q0 118 -35.5 176.5t-101.5 58.5q-46 0 -77 -25
t-56 -76v-284q24 -37 54 -58.5t72 -21.5q65 0 104.5 59z" />
    <glyph glyph-name="uni0253" unicode="&#x253;" horiz-adv-x="518" 
d="M412.5 464q44.5 -68 44.5 -200q0 -131 -46.5 -203t-131.5 -72q-43 0 -78 22t-60 57l-4 -68h-39v614q0 60 33.5 93.5t92.5 33.5q56 0 109 -29l-16 -33q-46 23 -90 23q-42 0 -63 -21.5t-21 -68.5v-164q57 84 144 84q81 0 125.5 -68zM374 86.5q35 58.5 35 177.5
q0 118 -33 173.5t-96 55.5q-44 0 -76.5 -23.5t-60.5 -68.5v-286q53 -87 130 -87q66 0 101 58.5z" />
    <glyph glyph-name="uni0254" unicode="&#x254;" horiz-adv-x="416" 
d="M26 47l24 28q27 -23 53.5 -34.5t60.5 -11.5q68 0 106.5 58t38.5 176q0 117 -36 173.5t-103 56.5q-36 0 -62.5 -10t-54.5 -33l-23 28q58 54 140 54q88 0 137 -68t49 -201q0 -132 -51.5 -203t-140.5 -71q-77 0 -138 58z" />
    <glyph glyph-name="uni0255" unicode="&#x255;" horiz-adv-x="430" 
d="M379.5 183.5q25.5 -27.5 25.5 -71.5q0 -56 -38.5 -89.5t-105.5 -33.5q-45 0 -85 20l-29 -70l-33 13l32 75q-42 33 -64.5 91.5t-22.5 139.5q0 130 54 202t145 72q38 0 69 -12t60 -39l-23 -30q-24 21 -48.5 31.5t-56.5 10.5q-70 0 -111 -58.5t-41 -176.5q0 -133 57 -190
q30 77 64 110t81 33q45 0 70.5 -27.5zM336 49.5q28 19.5 28 62.5q0 30 -14.5 46.5t-42.5 16.5q-35 0 -60.5 -28t-54.5 -100q31 -17 72 -17q44 0 72 19.5z" />
    <glyph glyph-name="uni0256" unicode="&#x256;" horiz-adv-x="522" 
d="M575 -170q-38 -32 -90 -32q-48 0 -77 29.5t-29 86.5v164q-49 -89 -141 -89q-82 0 -129.5 71.5t-47.5 198.5q0 82 22.5 144t64.5 95.5t99 33.5q81 0 132 -71v280l45 -6v-822q0 -77 63 -77q21 0 36 6t32 17zM321.5 53.5q32.5 25.5 57.5 76.5v281q-24 38 -54.5 60t-72.5 22
q-65 0 -104 -59.5t-39 -170.5q0 -115 35.5 -175t98.5 -60q46 0 78.5 25.5z" />
    <glyph glyph-name="uni0257" unicode="&#x257;" horiz-adv-x="522" 
d="M575 708l-20 -29q-17 11 -32 17t-36 6q-62 0 -62 -80v-101h-1v-521h-39l-4 81q-49 -92 -143 -92q-82 0 -129.5 71.5t-47.5 198.5q0 82 22.5 144t64.5 95.5t99 33.5q81 0 132 -71v63h1v97q0 59 28.5 89.5t77.5 30.5q50 0 89 -33zM321.5 53.5q32.5 25.5 57.5 76.5v281
q-24 38 -54.5 60t-72.5 22q-65 0 -104 -59.5t-39 -170.5q0 -115 35.5 -175t98.5 -60q46 0 78.5 25.5z" />
    <glyph glyph-name="uni0258" unicode="&#x258;" horiz-adv-x="481" 
d="M374.5 463q47.5 -69 47.5 -206q0 -128 -53 -198t-145 -70q-45 0 -81.5 16t-69.5 47l23 28q32 -27 60 -39t68 -12q67 0 107 51t44 161h-319q-2 20 -2 41q0 119 47.5 184.5t135.5 65.5q90 0 137.5 -69zM99 277h276q-3 117 -38.5 166.5t-99.5 49.5q-68 0 -103 -51.5
t-35 -144.5v-20z" />
    <glyph glyph-name="uni0259" unicode="&#x259;" horiz-adv-x="485" 
d="M378.5 465.5q47.5 -66.5 47.5 -201.5q0 -140 -50 -207.5t-138 -67.5q-86 0 -135 66.5t-49 189.5q0 16 2 36h323q-4 212 -139 212q-37 0 -67.5 -12t-64.5 -37l-22 30q67 58 154 58q91 0 138.5 -66.5zM342 78.5q36 50.5 37 165.5h-280v-6q0 -105 36 -157.5t103 -52.5
q68 0 104 50.5z" />
    <glyph glyph-name="uni025A" unicode="&#x25a;" horiz-adv-x="641" 
d="M668 359q-38 -32 -89 -32q-48 0 -76 29t-28 84v42l-80 -44q31 -67 31 -174q0 -140 -50 -207.5t-138 -67.5q-86 0 -135 66.5t-49 189.5q0 16 2 36h323q-4 212 -139 212q-37 0 -67.5 -12t-64.5 -37l-22 30q67 58 154 58q90 0 136 -64l99 54h43v-78q0 -79 63 -79q21 0 36 6
t31 17zM342 78.5q36 50.5 37 165.5h-280v-6q0 -105 36 -157.5t103 -52.5q68 0 104 50.5z" />
    <glyph glyph-name="uni025B" unicode="&#x25b;" horiz-adv-x="412" 
d="M313 520q34 -12 63 -34l-22 -30q-27 18 -54 27.5t-63 9.5q-54 0 -83.5 -26.5t-29.5 -72.5q0 -45 31.5 -73.5t84.5 -28.5h53l-6 -38h-51q-66 0 -98 -28t-32 -86q0 -53 34 -82t92 -29q43 0 72.5 13t60.5 39l24 -29q-66 -63 -159 -63q-76 0 -123.5 40.5t-47.5 110.5
q0 62 32.5 95.5t87.5 40.5q-101 24 -101 119q0 63 43.5 100t112.5 37q45 0 79 -12z" />
    <glyph glyph-name="uni025C" unicode="&#x25c;" horiz-adv-x="430" 
d="M304 495.5q42 -36.5 42 -99.5q0 -50 -25.5 -78.5t-75.5 -39.5q61 -7 93 -37.5t32 -90.5q0 -77 -48 -119t-127 -42q-99 0 -172 69l25 27q33 -28 66.5 -42t79.5 -14q60 0 94.5 29t34.5 92q0 57 -36 81.5t-107 24.5h-52l3 37h43q62 0 94 26.5t32 75.5q0 46 -28.5 72
t-78.5 26q-41 0 -70 -10.5t-63 -33.5l-22 29q36 27 73.5 40.5t84.5 13.5q66 0 108 -36.5z" />
    <glyph glyph-name="uni025D" unicode="&#x25d;" horiz-adv-x="588" 
d="M615 359q-38 -32 -89 -32q-48 0 -76 29t-28 84v42l-82 -45q6 -19 6 -41q0 -50 -25.5 -78.5t-75.5 -39.5q61 -7 93 -37.5t32 -90.5q0 -77 -48 -119t-127 -42q-99 0 -172 69l25 27q33 -28 66.5 -42t79.5 -14q60 0 94.5 29t34.5 92q0 57 -36 81.5t-107 24.5h-52l3 37h43
q62 0 94 26.5t32 75.5q0 46 -28.5 72t-78.5 26q-41 0 -70 -10.5t-63 -33.5l-22 29q36 27 73.5 40.5t84.5 13.5q43 0 77 -16t53 -46l96 52h43v-78q0 -79 63 -79q21 0 36 6t31 17z" />
    <glyph glyph-name="uni025E" unicode="&#x25e;" horiz-adv-x="500" 
d="M111.5 59q-52.5 70 -52.5 201t54 201.5t149 70.5q69 0 111.5 -38t42.5 -100q0 -96 -100 -116q60 -7 92 -37t32 -91q0 -77 -48 -119t-130 -42q-98 0 -150.5 70zM358.5 58q34.5 29 34.5 92q0 57 -35.5 81.5t-102.5 24.5h-33l3 37h23q59 0 90.5 26t31.5 74q0 45 -28.5 72.5
t-79.5 27.5q-75 0 -115.5 -57.5t-40.5 -175.5q0 -231 156 -231q62 0 96.5 29z" />
    <glyph glyph-name="uni025F" unicode="&#x25f;" horiz-adv-x="264" 
d="M251 226h-93v-228q0 -58 -13 -94t-38 -58.5t-69 -45.5l-15 32q35 20 53.5 38.5t27.5 48t9 79.5v228h-96v38h96v258h45v-258h93v-38z" />
    <glyph glyph-name="uni0260" unicode="&#x260;" horiz-adv-x="522" 
d="M575 708l-20 -29q-17 11 -32 17t-36 6q-62 0 -62 -80v-101h-1v-536q0 -187 -175 -187q-76 0 -132 36l18 31q23 -13 49.5 -21t62.5 -8q72 0 102 36.5t30 111.5v113q-49 -88 -140 -88q-82 0 -130 69t-48 191q0 119 50 191t137 72q80 0 131 -70v60h1v99q0 59 28.5 89.5
t77.5 30.5q50 0 89 -33zM321.5 73.5q31.5 25.5 57.5 77.5v260q-24 38 -54 60t-72 22q-65 0 -104.5 -57.5t-39.5 -162.5q0 -109 35.5 -167t98.5 -58q47 0 78.5 25.5z" />
    <glyph glyph-name="uni0261" unicode="&#x261;" horiz-adv-x="522" 
d="M424 522v-537q0 -187 -175 -187q-76 0 -132 36l18 31q23 -13 49.5 -21t62.5 -8q72 0 102 36.5t30 111.5v113q-49 -88 -140 -88q-82 0 -130 69t-48 191q0 119 50 191t137 72q82 0 134 -74l4 64h38zM321.5 73.5q31.5 25.5 57.5 77.5v260q-24 38 -54 60t-72 22
q-65 0 -104.5 -57.5t-39.5 -162.5q0 -109 35.5 -167t98.5 -58q47 0 78.5 25.5z" />
    <glyph glyph-name="uni0262" unicode="&#x262;" horiz-adv-x="498" 
d="M346 520.5q34 -13.5 67 -41.5l-26 -29q-28 23 -56.5 33.5t-61.5 10.5q-69 0 -116 -55.5t-47 -173.5q0 -125 42 -180t120 -55q61 0 109 28v185h-103l-5 39h152v-246q-68 -45 -153 -45q-98 0 -153.5 67t-55.5 207q0 88 28.5 148.5t76.5 90.5t105 30q43 0 77 -13.5z" />
    <glyph glyph-name="uni0263" unicode="&#x263;" horiz-adv-x="420" 
d="M235 50q28 -57 41 -96t13 -75q0 -37 -20.5 -59t-57.5 -22t-57.5 21.5t-20.5 59.5q0 34 13 74t40 96l-169 473h48l146 -439l145 439h47zM238.5 -61q-8.5 29 -27.5 78q-20 -49 -28.5 -77.5t-8.5 -58.5q0 -46 37 -46q36 0 36 46q0 29 -8.5 58z" />
    <glyph glyph-name="uni0264" unicode="&#x264;" horiz-adv-x="468" 
d="M464 507l-17 -29q-12 9 -21.5 13t-21.5 4q-15 0 -25.5 -10.5t-22.5 -37.5l-97 -231l1 -1q28 -50 40.5 -83t12.5 -62q0 -36 -20.5 -58.5t-56.5 -22.5t-57 22.5t-21 58.5q0 28 12.5 61.5t38.5 83.5l-98 232q-11 27 -22 37.5t-26 10.5q-12 0 -20.5 -4t-21.5 -13l-17 29
q29 25 62 25q31 0 51 -19t35 -59l82 -210l82 210q16 41 35.5 59.5t50.5 18.5q33 0 62 -25zM265 115q-8 21 -31 68q-20 -45 -27.5 -66.5t-7.5 -44.5q0 -45 37 -45t37 45q0 22 -8 43z" />
    <glyph glyph-name="uni0265" unicode="&#x265;" horiz-adv-x="525" 
d="M427 522v-724l-45 7v286q-66 -101 -160 -101q-62 0 -95.5 41t-33.5 113v378h45v-372q0 -122 91 -122q47 0 84 29.5t69 85.5v379h45z" />
    <glyph glyph-name="uni0266" unicode="&#x266;" horiz-adv-x="525" 
d="M399 490q33 -42 33 -118v-372h-45v366q0 66 -22.5 97t-68.5 31t-83.5 -30t-69.5 -85v-379h-45v614q0 60 33.5 93.5t92.5 33.5q56 0 109 -29l-16 -33q-46 23 -90 23q-42 0 -63 -21.5t-21 -68.5v-182q31 49 70 75.5t90 26.5q63 0 96 -42z" />
    <glyph glyph-name="uni0267" unicode="&#x267;" horiz-adv-x="525" 
d="M433 1v-87q0 -57 -29 -86.5t-77 -29.5q-52 0 -90 32l20 29q17 -11 32 -17t36 -6q63 0 63 77v87h-1v366q0 66 -22.5 97t-68.5 31t-83.5 -30t-69.5 -85v-379h-45v614q0 60 33.5 93.5t92.5 33.5q56 0 109 -29l-16 -33q-46 23 -90 23q-42 0 -63 -21.5t-21 -68.5v-182
q31 49 70 75.5t90 26.5q63 0 96 -42t33 -118v-371h1z" />
    <glyph glyph-name="uni0268" unicode="&#x268;" horiz-adv-x="262" 
d="M105.5 685q-9.5 10 -9.5 24t9.5 24t24.5 10q16 0 25.5 -10t9.5 -24q0 -15 -9.5 -24.5t-25.5 -9.5q-15 0 -24.5 10zM247 303v-39h-93v-264h-45v264h-95v39h95v219h45v-219h93z" />
    <glyph glyph-name="uni0269" unicode="&#x269;" horiz-adv-x="254" 
d="M114.5 11.5q-21.5 22.5 -21.5 64.5v446h45v-444q0 -49 40 -49q16 0 33 7l12 -34q-24 -13 -51 -13q-36 0 -57.5 22.5z" />
    <glyph glyph-name="uni026A" unicode="&#x26a;" horiz-adv-x="285" 
d="M260 484h-95v-446h95v-38h-234v38h94v446h-94v38h234v-38z" />
    <glyph glyph-name="uni026B" unicode="&#x26b;" horiz-adv-x="283" 
d="M161 328v-250q0 -49 40 -49q16 0 33 7l12 -34q-24 -13 -51 -13q-36 0 -57.5 22.5t-21.5 64.5v279q-28 15 -44 15q-20 0 -33 -10.5t-29 -33.5l-29 16q19 32 40.5 49.5t52.5 17.5q20 0 42 -10v336l45 6v-368q33 -20 53 -20q19 0 31.5 10.5t27.5 32.5l29 -16
q-19 -32 -39.5 -49t-50.5 -17q-23 0 -51 14z" />
    <glyph glyph-name="uni026C" unicode="&#x26c;" horiz-adv-x="287" 
d="M257 2q-24 -13 -51 -13q-36 0 -57.5 22.5t-21.5 64.5v195q-56 0 -86 23.5t-30 69.5q0 40 25.5 63.5t63.5 23.5q13 0 27 -2v286l45 6v-435q37 1 74 9l6 -32q-43 -10 -80 -11v-194q0 -49 40 -49q16 0 33 7zM127 306v109q-12 3 -25 3q-24 0 -38 -13.5t-14 -39.5
q0 -59 77 -59z" />
    <glyph glyph-name="uni026D" unicode="&#x26d;" horiz-adv-x="241" 
d="M293 -170q-38 -32 -90 -32q-48 0 -77 29.5t-29 86.5v87h1v734l45 6v-741h-1v-87q0 -77 63 -77q21 0 36 6t32 17z" />
    <glyph glyph-name="uni026E" unicode="&#x26e;" horiz-adv-x="559" 
d="M529 3q0 -92 -52.5 -148.5t-142.5 -56.5q-51 0 -90.5 18t-72.5 54l26 26q31 -31 63.5 -45t72.5 -14q72 0 110.5 44.5t38.5 121.5q0 83 -40.5 120t-127.5 37h-54v37l195 285h-317v-404q0 -49 40 -49q16 0 33 7l12 -34q-24 -13 -51 -13q-36 0 -57.5 22.5t-21.5 64.5v659
l45 6v-219h368v-36l-200 -288h10q213 0 213 -195z" />
    <glyph glyph-name="uni026F" unicode="&#x26f;" horiz-adv-x="766" 
d="M668 522v-522h-39l-4 91q-28 -47 -65 -74t-81 -27q-46 0 -76 28t-40 78q-29 -49 -66.5 -77.5t-82.5 -28.5q-57 0 -89 41.5t-32 113.5v377h44v-371q0 -61 21.5 -92t61.5 -31q76 0 138 113v381h45v-371q0 -61 21.5 -92t61.5 -31q76 0 137 113v381h45z" />
    <glyph glyph-name="uni0270" unicode="&#x270;" horiz-adv-x="766" 
d="M669 115v-317l-45 7v284q-28 -46 -64.5 -72.5t-80.5 -26.5q-46 0 -76 28t-40 78q-29 -49 -66.5 -77.5t-82.5 -28.5q-57 0 -89 41.5t-32 113.5v377h44v-371q0 -61 21.5 -92t61.5 -31q76 0 138 113v381h45v-371q0 -61 21.5 -92t61.5 -31q76 0 137 113v381h45v-407h1z" />
    <glyph glyph-name="uni0271" unicode="&#x271;" horiz-adv-x="766" 
d="M641 490.5q32 -41.5 32 -113.5v-462q0 -57 -29 -87t-76 -30q-52 0 -90 32l20 29q17 -11 32 -17t36 -6q63 0 63 77v458q0 61 -21.5 92t-61.5 31q-76 0 -138 -113v-381h-45v371q0 61 -21.5 92t-61.5 31q-76 0 -137 -113v-381h-45v522h39l4 -91q28 47 65 74t81 27
q46 0 76 -28t40 -78q29 49 66.5 77.5t82.5 28.5q57 0 89 -41.5z" />
    <glyph glyph-name="uni0272" unicode="&#x272;" horiz-adv-x="525" 
d="M399 491.5q33 -40.5 33 -114.5v-377h-45v371q0 123 -91 123q-46 0 -83.5 -30t-69.5 -85v-465q0 -57 -29 -86.5t-77 -29.5q-52 0 -90 32l20 29q17 -11 32 -17t36 -6q63 0 63 77v609h39l4 -94q65 104 162 104q63 0 96 -40.5z" />
    <glyph glyph-name="uni0273" unicode="&#x273;" horiz-adv-x="525" 
d="M583 -170q-38 -32 -90 -32q-48 0 -77 29.5t-29 86.5v457q0 123 -91 123q-46 0 -83.5 -30t-69.5 -85v-379h-45v522h39l4 -94q65 104 162 104q63 0 96 -40.5t33 -114.5v-464q0 -77 63 -77q21 0 36 6t32 17z" />
    <glyph glyph-name="uni0274" unicode="&#x274;" horiz-adv-x="530" 
d="M432 0h-58l-239 476q5 -73 5 -199v-277h-42v522h58l239 -477q-5 60 -5 171v306h42v-522z" />
    <glyph glyph-name="uni0275" unicode="&#x275;" horiz-adv-x="511" 
d="M400.5 463.5q51.5 -68.5 51.5 -200.5q0 -131 -52.5 -202.5t-144.5 -71.5t-144 71.5t-52 199.5q0 130 53 201t144 71q93 0 144.5 -68.5zM149.5 441q-39.5 -52 -43.5 -157h299q-4 105 -42 157t-107 52q-67 0 -106.5 -52zM363.5 82.5q38.5 54.5 41.5 163.5h-299
q2 -108 41 -163t108 -55q70 0 108.5 54.5z" />
    <glyph glyph-name="uni0276" unicode="&#x276;" horiz-adv-x="650" 
d="M613 0h-298q-30 -11 -60 -11q-92 0 -144 70.5t-52 200.5q0 131 52.5 201.5t144.5 70.5q33 0 62 -10h291l-5 -39h-229q33 -25 53 -73.5t24 -117.5h122v-38h-121q-3 -154 -84 -216h244v-38zM145 86.5q39 -57.5 110 -57.5t111 59.5t40 176.5q0 113 -40.5 170.5t-109.5 57.5
q-71 0 -110.5 -57.5t-39.5 -175.5q0 -116 39 -173.5z" />
    <glyph glyph-name="uni0277" unicode="&#x277;" horiz-adv-x="672" 
d="M545 454.5q68 -77.5 68 -218.5q0 -133 -43.5 -190t-112.5 -57q-51 0 -82.5 28t-38.5 83q-10 -55 -41 -83t-82 -28q-72 0 -113 60.5t-41 188.5q0 140 69 217t209 77t208 -77.5zM535.5 74q31.5 45 31.5 161q0 128 -55.5 193t-174.5 65t-175.5 -65t-56.5 -192
q0 -207 111 -207q98 0 98 144v135l44 7v-143q0 -76 25.5 -109.5t69.5 -33.5q51 0 82.5 45z" />
    <glyph glyph-name="uni0278" unicode="&#x278;" horiz-adv-x="562" 
d="M459.5 75.5q-54.5 -64.5 -156.5 -69.5v-201l-45 -7v208q-103 5 -156.5 70t-53.5 186q0 118 54.5 183.5t155.5 70.5v219l45 6v-225q103 -5 157 -69t54 -184q0 -123 -54.5 -187.5zM425 101q42 53 42 162q0 206 -165 215v-434q81 4 123 57zM260 44v434q-166 -11 -166 -216
q0 -210 166 -218z" />
    <glyph glyph-name="uni0279" unicode="&#x279;" horiz-adv-x="334" 
d="M236 522v-522h-39l-3 113q-20 -62 -53 -92.5t-83 -30.5q-22 0 -46 6l9 41q20 -5 40 -5q49 0 79.5 39t50.5 121v330h45z" />
    <glyph glyph-name="uni027A" unicode="&#x27a;" horiz-adv-x="334" 
d="M236 735v-735h-39l-3 113q-20 -62 -53 -92.5t-83 -30.5q-22 0 -46 6l9 41q20 -5 40 -5q49 0 79.5 39t50.5 121v549z" />
    <glyph glyph-name="uni027B" unicode="&#x27b;" horiz-adv-x="334" 
d="M387 -170q-38 -32 -90 -32q-48 0 -77 29.5t-29 86.5v191q-20 -58 -52.5 -86.5t-80.5 -28.5q-28 0 -46 6l9 41q18 -6 40 -6q49 0 79.5 39.5t50.5 121.5v330h45v-609q0 -77 63 -77q21 0 36 6t32 17z" />
    <glyph glyph-name="uni027C" unicode="&#x27c;" horiz-adv-x="334" 
d="M322 526l-9 -41q-20 5 -40 5q-49 0 -79.5 -39t-50.5 -121v-525l-45 -7v724h39l3 -113q20 62 53 92.5t83 30.5q22 0 46 -6z" />
    <glyph glyph-name="uni027D" unicode="&#x27d;" horiz-adv-x="334" 
d="M142 0v-87q0 -77 63 -77q21 0 36 6t32 17l20 -29q-38 -32 -90 -32q-48 0 -77 29.5t-29 86.5v87h1v521h39l3 -113q20 62 53 92.5t83 30.5q22 0 46 -6l-9 -41q-20 5 -40 5q-49 0 -79.5 -39t-50.5 -121v-330h-1z" />
    <glyph glyph-name="uni027E" unicode="&#x27e;" horiz-adv-x="303" 
d="M288 500l-20 -29q-17 11 -32 17t-36 6q-63 0 -63 -77v-87h1v-330h-45v329h-1v87q0 57 29 86.5t77 29.5q52 0 90 -32z" />
    <glyph glyph-name="uni027F" unicode="&#x27f;" horiz-adv-x="303" 
d="M211 329h-1v-329h-45v330h1v87q0 77 -63 77q-21 0 -36 -6t-32 -17l-20 29q38 32 90 32q48 0 77 -29.5t29 -86.5v-87z" />
    <glyph glyph-name="uni0280" unicode="&#x280;" horiz-adv-x="474" 
d="M372 0l-130 223q-7 -1 -23 -1h-76v-222h-45v522h114q94 0 140.5 -39t46.5 -112q0 -54 -29 -91t-84 -51l136 -229h-50zM221 259q64 0 98 28t34 84q0 57 -33.5 84.5t-108.5 27.5h-68v-224h78z" />
    <glyph glyph-name="uni0281" unicode="&#x281;" horiz-adv-x="474" 
d="M370 243.5q29 -36.5 29 -91.5q0 -74 -46.5 -113t-140.5 -39h-114v522h45v-222h77q15 0 22 -1l130 223h50l-136 -229q55 -13 84 -49.5zM319.5 66q33.5 28 33.5 86q0 56 -33.5 83.5t-98.5 27.5h-78v-225h68q75 0 108.5 28z" />
    <glyph glyph-name="uni0282" unicode="&#x282;" horiz-adv-x="418" 
d="M82 27v-113q0 -40 17.5 -59t47.5 -19q21 0 35.5 6t31.5 17l20 -29q-38 -32 -88 -32t-79 30.5t-29 86.5v141l24 24q35 -26 67 -39t75 -13q53 0 86.5 28.5t33.5 79.5q0 34 -11 54.5t-38 36t-78 32.5q-76 24 -108 56t-32 84q0 58 43.5 95.5t109.5 37.5q43 0 78.5 -14
t69.5 -43l-23 -30q-31 26 -59 37.5t-64 11.5q-49 0 -79.5 -26t-30.5 -70q0 -38 26.5 -61t92.5 -44q81 -26 115 -60t34 -95q0 -67 -46.5 -108t-118.5 -41q-69 0 -123 38z" />
    <glyph glyph-name="uni0283" unicode="&#x283;" horiz-adv-x="241" 
d="M293 708l-20 -29q-17 11 -32 17t-36 6q-62 0 -62 -80v-708q0 -57 -29 -86.5t-77 -29.5q-52 0 -90 32l20 29q17 -11 32 -17t36 -6q63 0 63 77v708q0 59 28.5 89.5t77.5 30.5q50 0 89 -33z" />
    <glyph glyph-name="uni0284" unicode="&#x284;" horiz-adv-x="270" 
d="M158 521v-485h95v-36h-95v-2q0 -58 -12.5 -94t-37.5 -58.5t-70 -45.5l-14 32q34 20 52.5 38.5t27.5 48t9 78.5v3h-94v36h94v486h1v99q0 59 28.5 89.5t77.5 30.5q50 0 89 -33l-20 -29q-17 11 -32 17t-36 6q-62 0 -62 -80v-101h-1z" />
    <glyph glyph-name="uni0285" unicode="&#x285;" horiz-adv-x="351" 
d="M348 22q-38 -32 -90 -32q-48 0 -77 29.5t-29 86.5v87h1v119h-1v101q0 80 -62 80q-21 0 -36 -6t-32 -17l-20 29q39 33 89 33q49 0 77.5 -30.5t28.5 -89.5v-99h1v-121h-1v-87q0 -77 63 -77q21 0 36 6t32 17z" />
    <glyph glyph-name="uni0286" unicode="&#x286;" horiz-adv-x="255" 
d="M250 -58l-13 -29q-38 19 -80 33q-2 -71 -35 -109.5t-94 -38.5q-47 0 -74.5 25.5t-27.5 67.5q0 49 32.5 76t87.5 27q39 0 66 -6v633q0 59 28.5 89.5t77.5 30.5q50 0 89 -33l-20 -29q-17 11 -32 17t-36 6q-62 0 -62 -80v-642q55 -18 93 -38zM90.5 -138q20.5 30 21.5 92
q-29 7 -66 7q-40 0 -60.5 -18t-20.5 -50q0 -28 16.5 -44.5t46.5 -16.5q42 0 62.5 30z" />
    <glyph glyph-name="uni0287" unicode="&#x287;" horiz-adv-x="303" 
d="M284 0h-77v-127l-45 -5v132h-124l6 38h118v370q0 85 -72 85q-38 0 -74 -23l-19 31q43 32 97 32q53 0 83 -32t30 -91v-372h77v-38z" />
    <glyph glyph-name="uni0288" unicode="&#x288;" horiz-adv-x="311" 
d="M292 -170q-38 -32 -90 -32q-48 0 -77 29.5t-29 86.5v570h-77v38h77v127l45 5v-132h124l-6 -38h-118v-571q0 -77 63 -77q21 0 36 6t32 17z" />
    <glyph glyph-name="uni0289" unicode="&#x289;" horiz-adv-x="542" 
d="M510 347h-78v-347h-39l-2 94q-57 -105 -154 -105q-64 0 -99.5 40t-35.5 111v207h-79v36h79v139h45v-139h240v139h45v-139h78v-36zM387 347h-240v-203q0 -116 97 -116q46 0 80.5 29.5t62.5 83.5v206z" />
    <glyph glyph-name="uni028A" unicode="&#x28a;" horiz-adv-x="511" 
d="M112 53q-53 64 -53 180q0 87 24.5 145.5t68.5 104.5h-83v39h125v-38q-42 -52 -65 -108t-23 -142q0 -103 39 -154.5t110 -51.5t110 51.5t39 154.5q0 86 -23.5 144t-64.5 106v38h126v-39h-83q43 -45 68 -104.5t25 -145.5q0 -115 -52.5 -179.5t-144.5 -64.5q-90 0 -143 64z
" />
    <glyph glyph-name="uni028B" unicode="&#x28b;" horiz-adv-x="514" 
d="M135 30.5q-42 41.5 -42 116.5v375h45v-373q0 -61 28.5 -90.5t77.5 -29.5q63 0 102 51t39 164v200q0 25 -9 37t-30 12q-19 0 -34 -7l-12 34q24 12 52 12q37 0 57.5 -22t20.5 -67v-198q0 -127 -51.5 -191.5t-135.5 -64.5q-66 0 -108 41.5z" />
    <glyph glyph-name="uni028C" unicode="&#x28c;" horiz-adv-x="423" 
d="M18 0l162 522h56l170 -522h-49l-149 483l-143 -483h-47z" />
    <glyph glyph-name="uni028D" unicode="&#x28d;" horiz-adv-x="632" 
d="M28 0l117 522h60l110 -479l110 479h60l120 -522h-47l-104 483l-113 -483h-54l-112 484l-103 -484h-44z" />
    <glyph glyph-name="uni028E" unicode="&#x28e;" horiz-adv-x="420" 
d="M180 524q20 65 42 104.5t55.5 64t87.5 38.5l5 -35q-46 -14 -72 -34t-42 -51t-35 -89h18l164 -522h-48l-147 488l-143 -488h-48z" />
    <glyph glyph-name="uni028F" unicode="&#x28f;" horiz-adv-x="377" 
d="M371 522l-159 -313v-209h-45v208l-161 314h47l137 -279l134 279h47z" />
    <glyph glyph-name="uni0290" unicode="&#x290;" horiz-adv-x="377" 
d="M493 -170q-40 -32 -90 -32q-48 0 -77 29.5t-29 86.5v86h-272v36l270 446h-248v40h299v-36l-270 -446h266v-127q0 -77 63 -77q20 0 35 6t32 17z" />
    <glyph glyph-name="uni0291" unicode="&#x291;" horiz-adv-x="392" 
d="M369 27q-41 -26 -128 -27q-2 -44 -2 -64l1 -43h-36q-1 47 2 107h-181v36l270 446h-248v40h299v-36l-270 -446h133q7 78 37 119t79 41q37 0 61 -24.5t24 -65.5q0 -57 -41 -83zM246 40q68 -1 96 15t28 55q0 26 -12.5 40.5t-34.5 14.5q-66 0 -77 -125z" />
    <glyph glyph-name="uni0292" unicode="&#x292;" horiz-adv-x="411" 
d="M380 3q0 -92 -52 -148.5t-142 -56.5q-55 0 -97 21t-77 63l28 25q33 -37 67.5 -53.5t78.5 -16.5q71 0 109 44.5t38 122.5q0 83 -40 119.5t-127 36.5h-54v37l195 285h-276v40h327v-36l-200 -288h11q211 0 211 -195z" />
    <glyph glyph-name="uni0293" unicode="&#x293;" horiz-adv-x="411" 
d="M348.5 -110.5q-31.5 -49.5 -91.5 -73.5l24 -56l-34 -14l-25 60q-35 -8 -74 -8q-79 0 -119 30.5t-40 86.5q0 46 27 74.5t71 28.5q33 0 57.5 -14.5t48 -50.5t48.5 -101q93 38 93 155q0 80 -41 116.5t-128 36.5h-53v37l195 285h-276v40h327v-36l-200 -288h13q209 0 209 -191
q0 -68 -31.5 -117.5zM60.5 -145q31.5 -18 88.5 -18q28 0 58 5q-33 81 -58.5 110.5t-59.5 29.5q-28 0 -44 -17.5t-16 -48.5q0 -43 31.5 -61z" />
    <glyph glyph-name="uni0294" unicode="&#x294;" horiz-adv-x="389" 
d="M120 337l57 16q61 18 97 56.5t36 118.5q0 83 -37 128t-105 45q-43 0 -77 -16.5t-67 -49.5l-27 26q39 41 79.5 60.5t93.5 19.5q87 0 137 -57.5t50 -155.5q0 -97 -45 -142.5t-119 -67.5l-28 -7v-311h-45v337z" />
    <glyph glyph-name="uni0295" unicode="&#x295;" horiz-adv-x="389" 
d="M223 0v311l-27 7q-74 22 -119.5 67.5t-45.5 142.5t52 155t140 58q51 0 90 -19.5t78 -60.5l-27 -26q-33 33 -65.5 49.5t-74.5 16.5q-69 0 -107 -45.5t-38 -127.5q0 -80 36 -118.5t97 -56.5l57 -16v-337h-46z" />
    <glyph glyph-name="uni0296" unicode="&#x296;" horiz-adv-x="445" 
d="M191 741v-316l30 -8q73 -19 119 -66t46 -144q0 -98 -51 -155.5t-138 -57.5q-52 0 -91.5 19.5t-79.5 60.5l27 26q34 -33 67 -49.5t75 -16.5q69 0 106 45t37 128q0 81 -36 120t-96 55l-60 16v337z" />
    <glyph glyph-name="uni0297" unicode="&#x297;" horiz-adv-x="436" 
d="M346 520q30 -12 59 -39l-23 -30q-23 21 -48 31.5t-55 10.5q-70 0 -112 -85t-42 -248q0 -162 41.5 -244.5t111.5 -82.5q57 0 108 44l23 -29q-58 -55 -131 -55q-93 0 -147 95t-54 271q0 117 24.5 201t70 128t106.5 44q38 0 68 -12z" />
    <glyph glyph-name="uni0298" unicode="&#x298;" horiz-adv-x="713" 
d="M510.5 654q66.5 -40 103 -119.5t36.5 -193.5q0 -111 -36 -190t-102.5 -120.5t-155.5 -41.5q-87 0 -153.5 40.5t-103.5 119.5t-37 191t37 191.5t103.5 121t153.5 41.5q88 0 154.5 -40zM174.5 575q-67.5 -80 -67.5 -235q0 -152 67.5 -231.5t181.5 -79.5q118 0 184 79
t66 233q0 156 -67 235t-183 79q-114 0 -181.5 -80zM381.5 365q9.5 -10 9.5 -24q0 -15 -9.5 -24.5t-25.5 -9.5q-15 0 -24.5 10t-9.5 24t9.5 24t24.5 10q16 0 25.5 -10z" />
    <glyph glyph-name="uni0299" unicode="&#x299;" horiz-adv-x="492" 
d="M401.5 245.5q30.5 -32.5 30.5 -91.5q0 -76 -51 -115t-137 -39h-146v517q81 15 141 15q79 0 123 -37t44 -98q0 -92 -91 -114q56 -5 86.5 -37.5zM143 486v-188h116q48 0 75 25t27 73q0 47 -30 72.5t-91 25.5q-49 0 -97 -8zM347 65.5q39 27.5 39 88.5q0 55 -30.5 81
t-90.5 26h-122v-223h100q65 0 104 27.5z" />
    <glyph glyph-name="uni029A" unicode="&#x29a;" horiz-adv-x="500" 
d="M108 31q-48 42 -48 119q0 61 32 91t92 37q-100 20 -100 116q0 62 42.5 100t111.5 38q95 0 149 -70.5t54 -201.5t-52.5 -201t-150.5 -70q-82 0 -130 42zM394 260q0 118 -40.5 175.5t-115.5 57.5q-51 0 -79.5 -27.5t-28.5 -72.5q0 -48 31.5 -74t90.5 -26h23l3 -37h-33
q-67 0 -102.5 -24.5t-35.5 -81.5q0 -63 34.5 -92t96.5 -29q156 0 156 231z" />
    <glyph glyph-name="uni029B" unicode="&#x29b;" horiz-adv-x="498" 
d="M563 708l-20 -29q-17 11 -32 17t-36 6q-62 0 -62 -80v-143l-24 -25q-30 20 -58.5 30t-61.5 10q-69 0 -116 -55.5t-47 -173.5q0 -125 42 -180t120 -55q61 0 109 28v185h-103l-5 39h152v-246q-68 -45 -153 -45q-98 0 -153.5 67t-55.5 207q0 88 28.5 148.5t76 90.5t104.5 30
q56 0 100 -27v114q0 58 28.5 89t77.5 31q50 0 89 -33z" />
    <glyph glyph-name="uni029C" unicode="&#x29c;" horiz-adv-x="529" 
d="M386 0v252h-243v-252h-45v522h45v-231h243v231h45v-522h-45z" />
    <glyph glyph-name="uni029D" unicode="&#x29d;" horiz-adv-x="255" 
d="M237 -87q-38 19 -80 33q-2 -71 -35 -109.5t-93 -38.5q-47 0 -75 25.5t-28 67.5q0 49 32.5 76t87.5 27q39 0 66 -6v534h45v-542q55 -18 93 -38zM91 -137.5q20 29.5 21 91.5q-29 7 -66 7q-40 0 -60.5 -17.5t-20.5 -50.5q0 -28 16.5 -44t47.5 -16q42 0 62 29.5zM159.5 733
q9.5 -10 9.5 -24q0 -15 -9.5 -24.5t-25.5 -9.5q-15 0 -24.5 10t-9.5 24t9.5 24t24.5 10q16 0 25.5 -10z" />
    <glyph glyph-name="uni029E" unicode="&#x29e;" horiz-adv-x="434" 
d="M30 0l205 235l-226 287h53l224 -285l-205 -237h-51zM292 -195v717h45v-724z" />
    <glyph glyph-name="uni029F" unicode="&#x29f;" horiz-adv-x="371" 
d="M143 522v-482h217l-7 -40h-255v522h45z" />
    <glyph glyph-name="uni02A0" unicode="&#x2a0;" horiz-adv-x="522" 
d="M575 708l-20 -29q-17 11 -32 17t-36 6q-62 0 -62 -80v-101h-1v-723l-45 7v271q-50 -87 -139 -87q-83 0 -131 71.5t-48 198.5q0 82 22.5 144t64.5 95.5t99 33.5q80 0 132 -71v61h1v99q0 59 28.5 89.5t77.5 30.5q50 0 89 -33zM321.5 53.5q31.5 25.5 57.5 74.5v284
q-50 81 -127 81q-64 0 -103.5 -60t-39.5 -170q0 -114 36 -174.5t100 -60.5q45 0 76.5 25.5z" />
    <glyph glyph-name="uni02A1" unicode="&#x2a1;" horiz-adv-x="389" 
d="M165 311v-104h104v-37h-104v-170h-45v170h-61v37h61v130l57 16q61 18 97 56.5t36 118.5q0 83 -37 128t-105 45q-43 0 -77 -16.5t-67 -49.5l-27 26q39 41 79.5 60.5t93.5 19.5q87 0 137 -57.5t50 -155.5q0 -97 -45 -142.5t-119 -67.5z" />
    <glyph glyph-name="uni02A2" unicode="&#x2a2;" horiz-adv-x="389" 
d="M117 655.5q-38 -45.5 -38 -127.5q0 -80 36 -118.5t97 -56.5l57 -16v-130h63v-37h-63v-170h-46v170h-102v37h102v104l-27 7q-74 22 -119.5 67.5t-45.5 142.5t52 155t140 58q51 0 90 -19.5t78 -60.5l-27 -26q-33 33 -65.5 49.5t-74.5 16.5q-69 0 -107 -45.5z" />
    <glyph glyph-name="uni02A3" unicode="&#x2a3;" horiz-adv-x="783" 
d="M752 486l-278 -446h275l-4 -40h-360l-4 81q-49 -92 -143 -92q-82 0 -129.5 71.5t-47.5 198.5q0 82 22.5 144t64.5 95.5t99 33.5q81 0 132 -71v280l45 -6v-213h328v-36zM321.5 53.5q32.5 25.5 57.5 76.5v281q-24 38 -54.5 60t-72.5 22q-65 0 -104 -59.5t-39 -170.5
q0 -115 35.5 -175t98.5 -60q46 0 78.5 25.5zM424 36l278 446h-278v-446z" />
    <glyph glyph-name="uni02A4" unicode="&#x2a4;" horiz-adv-x="803" 
d="M772 3q0 -92 -52 -148.5t-142 -56.5q-55 0 -97 21t-77 63l28 25q33 -37 67.5 -53.5t78.5 -16.5q71 0 109 44.5t38 122.5q0 83 -40 119.5t-127 36.5h-54v37l195 285h-275v-482h-39l-4 81q-49 -92 -143 -92q-82 0 -129.5 71.5t-47.5 198.5q0 82 22.5 144t64.5 95.5t99 33.5
q81 0 132 -71v280l45 -6v-213h326v-36l-200 -288h11q211 0 211 -195zM321.5 53.5q32.5 25.5 57.5 76.5v281q-24 38 -54.5 60t-72.5 22q-65 0 -104 -59.5t-39 -170.5q0 -115 35.5 -175t98.5 -60q46 0 78.5 25.5z" />
    <glyph glyph-name="uni02A5" unicode="&#x2a5;" horiz-adv-x="793" 
d="M770 27q-41 -26 -128 -27q-2 -44 -2 -64l1 -43h-36l-1 44q0 21 2 63h-221l-4 81q-49 -92 -143 -92q-82 0 -129.5 71.5t-47.5 198.5q0 82 22.5 144t64.5 95.5t99 33.5q81 0 132 -71v280l45 -6v-213h329v-36l-279 -446h136q8 78 37 119t78 41q38 0 62 -24.5t24 -65.5
q0 -57 -41 -83zM321.5 53.5q32.5 25.5 57.5 76.5v281q-24 38 -54.5 60t-72.5 22q-65 0 -104 -59.5t-39 -170.5q0 -115 35.5 -175t98.5 -60q46 0 78.5 25.5zM424 482v-444l278 444h-278zM646 40q68 -1 96.5 15.5t28.5 54.5q0 26 -12.5 40.5t-35.5 14.5q-66 0 -77 -125z" />
    <glyph glyph-name="uni02A6" unicode="&#x2a6;" horiz-adv-x="595" 
d="M514.5 234.5q32.5 -33.5 32.5 -91.5q0 -74 -59.5 -114t-167.5 -40q-114 0 -169 45.5t-55 129.5v320h-77v38h77v127l45 5v-132h106l-6 -38h-100v-317q0 -67 41.5 -102.5t137.5 -35.5q181 0 181 113q0 45 -24.5 69.5t-91.5 46.5q-73 24 -102 56t-29 85q0 58 42 95.5
t104 37.5q41 0 76 -14t68 -43l-23 -29q-31 25 -58.5 36.5t-61.5 11.5q-44 0 -72.5 -25.5t-28.5 -69.5q0 -41 22.5 -64t85.5 -44q74 -23 106.5 -56.5z" />
    <glyph glyph-name="uni02A7" unicode="&#x2a7;" horiz-adv-x="499" 
d="M551 708l-20 -29q-17 11 -32 17t-36 6q-62 0 -62 -80v-708q0 -57 -29 -86.5t-77 -29.5q-52 0 -90 32l20 29q17 -11 32 -17t36 -6q63 0 63 77v99q-31 -12 -59 -17.5t-62 -5.5q-68 0 -103.5 36t-35.5 106v353h-77v38h77v127l45 5v-132h215v99q0 59 28.5 89.5t77.5 30.5
q50 0 89 -33zM298 34q27 5 58 16v434h-215v-351q0 -53 23 -78.5t73 -25.5q34 0 61 5z" />
    <glyph glyph-name="uni02A8" unicode="&#x2a8;" horiz-adv-x="662" 
d="M610.5 184q26.5 -27 26.5 -71q0 -57 -39 -90.5t-105 -33.5q-82 0 -135 56q-35 -28 -68 -42t-73 -14q-59 0 -90 32.5t-31 94.5v368h-77v38h77v127l45 5v-132h124l-6 -38h-118v-366q0 -44 19.5 -66.5t61.5 -22.5q31 0 58.5 10.5t56.5 33.5q-46 70 -46 185q0 130 54 202
t145 72q38 0 69 -12t60 -39l-24 -30q-23 21 -47.5 31.5t-56.5 10.5q-70 0 -111 -58.5t-41 -176.5q0 -97 32 -155q51 59 88.5 83.5t78.5 24.5q46 0 72.5 -27zM567.5 49.5q28.5 19.5 28.5 62.5q0 30 -15 46.5t-44 16.5q-33 0 -64 -21.5t-83 -78.5q39 -45 105 -45
q44 0 72.5 19.5z" />
    <glyph glyph-name="uni02A9" unicode="&#x2a9;" horiz-adv-x="780" 
d="M688 1v-87q0 -57 -29 -86.5t-77 -29.5q-52 0 -90 32l20 29q17 -11 32 -17t36 -6q63 0 63 77v87h-1v371q0 123 -91 123q-46 0 -83.5 -30t-69.5 -85v-379h-45v484h-206v-484h-45v484h-80v38h80v96q0 57 34 90t93 33q56 0 109 -29l-17 -33q-46 23 -89 23q-85 0 -85 -87v-93
h245l4 -94q65 104 162 104q63 0 96 -40.5t33 -114.5v-376h1z" />
    <glyph glyph-name="uni02AA" unicode="&#x2aa;" horiz-adv-x="577" 
d="M148.5 36q-55.5 47 -55.5 129v570l45 6v-575q0 -65 42.5 -101t125.5 -36q177 0 177 113q0 45 -24 70t-91 47q-73 23 -102.5 55t-29.5 86q0 58 42.5 95t103.5 37q41 0 75.5 -14t68.5 -43l-23 -30q-31 25 -59 36.5t-61 11.5q-44 0 -72 -25t-28 -68q0 -41 22.5 -63.5
t85.5 -43.5q75 -23 106.5 -57t31.5 -92q0 -75 -58.5 -115t-165.5 -40q-101 0 -156.5 47z" />
    <glyph glyph-name="uni02AB" unicode="&#x2ab;" horiz-adv-x="562" 
d="M531 486l-271 -446h268l-4 -40h-305q-24 -11 -47 -11q-36 0 -57.5 22.5t-21.5 64.5v659l45 6v-663q0 -49 40 -49q16 0 33 7l270 446h-248v40h298v-36z" />
    <glyph glyph-name="uni02AC" unicode="&#x2ac;" horiz-adv-x="415" 
d="M375 662l-64 -262h-47l-55 225l-57 -225h-47l-65 262h39l52 -230l58 230h41l57 -230l52 230h36zM375 262l-64 -262h-47l-55 225l-57 -225h-47l-65 262h39l52 -230l58 230h41l57 -230l52 230h36z" />
    <glyph glyph-name="uni02AD" unicode="&#x2ad;" horiz-adv-x="295" 
d="M30 400v126h235v-126h-36v90h-163v-90h-36zM30 -1v126h235v-126h-36v90h-163v-90h-36z" />
    <glyph glyph-name="uni02AE" unicode="&#x2ae;" horiz-adv-x="598" 
d="M500 522v-724l-45 7v288q-66 -103 -160 -103q-63 0 -96 41t-33 113v271q0 77 -63 77q-21 0 -36 -6t-32 -17l-20 29q38 32 90 32q48 0 77 -29.5t29 -86.5v-264q0 -122 91 -122q46 0 83.5 30t69.5 85v379h45z" />
    <glyph glyph-name="uni02AF" unicode="&#x2af;" horiz-adv-x="598" 
d="M651 -170q-38 -32 -90 -32q-48 0 -77 29.5t-29 86.5v179q-66 -103 -160 -103q-63 0 -96 41t-33 113v271q0 77 -63 77q-21 0 -36 -6t-32 -17l-20 29q38 32 90 32q48 0 77 -29.5t29 -86.5v-264q0 -122 91 -122q46 0 83.5 30t69.5 85v379h45v-609q0 -77 63 -77q21 0 36 6
t32 17z" />
    <glyph glyph-name="uni02B0" unicode="&#x2b0;" horiz-adv-x="278" 
d="M218.5 647.5q19.5 -21.5 19.5 -58.5v-189h-38v180q0 29 -11.5 42t-33.5 13q-23 0 -41.5 -12.5t-35.5 -36.5v-186h-38v369l38 4v-151q37 47 86 47q35 0 54.5 -21.5z" />
    <glyph glyph-name="uni02B1" unicode="&#x2b1;" horiz-adv-x="278" 
d="M218.5 647.5q19.5 -21.5 19.5 -58.5v-189h-38v180q0 29 -11.5 42t-33.5 13q-23 0 -41.5 -12.5t-35.5 -36.5v-186h-38v301q0 33 21 52.5t58 19.5q33 0 63 -14l-11 -28q-22 10 -49 10q-22 0 -33 -10t-11 -32v-77q37 47 86 47q35 0 54.5 -21.5z" />
    <glyph glyph-name="uni02B2" unicode="&#x2b2;" horiz-adv-x="176" 
d="M128.5 774.5q7.5 -7.5 7.5 -18.5t-7.5 -18t-19.5 -7t-19 7t-7 18t7 18.5t19 7.5t19.5 -7.5zM128 407q0 -47 -18 -69.5t-59 -40.5l-11 28q28 14 39 30t11 52v255h38v-255z" />
    <glyph glyph-name="uni02B4" unicode="&#x2b4;" horiz-adv-x="217" 
d="M176 662v-262h-30l-4 54q-11 -30 -29 -45t-46 -15q-13 0 -27 4l7 35q9 -3 23 -3q25 0 41 19.5t27 58.5v154h38z" />
    <glyph glyph-name="uni02B7" unicode="&#x2b7;" horiz-adv-x="415" 
d="M375 662l-64 -262h-47l-55 225l-57 -225h-47l-65 262h39l52 -230l58 230h41l57 -230l52 230h36z" />
    <glyph glyph-name="uni02B8" unicode="&#x2b8;" horiz-adv-x="308" 
d="M177 399q-16 -47 -40.5 -70.5t-72.5 -32.5l-5 29q38 9 54 25t29 50h-13l-89 262h41l73 -235l74 235h39z" />
    <glyph glyph-name="uni02B9" unicode="&#x2b9;" horiz-adv-x="263" 
d="M70 436l76 248h48l-91 -248h-33z" />
    <glyph glyph-name="uni02BA" unicode="&#x2ba;" horiz-adv-x="398" 
d="M70 436l76 248h48l-91 -248h-33zM205 436l76 248h48l-91 -248h-33z" />
    <glyph glyph-name="uni02BB" unicode="&#x2bb;" horiz-adv-x="150" 
d="M39.5 598.5q-9.5 10.5 -9.5 26.5t12 42l48 117h30l-35 -128q18 -11 18 -31q0 -16 -10 -26.5t-27 -10.5t-26.5 10.5z" />
    <glyph glyph-name="uni02BC" unicode="&#x2bc;" horiz-adv-x="201" 
d="M128.5 726.5q9.5 -10.5 9.5 -26.5t-12 -42l-48 -117h-30l35 128q-18 11 -18 31q0 16 10 26.5t27 10.5t26.5 -10.5z" />
    <glyph glyph-name="uni02BF" unicode="&#x2bf;" horiz-adv-x="145" 
d="M115 666q-24 0 -36.5 15.5t-12.5 44.5q0 28 12.5 43.5t36.5 15.5v30q-38 0 -61.5 -24.5t-23.5 -64.5q0 -41 23.5 -65.5t61.5 -24.5v30z" />
    <glyph glyph-name="uni02C0" unicode="&#x2c0;" horiz-adv-x="210" 
d="M76 697q31 2 46.5 13t15.5 36q0 20 -11.5 31t-31.5 11q-25 0 -51 -13l-14 28q33 20 70 20t58.5 -20.5t21.5 -54.5q0 -65 -66 -74v-55h-38v78z" />
    <glyph glyph-name="circumflex" unicode="&#x2c6;" horiz-adv-x="317" 
d="M53 648l-20 22l115 105h27l115 -105l-21 -22l-108 85z" />
    <glyph glyph-name="caron" unicode="&#x2c7;" horiz-adv-x="317" 
d="M270 762l20 -22l-115 -105h-27l-115 105l21 22l108 -85z" />
    <glyph glyph-name="uni02C8" unicode="&#x2c8;" horiz-adv-x="105" 
d="M30 636v210h45v-210h-45z" />
    <glyph glyph-name="uni02CA" unicode="&#x2ca;" horiz-adv-x="248" 
d="M196 773l21 -41l-172 -84l-15 26z" />
    <glyph glyph-name="uni02CB" unicode="&#x2cb;" horiz-adv-x="248" 
d="M52 773l166 -99l-16 -26l-172 84z" />
    <glyph glyph-name="uni02CC" unicode="&#x2cc;" horiz-adv-x="105" 
d="M30 -286v210h45v-210h-45z" />
    <glyph glyph-name="uni02CE" unicode="&#x2ce;" horiz-adv-x="247" 
d="M52 -60l165 -91l-14 -27l-173 76z" />
    <glyph glyph-name="uni02CF" unicode="&#x2cf;" horiz-adv-x="247" 
d="M196 -60l21 -42l-174 -76l-13 28z" />
    <glyph glyph-name="uni02D0" unicode="&#x2d0;" horiz-adv-x="195" 
d="M89 363l-35 101h87l-36 -101h-16zM89 101h16l36 -101h-87z" />
    <glyph glyph-name="uni02D1" unicode="&#x2d1;" horiz-adv-x="195" 
d="M89 363l-35 101h87l-36 -101h-16z" />
    <glyph glyph-name="uni02D4" unicode="&#x2d4;" horiz-adv-x="377" 
d="M313 233v-35h-249v35h106v145h36v-145h107z" />
    <glyph glyph-name="uni02D6" unicode="&#x2d6;" horiz-adv-x="411" 
d="M226 452v-136h122v-37h-122v-136h-39v136h-122v37h122v136h39z" />
    <glyph glyph-name="uni02D7" unicode="&#x2d7;" horiz-adv-x="411" 
d="M65 280v36h283v-36h-283z" />
    <glyph glyph-name="breve" unicode="&#x2d8;" horiz-adv-x="284" 
d="M69.5 684q-30.5 27 -36.5 75l31 7q16 -71 81 -71q64 0 82 71l30 -7q-5 -47 -35.5 -74.5t-76.5 -27.5q-45 0 -75.5 27z" />
    <glyph glyph-name="dotaccent" unicode="&#x2d9;" horiz-adv-x="129" 
d="M92.5 733q9.5 -10 9.5 -24q0 -15 -9.5 -24.5t-25.5 -9.5q-15 0 -24.5 10t-9.5 24t9.5 24t24.5 10q16 0 25.5 -10z" />
    <glyph glyph-name="ring" unicode="&#x2da;" horiz-adv-x="231" 
d="M180.5 791q23.5 -24 23.5 -65q0 -42 -23.5 -66t-62.5 -24q-38 0 -61.5 24t-23.5 66q0 41 23.5 65t61.5 24q39 0 62.5 -24zM68 726q0 -60 50 -60t50 60q0 59 -50 59t-50 -59z" />
    <glyph glyph-name="ogonek" unicode="&#x2db;" horiz-adv-x="214" 
d="M214 0q-59 -30 -84 -56t-25 -64q0 -53 58 -53q23 0 51 6l-4 -39q-27 -6 -51 -6q-47 0 -72 24t-25 64q0 47 34.5 81t106.5 65z" />
    <glyph glyph-name="tilde" unicode="&#x2dc;" horiz-adv-x="323" 
d="M184 677.5q-14 6.5 -32 18.5q-14 10 -24 14.5t-19 4.5q-15 0 -27 -9t-25 -29l-27 15q33 59 78 59q14 0 27 -6t30 -17t27.5 -16t21.5 -5q14 0 25.5 10t25.5 33l28 -14q-30 -65 -78 -65q-17 0 -31 6.5z" />
    <glyph glyph-name="hungarumlaut" unicode="&#x2dd;" horiz-adv-x="274" 
d="M205 803l41 -21l-81 -137l-29 14zM95 802l40 -21l-74 -131l-29 13z" />
    <glyph glyph-name="uni02DE" unicode="&#x2de;" horiz-adv-x="297" 
d="M159 356q-28 29 -28 84v42l-103 -57v41l103 56h43v-78q0 -79 63 -79q21 0 36 6t31 17l20 -29q-38 -32 -89 -32q-48 0 -76 29z" />
    <glyph glyph-name="uni02E0" unicode="&#x2e0;" horiz-adv-x="308" 
d="M175 429q16 -30 23 -48.5t7 -37.5q0 -21 -13.5 -34t-37.5 -13q-23 0 -36.5 12.5t-13.5 34.5q0 32 31 86l-95 233h41l73 -205l74 205h40zM168 372q-4 13 -14 33q-10 -23 -14 -35t-4 -24q0 -20 18 -20t18 20q0 13 -4 26z" />
    <glyph glyph-name="uni02E1" unicode="&#x2e1;" horiz-adv-x="164" 
d="M54 407.5q-14 13.5 -14 39.5v322l38 4v-325q0 -22 20 -22q6 0 18 4l8 -29q-14 -7 -32 -7q-24 0 -38 13.5z" />
    <glyph glyph-name="uni02E2" unicode="&#x2e2;" horiz-adv-x="277" 
d="M229 638l-19 -24q-17 11 -32 16.5t-34 5.5q-25 0 -39 -10t-14 -28q0 -17 13 -26t49 -20q45 -12 64.5 -29.5t19.5 -50.5q0 -35 -28 -56.5t-72 -21.5q-55 0 -97 35l20 23q18 -13 36 -19.5t41 -6.5q27 0 43 11.5t16 31.5q0 22 -13 33t-53 21q-42 12 -60.5 29t-18.5 45
q0 31 25.5 51.5t65.5 20.5q47 0 87 -31z" />
    <glyph glyph-name="uni02E3" unicode="&#x2e3;" horiz-adv-x="308" 
d="M177 541l91 -141h-44l-71 117l-71 -117h-42l91 139l-80 123h43l61 -100l60 100h41z" />
    </font>
</defs>
</svg>
