<?xml version="1.0" standalone="no"?>
<!DOCTYPE svg PUBLIC "-//W3C//DTD SVG 1.1//EN" "http://www.w3.org/Graphics/SVG/1.1/DTD/svg11.dtd" >
<svg xmlns="http://www.w3.org/2000/svg">
<metadata>Generated by IcoMoon</metadata>
<defs>
<font id="se-icons" horiz-adv-x="1024">
<font-face units-per-em="1024" ascent="960" descent="-64" />
<missing-glyph horiz-adv-x="1024" />
<glyph unicode="&#x20;" horiz-adv-x="512" d="" />
<glyph unicode="&#xe900;" glyph-name="news2" d="M896 789.333h-768c-47.128 0-85.333-38.205-85.333-85.333v0-512c0-47.128 38.205-85.333 85.333-85.333v0h768c47.128 0 85.333 38.205 85.333 85.333v0 512c0 47.128-38.205 85.333-85.333 85.333v0zM128 704h341.333v-512h-341.333v512zM896 192h-384v512h384.128l-0.128-512zM853.333 384c0 11.733-9.6 21.333-21.333 21.333h-42.667c-11.733 0-21.333-9.6-21.333-21.333v-128c0-11.733 9.6-21.333 21.333-21.333h42.667c11.733 0 21.333 9.6 21.333 21.333v128zM725.333 640c0 11.733-9.6 21.333-21.333 21.333h-128c-11.733 0-21.333-9.6-21.333-21.333v-213.333c0-11.733 9.6-21.333 21.333-21.333h128c11.733 0 21.333 9.6 21.333 21.333v213.333zM789.333 533.333h42.667c11.733 0 21.333 9.6 21.333 21.333s-9.6 21.333-21.333 21.333h-42.667c-11.733 0-21.333-9.6-21.333-21.333s9.6-21.333 21.333-21.333zM789.333 448h42.667c11.733 0 21.333 9.6 21.333 21.333s-9.6 21.333-21.333 21.333h-42.667c-11.733 0-21.333-9.6-21.333-21.333s9.6-21.333 21.333-21.333zM576 320h128c11.733 0 21.333 9.6 21.333 21.333s-9.6 21.333-21.333 21.333h-128c-11.733 0-21.333-9.6-21.333-21.333s9.6-21.333 21.333-21.333zM704 277.333h-128c-11.733 0-21.333-9.6-21.333-21.333s9.6-21.333 21.333-21.333h128c11.733 0 21.333 9.6 21.333 21.333s-9.6 21.333-21.333 21.333zM789.333 618.667h42.667c11.733 0 21.333 9.6 21.333 21.333s-9.6 21.333-21.333 21.333h-42.667c-11.733 0-21.333-9.6-21.333-21.333s9.6-21.333 21.333-21.333zM426.667 640c0 11.733-9.6 21.333-21.333 21.333h-213.333c-11.733 0-21.333-9.6-21.333-21.333v-128c0-11.733 9.6-21.333 21.333-21.333h213.333c11.733 0 21.333 9.6 21.333 21.333v128zM405.376 362.667h-213.333c-11.691 0-21.333-9.6-21.333-21.333s9.643-21.333 21.333-21.333h213.333c11.691 0 21.291 9.6 21.291 21.333s-9.6 21.333-21.291 21.333zM405.376 448h-213.333c-11.691 0-21.333-9.6-21.333-21.333s9.643-21.333 21.333-21.333h213.333c11.691 0 21.291 9.6 21.291 21.333s-9.6 21.333-21.291 21.333zM405.376 277.333h-213.333c-11.691 0-21.333-9.6-21.333-21.333s9.643-21.333 21.333-21.333h213.333c11.691 0 21.291 9.6 21.291 21.333s-9.6 21.333-21.291 21.333z" />
<glyph unicode="&#xe901;" glyph-name="like" d="M966.4 467.2c16 32 12.8 67.2-3.2 99.2-28.8 54.4-89.6 73.6-169.6 54.4-6.4-3.2-16-3.2-25.6-6.4-19.2-6.4-70.4-19.2-80-19.2-6.4 12.8-6.4 64 0 108.8 22.4 160 9.6 204.8-64 214.4s-121.6-54.4-185.6-243.2c-22.4-70.4-105.6-147.2-121.6-160-3.2 0-6.4-6.4-9.6-6.4h-243.2c-16 0-32 0-32-16v-480c0-16 16-44.8 32-44.8h691.2c73.6 0 128 25.6 160 67.2 32 38.4 35.2 86.4 35.2 108.8 41.6 51.2 28.8 112 9.6 150.4 48 60.8 32 134.4 6.4 172.8zM182.4 89.6c-25.6 0-44.8 19.2-44.8 44.8s19.2 44.8 44.8 44.8c25.6 0 44.8-19.2 44.8-44.8s-22.4-44.8-44.8-44.8zM899.2 281.6c3.2-3.2 41.6-60.8 0-102.4-6.4-6.4-9.6-16-9.6-25.6 0 0 6.4-48-19.2-76.8-22.4-25.6-60.8-44.8-115.2-44.8h-422.4v435.2h3.2c16 6.4 124.8 96 156.8 188.8 70.4 208 108.8 201.6 121.6 201.6 6.4 0 12.8-3.2 16-3.2 3.2-3.2 12.8-25.6-3.2-144-6.4-44.8-9.6-121.6 16-150.4 28.8-35.2 89.6-16 144-3.2 9.6 3.2 16 6.4 22.4 6.4 38.4 9.6 86.4 12.8 102.4-22.4 9.6-19.2 9.6-38.4-3.2-57.6-6.4-9.6-6.4-25.6 0-35.2 3.2-3.2 51.2-70.4-6.4-128-9.6-9.6-12.8-25.6-3.2-38.4z" />
<glyph unicode="&#xe902;" glyph-name="more" d="M256 528c44.183 0 80-35.817 80-80s-35.817-80-80-80c-44.183 0-80 35.817-80 80s35.817 80 80 80zM512 528c44.183 0 80-35.817 80-80s-35.817-80-80-80c-44.183 0-80 35.817-80 80s35.817 80 80 80zM768 528c44.186 0 80-35.817 80-80s-35.814-80-80-80c-44.186 0-80 35.817-80 80s35.814 80 80 80z" />
<glyph unicode="&#xe903;" glyph-name="people" d="M384 490.667c94.257 0 170.667 76.41 170.667 170.667s-76.41 170.667-170.667 170.667c-94.257 0-170.667-76.41-170.667-170.667v0c0-94.257 76.41-170.667 170.667-170.667v0zM725.333 405.333c70.692 0 128 57.308 128 128s-57.308 128-128 128c-70.692 0-128-57.308-128-128v0c0-70.692 57.308-128 128-128v0zM896 106.667c23.564 0 42.667 19.103 42.667 42.667v0c-0.104 117.742-95.577 213.15-213.333 213.15-49.399 0-94.876-16.79-131.036-44.974l0.476 0.357c-54.006 53.8-128.505 87.063-210.774 87.063-164.807 0-298.436-133.487-298.666-298.24v-0.023c0-23.564 19.103-42.667 42.667-42.667v0h512c23.564 0 42.667 19.103 42.667 42.667v0z" />
<glyph unicode="&#xe904;" glyph-name="news1" d="M511.787 874.667c-235.733 0-426.453-190.933-426.453-426.667s190.72-426.667 426.453-426.667c235.733 0 426.88 190.933 426.88 426.667s-191.147 426.667-426.88 426.667zM807.253 618.667h-125.867c-13.867 53.333-33.28 104.533-58.88 151.893 78.507-26.88 143.787-81.28 184.747-151.893zM512 787.84c35.627-51.2 63.36-108.16 81.493-169.173h-162.987c18.133 61.013 45.867 117.973 81.493 169.173zM181.76 362.667c-7.040 27.307-11.093 55.893-11.093 85.333s4.053 58.027 11.093 85.333h144c-3.413-27.947-5.76-56.32-5.76-85.333s2.347-57.387 5.973-85.333h-144.213zM216.533 277.333h125.867c13.867-53.333 33.28-104.533 58.88-152.107-78.507 26.88-143.787 81.493-184.747 152.107zM342.4 618.667h-125.867c40.96 70.613 106.24 125.227 184.747 152.107-25.6-47.573-45.013-98.773-58.88-152.107zM512 108.16c-35.413 51.2-63.147 108.16-81.493 169.173h162.987c-18.347-61.013-46.080-117.973-81.493-169.173zM611.84 362.667h-199.68c-4.053 27.947-6.827 56.32-6.827 85.333s2.773 57.387 6.827 85.333h199.68c4.053-27.947 6.827-56.32 6.827-85.333s-2.773-57.387-6.827-85.333zM622.72 125.44c25.6 47.573 45.013 98.56 58.88 151.893h125.867c-41.173-70.613-106.453-125.013-184.747-151.893zM698.027 362.667c3.413 27.947 5.973 56.32 5.973 85.333s-2.347 57.387-5.973 85.333h144c7.040-27.307 11.307-55.893 11.307-85.333s-4.053-58.027-11.307-85.333h-144z" />
<glyph unicode="&#xe905;" glyph-name="worker" d="M853.333 547.413v7.253c0.001 0.359 0.002 0.784 0.002 1.21 0 151.391-99.179 279.617-236.107 323.25l-2.402 0.661h-2.56c-30.969 9.789-66.585 15.429-103.518 15.429-2.457 0-4.909-0.025-7.355-0.075l0.366 0.006c-184.319-10.426-329.98-161.891-331.093-347.624l-0.001-0.11c-50.24-18.049-85.524-65.277-85.524-120.747s35.283-102.698 84.631-120.466l0.892-0.281c18.536-172.657 163.45-305.925 339.492-305.925 0.647 0 1.294 0.002 1.941 0.005h9.713c169.957 8.48 307.188 138.074 327.512 303.817l0.168 1.676c51.591 17.297 88.104 65.196 88.104 121.624 0 54.999-34.688 101.896-83.379 120.008l-0.885 0.288zM519.68 85.333c-2.205-0.068-4.799-0.107-7.403-0.107-126.351 0-231.323 91.537-252.218 211.913l-0.219 1.528h502.187c-21.845-117.835-120.81-206.884-241.699-213.306l-0.648-0.027zM810.667 384h-597.333c-23.564 0-42.667 19.103-42.667 42.667s19.103 42.667 42.667 42.667v0h85.333c23.564 0 42.667 19.103 42.667 42.667s-19.103 42.667-42.667 42.667v0h-42.667c4.117 92.575 53.729 172.731 126.882 219.072l1.118 0.661v-134.4c0-23.564 19.103-42.667 42.667-42.667s42.667 19.103 42.667 42.667v0 166.827c9.942 1.765 21.97 3.135 34.184 3.805l0.803 0.035h7.68c15.236-0.221 29.977-1.609 44.348-4.079l-1.681 0.239v-166.827c0-23.564 19.103-42.667 42.667-42.667s42.667 19.103 42.667 42.667v0 135.68c19.053-11.134 35.544-23.413 50.533-37.29l-0.186 0.17c47.92-46.574 77.653-111.641 77.653-183.653 0-0.084 0-0.169 0-0.253v0.013h-42.667c-23.564 0-42.667-19.103-42.667-42.667s19.103-42.667 42.667-42.667v0h85.333c23.564 0 42.667-19.103 42.667-42.667s-19.103-42.667-42.667-42.667v0z" />
<glyph unicode="&#xe906;" glyph-name="search-o" d="M1017.75-27.584l-311.572 311.574c64.716 71.854 104.49 166.592 104.49 270.678-0.002 223.498-181.834 405.332-405.334 405.332s-405.334-181.834-405.334-405.334 181.834-405.334 405.334-405.334c104.086 0 198.822 39.774 270.678 104.49l311.572-311.572c4.166-4.166 9.626-6.25 15.084-6.25s10.916 2.084 15.084 6.25c8.332 8.334 8.332 21.834-0.002 30.166zM405.334 192c-199.958 0-362.666 162.688-362.666 362.666s162.708 362.668 362.666 362.668 362.666-162.688 362.666-362.668-162.708-362.666-362.666-362.666z" />
<glyph unicode="&#xe907;" glyph-name="menu" d="M984 488h-944c-22.092 0-40-17.908-40-40s17.908-40 40-40h944c22.092 0 40 17.908 40 40s-17.908 40-40 40zM984 808h-944c-22.092 0-40-17.908-40-40s17.908-40 40-40h944c22.092 0 40 17.908 40 40s-17.908 40-40 40zM984 168h-944c-22.092 0-40-17.908-40-40s17.908-40 40-40h944c22.092 0 40 17.908 40 40s-17.908 40-40 40z" />
<glyph unicode="&#xe908;" glyph-name="down-arrow" d="M427.888 166.522c23.136-23.136 53.69-34.692 84.253-34.692s61.124 11.556 84.253 34.692l390.701 390.701c45.43 45.43 50.395 120.597 6.608 167.679-46.256 50.386-124.727 52.038-172.627 4.13l-251.106-250.28c-32.206-32.214-84.253-32.214-116.467 0l-250.28 250.28c-47.917 47.908-126.387 47.082-172.635-4.13-43.778-47.082-39.648-122.249 6.608-167.679l390.693-390.701z" />
<glyph unicode="&#xe909;" glyph-name="bell-o" d="M576 781.653c-11.776 0-21.333 9.557-21.333 21.333v71.68c0 23.509-19.157 42.667-42.667 42.667s-42.667-19.157-42.667-42.667v-71.68c0-11.776-9.557-21.333-21.333-21.333s-21.333 9.515-21.333 21.333v71.68c0 47.061 38.272 85.333 85.333 85.333s85.333-38.272 85.333-85.333v-71.68c0-11.819-9.557-21.333-21.333-21.333zM512-64c-82.347 0-149.333 66.987-149.333 149.333 0 11.776 9.557 21.333 21.333 21.333s21.333-9.557 21.333-21.333c0-58.795 47.872-106.667 106.667-106.667s106.667 47.872 106.667 106.667c0 11.776 9.557 21.333 21.333 21.333s21.333-9.557 21.333-21.333c0-82.347-66.987-149.333-149.333-149.333zM874.667 64h-725.333c-35.285 0-64 28.715-64 64 0 18.731 8.149 36.437 22.4 48.64 67.243 56.832 105.6 139.52 105.6 227.072v129.621c0 164.693 133.973 298.667 298.667 298.667s298.667-133.973 298.667-298.667v-129.621c0-87.595 38.357-170.24 105.259-226.773 14.592-12.501 22.741-30.208 22.741-48.939 0-35.285-28.672-64-64-64zM512 789.333c-141.184 0-256-114.816-256-256v-129.621c0-100.181-43.861-194.688-120.363-259.371-4.907-4.181-7.637-10.112-7.637-16.341 0-11.776 9.557-21.333 21.333-21.333h725.333c11.776 0 21.333 9.557 21.333 21.333 0 6.229-2.731 12.16-7.467 16.213-76.629 64.811-120.533 159.36-120.533 259.499v129.621c0 141.184-114.816 256-256 256z" />
<glyph unicode="&#xe90a;" glyph-name="boton-de-play-o" d="M902.952 551.149l-690.659 393.081c-73.262 41.825-147.955-3.917-147.955-86.171v-820.596c0-69.686 45.367-101.463 87.533-101.463 19.857 0 40.088 6.267 60.183 18.494l693.759 424.654c34.877 21.423 54.461 53.133 53.848 87.022-0.579 33.923-21.219 64.917-56.709 84.979zM859.322 454.999l-693.725-424.552c-4.666-2.861-8.345-4.292-10.865-5.007-0.681 2.52-1.362 6.403-1.362 12.023v820.562c0 8.447 1.533 12.704 1.533 13.76 2.725-0.17 7.493-1.567 13.488-4.973l690.557-393.081c8.515-4.871 11.035-9.094 11.853-8.174-0.443-1.158-3.338-5.484-11.478-10.558z" />
<glyph unicode="&#xe90d;" glyph-name="image" d="M959.884 832c0.040-0.034 0.082-0.076 0.116-0.116v-767.77c-0.034-0.040-0.076-0.082-0.116-0.116h-895.77c-0.040 0.034-0.082 0.076-0.114 0.116v767.772c0.034 0.040 0.076 0.082 0.114 0.114h895.77zM960 896h-896c-35.2 0-64-28.8-64-64v-768c0-35.2 28.8-64 64-64h896c35.2 0 64 28.8 64 64v768c0 35.2-28.8 64-64 64v0zM832 672c0-53.020-42.98-96-96-96s-96 42.98-96 96 42.98 96 96 96 96-42.98 96-96zM896 128h-768v128l224 384 256-320h64l224 192z" />
<glyph unicode="&#xe944;" glyph-name="directory" d="M192 960v-1024h768v1024h-768zM576 703.67c70.51 0 127.67-57.16 127.67-127.67s-57.16-127.67-127.67-127.67-127.67 57.16-127.67 127.67 57.16 127.67 127.67 127.67v0zM768 192h-384v64c0 70.696 57.306 128 128 128v0h128c70.696 0 128-57.304 128-128v-64zM64 896h96v-192h-96v192zM64 640h96v-192h-96v192zM64 384h96v-192h-96v192zM64 128h96v-192h-96v192z" />
<glyph unicode="&#xe953;" glyph-name="calendar" d="M320 576h128v-128h-128zM512 576h128v-128h-128zM704 576h128v-128h-128zM128 192h128v-128h-128zM320 192h128v-128h-128zM512 192h128v-128h-128zM320 384h128v-128h-128zM512 384h128v-128h-128zM704 384h128v-128h-128zM128 384h128v-128h-128zM832 960v-64h-128v64h-448v-64h-128v64h-128v-1024h960v1024h-128zM896 0h-832v704h832v-704z" />
<glyph unicode="&#xe963;" glyph-name="portal" d="M192 64h640c106.038 0 192 85.96 192 192h-1024c0-106.040 85.962-192 192-192zM832 192h64v-64h-64v64zM960 832h-896l-64-512h1024z" />
<glyph unicode="&#xe96b;" glyph-name="comment" d="M512 896c282.77 0 512-186.25 512-416 0-229.752-229.23-416-512-416-27.156 0-53.81 1.734-79.824 5.044-109.978-109.978-241.25-129.7-368.176-132.596v26.916c68.536 33.578 128 94.74 128 164.636 0 9.754-0.758 19.33-2.164 28.696-115.796 76.264-189.836 192.754-189.836 323.304 0 229.75 229.23 416 512 416z" />
<glyph unicode="&#xe971;" glyph-name="user" d="M576 253.388v52.78c70.498 39.728 128 138.772 128 237.832 0 159.058 0 288-192 288s-192-128.942-192-288c0-99.060 57.502-198.104 128-237.832v-52.78c-217.102-17.748-384-124.42-384-253.388h896c0 128.968-166.898 235.64-384 253.388z" />
<glyph unicode="&#xe9cd;" glyph-name="attachment" d="M665.832 632.952l-64.952 64.922-324.81-324.742c-53.814-53.792-53.814-141.048 0-194.844 53.804-53.792 141.060-53.792 194.874 0l389.772 389.708c89.714 89.662 89.714 235.062 0 324.726-89.666 89.704-235.112 89.704-324.782 0l-409.23-409.178c-0.29-0.304-0.612-0.576-0.876-0.846-125.102-125.096-125.102-327.856 0-452.906 125.054-125.056 327.868-125.056 452.988 0 0.274 0.274 0.516 0.568 0.82 0.876l0.032-0.034 279.332 279.292-64.986 64.92-279.33-279.262c-0.296-0.268-0.564-0.57-0.846-0.844-89.074-89.058-233.98-89.058-323.076 0-89.062 89.042-89.062 233.922 0 322.978 0.304 0.304 0.604 0.582 0.888 0.846l-0.046 0.060 409.28 409.166c53.712 53.738 141.144 53.738 194.886 0 53.712-53.734 53.712-141.148 0-194.84l-389.772-389.7c-17.936-17.922-47.054-17.922-64.972 0-17.894 17.886-17.894 47.032 0 64.92l324.806 324.782z" />
<glyph unicode="&#xea44;" glyph-name="circle-left" d="M512-64c282.77 0 512 229.23 512 512s-229.23 512-512 512-512-229.23-512-512 229.23-512 512-512zM512 864c229.75 0 416-186.25 416-416s-186.25-416-416-416-416 186.25-416 416 186.25 416 416 416zM669.256 642.744l-90.512 90.512-285.254-285.256 285.256-285.254 90.508 90.508-194.744 194.746z" />
<glyph unicode="&#xea82;" glyph-name="share" d="M864 256c-45.16 0-85.92-18.738-115.012-48.83l-431.004 215.502c1.314 8.252 2.016 16.706 2.016 25.328s-0.702 17.076-2.016 25.326l431.004 215.502c29.092-30.090 69.852-48.828 115.012-48.828 88.366 0 160 71.634 160 160s-71.634 160-160 160-160-71.634-160-160c0-8.622 0.704-17.076 2.016-25.326l-431.004-215.504c-29.092 30.090-69.852 48.83-115.012 48.83-88.366 0-160-71.636-160-160 0-88.368 71.634-160 160-160 45.16 0 85.92 18.738 115.012 48.828l431.004-215.502c-1.312-8.25-2.016-16.704-2.016-25.326 0-88.368 71.634-160 160-160s160 71.632 160 160c0 88.364-71.634 160-160 160z" />
<glyph unicode="&#xea85;" glyph-name="mail" d="M853.342 960h-682.656c-93.874 0-170.686-76.81-170.686-170.69v-682.622c0-93.938 76.812-170.688 170.686-170.688h682.656c93.876 0 170.658 76.75 170.658 170.69v682.62c0 93.88-76.782 170.69-170.658 170.69zM182.628 73.374l-77.256 77.254 256 256 29.256-29.254-208-304zM153.372 761.372l29.256 29.256 329.372-265.374 329.374 265.374 29.254-29.256-358.628-422.626-358.628 422.626zM841.374 73.374l-208 304 29.254 29.254 256-256-77.254-77.254z" />
</font>
</defs>
</svg>
