<?xml version="1.0" standalone="no"?>
<!DOCTYPE svg PUBLIC "-//W3C//DTD SVG 1.1//EN" "http://www.w3.org/Graphics/SVG/1.1/DTD/svg11.dtd" >
<svg>
<metadata>
Created by FontForge 20120731 at Mon Jul  1 06:40:36 2019
 By www
Copyright 1990 as an unpublished work by Bitstream Inc.  All rights reserved.  Confidential.
</metadata>
<defs>
<font id="ShelleyAllegroBT-Regular" horiz-adv-x="500" >
  <font-face 
    font-family="Shelley"
    font-weight="500"
    font-style="italic"
    font-stretch="normal"
    units-per-em="1000"
    panose-1="0 0 0 0 0 0 0 0 0 0"
    ascent="800"
    descent="-200"
    x-height="277"
    cap-height="703"
    bbox="-280 -330 1558 946"
    underline-thickness="34"
    underline-position="-115"
    slope="28"
    stemh="14"
    stemv="27"
    unicode-range="U+0020-FB02"
  />
<missing-glyph horiz-adv-x="205" 
 />
    <glyph glyph-name=".notdef" horiz-adv-x="205" 
 />
    <glyph glyph-name="space" unicode=" " horiz-adv-x="205" 
 />
    <glyph glyph-name="exclam" unicode="!" horiz-adv-x="264" 
d="M273 486l86 8l-250 -368c-11 -16 -16 -25 -25 -25c-4 0 -9 3 -9 8c0 8 5 17 11 28zM9 24c0 21 19 46 41 46c16 0 28 -13 28 -29c0 -21 -19 -46 -40 -46c-16 0 -29 13 -29 29z" />
    <glyph glyph-name="quotedbl" unicode="&#x22;" horiz-adv-x="325" 
d="M91 425h-14l-29 221c-1 6 -2 14 -2 22c0 31 14 46 38 46s37 -16 37 -46c0 -6 -1 -14 -2 -22zM248 425h-14l-28 221c-1 6 -2 14 -2 22c0 31 13 46 37 46s38 -16 38 -46c0 -6 -1 -14 -2 -22z" />
    <glyph glyph-name="numbersign" unicode="#" horiz-adv-x="769" 
d="M395 710h46l-85 -243h146l86 243h47l-86 -243h157l-13 -39h-158l-52 -148h170l-14 -39h-170l-85 -241h-47l85 241h-147l-85 -241h-46l85 241h-166l15 39h165l52 148h-180l14 39h180zM342 428l-53 -148h147l52 148h-146z" />
    <glyph glyph-name="dollar" unicode="$" horiz-adv-x="352" 
d="M60 20l-45 -83l-13 8l43 82c-27 22 -39 44 -39 74c0 58 42 98 88 98c14 0 25 -4 36 -13l43 82c-8 25 -13 46 -13 66c0 68 50 131 121 138l41 74l12 -7l-34 -67c21 -1 39 -6 58 -14l46 86l14 -6l-47 -88c17 -16 25 -34 25 -57c0 -48 -34 -85 -73 -85c-8 0 -15 3 -24 6
l-46 -87c9 -23 14 -45 14 -68c0 -65 -54 -136 -130 -150l-38 -71l-13 8l33 62c-21 0 -40 4 -59 12zM53 40l47 88c-21 10 -17 40 -33 40c-18 0 -45 -27 -45 -65c0 -25 11 -48 31 -63zM66 34c18 -7 32 -11 45 -11c4 0 9 0 17 1l83 157c-9 26 -19 49 -29 69l-41 -75
c5 -9 8 -16 8 -23c0 -17 -12 -31 -29 -31c-2 0 -5 1 -7 1zM147 27c48 15 71 52 71 111c0 7 0 15 -1 24zM212 340l58 110c-39 -12 -62 -44 -62 -83c0 -5 2 -13 4 -27zM217 319c11 -28 20 -51 28 -72l42 76c-8 8 -12 15 -12 24c0 17 12 30 28 30c4 0 8 -1 12 -2l36 70
c-17 7 -32 11 -45 11c-5 0 -11 -1 -17 -2zM327 367c2 -18 7 -25 19 -25c17 0 34 21 34 54c0 16 -4 28 -16 41z" />
    <glyph glyph-name="percent" unicode="%" horiz-adv-x="560" 
d="M481 423c-38 -20 -70 -30 -100 -30c-33 0 -62 9 -79 25c-13 -104 -90 -179 -143 -179c-36 0 -64 30 -64 74c0 83 86 171 155 171c22 0 39 -10 51 -31c17 -30 29 -44 79 -44c87 0 147 77 168 77c5 0 7 -1 7 -4c0 -6 -9 -18 -27 -36l-461 -470c-21 -22 -29 -34 -49 -34
c-7 0 -13 3 -13 6c0 8 12 20 32 39zM252 466c-19 0 -42 -15 -67 -47c-40 -50 -59 -96 -59 -127c0 -23 13 -37 32 -37c52 0 127 96 127 170c0 27 -13 41 -33 41zM526 181c0 -85 -83 -186 -145 -186c-36 0 -64 30 -64 74c0 82 86 171 156 171c33 0 53 -22 53 -59zM475 223
c-19 0 -41 -16 -67 -48c-40 -49 -59 -97 -59 -126c0 -23 13 -38 32 -38c53 0 127 99 127 171c0 27 -13 41 -33 41z" />
    <glyph glyph-name="ampersand" unicode="&#x26;" horiz-adv-x="713" 
d="M453 114c14 -31 25 -72 25 -127c0 -171 -131 -298 -286 -298c-105 0 -170 61 -170 137c0 66 67 116 109 116c5 0 8 -1 8 -3c0 -8 -19 -10 -40 -21c-39 -20 -61 -52 -61 -90c0 -57 51 -100 129 -100c81 0 165 42 225 114c45 55 69 115 69 175c0 28 -7 55 -19 85
c-60 -72 -124 -107 -195 -107c-85 0 -138 54 -138 131c0 97 79 162 239 214c-3 20 -6 39 -6 55c0 98 65 168 127 168c50 0 83 -31 83 -80c0 -70 -61 -112 -184 -158c8 -33 34 -99 78 -196c142 187 221 305 306 305c22 0 39 -19 39 -42c0 -21 -15 -36 -37 -36
c-27 0 -35 32 -53 32c-48 0 -118 -106 -248 -274zM435 116c-35 78 -63 145 -82 203c-124 -50 -189 -126 -189 -211c0 -60 40 -99 87 -99c68 0 127 35 184 107zM362 344c118 39 175 76 175 144c0 35 -27 61 -66 61c-56 0 -115 -66 -115 -155c0 -16 3 -32 6 -50z" />
    <glyph glyph-name="quoteright" unicode="&#x2019;" horiz-adv-x="204" 
d="M214 479c0 -22 -16 -52 -49 -87c-46 -48 -83 -73 -89 -73s-10 3 -10 8c0 12 61 41 76 87c12 38 1 94 42 94c18 0 30 -11 30 -29z" />
    <glyph glyph-name="parenleft" unicode="(" horiz-adv-x="324" 
d="M143 -169c-4 0 -15 10 -29 30c-43 61 -66 133 -66 206c0 179 119 371 352 538c122 87 203 124 212 124c5 0 8 -3 8 -6c0 -11 -67 -32 -172 -116c-226 -181 -354 -428 -354 -597c0 -115 55 -159 55 -172c0 -3 -3 -7 -6 -7z" />
    <glyph glyph-name="parenright" unicode=")" horiz-adv-x="324" 
d="M234 728c4 0 15 -10 29 -30c43 -61 66 -133 66 -206c0 -179 -119 -371 -352 -538c-122 -87 -203 -123 -212 -123c-5 0 -9 3 -9 5c0 11 69 33 174 117c226 181 353 427 353 596c0 115 -55 160 -55 173c0 3 3 6 6 6z" />
    <glyph glyph-name="asterisk" unicode="*" horiz-adv-x="347" 
d="M329 571l-80 -39c-12 -6 -22 -11 -35 -11c-10 0 -19 9 -19 24c0 16 16 20 42 25l87 15l-74 50c-17 12 -28 20 -28 32s11 23 20 23c14 0 22 -11 35 -26l57 -67l7 88c2 29 6 44 23 44c14 0 24 -8 24 -22c0 -9 -5 -18 -9 -30l-30 -83l80 38c11 6 21 11 35 11
c10 0 19 -10 19 -23c0 -17 -15 -21 -42 -26l-87 -15l74 -50c18 -12 29 -21 29 -32c0 -12 -12 -23 -21 -23c-14 0 -22 11 -35 26l-57 67l-7 -88c-2 -29 -6 -44 -24 -44c-13 0 -22 8 -22 23c0 9 4 18 8 29z" />
    <glyph glyph-name="plus" unicode="+" horiz-adv-x="833" 
d="M397 596h39v-278h273v-39h-273v-279h-39v279h-273v39h273v278z" />
    <glyph glyph-name="comma" unicode="," horiz-adv-x="204" 
d="M130 40c0 -30 -26 -70 -77 -106c-39 -27 -82 -37 -94 -37c-4 0 -7 3 -7 7c0 12 16 10 45 22c44 18 63 44 63 87c0 38 14 57 40 57c17 0 30 -12 30 -30z" />
    <glyph glyph-name="hyphen" unicode="-" horiz-adv-x="356" 
d="M56 123l21 44h233l-21 -44h-233z" />
    <glyph glyph-name="period" unicode="." horiz-adv-x="204" 
d="M50 24c0 21 19 46 41 46c16 0 28 -13 28 -29c0 -21 -19 -46 -40 -46c-16 0 -29 13 -29 29z" />
    <glyph glyph-name="slash" unicode="/" horiz-adv-x="296" 
d="M-8 -89l314 641h53l-359 -645z" />
    <glyph glyph-name="zero" unicode="0" horiz-adv-x="407" 
d="M139 -5c-46 0 -80 47 -80 123c0 88 47 193 134 278c60 59 116 88 159 88c42 0 67 -34 67 -93c0 -66 -31 -160 -96 -251c-69 -97 -136 -145 -184 -145zM110 69c0 -36 16 -57 35 -57c45 0 95 47 153 141c65 106 93 203 93 260c0 36 -15 56 -40 56c-35 0 -86 -39 -136 -114
c-73 -111 -105 -231 -105 -286z" />
    <glyph glyph-name="one" unicode="1" horiz-adv-x="312" 
d="M54 0l259 415c-156 -145 -245 -215 -260 -215c-3 0 -5 3 -5 7c0 9 55 40 151 127c107 97 153 150 162 150c4 0 8 -3 8 -6c0 -7 -4 -20 -11 -34l-222 -434z" />
    <glyph glyph-name="two" unicode="2" horiz-adv-x="407" 
d="M55 76c33 29 63 43 89 43c31 0 54 -19 60 -44c5 -19 1 -45 24 -45c17 0 43 20 77 60c23 27 34 45 40 45c2 0 4 -3 4 -8c0 -10 -11 -23 -31 -46c-45 -50 -78 -83 -124 -83c-27 0 -47 14 -53 34c-9 29 5 56 -24 56c-18 0 -47 -14 -73 -42c-26 -27 -35 -51 -43 -51
c-6 0 -7 2 -7 8c0 27 40 95 144 169c51 37 109 67 155 115c43 45 64 97 64 123c0 34 -26 59 -65 59c-81 0 -155 -71 -155 -136c0 -22 14 -39 31 -39c38 0 74 29 107 87c15 27 18 50 28 50c5 0 7 -4 7 -14c0 -63 -60 -148 -133 -148c-36 0 -58 24 -58 60c0 75 85 155 187 155
c66 0 105 -40 105 -97c0 -62 -49 -125 -148 -175c-88 -44 -166 -69 -208 -136z" />
    <glyph glyph-name="three" unicode="3" horiz-adv-x="407" 
d="M244 251h8c53 0 82 -29 82 -80c0 -38 -18 -77 -53 -110c-43 -41 -107 -66 -154 -66c-63 0 -103 37 -103 89c0 35 18 58 44 58c20 0 32 -12 32 -35c0 -41 -47 -32 -47 -51c0 -17 25 -37 60 -37c44 0 84 26 124 77c31 40 46 76 46 98c0 27 -15 41 -40 41
c-33 0 -57 -24 -71 -24c-6 0 -9 3 -9 8c0 16 39 23 93 58c76 50 113 99 113 142c0 29 -23 46 -60 46c-63 0 -132 -54 -132 -101c0 -21 10 -32 31 -32c22 0 60 21 85 59c18 28 13 43 23 43c3 0 5 -2 5 -8c0 -64 -56 -119 -110 -119c-31 0 -50 18 -50 49c0 60 77 128 166 128
c56 0 92 -32 92 -78c0 -65 -57 -113 -175 -155z" />
    <glyph glyph-name="four" unicode="4" horiz-adv-x="398" 
d="M122 -5l65 99c-33 5 -61 9 -84 9c-47 0 -61 -19 -72 -19c-6 0 -10 3 -10 7c0 13 100 120 225 376l88 8c-105 -160 -199 -274 -269 -357c15 4 27 7 37 7c29 0 61 -6 99 -12c104 156 158 237 173 237c5 0 7 -2 7 -7c0 -11 -49 -81 -118 -231c51 6 73 41 84 41
c5 0 7 -3 7 -7c0 -5 -12 -21 -38 -37c-19 -12 -38 -18 -60 -18h-5c-10 -18 -23 -47 -39 -87z" />
    <glyph glyph-name="five" unicode="5" horiz-adv-x="389" 
d="M246 415l-90 -142c30 17 55 26 81 26c58 0 98 -39 98 -100c0 -100 -116 -203 -227 -203c-58 0 -93 31 -93 81c0 40 19 67 50 67c18 0 32 -14 32 -35c0 -17 -8 -31 -23 -36s-26 1 -26 -20c0 -19 22 -38 56 -38c38 0 83 26 121 75c37 48 56 101 56 136c0 32 -20 54 -50 54
c-70 0 -102 -71 -120 -71c-5 0 -8 4 -8 8c0 5 2 13 7 21l154 246c38 -12 74 -21 110 -21c50 0 71 20 77 20c2 0 5 -3 5 -7c0 -12 -53 -71 -142 -71c-22 0 -45 3 -68 10z" />
    <glyph glyph-name="six" unicode="6" horiz-adv-x="410" 
d="M156 235c38 47 75 70 108 70c45 0 77 -34 77 -93c0 -53 -23 -106 -65 -149c-43 -44 -93 -68 -133 -68c-51 0 -84 46 -84 121s36 157 109 236c79 86 164 132 238 132c45 0 82 -33 82 -68c0 -29 -21 -52 -44 -52c-17 0 -30 13 -30 28c0 28 26 39 26 49c0 12 -12 25 -36 25
c-65 0 -167 -75 -248 -231zM106 59c0 -31 13 -47 35 -47c65 0 153 126 153 228c0 30 -13 47 -35 47c-29 0 -67 -28 -101 -81c-36 -57 -52 -113 -52 -147z" />
    <glyph glyph-name="seven" unicode="7" horiz-adv-x="380" 
d="M55 -5c59 121 169 246 312 399c-25 -12 -46 -19 -66 -19c-46 0 -87 45 -116 45c-21 0 -31 -23 -47 -55c-13 -26 -25 -39 -38 -39c-7 0 -13 6 -13 13c0 14 24 37 52 77c32 47 39 74 55 74c5 0 8 -3 8 -10c0 -4 -2 -8 -5 -14l-16 -30c26 17 48 26 65 26
c35 0 68 -45 101 -45c48 0 63 55 84 55c8 0 11 -4 11 -13c0 -13 -131 -142 -303 -459z" />
    <glyph glyph-name="eight" unicode="8" horiz-adv-x="407" 
d="M214 238c-93 -40 -141 -94 -141 -150c0 -47 31 -78 76 -78c59 0 111 47 111 108c0 36 -15 75 -46 120zM269 278c73 26 112 75 112 128c0 38 -23 64 -60 64c-46 0 -89 -41 -89 -89c0 -30 13 -62 37 -103zM206 251c-23 37 -37 66 -37 99c0 73 74 134 154 134
c58 0 92 -33 92 -84c0 -52 -47 -102 -137 -135c27 -41 43 -75 43 -109c0 -85 -86 -161 -179 -161c-62 0 -104 40 -104 94c0 65 56 111 168 162z" />
    <glyph glyph-name="nine" unicode="9" horiz-adv-x="410" 
d="M315 255c-37 -48 -74 -72 -107 -72c-45 0 -76 35 -76 98c0 43 21 95 60 137c42 45 92 66 134 66c49 0 84 -44 84 -117c0 -74 -35 -170 -96 -242c-71 -83 -162 -129 -229 -129c-60 0 -99 38 -99 79c0 29 18 52 41 52c19 0 34 -16 34 -38c0 -31 -27 -42 -27 -53
c0 -14 15 -24 42 -24c74 0 182 85 239 243zM362 423c0 30 -13 47 -34 47c-67 0 -151 -123 -151 -221c0 -31 14 -48 31 -48c34 0 71 28 105 81s49 106 49 141z" />
    <glyph glyph-name="colon" unicode=":" horiz-adv-x="227" 
d="M18 24c0 21 19 46 41 46c16 0 28 -13 28 -29c0 -21 -19 -46 -40 -46c-16 0 -29 13 -29 29zM134 221c0 21 19 46 41 46c16 0 28 -13 28 -29c0 -21 -20 -46 -41 -46c-16 0 -28 13 -28 29z" />
    <glyph glyph-name="semicolon" unicode=";" horiz-adv-x="227" 
d="M90 40c0 -30 -27 -70 -78 -106c-39 -27 -81 -37 -93 -37c-4 0 -8 3 -8 7c0 12 16 10 45 22c44 18 63 43 63 86c0 38 14 57 40 57c17 0 31 -11 31 -29zM134 221c0 21 19 46 41 46c16 0 28 -13 28 -29c0 -21 -20 -46 -41 -46c-16 0 -28 13 -28 29z" />
    <glyph glyph-name="less" unicode="&#x3c;" horiz-adv-x="833" 
d="M704 549v-44l-510 -207l510 -207v-43l-575 235v30z" />
    <glyph glyph-name="equal" unicode="=" horiz-adv-x="833" 
d="M124 406h585v-39h-585v39zM124 229h585v-39h-585v39z" />
    <glyph glyph-name="greater" unicode="&#x3e;" horiz-adv-x="833" 
d="M129 549l575 -236v-30l-575 -235v43l510 207l-510 207v44z" />
    <glyph glyph-name="question" unicode="?" horiz-adv-x="326" 
d="M79 108c0 8 23 56 82 118c71 75 160 125 160 219c0 23 -16 38 -48 38c-53 0 -102 -49 -102 -65c0 -13 37 -14 37 -45c0 -20 -16 -34 -33 -34c-20 0 -36 18 -36 43c0 58 67 116 137 116c55 0 93 -37 93 -97c0 -49 -23 -84 -71 -118c-40 -29 -96 -51 -145 -99
c-48 -47 -55 -84 -68 -84c-3 0 -6 3 -6 8zM18 24c0 21 19 46 41 46c16 0 28 -13 28 -29c0 -21 -19 -46 -40 -46c-16 0 -29 13 -29 29z" />
    <glyph glyph-name="at" unicode="@" horiz-adv-x="986" 
d="M532 474c-39 0 -67 -21 -97 -65c-52 -77 -78 -165 -78 -223c0 -67 32 -105 80 -105c44 0 86 30 124 88c40 62 62 137 62 194c0 63 -41 111 -91 111zM583 168c-39 -71 -91 -106 -155 -106c-74 0 -127 65 -127 162c0 67 32 142 90 199c44 44 97 67 143 67
c54 0 92 -34 107 -98l28 90h59l-82 -295c-5 -18 -10 -35 -10 -53c0 -34 19 -54 51 -54c28 0 70 17 108 53c61 57 100 147 100 242c0 189 -137 314 -347 314c-114 0 -215 -38 -292 -110c-89 -83 -135 -196 -135 -333c0 -112 33 -190 114 -260c76 -66 175 -102 287 -102
s217 35 304 102l13 -15c-95 -71 -202 -107 -317 -107c-122 0 -220 28 -300 90c-98 75 -149 181 -149 308c0 132 56 248 164 338c85 71 189 108 307 108c225 0 370 -132 370 -334c0 -102 -40 -197 -108 -259c-39 -36 -81 -54 -123 -54c-63 0 -96 36 -100 107z" />
    <glyph glyph-name="A" unicode="A" horiz-adv-x="1194" 
d="M949 -5c10 23 19 47 28 69c-71 7 -133 31 -195 72c-109 -94 -225 -141 -357 -141c-176 0 -279 83 -279 210c0 130 127 230 268 230c121 0 195 -65 195 -147c0 -102 -83 -176 -209 -176c-34 0 -50 4 -50 11c0 2 3 4 9 4c3 0 16 -2 37 -2c121 0 194 68 194 149
c0 71 -59 118 -157 118c-146 0 -260 -100 -260 -211c0 -101 93 -172 250 -172c129 0 246 47 346 137c-85 69 -127 143 -127 226c0 98 71 156 155 156c64 0 147 -34 207 -141c107 118 231 249 434 336c-164 -197 -279 -416 -377 -649c100 6 125 66 140 66c1 0 3 -1 3 -3
c0 -19 -54 -71 -150 -79l-25 -52zM1022 159c98 209 224 375 355 518c-107 -45 -228 -146 -366 -304c12 -38 19 -82 19 -130c0 -26 -3 -54 -8 -84zM983 78c22 55 33 106 33 163c0 45 -5 85 -16 121c-68 -72 -132 -146 -205 -214c54 -41 116 -63 188 -70zM782 156
c79 71 145 148 211 220c-41 81 -99 122 -170 122c-77 0 -144 -67 -144 -159c0 -73 33 -129 103 -183z" />
    <glyph glyph-name="B" unicode="B" horiz-adv-x="1046" 
d="M925 665c-129 -108 -179 -248 -240 -355c-120 -208 -276 -318 -405 -318c-79 0 -127 41 -127 91c0 32 22 52 48 52c23 0 41 -18 41 -44c0 -19 -13 -30 -13 -41c0 -23 22 -42 61 -42c112 0 201 103 305 289c51 91 94 176 155 244c41 45 93 91 157 138
c-54 26 -111 37 -176 37c-42 0 -83 -5 -127 -15c27 -30 45 -69 45 -125c0 -78 -40 -172 -106 -238c-59 -58 -127 -89 -190 -89c-77 0 -123 45 -123 113c0 125 120 275 339 347c-31 21 -66 31 -108 31c-118 0 -222 -73 -285 -202c-11 -23 -15 -42 -23 -42c-2 0 -2 2 -2 6
c0 14 10 41 31 77c65 112 165 174 277 174c51 0 94 -13 131 -40c51 10 98 17 142 17c68 0 131 -12 195 -37c31 15 50 26 59 26c6 0 9 -1 9 -3c0 -8 -18 -11 -47 -31c61 -35 92 -85 92 -141c0 -73 -55 -134 -159 -164c74 -19 129 -67 129 -151c0 -56 -27 -116 -77 -161
c-52 -47 -117 -73 -177 -73c-73 0 -118 41 -118 105c0 51 24 99 72 140c15 12 27 18 29 18s4 -2 4 -5c0 -6 -11 -12 -26 -25c-43 -37 -65 -81 -65 -126c0 -52 31 -87 87 -87c55 0 109 29 145 80c35 50 54 106 54 155c0 74 -47 118 -82 118c-19 0 -41 -17 -66 -17
c-18 0 -27 7 -27 21c0 17 11 24 34 24c17 0 33 -5 47 -5c50 0 129 80 129 177c0 41 -15 72 -48 97zM578 696c-216 -65 -333 -219 -333 -322c0 -58 35 -97 96 -97c47 0 108 31 165 93c69 75 103 155 103 236c0 36 -10 64 -31 90z" />
    <glyph glyph-name="C" unicode="C" horiz-adv-x="750" 
d="M310 340c-117 24 -184 101 -184 201c0 111 101 203 240 203c96 0 172 -36 246 -112c107 59 195 83 246 83c50 0 78 -25 78 -67c0 -69 -84 -157 -253 -234c-96 -44 -191 -70 -292 -77c-33 -74 -49 -148 -49 -205c0 -78 32 -119 98 -124c-2 21 -3 39 -3 51
c0 159 103 262 193 262c53 0 86 -36 86 -90c0 -87 -103 -217 -257 -239c2 -44 18 -71 18 -80c0 -3 -2 -5 -6 -5c-7 0 -20 28 -29 84h-20c-85 0 -153 69 -153 178c0 56 15 111 41 171zM457 9c141 13 243 136 243 220c0 39 -23 67 -57 67c-49 0 -100 -40 -143 -119
c-28 -52 -43 -103 -43 -154v-14zM415 387h19c94 0 187 21 279 62c139 62 208 142 208 197c0 35 -23 55 -62 55c-54 0 -134 -27 -230 -89c36 -57 54 -89 54 -96c0 -4 -3 -7 -5 -7c-9 0 -20 36 -62 94c-99 -71 -162 -142 -201 -216zM342 392c66 95 153 174 257 233
c-68 71 -142 105 -229 105c-130 0 -221 -78 -221 -168c0 -86 73 -157 193 -170z" />
    <glyph glyph-name="D" unicode="D" horiz-adv-x="875" 
d="M834 615c47 -60 69 -123 69 -196c0 -125 -64 -249 -173 -330c-82 -61 -181 -89 -303 -89c-43 0 -84 2 -123 2c-23 0 -59 -7 -104 -7c-63 0 -99 15 -99 36c0 14 17 22 48 22c66 0 122 -25 165 -25c66 0 132 61 201 182c61 108 127 261 287 413c-51 45 -122 69 -205 69
c-24 0 -50 -3 -77 -8c32 -42 49 -89 49 -142c0 -81 -36 -166 -96 -228c-52 -54 -115 -82 -173 -82c-85 0 -144 56 -144 142c0 133 121 274 321 325c-34 19 -69 27 -110 27c-122 0 -228 -78 -287 -215c-33 -78 -24 -132 -35 -132c-3 0 -7 5 -7 14c0 36 16 106 54 174
c62 110 165 173 274 173c49 0 92 -12 131 -36c28 4 55 7 79 7c95 0 179 -28 237 -77c60 46 103 66 120 66c3 0 5 -1 5 -3c0 -9 -45 -21 -104 -82zM354 19c35 -3 64 -4 87 -4c112 0 205 29 283 87c103 78 165 197 165 313c0 72 -21 135 -65 188c-85 -90 -127 -218 -204 -335
c-84 -127 -163 -211 -266 -249zM502 681c-178 -55 -292 -224 -292 -344c0 -58 33 -89 93 -89c54 0 110 24 154 69c63 64 98 147 98 229c0 51 -17 95 -53 135z" />
    <glyph glyph-name="E" unicode="E" horiz-adv-x="597" 
d="M319 12h10c41 0 84 16 125 47c65 48 100 118 100 173c0 41 -20 66 -55 66s-80 -28 -119 -83s-61 -124 -61 -180v-23zM303 -5h-5c-103 0 -162 56 -162 146c0 120 96 223 277 269c-18 9 -32 20 -42 35c-23 -3 -45 -5 -64 -5c-122 0 -194 59 -194 142c0 88 81 158 198 158
c65 0 125 -21 178 -63c67 30 123 43 162 43c43 0 66 -19 66 -47c0 -58 -110 -164 -307 -221c10 -29 27 -35 59 -35c9 0 19 2 28 2c18 0 27 -7 27 -16s-8 -15 -24 -15c-25 0 -46 10 -62 10c-25 0 -80 -19 -130 -60c-65 -54 -102 -130 -102 -206c0 -67 39 -113 94 -119
c0 8 -1 19 -1 30c0 167 95 275 188 275c49 0 81 -35 81 -81c0 -113 -98 -223 -248 -242c5 -48 16 -76 16 -86c0 -4 -2 -7 -3 -7c-9 0 -18 31 -30 93zM353 476c-4 12 -6 22 -6 32c0 53 42 111 128 160c-49 38 -104 58 -164 58c-101 0 -171 -55 -171 -123
c0 -69 80 -130 177 -130c9 0 22 2 36 3zM407 480c185 33 294 139 294 193c0 22 -16 34 -45 34s-80 -17 -137 -57c27 -29 41 -47 41 -58c0 -2 0 -4 -2 -4c-11 0 -20 23 -50 52c-64 -39 -101 -99 -101 -158v-2z" />
    <glyph glyph-name="F" unicode="F" horiz-adv-x="1022" 
d="M838 311c-121 -40 -164 -115 -179 -115c-1 0 -2 2 -2 3c0 10 17 29 52 58c40 33 87 56 142 74c119 211 240 298 265 298c3 0 4 0 4 -2c0 -7 -78 -52 -186 -284c115 13 175 67 190 67c5 0 8 -2 8 -5c0 -8 -47 -43 -104 -155c-11 -22 -14 -36 -27 -44
c-22 -14 -53 -25 -59 -25c-3 0 -5 4 -5 10c0 11 38 81 127 173c-44 -20 -89 -32 -139 -37c-123 -222 -293 -333 -519 -333c-170 0 -270 81 -270 205c0 133 115 236 266 236c120 0 197 -67 197 -151c0 -90 -92 -175 -212 -175c-76 0 -125 31 -125 41c0 2 3 3 6 3
c9 0 46 -30 117 -30c111 0 194 70 194 150c0 73 -59 122 -153 122c-150 0 -270 -100 -270 -209c0 -103 94 -179 247 -179c195 0 324 97 435 304zM938 588c0 -15 -13 -40 -37 -76c-60 -88 -130 -131 -216 -131c-91 0 -150 49 -150 110c0 56 38 109 110 149
c95 53 217 66 377 66c28 0 73 -2 132 -2c116 0 179 13 193 13c7 0 11 -4 11 -8c0 -15 -60 -63 -161 -63c-91 0 -196 25 -318 25c-206 0 -328 -82 -328 -174c0 -43 43 -80 109 -80c79 0 162 42 231 122c30 35 38 56 45 56c2 0 2 -2 2 -7z" />
    <glyph glyph-name="G" unicode="G" horiz-adv-x="912" 
d="M890 335c-83 -84 -155 -127 -227 -127c-65 0 -113 48 -113 119c0 5 0 15 1 28c-139 13 -218 89 -218 192c0 116 102 208 244 208c92 0 171 -36 233 -107c103 55 192 77 245 77c51 0 79 -23 79 -62c0 -60 -72 -141 -215 -216c-95 -50 -187 -80 -289 -89
c-5 -19 -8 -37 -8 -56c0 -52 19 -78 59 -78c69 0 136 61 225 147c42 41 62 65 77 65c3 0 5 -2 5 -5c0 -11 -15 -24 -31 -54c-33 -62 -60 -139 -99 -222c-96 -202 -272 -316 -462 -316c-159 0 -265 86 -265 203c0 123 121 233 271 233c116 0 198 -67 198 -153
c0 -90 -87 -170 -207 -170c-64 0 -120 22 -120 33c0 3 2 4 6 4c9 0 51 -24 118 -24c105 0 184 74 184 150c0 68 -58 117 -150 117c-73 0 -147 -27 -201 -74c-47 -40 -71 -88 -71 -136c0 -91 89 -167 220 -167c202 0 344 161 511 480zM644 404c118 0 226 29 322 86
c101 60 154 126 154 170c0 32 -22 50 -64 50c-53 0 -133 -27 -224 -88c36 -49 51 -82 51 -91c0 -5 -1 -8 -3 -8c-9 0 -19 38 -60 91c-94 -67 -153 -140 -176 -210zM565 405c41 92 119 170 232 237c-59 66 -137 101 -220 101c-127 0 -222 -81 -222 -171
c0 -86 79 -157 210 -167z" />
    <glyph glyph-name="H" unicode="H" horiz-adv-x="1184" 
d="M876 314c-120 -216 -299 -329 -501 -329c-167 0 -272 82 -272 202c0 128 122 236 290 236c122 0 197 -60 197 -146c0 -93 -97 -177 -229 -177c-73 0 -129 28 -129 37c0 3 3 4 5 4c11 0 47 -28 125 -28c117 0 210 77 210 151c0 69 -61 118 -163 118
c-169 0 -279 -107 -279 -211c0 -103 91 -171 241 -171c182 0 295 88 408 284c-95 -42 -136 -86 -153 -86c-1 0 -2 2 -2 3c0 11 56 53 164 102c57 105 120 191 183 268c-63 -32 -108 -54 -144 -54c-45 0 -70 29 -70 83c0 19 5 37 5 51c0 20 -5 29 -15 29
c-35 0 -97 -42 -167 -128c-49 -60 -61 -91 -71 -91c-2 0 -3 2 -3 5c0 7 20 43 61 92c85 101 156 149 202 149c38 0 60 -26 60 -74c0 -23 -4 -43 -4 -63c0 -22 8 -32 25 -32c28 0 87 25 169 81c76 52 118 90 139 90c10 0 16 -5 16 -13c0 -30 -76 -31 -137 -92
c-47 -48 -90 -141 -152 -271c62 17 120 38 175 53c161 218 326 314 394 314c37 0 57 -20 57 -53c0 -85 -126 -183 -375 -256c-89 -160 -131 -271 -131 -329c0 -28 10 -43 29 -43c23 0 62 28 115 84c23 24 32 39 38 39c3 0 6 -2 6 -5c0 -7 -16 -26 -48 -59
c-53 -53 -92 -81 -125 -81c-38 0 -68 42 -68 105c0 71 32 159 95 265c-53 -15 -110 -32 -171 -53zM1146 409c232 70 348 162 348 235c0 27 -13 41 -39 41c-64 0 -179 -88 -309 -276z" />
    <glyph glyph-name="I" unicode="I" horiz-adv-x="865" 
d="M870 324c-101 -215 -270 -327 -471 -327c-163 0 -267 90 -267 206c0 122 115 233 278 233c120 0 197 -71 197 -160c0 -90 -87 -167 -213 -167c-71 0 -126 27 -126 39c0 2 1 3 2 3c13 0 51 -29 122 -29c118 0 199 73 199 146c0 77 -55 126 -156 126
c-157 0 -269 -98 -269 -208c0 -99 86 -175 229 -175c169 0 291 101 398 313c-71 9 -112 52 -112 115c0 81 72 163 214 213c103 37 206 51 265 51c12 0 17 -2 17 -3c0 -6 -28 -6 -62 -28c-98 -62 -155 -172 -233 -327c85 14 114 79 130 79c1 0 2 -1 2 -2
c0 -19 -54 -81 -144 -98zM804 345c104 179 203 294 318 345c-256 -25 -395 -135 -395 -257c0 -53 28 -84 77 -88z" />
    <glyph glyph-name="J" unicode="J" horiz-adv-x="925" 
d="M649 -37c-115 -21 -200 -53 -251 -86c-41 -26 -71 -77 -107 -77c-13 0 -21 6 -21 15c0 26 27 35 65 53c50 24 73 54 73 99c0 70 -50 121 -134 121c-121 0 -229 -95 -229 -211c0 -108 89 -193 216 -193c137 0 275 93 388 279zM828 303c108 203 227 336 352 398
c-275 -34 -426 -169 -426 -305c0 -55 27 -88 74 -93zM725 -18c-138 -207 -306 -312 -458 -312c-146 0 -248 97 -248 223c0 135 108 239 248 239c92 0 157 -65 157 -151c0 -36 -8 -65 -27 -89c46 32 133 62 262 89c40 79 95 180 159 307c-72 6 -114 50 -114 113
c0 99 84 191 249 256c120 47 224 59 246 59c11 0 17 -3 17 -5c0 -12 -47 -19 -104 -76c-62 -63 -125 -173 -202 -328c88 21 123 86 136 86c1 0 2 -1 2 -2c0 -14 -16 -33 -48 -58c-31 -24 -64 -38 -100 -45c-49 -91 -103 -187 -162 -287c137 57 180 141 191 141
c3 0 5 -2 5 -5c0 -10 -67 -102 -209 -155z" />
    <glyph glyph-name="K" unicode="K" horiz-adv-x="1192" 
d="M932 343c67 -22 104 -74 104 -143c0 -48 -18 -99 -18 -144c0 -25 12 -37 29 -37c23 0 58 29 111 84c23 25 32 39 38 39c3 0 6 -2 6 -5c0 -7 -14 -22 -39 -48c-55 -59 -93 -90 -126 -90c-40 0 -82 53 -82 122c0 48 17 95 17 145c0 33 -25 61 -60 61c-9 0 -16 -1 -21 -1
c-10 0 -15 4 -15 12c0 18 21 12 43 15c26 4 70 24 114 65c53 48 101 125 177 190c75 64 151 94 206 94c56 0 91 -33 91 -71c0 -24 -18 -44 -42 -44c-17 0 -33 16 -33 34c0 13 12 28 12 42c0 12 -14 24 -37 24c-70 0 -128 -73 -228 -186c-66 -75 -133 -131 -247 -158z
M984 606c-67 -39 -116 -62 -151 -62c-42 0 -72 31 -72 72c0 17 2 28 2 34c0 18 -7 27 -24 27c-29 0 -91 -40 -157 -131c-47 -64 -55 -98 -65 -98c-2 0 -2 2 -2 5c0 15 23 62 75 127c69 86 139 126 183 126c37 0 58 -26 58 -73v-20c0 -30 8 -44 30 -44c25 0 83 23 165 74
c56 35 86 63 102 63c9 0 14 -3 14 -9c0 -18 -20 -24 -51 -37c-47 -20 -79 -47 -112 -95c-51 -73 -89 -176 -153 -277c-124 -197 -279 -294 -482 -294c-168 0 -265 84 -265 204c0 128 122 237 288 237c120 0 197 -66 197 -151c0 -100 -94 -176 -229 -176
c-74 0 -128 28 -128 40c0 2 3 3 8 3c7 0 49 -30 124 -30c117 0 204 73 204 154c0 70 -63 116 -164 116c-148 0 -270 -95 -270 -210c0 -107 82 -173 226 -173c182 0 287 85 392 249c63 99 131 227 257 349z" />
    <glyph glyph-name="L" unicode="L" horiz-adv-x="780" 
d="M554 394c46 77 95 145 153 204c-72 82 -164 125 -267 125c-142 0 -236 -81 -236 -181c0 -89 96 -158 248 -158c31 0 65 4 102 10zM638 413c194 71 293 175 293 243c0 26 -13 39 -39 39c-32 0 -91 -35 -153 -111c24 -33 36 -54 36 -62c0 -4 -1 -6 -3 -6
c-8 0 -16 22 -42 55c-31 -43 -63 -94 -92 -158zM531 350c-36 -6 -71 -9 -107 -9c-147 0 -242 79 -242 184c0 118 103 211 261 211c104 0 199 -44 275 -127c77 67 134 102 177 102c31 0 51 -22 51 -49c0 -82 -112 -198 -327 -289c-61 -122 -128 -221 -222 -295
c79 -30 146 -42 194 -42c63 0 113 29 169 84c19 18 27 32 37 32c1 0 2 -1 2 -3c0 -6 -13 -25 -40 -50c-76 -70 -144 -104 -200 -104c-48 0 -115 21 -204 54c-58 -33 -110 -52 -168 -52c-72 0 -116 27 -116 65c0 36 35 61 101 61c59 0 120 -16 191 -36c45 32 94 121 168 263z
M328 59c-63 23 -115 41 -166 41c-46 0 -70 -16 -70 -40c0 -27 39 -50 96 -50c48 0 97 17 140 49z" />
    <glyph glyph-name="M" unicode="M" horiz-adv-x="1278" 
d="M1149 659c-123 -90 -234 -196 -342 -314c-110 -120 -189 -210 -250 -259c-73 -59 -142 -89 -221 -89c-145 0 -238 86 -238 204c0 126 116 221 262 221c115 0 191 -66 191 -153c0 -89 -84 -170 -207 -170c-82 0 -144 41 -144 54c0 4 1 6 4 6c8 0 55 -47 144 -47
c106 0 182 69 182 142c0 69 -61 123 -167 123c-152 0 -247 -82 -247 -186c0 -98 85 -180 217 -180c88 0 154 33 229 98c93 80 190 206 327 343c175 175 296 256 314 256c2 0 3 -2 3 -4c0 -13 -16 -25 -38 -49c-42 -46 -90 -116 -149 -209c-136 -213 -195 -344 -195 -373
c0 -5 1 -7 4 -7c30 0 128 146 344 388c153 171 248 253 270 253c2 0 2 -1 2 -3c0 -11 -46 -73 -125 -198c-155 -245 -221 -405 -221 -461c0 -13 11 -24 24 -24c31 0 74 30 129 90c18 20 25 31 31 31c3 0 6 -2 6 -5c0 -7 -13 -22 -38 -48c-59 -60 -105 -92 -145 -92
c-38 0 -66 32 -66 82c0 116 115 294 329 555c-85 -68 -194 -194 -338 -367c-143 -172 -209 -262 -253 -262c-19 0 -30 17 -30 50c0 96 122 315 402 604z" />
    <glyph glyph-name="N" unicode="N" horiz-adv-x="1103" 
d="M954 603c-68 -113 -122 -224 -188 -321c-130 -188 -292 -287 -453 -287c-162 0 -267 82 -267 204c0 137 114 236 285 236c128 0 200 -60 200 -152c0 -91 -92 -173 -222 -173c-57 0 -97 16 -97 24c0 1 3 3 7 3c12 0 41 -13 86 -13c125 0 207 70 207 148
c0 73 -64 122 -169 122c-156 0 -272 -100 -272 -217c0 -98 96 -168 243 -168c195 0 364 136 518 407c110 193 169 294 188 294c3 0 4 -2 4 -7c0 -16 -33 -58 -33 -181c0 -34 1 -78 1 -133c0 -65 -1 -162 -31 -298c216 413 381 619 486 619c28 0 45 -17 45 -39
c0 -23 -19 -41 -39 -41c-40 0 -28 44 -54 44c-40 0 -136 -98 -267 -309c-149 -241 -198 -370 -216 -370c-5 0 -7 3 -7 11c0 5 22 37 22 120c0 72 -18 144 -18 217c0 75 15 161 41 260z" />
    <glyph glyph-name="O" unicode="O" horiz-adv-x="704" 
d="M571 609c29 13 54 20 75 20c81 0 129 -57 129 -158c0 -99 -51 -219 -153 -329c-92 -99 -190 -148 -277 -148c-98 0 -163 77 -163 198c0 144 102 317 295 454c-25 6 -48 10 -71 10c-124 0 -229 -78 -271 -201c-17 -49 -11 -87 -22 -87c-2 0 -4 5 -4 13
c0 143 127 289 294 289c28 0 57 -5 87 -14c81 46 147 69 203 69c82 0 134 -44 134 -118c0 -25 -4 -38 -11 -38c-2 0 -5 3 -5 10c0 6 2 14 2 25c0 68 -42 105 -115 105c-52 0 -115 -21 -176 -66c17 -10 34 -21 49 -34zM584 598c41 -46 72 -100 72 -175
c0 -54 -19 -108 -53 -152c-40 -51 -94 -78 -136 -78c-60 0 -101 43 -101 116c0 90 66 212 191 293c-16 13 -32 23 -50 32c-170 -132 -263 -337 -263 -477c0 -91 46 -145 122 -145c71 0 169 51 256 151c92 106 140 224 140 315c0 83 -46 137 -109 137c-25 0 -46 -6 -69 -17z
M568 592c-119 -71 -187 -194 -187 -284c0 -54 35 -92 77 -92c77 0 162 113 162 239c0 58 -16 103 -52 137z" />
    <glyph glyph-name="P" unicode="P" horiz-adv-x="840" 
d="M882 657c-85 -68 -139 -216 -242 -384c-113 -184 -254 -279 -384 -279c-77 0 -124 38 -124 85c0 33 21 57 47 57c23 0 42 -20 42 -43c0 -15 -12 -31 -12 -45c0 -19 24 -38 66 -38c118 0 206 112 319 317c70 126 141 244 274 339c-36 16 -86 29 -150 29
c-45 0 -90 -4 -136 -13c28 -31 41 -69 41 -118c0 -76 -33 -158 -94 -221c-57 -59 -139 -95 -200 -95c-73 0 -117 43 -117 116c0 64 46 153 133 225c59 49 123 82 196 100c-31 21 -65 31 -106 31c-90 0 -182 -51 -245 -139c-41 -58 -42 -91 -52 -91c-3 0 -4 2 -4 7
c0 12 15 57 54 106c68 86 158 132 251 132c49 0 91 -14 127 -41c51 10 101 16 151 16c60 0 116 -10 171 -29c27 17 43 29 54 29c4 0 6 -2 6 -4c0 -8 -17 -12 -44 -32c72 -46 109 -103 109 -172c0 -100 -94 -190 -195 -190c-61 0 -98 25 -98 36c0 4 2 5 4 5
c8 0 25 -18 67 -18c84 0 157 93 157 202c0 51 -24 94 -66 120zM553 677c-57 -12 -130 -39 -202 -100c-82 -70 -122 -148 -122 -207c0 -57 34 -94 93 -94c49 0 112 33 169 97c62 70 95 150 95 220c0 37 -10 63 -33 84z" />
    <glyph glyph-name="Q" unicode="Q" horiz-adv-x="789" 
d="M344 47c-87 38 -153 52 -188 52s-54 -16 -54 -37c0 -29 37 -50 100 -50c47 0 95 12 142 35zM565 688c-197 -64 -314 -208 -314 -320c0 -56 33 -93 87 -93c55 0 121 38 180 113c54 68 81 141 81 205c0 42 -11 73 -34 95zM591 694c31 -30 47 -71 47 -124
c0 -73 -31 -154 -88 -217c-56 -62 -144 -103 -203 -103c-71 0 -112 44 -112 114c0 117 114 263 318 334c-27 20 -58 29 -97 29c-100 0 -197 -59 -261 -166c-27 -46 -29 -74 -39 -74c-2 0 -4 3 -4 8c0 6 12 49 47 99c67 95 163 146 257 146c45 0 85 -12 123 -36
c26 7 52 11 76 11c110 0 179 -73 179 -185c0 -163 -137 -321 -409 -459c73 -28 127 -43 165 -43c57 0 109 29 170 84c25 22 35 41 45 41c3 0 4 -1 4 -3c0 -7 -14 -26 -45 -53c-77 -67 -146 -102 -225 -102c-54 0 -110 19 -176 43c-57 -25 -110 -39 -164 -39
c-74 0 -115 27 -115 64c0 34 37 61 102 61c55 0 126 -16 217 -45c64 28 120 69 174 122c131 129 196 262 196 378c0 69 -50 121 -128 121c-14 0 -32 -2 -54 -6z" />
    <glyph glyph-name="R" unicode="R" horiz-adv-x="994" 
d="M873 657c-85 -68 -139 -216 -242 -384c-113 -184 -254 -279 -384 -279c-77 0 -124 38 -124 85c0 33 20 57 46 57c23 0 43 -20 43 -43c0 -15 -12 -31 -12 -45c0 -19 24 -38 66 -38c118 0 206 112 319 317c70 126 140 244 273 339c-45 25 -101 35 -174 35
c-51 0 -88 -8 -111 -14c26 -36 38 -75 38 -120c0 -76 -35 -161 -95 -223c-54 -56 -135 -91 -195 -91c-77 0 -121 43 -121 116c0 109 124 264 336 325c-33 23 -70 31 -117 31c-85 0 -186 -57 -246 -145c-35 -52 -39 -91 -45 -91c-4 0 -7 2 -7 7c0 13 16 61 58 115
c62 80 157 128 251 128c53 0 98 -13 132 -39c43 10 84 15 125 15c77 0 141 -12 192 -34c27 17 42 29 53 29c4 0 6 -2 6 -4c0 -8 -16 -12 -43 -32c63 -32 98 -85 98 -139c0 -85 -91 -177 -212 -192c50 -28 78 -73 78 -119c0 -65 -32 -133 -32 -174c0 -17 10 -31 23 -31
c22 0 57 24 103 74c27 29 39 49 44 49c4 0 6 -2 6 -4c0 -5 -11 -22 -37 -51c-53 -59 -95 -89 -127 -89c-34 0 -72 43 -72 108c0 62 30 123 30 173c0 31 -16 51 -35 51c-9 0 -23 -3 -39 -3c-20 0 -30 7 -30 19c0 9 10 19 29 19s38 -9 54 -9c53 0 149 84 149 200
c0 43 -18 78 -52 101zM548 682c-208 -54 -331 -202 -331 -313c0 -57 33 -92 89 -92c53 0 118 34 178 101c62 69 93 144 93 213c0 39 -8 68 -29 91z" />
    <glyph glyph-name="S" unicode="S" horiz-adv-x="785" 
d="M816 403c-108 -273 -257 -408 -471 -408c-158 0 -262 87 -262 205c0 126 120 229 275 229c116 0 190 -61 190 -151c0 -95 -82 -168 -202 -168c-72 0 -130 24 -130 35c0 1 1 3 2 3c17 0 58 -25 124 -25c113 0 191 66 191 150c0 74 -63 121 -163 121
c-142 0 -259 -99 -259 -214c0 -102 91 -170 230 -170c189 0 296 120 396 380c-19 -2 -36 -3 -51 -3c-143 0 -237 83 -237 181c0 95 87 169 214 169c96 0 174 -37 236 -112c67 56 121 83 158 83c33 0 52 -21 52 -54c0 -76 -102 -193 -293 -251zM748 414c40 82 89 147 141 200
c-56 72 -134 109 -226 109c-113 0 -187 -66 -187 -142c0 -85 103 -168 245 -168c9 0 18 1 27 1zM827 428c172 40 268 162 268 227c0 24 -15 40 -39 40c-28 0 -81 -30 -136 -96c23 -29 32 -51 32 -58c0 -3 -2 -5 -4 -5c-9 0 -14 22 -37 51c-35 -46 -61 -100 -84 -159z" />
    <glyph glyph-name="T" unicode="T" horiz-adv-x="903" 
d="M1120 631c0 -9 -50 -16 -121 -134c-62 -104 -107 -206 -167 -285c-109 -144 -260 -217 -450 -217c-178 0 -282 87 -282 208c0 122 110 230 279 230c115 0 190 -62 190 -148c0 -102 -82 -173 -207 -173c-72 0 -128 28 -128 38c0 3 1 4 5 4c12 0 51 -28 121 -28
c114 0 194 67 194 157c0 69 -60 115 -163 115c-146 0 -264 -104 -264 -213c0 -105 95 -177 257 -177c142 0 250 52 341 165c71 88 122 204 205 311c81 106 164 150 183 150c5 0 7 -1 7 -3zM916 589c0 -11 -14 -39 -45 -84c-56 -81 -129 -123 -215 -123
c-88 0 -141 47 -141 116c0 66 53 127 155 166c104 40 236 43 398 43h105c94 0 143 9 152 9c8 0 11 -2 11 -4c0 -16 -55 -59 -160 -59c-90 0 -199 22 -328 22c-200 0 -319 -84 -319 -175c0 -50 40 -88 99 -88c85 0 173 45 244 131c25 30 33 52 42 52c2 0 2 -2 2 -6z" />
    <glyph glyph-name="U" unicode="U" horiz-adv-x="863" 
d="M693 204c-118 -144 -217 -209 -262 -209c-34 0 -56 28 -56 77c0 68 39 137 98 227l127 192c37 56 53 101 53 126c0 52 -36 81 -105 81c-13 0 -28 -2 -44 -4c30 -24 43 -57 43 -105c0 -67 -30 -138 -89 -195c-51 -50 -111 -76 -166 -76c-64 0 -103 40 -103 101
c0 96 103 221 277 278c-23 9 -46 14 -69 14c-105 0 -227 -81 -290 -216c-41 -89 -29 -142 -41 -142c-2 0 -5 5 -5 16c0 52 24 132 70 197c70 100 170 157 269 157c31 0 59 -6 88 -19c26 5 48 7 68 7c84 0 132 -47 132 -132c0 -71 -39 -139 -100 -232l-115 -176
c-43 -66 -63 -111 -63 -128c0 -19 10 -28 31 -28c52 0 187 103 348 351l214 332l84 5l-338 -528c-43 -68 -60 -121 -60 -134s10 -23 20 -23c33 0 65 28 113 77c29 29 39 47 45 47c3 0 6 -2 6 -5c0 -8 -18 -27 -51 -61c-50 -52 -89 -78 -119 -78c-31 0 -47 26 -47 73
c0 41 13 83 37 133zM482 689c-174 -55 -276 -171 -276 -264c0 -48 28 -76 72 -76c51 0 123 36 172 98c46 58 68 124 68 168c0 33 -12 57 -36 74z" />
    <glyph glyph-name="V" unicode="V" horiz-adv-x="679" 
d="M397 36c109 82 226 214 365 387c154 191 244 294 298 294c20 0 36 -17 36 -37c0 -21 -17 -39 -38 -39c-20 0 -35 17 -47 17c-54 0 -162 -164 -362 -395c-175 -202 -293 -282 -305 -282c-3 0 -8 4 -8 9c0 17 33 45 74 129c68 139 90 290 155 426c-44 1 -74 20 -103 60
c-34 46 -40 98 -92 98c-43 0 -105 -23 -157 -66c-65 -53 -99 -119 -99 -181c0 -52 33 -89 79 -89c66 0 138 53 184 147c25 51 24 88 35 88c3 0 6 -8 6 -24c0 -126 -90 -249 -201 -249c-69 0 -117 48 -117 122c0 61 28 126 82 177c66 62 153 97 226 97c55 0 89 -28 114 -85
c18 -40 25 -68 51 -75c66 106 129 159 178 159c25 0 41 -18 41 -44c0 -50 -64 -118 -167 -136c-38 -187 -114 -346 -228 -508zM628 560c92 14 150 79 150 120c0 16 -12 29 -24 29c-42 0 -91 -51 -126 -149z" />
    <glyph glyph-name="W" unicode="W" horiz-adv-x="937" 
d="M628 560c92 14 150 79 150 120c0 16 -12 29 -24 29c-38 0 -88 -44 -126 -149zM402 47c159 140 263 299 367 427c70 86 124 137 149 167c34 42 44 77 69 77c8 0 12 -6 12 -16c0 -20 -26 -35 -50 -65c-20 -25 -43 -77 -67 -156c-24 -81 -65 -229 -227 -445
c109 82 226 214 365 387c154 191 243 294 297 294c20 0 37 -17 37 -37c0 -21 -18 -39 -39 -39c-20 0 -34 17 -46 17c-54 0 -163 -164 -363 -395c-175 -202 -293 -282 -305 -282c-3 0 -8 4 -8 9c0 20 37 47 76 126c53 107 86 262 185 437c-112 -120 -207 -275 -342 -419
c-97 -103 -158 -152 -171 -152c-4 0 -8 4 -8 8c0 17 34 45 75 129c68 138 89 289 154 426c-44 1 -74 20 -103 60c-34 46 -40 98 -92 98c-43 0 -105 -23 -157 -66c-65 -53 -98 -119 -98 -181c0 -52 32 -89 78 -89c66 0 138 53 184 147c25 51 24 88 35 88c2 0 6 -8 6 -20
c0 -127 -87 -253 -201 -253c-68 0 -117 48 -117 122c0 61 29 126 83 177c66 62 152 97 225 97c55 0 89 -28 114 -85c18 -40 26 -68 52 -75c58 106 129 159 177 159c26 0 43 -19 43 -44c0 -47 -64 -116 -168 -136c-41 -184 -112 -341 -221 -497z" />
    <glyph glyph-name="X" unicode="X" horiz-adv-x="730" 
d="M640 386c255 77 381 151 381 254c0 34 -16 52 -46 52c-68 0 -203 -95 -335 -306zM547 344c-279 -72 -419 -164 -419 -272c0 -37 23 -61 64 -61c90 0 222 107 355 333zM503 691c27 -21 39 -50 39 -89c0 -64 -30 -134 -81 -185c-48 -48 -114 -76 -160 -76
c-51 0 -79 30 -79 81c0 89 92 218 249 273c-20 11 -40 15 -64 15c-117 0 -234 -87 -294 -233c-31 -74 -25 -108 -35 -108c-2 0 -5 3 -5 10c0 24 13 81 48 147c64 123 176 198 280 198c33 0 62 -8 90 -24c21 6 40 9 57 9c80 0 129 -55 129 -149c0 -9 -1 -21 -2 -37
c118 127 230 184 296 184c42 0 65 -27 65 -66c0 -112 -135 -190 -404 -273c-76 -128 -109 -232 -109 -299c0 -37 15 -58 42 -58c35 0 76 33 132 92c23 24 31 39 37 39c3 0 6 -2 6 -5c0 -8 -14 -22 -38 -48c-53 -57 -93 -94 -142 -94c-44 0 -73 42 -73 116c0 10 2 29 6 58
c-115 -119 -230 -174 -311 -174c-59 0 -96 34 -96 77c0 109 157 205 470 290c52 88 83 160 83 231c0 65 -33 103 -93 103c-13 0 -27 -2 -43 -5zM485 686c-157 -55 -247 -178 -247 -260c0 -37 21 -59 55 -59c37 0 93 27 147 82c55 56 82 118 82 162c0 30 -12 55 -37 75z" />
    <glyph glyph-name="Y" unicode="Y" horiz-adv-x="942" 
d="M884 361c-107 -111 -186 -171 -247 -171c-33 0 -54 26 -54 70c0 40 17 91 53 148c59 94 118 156 118 216c0 50 -39 81 -108 81c-67 0 -152 -30 -220 -83c-65 -50 -97 -109 -97 -149c0 -43 27 -70 77 -70c78 0 172 63 215 158c28 61 26 95 35 95c2 0 6 -7 6 -20
c0 -30 -9 -78 -29 -120c-45 -97 -118 -147 -210 -147c-65 0 -111 37 -111 93c0 59 40 123 115 178c70 50 155 78 220 78c88 0 139 -52 139 -136c0 -77 -49 -132 -96 -209c-44 -72 -72 -116 -72 -139c0 -18 8 -25 26 -25c84 0 187 110 332 298c119 156 244 220 262 220
c7 0 13 -4 13 -9c0 -15 -23 -18 -54 -32c-58 -26 -103 -75 -146 -149c-75 -129 -132 -269 -213 -393c-119 -183 -272 -273 -473 -273c-172 0 -277 82 -277 199c0 128 118 241 279 241c119 0 189 -63 189 -151c0 -99 -92 -174 -213 -174c-43 0 -71 9 -71 19c0 3 2 3 6 3
c10 0 32 -7 65 -7c107 0 192 66 192 151c0 72 -57 120 -155 120c-65 0 -129 -23 -181 -64c-55 -43 -84 -94 -84 -148c0 -98 93 -175 243 -175c243 0 369 153 526 476z" />
    <glyph glyph-name="Z" unicode="Z" horiz-adv-x="819" 
d="M487 221c-140 -151 -252 -226 -331 -226c-47 0 -75 27 -75 68c0 98 141 199 321 199c24 0 50 -2 79 -7c80 97 154 189 231 271c-46 13 -72 36 -92 75c-25 48 -31 93 -98 93c-42 0 -108 -23 -164 -70c-62 -51 -94 -113 -94 -168c0 -57 37 -95 84 -95c64 0 137 58 184 161
c22 49 20 76 30 76c2 0 4 -5 4 -12c0 -21 -8 -68 -25 -110c-38 -93 -107 -143 -179 -143c-65 0 -114 46 -114 117c0 66 38 137 107 190c65 50 135 75 193 75c77 0 104 -29 140 -93c15 -26 25 -51 50 -67c101 104 186 153 242 153c35 0 56 -19 56 -50
c0 -74 -102 -142 -252 -142c-9 0 -22 0 -39 1c-79 -87 -156 -180 -237 -273c58 -22 92 -53 108 -108c19 -64 18 -113 52 -113c19 0 64 24 116 79c24 25 33 40 39 40c3 0 5 -2 5 -5c0 -7 -17 -29 -54 -65c-51 -51 -103 -74 -135 -74c-54 0 -76 50 -94 134
c-10 47 -28 76 -58 89zM459 229c-26 7 -52 9 -80 9c-175 0 -283 -93 -283 -174c0 -34 24 -54 61 -54c75 0 181 71 302 219zM768 543c21 -5 41 -7 60 -7c108 0 193 63 193 121c0 22 -17 36 -40 36c-59 0 -127 -51 -213 -150z" />
    <glyph glyph-name="bracketleft" unicode="[" horiz-adv-x="324" 
d="M570 721c13 0 19 -4 19 -10c0 -4 -7 -10 -19 -10h-108l-463 -748h112c12 0 18 -4 18 -9s-7 -11 -19 -11h-132c-16 0 -24 4 -24 12c0 5 6 17 18 36l434 711c16 26 30 29 56 29h108z" />
    <glyph glyph-name="backslash" unicode="\" horiz-adv-x="296" 
d="M208 552l36 -641l-10 -4l-72 645h46z" />
    <glyph glyph-name="bracketright" unicode="]" horiz-adv-x="324" 
d="M-143 -67c-12 0 -19 4 -19 10c0 5 7 10 19 10h108l463 748h-112c-12 0 -18 4 -18 9c0 6 6 11 18 11h133c16 0 24 -4 24 -12c0 -5 -6 -17 -18 -36l-434 -711c-16 -26 -30 -29 -56 -29h-108z" />
    <glyph glyph-name="asciicircum" unicode="^" horiz-adv-x="1000" 
d="M462 714h74l261 -276h-41l-257 227l-259 -227h-39z" />
    <glyph glyph-name="underscore" unicode="_" 
d="M0 -197h500v-39h-500v39z" />
    <glyph glyph-name="quoteleft" unicode="&#x2018;" horiz-adv-x="204" 
d="M197 571c0 22 16 51 49 86c46 48 83 73 89 73s10 -2 10 -7c0 -12 -61 -42 -76 -88c-12 -38 -1 -94 -42 -94c-18 0 -30 12 -30 30z" />
    <glyph glyph-name="a" unicode="a" horiz-adv-x="394" 
d="M268 214l41 60l66 4l-110 -173c-22 -35 -37 -59 -37 -78c0 -11 4 -16 15 -16c17 0 53 28 108 85c29 29 40 46 46 46c3 0 6 -1 6 -4c0 -7 -16 -26 -46 -56c-53 -54 -88 -87 -125 -87c-27 0 -41 18 -41 50c0 10 2 22 5 38c-47 -59 -90 -88 -126 -88c-35 0 -58 37 -58 102
c0 15 2 30 7 47c-9 -14 -16 -20 -21 -20c-4 0 -6 1 -6 4c0 5 16 25 47 56c68 68 133 98 180 98c33 0 53 -19 53 -46c0 -6 -1 -13 -4 -22zM54 44c0 -19 9 -31 24 -31c21 0 55 21 93 63c58 64 85 122 85 160c0 17 -14 31 -33 31c-31 0 -71 -27 -110 -81
c-41 -58 -59 -112 -59 -142z" />
    <glyph glyph-name="b" unicode="b" horiz-adv-x="338" 
d="M371 611l-249 -423c-52 -88 -81 -138 -81 -159c0 -14 9 -19 30 -19c61 0 136 58 154 168c10 62 0 104 40 104c19 0 29 -14 29 -41c0 -37 -19 -91 -63 -150c6 -1 12 -3 17 -3c22 0 54 16 81 44l14 14c2 3 5 4 7 4c3 0 4 -2 4 -6c0 -3 0 -4 -1 -5l-11 -13
c-31 -35 -65 -52 -102 -52c-6 0 -14 0 -23 2c-51 -54 -106 -81 -154 -81c-37 0 -58 24 -58 64c0 32 17 67 39 113l-24 -27c-11 -12 -17 -21 -22 -21c-4 0 -5 1 -5 4c0 11 76 76 181 255l128 219z" />
    <glyph glyph-name="c" unicode="c" horiz-adv-x="281" 
d="M20 144c-10 -13 -17 -19 -22 -19c-4 0 -6 1 -6 4c0 4 13 20 40 49c64 69 129 104 181 104c40 0 65 -20 65 -52c0 -27 -17 -46 -37 -46c-18 0 -30 9 -30 26c0 24 31 22 31 41c0 9 -8 17 -21 17c-50 0 -158 -107 -158 -212c0 -30 15 -47 41 -47c39 0 76 27 123 74
c38 37 51 59 58 59c4 0 6 -2 6 -5c0 -7 -18 -26 -51 -60c-53 -53 -96 -82 -142 -82c-49 0 -84 45 -84 108c0 13 2 26 6 41z" />
    <glyph glyph-name="d" unicode="d" horiz-adv-x="394" 
d="M268 214l222 394l65 3l-273 -474c-32 -55 -49 -91 -49 -109c0 -8 7 -14 16 -14c13 0 51 29 109 89c24 25 33 39 39 39c3 0 6 -1 6 -4c0 -7 -16 -26 -46 -56c-53 -54 -88 -87 -125 -87c-27 0 -41 18 -41 50c0 10 2 22 5 38c-47 -59 -90 -88 -126 -88c-35 0 -58 37 -58 102
c0 15 2 30 7 47c-9 -14 -16 -20 -21 -20c-4 0 -6 1 -6 4c0 5 16 25 47 56c68 68 133 98 180 98c33 0 53 -19 53 -46c0 -6 -1 -13 -4 -22zM54 44c0 -19 9 -31 24 -31c21 0 55 21 93 63c58 64 85 122 85 160c0 17 -14 31 -33 31c-31 0 -71 -27 -110 -81
c-41 -58 -59 -112 -59 -142z" />
    <glyph glyph-name="e" unicode="e" horiz-adv-x="281" 
d="M20 145c-10 -13 -17 -20 -22 -20c-4 0 -5 1 -5 4c0 4 13 21 39 49c64 70 128 104 183 104c34 0 55 -20 55 -46c0 -52 -71 -110 -201 -140c-3 -18 -5 -31 -5 -40c0 -30 15 -46 40 -46c38 0 76 27 123 73c38 38 51 59 58 59c4 0 6 -2 6 -5c0 -7 -18 -26 -51 -60
c-53 -53 -96 -82 -141 -82c-49 0 -85 45 -85 108c0 13 2 27 6 42zM74 112c104 22 163 98 163 138c0 11 -8 20 -18 20c-34 0 -107 -55 -145 -158z" />
    <glyph glyph-name="f" unicode="f" horiz-adv-x="220" 
d="M184 285c190 128 267 257 267 298c0 18 -10 29 -27 29c-61 0 -134 -110 -240 -327zM50 14h5c26 0 64 22 110 68c38 39 53 60 59 60c3 0 6 -2 6 -5c0 -7 -25 -37 -73 -82c-46 -43 -85 -65 -116 -65h-4l-138 -276l-71 -8l159 294c-11 9 -16 19 -16 28c0 19 14 33 31 33
c5 0 10 -2 16 -5l102 191c-82 -73 -111 -123 -123 -123c-3 0 -4 2 -4 4c0 9 50 70 157 171c113 217 201 327 277 327c26 0 46 -22 46 -48c0 -73 -103 -178 -306 -326z" />
    <glyph glyph-name="g" unicode="g" horiz-adv-x="369" 
d="M268 214l41 60l61 4c-63 -103 -116 -197 -159 -280c111 72 151 144 162 144c3 0 5 -2 5 -5c0 -8 -60 -88 -181 -162c-103 -195 -196 -291 -260 -291c-33 0 -51 17 -51 50c0 70 91 144 267 247l51 110c-53 -62 -95 -96 -134 -96c-35 0 -58 37 -58 102c0 15 2 30 7 47
c-9 -14 -16 -20 -21 -20c-4 0 -6 1 -6 4c0 5 16 25 47 56c68 68 133 98 180 98c33 0 53 -19 53 -46c0 -6 -1 -13 -4 -22zM54 44c0 -19 9 -31 24 -31c21 0 55 21 93 63c58 64 85 122 85 160c0 17 -14 31 -33 31c-31 0 -71 -27 -110 -81c-41 -58 -59 -112 -59 -142zM142 -40
c-155 -90 -229 -173 -229 -228c0 -22 10 -34 29 -34c53 0 114 88 200 262z" />
    <glyph glyph-name="h" unicode="h" horiz-adv-x="377" 
d="M-42 -1l144 230l-80 -86c-11 -12 -20 -19 -23 -19c-4 0 -6 1 -6 4c0 17 91 76 196 255l128 219l65 9l-283 -483c91 100 147 155 183 155c23 0 38 -20 38 -49c0 -43 -28 -75 -62 -122c-29 -40 -46 -66 -46 -84c0 -12 5 -18 16 -18c16 0 53 28 108 85c29 30 40 47 46 47
c3 0 5 -2 5 -5c0 -8 -17 -26 -48 -58c-55 -56 -92 -84 -112 -84c-29 0 -48 29 -48 71c0 40 26 75 64 123c27 34 44 51 44 66c0 8 -3 12 -11 12c-27 0 -118 -84 -257 -261z" />
    <glyph glyph-name="i" unicode="i" horiz-adv-x="220" 
d="M212 435c0 21 20 45 41 45c16 0 27 -12 27 -29c0 -21 -19 -45 -40 -45c-16 0 -28 12 -28 29zM89 219c-60 -59 -82 -94 -92 -94c-3 0 -4 1 -4 3c0 8 42 57 127 145l72 5l-99 -156c-30 -47 -49 -77 -49 -94c0 -10 8 -19 17 -19c27 0 63 30 117 87c28 30 39 46 46 46
c4 0 6 -2 6 -5c0 -7 -16 -24 -46 -55c-54 -55 -90 -87 -122 -87s-54 24 -54 63c0 42 33 88 81 161z" />
    <glyph glyph-name="j" unicode="j" horiz-adv-x="201" 
d="M180 435c0 21 19 45 40 45c16 0 27 -12 27 -29c0 -21 -19 -45 -40 -45c-16 0 -27 12 -27 29zM-25 -40c-155 -90 -229 -173 -229 -228c0 -22 10 -34 29 -34c53 0 114 88 200 262zM108 240c-72 -75 -100 -116 -110 -116c-3 0 -5 2 -5 4c0 6 8 16 23 33l98 112l71 5
c-47 -99 -94 -192 -141 -280c112 77 151 144 161 144c3 0 6 -1 6 -4c0 -9 -57 -84 -180 -163c-103 -195 -196 -291 -260 -291c-33 0 -51 17 -51 50c0 70 91 144 267 247z" />
    <glyph glyph-name="k" unicode="k" horiz-adv-x="387" 
d="M18 6l-60 -7l144 230l-80 -86c-11 -12 -20 -19 -23 -19c-4 0 -6 1 -6 4c0 17 91 76 196 255l128 219l64 9zM187 152c-18 -9 -32 -15 -47 -15c-13 0 -21 6 -21 17c0 12 12 21 33 21c11 0 20 -3 31 -9c27 5 43 30 70 62c31 36 55 55 84 55c24 0 39 -14 39 -35
c0 -20 -11 -33 -29 -33c-29 0 -23 41 -40 41c-21 0 -28 -77 -104 -98c27 -17 40 -35 40 -60c0 -32 -18 -57 -18 -75c0 -8 5 -13 14 -13c13 0 54 30 113 93c24 25 32 39 38 39c3 0 6 -2 6 -5c0 -8 -16 -26 -48 -58c-54 -56 -92 -84 -115 -84c-30 0 -59 35 -59 76
c0 31 15 53 15 68c0 3 -1 8 -2 13z" />
    <glyph glyph-name="l" unicode="l" horiz-adv-x="220" 
d="M88 219c-59 -60 -80 -95 -90 -95c-3 0 -5 2 -5 4c0 6 8 16 23 33l32 35c56 61 84 96 87 100l197 306l65 9l-308 -489c-30 -47 -49 -77 -49 -94c0 -11 8 -19 18 -19c32 0 65 32 120 87c28 28 39 46 46 46c4 0 6 -2 6 -5c0 -7 -16 -24 -46 -55c-54 -55 -90 -87 -122 -87
s-54 24 -54 63c0 42 32 88 80 161z" />
    <glyph glyph-name="m" unicode="m" horiz-adv-x="609" 
d="M13 -1l131 195c19 28 32 46 32 60c0 9 -4 13 -14 13c-24 0 -60 -33 -117 -94c-27 -29 -38 -49 -47 -49c-3 0 -5 2 -5 4c0 6 8 16 23 33l32 35c51 55 85 87 118 87c24 0 39 -18 39 -47c0 -32 -14 -66 -40 -108c81 102 134 155 174 155c24 0 40 -18 40 -42
c0 -37 -15 -72 -42 -111c87 99 140 153 176 153c23 0 38 -20 38 -49c0 -43 -28 -75 -62 -122c-29 -40 -46 -66 -46 -84c0 -12 5 -18 16 -18c16 0 53 28 108 85c29 30 40 47 46 47c3 0 6 -2 6 -5c0 -8 -18 -26 -49 -58c-55 -56 -92 -84 -112 -84c-29 0 -48 29 -48 71
c0 40 26 75 64 123c27 34 44 51 44 66c0 8 -3 12 -11 12c-26 0 -113 -85 -249 -261l-70 -7l130 195c19 28 31 46 31 61c0 9 -4 12 -14 12c-42 0 -115 -94 -251 -261z" />
    <glyph glyph-name="n" unicode="n" horiz-adv-x="443" 
d="M14 -1l130 195c19 28 32 45 32 60c0 9 -4 13 -14 13c-24 0 -60 -33 -117 -94c-27 -29 -38 -49 -47 -49c-3 0 -5 2 -5 4c0 6 8 16 23 33l32 35c51 55 85 87 118 87c24 0 39 -18 39 -47c0 -32 -14 -66 -40 -108c90 101 146 154 182 154c23 0 38 -19 38 -48
c0 -43 -28 -75 -62 -122c-29 -40 -46 -66 -46 -84c0 -12 5 -18 16 -18c16 0 53 28 108 85c29 30 40 47 46 47c3 0 6 -2 6 -5c0 -8 -18 -26 -49 -58c-55 -56 -92 -84 -112 -84c-29 0 -48 29 -48 71c0 40 26 75 64 123c27 34 44 51 44 66c0 8 -3 11 -11 11
c-28 0 -118 -84 -257 -260z" />
    <glyph glyph-name="o" unicode="o" horiz-adv-x="332" 
d="M224 91c5 -1 10 -3 16 -3c23 0 55 13 83 44l13 15c1 1 5 3 8 3s4 -2 4 -6c0 -2 0 -4 -1 -5l-11 -13c-28 -34 -65 -52 -102 -52c-6 0 -14 0 -23 2c-49 -54 -96 -81 -132 -81c-42 0 -67 36 -67 104c0 14 3 29 8 46c-10 -13 -17 -20 -22 -20c-4 0 -5 1 -5 4c0 5 14 21 41 51
c64 70 129 104 176 104c42 0 69 -28 69 -72c0 -38 -20 -76 -55 -121zM56 47c0 -24 10 -36 31 -36c19 0 56 19 94 60c47 50 71 106 71 146c0 32 -15 50 -38 50c-30 0 -64 -27 -102 -81c-40 -57 -56 -108 -56 -139z" />
    <glyph glyph-name="p" unicode="p" horiz-adv-x="377" 
d="M-125 -257l-65 -7l292 493l-80 -86c-11 -12 -20 -19 -23 -19c-4 0 -6 1 -6 4c0 17 93 81 202 253l58 91l60 5l-214 -349c91 100 147 155 183 155c23 0 38 -20 38 -49c0 -43 -28 -75 -62 -122c-29 -40 -46 -66 -46 -84c0 -12 5 -18 16 -18c16 0 53 28 108 85
c29 30 40 47 46 47c3 0 5 -2 5 -5c0 -8 -17 -26 -48 -58c-55 -56 -92 -84 -112 -84c-29 0 -48 29 -48 71c0 40 26 75 64 123c27 34 44 51 44 66c0 8 -3 12 -11 12c-21 0 -148 -94 -269 -300z" />
    <glyph glyph-name="q" unicode="q" horiz-adv-x="363" 
d="M268 210l41 65l53 3l-235 -419c47 59 80 100 98 121l64 75c49 58 73 87 80 87c3 0 5 -1 5 -3c0 -20 -140 -144 -324 -419l-62 -4l208 368c-47 -59 -90 -88 -126 -88c-35 0 -58 36 -58 102c0 14 3 30 8 46c-10 -13 -17 -19 -22 -19c-4 0 -6 0 -6 3c0 6 14 22 42 51
c68 71 138 104 185 104c33 0 52 -18 52 -47c0 -8 -1 -16 -3 -26zM54 44c0 -19 9 -31 24 -31c21 0 55 21 93 63c58 64 85 122 85 160c0 17 -14 31 -33 31c-31 0 -71 -27 -110 -81c-41 -58 -59 -112 -59 -142z" />
    <glyph glyph-name="r" unicode="r" horiz-adv-x="330" 
d="M14 0l130 194c19 28 32 46 32 60c0 9 -4 13 -14 13c-24 0 -60 -33 -117 -94c-27 -29 -38 -49 -47 -49c-3 0 -5 2 -5 4c0 6 8 16 23 33l32 35c51 55 85 87 118 87c24 0 39 -19 39 -43c0 -42 -20 -77 -48 -124c27 26 55 53 86 80c22 58 41 87 82 87c14 0 23 -7 23 -16
c0 -19 -29 -38 -73 -71c-24 -18 -41 -39 -41 -74c0 -16 10 -27 25 -27c41 0 67 48 76 48c3 0 6 -2 6 -5c0 -12 -45 -56 -80 -56c-27 0 -42 14 -42 39c0 11 5 27 13 48c-43 -36 -91 -90 -148 -162z" />
    <glyph glyph-name="s" unicode="s" horiz-adv-x="218" 
d="M123 258c-82 -83 -114 -134 -126 -134c-3 0 -5 2 -5 4c0 10 46 57 130 149c12 29 26 42 41 42c13 0 20 -7 20 -19c0 -11 -7 -19 -21 -25c-16 -7 -25 -5 -25 -36c0 -39 19 -80 19 -119c0 -21 -4 -39 -13 -59c51 51 72 81 79 81c4 0 6 -2 6 -5c0 -6 -14 -22 -39 -48
c-56 -59 -99 -94 -152 -94c-41 0 -68 21 -68 52c0 17 15 32 31 32c12 0 21 -9 21 -19c0 -11 -12 -24 -12 -38c0 -6 5 -11 15 -11c34 0 101 76 101 209c0 12 -1 25 -2 38z" />
    <glyph glyph-name="t" unicode="t" horiz-adv-x="220" 
d="M89 219c-60 -59 -82 -94 -92 -94c-3 0 -4 1 -4 3c0 21 92 93 142 168l43 65h-48l8 14h49l61 97l65 5l-64 -102h115l-8 -14h-116l-149 -239c-31 -49 -47 -80 -47 -94c0 -10 8 -19 17 -19c28 0 63 31 117 87c29 30 39 46 46 46c4 0 6 -2 6 -5c0 -7 -16 -24 -46 -55
c-54 -55 -90 -87 -122 -87s-54 24 -54 63c0 42 33 88 81 161z" />
    <glyph glyph-name="u" unicode="u" horiz-adv-x="388" 
d="M249 87c-17 -27 -28 -44 -28 -59c0 -12 5 -18 16 -18c18 0 53 29 108 85c29 29 38 47 46 47c4 0 6 -2 6 -4c0 -8 -14 -23 -39 -49c-60 -63 -101 -94 -122 -94c-29 0 -47 29 -47 68c0 10 2 20 4 29c-56 -65 -102 -97 -131 -97c-32 0 -55 24 -55 63c0 42 33 89 81 161
c-59 -59 -81 -94 -91 -94c-3 0 -5 1 -5 3c0 8 43 57 127 145l72 4l-99 -155c-30 -48 -49 -77 -49 -94c0 -10 7 -18 16 -18c50 0 138 87 243 263l67 4z" />
    <glyph glyph-name="v" unicode="v" horiz-adv-x="405" 
d="M298 91c6 -1 12 -3 17 -3c23 0 56 17 81 44l13 15c1 1 6 3 9 3s3 -2 3 -6c0 -3 0 -4 -1 -5l-11 -13c-31 -35 -65 -52 -102 -52c-6 0 -14 0 -23 2c-58 -54 -110 -80 -150 -80c-33 0 -53 28 -53 68c0 46 26 77 54 115c26 36 40 60 40 77c0 8 -4 11 -13 11
c-23 0 -60 -33 -117 -95c-28 -31 -39 -48 -47 -48c-3 0 -5 2 -5 4c0 6 8 16 23 33l32 35c51 55 84 87 120 87c26 0 44 -20 44 -52c0 -34 -17 -61 -39 -94c-35 -53 -57 -85 -57 -102s9 -25 25 -25c51 0 142 60 173 160c18 59 0 113 42 113c18 0 27 -11 27 -33
c0 -28 -25 -87 -85 -159z" />
    <glyph glyph-name="w" unicode="w" horiz-adv-x="514" 
d="M193 92c-56 -65 -102 -97 -131 -97c-32 0 -55 24 -55 63c0 42 32 87 80 158c-59 -56 -78 -92 -89 -92c-3 0 -5 2 -5 4c0 6 8 16 23 33l32 35c18 20 42 46 74 77l69 4l-99 -155c-30 -48 -49 -77 -49 -94c0 -10 7 -18 16 -18c50 0 138 87 243 263l67 4l-112 -176
c-21 -33 -32 -53 -32 -66c0 -17 9 -25 25 -25c51 0 141 60 172 160c18 59 1 113 43 113c18 0 27 -11 27 -33c0 -28 -26 -87 -86 -159c6 -1 13 -3 18 -3c23 0 54 15 81 44l13 15c1 2 5 3 8 3s4 -2 4 -6c0 -3 0 -4 -1 -5l-11 -13c-31 -35 -65 -52 -102 -52c-6 0 -14 0 -23 2
c-58 -54 -110 -80 -150 -80c-33 0 -53 27 -53 68c0 7 1 17 3 28z" />
    <glyph glyph-name="x" unicode="x" horiz-adv-x="334" 
d="M128 87c-53 -60 -94 -92 -130 -92c-27 0 -46 16 -46 36c0 18 13 32 30 32c39 0 16 -46 39 -46c11 0 64 29 104 89c31 46 50 111 50 142c0 14 -3 19 -15 19c-22 0 -58 -33 -115 -95c-28 -30 -39 -48 -47 -48c-3 0 -5 2 -5 4c0 6 8 16 23 33l32 35c51 55 85 87 117 87
c31 0 49 -28 49 -83c0 -5 -1 -11 -1 -17c47 66 82 100 122 100c27 0 43 -13 43 -36c0 -15 -13 -26 -27 -26c-33 0 -21 38 -42 38c-16 0 -55 -34 -97 -102c-32 -51 -44 -102 -44 -127c0 -14 4 -20 17 -20c16 0 54 28 109 85c29 29 39 47 45 47c3 0 6 -2 6 -5
c0 -8 -16 -26 -48 -58c-54 -56 -92 -84 -114 -84c-28 0 -55 33 -55 89v3z" />
    <glyph glyph-name="y" unicode="y" horiz-adv-x="427" 
d="M291 133c-76 -87 -133 -130 -168 -130c-22 0 -42 23 -42 59c0 47 26 79 54 117c26 36 40 60 40 75c0 10 -4 13 -15 13c-22 0 -58 -33 -115 -95c-28 -30 -39 -48 -47 -48c-3 0 -5 2 -5 4c0 6 8 16 23 33l32 35c51 55 84 88 120 88c26 0 43 -21 43 -53
c0 -33 -18 -62 -41 -96c-34 -52 -55 -83 -55 -98c0 -11 8 -20 16 -20c27 0 131 78 237 257l61 4c-63 -103 -116 -197 -159 -280c111 72 151 144 162 144c3 0 5 -2 5 -5c0 -8 -60 -88 -181 -162c-103 -195 -196 -291 -260 -291c-33 0 -51 17 -51 50c0 70 91 144 267 247z
M201 -40c-155 -90 -229 -173 -229 -228c0 -22 10 -34 29 -34c55 0 112 89 200 262z" />
    <glyph glyph-name="z" unicode="z" horiz-adv-x="330" 
d="M10 57c67 58 132 111 196 159c-25 -7 -46 -12 -65 -12c-23 0 -40 6 -55 20c-37 -46 -59 -72 -64 -78l-16 -18c-3 -4 -6 -6 -8 -6c-3 0 -5 2 -5 3v4c0 1 0 2 1 4l11 14c22 27 48 56 73 92c-3 7 -5 13 -5 17c0 19 13 31 33 31c17 0 27 -9 27 -22s-8 -23 -8 -29
c0 -9 10 -17 32 -17c88 0 102 60 127 60c8 0 14 -5 14 -11c0 -19 -17 -25 -47 -41c-59 -42 -117 -87 -173 -135c34 16 60 30 83 30s39 -16 39 -37c0 -27 -21 -52 -21 -64c0 -6 3 -11 7 -11c12 0 43 26 94 76c35 35 47 56 54 56c3 0 6 -2 6 -5c0 -7 -16 -25 -48 -57
c-54 -55 -89 -85 -115 -85c-24 0 -41 20 -41 56c0 20 8 32 8 43c0 3 -2 4 -7 4c-15 0 -60 -13 -96 -41c-35 -27 -44 -60 -65 -60c-8 0 -13 5 -13 12c0 17 16 31 47 48z" />
    <glyph glyph-name="braceleft" unicode="{" 
d="M412 740v-23c-105 -1 -128 -32 -128 -129v-72c0 -129 -20 -183 -148 -206c128 -22 148 -76 148 -206v-72c0 -97 23 -128 128 -129v-22h-5c-142 0 -182 42 -182 169v108c0 98 -28 130 -139 139v27c111 10 139 40 139 139v108c0 127 40 169 182 169h5z" />
    <glyph glyph-name="bar" unicode="|" 
d="M228 764h44v-1000h-44v1000z" />
    <glyph glyph-name="braceright" unicode="}" 
d="M87 740h5c142 0 183 -42 183 -169v-108c0 -99 27 -129 139 -139v-27c-111 -9 -139 -41 -139 -139v-108c0 -127 -42 -169 -183 -169h-5v22c105 1 129 32 129 129v72c0 130 20 183 148 206c-128 23 -148 77 -148 206v72c0 97 -24 128 -129 129v23z" />
    <glyph glyph-name="asciitilde" unicode="~" horiz-adv-x="833" 
d="M747 361v-45c-67 -47 -129 -72 -189 -72c-53 0 -97 18 -141 34c-48 17 -92 34 -141 34c-59 0 -118 -27 -189 -77v45c67 47 129 71 189 71c52 0 96 -17 141 -33c47 -17 91 -35 141 -35c59 0 118 28 189 78z" />
    <glyph glyph-name="exclamdown" unicode="&#xa1;" horiz-adv-x="264" 
d="M96 4l-86 -7l249 368c11 16 17 25 26 25c4 0 9 -4 9 -9c0 -8 -5 -16 -11 -27zM360 466c0 -21 -19 -45 -41 -45c-16 0 -28 13 -28 29c0 21 19 45 40 45c16 0 29 -13 29 -29z" />
    <glyph glyph-name="cent" unicode="&#xa2;" horiz-adv-x="407" 
d="M114 20c8 -4 15 -6 23 -6c62 0 114 71 126 71c2 0 3 -1 3 -3c0 -17 -73 -82 -137 -82c-8 0 -15 1 -24 4l-39 -66l-13 9l38 64c-29 21 -44 53 -44 94c0 83 102 181 209 181l36 60l13 -9l-33 -55c27 -9 38 -23 38 -51c0 -22 -15 -41 -33 -41c-12 0 -21 8 -21 20
c0 23 18 33 18 46c0 5 -3 9 -9 14zM103 30l144 242c-81 -25 -151 -129 -151 -214c0 -9 1 -18 7 -28z" />
    <glyph glyph-name="sterling" unicode="&#xa3;" horiz-adv-x="537" 
d="M155 31c-35 -22 -76 -34 -119 -34c-48 0 -79 18 -79 44c0 23 24 41 63 41c47 0 90 -11 136 -24c40 32 77 91 115 176h-104v15h113c72 156 141 236 223 236c39 0 65 -27 65 -67c0 -28 -10 -51 -18 -51c-3 0 -5 3 -5 7s10 16 10 42c0 33 -21 54 -49 54
c-63 0 -105 -78 -165 -221h115v-15h-122c-44 -86 -94 -148 -151 -184c51 -19 95 -27 125 -27c84 0 120 80 143 80c2 0 3 -1 3 -3c0 -4 -9 -17 -28 -34c-52 -47 -97 -71 -136 -71c-31 0 -75 14 -135 36zM132 41c-42 15 -78 26 -115 26c-29 0 -44 -10 -44 -25
c0 -17 26 -32 65 -32c32 0 64 10 94 31z" />
    <glyph glyph-name="fraction" unicode="&#x2044;" horiz-adv-x="167" 
d="M337 484l-481 -497h-27l482 497h26z" />
    <glyph glyph-name="yen" unicode="&#xa5;" horiz-adv-x="407" 
d="M59 0l128 202h-160l18 28h160l-12 61h-109l19 29h83l-36 149h44l50 -210l250 210h42l-177 -149h93l-18 -29h-109l-77 -61h146l-18 -28h-145l-129 -202h-43z" />
    <glyph glyph-name="florin" unicode="&#x192;" horiz-adv-x="324" 
d="M167 173c-133 -258 -248 -385 -358 -385c-38 0 -61 17 -61 43c0 18 13 29 29 29c14 0 24 -10 26 -22c4 -26 0 -35 21 -35c99 0 185 165 346 469h-90v15h98c111 188 202 284 302 284c38 0 61 -17 61 -43c0 -18 -13 -29 -29 -29c-14 0 -25 10 -27 22c-4 26 1 35 -20 35
c-75 0 -143 -94 -240 -269h101v-15h-108z" />
    <glyph glyph-name="section" unicode="&#xa7;" 
d="M294 148c11 -26 18 -49 18 -70c0 -81 -85 -154 -191 -154c-64 0 -115 25 -115 49c0 12 9 23 23 23c22 0 59 -41 129 -41s113 42 113 89c0 16 -8 46 -27 86l-50 107c-20 41 -30 80 -30 112c0 86 55 144 152 157c-11 26 -18 48 -18 70c0 83 88 153 182 153
c70 0 117 -26 117 -46c0 -12 -9 -22 -20 -22c-21 0 -58 37 -126 37c-70 0 -111 -33 -111 -91c0 -27 10 -52 25 -83l50 -107c20 -42 30 -80 30 -112c0 -83 -55 -144 -151 -157zM286 162c75 9 127 48 127 110c0 19 -6 40 -18 65l-72 155c-82 -10 -127 -53 -127 -111
c0 -18 7 -38 18 -63z" />
    <glyph glyph-name="currency" unicode="&#xa4;" horiz-adv-x="606" 
d="M74 689l101 -101c39 31 81 46 128 46s90 -15 129 -46l100 101l29 -29l-101 -100c30 -38 45 -82 45 -128c0 -47 -15 -90 -45 -128l101 -100l-29 -29l-100 101c-38 -30 -82 -45 -129 -45c-48 0 -90 15 -128 45l-101 -101l-28 29l101 100c-30 38 -45 82 -45 128
s15 90 45 128l-101 100zM304 594c-90 0 -162 -73 -162 -161c0 -89 72 -162 162 -162s162 73 162 162s-72 161 -162 161z" />
    <glyph glyph-name="quotesingle" unicode="'" horiz-adv-x="167" 
d="M90 425h-14l-29 221c-1 6 -1 14 -1 22c0 31 13 46 37 46s38 -16 38 -46c0 -6 -1 -14 -2 -22z" />
    <glyph glyph-name="quotedblleft" unicode="&#x201c;" horiz-adv-x="317" 
d="M197 571c0 22 16 51 49 86c46 48 83 73 89 73s10 -2 10 -7c0 -12 -61 -42 -76 -88c-12 -38 -1 -94 -42 -94c-18 0 -30 12 -30 30zM311 571c0 22 16 51 49 86c46 48 83 73 89 73s9 -2 9 -7c0 -12 -61 -42 -76 -88c-12 -38 -1 -94 -42 -94c-18 0 -29 12 -29 30z" />
    <glyph glyph-name="guillemotleft" unicode="&#xab;" horiz-adv-x="308" 
d="M58 151l139 103c6 4 10 7 15 7c6 0 10 -3 10 -9s-4 -9 -11 -15l-108 -92l33 -105c2 -5 3 -9 3 -12c0 -6 -3 -11 -8 -11c-7 0 -11 5 -16 15zM153 151l139 103c6 4 10 7 15 7c6 0 9 -3 9 -9s-3 -9 -10 -15l-109 -92l34 -105c2 -5 3 -9 3 -12c0 -6 -4 -11 -9 -11
c-7 0 -10 5 -15 15z" />
    <glyph glyph-name="guilsinglleft" unicode="&#x2039;" horiz-adv-x="213" 
d="M58 151l139 103c6 4 10 7 15 7c6 0 10 -3 10 -9s-4 -9 -11 -15l-108 -92l33 -105c2 -5 3 -9 3 -12c0 -6 -3 -11 -8 -11c-7 0 -11 5 -16 15z" />
    <glyph glyph-name="guilsinglright" unicode="&#x203a;" horiz-adv-x="213" 
d="M153 127l-139 -103c-6 -4 -10 -7 -15 -7c-6 0 -10 3 -10 9s4 9 11 15l108 92l-33 105c-2 5 -3 9 -3 12c0 6 3 11 8 11c7 0 11 -6 16 -15z" />
    <glyph glyph-name="fi" unicode="&#xfb01;" horiz-adv-x="440" 
d="M184 285c190 128 267 257 267 298c0 18 -10 29 -27 29c-61 0 -134 -110 -240 -327zM50 14h3c76 0 144 111 287 259l72 5l-99 -156c-30 -47 -49 -77 -49 -94c0 -10 8 -19 17 -19c27 0 63 30 117 87c28 30 39 46 46 46c4 0 6 -2 6 -5c0 -7 -16 -24 -46 -55
c-54 -55 -90 -87 -122 -87s-54 24 -54 63c0 42 33 88 81 161c-124 -132 -192 -229 -272 -229l-138 -276l-71 -8l159 294c-11 9 -16 19 -16 28c0 19 14 33 31 33c5 0 10 -2 16 -5l102 191c-82 -73 -111 -123 -123 -123c-3 0 -4 2 -4 4c0 9 50 70 157 171
c113 217 201 327 277 327c26 0 46 -22 46 -48c0 -73 -103 -178 -306 -326zM433 435c0 21 20 45 41 45c16 0 27 -12 27 -29c0 -21 -19 -45 -40 -45c-16 0 -28 12 -28 29z" />
    <glyph glyph-name="fl" unicode="&#xfb02;" horiz-adv-x="440" 
d="M184 285c190 128 267 257 267 298c0 18 -10 29 -27 29c-61 0 -134 -110 -240 -327zM50 14h6c28 0 71 26 122 81c113 121 176 199 177 201l197 306l65 9l-308 -489c-30 -47 -50 -77 -50 -94c0 -11 9 -19 19 -19c32 0 65 32 120 87c28 28 39 46 46 46c4 0 6 -2 6 -5
c0 -7 -16 -24 -46 -55c-54 -55 -90 -87 -122 -87s-54 24 -54 63c0 42 33 88 81 161c-125 -136 -195 -229 -271 -229h-1l-138 -276l-71 -8l159 294c-11 9 -16 19 -16 28c0 19 14 33 31 33c5 0 10 -2 16 -5l102 191c-82 -73 -111 -123 -123 -123c-3 0 -4 2 -4 4
c0 9 50 70 157 171c113 217 201 327 277 327c26 0 46 -22 46 -48c0 -73 -103 -178 -306 -326z" />
    <glyph glyph-name="endash" unicode="&#x2013;" 
d="M508 162l-21 -34h-479l20 34h480z" />
    <glyph glyph-name="dagger" unicode="&#x2020;" horiz-adv-x="560" 
d="M441 524l-6 -69c-93 -149 -201 -332 -326 -550l-17 5c126 236 223 415 277 549l56 65c-77 -23 -131 -28 -148 -28c-25 0 -35 6 -35 26c0 22 18 29 54 29s80 -7 136 -15c50 121 57 194 99 194c18 0 33 -12 33 -25c0 -33 -52 -79 -114 -168c60 8 107 15 140 15
c26 0 38 -6 38 -27c0 -18 -16 -29 -44 -29c-18 0 -70 5 -143 28z" />
    <glyph glyph-name="daggerdbl" unicode="&#x2021;" horiz-adv-x="560" 
d="M222 110c77 23 130 28 147 28c25 0 35 -6 35 -26c0 -22 -18 -30 -54 -30c-35 0 -80 8 -136 16c-50 -121 -57 -194 -99 -194c-18 0 -33 12 -33 25c0 33 52 79 114 168c-60 -8 -107 -15 -140 -15c-26 0 -37 6 -37 27c0 18 15 29 43 29c18 0 70 -5 143 -28
c39 92 72 162 84 219c56 66 100 131 136 195c-77 -23 -131 -28 -148 -28c-25 0 -35 6 -35 26c0 22 18 29 54 29s80 -7 136 -15c50 121 57 194 99 194c18 0 33 -12 33 -25c0 -33 -52 -79 -114 -168c60 8 107 15 140 15c26 0 38 -6 38 -27c0 -18 -16 -29 -44 -29
c-18 0 -70 5 -143 28c-36 -89 -71 -158 -83 -218c-43 -41 -80 -111 -136 -196z" />
    <glyph glyph-name="periodcentered" unicode="&#xb7;" horiz-adv-x="204" 
d="M96 239c0 21 17 37 37 37c19 0 36 -16 36 -37c0 -20 -16 -36 -36 -36c-21 0 -37 16 -37 36z" />
    <glyph glyph-name="paragraph" unicode="&#xb6;" 
d="M455 722v-31h-63v-691h-34v691h-94v-691h-34v382c-116 5 -186 73 -186 170c0 100 75 170 193 170h218z" />
    <glyph glyph-name="bullet" unicode="&#x2022;" horiz-adv-x="590" 
d="M150 372c0 80 65 144 145 144c79 0 144 -64 144 -144c0 -79 -65 -145 -145 -145s-144 65 -144 145z" />
    <glyph glyph-name="quotesinglbase" unicode="&#x201a;" horiz-adv-x="204" 
d="M112 40c0 -22 -16 -52 -49 -87c-46 -48 -83 -72 -89 -72s-10 2 -10 7c0 12 61 42 76 88c12 38 1 94 42 94c18 0 30 -12 30 -30z" />
    <glyph glyph-name="quotedblbase" unicode="&#x201e;" horiz-adv-x="317" 
d="M125 40c0 -22 -16 -52 -49 -87c-46 -48 -83 -72 -89 -72s-9 2 -9 7c0 12 60 42 75 88c12 38 1 94 42 94c18 0 30 -12 30 -30zM238 40c0 -22 -16 -52 -49 -87c-46 -48 -83 -72 -89 -72s-9 2 -9 7c0 12 61 42 76 88c12 38 1 94 42 94c18 0 29 -12 29 -30z" />
    <glyph glyph-name="quotedblright" unicode="&#x201d;" horiz-adv-x="317" 
d="M324 700c0 -22 -16 -52 -49 -87c-46 -48 -83 -72 -89 -72s-10 2 -10 7c0 12 61 41 76 87c12 38 1 94 42 94c18 0 30 -11 30 -29zM437 700c0 -22 -16 -52 -49 -87c-46 -48 -83 -72 -89 -72s-9 2 -9 7c0 12 61 41 76 87c12 38 1 94 42 94c18 0 29 -11 29 -29z" />
    <glyph glyph-name="guillemotright" unicode="&#xbb;" horiz-adv-x="308" 
d="M153 127l-139 -103c-6 -4 -10 -7 -15 -7c-6 0 -10 3 -10 9s4 9 11 15l108 92l-33 105c-2 5 -3 9 -3 12c0 6 3 11 8 11c7 0 11 -6 16 -15zM248 127l-139 -103c-6 -4 -10 -7 -15 -7c-6 0 -10 3 -10 9s4 9 11 15l108 92l-33 105c-2 5 -3 9 -3 12c0 6 3 11 8 11
c7 0 11 -6 16 -15z" />
    <glyph glyph-name="ellipsis" unicode="&#x2026;" horiz-adv-x="1000" 
d="M115 24c0 21 19 46 41 46c16 0 28 -13 28 -29c0 -21 -19 -46 -40 -46c-16 0 -29 13 -29 29zM448 24c0 21 19 46 41 46c16 0 28 -13 28 -29c0 -21 -19 -46 -40 -46c-16 0 -29 13 -29 29zM782 24c0 21 19 46 41 46c16 0 28 -13 28 -29c0 -21 -19 -46 -40 -46
c-16 0 -29 13 -29 29z" />
    <glyph glyph-name="perthousand" unicode="&#x2030;" horiz-adv-x="810" 
d="M481 423c-38 -20 -70 -30 -100 -30c-33 0 -62 9 -79 25c-13 -104 -90 -179 -143 -179c-36 0 -64 30 -64 74c0 83 86 171 155 171c22 0 39 -10 51 -31c17 -30 29 -44 79 -44c87 0 147 77 168 77c5 0 7 -1 7 -4c0 -6 -9 -18 -27 -36l-461 -470c-21 -22 -29 -34 -49 -34
c-7 0 -13 3 -13 6c0 8 12 20 32 39zM252 466c-19 0 -42 -15 -67 -47c-40 -50 -59 -96 -59 -127c0 -23 13 -37 32 -37c52 0 127 96 127 170c0 27 -13 41 -33 41zM526 181c0 -85 -83 -186 -145 -186c-36 0 -64 30 -64 74c0 82 86 171 156 171c33 0 53 -22 53 -59zM475 223
c-19 0 -41 -16 -67 -48c-40 -49 -59 -97 -59 -126c0 -23 13 -38 32 -38c53 0 127 99 127 171c0 27 -13 41 -33 41zM725 223c-19 0 -41 -16 -67 -48c-40 -49 -59 -97 -59 -126c0 -23 13 -38 32 -38c53 0 128 99 128 171c0 27 -14 41 -34 41zM776 181
c0 -85 -83 -186 -145 -186c-36 0 -63 30 -63 74c0 82 85 171 155 171c33 0 53 -22 53 -59z" />
    <glyph glyph-name="questiondown" unicode="&#xbf;" horiz-adv-x="326" 
d="M370 470c0 -21 -18 -45 -40 -45c-16 0 -28 12 -28 28c0 21 19 46 40 46c16 0 28 -13 28 -29zM310 387c0 -8 -23 -56 -82 -118c-71 -75 -160 -125 -160 -219c0 -23 16 -39 48 -39c53 0 102 49 102 65c0 13 -37 14 -37 45c0 20 15 35 32 35c20 0 37 -18 37 -43
c0 -58 -68 -117 -138 -117c-55 0 -92 38 -92 98c0 49 23 84 71 118c40 29 96 51 145 99c48 47 55 84 68 84c3 0 6 -3 6 -8z" />
    <glyph glyph-name="grave" unicode="`" 
d="M362 301c0 -4 -4 -7 -7 -7c-20 0 -100 85 -100 134c0 24 12 41 32 41c19 0 29 -12 29 -35v-29c0 -62 46 -93 46 -104z" />
    <glyph glyph-name="acute" unicode="&#xb4;" 
d="M282 296c-6 0 -8 2 -8 7c0 14 45 23 82 76c24 35 25 87 61 87c18 0 30 -11 30 -30c0 -32 -31 -70 -92 -106c-36 -21 -59 -34 -73 -34z" />
    <glyph glyph-name="circumflex" unicode="&#x2c6;" 
d="M366 389l-117 -62c-31 -16 -50 -25 -58 -25c-9 0 -13 2 -13 9c0 12 22 21 67 49c89 56 127 94 136 94c5 0 11 -4 13 -11l34 -119c1 -4 2 -8 2 -13c0 -6 -3 -10 -8 -10c-15 0 -28 30 -56 88z" />
    <glyph glyph-name="tilde" unicode="&#x2dc;" 
d="M275 415c39 0 85 -37 121 -37c39 0 46 48 62 48c6 0 10 -3 10 -7c0 -21 -33 -88 -82 -88c-40 0 -84 37 -121 37c-39 0 -47 -48 -63 -48c-6 0 -9 3 -9 7c0 21 33 88 82 88z" />
    <glyph glyph-name="macron" unicode="&#xaf;" 
d="M223 353c-9 0 -14 4 -14 10v3l6 22c2 7 7 11 16 11h208c9 0 14 -5 14 -11v-2l-6 -22c-2 -7 -7 -11 -16 -11h-208z" />
    <glyph glyph-name="breve" unicode="&#x2d8;" 
d="M223 449c10 0 13 -11 19 -24c17 -35 42 -50 82 -50c32 0 59 13 88 29c45 25 60 43 65 43s8 -3 8 -9c0 -12 -12 -24 -28 -41c-50 -53 -95 -79 -141 -79c-65 0 -104 69 -104 114c0 11 4 17 11 17z" />
    <glyph glyph-name="dotaccent" unicode="&#x2d9;" 
d="M300 370c0 29 20 49 44 49c21 0 33 -15 33 -34c0 -29 -18 -48 -43 -48c-21 0 -34 13 -34 33z" />
    <glyph glyph-name="dieresis" unicode="&#xa8;" 
d="M375 368c0 24 19 43 42 43c20 0 31 -12 31 -33c0 -24 -17 -43 -41 -43c-20 0 -32 12 -32 33zM213 368c0 24 18 43 41 43c20 0 32 -12 32 -33c0 -24 -17 -43 -41 -43c-20 0 -32 12 -32 33z" />
    <glyph glyph-name="ring" unicode="&#x2da;" 
d="M253 383c0 47 38 85 85 85c48 0 85 -38 85 -85s-38 -86 -85 -86s-85 39 -85 86zM281 383c0 -33 24 -59 57 -59c32 0 59 26 59 59c0 32 -27 58 -59 58c-33 0 -57 -25 -57 -58z" />
    <glyph glyph-name="cedilla" unicode="&#xb8;" 
d="M138 -58c18 10 35 14 57 14c48 0 74 -21 74 -62c0 -47 -39 -80 -103 -80c-75 0 -131 34 -131 42c0 2 4 5 9 5c18 0 56 -23 118 -23c39 0 66 23 66 50c0 29 -17 39 -54 39c-6 0 -16 -2 -30 -5z" />
    <glyph glyph-name="hungarumlaut" unicode="&#x2dd;" 
d="M356 301c-5 0 -7 2 -7 7c0 14 42 27 70 84c17 34 17 79 45 79c14 0 23 -10 23 -30c0 -34 -23 -65 -67 -101c-33 -27 -56 -39 -64 -39zM254 301c-5 0 -7 2 -7 7c0 15 35 22 66 77c19 34 21 86 47 86c17 0 26 -10 26 -30c0 -34 -24 -65 -69 -101c-33 -26 -54 -39 -63 -39z
" />
    <glyph glyph-name="ogonek" unicode="&#x2db;" 
d="M215 3c-46 -51 -69 -93 -69 -122c0 -23 13 -39 33 -39c35 0 51 31 57 31c5 0 8 -3 8 -6c0 -11 -34 -54 -86 -54c-35 0 -56 22 -56 54c0 35 32 81 97 136h16z" />
    <glyph glyph-name="caron" unicode="&#x2c7;" 
d="M329 366l116 62c31 16 50 24 58 24c9 0 13 -1 13 -8c0 -12 -21 -22 -66 -50c-89 -56 -128 -94 -137 -94c-5 0 -10 5 -12 12l-34 118c-1 4 -2 8 -2 13c0 6 2 11 7 11c15 0 29 -30 57 -88z" />
    <glyph glyph-name="emdash" unicode="&#x2014;" horiz-adv-x="1000" 
d="M1010 162l-20 -34h-1000l20 34h1000z" />
    <glyph glyph-name="AE" unicode="&#xc6;" horiz-adv-x="1162" 
d="M448 127c-96 -86 -183 -130 -270 -130s-145 49 -145 109c0 42 24 71 54 71c23 0 43 -19 43 -43c0 -49 -52 -40 -52 -59c0 -28 46 -60 107 -60c82 0 166 40 249 121c-95 71 -143 149 -143 224c0 95 75 166 168 166c90 0 165 -51 209 -144c205 228 324 335 341 335
c2 0 3 -3 3 -7c0 -13 -78 -121 -169 -357c46 26 96 45 150 58c-31 22 -47 52 -47 81c0 61 32 116 97 164c57 42 117 63 163 63c66 0 107 -38 107 -101c0 -82 -74 -151 -146 -151c-37 0 -65 24 -65 63c0 65 80 114 102 114c4 0 6 -1 6 -3c0 -10 -85 -48 -85 -119
c0 -27 19 -43 44 -43c57 0 130 65 130 138c0 55 -33 87 -87 87c-47 0 -99 -29 -148 -85c-48 -55 -72 -119 -72 -156c0 -29 15 -45 29 -45h23c37 0 55 -6 55 -19c0 -7 -11 -14 -30 -14c-29 0 -47 12 -60 12c-16 0 -66 -12 -112 -40c-74 -46 -125 -137 -125 -221
c0 -75 49 -125 120 -125c49 0 106 26 158 77c49 48 73 101 73 144c0 40 -24 68 -59 68c-40 0 -104 -46 -149 -137c-29 -59 -25 -99 -36 -99c-2 0 -5 5 -5 18c0 134 93 238 177 238c55 0 89 -35 89 -86c0 -43 -23 -93 -68 -143c-57 -63 -126 -96 -199 -96
c-74 0 -126 32 -148 89l-20 -58c-6 -16 -14 -25 -25 -26l-47 -5h-7c-4 0 -8 3 -8 7c0 3 2 8 5 16l19 46c-66 6 -131 27 -194 63zM459 138c66 -39 128 -58 188 -63c24 51 34 107 34 171c0 38 -7 73 -19 109c-66 -76 -129 -151 -203 -217zM445 147c50 38 121 112 212 223
c-34 83 -98 129 -173 129c-88 0 -152 -66 -152 -158c0 -86 48 -147 113 -194zM690 157c123 264 223 439 297 532c-76 -59 -176 -169 -312 -320c14 -50 21 -96 21 -138c0 -24 -2 -49 -6 -74z" />
    <glyph glyph-name="ordfeminine" unicode="&#xaa;" horiz-adv-x="296" 
d="M201 682l31 42l49 3l-82 -122c-17 -24 -28 -41 -28 -54c0 -8 3 -11 11 -11c13 0 40 19 81 59c22 20 30 32 35 32c2 0 4 0 4 -2c0 -5 -12 -19 -34 -40c-40 -37 -66 -60 -94 -60c-20 0 -31 12 -31 34c0 7 2 16 4 27c-35 -41 -67 -61 -94 -61s-44 25 -44 71c0 10 2 21 5 33
c-6 -10 -12 -14 -16 -14c-3 0 -4 0 -4 3s12 17 35 39c51 47 100 68 135 68c25 0 40 -13 40 -32c0 -4 -1 -9 -3 -15zM41 563c0 -14 6 -22 18 -22c15 0 41 15 69 44c44 45 64 86 64 112c0 12 -10 22 -25 22c-23 0 -53 -19 -82 -57c-31 -40 -44 -78 -44 -99z" />
    <glyph glyph-name="Lslash" unicode="&#x141;" horiz-adv-x="745" 
d="M293 59c-63 23 -115 41 -166 41c-46 0 -70 -16 -70 -40c0 -27 39 -50 96 -50c48 0 97 17 140 49zM320 49c-58 -33 -110 -52 -168 -52c-72 0 -116 27 -116 65c0 36 35 61 101 61c59 0 120 -16 191 -36c44 31 91 114 156 243l-166 -74l15 28l164 72
c136 244 287 355 359 355c33 0 54 -19 54 -54c0 -51 -62 -125 -76 -125c-3 0 -5 1 -5 3c0 12 66 67 66 119c0 26 -13 41 -37 41c-67 0 -172 -100 -268 -307l167 74l-16 -28l-163 -72c-57 -122 -131 -216 -216 -284c79 -30 146 -42 194 -42c63 0 113 29 169 84
c19 18 28 32 38 32c1 0 2 -1 2 -3c0 -6 -13 -25 -40 -50c-76 -70 -145 -104 -201 -104c-49 0 -116 21 -204 54z" />
    <glyph glyph-name="Oslash" unicode="&#xd8;" horiz-adv-x="704" 
d="M741 587c20 -24 34 -59 34 -115c0 -110 -61 -242 -179 -355c-85 -82 -175 -123 -250 -123c-44 0 -77 12 -104 38l-101 -112l-16 15l102 114c-31 37 -45 83 -45 142c0 145 102 318 295 455c-25 6 -48 10 -71 10c-124 0 -229 -78 -271 -201c-17 -49 -11 -87 -22 -87
c-2 0 -4 5 -4 13c0 143 127 289 294 289c28 0 57 -5 87 -14c81 47 148 69 200 69c47 0 84 -13 109 -40l64 69l16 -14l-66 -72c10 -18 14 -37 14 -60c0 -33 -7 -49 -13 -49c-2 0 -3 4 -3 12c0 7 3 20 3 39c0 16 -4 31 -11 46zM568 592c-118 -71 -187 -193 -187 -285
c0 -25 6 -44 22 -65l216 241c-4 43 -18 77 -51 109zM621 455l-204 -226c12 -10 23 -13 38 -13c76 0 157 93 166 239zM258 83l131 146c-17 24 -23 46 -23 75c0 94 66 217 191 298c-16 13 -32 23 -50 32c-170 -131 -263 -337 -263 -478c0 -23 5 -47 14 -73zM732 577l-85 -91
c5 -28 9 -51 9 -68c0 -71 -38 -145 -96 -189c-31 -24 -65 -36 -95 -36c-23 0 -41 7 -60 21l-136 -152c22 -34 53 -50 97 -50c71 0 168 50 256 151c92 106 140 225 140 318c0 35 -9 65 -30 96zM584 598c34 -40 51 -70 57 -92l77 86c-20 15 -42 23 -65 23
c-25 0 -46 -6 -69 -17zM725 603l66 70c-29 26 -55 36 -91 36c-56 0 -117 -22 -178 -66c17 -10 34 -21 49 -34c29 13 54 20 75 20c30 0 53 -6 79 -26z" />
    <glyph glyph-name="OE" unicode="&#x152;" horiz-adv-x="921" 
d="M752 411c-31 22 -47 52 -47 81c0 61 32 116 97 164c57 42 118 63 164 63c66 0 106 -38 106 -101c0 -82 -73 -151 -145 -151c-37 0 -65 24 -65 63c0 65 79 114 101 114c4 0 6 -1 6 -3c0 -10 -85 -48 -85 -119c0 -27 19 -43 44 -43c57 0 130 65 130 138c0 55 -32 87 -86 87
c-47 0 -100 -29 -149 -85c-48 -55 -71 -119 -71 -156c0 -29 14 -45 28 -45h23c37 0 56 -6 56 -19c0 -7 -12 -14 -31 -14c-29 0 -47 12 -59 12c-18 0 -64 -11 -108 -39c-76 -49 -126 -140 -126 -224c0 -74 45 -123 115 -123c51 0 107 27 159 78c49 48 74 100 74 143
c0 40 -25 68 -60 68c-40 0 -104 -46 -149 -137c-29 -59 -25 -99 -36 -99c-2 0 -5 5 -5 18c0 134 93 238 177 238c55 0 89 -35 89 -86c0 -43 -23 -93 -68 -143c-57 -63 -126 -96 -197 -96c-102 0 -170 61 -170 152v12c-97 -110 -196 -164 -276 -164c-91 0 -152 72 -152 186
c0 111 64 248 190 370c114 111 237 165 329 165c81 0 129 -42 129 -113c0 -24 -7 -36 -12 -36c-2 0 -5 4 -5 10c0 8 3 16 3 27c0 61 -41 98 -110 98c-81 0 -188 -53 -279 -157c-120 -137 -186 -312 -186 -417c0 -73 40 -117 99 -117c66 0 169 50 254 148
c103 118 158 263 158 347c0 68 -31 106 -74 106c-67 0 -180 -99 -242 -244c-29 -67 -26 -102 -36 -102c-2 0 -4 6 -4 15c0 37 15 107 58 186c56 104 146 166 212 166c61 0 100 -45 100 -125c0 -49 -15 -112 -46 -176c44 36 102 61 178 79z" />
    <glyph glyph-name="ordmasculine" unicode="&#xba;" horiz-adv-x="249" 
d="M168 596c4 -1 8 -2 12 -2c17 0 41 9 62 30l10 11c1 1 4 2 6 2s3 -1 3 -4c0 -2 0 -3 -1 -4l-8 -9c-21 -24 -49 -36 -76 -36c-5 0 -11 0 -18 1c-36 -38 -72 -56 -99 -56c-31 0 -50 25 -50 72c0 10 2 21 6 32c-7 -9 -13 -14 -17 -14c-3 0 -3 1 -3 3c0 4 10 15 31 36
c48 49 96 73 132 73c31 0 51 -20 51 -51c0 -26 -15 -53 -41 -84zM42 565c0 -17 8 -25 23 -25s42 13 71 42c35 35 53 74 53 102c0 22 -11 35 -28 35c-23 0 -48 -19 -77 -57c-30 -40 -42 -75 -42 -97z" />
    <glyph glyph-name="ae" unicode="&#xe6;" horiz-adv-x="486" 
d="M60 40c0 -17 9 -30 21 -30c22 0 50 19 84 55c60 65 89 127 89 171c0 16 -14 30 -31 30c-29 0 -66 -24 -101 -72c-41 -56 -62 -116 -62 -154zM279 112c104 22 163 98 163 138c0 11 -8 20 -18 20c-34 0 -107 -55 -145 -158zM330 243c30 26 60 38 91 38c33 0 54 -19 54 -45
c0 -52 -71 -110 -201 -140c-3 -18 -5 -31 -5 -40c0 -30 15 -46 40 -46c38 0 76 27 123 73c38 38 51 59 58 59c4 0 6 -2 6 -5c0 -7 -18 -26 -51 -60c-53 -53 -97 -82 -142 -82c-49 0 -84 43 -84 112c-53 -74 -100 -112 -136 -112c-37 0 -61 36 -61 97c0 16 4 37 11 62
c-19 -20 -30 -30 -35 -30c-4 0 -6 1 -6 4c0 5 14 23 42 50c71 69 142 103 185 103c30 0 48 -17 51 -50l30 52l55 6z" />
    <glyph glyph-name="dotlessi" unicode="&#x131;" horiz-adv-x="220" 
d="M89 219c-60 -59 -82 -94 -92 -94c-3 0 -4 1 -4 3c0 8 42 57 127 145l72 5l-99 -156c-30 -47 -49 -77 -49 -94c0 -10 8 -19 17 -19c27 0 63 30 117 87c28 30 39 46 46 46c4 0 6 -2 6 -5c0 -7 -16 -24 -46 -55c-54 -55 -90 -87 -122 -87s-54 24 -54 63c0 42 33 88 81 161z
" />
    <glyph glyph-name="lslash" unicode="&#x142;" horiz-adv-x="220" 
d="M89 219c-60 -59 -82 -94 -92 -94c-3 0 -4 1 -4 3c0 11 52 62 140 166l-120 -46l16 24l118 46l185 284l65 9l-164 -262l118 45l-16 -25l-118 -46l-128 -201c-30 -48 -49 -77 -49 -94c0 -11 8 -19 18 -19c32 0 65 32 120 87c28 28 39 46 46 46c4 0 6 -2 6 -5
c0 -7 -16 -24 -46 -55c-54 -55 -90 -87 -122 -87s-54 24 -54 63c0 42 33 88 81 161z" />
    <glyph glyph-name="oslash" unicode="&#xf8;" horiz-adv-x="331" 
d="M210 75c-47 -53 -94 -80 -132 -80c-4 0 -7 0 -11 1l-46 -69l-16 10l45 66c-25 12 -38 44 -38 95c0 14 3 30 8 47c-9 -14 -17 -20 -22 -20c-4 0 -6 0 -6 3c0 4 16 26 46 57c65 67 126 99 172 99c9 0 18 -2 27 -5l40 61l15 -9l-40 -60c17 -11 26 -31 26 -59
c0 -37 -18 -78 -55 -122c5 -1 12 -3 18 -3c46 0 89 59 97 59c4 0 6 -1 6 -3c0 -14 -57 -70 -111 -70c-6 0 -14 0 -23 2zM63 21l164 243c-5 1 -10 2 -14 2c-31 0 -63 -27 -101 -81c-40 -57 -57 -108 -57 -141c0 -8 3 -15 8 -23zM241 254l-165 -243c2 0 5 -1 7 -1
c22 0 52 17 85 48c55 52 83 115 83 158c0 14 -2 26 -10 38z" />
    <glyph glyph-name="oe" unicode="&#x153;" horiz-adv-x="480" 
d="M218 86c-52 -61 -102 -91 -140 -91c-42 0 -66 35 -66 103c0 15 2 31 7 47c-10 -14 -17 -20 -21 -20s-6 0 -6 3c0 6 13 20 37 47c63 72 131 109 178 109c40 0 64 -23 69 -66c48 43 99 64 140 64c34 0 54 -21 54 -46c0 -52 -70 -110 -199 -140c-3 -18 -5 -31 -5 -40
c0 -30 15 -46 40 -46c38 0 74 26 121 73c37 37 51 59 58 59c4 0 6 -2 6 -5c0 -7 -18 -26 -51 -60c-52 -53 -96 -82 -140 -82s-71 31 -82 91zM276 112c104 23 162 99 162 138c0 11 -9 20 -18 20c-34 0 -106 -55 -144 -158zM54 46c0 -24 10 -36 31 -36c20 0 56 20 94 61
c46 50 69 107 69 145c0 32 -13 50 -37 50c-31 0 -62 -27 -100 -81c-40 -57 -57 -109 -57 -139z" />
    <glyph glyph-name="germandbls" unicode="&#xdf;" horiz-adv-x="345" 
d="M-101 -286l-71 -8l292 541c-82 -73 -111 -123 -123 -123c-3 0 -4 2 -4 4c0 9 50 70 157 171c113 217 201 327 277 327c26 0 46 -22 46 -48c0 -55 -51 -113 -140 -196c-43 -40 -68 -60 -68 -100c0 -44 17 -95 17 -153c0 -24 -3 -46 -13 -68c51 51 71 81 78 81
c4 0 6 -2 6 -5c0 -6 -13 -22 -38 -48c-56 -59 -99 -94 -152 -94c-41 0 -68 21 -68 52c0 17 14 32 30 32c12 0 22 -9 22 -19c0 -11 -13 -24 -13 -38c0 -7 8 -11 19 -11c36 0 81 41 81 119c0 43 -9 83 -9 120c0 47 45 87 107 153c82 87 119 150 119 180c0 18 -10 29 -27 29
c-61 0 -133 -110 -240 -325z" />
    <glyph glyph-name="Aacute" unicode="&#xc1;" horiz-adv-x="1194" 
d="M949 -5c10 23 19 47 28 69c-71 7 -133 31 -195 72c-109 -94 -225 -141 -357 -141c-176 0 -279 83 -279 210c0 130 127 230 268 230c121 0 195 -65 195 -147c0 -102 -83 -176 -209 -176c-34 0 -50 4 -50 11c0 2 3 4 9 4c3 0 16 -2 37 -2c121 0 194 68 194 149
c0 71 -59 118 -157 118c-146 0 -260 -100 -260 -211c0 -101 93 -172 250 -172c129 0 246 47 346 137c-85 69 -127 143 -127 226c0 98 71 156 155 156c64 0 147 -34 207 -141c107 118 231 249 434 336c-164 -197 -279 -416 -377 -649c100 6 125 66 140 66c1 0 3 -1 3 -3
c0 -19 -54 -71 -150 -79l-25 -52zM1022 159c98 209 224 375 355 518c-107 -45 -228 -146 -366 -304c12 -38 19 -82 19 -130c0 -26 -3 -54 -8 -84zM983 78c22 55 33 106 33 163c0 45 -5 85 -16 121c-68 -72 -132 -146 -205 -214c54 -41 116 -63 188 -70zM782 156
c79 71 145 148 211 220c-41 81 -99 122 -170 122c-77 0 -144 -67 -144 -159c0 -73 33 -129 103 -183zM1372 773c-6 0 -8 2 -8 7c0 14 45 23 82 76c24 35 25 87 61 87c18 0 30 -11 30 -30c0 -32 -31 -70 -92 -106c-36 -21 -59 -34 -73 -34z" />
    <glyph glyph-name="Acircumflex" unicode="&#xc2;" horiz-adv-x="1194" 
d="M949 -5c10 23 19 47 28 69c-71 7 -133 31 -195 72c-109 -94 -225 -141 -357 -141c-176 0 -279 83 -279 210c0 130 127 230 268 230c121 0 195 -65 195 -147c0 -102 -83 -176 -209 -176c-34 0 -50 4 -50 11c0 2 3 4 9 4c3 0 16 -2 37 -2c121 0 194 68 194 149
c0 71 -59 118 -157 118c-146 0 -260 -100 -260 -211c0 -101 93 -172 250 -172c129 0 246 47 346 137c-85 69 -127 143 -127 226c0 98 71 156 155 156c64 0 147 -34 207 -141c107 118 231 249 434 336c-164 -197 -279 -416 -377 -649c100 6 125 66 140 66c1 0 3 -1 3 -3
c0 -19 -54 -71 -150 -79l-25 -52zM1022 159c98 209 224 375 355 518c-107 -45 -228 -146 -366 -304c12 -38 19 -82 19 -130c0 -26 -3 -54 -8 -84zM983 78c22 55 33 106 33 163c0 45 -5 85 -16 121c-68 -72 -132 -146 -205 -214c54 -41 116 -63 188 -70zM782 156
c79 71 145 148 211 220c-41 81 -99 122 -170 122c-77 0 -144 -67 -144 -159c0 -73 33 -129 103 -183zM1456 866l-117 -62c-31 -16 -50 -25 -58 -25c-9 0 -13 2 -13 9c0 12 22 21 67 49c89 56 127 94 136 94c5 0 11 -4 13 -11l34 -119c1 -4 2 -8 2 -13c0 -6 -3 -10 -8 -10
c-15 0 -28 30 -56 88z" />
    <glyph glyph-name="Adieresis" unicode="&#xc4;" horiz-adv-x="1194" 
d="M949 -5c10 23 19 47 28 69c-71 7 -133 31 -195 72c-109 -94 -225 -141 -357 -141c-176 0 -279 83 -279 210c0 130 127 230 268 230c121 0 195 -65 195 -147c0 -102 -83 -176 -209 -176c-34 0 -50 4 -50 11c0 2 3 4 9 4c3 0 16 -2 37 -2c121 0 194 68 194 149
c0 71 -59 118 -157 118c-146 0 -260 -100 -260 -211c0 -101 93 -172 250 -172c129 0 246 47 346 137c-85 69 -127 143 -127 226c0 98 71 156 155 156c64 0 147 -34 207 -141c107 118 231 249 434 336c-164 -197 -279 -416 -377 -649c100 6 125 66 140 66c1 0 3 -1 3 -3
c0 -19 -54 -71 -150 -79l-25 -52zM1022 159c98 209 224 375 355 518c-107 -45 -228 -146 -366 -304c12 -38 19 -82 19 -130c0 -26 -3 -54 -8 -84zM983 78c22 55 33 106 33 163c0 45 -5 85 -16 121c-68 -72 -132 -146 -205 -214c54 -41 116 -63 188 -70zM782 156
c79 71 145 148 211 220c-41 81 -99 122 -170 122c-77 0 -144 -67 -144 -159c0 -73 33 -129 103 -183zM1465 845c0 24 19 43 42 43c20 0 31 -12 31 -33c0 -24 -17 -43 -41 -43c-20 0 -32 12 -32 33zM1303 845c0 24 18 43 41 43c20 0 32 -12 32 -33c0 -24 -17 -43 -41 -43
c-20 0 -32 12 -32 33z" />
    <glyph glyph-name="Agrave" unicode="&#xc0;" horiz-adv-x="1194" 
d="M949 -5c10 23 19 47 28 69c-71 7 -133 31 -195 72c-109 -94 -225 -141 -357 -141c-176 0 -279 83 -279 210c0 130 127 230 268 230c121 0 195 -65 195 -147c0 -102 -83 -176 -209 -176c-34 0 -50 4 -50 11c0 2 3 4 9 4c3 0 16 -2 37 -2c121 0 194 68 194 149
c0 71 -59 118 -157 118c-146 0 -260 -100 -260 -211c0 -101 93 -172 250 -172c129 0 246 47 346 137c-85 69 -127 143 -127 226c0 98 71 156 155 156c64 0 147 -34 207 -141c107 118 231 249 434 336c-164 -197 -279 -416 -377 -649c100 6 125 66 140 66c1 0 3 -1 3 -3
c0 -19 -54 -71 -150 -79l-25 -52zM1022 159c98 209 224 375 355 518c-107 -45 -228 -146 -366 -304c12 -38 19 -82 19 -130c0 -26 -3 -54 -8 -84zM983 78c22 55 33 106 33 163c0 45 -5 85 -16 121c-68 -72 -132 -146 -205 -214c54 -41 116 -63 188 -70zM782 156
c79 71 145 148 211 220c-41 81 -99 122 -170 122c-77 0 -144 -67 -144 -159c0 -73 33 -129 103 -183zM1452 778c0 -4 -4 -7 -7 -7c-20 0 -100 85 -100 134c0 24 12 41 32 41c19 0 29 -12 29 -35v-29c0 -62 46 -93 46 -104z" />
    <glyph glyph-name="Aring" unicode="&#xc5;" horiz-adv-x="1194" 
d="M949 -5c10 23 19 47 28 69c-71 7 -133 31 -195 72c-109 -94 -225 -141 -357 -141c-176 0 -279 83 -279 210c0 130 127 230 268 230c121 0 195 -65 195 -147c0 -102 -83 -176 -209 -176c-34 0 -50 4 -50 11c0 2 3 4 9 4c3 0 16 -2 37 -2c121 0 194 68 194 149
c0 71 -59 118 -157 118c-146 0 -260 -100 -260 -211c0 -101 93 -172 250 -172c129 0 246 47 346 137c-85 69 -127 143 -127 226c0 98 71 156 155 156c64 0 147 -34 207 -141c107 118 231 249 434 336c-164 -197 -279 -416 -377 -649c100 6 125 66 140 66c1 0 3 -1 3 -3
c0 -19 -54 -71 -150 -79l-25 -52zM1022 159c98 209 224 375 355 518c-107 -45 -228 -146 -366 -304c12 -38 19 -82 19 -130c0 -26 -3 -54 -8 -84zM983 78c22 55 33 106 33 163c0 45 -5 85 -16 121c-68 -72 -132 -146 -205 -214c54 -41 116 -63 188 -70zM782 156
c79 71 145 148 211 220c-41 81 -99 122 -170 122c-77 0 -144 -67 -144 -159c0 -73 33 -129 103 -183zM1380 840c0 47 38 85 85 85c48 0 85 -38 85 -85s-38 -85 -85 -85s-85 38 -85 85zM1407 840c0 -33 25 -58 58 -58c32 0 58 25 58 58c0 32 -26 58 -58 58
c-33 0 -58 -25 -58 -58z" />
    <glyph glyph-name="Atilde" unicode="&#xc3;" horiz-adv-x="1194" 
d="M949 -5c10 23 19 47 28 69c-71 7 -133 31 -195 72c-109 -94 -225 -141 -357 -141c-176 0 -279 83 -279 210c0 130 127 230 268 230c121 0 195 -65 195 -147c0 -102 -83 -176 -209 -176c-34 0 -50 4 -50 11c0 2 3 4 9 4c3 0 16 -2 37 -2c121 0 194 68 194 149
c0 71 -59 118 -157 118c-146 0 -260 -100 -260 -211c0 -101 93 -172 250 -172c129 0 246 47 346 137c-85 69 -127 143 -127 226c0 98 71 156 155 156c64 0 147 -34 207 -141c107 118 231 249 434 336c-164 -197 -279 -416 -377 -649c100 6 125 66 140 66c1 0 3 -1 3 -3
c0 -19 -54 -71 -150 -79l-25 -52zM1022 159c98 209 224 375 355 518c-107 -45 -228 -146 -366 -304c12 -38 19 -82 19 -130c0 -26 -3 -54 -8 -84zM983 78c22 55 33 106 33 163c0 45 -5 85 -16 121c-68 -72 -132 -146 -205 -214c54 -41 116 -63 188 -70zM782 156
c79 71 145 148 211 220c-41 81 -99 122 -170 122c-77 0 -144 -67 -144 -159c0 -73 33 -129 103 -183zM1365 892c39 0 85 -37 121 -37c39 0 46 48 62 48c6 0 10 -3 10 -7c0 -21 -33 -88 -82 -88c-40 0 -84 37 -121 37c-39 0 -47 -48 -63 -48c-6 0 -9 3 -9 7c0 21 33 88 82 88
z" />
    <glyph glyph-name="Ccedilla" unicode="&#xc7;" horiz-adv-x="553" 
d="M241 361c347 97 521 210 521 297c0 30 -21 48 -59 48c-59 0 -189 -45 -301 -143c-67 -59 -122 -127 -161 -202zM235 343c-34 -70 -50 -148 -50 -208c0 -80 38 -123 107 -123c53 0 111 23 162 66c58 50 89 112 89 155c0 39 -23 67 -57 67c-55 0 -122 -57 -161 -151
c-21 -50 -20 -85 -31 -85c-3 0 -7 6 -7 17c0 136 86 245 183 245c54 0 87 -36 87 -91c0 -48 -31 -112 -93 -166c-56 -49 -123 -74 -191 -74c-98 0 -161 69 -161 177c0 50 11 99 31 149c-72 -16 -115 -27 -131 -27c-6 0 -10 2 -10 5c0 9 49 15 145 38c36 60 94 148 207 233
c138 103 277 149 349 149c45 0 74 -25 74 -57c0 -106 -181 -213 -542 -319zM192 -58c18 10 36 14 58 14c48 0 73 -21 73 -62c0 -47 -39 -80 -103 -80c-75 0 -130 34 -130 42c0 2 4 5 9 5c18 0 56 -23 118 -23c39 0 65 23 65 50c0 29 -16 39 -53 39c-6 0 -17 -2 -31 -5z" />
    <glyph glyph-name="Eacute" unicode="&#xc9;" horiz-adv-x="597" 
d="M319 12h10c41 0 84 16 125 47c65 48 100 118 100 173c0 41 -20 66 -55 66s-80 -28 -119 -83s-61 -124 -61 -180v-23zM303 -5h-5c-103 0 -162 56 -162 146c0 120 96 223 277 269c-18 9 -32 20 -42 35c-23 -3 -45 -5 -64 -5c-122 0 -194 59 -194 142c0 88 81 158 198 158
c65 0 125 -21 178 -63c67 30 123 43 162 43c43 0 66 -19 66 -47c0 -58 -110 -164 -307 -221c10 -29 27 -35 59 -35c9 0 19 2 28 2c18 0 27 -7 27 -16s-8 -15 -24 -15c-25 0 -46 10 -62 10c-25 0 -80 -19 -130 -60c-65 -54 -102 -130 -102 -206c0 -67 39 -113 94 -119
c0 8 -1 19 -1 30c0 167 95 275 188 275c49 0 81 -35 81 -81c0 -113 -98 -223 -248 -242c5 -48 16 -76 16 -86c0 -4 -2 -7 -3 -7c-9 0 -18 31 -30 93zM353 476c-4 12 -6 22 -6 32c0 53 42 111 128 160c-49 38 -104 58 -164 58c-101 0 -171 -55 -171 -123
c0 -69 80 -130 177 -130c9 0 22 2 36 3zM407 480c185 33 294 139 294 193c0 22 -16 34 -45 34s-80 -17 -137 -57c27 -29 41 -47 41 -58c0 -2 0 -4 -2 -4c-11 0 -20 23 -50 52c-64 -39 -101 -99 -101 -158v-2zM611 773c-6 0 -8 2 -8 7c0 14 45 23 82 76c24 35 25 87 61 87
c18 0 30 -11 30 -30c0 -32 -31 -70 -92 -106c-36 -21 -59 -34 -73 -34z" />
    <glyph glyph-name="Ecircumflex" unicode="&#xca;" horiz-adv-x="597" 
d="M319 12h10c41 0 84 16 125 47c65 48 100 118 100 173c0 41 -20 66 -55 66s-80 -28 -119 -83s-61 -124 -61 -180v-23zM303 -5h-5c-103 0 -162 56 -162 146c0 120 96 223 277 269c-18 9 -32 20 -42 35c-23 -3 -45 -5 -64 -5c-122 0 -194 59 -194 142c0 88 81 158 198 158
c65 0 125 -21 178 -63c67 30 123 43 162 43c43 0 66 -19 66 -47c0 -58 -110 -164 -307 -221c10 -29 27 -35 59 -35c9 0 19 2 28 2c18 0 27 -7 27 -16s-8 -15 -24 -15c-25 0 -46 10 -62 10c-25 0 -80 -19 -130 -60c-65 -54 -102 -130 -102 -206c0 -67 39 -113 94 -119
c0 8 -1 19 -1 30c0 167 95 275 188 275c49 0 81 -35 81 -81c0 -113 -98 -223 -248 -242c5 -48 16 -76 16 -86c0 -4 -2 -7 -3 -7c-9 0 -18 31 -30 93zM353 476c-4 12 -6 22 -6 32c0 53 42 111 128 160c-49 38 -104 58 -164 58c-101 0 -171 -55 -171 -123
c0 -69 80 -130 177 -130c9 0 22 2 36 3zM407 480c185 33 294 139 294 193c0 22 -16 34 -45 34s-80 -17 -137 -57c27 -29 41 -47 41 -58c0 -2 0 -4 -2 -4c-11 0 -20 23 -50 52c-64 -39 -101 -99 -101 -158v-2zM695 866l-117 -62c-31 -16 -50 -25 -58 -25c-9 0 -13 2 -13 9
c0 12 22 21 67 49c89 56 127 94 136 94c5 0 11 -4 13 -11l34 -119c1 -4 2 -8 2 -13c0 -6 -3 -10 -8 -10c-15 0 -28 30 -56 88z" />
    <glyph glyph-name="Edieresis" unicode="&#xcb;" horiz-adv-x="597" 
d="M319 12h10c41 0 84 16 125 47c65 48 100 118 100 173c0 41 -20 66 -55 66s-80 -28 -119 -83s-61 -124 -61 -180v-23zM303 -5h-5c-103 0 -162 56 -162 146c0 120 96 223 277 269c-18 9 -32 20 -42 35c-23 -3 -45 -5 -64 -5c-122 0 -194 59 -194 142c0 88 81 158 198 158
c65 0 125 -21 178 -63c67 30 123 43 162 43c43 0 66 -19 66 -47c0 -58 -110 -164 -307 -221c10 -29 27 -35 59 -35c9 0 19 2 28 2c18 0 27 -7 27 -16s-8 -15 -24 -15c-25 0 -46 10 -62 10c-25 0 -80 -19 -130 -60c-65 -54 -102 -130 -102 -206c0 -67 39 -113 94 -119
c0 8 -1 19 -1 30c0 167 95 275 188 275c49 0 81 -35 81 -81c0 -113 -98 -223 -248 -242c5 -48 16 -76 16 -86c0 -4 -2 -7 -3 -7c-9 0 -18 31 -30 93zM353 476c-4 12 -6 22 -6 32c0 53 42 111 128 160c-49 38 -104 58 -164 58c-101 0 -171 -55 -171 -123
c0 -69 80 -130 177 -130c9 0 22 2 36 3zM407 480c185 33 294 139 294 193c0 22 -16 34 -45 34s-80 -17 -137 -57c27 -29 41 -47 41 -58c0 -2 0 -4 -2 -4c-11 0 -20 23 -50 52c-64 -39 -101 -99 -101 -158v-2zM704 845c0 24 19 43 42 43c20 0 31 -12 31 -33
c0 -24 -17 -43 -41 -43c-20 0 -32 12 -32 33zM542 845c0 24 18 43 41 43c20 0 32 -12 32 -33c0 -24 -17 -43 -41 -43c-20 0 -32 12 -32 33z" />
    <glyph glyph-name="Egrave" unicode="&#xc8;" horiz-adv-x="597" 
d="M319 12h10c41 0 84 16 125 47c65 48 100 118 100 173c0 41 -20 66 -55 66s-80 -28 -119 -83s-61 -124 -61 -180v-23zM303 -5h-5c-103 0 -162 56 -162 146c0 120 96 223 277 269c-18 9 -32 20 -42 35c-23 -3 -45 -5 -64 -5c-122 0 -194 59 -194 142c0 88 81 158 198 158
c65 0 125 -21 178 -63c67 30 123 43 162 43c43 0 66 -19 66 -47c0 -58 -110 -164 -307 -221c10 -29 27 -35 59 -35c9 0 19 2 28 2c18 0 27 -7 27 -16s-8 -15 -24 -15c-25 0 -46 10 -62 10c-25 0 -80 -19 -130 -60c-65 -54 -102 -130 -102 -206c0 -67 39 -113 94 -119
c0 8 -1 19 -1 30c0 167 95 275 188 275c49 0 81 -35 81 -81c0 -113 -98 -223 -248 -242c5 -48 16 -76 16 -86c0 -4 -2 -7 -3 -7c-9 0 -18 31 -30 93zM353 476c-4 12 -6 22 -6 32c0 53 42 111 128 160c-49 38 -104 58 -164 58c-101 0 -171 -55 -171 -123
c0 -69 80 -130 177 -130c9 0 22 2 36 3zM407 480c185 33 294 139 294 193c0 22 -16 34 -45 34s-80 -17 -137 -57c27 -29 41 -47 41 -58c0 -2 0 -4 -2 -4c-11 0 -20 23 -50 52c-64 -39 -101 -99 -101 -158v-2zM691 778c0 -4 -4 -7 -7 -7c-20 0 -100 85 -100 134
c0 24 12 41 32 41c19 0 29 -12 29 -35v-29c0 -62 46 -93 46 -104z" />
    <glyph glyph-name="Iacute" unicode="&#xcd;" horiz-adv-x="865" 
d="M870 324c-101 -215 -270 -327 -471 -327c-163 0 -267 90 -267 206c0 122 115 233 278 233c120 0 197 -71 197 -160c0 -90 -87 -167 -213 -167c-71 0 -126 27 -126 39c0 2 1 3 2 3c13 0 51 -29 122 -29c118 0 199 73 199 146c0 77 -55 126 -156 126
c-157 0 -269 -98 -269 -208c0 -99 86 -175 229 -175c169 0 291 101 398 313c-71 9 -112 52 -112 115c0 81 72 163 214 213c103 37 206 51 265 51c12 0 17 -2 17 -3c0 -6 -28 -6 -62 -28c-98 -62 -155 -172 -233 -327c85 14 114 79 130 79c1 0 2 -1 2 -2
c0 -19 -54 -81 -144 -98zM804 345c104 179 203 294 318 345c-256 -25 -395 -135 -395 -257c0 -53 28 -84 77 -88zM976 773c-6 0 -8 2 -8 7c0 14 45 23 82 76c24 35 25 87 61 87c18 0 30 -11 30 -30c0 -32 -31 -70 -92 -106c-36 -21 -59 -34 -73 -34z" />
    <glyph glyph-name="Icircumflex" unicode="&#xce;" horiz-adv-x="865" 
d="M870 324c-101 -215 -270 -327 -471 -327c-163 0 -267 90 -267 206c0 122 115 233 278 233c120 0 197 -71 197 -160c0 -90 -87 -167 -213 -167c-71 0 -126 27 -126 39c0 2 1 3 2 3c13 0 51 -29 122 -29c118 0 199 73 199 146c0 77 -55 126 -156 126
c-157 0 -269 -98 -269 -208c0 -99 86 -175 229 -175c169 0 291 101 398 313c-71 9 -112 52 -112 115c0 81 72 163 214 213c103 37 206 51 265 51c12 0 17 -2 17 -3c0 -6 -28 -6 -62 -28c-98 -62 -155 -172 -233 -327c85 14 114 79 130 79c1 0 2 -1 2 -2
c0 -19 -54 -81 -144 -98zM804 345c104 179 203 294 318 345c-256 -25 -395 -135 -395 -257c0 -53 28 -84 77 -88zM1060 866l-117 -62c-31 -16 -50 -25 -58 -25c-9 0 -13 2 -13 9c0 12 22 21 67 49c89 56 127 94 136 94c5 0 11 -4 13 -11l34 -119c1 -4 2 -8 2 -13
c0 -6 -3 -10 -8 -10c-15 0 -28 30 -56 88z" />
    <glyph glyph-name="Idieresis" unicode="&#xcf;" horiz-adv-x="865" 
d="M870 324c-101 -215 -270 -327 -471 -327c-163 0 -267 90 -267 206c0 122 115 233 278 233c120 0 197 -71 197 -160c0 -90 -87 -167 -213 -167c-71 0 -126 27 -126 39c0 2 1 3 2 3c13 0 51 -29 122 -29c118 0 199 73 199 146c0 77 -55 126 -156 126
c-157 0 -269 -98 -269 -208c0 -99 86 -175 229 -175c169 0 291 101 398 313c-71 9 -112 52 -112 115c0 81 72 163 214 213c103 37 206 51 265 51c12 0 17 -2 17 -3c0 -6 -28 -6 -62 -28c-98 -62 -155 -172 -233 -327c85 14 114 79 130 79c1 0 2 -1 2 -2
c0 -19 -54 -81 -144 -98zM804 345c104 179 203 294 318 345c-256 -25 -395 -135 -395 -257c0 -53 28 -84 77 -88zM1069 845c0 24 19 43 42 43c20 0 31 -12 31 -33c0 -24 -17 -43 -41 -43c-20 0 -32 12 -32 33zM907 845c0 24 18 43 41 43c20 0 32 -12 32 -33
c0 -24 -17 -43 -41 -43c-20 0 -32 12 -32 33z" />
    <glyph glyph-name="Igrave" unicode="&#xcc;" horiz-adv-x="865" 
d="M870 324c-101 -215 -270 -327 -471 -327c-163 0 -267 90 -267 206c0 122 115 233 278 233c120 0 197 -71 197 -160c0 -90 -87 -167 -213 -167c-71 0 -126 27 -126 39c0 2 1 3 2 3c13 0 51 -29 122 -29c118 0 199 73 199 146c0 77 -55 126 -156 126
c-157 0 -269 -98 -269 -208c0 -99 86 -175 229 -175c169 0 291 101 398 313c-71 9 -112 52 -112 115c0 81 72 163 214 213c103 37 206 51 265 51c12 0 17 -2 17 -3c0 -6 -28 -6 -62 -28c-98 -62 -155 -172 -233 -327c85 14 114 79 130 79c1 0 2 -1 2 -2
c0 -19 -54 -81 -144 -98zM804 345c104 179 203 294 318 345c-256 -25 -395 -135 -395 -257c0 -53 28 -84 77 -88zM1056 778c0 -4 -4 -7 -7 -7c-20 0 -100 85 -100 134c0 24 12 41 32 41c19 0 29 -12 29 -35v-29c0 -62 46 -93 46 -104z" />
    <glyph glyph-name="Ntilde" unicode="&#xd1;" horiz-adv-x="1103" 
d="M954 603c-68 -113 -122 -224 -188 -321c-130 -188 -292 -287 -453 -287c-162 0 -267 82 -267 204c0 137 114 236 285 236c128 0 200 -60 200 -152c0 -91 -92 -173 -222 -173c-57 0 -97 16 -97 24c0 1 3 3 7 3c12 0 41 -13 86 -13c125 0 207 70 207 148
c0 73 -64 122 -169 122c-156 0 -272 -100 -272 -217c0 -98 96 -168 243 -168c195 0 364 136 518 407c110 193 169 294 188 294c3 0 4 -2 4 -7c0 -16 -33 -58 -33 -181c0 -34 1 -78 1 -133c0 -65 -1 -162 -31 -298c216 413 381 619 486 619c28 0 45 -17 45 -39
c0 -23 -19 -41 -39 -41c-40 0 -28 44 -54 44c-40 0 -136 -98 -267 -309c-149 -241 -198 -370 -216 -370c-5 0 -7 3 -7 11c0 5 22 37 22 120c0 72 -18 144 -18 217c0 75 15 161 41 260zM1169 892c39 0 85 -37 121 -37c39 0 46 48 62 48c6 0 10 -3 10 -7
c0 -21 -33 -88 -82 -88c-40 0 -84 37 -121 37c-39 0 -47 -48 -63 -48c-6 0 -9 3 -9 7c0 21 33 88 82 88z" />
    <glyph glyph-name="Oacute" unicode="&#xd3;" horiz-adv-x="704" 
d="M571 609c29 13 54 20 75 20c81 0 129 -57 129 -158c0 -99 -51 -219 -153 -329c-92 -99 -190 -148 -277 -148c-98 0 -163 77 -163 198c0 144 102 317 295 454c-25 6 -48 10 -71 10c-124 0 -229 -78 -271 -201c-17 -49 -11 -87 -22 -87c-2 0 -4 5 -4 13
c0 143 127 289 294 289c28 0 57 -5 87 -14c81 46 147 69 203 69c82 0 134 -44 134 -118c0 -25 -4 -38 -11 -38c-2 0 -5 3 -5 10c0 6 2 14 2 25c0 68 -42 105 -115 105c-52 0 -115 -21 -176 -66c17 -10 34 -21 49 -34zM584 598c41 -46 72 -100 72 -175
c0 -54 -19 -108 -53 -152c-40 -51 -94 -78 -136 -78c-60 0 -101 43 -101 116c0 90 66 212 191 293c-16 13 -32 23 -50 32c-170 -132 -263 -337 -263 -477c0 -91 46 -145 122 -145c71 0 169 51 256 151c92 106 140 224 140 315c0 83 -46 137 -109 137c-25 0 -46 -6 -69 -17z
M568 592c-119 -71 -187 -194 -187 -284c0 -54 35 -92 77 -92c77 0 162 113 162 239c0 58 -16 103 -52 137zM653 773c-6 0 -8 2 -8 7c0 14 45 23 82 76c24 35 25 87 61 87c18 0 30 -11 30 -30c0 -32 -31 -70 -92 -106c-36 -21 -59 -34 -73 -34z" />
    <glyph glyph-name="Ocircumflex" unicode="&#xd4;" horiz-adv-x="704" 
d="M571 609c29 13 54 20 75 20c81 0 129 -57 129 -158c0 -99 -51 -219 -153 -329c-92 -99 -190 -148 -277 -148c-98 0 -163 77 -163 198c0 144 102 317 295 454c-25 6 -48 10 -71 10c-124 0 -229 -78 -271 -201c-17 -49 -11 -87 -22 -87c-2 0 -4 5 -4 13
c0 143 127 289 294 289c28 0 57 -5 87 -14c81 46 147 69 203 69c82 0 134 -44 134 -118c0 -25 -4 -38 -11 -38c-2 0 -5 3 -5 10c0 6 2 14 2 25c0 68 -42 105 -115 105c-52 0 -115 -21 -176 -66c17 -10 34 -21 49 -34zM584 598c41 -46 72 -100 72 -175
c0 -54 -19 -108 -53 -152c-40 -51 -94 -78 -136 -78c-60 0 -101 43 -101 116c0 90 66 212 191 293c-16 13 -32 23 -50 32c-170 -132 -263 -337 -263 -477c0 -91 46 -145 122 -145c71 0 169 51 256 151c92 106 140 224 140 315c0 83 -46 137 -109 137c-25 0 -46 -6 -69 -17z
M568 592c-119 -71 -187 -194 -187 -284c0 -54 35 -92 77 -92c77 0 162 113 162 239c0 58 -16 103 -52 137zM737 866l-117 -62c-31 -16 -50 -25 -58 -25c-9 0 -13 2 -13 9c0 12 22 21 67 49c89 56 127 94 136 94c5 0 11 -4 13 -11l34 -119c1 -4 2 -8 2 -13
c0 -6 -3 -10 -8 -10c-15 0 -28 30 -56 88z" />
    <glyph glyph-name="Odieresis" unicode="&#xd6;" horiz-adv-x="704" 
d="M571 609c29 13 54 20 75 20c81 0 129 -57 129 -158c0 -99 -51 -219 -153 -329c-92 -99 -190 -148 -277 -148c-98 0 -163 77 -163 198c0 144 102 317 295 454c-25 6 -48 10 -71 10c-124 0 -229 -78 -271 -201c-17 -49 -11 -87 -22 -87c-2 0 -4 5 -4 13
c0 143 127 289 294 289c28 0 57 -5 87 -14c81 46 147 69 203 69c82 0 134 -44 134 -118c0 -25 -4 -38 -11 -38c-2 0 -5 3 -5 10c0 6 2 14 2 25c0 68 -42 105 -115 105c-52 0 -115 -21 -176 -66c17 -10 34 -21 49 -34zM584 598c41 -46 72 -100 72 -175
c0 -54 -19 -108 -53 -152c-40 -51 -94 -78 -136 -78c-60 0 -101 43 -101 116c0 90 66 212 191 293c-16 13 -32 23 -50 32c-170 -132 -263 -337 -263 -477c0 -91 46 -145 122 -145c71 0 169 51 256 151c92 106 140 224 140 315c0 83 -46 137 -109 137c-25 0 -46 -6 -69 -17z
M568 592c-119 -71 -187 -194 -187 -284c0 -54 35 -92 77 -92c77 0 162 113 162 239c0 58 -16 103 -52 137zM746 845c0 24 19 43 42 43c20 0 31 -12 31 -33c0 -24 -17 -43 -41 -43c-20 0 -32 12 -32 33zM584 845c0 24 18 43 41 43c20 0 32 -12 32 -33c0 -24 -17 -43 -41 -43
c-20 0 -32 12 -32 33z" />
    <glyph glyph-name="Ograve" unicode="&#xd2;" horiz-adv-x="704" 
d="M571 609c29 13 54 20 75 20c81 0 129 -57 129 -158c0 -99 -51 -219 -153 -329c-92 -99 -190 -148 -277 -148c-98 0 -163 77 -163 198c0 144 102 317 295 454c-25 6 -48 10 -71 10c-124 0 -229 -78 -271 -201c-17 -49 -11 -87 -22 -87c-2 0 -4 5 -4 13
c0 143 127 289 294 289c28 0 57 -5 87 -14c81 46 147 69 203 69c82 0 134 -44 134 -118c0 -25 -4 -38 -11 -38c-2 0 -5 3 -5 10c0 6 2 14 2 25c0 68 -42 105 -115 105c-52 0 -115 -21 -176 -66c17 -10 34 -21 49 -34zM584 598c41 -46 72 -100 72 -175
c0 -54 -19 -108 -53 -152c-40 -51 -94 -78 -136 -78c-60 0 -101 43 -101 116c0 90 66 212 191 293c-16 13 -32 23 -50 32c-170 -132 -263 -337 -263 -477c0 -91 46 -145 122 -145c71 0 169 51 256 151c92 106 140 224 140 315c0 83 -46 137 -109 137c-25 0 -46 -6 -69 -17z
M568 592c-119 -71 -187 -194 -187 -284c0 -54 35 -92 77 -92c77 0 162 113 162 239c0 58 -16 103 -52 137zM733 778c0 -4 -4 -7 -7 -7c-20 0 -100 85 -100 134c0 24 12 41 32 41c19 0 29 -12 29 -35v-29c0 -62 46 -93 46 -104z" />
    <glyph glyph-name="Otilde" unicode="&#xd5;" horiz-adv-x="704" 
d="M571 609c29 13 54 20 75 20c81 0 129 -57 129 -158c0 -99 -51 -219 -153 -329c-92 -99 -190 -148 -277 -148c-98 0 -163 77 -163 198c0 144 102 317 295 454c-25 6 -48 10 -71 10c-124 0 -229 -78 -271 -201c-17 -49 -11 -87 -22 -87c-2 0 -4 5 -4 13
c0 143 127 289 294 289c28 0 57 -5 87 -14c81 46 147 69 203 69c82 0 134 -44 134 -118c0 -25 -4 -38 -11 -38c-2 0 -5 3 -5 10c0 6 2 14 2 25c0 68 -42 105 -115 105c-52 0 -115 -21 -176 -66c17 -10 34 -21 49 -34zM584 598c41 -46 72 -100 72 -175
c0 -54 -19 -108 -53 -152c-40 -51 -94 -78 -136 -78c-60 0 -101 43 -101 116c0 90 66 212 191 293c-16 13 -32 23 -50 32c-170 -132 -263 -337 -263 -477c0 -91 46 -145 122 -145c71 0 169 51 256 151c92 106 140 224 140 315c0 83 -46 137 -109 137c-25 0 -46 -6 -69 -17z
M568 592c-119 -71 -187 -194 -187 -284c0 -54 35 -92 77 -92c77 0 162 113 162 239c0 58 -16 103 -52 137zM646 892c39 0 85 -37 121 -37c39 0 46 48 62 48c6 0 10 -3 10 -7c0 -21 -33 -88 -82 -88c-40 0 -84 37 -121 37c-39 0 -47 -48 -63 -48c-6 0 -9 3 -9 7
c0 21 33 88 82 88z" />
    <glyph glyph-name="Scaron" unicode="&#x160;" horiz-adv-x="785" 
d="M816 403c-108 -273 -257 -408 -471 -408c-158 0 -262 87 -262 205c0 126 120 229 275 229c116 0 190 -61 190 -151c0 -95 -82 -168 -202 -168c-72 0 -130 24 -130 35c0 1 1 3 2 3c17 0 58 -25 124 -25c113 0 191 66 191 150c0 74 -63 121 -163 121
c-142 0 -259 -99 -259 -214c0 -102 91 -170 230 -170c189 0 296 120 396 380c-19 -2 -36 -3 -51 -3c-143 0 -237 83 -237 181c0 95 87 169 214 169c96 0 174 -37 236 -112c67 56 121 83 158 83c33 0 52 -21 52 -54c0 -76 -102 -193 -293 -251zM748 414c40 82 89 147 141 200
c-56 72 -134 109 -226 109c-113 0 -187 -66 -187 -142c0 -85 103 -168 245 -168c9 0 18 1 27 1zM827 428c172 40 268 162 268 227c0 24 -15 40 -39 40c-28 0 -81 -30 -136 -96c23 -29 32 -51 32 -58c0 -3 -2 -5 -4 -5c-9 0 -14 22 -37 51c-35 -46 -61 -100 -84 -159z
M844 843l116 62c31 16 50 24 58 24c9 0 13 -1 13 -8c0 -12 -21 -22 -66 -50c-89 -56 -128 -94 -137 -94c-5 0 -10 5 -12 12l-34 118c-1 4 -2 8 -2 13c0 6 2 11 7 11c15 0 29 -30 57 -88z" />
    <glyph glyph-name="Uacute" unicode="&#xda;" horiz-adv-x="863" 
d="M693 204c-118 -144 -217 -209 -262 -209c-34 0 -56 28 -56 77c0 68 39 137 98 227l127 192c37 56 53 101 53 126c0 52 -36 81 -105 81c-13 0 -28 -2 -44 -4c30 -24 43 -57 43 -105c0 -67 -30 -138 -89 -195c-51 -50 -111 -76 -166 -76c-64 0 -103 40 -103 101
c0 96 103 221 277 278c-23 9 -46 14 -69 14c-105 0 -227 -81 -290 -216c-41 -89 -29 -142 -41 -142c-2 0 -5 5 -5 16c0 52 24 132 70 197c70 100 170 157 269 157c31 0 59 -6 88 -19c26 5 48 7 68 7c84 0 132 -47 132 -132c0 -71 -39 -139 -100 -232l-115 -176
c-43 -66 -63 -111 -63 -128c0 -19 10 -28 31 -28c52 0 187 103 348 351l214 332l84 5l-338 -528c-43 -68 -60 -121 -60 -134s10 -23 20 -23c33 0 65 28 113 77c29 29 39 47 45 47c3 0 6 -2 6 -5c0 -8 -18 -27 -51 -61c-50 -52 -89 -78 -119 -78c-31 0 -47 26 -47 73
c0 41 13 83 37 133zM482 689c-174 -55 -276 -171 -276 -264c0 -48 28 -76 72 -76c51 0 123 36 172 98c46 58 68 124 68 168c0 33 -12 57 -36 74zM825 773c-6 0 -8 2 -8 7c0 14 45 23 82 76c24 35 25 87 61 87c18 0 30 -11 30 -30c0 -32 -31 -70 -92 -106
c-36 -21 -59 -34 -73 -34z" />
    <glyph glyph-name="Ucircumflex" unicode="&#xdb;" horiz-adv-x="863" 
d="M693 204c-118 -144 -217 -209 -262 -209c-34 0 -56 28 -56 77c0 68 39 137 98 227l127 192c37 56 53 101 53 126c0 52 -36 81 -105 81c-13 0 -28 -2 -44 -4c30 -24 43 -57 43 -105c0 -67 -30 -138 -89 -195c-51 -50 -111 -76 -166 -76c-64 0 -103 40 -103 101
c0 96 103 221 277 278c-23 9 -46 14 -69 14c-105 0 -227 -81 -290 -216c-41 -89 -29 -142 -41 -142c-2 0 -5 5 -5 16c0 52 24 132 70 197c70 100 170 157 269 157c31 0 59 -6 88 -19c26 5 48 7 68 7c84 0 132 -47 132 -132c0 -71 -39 -139 -100 -232l-115 -176
c-43 -66 -63 -111 -63 -128c0 -19 10 -28 31 -28c52 0 187 103 348 351l214 332l84 5l-338 -528c-43 -68 -60 -121 -60 -134s10 -23 20 -23c33 0 65 28 113 77c29 29 39 47 45 47c3 0 6 -2 6 -5c0 -8 -18 -27 -51 -61c-50 -52 -89 -78 -119 -78c-31 0 -47 26 -47 73
c0 41 13 83 37 133zM482 689c-174 -55 -276 -171 -276 -264c0 -48 28 -76 72 -76c51 0 123 36 172 98c46 58 68 124 68 168c0 33 -12 57 -36 74zM909 866l-117 -62c-31 -16 -50 -25 -58 -25c-9 0 -13 2 -13 9c0 12 22 21 67 49c89 56 127 94 136 94c5 0 11 -4 13 -11
l34 -119c1 -4 2 -8 2 -13c0 -6 -3 -10 -8 -10c-15 0 -28 30 -56 88z" />
    <glyph glyph-name="Udieresis" unicode="&#xdc;" horiz-adv-x="863" 
d="M693 204c-118 -144 -217 -209 -262 -209c-34 0 -56 28 -56 77c0 68 39 137 98 227l127 192c37 56 53 101 53 126c0 52 -36 81 -105 81c-13 0 -28 -2 -44 -4c30 -24 43 -57 43 -105c0 -67 -30 -138 -89 -195c-51 -50 -111 -76 -166 -76c-64 0 -103 40 -103 101
c0 96 103 221 277 278c-23 9 -46 14 -69 14c-105 0 -227 -81 -290 -216c-41 -89 -29 -142 -41 -142c-2 0 -5 5 -5 16c0 52 24 132 70 197c70 100 170 157 269 157c31 0 59 -6 88 -19c26 5 48 7 68 7c84 0 132 -47 132 -132c0 -71 -39 -139 -100 -232l-115 -176
c-43 -66 -63 -111 -63 -128c0 -19 10 -28 31 -28c52 0 187 103 348 351l214 332l84 5l-338 -528c-43 -68 -60 -121 -60 -134s10 -23 20 -23c33 0 65 28 113 77c29 29 39 47 45 47c3 0 6 -2 6 -5c0 -8 -18 -27 -51 -61c-50 -52 -89 -78 -119 -78c-31 0 -47 26 -47 73
c0 41 13 83 37 133zM482 689c-174 -55 -276 -171 -276 -264c0 -48 28 -76 72 -76c51 0 123 36 172 98c46 58 68 124 68 168c0 33 -12 57 -36 74zM918 845c0 24 19 43 42 43c20 0 31 -12 31 -33c0 -24 -17 -43 -41 -43c-20 0 -32 12 -32 33zM756 845c0 24 18 43 41 43
c20 0 32 -12 32 -33c0 -24 -17 -43 -41 -43c-20 0 -32 12 -32 33z" />
    <glyph glyph-name="Ugrave" unicode="&#xd9;" horiz-adv-x="863" 
d="M693 204c-118 -144 -217 -209 -262 -209c-34 0 -56 28 -56 77c0 68 39 137 98 227l127 192c37 56 53 101 53 126c0 52 -36 81 -105 81c-13 0 -28 -2 -44 -4c30 -24 43 -57 43 -105c0 -67 -30 -138 -89 -195c-51 -50 -111 -76 -166 -76c-64 0 -103 40 -103 101
c0 96 103 221 277 278c-23 9 -46 14 -69 14c-105 0 -227 -81 -290 -216c-41 -89 -29 -142 -41 -142c-2 0 -5 5 -5 16c0 52 24 132 70 197c70 100 170 157 269 157c31 0 59 -6 88 -19c26 5 48 7 68 7c84 0 132 -47 132 -132c0 -71 -39 -139 -100 -232l-115 -176
c-43 -66 -63 -111 -63 -128c0 -19 10 -28 31 -28c52 0 187 103 348 351l214 332l84 5l-338 -528c-43 -68 -60 -121 -60 -134s10 -23 20 -23c33 0 65 28 113 77c29 29 39 47 45 47c3 0 6 -2 6 -5c0 -8 -18 -27 -51 -61c-50 -52 -89 -78 -119 -78c-31 0 -47 26 -47 73
c0 41 13 83 37 133zM482 689c-174 -55 -276 -171 -276 -264c0 -48 28 -76 72 -76c51 0 123 36 172 98c46 58 68 124 68 168c0 33 -12 57 -36 74zM905 778c0 -4 -4 -7 -7 -7c-20 0 -100 85 -100 134c0 24 12 41 32 41c19 0 29 -12 29 -35v-29c0 -62 46 -93 46 -104z" />
    <glyph glyph-name="Ydieresis" unicode="&#x178;" horiz-adv-x="942" 
d="M884 361c-107 -111 -186 -171 -247 -171c-33 0 -54 26 -54 70c0 40 17 91 53 148c59 94 118 156 118 216c0 50 -39 81 -108 81c-67 0 -152 -30 -220 -83c-65 -50 -97 -109 -97 -149c0 -43 27 -70 77 -70c78 0 172 63 215 158c28 61 26 95 35 95c2 0 6 -7 6 -20
c0 -30 -9 -78 -29 -120c-45 -97 -118 -147 -210 -147c-65 0 -111 37 -111 93c0 59 40 123 115 178c70 50 155 78 220 78c88 0 139 -52 139 -136c0 -77 -49 -132 -96 -209c-44 -72 -72 -116 -72 -139c0 -18 8 -25 26 -25c84 0 187 110 332 298c119 156 244 220 262 220
c7 0 13 -4 13 -9c0 -15 -23 -18 -54 -32c-58 -26 -103 -75 -146 -149c-75 -129 -132 -269 -213 -393c-119 -183 -272 -273 -473 -273c-172 0 -277 82 -277 199c0 128 118 241 279 241c119 0 189 -63 189 -151c0 -99 -92 -174 -213 -174c-43 0 -71 9 -71 19c0 3 2 3 6 3
c10 0 32 -7 65 -7c107 0 192 66 192 151c0 72 -57 120 -155 120c-65 0 -129 -23 -181 -64c-55 -43 -84 -94 -84 -148c0 -98 93 -175 243 -175c243 0 369 153 526 476zM1050 845c0 24 19 43 42 43c20 0 31 -12 31 -33c0 -24 -17 -43 -41 -43c-20 0 -32 12 -32 33zM888 845
c0 24 18 43 41 43c20 0 32 -12 32 -33c0 -24 -17 -43 -41 -43c-20 0 -32 12 -32 33z" />
    <glyph glyph-name="Zcaron" unicode="&#x17d;" horiz-adv-x="819" 
d="M487 221c-140 -151 -252 -226 -331 -226c-47 0 -75 27 -75 68c0 98 141 199 321 199c24 0 50 -2 79 -7c80 97 154 189 231 271c-46 13 -72 36 -92 75c-25 48 -31 93 -98 93c-42 0 -108 -23 -164 -70c-62 -51 -94 -113 -94 -168c0 -57 37 -95 84 -95c64 0 137 58 184 161
c22 49 20 76 30 76c2 0 4 -5 4 -12c0 -21 -8 -68 -25 -110c-38 -93 -107 -143 -179 -143c-65 0 -114 46 -114 117c0 66 38 137 107 190c65 50 135 75 193 75c77 0 104 -29 140 -93c15 -26 25 -51 50 -67c101 104 186 153 242 153c35 0 56 -19 56 -50
c0 -74 -102 -142 -252 -142c-9 0 -22 0 -39 1c-79 -87 -156 -180 -237 -273c58 -22 92 -53 108 -108c19 -64 18 -113 52 -113c19 0 64 24 116 79c24 25 33 40 39 40c3 0 5 -2 5 -5c0 -7 -17 -29 -54 -65c-51 -51 -103 -74 -135 -74c-54 0 -76 50 -94 134
c-10 47 -28 76 -58 89zM459 229c-26 7 -52 9 -80 9c-175 0 -283 -93 -283 -174c0 -34 24 -54 61 -54c75 0 181 71 302 219zM768 543c21 -5 41 -7 60 -7c108 0 193 63 193 121c0 22 -17 36 -40 36c-59 0 -127 -51 -213 -150zM769 843l116 62c31 16 50 24 58 24
c9 0 13 -1 13 -8c0 -12 -21 -22 -66 -50c-89 -56 -128 -94 -137 -94c-5 0 -10 5 -12 12l-34 118c-1 4 -2 8 -2 13c0 6 2 11 7 11c15 0 29 -30 57 -88z" />
    <glyph glyph-name="aacute" unicode="&#xe1;" horiz-adv-x="394" 
d="M268 214l41 60l66 4l-110 -173c-22 -35 -37 -59 -37 -78c0 -11 4 -16 15 -16c17 0 53 28 108 85c29 29 40 46 46 46c3 0 6 -1 6 -4c0 -7 -16 -26 -46 -56c-53 -54 -88 -87 -125 -87c-27 0 -41 18 -41 50c0 10 2 22 5 38c-47 -59 -90 -88 -126 -88c-35 0 -58 37 -58 102
c0 15 2 30 7 47c-9 -14 -16 -20 -21 -20c-4 0 -6 1 -6 4c0 5 16 25 47 56c68 68 133 98 180 98c33 0 53 -19 53 -46c0 -6 -1 -13 -4 -22zM54 44c0 -19 9 -31 24 -31c21 0 55 21 93 63c58 64 85 122 85 160c0 17 -14 31 -33 31c-31 0 -71 -27 -110 -81
c-41 -58 -59 -112 -59 -142zM229 296c-6 0 -8 2 -8 7c0 14 45 23 82 76c24 35 25 87 61 87c18 0 30 -11 30 -30c0 -32 -31 -70 -92 -106c-36 -21 -59 -34 -73 -34z" />
    <glyph glyph-name="acircumflex" unicode="&#xe2;" horiz-adv-x="394" 
d="M268 214l41 60l66 4l-110 -173c-22 -35 -37 -59 -37 -78c0 -11 4 -16 15 -16c17 0 53 28 108 85c29 29 40 46 46 46c3 0 6 -1 6 -4c0 -7 -16 -26 -46 -56c-53 -54 -88 -87 -125 -87c-27 0 -41 18 -41 50c0 10 2 22 5 38c-47 -59 -90 -88 -126 -88c-35 0 -58 37 -58 102
c0 15 2 30 7 47c-9 -14 -16 -20 -21 -20c-4 0 -6 1 -6 4c0 5 16 25 47 56c68 68 133 98 180 98c33 0 53 -19 53 -46c0 -6 -1 -13 -4 -22zM54 44c0 -19 9 -31 24 -31c21 0 55 21 93 63c58 64 85 122 85 160c0 17 -14 31 -33 31c-31 0 -71 -27 -110 -81
c-41 -58 -59 -112 -59 -142zM313 389l-117 -62c-31 -16 -50 -25 -58 -25c-9 0 -13 2 -13 9c0 12 22 21 67 49c89 56 127 94 136 94c5 0 11 -4 13 -11l34 -119c1 -4 2 -8 2 -13c0 -6 -3 -10 -8 -10c-15 0 -28 30 -56 88z" />
    <glyph glyph-name="adieresis" unicode="&#xe4;" horiz-adv-x="394" 
d="M268 214l41 60l66 4l-110 -173c-22 -35 -37 -59 -37 -78c0 -11 4 -16 15 -16c17 0 53 28 108 85c29 29 40 46 46 46c3 0 6 -1 6 -4c0 -7 -16 -26 -46 -56c-53 -54 -88 -87 -125 -87c-27 0 -41 18 -41 50c0 10 2 22 5 38c-47 -59 -90 -88 -126 -88c-35 0 -58 37 -58 102
c0 15 2 30 7 47c-9 -14 -16 -20 -21 -20c-4 0 -6 1 -6 4c0 5 16 25 47 56c68 68 133 98 180 98c33 0 53 -19 53 -46c0 -6 -1 -13 -4 -22zM54 44c0 -19 9 -31 24 -31c21 0 55 21 93 63c58 64 85 122 85 160c0 17 -14 31 -33 31c-31 0 -71 -27 -110 -81
c-41 -58 -59 -112 -59 -142zM322 368c0 24 19 43 42 43c20 0 31 -12 31 -33c0 -24 -17 -43 -41 -43c-20 0 -32 12 -32 33zM160 368c0 24 18 43 41 43c20 0 32 -12 32 -33c0 -24 -17 -43 -41 -43c-20 0 -32 12 -32 33z" />
    <glyph glyph-name="agrave" unicode="&#xe0;" horiz-adv-x="394" 
d="M268 214l41 60l66 4l-110 -173c-22 -35 -37 -59 -37 -78c0 -11 4 -16 15 -16c17 0 53 28 108 85c29 29 40 46 46 46c3 0 6 -1 6 -4c0 -7 -16 -26 -46 -56c-53 -54 -88 -87 -125 -87c-27 0 -41 18 -41 50c0 10 2 22 5 38c-47 -59 -90 -88 -126 -88c-35 0 -58 37 -58 102
c0 15 2 30 7 47c-9 -14 -16 -20 -21 -20c-4 0 -6 1 -6 4c0 5 16 25 47 56c68 68 133 98 180 98c33 0 53 -19 53 -46c0 -6 -1 -13 -4 -22zM54 44c0 -19 9 -31 24 -31c21 0 55 21 93 63c58 64 85 122 85 160c0 17 -14 31 -33 31c-31 0 -71 -27 -110 -81
c-41 -58 -59 -112 -59 -142zM309 301c0 -4 -4 -7 -7 -7c-20 0 -100 85 -100 134c0 24 12 41 32 41c19 0 29 -12 29 -35v-29c0 -62 46 -93 46 -104z" />
    <glyph glyph-name="aring" unicode="&#xe5;" horiz-adv-x="394" 
d="M268 214l41 60l66 4l-110 -173c-22 -35 -37 -59 -37 -78c0 -11 4 -16 15 -16c17 0 53 28 108 85c29 29 40 46 46 46c3 0 6 -1 6 -4c0 -7 -16 -26 -46 -56c-53 -54 -88 -87 -125 -87c-27 0 -41 18 -41 50c0 10 2 22 5 38c-47 -59 -90 -88 -126 -88c-35 0 -58 37 -58 102
c0 15 2 30 7 47c-9 -14 -16 -20 -21 -20c-4 0 -6 1 -6 4c0 5 16 25 47 56c68 68 133 98 180 98c33 0 53 -19 53 -46c0 -6 -1 -13 -4 -22zM54 44c0 -19 9 -31 24 -31c21 0 55 21 93 63c58 64 85 122 85 160c0 17 -14 31 -33 31c-31 0 -71 -27 -110 -81
c-41 -58 -59 -112 -59 -142zM202 383c0 47 38 85 85 85c48 0 85 -38 85 -85s-38 -86 -85 -86s-85 39 -85 86zM230 383c0 -33 24 -59 57 -59c32 0 59 26 59 59c0 32 -27 58 -59 58c-33 0 -57 -25 -57 -58z" />
    <glyph glyph-name="atilde" unicode="&#xe3;" horiz-adv-x="394" 
d="M268 214l41 60l66 4l-110 -173c-22 -35 -37 -59 -37 -78c0 -11 4 -16 15 -16c17 0 53 28 108 85c29 29 40 46 46 46c3 0 6 -1 6 -4c0 -7 -16 -26 -46 -56c-53 -54 -88 -87 -125 -87c-27 0 -41 18 -41 50c0 10 2 22 5 38c-47 -59 -90 -88 -126 -88c-35 0 -58 37 -58 102
c0 15 2 30 7 47c-9 -14 -16 -20 -21 -20c-4 0 -6 1 -6 4c0 5 16 25 47 56c68 68 133 98 180 98c33 0 53 -19 53 -46c0 -6 -1 -13 -4 -22zM54 44c0 -19 9 -31 24 -31c21 0 55 21 93 63c58 64 85 122 85 160c0 17 -14 31 -33 31c-31 0 -71 -27 -110 -81
c-41 -58 -59 -112 -59 -142zM222 415c39 0 85 -37 121 -37c39 0 46 48 62 48c6 0 10 -3 10 -7c0 -21 -33 -88 -82 -88c-40 0 -84 37 -121 37c-39 0 -47 -48 -63 -48c-6 0 -9 3 -9 7c0 21 33 88 82 88z" />
    <glyph glyph-name="ccedilla" unicode="&#xe7;" horiz-adv-x="281" 
d="M20 144c-10 -13 -17 -19 -22 -19c-4 0 -6 1 -6 4c0 4 13 20 40 49c64 69 129 104 181 104c40 0 65 -20 65 -52c0 -27 -17 -46 -37 -46c-18 0 -30 9 -30 26c0 24 31 22 31 41c0 9 -8 17 -21 17c-50 0 -158 -107 -158 -212c0 -30 15 -47 41 -47c39 0 76 27 123 74
c38 37 51 59 58 59c4 0 6 -2 6 -5c0 -7 -18 -26 -51 -60c-53 -53 -96 -82 -142 -82c-49 0 -84 45 -84 108c0 13 2 26 6 41zM55 -58c18 10 35 14 57 14c48 0 74 -21 74 -62c0 -47 -39 -80 -103 -80c-75 0 -131 34 -131 42c0 2 4 5 9 5c18 0 56 -23 118 -23c39 0 66 23 66 50
c0 29 -17 39 -54 39c-6 0 -16 -2 -30 -5z" />
    <glyph glyph-name="eacute" unicode="&#xe9;" horiz-adv-x="281" 
d="M20 145c-10 -13 -17 -20 -22 -20c-4 0 -5 1 -5 4c0 4 13 21 39 49c64 70 128 104 183 104c34 0 55 -20 55 -46c0 -52 -71 -110 -201 -140c-3 -18 -5 -31 -5 -40c0 -30 15 -46 40 -46c38 0 76 27 123 73c38 38 51 59 58 59c4 0 6 -2 6 -5c0 -7 -18 -26 -51 -60
c-53 -53 -96 -82 -141 -82c-49 0 -85 45 -85 108c0 13 2 27 6 42zM74 112c104 22 163 98 163 138c0 11 -8 20 -18 20c-34 0 -107 -55 -145 -158zM173 296c-6 0 -8 2 -8 7c0 14 45 23 82 76c24 35 25 87 61 87c18 0 30 -11 30 -30c0 -32 -31 -70 -92 -106
c-36 -21 -59 -34 -73 -34z" />
    <glyph glyph-name="ecircumflex" unicode="&#xea;" horiz-adv-x="281" 
d="M20 145c-10 -13 -17 -20 -22 -20c-4 0 -5 1 -5 4c0 4 13 21 39 49c64 70 128 104 183 104c34 0 55 -20 55 -46c0 -52 -71 -110 -201 -140c-3 -18 -5 -31 -5 -40c0 -30 15 -46 40 -46c38 0 76 27 123 73c38 38 51 59 58 59c4 0 6 -2 6 -5c0 -7 -18 -26 -51 -60
c-53 -53 -96 -82 -141 -82c-49 0 -85 45 -85 108c0 13 2 27 6 42zM74 112c104 22 163 98 163 138c0 11 -8 20 -18 20c-34 0 -107 -55 -145 -158zM257 389l-117 -62c-31 -16 -50 -25 -58 -25c-9 0 -13 2 -13 9c0 12 22 21 67 49c89 56 127 94 136 94c5 0 11 -4 13 -11
l34 -119c1 -4 2 -8 2 -13c0 -6 -3 -10 -8 -10c-15 0 -28 30 -56 88z" />
    <glyph glyph-name="edieresis" unicode="&#xeb;" horiz-adv-x="281" 
d="M20 145c-10 -13 -17 -20 -22 -20c-4 0 -5 1 -5 4c0 4 13 21 39 49c64 70 128 104 183 104c34 0 55 -20 55 -46c0 -52 -71 -110 -201 -140c-3 -18 -5 -31 -5 -40c0 -30 15 -46 40 -46c38 0 76 27 123 73c38 38 51 59 58 59c4 0 6 -2 6 -5c0 -7 -18 -26 -51 -60
c-53 -53 -96 -82 -141 -82c-49 0 -85 45 -85 108c0 13 2 27 6 42zM74 112c104 22 163 98 163 138c0 11 -8 20 -18 20c-34 0 -107 -55 -145 -158zM266 368c0 24 19 43 42 43c20 0 31 -12 31 -33c0 -24 -17 -43 -41 -43c-20 0 -32 12 -32 33zM104 368c0 24 18 43 41 43
c20 0 32 -12 32 -33c0 -24 -17 -43 -41 -43c-20 0 -32 12 -32 33z" />
    <glyph glyph-name="egrave" unicode="&#xe8;" horiz-adv-x="281" 
d="M20 145c-10 -13 -17 -20 -22 -20c-4 0 -5 1 -5 4c0 4 13 21 39 49c64 70 128 104 183 104c34 0 55 -20 55 -46c0 -52 -71 -110 -201 -140c-3 -18 -5 -31 -5 -40c0 -30 15 -46 40 -46c38 0 76 27 123 73c38 38 51 59 58 59c4 0 6 -2 6 -5c0 -7 -18 -26 -51 -60
c-53 -53 -96 -82 -141 -82c-49 0 -85 45 -85 108c0 13 2 27 6 42zM74 112c104 22 163 98 163 138c0 11 -8 20 -18 20c-34 0 -107 -55 -145 -158zM253 301c0 -4 -4 -7 -7 -7c-20 0 -100 85 -100 134c0 24 12 41 32 41c19 0 29 -12 29 -35v-29c0 -62 46 -93 46 -104z" />
    <glyph glyph-name="iacute" unicode="&#xed;" horiz-adv-x="220" 
d="M89 219c-60 -59 -82 -94 -92 -94c-3 0 -4 1 -4 3c0 8 42 57 127 145l72 5l-99 -156c-30 -47 -49 -77 -49 -94c0 -10 8 -19 17 -19c27 0 63 30 117 87c28 30 39 46 46 46c4 0 6 -2 6 -5c0 -7 -16 -24 -46 -55c-54 -55 -90 -87 -122 -87s-54 24 -54 63c0 42 33 88 81 161z
M142 296c-6 0 -8 2 -8 7c0 14 45 23 82 76c24 35 25 87 61 87c18 0 30 -11 30 -30c0 -32 -31 -70 -92 -106c-36 -21 -59 -34 -73 -34z" />
    <glyph glyph-name="icircumflex" unicode="&#xee;" horiz-adv-x="220" 
d="M89 219c-60 -59 -82 -94 -92 -94c-3 0 -4 1 -4 3c0 8 42 57 127 145l72 5l-99 -156c-30 -47 -49 -77 -49 -94c0 -10 8 -19 17 -19c27 0 63 30 117 87c28 30 39 46 46 46c4 0 6 -2 6 -5c0 -7 -16 -24 -46 -55c-54 -55 -90 -87 -122 -87s-54 24 -54 63c0 42 33 88 81 161z
M226 389l-117 -62c-31 -16 -50 -25 -58 -25c-9 0 -13 2 -13 9c0 12 22 21 67 49c89 56 127 94 136 94c5 0 11 -4 13 -11l34 -119c1 -4 2 -8 2 -13c0 -6 -3 -10 -8 -10c-15 0 -28 30 -56 88z" />
    <glyph glyph-name="idieresis" unicode="&#xef;" horiz-adv-x="220" 
d="M89 219c-60 -59 -82 -94 -92 -94c-3 0 -4 1 -4 3c0 8 42 57 127 145l72 5l-99 -156c-30 -47 -49 -77 -49 -94c0 -10 8 -19 17 -19c27 0 63 30 117 87c28 30 39 46 46 46c4 0 6 -2 6 -5c0 -7 -16 -24 -46 -55c-54 -55 -90 -87 -122 -87s-54 24 -54 63c0 42 33 88 81 161z
M235 368c0 24 19 43 42 43c20 0 31 -12 31 -33c0 -24 -17 -43 -41 -43c-20 0 -32 12 -32 33zM73 368c0 24 18 43 41 43c20 0 32 -12 32 -33c0 -24 -17 -43 -41 -43c-20 0 -32 12 -32 33z" />
    <glyph glyph-name="igrave" unicode="&#xec;" horiz-adv-x="220" 
d="M89 219c-60 -59 -82 -94 -92 -94c-3 0 -4 1 -4 3c0 8 42 57 127 145l72 5l-99 -156c-30 -47 -49 -77 -49 -94c0 -10 8 -19 17 -19c27 0 63 30 117 87c28 30 39 46 46 46c4 0 6 -2 6 -5c0 -7 -16 -24 -46 -55c-54 -55 -90 -87 -122 -87s-54 24 -54 63c0 42 33 88 81 161z
M222 301c0 -4 -4 -7 -7 -7c-20 0 -100 85 -100 134c0 24 12 41 32 41c19 0 29 -12 29 -35v-29c0 -62 46 -93 46 -104z" />
    <glyph glyph-name="ntilde" unicode="&#xf1;" horiz-adv-x="443" 
d="M14 -1l130 195c19 28 32 45 32 60c0 9 -4 13 -14 13c-24 0 -60 -33 -117 -94c-27 -29 -38 -49 -47 -49c-3 0 -5 2 -5 4c0 6 8 16 23 33l32 35c51 55 85 87 118 87c24 0 39 -18 39 -47c0 -32 -14 -66 -40 -108c90 101 146 154 182 154c23 0 38 -19 38 -48
c0 -43 -28 -75 -62 -122c-29 -40 -46 -66 -46 -84c0 -12 5 -18 16 -18c16 0 53 28 108 85c29 30 40 47 46 47c3 0 6 -2 6 -5c0 -8 -18 -26 -49 -58c-55 -56 -92 -84 -112 -84c-29 0 -48 29 -48 71c0 40 26 75 64 123c27 34 44 51 44 66c0 8 -3 11 -11 11
c-28 0 -118 -84 -257 -260zM245 415c39 0 85 -37 121 -37c39 0 46 48 62 48c6 0 10 -3 10 -7c0 -21 -33 -88 -82 -88c-40 0 -84 37 -121 37c-39 0 -47 -48 -63 -48c-6 0 -9 3 -9 7c0 21 33 88 82 88z" />
    <glyph glyph-name="oacute" unicode="&#xf3;" horiz-adv-x="332" 
d="M224 91c5 -1 10 -3 16 -3c23 0 55 13 83 44l13 15c1 1 5 3 8 3s4 -2 4 -6c0 -2 0 -4 -1 -5l-11 -13c-28 -34 -65 -52 -102 -52c-6 0 -14 0 -23 2c-49 -54 -96 -81 -132 -81c-42 0 -67 36 -67 104c0 14 3 29 8 46c-10 -13 -17 -20 -22 -20c-4 0 -5 1 -5 4c0 5 14 21 41 51
c64 70 129 104 176 104c42 0 69 -28 69 -72c0 -38 -20 -76 -55 -121zM56 47c0 -24 10 -36 31 -36c19 0 56 19 94 60c47 50 71 106 71 146c0 32 -15 50 -38 50c-30 0 -64 -27 -102 -81c-40 -57 -56 -108 -56 -139zM184 296c-6 0 -8 2 -8 7c0 14 45 23 82 76
c24 35 25 87 61 87c18 0 30 -11 30 -30c0 -32 -31 -70 -92 -106c-36 -21 -59 -34 -73 -34z" />
    <glyph glyph-name="ocircumflex" unicode="&#xf4;" horiz-adv-x="332" 
d="M224 91c5 -1 10 -3 16 -3c23 0 55 13 83 44l13 15c1 1 5 3 8 3s4 -2 4 -6c0 -2 0 -4 -1 -5l-11 -13c-28 -34 -65 -52 -102 -52c-6 0 -14 0 -23 2c-49 -54 -96 -81 -132 -81c-42 0 -67 36 -67 104c0 14 3 29 8 46c-10 -13 -17 -20 -22 -20c-4 0 -5 1 -5 4c0 5 14 21 41 51
c64 70 129 104 176 104c42 0 69 -28 69 -72c0 -38 -20 -76 -55 -121zM56 47c0 -24 10 -36 31 -36c19 0 56 19 94 60c47 50 71 106 71 146c0 32 -15 50 -38 50c-30 0 -64 -27 -102 -81c-40 -57 -56 -108 -56 -139zM268 389l-117 -62c-31 -16 -50 -25 -58 -25
c-9 0 -13 2 -13 9c0 12 22 21 67 49c89 56 127 94 136 94c5 0 11 -4 13 -11l34 -119c1 -4 2 -8 2 -13c0 -6 -3 -10 -8 -10c-15 0 -28 30 -56 88z" />
    <glyph glyph-name="odieresis" unicode="&#xf6;" horiz-adv-x="332" 
d="M224 91c5 -1 10 -3 16 -3c23 0 55 13 83 44l13 15c1 1 5 3 8 3s4 -2 4 -6c0 -2 0 -4 -1 -5l-11 -13c-28 -34 -65 -52 -102 -52c-6 0 -14 0 -23 2c-49 -54 -96 -81 -132 -81c-42 0 -67 36 -67 104c0 14 3 29 8 46c-10 -13 -17 -20 -22 -20c-4 0 -5 1 -5 4c0 5 14 21 41 51
c64 70 129 104 176 104c42 0 69 -28 69 -72c0 -38 -20 -76 -55 -121zM56 47c0 -24 10 -36 31 -36c19 0 56 19 94 60c47 50 71 106 71 146c0 32 -15 50 -38 50c-30 0 -64 -27 -102 -81c-40 -57 -56 -108 -56 -139zM277 368c0 24 19 43 42 43c20 0 31 -12 31 -33
c0 -24 -17 -43 -41 -43c-20 0 -32 12 -32 33zM115 368c0 24 18 43 41 43c20 0 32 -12 32 -33c0 -24 -17 -43 -41 -43c-20 0 -32 12 -32 33z" />
    <glyph glyph-name="ograve" unicode="&#xf2;" horiz-adv-x="332" 
d="M224 91c5 -1 10 -3 16 -3c23 0 55 13 83 44l13 15c1 1 5 3 8 3s4 -2 4 -6c0 -2 0 -4 -1 -5l-11 -13c-28 -34 -65 -52 -102 -52c-6 0 -14 0 -23 2c-49 -54 -96 -81 -132 -81c-42 0 -67 36 -67 104c0 14 3 29 8 46c-10 -13 -17 -20 -22 -20c-4 0 -5 1 -5 4c0 5 14 21 41 51
c64 70 129 104 176 104c42 0 69 -28 69 -72c0 -38 -20 -76 -55 -121zM56 47c0 -24 10 -36 31 -36c19 0 56 19 94 60c47 50 71 106 71 146c0 32 -15 50 -38 50c-30 0 -64 -27 -102 -81c-40 -57 -56 -108 -56 -139zM264 301c0 -4 -4 -7 -7 -7c-20 0 -100 85 -100 134
c0 24 12 41 32 41c19 0 29 -12 29 -35v-29c0 -62 46 -93 46 -104z" />
    <glyph glyph-name="otilde" unicode="&#xf5;" horiz-adv-x="332" 
d="M224 91c5 -1 10 -3 16 -3c23 0 55 13 83 44l13 15c1 1 5 3 8 3s4 -2 4 -6c0 -2 0 -4 -1 -5l-11 -13c-28 -34 -65 -52 -102 -52c-6 0 -14 0 -23 2c-49 -54 -96 -81 -132 -81c-42 0 -67 36 -67 104c0 14 3 29 8 46c-10 -13 -17 -20 -22 -20c-4 0 -5 1 -5 4c0 5 14 21 41 51
c64 70 129 104 176 104c42 0 69 -28 69 -72c0 -38 -20 -76 -55 -121zM56 47c0 -24 10 -36 31 -36c19 0 56 19 94 60c47 50 71 106 71 146c0 32 -15 50 -38 50c-30 0 -64 -27 -102 -81c-40 -57 -56 -108 -56 -139zM177 415c39 0 85 -37 121 -37c39 0 46 48 62 48
c6 0 10 -3 10 -7c0 -21 -33 -88 -82 -88c-40 0 -84 37 -121 37c-39 0 -47 -48 -63 -48c-6 0 -9 3 -9 7c0 21 33 88 82 88z" />
    <glyph glyph-name="scaron" unicode="&#x161;" horiz-adv-x="218" 
d="M122 277c12 29 26 42 41 42c12 0 20 -7 20 -19c0 -11 -7 -19 -21 -25c-16 -7 -25 -6 -25 -36c0 -39 19 -80 19 -119c0 -21 -4 -39 -13 -59c51 51 72 81 79 81c3 0 6 -3 6 -5c0 -7 -14 -22 -39 -48c-56 -58 -98 -94 -152 -94c-41 0 -68 21 -68 52c0 17 15 32 31 32
c12 0 21 -9 21 -19c0 -11 -13 -24 -13 -38c0 -6 7 -11 16 -11c34 0 100 76 100 211c0 12 0 24 -1 36c-82 -83 -114 -134 -126 -134c-3 0 -5 1 -5 3c0 10 46 58 130 150zM318 485c30 16 50 25 58 25c9 0 13 -2 13 -9c0 -12 -23 -21 -67 -49c-89 -57 -127 -94 -136 -94
c-5 0 -11 4 -13 11l-33 119c-1 4 -3 8 -3 13c0 6 3 10 8 10c16 0 27 -30 56 -88z" />
    <glyph glyph-name="uacute" unicode="&#xfa;" horiz-adv-x="388" 
d="M249 87c-17 -27 -28 -44 -28 -59c0 -12 5 -18 16 -18c18 0 53 29 108 85c29 29 38 47 46 47c4 0 6 -2 6 -4c0 -8 -14 -23 -39 -49c-60 -63 -101 -94 -122 -94c-29 0 -47 29 -47 68c0 10 2 20 4 29c-56 -65 -102 -97 -131 -97c-32 0 -55 24 -55 63c0 42 33 89 81 161
c-59 -59 -81 -94 -91 -94c-3 0 -5 1 -5 3c0 8 43 57 127 145l72 4l-99 -155c-30 -48 -49 -77 -49 -94c0 -10 7 -18 16 -18c50 0 138 87 243 263l67 4zM226 296c-6 0 -8 2 -8 7c0 14 45 23 82 76c24 35 25 87 61 87c18 0 30 -11 30 -30c0 -32 -31 -70 -92 -106
c-36 -21 -59 -34 -73 -34z" />
    <glyph glyph-name="ucircumflex" unicode="&#xfb;" horiz-adv-x="388" 
d="M249 87c-17 -27 -28 -44 -28 -59c0 -12 5 -18 16 -18c18 0 53 29 108 85c29 29 38 47 46 47c4 0 6 -2 6 -4c0 -8 -14 -23 -39 -49c-60 -63 -101 -94 -122 -94c-29 0 -47 29 -47 68c0 10 2 20 4 29c-56 -65 -102 -97 -131 -97c-32 0 -55 24 -55 63c0 42 33 89 81 161
c-59 -59 -81 -94 -91 -94c-3 0 -5 1 -5 3c0 8 43 57 127 145l72 4l-99 -155c-30 -48 -49 -77 -49 -94c0 -10 7 -18 16 -18c50 0 138 87 243 263l67 4zM310 389l-117 -62c-31 -16 -50 -25 -58 -25c-9 0 -13 2 -13 9c0 12 22 21 67 49c89 56 127 94 136 94c5 0 11 -4 13 -11
l34 -119c1 -4 2 -8 2 -13c0 -6 -3 -10 -8 -10c-15 0 -28 30 -56 88z" />
    <glyph glyph-name="udieresis" unicode="&#xfc;" horiz-adv-x="388" 
d="M249 87c-17 -27 -28 -44 -28 -59c0 -12 5 -18 16 -18c18 0 53 29 108 85c29 29 38 47 46 47c4 0 6 -2 6 -4c0 -8 -14 -23 -39 -49c-60 -63 -101 -94 -122 -94c-29 0 -47 29 -47 68c0 10 2 20 4 29c-56 -65 -102 -97 -131 -97c-32 0 -55 24 -55 63c0 42 33 89 81 161
c-59 -59 -81 -94 -91 -94c-3 0 -5 1 -5 3c0 8 43 57 127 145l72 4l-99 -155c-30 -48 -49 -77 -49 -94c0 -10 7 -18 16 -18c50 0 138 87 243 263l67 4zM319 368c0 24 19 43 42 43c20 0 31 -12 31 -33c0 -24 -17 -43 -41 -43c-20 0 -32 12 -32 33zM157 368c0 24 18 43 41 43
c20 0 32 -12 32 -33c0 -24 -17 -43 -41 -43c-20 0 -32 12 -32 33z" />
    <glyph glyph-name="ugrave" unicode="&#xf9;" horiz-adv-x="388" 
d="M249 87c-17 -27 -28 -44 -28 -59c0 -12 5 -18 16 -18c18 0 53 29 108 85c29 29 38 47 46 47c4 0 6 -2 6 -4c0 -8 -14 -23 -39 -49c-60 -63 -101 -94 -122 -94c-29 0 -47 29 -47 68c0 10 2 20 4 29c-56 -65 -102 -97 -131 -97c-32 0 -55 24 -55 63c0 42 33 89 81 161
c-59 -59 -81 -94 -91 -94c-3 0 -5 1 -5 3c0 8 43 57 127 145l72 4l-99 -155c-30 -48 -49 -77 -49 -94c0 -10 7 -18 16 -18c50 0 138 87 243 263l67 4zM306 301c0 -4 -4 -7 -7 -7c-20 0 -100 85 -100 134c0 24 12 41 32 41c19 0 29 -12 29 -35v-29c0 -62 46 -93 46 -104z" />
    <glyph glyph-name="ydieresis" unicode="&#xff;" horiz-adv-x="427" 
d="M291 133c-76 -87 -133 -130 -168 -130c-22 0 -42 23 -42 59c0 47 26 79 54 117c26 36 40 60 40 75c0 10 -4 13 -15 13c-22 0 -58 -33 -115 -95c-28 -30 -39 -48 -47 -48c-3 0 -5 2 -5 4c0 6 8 16 23 33l32 35c51 55 84 88 120 88c26 0 43 -21 43 -53
c0 -33 -18 -62 -41 -96c-34 -52 -55 -83 -55 -98c0 -11 8 -20 16 -20c27 0 131 78 237 257l61 4c-63 -103 -116 -197 -159 -280c111 72 151 144 162 144c3 0 5 -2 5 -5c0 -8 -60 -88 -181 -162c-103 -195 -196 -291 -260 -291c-33 0 -51 17 -51 50c0 70 91 144 267 247z
M201 -40c-155 -90 -229 -173 -229 -228c0 -22 10 -34 29 -34c55 0 112 89 200 262zM339 368c0 24 19 43 42 43c20 0 31 -12 31 -33c0 -24 -17 -43 -41 -43c-20 0 -32 12 -32 33zM177 368c0 24 18 43 41 43c20 0 32 -12 32 -33c0 -24 -17 -43 -41 -43c-20 0 -32 12 -32 33z
" />
    <glyph glyph-name="zcaron" unicode="&#x17e;" horiz-adv-x="330" 
d="M10 57c67 58 132 111 196 159c-25 -7 -46 -12 -65 -12c-23 0 -40 6 -55 20c-37 -46 -59 -72 -64 -78l-16 -18c-3 -4 -6 -6 -8 -6c-3 0 -5 2 -5 3v4c0 1 0 2 1 4l11 14c22 27 48 56 73 92c-3 7 -5 13 -5 17c0 19 13 31 33 31c17 0 27 -9 27 -22s-8 -23 -8 -29
c0 -9 10 -17 32 -17c88 0 102 60 127 60c8 0 14 -5 14 -11c0 -19 -17 -25 -47 -41c-59 -42 -117 -87 -173 -135c34 16 60 30 83 30s39 -16 39 -37c0 -27 -21 -52 -21 -64c0 -6 3 -11 7 -11c12 0 43 26 94 76c35 35 47 56 54 56c3 0 6 -2 6 -5c0 -7 -16 -25 -48 -57
c-54 -55 -89 -85 -115 -85c-24 0 -41 20 -41 56c0 20 8 32 8 43c0 3 -2 4 -7 4c-15 0 -60 -13 -96 -41c-35 -27 -44 -60 -65 -60c-8 0 -13 5 -13 12c0 17 16 31 47 48zM244 366l116 62c31 16 50 24 58 24c9 0 13 -1 13 -8c0 -12 -21 -22 -66 -50c-89 -56 -128 -94 -137 -94
c-5 0 -10 5 -12 12l-34 118c-1 4 -2 8 -2 13c0 6 2 11 7 11c15 0 29 -30 57 -88z" />
    <glyph glyph-name="trademark" unicode="&#x2122;" horiz-adv-x="822" 
d="M129 699h213l5 -85h-11c-5 52 -25 74 -70 74h-11v-208c0 -16 10 -27 24 -27h15v-12h-118v12h16c14 0 24 11 24 27v208h-11c-45 0 -65 -22 -70 -74h-11zM391 699h83l71 -202l77 202h79v-12h-15c-14 0 -24 -10 -24 -27v-180c0 -16 10 -27 24 -27h15v-12h-111v12h15
c14 0 24 11 24 27v198l-91 -239h-4l-85 238v-197c0 -16 10 -27 24 -27h15v-12h-97v11h15c14 0 24 11 24 28v179c0 16 -10 28 -24 28h-15v12z" />
    <glyph glyph-name="copyright" unicode="&#xa9;" horiz-adv-x="822" 
d="M412 669c88 0 174 -36 237 -98c62 -62 99 -151 99 -240c0 -88 -36 -173 -100 -238c-63 -64 -146 -99 -237 -99c-90 0 -173 35 -238 99c-64 64 -99 146 -99 238c0 90 34 173 98 238c63 64 150 100 240 100zM412 634c-80 0 -156 -32 -212 -89c-57 -58 -88 -133 -88 -214
c0 -82 31 -157 88 -214c58 -58 131 -88 211 -88c81 0 155 30 211 88c57 59 89 134 89 214s-33 161 -88 216c-56 56 -133 87 -211 87zM546 534h15v-150h-18c-21 89 -69 134 -139 134c-82 0 -126 -62 -126 -184c0 -124 46 -187 135 -187c58 0 104 27 140 84l15 -10
c-36 -66 -92 -101 -164 -101c-107 0 -193 91 -193 204c0 122 86 213 191 213c59 0 92 -33 112 -33c18 0 29 10 32 30z" />
    <glyph glyph-name="logicalnot" unicode="&#xac;" horiz-adv-x="833" 
d="M124 418h585v-245h-39v206h-546v39z" />
    <glyph glyph-name="registered" unicode="&#xae;" horiz-adv-x="822" 
d="M412 669c88 0 174 -36 237 -98c62 -62 99 -151 99 -240c0 -88 -36 -173 -100 -238c-63 -64 -146 -99 -237 -99c-90 0 -173 35 -238 99c-64 64 -99 146 -99 238c0 90 34 173 98 238c63 64 150 100 240 100zM412 634c-80 0 -156 -32 -212 -89c-57 -58 -88 -133 -88 -214
c0 -82 31 -157 88 -214c58 -58 131 -88 211 -88c81 0 155 30 211 88c57 59 89 134 89 214s-33 161 -88 216c-56 56 -133 87 -211 87zM229 531h191c98 0 154 -38 154 -96c0 -50 -46 -79 -142 -97c61 -20 88 -49 103 -105c10 -38 6 -72 33 -72s38 19 39 63h18v-4
c0 -56 -24 -86 -73 -86c-31 0 -53 13 -61 34c-14 35 -4 76 -13 104c-15 44 -49 62 -109 62c-6 0 -12 -1 -19 -1v-121c0 -38 18 -49 67 -50v-19h-188v19c49 1 67 12 67 50v250c0 38 -18 50 -67 51v18zM350 350c12 -1 23 -1 33 -1c84 0 128 31 128 86c0 47 -37 81 -106 81
c-36 0 -55 -14 -55 -37v-129z" />
    <glyph glyph-name="minus" unicode="&#x2212;" horiz-adv-x="833" 
d="M124 318h585v-39h-585v39z" />
    <glyph glyph-name="Eth" unicode="&#xd0;" horiz-adv-x="812" 
d="M763 607c-76 -93 -122 -194 -170 -283h94l-10 -18h-94c-87 -151 -184 -245 -277 -281c26 -2 50 -4 74 -4c105 0 194 23 268 70c114 73 186 200 186 323c0 76 -25 142 -71 193zM776 619c48 -62 71 -127 71 -204c0 -110 -49 -218 -141 -300c-83 -74 -199 -115 -335 -115
c-44 0 -82 3 -113 3c-25 0 -55 -8 -92 -8c-84 0 -126 9 -126 36c0 13 16 22 47 22c70 0 130 -25 169 -25c71 0 151 93 246 278h-93l9 18h95c66 126 140 224 228 301c-56 46 -136 73 -219 73c-121 0 -226 -48 -301 -138c-61 -74 -92 -157 -92 -217c0 -55 33 -87 89 -87
c71 0 106 41 118 41c5 0 7 -1 7 -6c0 -9 -57 -52 -133 -52c-77 0 -132 57 -132 145c0 73 37 148 107 211c86 77 200 120 324 120c100 0 182 -27 245 -77c64 45 105 66 122 66c3 0 5 0 5 -2c0 -12 -50 -24 -105 -83z" />
    <glyph glyph-name="Thorn" unicode="&#xde;" horiz-adv-x="840" 
d="M770 582c-37 12 -76 17 -118 17c-155 0 -284 -42 -369 -112c-58 -48 -87 -101 -87 -144c0 -55 40 -90 104 -90c115 0 185 86 200 86c3 0 3 -3 3 -8c0 -3 -9 -19 -29 -41c-41 -45 -98 -69 -156 -69c-86 0 -140 43 -140 112c0 67 53 143 151 201c82 48 194 78 322 78
c45 0 88 -6 132 -16c85 81 148 113 156 113c5 0 8 0 8 -3c0 -13 -61 -33 -128 -120c82 -39 128 -109 128 -178c0 -106 -94 -194 -194 -194c-61 0 -99 26 -99 37c0 3 2 5 4 5c8 0 23 -18 71 -18c77 0 153 91 153 201c0 55 -25 97 -76 129c-73 -118 -122 -231 -181 -319
c-114 -170 -245 -255 -364 -255c-82 0 -129 37 -129 85c0 33 21 57 47 57c23 0 42 -20 42 -43c0 -15 -12 -31 -12 -45c0 -20 24 -38 66 -38c90 0 171 70 257 209c75 123 132 257 238 363z" />
    <glyph glyph-name="Yacute" unicode="&#xdd;" horiz-adv-x="942" 
d="M884 361c-107 -111 -186 -171 -247 -171c-33 0 -54 26 -54 70c0 40 17 91 53 148c59 94 118 156 118 216c0 50 -39 81 -108 81c-67 0 -152 -30 -220 -83c-65 -50 -97 -109 -97 -149c0 -43 27 -70 77 -70c78 0 172 63 215 158c28 61 26 95 35 95c2 0 6 -7 6 -20
c0 -30 -9 -78 -29 -120c-45 -97 -118 -147 -210 -147c-65 0 -111 37 -111 93c0 59 40 123 115 178c70 50 155 78 220 78c88 0 139 -52 139 -136c0 -77 -49 -132 -96 -209c-44 -72 -72 -116 -72 -139c0 -18 8 -25 26 -25c84 0 187 110 332 298c119 156 244 220 262 220
c7 0 13 -4 13 -9c0 -15 -23 -18 -54 -32c-58 -26 -103 -75 -146 -149c-75 -129 -132 -269 -213 -393c-119 -183 -272 -273 -473 -273c-172 0 -277 82 -277 199c0 128 118 241 279 241c119 0 189 -63 189 -151c0 -99 -92 -174 -213 -174c-43 0 -71 9 -71 19c0 3 2 3 6 3
c10 0 32 -7 65 -7c107 0 192 66 192 151c0 72 -57 120 -155 120c-65 0 -129 -23 -181 -64c-55 -43 -84 -94 -84 -148c0 -98 93 -175 243 -175c243 0 369 153 526 476zM957 773c-6 0 -8 2 -8 7c0 14 45 23 82 76c24 35 25 87 61 87c18 0 30 -11 30 -30
c0 -32 -31 -70 -92 -106c-36 -21 -59 -34 -73 -34z" />
    <glyph glyph-name="brokenbar" unicode="&#xa6;" 
d="M228 699h44v-370h-44v370zM228 199h44v-370h-44v370z" />
    <glyph glyph-name="degree" unicode="&#xb0;" horiz-adv-x="329" 
d="M165 708c73 0 133 -60 133 -134c0 -73 -59 -133 -134 -133s-133 59 -133 133c0 75 60 134 134 134zM165 678c-58 0 -104 -46 -104 -104s47 -104 104 -104c58 0 104 47 104 104c0 58 -47 104 -104 104z" />
    <glyph glyph-name="divide" unicode="&#xf7;" horiz-adv-x="833" 
d="M417 515c27 0 48 -21 48 -48c0 -26 -21 -49 -48 -49s-48 22 -48 49s22 48 48 48zM124 318h585v-39h-585v39zM417 179c27 0 48 -23 48 -49c0 -27 -21 -48 -48 -48s-48 20 -48 48c0 26 22 49 48 49z" />
    <glyph glyph-name="eth" unicode="&#xf0;" horiz-adv-x="332" 
d="M55 46c0 -22 11 -35 30 -35c22 0 58 20 96 60c47 50 71 106 71 146c0 32 -15 50 -39 50c-30 0 -63 -27 -101 -81c-40 -57 -57 -110 -57 -140zM260 265c2 17 4 31 4 43c0 31 -6 77 -20 137l-131 -43l-5 17l131 42c-29 86 -56 131 -56 141c0 5 2 8 5 8c10 0 35 -48 79 -141
l105 35l6 -17l-105 -33c22 -65 34 -123 34 -176c0 -92 -28 -165 -85 -218c-45 -42 -102 -65 -142 -65c-43 0 -68 36 -68 104c0 14 3 29 8 46c-10 -13 -17 -20 -22 -20c-4 0 -5 1 -5 4c0 5 14 21 41 51c63 69 130 105 179 105c20 0 34 -6 47 -20z" />
    <glyph glyph-name="mu" unicode="&#xb5;" horiz-adv-x="513" 
d="M79 93c-32 -199 -17 -296 -69 -296c-20 0 -34 14 -34 30c0 35 34 149 77 351l53 254h58l-54 -253c-3 -14 -4 -28 -4 -43c0 -63 34 -103 82 -103c64 0 111 55 136 164l54 235h58l-57 -257c-9 -41 -13 -70 -13 -87c0 -29 14 -46 37 -46c27 0 51 18 64 50c19 45 22 73 36 73
c8 0 13 -6 13 -15c0 -14 -8 -54 -26 -86c-26 -47 -61 -71 -103 -71c-45 0 -70 30 -70 85c0 5 1 11 1 16c-28 -69 -71 -104 -132 -104s-98 36 -107 103z" />
    <glyph glyph-name="multiply" unicode="&#xd7;" horiz-adv-x="833" 
d="M179 564l238 -238l238 238l28 -28l-238 -238l238 -238l-28 -28l-238 238l-238 -238l-28 28l238 238l-238 238z" />
    <glyph glyph-name="onehalf" unicode="&#xbd;" horiz-adv-x="620" 
d="M34 212l163 232c-98 -81 -154 -120 -164 -120c-2 0 -3 2 -3 4c0 5 35 22 95 71c68 54 97 84 102 84c3 0 5 -2 5 -3c0 -4 -2 -12 -6 -19l-140 -243zM534 484l-481 -497h-27l482 497h26zM399 43c20 16 39 24 56 24c19 0 34 -11 38 -25c3 -11 0 -25 15 -25c10 0 27 11 48 33
c15 16 22 26 25 26c2 0 3 -2 3 -5c0 -5 -7 -13 -20 -26c-28 -28 -49 -46 -78 -46c-17 0 -29 8 -33 19c-6 16 3 31 -15 31c-12 0 -30 -8 -46 -23c-17 -15 -22 -29 -27 -29c-4 0 -5 1 -5 5c0 15 25 53 91 94c32 21 69 38 98 65c27 25 40 54 40 69c0 19 -16 33 -41 33
c-51 0 -98 -40 -98 -77c0 -12 9 -21 20 -21c24 0 46 16 67 48c10 15 12 28 18 28c3 0 4 -2 4 -7c0 -36 -38 -83 -83 -83c-23 0 -37 13 -37 33c0 42 54 87 118 87c41 0 66 -22 66 -54c0 -35 -31 -70 -93 -98c-56 -25 -105 -39 -131 -76z" />
    <glyph glyph-name="onequarter" unicode="&#xbc;" horiz-adv-x="614" 
d="M34 212l163 232c-98 -81 -154 -120 -164 -120c-2 0 -3 2 -3 4c0 5 35 22 95 71c68 54 97 84 102 84c3 0 5 -2 5 -3c0 -4 -2 -12 -6 -19l-140 -243zM534 484l-481 -497h-27l482 497h26zM441 -3l41 56c-21 2 -39 5 -53 5c-30 0 -39 -11 -45 -11c-4 0 -7 2 -7 4
c0 7 63 67 142 211l55 4c-66 -90 -125 -153 -169 -200c9 2 17 4 23 4c19 0 39 -3 63 -7c65 88 99 133 109 133c3 0 4 -1 4 -4c0 -6 -31 -45 -74 -129c32 3 46 23 53 23c3 0 4 -2 4 -4c0 -3 -8 -12 -24 -21c-12 -7 -24 -10 -38 -10h-3c-6 -10 -14 -26 -24 -49z" />
    <glyph glyph-name="onesuperior" unicode="&#xb9;" horiz-adv-x="206" 
d="M36 193l171 249c-103 -87 -162 -129 -172 -129c-2 0 -3 2 -3 4c0 6 36 24 99 76c71 59 101 90 107 90c3 0 6 -1 6 -3c0 -4 -3 -12 -8 -21l-146 -260z" />
    <glyph glyph-name="plusminus" unicode="&#xb1;" horiz-adv-x="833" 
d="M397 567h39v-173h273v-39h-273v-172h-39v172h-273v39h273v173zM124 69h585v-39h-585v39z" />
    <glyph glyph-name="thorn" unicode="&#xfe;" horiz-adv-x="377" 
d="M-190 -264l292 493l-80 -86c-11 -12 -20 -19 -23 -19c-4 0 -6 1 -6 4c0 17 93 81 202 253l140 221l65 9l-301 -483c91 100 147 154 183 154c23 0 38 -19 38 -48c0 -43 -28 -76 -62 -122c-29 -41 -46 -66 -46 -84c0 -12 5 -18 16 -18c16 0 48 26 98 75c36 36 50 57 54 57
c5 0 7 -1 7 -5c0 -7 -16 -26 -48 -58c-55 -56 -92 -84 -112 -84c-29 0 -48 29 -48 71c0 40 26 75 64 123c27 34 44 52 44 66c0 8 -3 12 -11 12c-21 0 -148 -94 -269 -300l-132 -224z" />
    <glyph glyph-name="threequarters" unicode="&#xbe;" horiz-adv-x="674" 
d="M154 353h5c33 0 51 -17 51 -45c0 -22 -11 -43 -33 -62c-27 -23 -67 -37 -97 -37c-40 0 -65 21 -65 50c0 20 11 33 28 33c12 0 20 -7 20 -20c0 -23 -30 -18 -30 -29c0 -9 16 -20 38 -20c28 0 53 14 78 43c20 22 29 42 29 55c0 15 -9 23 -25 23c-21 0 -36 -14 -45 -14
c-3 0 -5 2 -5 5c0 9 24 13 58 32c48 28 71 56 71 80c0 16 -14 25 -37 25c-40 0 -83 -30 -83 -56c0 -12 6 -18 19 -18c14 0 38 12 54 33c11 16 8 24 14 24c2 0 3 -1 3 -4c0 -36 -35 -67 -69 -67c-20 0 -32 10 -32 27c0 34 49 72 105 72c35 0 58 -18 58 -44
c0 -36 -36 -63 -110 -86zM593 484l-481 -497h-27l482 497h26zM500 -3l41 56c-21 2 -39 5 -53 5c-30 0 -39 -11 -45 -11c-4 0 -7 2 -7 4c0 7 63 67 142 211l55 4c-66 -90 -125 -153 -169 -200c9 2 17 4 23 4c19 0 39 -3 63 -7c65 88 99 133 109 133c3 0 4 -1 4 -4
c0 -6 -31 -45 -74 -129c32 3 46 23 53 23c3 0 4 -2 4 -4c0 -3 -8 -12 -24 -21c-12 -7 -24 -10 -38 -10h-3c-6 -10 -14 -26 -24 -49z" />
    <glyph glyph-name="threesuperior" unicode="&#xb3;" horiz-adv-x="269" 
d="M161 344h5c35 0 54 -18 54 -48c0 -23 -11 -47 -35 -66c-28 -25 -70 -40 -101 -40c-42 0 -68 22 -68 53c0 21 12 35 29 35c13 0 21 -7 21 -21c0 -24 -31 -19 -31 -30s16 -23 40 -23c29 0 55 16 81 47c21 24 31 45 31 58c0 17 -10 25 -27 25c-21 0 -37 -14 -46 -14
c-4 0 -6 1 -6 4c0 10 25 14 61 35c50 30 75 60 75 85c0 18 -16 28 -40 28c-42 0 -87 -32 -87 -61c0 -12 6 -19 20 -19c15 0 40 13 56 36c12 16 9 25 16 25c2 0 3 -1 3 -4c0 -39 -37 -72 -73 -72c-20 0 -33 11 -33 30c0 36 51 76 110 76c37 0 61 -19 61 -46
c0 -39 -38 -68 -116 -93z" />
    <glyph glyph-name="twosuperior" unicode="&#xb2;" horiz-adv-x="269" 
d="M36 239c22 17 42 25 59 25c21 0 36 -11 40 -26c3 -11 0 -27 15 -27c12 0 29 12 51 36c15 16 23 27 27 27c1 0 2 -2 2 -5c0 -6 -7 -14 -20 -27c-30 -30 -52 -50 -82 -50c-18 0 -31 8 -35 20c-6 18 3 34 -16 34c-12 0 -31 -9 -48 -25c-17 -17 -23 -31 -28 -31
c-4 0 -5 1 -5 5c0 16 26 57 95 101c34 22 72 40 102 69c29 27 43 58 43 74c0 20 -18 35 -43 35c-54 0 -103 -42 -103 -81c0 -13 10 -24 21 -24c25 0 49 18 71 53c9 16 11 30 18 30c3 0 5 -3 5 -9c0 -38 -40 -89 -88 -89c-24 0 -38 15 -38 36c0 45 56 93 123 93
c44 0 69 -24 69 -58c0 -37 -32 -75 -97 -105c-58 -26 -110 -41 -138 -81z" />
    <glyph glyph-name="yacute" unicode="&#xfd;" horiz-adv-x="427" 
d="M291 133c-76 -87 -133 -130 -168 -130c-22 0 -42 23 -42 59c0 47 26 79 54 117c26 36 40 60 40 75c0 10 -4 13 -15 13c-22 0 -58 -33 -115 -95c-28 -30 -39 -48 -47 -48c-3 0 -5 2 -5 4c0 6 8 16 23 33l32 35c51 55 84 88 120 88c26 0 43 -21 43 -53
c0 -33 -18 -62 -41 -96c-34 -52 -55 -83 -55 -98c0 -11 8 -20 16 -20c27 0 131 78 237 257l61 4c-63 -103 -116 -197 -159 -280c111 72 151 144 162 144c3 0 5 -2 5 -5c0 -8 -60 -88 -181 -162c-103 -195 -196 -291 -260 -291c-33 0 -51 17 -51 50c0 70 91 144 267 247z
M201 -40c-155 -90 -229 -173 -229 -228c0 -22 10 -34 29 -34c55 0 112 89 200 262zM246 296c-6 0 -8 2 -8 7c0 14 45 23 82 76c24 35 25 87 61 87c18 0 30 -11 30 -30c0 -32 -31 -70 -92 -106c-36 -21 -59 -34 -73 -34z" />
  </font>
</defs>
</svg>
