<?xml version="1.0" standalone="no"?>
<!DOCTYPE svg PUBLIC "-//W3C//DTD SVG 1.1//EN" "http://www.w3.org/Graphics/SVG/1.1/DTD/svg11.dtd" >
<svg>
<metadata>
Created by FontForge 20090622 at Thu Dec 27 13:56:53 2018
 By deploy user
Copyright &#194;&#169; 1985, 1987, 1989, 1991, 1995, 1998, 1999, 2002 Adobe Systems Incorporated.All Rights Reserved. &#194;&#169; 1981, 1999, 2002 Heidelberger Druckmaschinen AG. All rights reserved.
</metadata>
<defs>
<font id="OptimaLTStd" horiz-adv-x="556" >
  <font-face 
    font-family="Optima LT Std"
    font-weight="400"
    font-stretch="normal"
    units-per-em="1000"
    panose-1="2 11 5 2 5 5 8 2 3 4"
    ascent="733"
    descent="-267"
    x-height="473"
    cap-height="685"
    bbox="-78 -271 1000 919"
    underline-thickness="50"
    underline-position="-50"
    unicode-range="U+0020-U+FB02"
  />
<missing-glyph horiz-adv-x="500" 
d="M0 0v700h500v-700h-500zM250 395l170 255h-340zM280 350l170 -255v510zM80 50h340l-170 255zM50 605v-510l170 255z" />
    <glyph glyph-name="fi" unicode="fi" 
d="M392 182v104q0 111 -8 187q25 -5 45 -5t45 5q-8 -76 -8 -187v-104q0 -111 8 -187q-25 5 -45 5t-45 -5q8 76 8 187zM378 647q0 21 15 36t36 15t36 -15t15 -36t-15 -36t-36 -15t-36 15t-15 36zM306 672l-6 -3q-24 15 -55 15q-41 0 -61.5 -28.5t-20.5 -71.5q0 -35 12 -117
q17 0 51.5 0.5t51.5 0.5q-2 -14 -2 -20q0 -8 2 -20q-102 3 -103 3q0 -289 4 -436q-23 5 -43 5q-19 0 -44 -5q9 147 9 436q-11 0 -23 -0.5t-26.5 -1.5t-22.5 -1q2 12 2 20q0 6 -2 20q12 0 36.5 -0.5t35.5 -0.5q0 61 24.5 132.5t62.5 109.5q46 46 102 46q11 0 20 -3
q0 -9 -2 -37t-2 -43z" />
    <glyph glyph-name="fl" unicode="fl" 
d="M398 283v181q0 199 -8 288q25 -5 45 -5t45 5q-8 -89 -8 -288v-181q0 -199 8 -288q-25 5 -45 5t-45 -5q8 89 8 288zM306 672l-6 -3q-24 15 -55 15q-41 0 -61.5 -28.5t-20.5 -71.5q0 -35 12 -117q17 0 51.5 0.5t51.5 0.5q-2 -14 -2 -20q0 -8 2 -20q-102 3 -103 3
q0 -289 4 -436q-23 5 -43 5q-19 0 -44 -5q9 147 9 436q-11 0 -23 -0.5t-26.5 -1.5t-22.5 -1q2 12 2 20q0 6 -2 20q12 0 36.5 -0.5t35.5 -0.5q0 61 24.5 132.5t62.5 109.5q46 46 102 46q11 0 20 -3q0 -9 -2 -37t-2 -43z" />
    <glyph glyph-name=".notdef" horiz-adv-x="500" 
d="M0 0v700h500v-700h-500zM250 395l170 255h-340zM280 350l170 -255v510zM80 50h340l-170 255zM50 605v-510l170 255z" />
    <glyph glyph-name=".null" horiz-adv-x="0" 
 />
    <glyph glyph-name="nonmarkingreturn" horiz-adv-x="333" 
 />
    <glyph glyph-name="space" unicode=" " horiz-adv-x="278" 
 />
    <glyph glyph-name="exclam" unicode="!" horiz-adv-x="333" 
d="M177 171h-20q-39 463 -39 478q0 25 14 37t35 12t35 -12t14 -37q0 -15 -39 -478zM110 45q0 23 17 40t40 17t40 -17t17 -40t-17 -40t-40 -17t-40 17t-17 40z" />
    <glyph glyph-name="quotedbl" unicode="&#x22;" horiz-adv-x="333" 
d="M66 410v288h52v-288h-52zM215 410v288h52v-288h-52z" />
    <glyph glyph-name="numbersign" unicode="#" 
d="M164 224l43 208h-75q19 40 19 82h73l29 145q11 -3 21 -3t21 3q-9 -19 -35 -145h114l29 145q11 -3 21 -3t21 3q-9 -19 -35 -145h74q-19 -44 -19 -82h-73l-43 -208h75q-19 -44 -19 -82h-73q-28 -134 -29 -145l-21 3l-21 -3q8 21 35 145h-114q-28 -134 -29 -145l-21 3
l-21 -3q8 21 35 145h-74q19 40 19 82h73zM314 224l43 208h-115l-43 -208h115z" />
    <glyph glyph-name="dollar" unicode="$" 
d="M302 290v-263q48 11 75.5 49t27.5 88q0 38 -20 66.5t-83 59.5zM265 393v240q-43 -7 -70 -39t-27 -77q0 -88 97 -124zM265 21v283q-94 36 -134.5 76t-40.5 110q0 73 47.5 121.5t127.5 58.5q0 52 -8 78q15 -5 26 -5t26 5q-7 -28 -7 -76q88 0 153 -46q-16 -29 -27 -80h-12
q-33 86 -114 89v-256q95 -37 138 -74.5t43 -104.5q0 -77 -48.5 -135.5t-132.5 -74.5q0 -69 7 -112q-15 5 -26 5t-26 -5q8 41 8 107q-12 -1 -27 -1q-96 0 -165 55q13 32 19 85h12q57 -103 161 -103z" />
    <glyph glyph-name="percent" unicode="%" horiz-adv-x="889" 
d="M42 506q0 72 44.5 119t116.5 47t116.5 -47t44.5 -119t-44.5 -119t-116.5 -47t-116.5 47t-44.5 119zM116 506q0 -60 22 -101t65 -41t65 41t22 101t-22 101t-65 41t-65 -41t-22 -101zM525 150q0 72 44.5 119t116.5 47t116.5 -47t44.5 -119t-44.5 -119t-116.5 -47t-116.5 47
t-44.5 119zM599 150q0 -60 22 -101t65 -41t65 41t22 101t-22 101t-65 41t-65 -41t-22 -101zM233 -39l373 734q13 -5 24 -5q10 0 23 5l-373 -734q-13 5 -23 5q-11 0 -24 -5z" />
    <glyph glyph-name="ampersand" unicode="&#x26;" horiz-adv-x="722" 
d="M421 561q0 37 -22 60t-58 23q-38 0 -61.5 -26.5t-23.5 -67.5q0 -29 18 -69.5t45 -74.5q49 30 75.5 72.5t26.5 82.5zM186 522q0 64 43.5 107t110.5 43q60 0 96.5 -29.5t36.5 -82.5q0 -51 -41 -96.5t-96 -78.5q128 -164 176 -218q77 105 119 198q10 -21 38 -40
q-69 -108 -135 -186l128 -144q-52 5 -64 5t-57 -5q-24 39 -63 85q-48 -48 -98.5 -73t-117.5 -25q-81 0 -136 44.5t-55 124.5q0 64 51.5 123t130.5 92q-67 94 -67 156zM153 169q0 -56 42 -98t105 -42q86 0 158 72q-111 135 -188 241q-59 -36 -88 -75t-29 -98z" />
    <glyph glyph-name="quotesingle" unicode="'" horiz-adv-x="278" 
d="M113 410v288h52v-288h-52z" />
    <glyph glyph-name="parenleft" unicode="(" horiz-adv-x="278" 
d="M222 698l20 -18q-70 -90 -95 -181.5t-25 -217.5t25 -217.5t95 -181.5l-20 -18q-79 85 -120.5 193t-41.5 224q0 112 42 222.5t120 194.5z" />
    <glyph glyph-name="parenright" unicode=")" horiz-adv-x="278" 
d="M56 -136l-20 18q70 90 95 181.5t25 217.5t-25 217.5t-95 181.5l20 18q79 -85 120.5 -193t41.5 -224q0 -112 -42 -222.5t-120 -194.5z" />
    <glyph glyph-name="asterisk" unicode="*" horiz-adv-x="444" 
d="M208 529l-14 155q12 -4 29 -4t29 4l-16 -155l125 92q5 -35 30 -52l-142 -64l141 -66q-25 -19 -29 -50l-126 88l17 -152q-18 4 -29 4t-29 -4l14 152l-122 -89q-5 34 -29 51l140 65l-144 65q29 25 29 52z" />
    <glyph glyph-name="plus" unicode="+" horiz-adv-x="606" 
d="M50 227v52h227v227h52v-227h227v-52h-227v-227h-52v227h-227z" />
    <glyph glyph-name="comma" unicode="," horiz-adv-x="278" 
d="M30 -168l77 243q11 38 44 38q14 0 25.5 -8.5t11.5 -25.5q0 -14 -15 -42l-125 -212z" />
    <glyph glyph-name="hyphen" unicode="-" horiz-adv-x="333" 
d="M42 200v62h249v-62h-249z" />
    <glyph glyph-name="period" unicode="." horiz-adv-x="278" 
d="M82 45q0 23 17 40t40 17t40 -17t17 -40t-17 -40t-40 -17t-40 17t-17 40z" />
    <glyph glyph-name="slash" unicode="/" horiz-adv-x="278" 
d="M-25 -23l276 726q15 -5 26 -5t26 5l-276 -726q-15 5 -26 5t-26 -5z" />
    <glyph glyph-name="zero" unicode="0" 
d="M126 328q0 -312 152 -312t152 312t-152 312q-82 0 -117 -80.5t-35 -231.5zM44 328q0 74 12.5 134t39 108t73 75t109.5 27q69 0 117 -26.5t72.5 -76t34.5 -107.5t10 -134q0 -95 -24 -170.5t-78 -124.5t-132 -49q-69 0 -117 26.5t-72.5 76t-34.5 107.5t-10 134z" />
    <glyph glyph-name="one" unicode="1" 
d="M243 252v356l-119 -66q-9 18 -30 32v7q117 48 228 104l7 -5q-8 -139 -8 -261v-167q0 -121 8 -257q-27 5 -47 5t-47 -5q8 115 8 257z" />
    <glyph glyph-name="two" unicode="2" 
d="M99 524l-35 49q61 99 183 99q84 0 137 -44.5t53 -132.5q0 -65 -29 -117t-97 -121l-41.5 -42l-54.5 -55.5t-44.5 -48.5t-41.5 -50h95q115 0 225 8q-5 -20 -5 -37t5 -37q-118 5 -214 5q-95 0 -215 -5v15q146 144 211 220t89.5 132t24.5 128q0 71 -32 108t-80 37
q-57 0 -88.5 -35t-38.5 -74z" />
    <glyph glyph-name="three" unicode="3" 
d="M102 558l-23 54q62 60 146 60t137.5 -37.5t53.5 -111.5q0 -66 -41.5 -109.5t-93.5 -56.5v-6q28 -2 54.5 -10t53.5 -24t43 -47.5t16 -73.5q0 -92 -71 -152t-184 -60q-77 0 -151 35q10 22 12 60l6 4q57 -67 135 -67q73 0 117 46.5t44 120.5q0 149 -141 149q-21 0 -45 -6
q2 14 2 21t-2 21q28 -4 45 -4q33 0 57 14t35.5 38t16 48.5t4.5 52.5q0 60 -31.5 91.5t-75.5 31.5q-39 0 -70 -23.5t-42 -56.5z" />
    <glyph glyph-name="four" unicode="4" 
d="M21 179v18q255 357 327 469q18 -5 34 -5q15 0 32 5q-7 -135 -7 -428q52 0 98 8q-5 -18 -5 -33t5 -33q-35 6 -98 6v-42q0 -41 6 -149q-25 5 -44 5t-44 -5q8 101 8 149v42q-116 0 -312 -7zM333 238v336h-2q-176 -245 -231 -336h233z" />
    <glyph glyph-name="five" unicode="5" 
d="M172 601l-14 -227q50 26 112 26q85 0 138.5 -55t53.5 -133q0 -96 -70 -162t-179 -66q-101 0 -160 40v8q11 27 15 58h7q18 -35 58.5 -54.5t83.5 -19.5q64 0 108.5 48t44.5 137q0 79 -40 118t-100 39q-54 0 -103 -33l-11 7q10 58 10 169q0 105 -8 165l9 6q16 -3 56 -6
q43 -3 122 -3q92 0 140 2l5 -4q-7 -24 -7 -56q0 -12 1 -17q-70 13 -272 13z" />
    <glyph glyph-name="six" unicode="6" 
d="M402 669l15 -32l-5 -4q-24 7 -52 7q-55 0 -98.5 -35t-67.5 -89t-36.5 -110t-12.5 -105h2q56 97 161 97q30 0 61 -8.5t63 -27.5t52.5 -58.5t20.5 -93.5q0 -101 -60.5 -163.5t-161.5 -62.5q-95 0 -157.5 70.5t-62.5 217.5q-1 113 33 203t102.5 144.5t161.5 52.5q26 0 42 -3
zM417 189q0 79 -32.5 125.5t-94.5 46.5q-59 0 -99 -48.5t-40 -123.5q0 -76 38 -124.5t95 -48.5q62 0 97.5 47.5t35.5 125.5z" />
    <glyph glyph-name="seven" unicode="7" 
d="M507 657v-16q-226 -385 -358 -646q-20 5 -38 5q-16 0 -36 -5l354 592q-180 0 -349 -10q4 28 4 45q0 16 -4 44q92 -7 135 -8q82 -2 189 -2q21 0 54 0.5t49 0.5z" />
    <glyph glyph-name="eight" unicode="8" 
d="M55 179q0 64 35.5 114.5t109.5 74.5v7q-43 10 -76.5 47t-33.5 91q0 65 52.5 112t135.5 47q93 0 142 -42.5t49 -104.5q0 -49 -29.5 -89.5t-82.5 -57.5v-7q21 -4 42.5 -13.5t46 -28t40 -51.5t15.5 -76q0 -97 -64.5 -157.5t-158.5 -60.5q-97 0 -160 52t-63 143zM387 512
q0 56 -27 92t-81 36q-53 0 -80 -36t-27 -92t27 -92t80 -36q54 0 81 36t27 92zM413 184q0 74 -36.5 121t-98.5 47q-61 0 -98 -47t-37 -121t37 -121t98 -47q62 0 98.5 47t36.5 121z" />
    <glyph glyph-name="nine" unicode="9" 
d="M101 54l5 3q46 -41 99 -41q52 0 92 29.5t63.5 79t35 107.5t11.5 121h-2q-53 -94 -162 -94q-90 0 -142 52.5t-52 146.5q0 93 61 153.5t161 60.5q98 0 161 -70t63 -218q0 -172 -79.5 -286t-215.5 -114q-44 0 -79 14q-8 36 -20 56zM403 484q0 69 -36.5 112.5t-96.5 43.5
q-59 0 -96 -50t-37 -132q0 -162 123 -162q66 0 104.5 55.5t38.5 132.5z" />
    <glyph glyph-name="colon" unicode=":" horiz-adv-x="278" 
d="M82 411q0 23 17 40t40 17t40 -17t17 -40t-17 -40t-40 -17t-40 17t-17 40zM82 45q0 23 17 40t40 17t40 -17t17 -40t-17 -40t-40 -17t-40 17t-17 40z" />
    <glyph glyph-name="semicolon" unicode=";" horiz-adv-x="278" 
d="M30 -168l77 243q11 38 44 38q14 0 25.5 -8.5t11.5 -25.5q0 -14 -15 -42l-125 -212zM82 411q0 23 17 40t40 17t40 -17t17 -40t-17 -40t-40 -17t-40 17t-17 40z" />
    <glyph glyph-name="less" unicode="&#x3c;" horiz-adv-x="606" 
d="M50 228v52l506 236v-52l-459 -211l459 -211v-52z" />
    <glyph glyph-name="equal" unicode="=" horiz-adv-x="606" 
d="M556 376v-52h-506v52h506zM556 182v-52h-506v52h506z" />
    <glyph glyph-name="greater" unicode="&#x3e;" horiz-adv-x="606" 
d="M50 -10v52l459 211l-459 211v52l506 -238v-52z" />
    <glyph glyph-name="question" unicode="?" horiz-adv-x="389" 
d="M86 615l-6 50q54 33 103 33q69 0 108.5 -38t39.5 -94q0 -39 -18.5 -75.5t-44.5 -64l-52 -53.5t-44.5 -55t-18.5 -57q0 -22 14 -40.5t38 -18.5q19 0 34 9l6 -4q-10 -12 -12 -28q-13 -5 -35 -5q-34 0 -70.5 28.5t-36.5 82.5q0 37 17.5 70.5t43 59.5l51 51t43 54t17.5 59
q0 36 -26 59t-60 23q-54 0 -91 -46zM125 45q0 23 17 40t40 17t40 -17t17 -40t-17 -40t-40 -17t-40 17t-17 40z" />
    <glyph glyph-name="at" unicode="@" horiz-adv-x="800" 
d="M496 468l10 54h52q-55 -262 -55 -286q0 -35 33 -35q43 0 86.5 57.5t43.5 135.5q0 108 -54.5 167t-184.5 59q-120 0 -199 -90.5t-79 -224.5q0 -116 69 -178t181 -62q117 0 227 82l-3 -32q-35 -32 -99.5 -59.5t-148.5 -27.5q-51 0 -100.5 19t-92 55.5t-69 98t-26.5 137.5
q0 125 96 219.5t248 94.5q78 0 135.5 -20t88 -55t44.5 -75.5t14 -87.5q0 -102 -61 -171.5t-131 -69.5q-39 0 -52 17.5t-13 54.5h-2q-47 -72 -110 -72q-108 0 -108 134q0 97 52 161t127 64q73 0 79 -64h2zM476 425q0 36 -13 55.5t-48 19.5q-53 0 -85 -64t-32 -133
q0 -48 13 -70.5t48 -22.5q36 0 64 40t40.5 88t12.5 87z" />
    <glyph glyph-name="A" unicode="A" horiz-adv-x="667" 
d="M330 698h19l79 -188l90.5 -215.5l73.5 -172.5t58 -127q-30 5 -53 5t-53 -5q-7 24 -20 60.5t-24 63.5l-31.5 76.5l-27.5 67.5q-86 2 -131 2q-40 0 -122 -2q-73 -179 -97 -268q-22 5 -37 5t-37 -5zM427 309l-111 254l-109 -254q17 0 53.5 -1t54.5 -1q38 0 112 2z" />
    <glyph glyph-name="B" unicode="B" horiz-adv-x="611" 
d="M98 255v172q0 88 -8 258q58 -5 106 -5q18 0 53 2.5t53 2.5q211 0 211 -144q0 -138 -168 -175v-2q192 -10 192 -168q0 -53 -23 -93.5t-60.5 -63t-80.5 -33.5t-89 -11q-16 0 -48.5 2.5t-48.5 2.5q-44 0 -97 -5q8 174 8 260zM180 378h54q38 0 70 7t60.5 23t44.5 45t16 69
q0 126 -163 126q-44 0 -76 -5q-6 -189 -6 -190v-75zM180 341v-102q0 -1 6 -202q42 -5 98 -5q68 0 114.5 45t46.5 123q0 80 -55.5 110.5t-164.5 30.5h-45z" />
    <glyph glyph-name="C" unicode="C" horiz-adv-x="667" 
d="M624 98l-9 -59q-24 -19 -82.5 -38t-125.5 -19q-162 0 -263.5 95.5t-101.5 262.5t103 262.5t272 95.5q118 0 217 -46q-9 -17 -21 -78l-6 -2q-30 33 -79 61t-111 28q-124 0 -200.5 -80.5t-76.5 -240.5t76.5 -240.5t200.5 -80.5q43 0 87.5 16.5t65.5 30.5t50 36z" />
    <glyph glyph-name="D" unicode="D" horiz-adv-x="778" 
d="M180 426v-172q0 -108 6 -212q47 -10 131 -10q48 0 89 8t82.5 29.5t70.5 56.5t47 93.5t18 134.5q0 84 -20.5 142.5t-60.5 89.5t-88.5 44t-114.5 13q-72 0 -154 -10q-6 -96 -6 -207zM98 254v172q0 87 -8 259q83 -5 151 -5q25 0 75.5 2.5t75.5 2.5q330 0 330 -331
q0 -77 -23 -139.5t-59.5 -102.5t-85 -67t-97.5 -38.5t-99 -11.5q-22 0 -67 2.5t-67 2.5q-59 0 -134 -5q8 172 8 259z" />
    <glyph glyph-name="E" unicode="E" horiz-adv-x="500" 
d="M98 255v172q0 88 -8 258q100 -5 179 -5q80 0 178 5q-3 -15 -3 -30t3 -30q-182 13 -263 13q0 -14 -2 -56.5t-2 -70.5q0 -29 0.5 -76t0.5 -56q125 0 243 10q-3 -15 -3 -31q0 -15 3 -30q-89 9 -243 9q-1 -24 -1 -145q0 -100 2 -150q202 0 270 13q-3 -13 -3 -31q0 -16 3 -29
q-98 5 -180 5q-80 0 -182 -5q8 174 8 260z" />
    <glyph glyph-name="F" unicode="F" horiz-adv-x="500" 
d="M98 254v172q0 87 -8 259q100 -5 179 -5q71 0 191 5q-3 -15 -3 -30t3 -30q-134 13 -279 13q-2 -94 -2 -131q0 -23 0.5 -64t0.5 -62q154 0 258 10q-4 -20 -4 -30t4 -30q-77 8 -258 8v-85q0 -87 8 -259q-28 5 -49 5t-49 -5q8 172 8 259z" />
    <glyph glyph-name="G" unicode="G" horiz-adv-x="778" 
d="M683 563h-12q-34 41 -92 69.5t-128 28.5q-131 0 -212 -80.5t-81 -240.5q0 -148 79 -232t219 -84q108 0 160 32q2 80 2 121q0 32 -5 137q22 -5 48 -5q27 0 43 5q-4 -60 -4 -203q0 -13 0.5 -40t0.5 -41q-49 -17 -125 -32.5t-130 -15.5q-181 0 -283.5 92.5t-102.5 265.5
q0 168 105.5 263t285.5 95q146 0 255 -58q-18 -32 -23 -77z" />
    <glyph glyph-name="H" unicode="H" horiz-adv-x="778" 
d="M598 391v35q0 87 -8 259q28 -5 49 -5t49 5q-8 -172 -8 -259v-172q0 -87 8 -259q-28 5 -49 5t-49 -5q8 172 8 259v90q-140 2 -209 2t-209 -2v-90q0 -87 8 -259q-28 5 -49 5t-49 -5q8 172 8 259v172q0 87 -8 259q28 -5 49 -5t49 5q-8 -172 -8 -259v-35q23 0 65.5 -1
t77.5 -1.5t66 -0.5t66 0.5t77.5 1.5t65.5 1z" />
    <glyph glyph-name="I" unicode="I" horiz-adv-x="278" 
d="M98 254v172q0 87 -8 259q28 -5 49 -5t49 5q-8 -172 -8 -259v-172q0 -87 8 -259q-28 5 -49 5t-49 -5q8 172 8 259z" />
    <glyph glyph-name="J" unicode="J" horiz-adv-x="278" 
d="M-22 -144l-8 28q34 0 58 13.5t37.5 34.5t21 57.5t9.5 72t2 89.5v275q0 87 -8 259q28 -5 49 -5t49 5q-8 -172 -8 -259q0 -63 1.5 -187t1.5 -169q0 -91 -57 -152.5t-148 -61.5z" />
    <glyph glyph-name="K" unicode="K" horiz-adv-x="611" 
d="M90 -5q8 172 8 259v172q0 87 -8 259q28 -5 49 -5t49 5q-8 -172 -8 -259v-55q0 -8 6 -8q4 0 14 9q111 97 301 313q22 -5 41 -5q21 0 48 5l-173.5 -161t-146.5 -151l331 -378q-33 5 -60 5q-25 0 -55 -5q-238 292 -289 344q-8 8 -12 8q-5 0 -5 -6v-87q0 -87 8 -259
q-28 5 -49 5t-49 -5z" />
    <glyph glyph-name="L" unicode="L" horiz-adv-x="500" 
d="M98 254v172q0 87 -8 259q28 -5 49 -5t49 5q-8 -172 -8 -259q0 -90 3 -384q176 0 276 13q-5 -17 -5 -30t5 -30q-102 5 -184 5t-185 -5q8 172 8 259z" />
    <glyph glyph-name="M" unicode="M" horiz-adv-x="889" 
d="M145 698h17q107 -221 287 -551l133.5 247.5l163.5 303.5h13l26 -233l29 -255.5t27 -214.5q-27 5 -47 5t-47 -5q-25 322 -49 516h-2l-38 -69.5l-41 -75.5l-36.5 -68t-40 -76l-34.5 -69l-38.5 -79l-33.5 -74h-9l-77.5 158.5l-96.5 189.5l-83 163h-2q-47 -409 -48 -516
q-20 5 -35 5t-35 -5q70 440 97 703z" />
    <glyph glyph-name="N" unicode="N" horiz-adv-x="778" 
d="M675 -18h-14q-137 161 -505 553q-3 -111 -3 -203q0 -265 9 -337q-18 5 -35 5q-15 0 -37 -5q6 36 13.5 187t7.5 248q0 223 -3 268h16q397 -431 506 -541q0 374 -8 528q18 -5 34 -5q14 0 32 5q-5 -46 -10.5 -162t-5.5 -173q0 -233 3 -368z" />
    <glyph glyph-name="O" unicode="O" horiz-adv-x="833" 
d="M693 340q0 160 -76.5 240.5t-200.5 80.5t-200 -81t-76 -240t76 -240t200 -81t200.5 80.5t76.5 240.5zM42 340q0 167 103 262.5t271 95.5q169 0 272 -95.5t103 -262.5t-103 -262.5t-272 -95.5q-168 0 -271 95.5t-103 262.5z" />
    <glyph glyph-name="P" unicode="P" 
d="M98 254v172q0 87 -8 259q53 -5 97 -5q17 0 64 2.5t60 2.5q219 0 219 -169q0 -50 -19 -89t-47.5 -61t-66.5 -36.5t-70.5 -19t-65.5 -4.5q-42 0 -81 3v-55q0 -87 8 -259q-28 5 -49 5t-49 -5q8 172 8 259zM180 648v-297q34 -8 71 -8q27 0 51.5 4t50 15.5t43.5 29.5t30 48.5
t12 69.5q0 80 -41.5 109t-126.5 29h-90z" />
    <glyph glyph-name="Q" unicode="Q" horiz-adv-x="833" 
d="M693 340q0 160 -76.5 240.5t-200.5 80.5t-200 -81t-76 -240t76 -240t200 -81t200.5 80.5t76.5 240.5zM42 340q0 167 103 262.5t271 95.5q169 0 272 -95.5t103 -262.5q0 -138 -70.5 -227.5t-193.5 -118.5q131 -105 226 -172q-24 -1 -46.5 -14t-31.5 -27q-138 126 -230 202
q-10 -1 -29 -1q-168 0 -271 95.5t-103 262.5z" />
    <glyph glyph-name="R" unicode="R" horiz-adv-x="611" 
d="M180 426v-57q22 -5 67 -5q46 0 86.5 12.5t72.5 48.5t32 92q0 37 -14 64t-38 41t-49.5 20t-53.5 6q-45 0 -97 -5q-6 -146 -6 -217zM98 254v172q0 87 -8 259q63 -5 114 -5q19 0 57 2.5t57 2.5q94 0 151 -37t57 -121q0 -46 -21 -82.5t-54 -58t-65.5 -34t-64.5 -16.5
l74.5 -94.5l118.5 -149t81 -97.5q-33 5 -60 5q-26 0 -58 -5q-41 62 -121.5 168t-137.5 164h-38v-73q0 -87 8 -259q-28 5 -49 5t-49 -5q8 172 8 259z" />
    <glyph glyph-name="S" unicode="S" horiz-adv-x="500" 
d="M64 128h12q20 -42 59.5 -73t98.5 -31q65 0 104 41.5t39 103.5q0 37 -17.5 64t-45 43t-61 29.5t-67.5 29t-61.5 36t-45 55.5t-17.5 83q0 84 59 136.5t158 52.5q89 0 148 -47q-16 -30 -27 -84h-12q-36 94 -119 94q-56 0 -92.5 -34.5t-36.5 -89.5q0 -38 17.5 -65.5t45 -43.5
t61.5 -29.5l67.5 -28t61 -33.5t45 -52t17.5 -78q0 -95 -66.5 -160t-178.5 -65q-94 0 -165 57q13 34 19 89z" />
    <glyph glyph-name="T" unicode="T" 
d="M237 254v172q0 104 -3 207q-126 0 -214 -11q5 17 5 32q0 13 -5 31q143 -5 258 -5t258 5q-5 -18 -5 -32t5 -31q-88 11 -214 11q-3 -103 -3 -207v-172q0 -87 8 -259q-28 5 -49 5t-49 -5q8 172 8 259z" />
    <glyph glyph-name="U" unicode="U" horiz-adv-x="778" 
d="M619 360q0 286 -6 325q22 -5 41 -5q15 0 30 5q-15 -170 -18 -415q-2 -134 -76.5 -211t-208.5 -77q-148 0 -217 70t-69 216q0 32 2.5 83t2.5 75q0 85 -6 259q27 -5 52 -5q21 0 43 5q-12 -118 -12 -343q0 -35 0.5 -53.5t3 -52.5t8.5 -53.5t16 -47t26.5 -44t39.5 -32.5
t55.5 -23t73.5 -7q36 0 65.5 7.5t50.5 19t38 31.5t27.5 38t18 46t11.5 47t5.5 50t2 47t0.5 45z" />
    <glyph glyph-name="V" unicode="V" horiz-adv-x="667" 
d="M296 -5q-75 207 -279 690q28 -5 52 -5t52 5q72 -215 228 -591q52 116 122.5 301t104.5 290q20 -5 37 -5t37 5q-156 -345 -288 -690q-18 5 -33 5q-18 0 -33 -5z" />
    <glyph glyph-name="W" unicode="W" horiz-adv-x="1000" 
d="M229 -5q-176 581 -216 690q28 -5 50 -5t50 5q55 -218 173 -592h2q4 13 55 165l88 266.5t48 160.5q18 -5 33 -5t33 5q39 -140 191 -592h2q29 87 97.5 310.5t81.5 281.5q20 -5 35 -5t35 5q-55 -132 -239 -690q-18 5 -34 5t-34 -5l-184 573h-2l-195 -573q-20 5 -35 5t-35 -5
z" />
    <glyph glyph-name="X" unicode="X" horiz-adv-x="611" 
d="M319 411q89 131 167 274q20 -5 37 -5t37 5q-179 -250 -218 -312l232 -378q-32 5 -56 5t-56 -5q-117 224 -170 303q-92 -137 -181 -303q-20 5 -37 5t-37 -5l231 344l-212 346q30 -5 54 -5t54 5q47 -96 155 -274z" />
    <glyph glyph-name="Y" unicode="Y" horiz-adv-x="611" 
d="M265 279q-184 318 -243 406q30 -5 55 -5t55 5q76 -149 190 -346q97 152 189 346q22 -5 39 -5t39 5q-186 -286 -242 -395q0 -196 8 -295q-28 5 -49 5t-49 -5q8 71 8 284z" />
    <glyph glyph-name="Z" unicode="Z" horiz-adv-x="611" 
d="M23 -5v17l245 347l188 277q-48 2 -70 2q-179 0 -322 -15q5 17 5 31t-5 31q66 -4 156 -4q70 -1 261 -1q22 0 107 5v-18q-54 -60 -221.5 -300.5t-215.5 -321.5q48 -3 83 -3q214 0 354 18q-5 -20 -5 -33q0 -14 5 -32q-160 5 -235 5q-247 0 -330 -5z" />
    <glyph glyph-name="bracketleft" unicode="[" horiz-adv-x="333" 
d="M138 155v252q0 139 -6 276q22 -3 51 -3q31 0 112 3q-2 -10 -2 -14q0 -5 2 -15q-56 2 -91 2q-8 -131 -8 -249v-252q0 -118 8 -249q35 0 91 2q-2 -10 -2 -15q0 -4 2 -14q-81 3 -112 3q-29 0 -51 -3q6 137 6 276z" />
    <glyph glyph-name="backslash" unicode="\" horiz-adv-x="500" 
d="M362 -23l-276 726q15 -5 26 -5t26 5l276 -726q-15 5 -26 5t-26 -5z" />
    <glyph glyph-name="bracketright" unicode="]" horiz-adv-x="333" 
d="M137 155v252q0 118 -8 249q-35 0 -91 -2q2 10 2 15q0 4 -2 14q81 -3 112 -3q28 0 51 3q-6 -137 -6 -276v-252q0 -139 6 -276q-23 3 -51 3q-31 0 -112 -3q2 10 2 14q0 5 -2 15q56 -2 91 -2q8 131 8 249z" />
    <glyph glyph-name="asciicircum" unicode="^" horiz-adv-x="606" 
d="M42 203l236 453h52l234 -453h-52l-209 406l-209 -406h-52z" />
    <glyph glyph-name="underscore" unicode="_" horiz-adv-x="500" 
d="M500 -130h-500v50h500v-50z" />
    <glyph glyph-name="grave" unicode="`" horiz-adv-x="333" 
d="M193 559l-147 94q-36 23 -36 47q0 14 11 23t22 9q21 0 45 -24l147 -149h-42z" />
    <glyph glyph-name="a" unicode="a" horiz-adv-x="500" 
d="M86 373v52q77 58 161 58q72 0 117 -40.5t45 -107.5q0 -36 -2 -113t-2 -120q0 -17 0.5 -26.5t4 -22.5t12 -19t22.5 -6t21 4v-22q-33 -14 -64 -14t-48.5 17.5t-20.5 44.5q-38 -38 -73 -55.5t-84 -17.5q-53 0 -93 34t-40 89q0 114 141 137q74 12 104.5 20.5t38 18t7.5 31.5
q0 55 -27 90.5t-83 35.5q-40 0 -74.5 -18t-51.5 -50h-11zM329 97l4 150q-16 -5 -60 -13.5t-72 -16.5t-52.5 -32.5t-24.5 -62.5q0 -45 25.5 -70t61.5 -25t67.5 20t50.5 50z" />
    <glyph glyph-name="b" unicode="b" 
d="M514 248q0 -114 -65 -188.5t-162 -74.5q-45 0 -84.5 21.5t-60.5 51.5q-29 -22 -67 -58h-18q8 83 8 283v181q0 199 -8 288q25 -5 45 -5q17 0 49 5q-7 -53 -12 -373h2q67 104 170 104q98 0 150.5 -67.5t52.5 -167.5zM426 251q0 88 -40 139t-95 51q-70 0 -112.5 -53.5
t-42.5 -169.5q0 -99 37.5 -150t108.5 -51q62 0 103 65t41 169z" />
    <glyph glyph-name="c" unicode="c" horiz-adv-x="500" 
d="M42 234q0 122 75 185.5t180 63.5q52 0 96.5 -13t64.5 -31q-15 -34 -22 -66h-8q-17 30 -51 54t-77 24q-87 0 -128.5 -59t-41.5 -157q0 -102 44.5 -155t128.5 -53q39 0 81 20t69 51l5 -3q-4 -23 -6 -49q-32 -26 -77.5 -43.5t-89.5 -17.5q-98 0 -170.5 62.5t-72.5 186.5z
" />
    <glyph glyph-name="d" unicode="d" 
d="M413 -5l3 98h-2q-20 -42 -62 -75t-107 -33q-84 0 -143.5 62.5t-59.5 183.5q0 120 64.5 186t150.5 66q111 0 154 -100h2q0 283 -4 369q40 -5 45 -5q2 0 45 5q-12 -112 -12 -517l3 -240q-38 5 -39 5q-3 0 -38 -5zM130 225q0 -109 40 -156t98 -47q73 0 111 65.5t38 156.5
q0 95 -37.5 146t-108.5 51q-69 0 -105 -60t-36 -156z" />
    <glyph glyph-name="e" unicode="e" horiz-adv-x="500" 
d="M35 220q0 123 60 193t169 70q100 0 153.5 -58t53.5 -146q0 -13 -2 -39q-24 0 -67.5 1t-79 1.5t-67.5 0.5q-20 0 -41.5 -0.5t-48 -1.5t-41.5 -1q-1 -10 -1 -28q0 -81 46 -133t127 -52q39 0 81 20t69 51l5 -3l-6 -49q-32 -26 -77.5 -43.5t-89.5 -17.5q-107 0 -175 67
t-68 168zM266 451q-66 0 -100.5 -53.5t-39.5 -119.5q123 -3 130 -3t133 3q0 31 -5 58t-17 54.5t-38 44t-63 16.5z" />
    <glyph glyph-name="f" unicode="f" horiz-adv-x="278" 
d="M294 672l-6 -3q-24 15 -55 15q-41 0 -61.5 -28.5t-20.5 -71.5q0 -35 12 -117q17 0 51.5 0.5t51.5 0.5q-2 -14 -2 -20q0 -8 2 -20q-102 3 -103 3q0 -289 4 -436q-23 5 -43 5q-19 0 -44 -5q9 147 9 436q-11 0 -23 -0.5t-26.5 -1.5t-22.5 -1q2 12 2 20q0 6 -2 20
q12 0 36.5 -0.5t35.5 -0.5q0 61 24.5 132.5t62.5 109.5q46 46 102 46q11 0 20 -3q0 -9 -2 -37t-2 -43z" />
    <glyph glyph-name="g" unicode="g" horiz-adv-x="500" 
d="M50 320q0 79 54 121t137 42q9 0 81 -4q60 -4 70 -4q59 0 81 5q-2 -14 -2 -21t2 -21q-96 8 -111 8l-2 -2q30 -16 49.5 -52t19.5 -74q0 -74 -50.5 -117t-135.5 -43q-9 0 -27 1t-28 1q-19 0 -34 -13.5t-15 -32.5q0 -27 13 -38.5t46 -12.5l110 -3q87 -2 129 -36.5t42 -91.5
q0 -79 -60.5 -141t-176.5 -62q-96 0 -152.5 38.5t-56.5 105.5q0 50 31.5 84.5t75.5 47.5v2q-63 18 -63 80q0 31 22 54.5t49 28.5v2q-98 43 -98 148zM351 325q0 61 -29.5 95t-79.5 34q-53 0 -83.5 -36.5t-30.5 -97.5q0 -64 28.5 -100t84.5 -36q54 0 82 40.5t28 100.5z
M405 -111q0 58 -35.5 84.5t-115.5 26.5q-157 0 -157 -116q0 -65 40 -95.5t107 -30.5q66 0 113.5 34t47.5 97z" />
    <glyph glyph-name="h" unicode="h" 
d="M84 283v181q0 199 -8 288q25 -5 45 -5t45 5q-8 -89 -8 -283v-76h2q58 90 160 90q66 0 113 -40t47 -134q0 -27 -2 -88.5t-2 -96.5q0 -86 2 -129q-25 5 -42 5q-18 0 -41 -5q0 16 3.5 97t3.5 126v61q0 72 -29.5 112t-79.5 40q-135 0 -135 -164q0 -183 8 -272q-25 5 -45 5
t-45 -5q8 89 8 288z" />
    <glyph glyph-name="i" unicode="i" horiz-adv-x="278" 
d="M102 182v104q0 111 -8 187q25 -5 45 -5t45 5q-8 -76 -8 -187v-104q0 -111 8 -187q-25 5 -45 5t-45 -5q8 76 8 187zM88 647q0 21 15 36t36 15t36 -15t15 -36t-15 -36t-36 -15t-36 15t-15 36z" />
    <glyph glyph-name="j" unicode="j" horiz-adv-x="278" 
d="M102 -51v297q0 151 -8 227q25 -5 45 -5t45 5q-8 -76 -8 -187v-104q0 -38 2 -114.5t2 -115.5q0 -35 -1.5 -54.5t-8.5 -45.5t-22 -47q-23 -33 -61 -54t-84 -22l-7 34q10 -2 16 -2q90 0 90 188zM88 647q0 21 15 36t36 15t36 -15t15 -36t-15 -36t-36 -15t-36 15t-15 36z" />
    <glyph glyph-name="k" unicode="k" horiz-adv-x="500" 
d="M84 283v181q0 199 -8 288q25 -5 45 -5t45 5q-8 -89 -8 -288v-182q0 -19 12 -19q8 0 39 23q19 14 79 75t105 112q18 -5 38 -5q12 0 50 5q-136 -110 -230 -201l241 -277q-38 5 -57 5q-23 0 -51 -5q-98 128 -201 238q-8 10 -15 10q-10 0 -10 -12v-60q0 -97 8 -176
q-25 5 -45 5t-45 -5q8 89 8 288z" />
    <glyph glyph-name="l" unicode="l" horiz-adv-x="278" 
d="M102 283v181q0 199 -8 288q25 -5 45 -5t45 5q-8 -89 -8 -288v-181q0 -199 8 -288q-25 5 -45 5t-45 -5q8 89 8 288z" />
    <glyph glyph-name="m" unicode="m" horiz-adv-x="833" 
d="M78 182v104q0 111 -8 187q25 -5 45 -5q15 0 40 5q-3 -41 -3 -80h2q53 90 149 90q51 0 93 -28t52 -71h2q50 99 161 99q70 0 111.5 -38.5t41.5 -119.5q0 -14 -3 -83.5t-3 -137.5q0 -67 3 -109q-23 5 -43 5q-21 0 -44 -5q10 93 10 316q0 120 -105 120q-66 0 -100 -47
q-16 -23 -20 -57.5t-4 -172.5q0 -56 5 -159q-25 5 -44 5t-44 -5q9 113 9 227q0 93 -2.5 116.5t-15.5 46.5q-11 19 -35 32.5t-48 13.5q-64 0 -96 -42.5t-32 -121.5v-85q0 -111 8 -187q-25 5 -45 5t-45 -5q8 76 8 187z" />
    <glyph glyph-name="n" unicode="n" 
d="M402 279q0 72 -29.5 112t-79.5 40q-135 0 -135 -164v-85q0 -111 8 -187q-25 5 -45 5t-45 -5q8 76 8 187v104q0 111 -8 187q25 -5 45 -5q15 0 40 5q-3 -41 -3 -80h2q58 90 160 90q66 0 113 -40t47 -134q0 -27 -2 -88.5t-2 -96.5q0 -86 2 -129q-25 5 -42 5q-18 0 -41 -5
q0 16 3.5 97t3.5 126v61z" />
    <glyph glyph-name="o" unicode="o" 
d="M35 234q0 65 21.5 115t57 78t77 42t87.5 14t87.5 -14t77 -42t57 -78t21.5 -115t-21.5 -115t-57 -78t-77 -42t-87.5 -14t-87.5 14t-77 42t-57 78t-21.5 115zM123 234q0 -95 36.5 -156t118.5 -61t118.5 61t36.5 156t-36.5 156t-118.5 61t-118.5 -61t-36.5 -156z" />
    <glyph glyph-name="p" unicode="p" 
d="M426 238q0 109 -40 156t-98 47q-76 0 -112.5 -58.5t-36.5 -152.5q0 -102 37.5 -155t108.5 -53q69 0 105 60t36 156zM65 20v162q0 198 -8 291q25 -5 45 -5t45 5q-8 -56 -8 -98h2q20 43 61 75.5t108 32.5q84 0 144 -62.5t60 -183.5q0 -120 -65 -186t-151 -66
q-109 0 -157 98h-2v-63q0 -199 8 -288q-25 5 -45 5t-45 -5q8 89 8 288z" />
    <glyph glyph-name="q" unicode="q" 
d="M417 244q0 84 -36 140.5t-108 56.5q-59 0 -101 -49.5t-42 -168.5q0 -89 35 -145t99 -56q72 0 112.5 66.5t40.5 155.5zM491 182v-162q0 -199 8 -288q-25 5 -45 5t-45 -5q8 89 8 288v75h-2q-56 -110 -163 -110q-86 0 -148 60t-62 186q0 122 63.5 187t146.5 65
q122 0 163 -108h2q0 42 -8 98q25 -5 45 -5t45 5q-8 -93 -8 -291z" />
    <glyph glyph-name="r" unicode="r" horiz-adv-x="333" 
d="M312 396l-7 -5q-14 16 -49 16q-47 0 -74.5 -39.5t-27.5 -99.5q0 -227 4 -273q-22 5 -40 5q-17 0 -42 -5q4 49 4 239v32q0 121 -4 207q25 -5 42 -5q18 0 40 5q-5 -48 -5 -97l2 -1q57 108 132 108q16 0 32 -6q-7 -16 -7 -81z" />
    <glyph glyph-name="s" unicode="s" horiz-adv-x="389" 
d="M59 91h12q13 -25 44 -47t69 -22q40 0 68.5 24t28.5 66q0 34 -24.5 53.5t-59 29.5t-69 21.5t-59 40t-24.5 75.5q0 67 44 109t122 42q22 0 40.5 -4t42.5 -13.5t28 -10.5q-19 -33 -24 -71h-12q-8 26 -32 44t-56 18q-33 0 -59 -21.5t-26 -62.5q0 -36 24.5 -56t59 -29.5
t69 -20.5t59 -38.5t24.5 -74.5q0 -61 -50.5 -109.5t-129.5 -48.5q-71 0 -129 33q19 40 19 73z" />
    <glyph glyph-name="t" unicode="t" horiz-adv-x="278" 
d="M79 572l83 35h5q-4 -50 -8 -148q37 0 106 3q-1 -7 -1 -21t1 -21q-35 2 -106 2q-2 -8 -4.5 -100t-2.5 -154q0 -24 0.5 -38t3 -34t7.5 -32t13.5 -24t23 -17.5t33.5 -5.5q22 0 45 7v-24q-43 -15 -77 -15q-61 0 -92 32.5t-31 92.5q0 31 3 130.5t4 181.5q-42 0 -68 -2
q2 16 2 23q0 6 -2 20q45 -3 66 -3q0 4 -1.5 45.5t-2.5 66.5z" />
    <glyph glyph-name="u" unicode="u" 
d="M76 149q0 38 1.5 90.5t1.5 74.5q0 47 -2 159q23 -5 42 -5q18 0 41 5q-10 -130 -10 -278q0 -86 31 -121q33 -37 86 -37q81 0 111 64q15 32 18 61.5t3 146.5q0 116 -2 164q23 -5 42 -5t41 5q-7 -121 -7 -304q0 -99 4 -174q-22 5 -39 5t-39 -5q2 29 2 86h-2
q-25 -46 -66.5 -71t-89.5 -25q-78 0 -122.5 43t-44.5 121z" />
    <glyph glyph-name="v" unicode="v" horiz-adv-x="500" 
d="M215 -5q-127 332 -194 478q28 -5 50 -5q19 0 44 5q59 -186 149 -390q13 26 27.5 59.5l25 59.5l27 70l24 64.5l26 72t23.5 64.5q17 -5 31 -5t31 5l-35 -77.5l-37 -84l-32.5 -75.5l-35.5 -84l-30 -75.5l-31 -81.5q-17 5 -31 5t-32 -5z" />
    <glyph glyph-name="w" unicode="w" horiz-adv-x="778" 
d="M193 -5q-58 195 -175 478q27 -5 47 -5q21 0 46 5q50 -183 128 -383q68 167 132 383q17 -5 30 -5q11 0 28 5q30 -113 127 -383q71 179 142 383q18 -5 32 -5q15 0 30 5q-118 -251 -199 -478q-20 5 -26 5q-9 0 -26 -5q-52 184 -128 371q-72 -174 -132 -371q-23 5 -28 5
t-28 -5z" />
    <glyph glyph-name="x" unicode="x" horiz-adv-x="500" 
d="M259 286q76 98 138 187q20 -5 35 -5q14 0 34 5l-184 -216q88 -128 193 -262q-28 5 -51 5t-51 -5q-55 85 -139 204q-86 -119 -142 -204q-18 5 -33 5q-16 0 -34 -5l185 234l-184 244q30 -5 53 -5t53 5q51 -85 127 -187z" />
    <glyph glyph-name="y" unicode="y" horiz-adv-x="500" 
d="M222 -6q-81 211 -200 479q25 -5 46 -5t46 5q36 -111 149 -384q81 169 149 384q18 -5 33 -5t33 5q-46 -93 -170.5 -373t-151.5 -368q-18 5 -34 5t-34 -5q75 123 134 262z" />
    <glyph glyph-name="z" unicode="z" horiz-adv-x="500" 
d="M34 -5v14q85 103 322 422q-19 0 -119.5 -5t-151.5 -10q3 14 3 28q0 12 -3 29q53 -5 250 -5q79 0 131 5v-15q-240 -311 -318 -421q162 0 313 14q-4 -18 -4 -28t4 -28q-207 5 -250 5q-30 0 -177 -5z" />
    <glyph glyph-name="braceleft" unicode="{" horiz-adv-x="333" 
d="M57 260v42q35 0 54 25.5t19 68.5v170q0 65 22 91t66 26h58v-37h-32q-28 0 -40 -16t-12 -64v-164q0 -88 -88 -120v-2q88 -32 88 -120v-164q0 -48 12 -64t40 -16h32v-37h-58q-44 0 -66 26t-22 91v170q0 43 -19 68.5t-54 25.5z" />
    <glyph glyph-name="bar" unicode="|" horiz-adv-x="333" 
d="M141 -250v1000h52v-1000h-52z" />
    <glyph glyph-name="braceright" unicode="}" horiz-adv-x="333" 
d="M276 302v-42q-35 0 -54 -25.5t-19 -68.5v-170q0 -65 -22 -91t-66 -26h-58v37h32q28 0 40 16t12 64v164q0 88 88 120v2q-88 32 -88 120v164q0 48 -12 64t-40 16h-32v37h58q44 0 66 -26t22 -91v-170q0 -43 19 -68.5t54 -25.5z" />
    <glyph glyph-name="asciitilde" unicode="~" horiz-adv-x="606" 
d="M104 186l-29 44q26 43 52.5 63t69.5 20q40 0 94 -25l30.5 -14.5l30.5 -14.5t27 -9.5t31 -4.5q27 0 52 23t40 52l29 -42q-57 -85 -122 -85q-42 0 -114 37q-60 31 -92 31q-66 0 -99 -75z" />
    <glyph glyph-name="uni00A0" unicode="&#xa0;" horiz-adv-x="278" 
 />
    <glyph glyph-name="exclamdown" unicode="&#xa1;" horiz-adv-x="333" 
d="M156 300h20q39 -463 39 -478q0 -25 -14 -37t-35 -12t-35 12t-14 37q0 15 39 478zM109 426q0 23 17 40t40 17t40 -17t17 -40t-17 -40t-40 -17t-40 17t-17 40z" />
    <glyph glyph-name="cent" unicode="&#xa2;" 
d="M295 32v415q-65 -14 -96.5 -70.5t-31.5 -141.5q0 -177 128 -203zM79 234q0 110 61.5 172.5t154.5 73.5v8q0 57 -5 96q15 -5 26 -5t26 5q-5 -39 -5 -95v-6q112 -2 158 -44q-15 -34 -22 -66h-8q-17 30 -50.5 53.5t-77.5 24.5v-424h3q39 0 81 20t69 51l5 -3q-4 -23 -6 -49
q-69 -56 -152 -59v-8q0 -50 5 -102q-15 5 -26 5t-26 -5q5 47 5 103v7q-91 8 -153.5 70t-62.5 177z" />
    <glyph glyph-name="sterling" unicode="&#xa3;" 
d="M45 59h14q80 0 108.5 41.5t28.5 125.5q0 33 -9 105q-66 -2 -97 -2q2 8 2 23q0 14 -2 21q25 -5 92 -5q-5 40 -5 68q0 66 18.5 114t49.5 73.5t64.5 37t69.5 11.5q40 0 76 -13.5t53 -39.5q-20 -23 -38 -54l-4 3q-9 32 -32 49.5t-55 17.5q-53 0 -86.5 -38.5t-33.5 -96.5
q0 -24 6 -132q23 0 153 5q-2 -14 -2 -21t2 -23q-102 2 -150 2q2 -28 2 -46q0 -71 -28 -130t-70 -92v-2q66 0 336 11q-3 -21 -3 -40q0 -21 3 -37q-195 5 -235 5q-38 0 -228 -5q2 18 2 32q0 10 -2 32z" />
    <glyph glyph-name="currency" unicode="&#xa4;" 
d="M474 328q0 84 -56.5 142.5t-139.5 58.5t-139.5 -58.5t-56.5 -142.5t56.5 -142.5t139.5 -58.5t139.5 58.5t56.5 142.5zM433 521l55 55l36 -36l-55 -56q57 -65 57 -156q0 -87 -55 -155l53 -53l-36 -38l-55 54q-67 -56 -155 -56q-91 0 -156 57l-56 -55l-36 38l54 55
q-54 67 -54 153q0 89 55 155l-55 57l36 36l56 -56q69 56 156 56q89 0 155 -55z" />
    <glyph glyph-name="yen" unicode="&#xa5;" 
d="M236 244v87l-171 -3q2 14 2 21t-2 21q108 -2 162 -2l-202 317q30 -5 53 -5t53 5q22 -55 167 -293q116 179 177 293q18 -5 34 -5t34 5q-50 -66 -218 -317q55 0 163 2q-2 -14 -2 -21t2 -21q-19 0 -54.5 1t-64.5 1.5t-55 0.5v-87q116 0 174 1q-2 -14 -2 -21t2 -21
q-116 4 -174 4q0 -121 7 -212q-25 5 -46 5t-46 -5q7 99 7 212q-57 0 -171 -4q2 14 2 21t-2 21q57 -1 171 -1z" />
    <glyph glyph-name="brokenbar" unicode="&#xa6;" horiz-adv-x="333" 
d="M141 -175v350h52v-350h-52zM141 325v350h52v-350h-52z" />
    <glyph glyph-name="section" unicode="&#xa7;" horiz-adv-x="500" 
d="M383 578h-12q-9 34 -37.5 58.5t-68.5 24.5q-44 0 -78 -28t-34 -72q0 -40 29.5 -67t72 -43.5l85 -34t72 -50t29.5 -81.5q0 -69 -58 -130q37 -31 37 -89q0 -79 -56.5 -136.5t-153.5 -57.5q-36 0 -76 12.5t-65 30.5q11 42 11 85h12q13 -33 49 -62t97 -29q52 0 91 36.5
t39 81.5q0 39 -32 65.5t-77.5 43t-90.5 35t-77 55t-32 90.5q0 43 22 75.5t47 48.5q-11 17 -15 24t-8 25.5t-4 44.5q0 67 47 115.5t131 48.5q80 0 133 -61q-23 -22 -29 -59zM394 241q0 37 -18.5 57t-69.5 43q-138 62 -162 83q-38 -34 -38 -75q0 -37 24 -60.5t83 -49.5
q130 -56 154 -73q27 39 27 75z" />
    <glyph glyph-name="dieresis" unicode="&#xa8;" horiz-adv-x="333" 
d="M214 637q0 21 15 36t36 15t36 -15t15 -36t-15 -36t-36 -15t-36 15t-15 36zM17 637q0 21 15 36t36 15t36 -15t15 -36t-15 -36t-36 -15t-36 15t-15 36z" />
    <glyph glyph-name="copyright" unicode="&#xa9;" horiz-adv-x="750" 
d="M154 338q0 114 69 176t177 62q93 0 141 -28q-11 -23 -13 -50l-5 -2q-55 52 -120 52q-183 0 -183 -211q0 -88 48 -143.5t132 -55.5q73 0 135 55l6 -2q-6 -14 -6 -40q-67 -41 -146 -41q-104 0 -169.5 62.5t-65.5 165.5zM17 340q0 148 104.5 253t253.5 105t253.5 -105
t104.5 -253t-104.5 -253t-253.5 -105t-253.5 105t-104.5 253zM691 340q0 133 -92 227t-224 94t-224 -94t-92 -227t92 -227t224 -94t224 94t92 227z" />
    <glyph glyph-name="ordfeminine" unicode="&#xaa;" horiz-adv-x="324" 
d="M53 604v37q60 31 109 31q43 0 74.5 -21t31.5 -74q0 -27 -2.5 -80t-2.5 -66q0 -34 22 -34q7 0 19 6v-18q-22 -12 -47 -12q-19 0 -30 12t-13 31q-45 -43 -101 -43q-38 0 -65.5 17.5t-27.5 56.5q0 36 21 54.5t78 28.5q65 12 78.5 17.5t13.5 19.5q0 45 -18.5 61t-52.5 16
q-28 0 -48 -12.5t-27 -27.5h-12zM211 441v92q-12 -6 -49 -12t-58.5 -20.5t-21.5 -47.5q0 -25 15.5 -38.5t39.5 -13.5q36 0 74 40z" />
    <glyph glyph-name="guillemotleft" unicode="&#xab;" horiz-adv-x="500" 
d="M96 232l126 187q13 -24 37 -27l-111 -159l106 -166q-29 -4 -38 -26zM241 232l126 187q13 -24 37 -27l-111 -159l106 -166q-29 -4 -38 -26z" />
    <glyph glyph-name="logicalnot" unicode="&#xac;" horiz-adv-x="606" 
d="M504 108v216h-454v52h506v-268h-52z" />
    <glyph glyph-name="uni00AD" unicode="&#xad;" horiz-adv-x="333" 
d="M42 200v62h249v-62h-249z" />
    <glyph glyph-name="registered" unicode="&#xae;" horiz-adv-x="750" 
d="M242 263v171q0 70 -7 135q45 -5 82 -5q14 0 41 2.5t40 2.5q55 0 90.5 -25.5t35.5 -74.5q0 -55 -45 -87.5t-92 -36.5q14 -17 56 -72.5l72.5 -92.5t48.5 -52v-5q-22 5 -38 5q-17 0 -39 -5q-68 99 -161 214h-32v-70q0 -72 6 -144q-18 5 -32 5q-15 0 -33 -5q7 110 7 140z
M294 446v-81q14 -4 42 -4q56 0 91 24.5t35 76.5q0 38 -26 60.5t-67 22.5q-36 0 -69 -5q-6 -62 -6 -94zM17 340q0 148 104.5 253t253.5 105t253.5 -105t104.5 -253t-104.5 -253t-253.5 -105t-253.5 105t-104.5 253zM59 340q0 -133 92 -227t224 -94t224 94t92 227t-92 227
t-224 94t-224 -94t-92 -227z" />
    <glyph glyph-name="macron" unicode="&#xaf;" horiz-adv-x="333" 
d="M30 604v52h273v-52h-273z" />
    <glyph glyph-name="degree" unicode="&#xb0;" horiz-adv-x="400" 
d="M55 527q0 60 42.5 102.5t102.5 42.5t102.5 -42.5t42.5 -102.5t-42.5 -102.5t-102.5 -42.5t-102.5 42.5t-42.5 102.5zM92 527q0 -45 31.5 -76.5t76.5 -31.5t76.5 31.5t31.5 76.5t-31.5 76.5t-76.5 31.5t-76.5 -31.5t-31.5 -76.5z" />
    <glyph glyph-name="plusminus" unicode="&#xb1;" horiz-adv-x="606" 
d="M50 272v52h227v182h52v-182h227v-52h-227v-182h-52v182h-227zM50 0v52h506v-52h-506z" />
    <glyph glyph-name="twosuperior" unicode="&#xb2;" horiz-adv-x="333" 
d="M68 583l-23 30q40 59 119 59q59 0 94.5 -26.5t35.5 -79.5q0 -49 -36 -94.5t-165 -159.5l2 -5q143 0 201 5q-4 -18 -4 -26t4 -26q-78 5 -140 5t-139 -5v15q13 13 40.5 38l38.5 35.5l32.5 31.5t30 31.5l23.5 28.5t20.5 30l13 28.5t10 32t2.5 32.5q0 42 -21 63.5t-52 21.5
q-37 0 -57.5 -20t-24.5 -43z" />
    <glyph glyph-name="threesuperior" unicode="&#xb3;" horiz-adv-x="333" 
d="M26 280l10 38h5q33 -35 86 -35q46 0 74 27t28 69q0 46 -23.5 66.5t-57.5 20.5q-21 0 -41 -6q3 9 3 17q0 11 -3 20q15 -7 33 -7q38 0 54.5 26.5t16.5 62.5q0 33 -19.5 51t-47.5 18q-25 0 -45 -12.5t-27 -30.5l-5 -1l-15 32q41 36 106 36q51 0 83 -22.5t32 -65.5
q0 -41 -26.5 -67t-61.5 -34v-2q43 -3 76.5 -25t33.5 -70q0 -57 -45.5 -92t-120.5 -35q-59 0 -103 21z" />
    <glyph glyph-name="acute" unicode="&#xb4;" horiz-adv-x="333" 
d="M98 559l147 149q24 24 45 24q11 0 22 -9t11 -23q0 -24 -36 -47l-147 -94h-42z" />
    <glyph glyph-name="mu" unicode="&#xb5;" 
d="M242 -15q-61 0 -92 30q0 -191 10 -283q-23 5 -42 5t-42 -5q0 40 2 146.5t2 179.5q0 95 -1.5 229t-1.5 186q23 -5 42 -5q18 0 41 5q-10 -130 -10 -278q0 -86 31 -121q33 -37 86 -37q81 0 111 64q15 32 18 61.5t3 146.5q0 116 -2 164q23 -5 42 -5t41 5q-7 -121 -7 -304
q0 -99 4 -174q-22 5 -39 5t-39 -5q2 29 2 86h-2q-25 -46 -66.5 -71t-90.5 -25z" />
    <glyph glyph-name="paragraph" unicode="&#xb6;" horiz-adv-x="800" 
d="M499 -115v754l-64 -10v-744h-36v406q-123 0 -186 55.5t-63 149.5q0 91 52.5 137.5t146.5 46.5h261v-24l-75 -12v-759h-36z" />
    <glyph glyph-name="periodcentered" unicode="&#xb7;" horiz-adv-x="278" 
d="M79 306q0 25 17.5 42.5t42.5 17.5t42.5 -17.5t17.5 -42.5t-17.5 -42.5t-42.5 -17.5t-42.5 17.5t-17.5 42.5z" />
    <glyph glyph-name="cedilla" unicode="&#xb8;" horiz-adv-x="333" 
d="M29 -207l14 32q30 -12 72 -12q26 0 43 11t17 31q0 40 -51 40q-32 0 -43 -7l-7 7l41 105h35l-25 -73q13 5 29 5q39 0 61 -19t22 -52q0 -40 -34 -62.5t-85 -22.5q-43 0 -89 17z" />
    <glyph glyph-name="onesuperior" unicode="&#xb9;" horiz-adv-x="333" 
d="M147 416v200l-4 2l-72 -37q-7 13 -20 19v10q87 28 148 62h11q-6 -76 -6 -156v-100q0 -76 6 -156q-18 5 -34 5t-34 -5q5 68 5 156z" />
    <glyph glyph-name="ordmasculine" unicode="&#xba;" horiz-adv-x="340" 
d="M10 522q0 76 47 113t114 37q65 0 112 -37t47 -113t-47 -112.5t-112 -36.5q-67 0 -114 36.5t-47 112.5zM76 522q0 -53 23 -89t72 -36q48 0 70.5 36t22.5 89t-22.5 89.5t-70.5 36.5q-49 0 -72 -36.5t-23 -89.5z" />
    <glyph glyph-name="guillemotright" unicode="&#xbb;" horiz-adv-x="500" 
d="M352 230l-106 166q29 4 38 26l120 -191l-126 -187q-13 24 -37 27zM207 230l-106 166q29 4 38 26l120 -191l-126 -187q-13 24 -37 27z" />
    <glyph glyph-name="onequarter" unicode="&#xbc;" horiz-adv-x="834" 
d="M451 104v22l212 275q14 -4 26 -4t26 4q-5 -85 -5 -256q36 0 58 6q-4 -16 -4 -23q0 -8 4 -24q-30 4 -58 4q0 -37 4 -113q-18 5 -33 5t-33 -5q5 63 5 113q-126 0 -202 -4zM653 145v193l-2 3l-44.5 -58t-56 -75t-38.5 -58l2 -5h139zM214 -28l277 712q13 -5 23 -5t23 5
l-277 -712q-13 5 -23 5t-23 -5zM144 416v200l-4 2l-72 -37q-7 13 -20 19v10q87 28 148 62h11q-6 -76 -6 -156v-100q0 -76 6 -156q-18 5 -34 5t-34 -5q5 68 5 156z" />
    <glyph glyph-name="onehalf" unicode="&#xbd;" horiz-adv-x="834" 
d="M211 -28l277 712q13 -5 23 -5t23 5l-277 -712q-13 5 -23 5t-23 -5zM144 416v200l-4 2l-72 -37q-7 13 -20 19v10q87 28 148 62h11q-6 -76 -6 -156v-100q0 -76 6 -156q-18 5 -34 5t-34 -5q5 68 5 156zM528 318l-23 30q40 59 119 59q59 0 94.5 -26.5t35.5 -79.5
q0 -49 -36 -94.5t-165 -159.5l2 -5q143 0 201 5q-4 -18 -4 -26t4 -26q-78 5 -140 5t-139 -5v15q13 13 40.5 38l38.5 35.5l32.5 31.5t30 31.5l23.5 28.5t20.5 30l13 28.5t10 32t2.5 32.5q0 42 -21 63.5t-52 21.5q-37 0 -57.5 -20t-24.5 -43z" />
    <glyph glyph-name="threequarters" unicode="&#xbe;" horiz-adv-x="834" 
d="M471 104v22l212 275q14 -4 26 -4t26 4q-5 -85 -5 -256q36 0 58 6q-4 -16 -4 -23q0 -8 4 -24q-30 4 -58 4q0 -37 4 -113q-18 5 -33 5t-33 -5q5 63 5 113q-126 0 -202 -4zM673 145v193l-2 3l-44.5 -58t-56 -75t-38.5 -58l2 -5h139zM246 -28l277 712q13 -5 23 -5t23 5
l-277 -712q-13 5 -23 5t-23 -5zM24 280l10 38h5q33 -35 86 -35q46 0 74 27t28 69q0 46 -23.5 66.5t-57.5 20.5q-21 0 -41 -6q3 9 3 17q0 11 -3 20q15 -7 33 -7q38 0 54.5 26.5t16.5 62.5q0 33 -19.5 51t-47.5 18q-25 0 -45 -12.5t-27 -30.5l-5 -1l-15 32q41 36 106 36
q51 0 83 -22.5t32 -65.5q0 -41 -26.5 -67t-61.5 -34v-2q43 -3 76.5 -25t33.5 -70q0 -57 -45.5 -92t-120.5 -35q-59 0 -103 21z" />
    <glyph glyph-name="questiondown" unicode="&#xbf;" horiz-adv-x="389" 
d="M150 260l-6 4q10 12 12 28q13 5 35 5q34 0 70.5 -28.5t36.5 -82.5q0 -37 -17.5 -70.5t-43 -59.5l-51 -51t-43 -54t-17.5 -59q0 -36 26 -59t60 -23q54 0 91 46l6 -50q-54 -33 -103 -33q-69 0 -108.5 38t-39.5 94q0 39 18.5 75.5t44.5 64l52 53.5t44.5 55t18.5 57
q0 22 -14 40.5t-38 18.5q-19 0 -34 -9zM150 426q0 23 17 40t40 17t40 -17t17 -40t-17 -40t-40 -17t-40 17t-17 40z" />
    <glyph glyph-name="Agrave" unicode="&#xc0;" horiz-adv-x="667" 
d="M330 698h19l79 -188l90.5 -215.5l73.5 -172.5t58 -127q-30 5 -53 5t-53 -5q-7 24 -20 60.5t-24 63.5l-31.5 76.5l-27.5 67.5q-86 2 -131 2q-40 0 -122 -2q-73 -179 -97 -268q-22 5 -37 5t-37 -5zM427 309l-111 254l-109 -254q17 0 53.5 -1t54.5 -1q38 0 112 2zM360 731
l-147 94q-36 23 -36 47q0 14 11 23t22 9q21 0 45 -24l147 -149h-42z" />
    <glyph glyph-name="Aacute" unicode="&#xc1;" horiz-adv-x="667" 
d="M330 698h19l79 -188l90.5 -215.5l73.5 -172.5t58 -127q-30 5 -53 5t-53 -5q-7 24 -20 60.5t-24 63.5l-31.5 76.5l-27.5 67.5q-86 2 -131 2q-40 0 -122 -2q-73 -179 -97 -268q-22 5 -37 5t-37 -5zM427 309l-111 254l-109 -254q17 0 53.5 -1t54.5 -1q38 0 112 2zM265 731
l147 149q24 24 45 24q11 0 22 -9t11 -23q0 -24 -36 -47l-147 -94h-42z" />
    <glyph glyph-name="Acircumflex" unicode="&#xc2;" horiz-adv-x="667" 
d="M330 698h19l79 -188l90.5 -215.5l73.5 -172.5t58 -127q-30 5 -53 5t-53 -5q-7 24 -20 60.5t-24 63.5l-31.5 76.5l-27.5 67.5q-86 2 -131 2q-40 0 -122 -2q-73 -179 -97 -268q-22 5 -37 5t-37 -5zM427 309l-111 254l-109 -254q17 0 53.5 -1t54.5 -1q38 0 112 2zM453 731
l-120 105l-119 -105h-37l123 167h67l123 -167h-37z" />
    <glyph glyph-name="Atilde" unicode="&#xc3;" horiz-adv-x="667" 
d="M330 698h19l79 -188l90.5 -215.5l73.5 -172.5t58 -127q-30 5 -53 5t-53 -5q-7 24 -20 60.5t-24 63.5l-31.5 76.5l-27.5 67.5q-86 2 -131 2q-40 0 -122 -2q-73 -179 -97 -268q-22 5 -37 5t-37 -5zM427 309l-111 254l-109 -254q17 0 53.5 -1t54.5 -1q38 0 112 2zM199 756
h-30q7 41 33.5 72t70.5 31q26 0 73 -23t66 -23q42 0 57 50h29q-2 -15 -8.5 -31t-18 -34.5t-33 -30t-49.5 -11.5q-30 0 -72 23t-65 23t-33.5 -9.5t-19.5 -36.5z" />
    <glyph glyph-name="Adieresis" unicode="&#xc4;" horiz-adv-x="667" 
d="M330 698h19l79 -188l90.5 -215.5l73.5 -172.5t58 -127q-30 5 -53 5t-53 -5q-7 24 -20 60.5t-24 63.5l-31.5 76.5l-27.5 67.5q-86 2 -131 2q-40 0 -122 -2q-73 -179 -97 -268q-22 5 -37 5t-37 -5zM427 309l-111 254l-109 -254q17 0 53.5 -1t54.5 -1q38 0 112 2zM381 809
q0 21 15 36t36 15t36 -15t15 -36t-15 -36t-36 -15t-36 15t-15 36zM184 809q0 21 15 36t36 15t36 -15t15 -36t-15 -36t-36 -15t-36 15t-15 36z" />
    <glyph glyph-name="Aring" unicode="&#xc5;" horiz-adv-x="667" 
d="M330 698h19l79 -188l90.5 -215.5l73.5 -172.5t58 -127q-30 5 -53 5t-53 -5q-7 24 -20 60.5t-24 63.5l-31.5 76.5l-27.5 67.5q-86 2 -131 2q-40 0 -122 -2q-73 -179 -97 -268q-22 5 -37 5t-37 -5zM427 309l-111 254l-109 -254q17 0 53.5 -1t54.5 -1q38 0 112 2zM231 817
q0 42 30 72t73 30q42 0 72 -30t30 -72t-30 -72t-73 -30q-42 0 -72 30t-30 72zM273 817q0 -25 17.5 -42.5t42.5 -17.5t43 17.5t18 42.5t-17.5 42.5t-42.5 17.5t-43 -17.5t-18 -42.5z" />
    <glyph glyph-name="AE" unicode="&#xc6;" horiz-adv-x="833" 
d="M451 246l-231 6q-77 -125 -140 -257q-23 5 -41 5q-20 0 -45 -5q127 179 449 690q93 -5 169 -5t166 5q-5 -17 -5 -31t5 -31q-75 15 -240 15q-5 -145 -5 -175v-82q141 0 225 7q-5 -15 -5 -28t5 -28q-86 7 -225 7v-101q0 -34 5 -196q177 0 247 11q-5 -17 -5 -29t5 -29
q-97 5 -171 5q-76 0 -171 -5q8 84 8 251zM451 288v319h-11l-198 -313z" />
    <glyph glyph-name="Ccedilla" unicode="&#xc7;" horiz-adv-x="667" 
d="M323 -111l37 93q-143 15 -230.5 109.5t-87.5 248.5q0 167 103 262.5t272 95.5q118 0 217 -46q-9 -17 -21 -78l-6 -2q-30 33 -79 61t-111 28q-124 0 -200.5 -80.5t-76.5 -240.5t76.5 -240.5t200.5 -80.5q43 0 87.5 16.5t65.5 30.5t50 36l4 -4l-9 -59q-24 -19 -82.5 -38
t-125.5 -19h-12l-21 -61q13 5 29 5q39 0 61 -19t22 -52q0 -40 -34 -62.5t-85 -22.5q-43 0 -89 17l14 32q30 -12 72 -12q26 0 43 11t17 31q0 40 -51 40q-33 0 -43 -7z" />
    <glyph glyph-name="Egrave" unicode="&#xc8;" horiz-adv-x="500" 
d="M98 255v172q0 88 -8 258q100 -5 179 -5q80 0 178 5q-3 -15 -3 -30t3 -30q-182 13 -263 13q0 -14 -2 -56.5t-2 -70.5q0 -29 0.5 -76t0.5 -56q125 0 243 10q-3 -15 -3 -31q0 -15 3 -30q-89 9 -243 9q-1 -24 -1 -145q0 -100 2 -150q202 0 270 13q-3 -13 -3 -31q0 -16 3 -29
q-98 5 -180 5q-80 0 -182 -5q8 174 8 260zM293 731l-147 94q-36 23 -36 47q0 14 11 23t22 9q21 0 45 -24l147 -149h-42z" />
    <glyph glyph-name="Eacute" unicode="&#xc9;" horiz-adv-x="500" 
d="M98 255v172q0 88 -8 258q100 -5 179 -5q80 0 178 5q-3 -15 -3 -30t3 -30q-182 13 -263 13q0 -14 -2 -56.5t-2 -70.5q0 -29 0.5 -76t0.5 -56q125 0 243 10q-3 -15 -3 -31q0 -15 3 -30q-89 9 -243 9q-1 -24 -1 -145q0 -100 2 -150q202 0 270 13q-3 -13 -3 -31q0 -16 3 -29
q-98 5 -180 5q-80 0 -182 -5q8 174 8 260zM198 731l147 149q24 24 45 24q11 0 22 -9t11 -23q0 -24 -36 -47l-147 -94h-42z" />
    <glyph glyph-name="Ecircumflex" unicode="&#xca;" horiz-adv-x="500" 
d="M98 255v172q0 88 -8 258q100 -5 179 -5q80 0 178 5q-3 -15 -3 -30t3 -30q-182 13 -263 13q0 -14 -2 -56.5t-2 -70.5q0 -29 0.5 -76t0.5 -56q125 0 243 10q-3 -15 -3 -31q0 -15 3 -30q-89 9 -243 9q-1 -24 -1 -145q0 -100 2 -150q202 0 270 13q-3 -13 -3 -31q0 -16 3 -29
q-98 5 -180 5q-80 0 -182 -5q8 174 8 260zM386 731l-120 105l-119 -105h-37l123 167h67l123 -167h-37z" />
    <glyph glyph-name="Edieresis" unicode="&#xcb;" horiz-adv-x="500" 
d="M98 255v172q0 88 -8 258q100 -5 179 -5q80 0 178 5q-3 -15 -3 -30t3 -30q-182 13 -263 13q0 -14 -2 -56.5t-2 -70.5q0 -29 0.5 -76t0.5 -56q125 0 243 10q-3 -15 -3 -31q0 -15 3 -30q-89 9 -243 9q-1 -24 -1 -145q0 -100 2 -150q202 0 270 13q-3 -13 -3 -31q0 -16 3 -29
q-98 5 -180 5q-80 0 -182 -5q8 174 8 260zM314 809q0 21 15 36t36 15t36 -15t15 -36t-15 -36t-36 -15t-36 15t-15 36zM117 809q0 21 15 36t36 15t36 -15t15 -36t-15 -36t-36 -15t-36 15t-15 36z" />
    <glyph glyph-name="Igrave" unicode="&#xcc;" horiz-adv-x="278" 
d="M98 254v172q0 87 -8 259q28 -5 49 -5t49 5q-8 -172 -8 -259v-172q0 -87 8 -259q-28 5 -49 5t-49 -5q8 172 8 259zM166 731l-147 94q-36 23 -36 47q0 14 11 23t22 9q21 0 45 -24l147 -149h-42z" />
    <glyph glyph-name="Iacute" unicode="&#xcd;" horiz-adv-x="278" 
d="M98 254v172q0 87 -8 259q28 -5 49 -5t49 5q-8 -172 -8 -259v-172q0 -87 8 -259q-28 5 -49 5t-49 -5q8 172 8 259zM71 731l147 149q24 24 45 24q11 0 22 -9t11 -23q0 -24 -36 -47l-147 -94h-42z" />
    <glyph glyph-name="Icircumflex" unicode="&#xce;" horiz-adv-x="278" 
d="M98 254v172q0 87 -8 259q28 -5 49 -5t49 5q-8 -172 -8 -259v-172q0 -87 8 -259q-28 5 -49 5t-49 -5q8 172 8 259zM259 731l-120 105l-119 -105h-37l123 167h67l123 -167h-37z" />
    <glyph glyph-name="Idieresis" unicode="&#xcf;" horiz-adv-x="278" 
d="M98 254v172q0 87 -8 259q28 -5 49 -5t49 5q-8 -172 -8 -259v-172q0 -87 8 -259q-28 5 -49 5t-49 -5q8 172 8 259zM187 809q0 21 15 36t36 15t36 -15t15 -36t-15 -36t-36 -15t-36 15t-15 36zM-10 809q0 21 15 36t36 15t36 -15t15 -36t-15 -36t-36 -15t-36 15t-15 36z" />
    <glyph glyph-name="Eth" unicode="&#xd0;" horiz-adv-x="778" 
d="M180 365v-111q0 -108 6 -212q47 -10 131 -10q48 0 89 8t82.5 29.5t70.5 56.5t47 93.5t18 134.5q0 84 -20.5 142.5t-60.5 89.5t-88.5 44t-114.5 13q-72 0 -154 -10q-6 -96 -6 -207v-24q100 0 192 3q-3 -11 -3 -21q0 -11 3 -23q-81 4 -192 4zM98 402v24q0 87 -8 259
q83 -5 151 -5q25 0 75.5 2.5t75.5 2.5q330 0 330 -331q0 -77 -23 -139.5t-59.5 -102.5t-85 -67t-97.5 -38.5t-99 -11.5q-22 0 -67 2.5t-67 2.5q-59 0 -134 -5q8 172 8 259v111q-61 0 -98 -2q2 14 2 21q0 6 -2 20q37 -2 98 -2z" />
    <glyph glyph-name="Ntilde" unicode="&#xd1;" horiz-adv-x="778" 
d="M675 -18h-14q-137 161 -505 553q-3 -111 -3 -203q0 -265 9 -337q-18 5 -35 5q-15 0 -37 -5q6 36 13.5 187t7.5 248q0 223 -3 268h16q397 -431 506 -541q0 374 -8 528q18 -5 34 -5q14 0 32 5q-5 -46 -10.5 -162t-5.5 -173q0 -233 3 -368zM271 756h-30q7 41 33.5 72
t70.5 31q26 0 73 -23t66 -23q42 0 57 50h29q-2 -15 -8.5 -31t-18 -34.5t-33 -30t-49.5 -11.5q-30 0 -72 23t-65 23t-33.5 -9.5t-19.5 -36.5z" />
    <glyph glyph-name="Ograve" unicode="&#xd2;" horiz-adv-x="833" 
d="M693 340q0 160 -76.5 240.5t-200.5 80.5t-200 -81t-76 -240t76 -240t200 -81t200.5 80.5t76.5 240.5zM42 340q0 167 103 262.5t271 95.5q169 0 272 -95.5t103 -262.5t-103 -262.5t-272 -95.5q-168 0 -271 95.5t-103 262.5zM443 731l-147 94q-36 23 -36 47q0 14 11 23
t22 9q21 0 45 -24l147 -149h-42z" />
    <glyph glyph-name="Oacute" unicode="&#xd3;" horiz-adv-x="833" 
d="M693 340q0 160 -76.5 240.5t-200.5 80.5t-200 -81t-76 -240t76 -240t200 -81t200.5 80.5t76.5 240.5zM42 340q0 167 103 262.5t271 95.5q169 0 272 -95.5t103 -262.5t-103 -262.5t-272 -95.5q-168 0 -271 95.5t-103 262.5zM348 731l147 149q24 24 45 24q11 0 22 -9
t11 -23q0 -24 -36 -47l-147 -94h-42z" />
    <glyph glyph-name="Ocircumflex" unicode="&#xd4;" horiz-adv-x="833" 
d="M693 340q0 160 -76.5 240.5t-200.5 80.5t-200 -81t-76 -240t76 -240t200 -81t200.5 80.5t76.5 240.5zM42 340q0 167 103 262.5t271 95.5q169 0 272 -95.5t103 -262.5t-103 -262.5t-272 -95.5q-168 0 -271 95.5t-103 262.5zM536 731l-120 105l-119 -105h-37l123 167h67
l123 -167h-37z" />
    <glyph glyph-name="Otilde" unicode="&#xd5;" horiz-adv-x="833" 
d="M693 340q0 160 -76.5 240.5t-200.5 80.5t-200 -81t-76 -240t76 -240t200 -81t200.5 80.5t76.5 240.5zM42 340q0 167 103 262.5t271 95.5q169 0 272 -95.5t103 -262.5t-103 -262.5t-272 -95.5q-168 0 -271 95.5t-103 262.5zM282 756h-30q7 41 33.5 72t70.5 31q26 0 73 -23
t66 -23q42 0 57 50h29q-2 -15 -8.5 -31t-18 -34.5t-33 -30t-49.5 -11.5q-30 0 -72 23t-65 23t-33.5 -9.5t-19.5 -36.5z" />
    <glyph glyph-name="Odieresis" unicode="&#xd6;" horiz-adv-x="833" 
d="M693 340q0 160 -76.5 240.5t-200.5 80.5t-200 -81t-76 -240t76 -240t200 -81t200.5 80.5t76.5 240.5zM42 340q0 167 103 262.5t271 95.5q169 0 272 -95.5t103 -262.5t-103 -262.5t-272 -95.5q-168 0 -271 95.5t-103 262.5zM464 809q0 21 15 36t36 15t36 -15t15 -36
t-15 -36t-36 -15t-36 15t-15 36zM267 809q0 21 15 36t36 15t36 -15t15 -36t-15 -36t-36 -15t-36 15t-15 36z" />
    <glyph glyph-name="multiply" unicode="&#xd7;" horiz-adv-x="606" 
d="M82 69l184 184l-184 185l37 36l184 -184l185 184l36 -36l-184 -185l184 -184l-36 -37l-185 184l-184 -184z" />
    <glyph glyph-name="Oslash" unicode="&#xd8;" horiz-adv-x="833" 
d="M202 118l413 464q-72 79 -199 79q-124 0 -200 -81t-76 -240q0 -141 62 -222zM42 340q0 167 103 262.5t271 95.5q146 0 240 -70q71 74 87 104q10 -13 28 -24q-17 -11 -93 -97q113 -97 113 -271q0 -167 -103 -262.5t-272 -95.5q-141 0 -237 68q-74 -83 -89 -107
q-10 14 -28 24q17 13 94 101q-114 95 -114 272zM633 560l-413 -464q73 -77 196 -77q124 0 200.5 80.5t76.5 240.5q0 136 -60 220z" />
    <glyph glyph-name="Ugrave" unicode="&#xd9;" horiz-adv-x="778" 
d="M619 360q0 286 -6 325q22 -5 41 -5q15 0 30 5q-15 -170 -18 -415q-2 -134 -76.5 -211t-208.5 -77q-148 0 -217 70t-69 216q0 32 2.5 83t2.5 75q0 85 -6 259q27 -5 52 -5q21 0 43 5q-12 -118 -12 -343q0 -35 0.5 -53.5t3 -52.5t8.5 -53.5t16 -47t26.5 -44t39.5 -32.5
t55.5 -23t73.5 -7q36 0 65.5 7.5t50.5 19t38 31.5t27.5 38t18 46t11.5 47t5.5 50t2 47t0.5 45zM416 731l-147 94q-36 23 -36 47q0 14 11 23t22 9q21 0 45 -24l147 -149h-42z" />
    <glyph glyph-name="Uacute" unicode="&#xda;" horiz-adv-x="778" 
d="M619 360q0 286 -6 325q22 -5 41 -5q15 0 30 5q-15 -170 -18 -415q-2 -134 -76.5 -211t-208.5 -77q-148 0 -217 70t-69 216q0 32 2.5 83t2.5 75q0 85 -6 259q27 -5 52 -5q21 0 43 5q-12 -118 -12 -343q0 -35 0.5 -53.5t3 -52.5t8.5 -53.5t16 -47t26.5 -44t39.5 -32.5
t55.5 -23t73.5 -7q36 0 65.5 7.5t50.5 19t38 31.5t27.5 38t18 46t11.5 47t5.5 50t2 47t0.5 45zM321 731l147 149q24 24 45 24q11 0 22 -9t11 -23q0 -24 -36 -47l-147 -94h-42z" />
    <glyph glyph-name="Ucircumflex" unicode="&#xdb;" horiz-adv-x="778" 
d="M619 360q0 286 -6 325q22 -5 41 -5q15 0 30 5q-15 -170 -18 -415q-2 -134 -76.5 -211t-208.5 -77q-148 0 -217 70t-69 216q0 32 2.5 83t2.5 75q0 85 -6 259q27 -5 52 -5q21 0 43 5q-12 -118 -12 -343q0 -35 0.5 -53.5t3 -52.5t8.5 -53.5t16 -47t26.5 -44t39.5 -32.5
t55.5 -23t73.5 -7q36 0 65.5 7.5t50.5 19t38 31.5t27.5 38t18 46t11.5 47t5.5 50t2 47t0.5 45zM509 731l-120 105l-119 -105h-37l123 167h67l123 -167h-37z" />
    <glyph glyph-name="Udieresis" unicode="&#xdc;" horiz-adv-x="778" 
d="M619 360q0 286 -6 325q22 -5 41 -5q15 0 30 5q-15 -170 -18 -415q-2 -134 -76.5 -211t-208.5 -77q-148 0 -217 70t-69 216q0 32 2.5 83t2.5 75q0 85 -6 259q27 -5 52 -5q21 0 43 5q-12 -118 -12 -343q0 -35 0.5 -53.5t3 -52.5t8.5 -53.5t16 -47t26.5 -44t39.5 -32.5
t55.5 -23t73.5 -7q36 0 65.5 7.5t50.5 19t38 31.5t27.5 38t18 46t11.5 47t5.5 50t2 47t0.5 45zM437 809q0 21 15 36t36 15t36 -15t15 -36t-15 -36t-36 -15t-36 15t-15 36zM240 809q0 21 15 36t36 15t36 -15t15 -36t-15 -36t-36 -15t-36 15t-15 36z" />
    <glyph glyph-name="Yacute" unicode="&#xdd;" horiz-adv-x="611" 
d="M265 279q-184 318 -243 406q30 -5 55 -5t55 5q76 -149 190 -346q97 152 189 346q22 -5 39 -5t39 5q-186 -286 -242 -395q0 -196 8 -295q-28 5 -49 5t-49 -5q8 71 8 284zM237 721l147 149q24 24 45 24q11 0 22 -9t11 -23q0 -24 -36 -47l-147 -94h-42z" />
    <glyph glyph-name="Thorn" unicode="&#xde;" 
d="M180 517v-285q21 -4 78 -4q70 0 119.5 39t49.5 112q0 57 -38 97.5t-120 40.5h-89zM98 254v172q0 87 -8 259q28 -5 49 -5t49 5q-8 -88 -8 -131h123q216 0 216 -174q0 -53 -21.5 -91.5t-58 -58.5t-77.5 -29.5t-89 -9.5q-37 0 -93 4v-56q0 -112 8 -144q-28 5 -49 5t-49 -5
q8 172 8 259z" />
    <glyph glyph-name="germandbls" unicode="&#xdf;" 
d="M87 283v123q0 37 -1.5 78t-1.5 43q0 59 19 105t50 71.5t65 38.5t69 13q51 0 98.5 -32.5t47.5 -80.5q0 -35 -18.5 -68.5t-40.5 -55.5t-40.5 -47.5t-18.5 -45.5q0 -25 22 -47.5t53 -41.5t62 -40t53 -53t22 -71q0 -67 -60.5 -127t-135.5 -60q-61 0 -100 23q14 23 18 59h5
q11 -18 39 -31.5t58 -13.5q43 0 75.5 29.5t32.5 76.5q0 35 -22 64.5t-53 50.5l-62 41.5t-53 47.5t-22 58q0 26 21 55.5t46 53.5t46 59.5t21 71.5q0 41 -26.5 67t-72.5 26q-67 0 -94 -50.5t-27 -154.5v-235q0 -199 8 -288q-25 5 -45 5t-45 -5q8 89 8 288z" />
    <glyph glyph-name="agrave" unicode="&#xe0;" horiz-adv-x="500" 
d="M86 373v52q77 58 161 58q72 0 117 -40.5t45 -107.5q0 -36 -2 -113t-2 -120q0 -17 0.5 -26.5t4 -22.5t12 -19t22.5 -6t21 4v-22q-33 -14 -64 -14t-48.5 17.5t-20.5 44.5q-38 -38 -73 -55.5t-84 -17.5q-53 0 -93 34t-40 89q0 114 141 137q74 12 104.5 20.5t38 18t7.5 31.5
q0 55 -27 90.5t-83 35.5q-40 0 -74.5 -18t-51.5 -50h-11zM329 97l4 150q-16 -5 -60 -13.5t-72 -16.5t-52.5 -32.5t-24.5 -62.5q0 -45 25.5 -70t61.5 -25t67.5 20t50.5 50zM277 559l-147 94q-36 23 -36 47q0 14 11 23t22 9q21 0 45 -24l147 -149h-42z" />
    <glyph glyph-name="aacute" unicode="&#xe1;" horiz-adv-x="500" 
d="M86 373v52q77 58 161 58q72 0 117 -40.5t45 -107.5q0 -36 -2 -113t-2 -120q0 -17 0.5 -26.5t4 -22.5t12 -19t22.5 -6t21 4v-22q-33 -14 -64 -14t-48.5 17.5t-20.5 44.5q-38 -38 -73 -55.5t-84 -17.5q-53 0 -93 34t-40 89q0 114 141 137q74 12 104.5 20.5t38 18t7.5 31.5
q0 55 -27 90.5t-83 35.5q-40 0 -74.5 -18t-51.5 -50h-11zM329 97l4 150q-16 -5 -60 -13.5t-72 -16.5t-52.5 -32.5t-24.5 -62.5q0 -45 25.5 -70t61.5 -25t67.5 20t50.5 50zM182 559l147 149q24 24 45 24q11 0 22 -9t11 -23q0 -24 -36 -47l-147 -94h-42z" />
    <glyph glyph-name="acircumflex" unicode="&#xe2;" horiz-adv-x="500" 
d="M86 373v52q77 58 161 58q72 0 117 -40.5t45 -107.5q0 -36 -2 -113t-2 -120q0 -17 0.5 -26.5t4 -22.5t12 -19t22.5 -6t21 4v-22q-33 -14 -64 -14t-48.5 17.5t-20.5 44.5q-38 -38 -73 -55.5t-84 -17.5q-53 0 -93 34t-40 89q0 114 141 137q74 12 104.5 20.5t38 18t7.5 31.5
q0 55 -27 90.5t-83 35.5q-40 0 -74.5 -18t-51.5 -50h-11zM329 97l4 150q-16 -5 -60 -13.5t-72 -16.5t-52.5 -32.5t-24.5 -62.5q0 -45 25.5 -70t61.5 -25t67.5 20t50.5 50zM370 559l-120 105l-119 -105h-37l123 167h67l123 -167h-37z" />
    <glyph glyph-name="atilde" unicode="&#xe3;" horiz-adv-x="500" 
d="M86 373v52q77 58 161 58q72 0 117 -40.5t45 -107.5q0 -36 -2 -113t-2 -120q0 -17 0.5 -26.5t4 -22.5t12 -19t22.5 -6t21 4v-22q-33 -14 -64 -14t-48.5 17.5t-20.5 44.5q-38 -38 -73 -55.5t-84 -17.5q-53 0 -93 34t-40 89q0 114 141 137q74 12 104.5 20.5t38 18t7.5 31.5
q0 55 -27 90.5t-83 35.5q-40 0 -74.5 -18t-51.5 -50h-11zM329 97l4 150q-16 -5 -60 -13.5t-72 -16.5t-52.5 -32.5t-24.5 -62.5q0 -45 25.5 -70t61.5 -25t67.5 20t50.5 50zM116 584h-30q7 41 33.5 72t70.5 31q26 0 73 -23t66 -23q42 0 57 50h29q-2 -15 -8.5 -31t-18 -34.5
t-33 -30t-49.5 -11.5q-30 0 -72 23t-65 23t-33.5 -9.5t-19.5 -36.5z" />
    <glyph glyph-name="adieresis" unicode="&#xe4;" horiz-adv-x="500" 
d="M86 373v52q77 58 161 58q72 0 117 -40.5t45 -107.5q0 -36 -2 -113t-2 -120q0 -17 0.5 -26.5t4 -22.5t12 -19t22.5 -6t21 4v-22q-33 -14 -64 -14t-48.5 17.5t-20.5 44.5q-38 -38 -73 -55.5t-84 -17.5q-53 0 -93 34t-40 89q0 114 141 137q74 12 104.5 20.5t38 18t7.5 31.5
q0 55 -27 90.5t-83 35.5q-40 0 -74.5 -18t-51.5 -50h-11zM329 97l4 150q-16 -5 -60 -13.5t-72 -16.5t-52.5 -32.5t-24.5 -62.5q0 -45 25.5 -70t61.5 -25t67.5 20t50.5 50zM298 637q0 21 15 36t36 15t36 -15t15 -36t-15 -36t-36 -15t-36 15t-15 36zM101 637q0 21 15 36t36 15
t36 -15t15 -36t-15 -36t-36 -15t-36 15t-15 36z" />
    <glyph glyph-name="aring" unicode="&#xe5;" horiz-adv-x="500" 
d="M86 373v52q77 58 161 58q72 0 117 -40.5t45 -107.5q0 -36 -2 -113t-2 -120q0 -17 0.5 -26.5t4 -22.5t12 -19t22.5 -6t21 4v-22q-33 -14 -64 -14t-48.5 17.5t-20.5 44.5q-38 -38 -73 -55.5t-84 -17.5q-53 0 -93 34t-40 89q0 114 141 137q74 12 104.5 20.5t38 18t7.5 31.5
q0 55 -27 90.5t-83 35.5q-40 0 -74.5 -18t-51.5 -50h-11zM329 97l4 150q-16 -5 -60 -13.5t-72 -16.5t-52.5 -32.5t-24.5 -62.5q0 -45 25.5 -70t61.5 -25t67.5 20t50.5 50zM148 645q0 42 30 72t73 30q42 0 72 -30t30 -72t-30 -72t-73 -30q-42 0 -72 30t-30 72zM190 645
q0 -25 17.5 -42.5t42.5 -17.5t43 17.5t18 42.5t-17.5 42.5t-42.5 17.5t-43 -17.5t-18 -42.5z" />
    <glyph glyph-name="ae" unicode="&#xe6;" horiz-adv-x="778" 
d="M117 122q0 -43 25.5 -69t68.5 -26t76.5 28t36.5 78q1 22 1.5 61.5t0.5 52.5q-16 -5 -60 -13.5t-72 -16.5t-52.5 -32.5t-24.5 -62.5zM79 373v52q77 58 161 58q97 0 150 -75q57 75 152 75q100 0 153.5 -58t53.5 -146q0 -13 -2 -39q-24 0 -67.5 1t-79 1.5t-67.5 0.5
q-20 0 -41.5 -0.5t-48 -1.5t-41.5 -1q-1 -10 -1 -28q0 -81 46 -133t127 -52q39 0 81 20t69 51l5 -3l-6 -49q-32 -26 -77.5 -43.5t-89.5 -17.5q-72 0 -126.5 31t-78.5 88q-44 -119 -183 -119q-53 0 -93 34t-40 89q0 114 141 137q74 12 104.5 20.5t38 18t7.5 31.5
q0 55 -27 90.5t-83 35.5q-40 0 -74.5 -18t-51.5 -50h-11zM544 451q-66 0 -100.5 -53.5t-39.5 -119.5q123 -3 130 -3t133 3q0 31 -5 58t-17 54.5t-38 44t-63 16.5z" />
    <glyph glyph-name="ccedilla" unicode="&#xe7;" horiz-adv-x="500" 
d="M180 -207l14 32q30 -12 72 -12q26 0 43 11t17 31q0 40 -51 40q-33 0 -43 -7l-7 7l35 92q-91 7 -154.5 68.5t-63.5 178.5q0 122 75 185.5t180 63.5q52 0 96.5 -13t64.5 -31q-15 -34 -22 -66h-8q-17 30 -51 54t-77 24q-87 0 -128.5 -59t-41.5 -157q0 -102 44.5 -155
t128.5 -53q39 0 81 20t69 51l5 -3q-4 -23 -6 -49q-29 -24 -71 -41t-84 -19l-21 -59q13 5 29 5q39 0 61 -19t22 -52q0 -40 -34 -62.5t-85 -22.5q-43 0 -89 17z" />
    <glyph glyph-name="egrave" unicode="&#xe8;" horiz-adv-x="500" 
d="M35 220q0 123 60 193t169 70q100 0 153.5 -58t53.5 -146q0 -13 -2 -39q-24 0 -67.5 1t-79 1.5t-67.5 0.5q-20 0 -41.5 -0.5t-48 -1.5t-41.5 -1q-1 -10 -1 -28q0 -81 46 -133t127 -52q39 0 81 20t69 51l5 -3l-6 -49q-32 -26 -77.5 -43.5t-89.5 -17.5q-107 0 -175 67
t-68 168zM266 451q-66 0 -100.5 -53.5t-39.5 -119.5q123 -3 130 -3t133 3q0 31 -5 58t-17 54.5t-38 44t-63 16.5zM293 559l-147 94q-36 23 -36 47q0 14 11 23t22 9q21 0 45 -24l147 -149h-42z" />
    <glyph glyph-name="eacute" unicode="&#xe9;" horiz-adv-x="500" 
d="M35 220q0 123 60 193t169 70q100 0 153.5 -58t53.5 -146q0 -13 -2 -39q-24 0 -67.5 1t-79 1.5t-67.5 0.5q-20 0 -41.5 -0.5t-48 -1.5t-41.5 -1q-1 -10 -1 -28q0 -81 46 -133t127 -52q39 0 81 20t69 51l5 -3l-6 -49q-32 -26 -77.5 -43.5t-89.5 -17.5q-107 0 -175 67
t-68 168zM266 451q-66 0 -100.5 -53.5t-39.5 -119.5q123 -3 130 -3t133 3q0 31 -5 58t-17 54.5t-38 44t-63 16.5zM198 559l147 149q24 24 45 24q11 0 22 -9t11 -23q0 -24 -36 -47l-147 -94h-42z" />
    <glyph glyph-name="ecircumflex" unicode="&#xea;" horiz-adv-x="500" 
d="M35 220q0 123 60 193t169 70q100 0 153.5 -58t53.5 -146q0 -13 -2 -39q-24 0 -67.5 1t-79 1.5t-67.5 0.5q-20 0 -41.5 -0.5t-48 -1.5t-41.5 -1q-1 -10 -1 -28q0 -81 46 -133t127 -52q39 0 81 20t69 51l5 -3l-6 -49q-32 -26 -77.5 -43.5t-89.5 -17.5q-107 0 -175 67
t-68 168zM266 451q-66 0 -100.5 -53.5t-39.5 -119.5q123 -3 130 -3t133 3q0 31 -5 58t-17 54.5t-38 44t-63 16.5zM386 559l-120 105l-119 -105h-37l123 167h67l123 -167h-37z" />
    <glyph glyph-name="edieresis" unicode="&#xeb;" horiz-adv-x="500" 
d="M35 220q0 123 60 193t169 70q100 0 153.5 -58t53.5 -146q0 -13 -2 -39q-24 0 -67.5 1t-79 1.5t-67.5 0.5q-20 0 -41.5 -0.5t-48 -1.5t-41.5 -1q-1 -10 -1 -28q0 -81 46 -133t127 -52q39 0 81 20t69 51l5 -3l-6 -49q-32 -26 -77.5 -43.5t-89.5 -17.5q-107 0 -175 67
t-68 168zM266 451q-66 0 -100.5 -53.5t-39.5 -119.5q123 -3 130 -3t133 3q0 31 -5 58t-17 54.5t-38 44t-63 16.5zM314 637q0 21 15 36t36 15t36 -15t15 -36t-15 -36t-36 -15t-36 15t-15 36zM117 637q0 21 15 36t36 15t36 -15t15 -36t-15 -36t-36 -15t-36 15t-15 36z" />
    <glyph glyph-name="igrave" unicode="&#xec;" horiz-adv-x="278" 
d="M102 182v104q0 111 -8 187q25 -5 45 -5t45 5q-8 -76 -8 -187v-104q0 -111 8 -187q-25 5 -45 5t-45 -5q8 76 8 187zM166 559l-147 94q-36 23 -36 47q0 14 11 23t22 9q21 0 45 -24l147 -149h-42z" />
    <glyph glyph-name="iacute" unicode="&#xed;" horiz-adv-x="278" 
d="M102 182v104q0 111 -8 187q25 -5 45 -5t45 5q-8 -76 -8 -187v-104q0 -111 8 -187q-25 5 -45 5t-45 -5q8 76 8 187zM71 559l147 149q24 24 45 24q11 0 22 -9t11 -23q0 -24 -36 -47l-147 -94h-42z" />
    <glyph glyph-name="icircumflex" unicode="&#xee;" horiz-adv-x="278" 
d="M102 182v104q0 111 -8 187q25 -5 45 -5t45 5q-8 -76 -8 -187v-104q0 -111 8 -187q-25 5 -45 5t-45 -5q8 76 8 187zM259 559l-120 105l-119 -105h-37l123 167h67l123 -167h-37z" />
    <glyph glyph-name="idieresis" unicode="&#xef;" horiz-adv-x="278" 
d="M102 182v104q0 111 -8 187q25 -5 45 -5t45 5q-8 -76 -8 -187v-104q0 -111 8 -187q-25 5 -45 5t-45 -5q8 76 8 187zM187 637q0 21 15 36t36 15t36 -15t15 -36t-15 -36t-36 -15t-36 15t-15 36zM-10 637q0 21 15 36t36 15t36 -15t15 -36t-15 -36t-36 -15t-36 15t-15 36z" />
    <glyph glyph-name="eth" unicode="&#xf0;" 
d="M433 234q0 95 -36.5 156t-118.5 61t-118.5 -61t-36.5 -156t36.5 -156t118.5 -61t118.5 61t36.5 156zM35 234q0 65 21.5 115t57 78t77 42t87.5 14q30 0 49 -7l2 2q-77 84 -128 131q-41 -13 -130 -45q-9 18 -21 36q53 13 125 35q-60 55 -122 102l70 18q66 -47 128 -97
q70 21 126 44q8 -19 21 -35q-59 -14 -119 -33q127 -107 184.5 -202.5t57.5 -197.5q0 -65 -21.5 -115t-57 -78t-77 -42t-87.5 -14t-87.5 14t-77 42t-57 78t-21.5 115z" />
    <glyph glyph-name="ntilde" unicode="&#xf1;" 
d="M402 279q0 72 -29.5 112t-79.5 40q-135 0 -135 -164v-85q0 -111 8 -187q-25 5 -45 5t-45 -5q8 76 8 187v104q0 111 -8 187q25 -5 45 -5q15 0 40 5q-3 -41 -3 -80h2q58 90 160 90q66 0 113 -40t47 -134q0 -27 -2 -88.5t-2 -96.5q0 -86 2 -129q-25 5 -42 5q-18 0 -41 -5
q0 16 3.5 97t3.5 126v61zM144 584h-30q7 41 33.5 72t70.5 31q26 0 73 -23t66 -23q42 0 57 50h29q-2 -15 -8.5 -31t-18 -34.5t-33 -30t-49.5 -11.5q-30 0 -72 23t-65 23t-33.5 -9.5t-19.5 -36.5z" />
    <glyph glyph-name="ograve" unicode="&#xf2;" 
d="M35 234q0 65 21.5 115t57 78t77 42t87.5 14t87.5 -14t77 -42t57 -78t21.5 -115t-21.5 -115t-57 -78t-77 -42t-87.5 -14t-87.5 14t-77 42t-57 78t-21.5 115zM123 234q0 -95 36.5 -156t118.5 -61t118.5 61t36.5 156t-36.5 156t-118.5 61t-118.5 -61t-36.5 -156zM305 559
l-147 94q-36 23 -36 47q0 14 11 23t22 9q21 0 45 -24l147 -149h-42z" />
    <glyph glyph-name="oacute" unicode="&#xf3;" 
d="M35 234q0 65 21.5 115t57 78t77 42t87.5 14t87.5 -14t77 -42t57 -78t21.5 -115t-21.5 -115t-57 -78t-77 -42t-87.5 -14t-87.5 14t-77 42t-57 78t-21.5 115zM123 234q0 -95 36.5 -156t118.5 -61t118.5 61t36.5 156t-36.5 156t-118.5 61t-118.5 -61t-36.5 -156zM210 559
l147 149q24 24 45 24q11 0 22 -9t11 -23q0 -24 -36 -47l-147 -94h-42z" />
    <glyph glyph-name="ocircumflex" unicode="&#xf4;" 
d="M35 234q0 65 21.5 115t57 78t77 42t87.5 14t87.5 -14t77 -42t57 -78t21.5 -115t-21.5 -115t-57 -78t-77 -42t-87.5 -14t-87.5 14t-77 42t-57 78t-21.5 115zM123 234q0 -95 36.5 -156t118.5 -61t118.5 61t36.5 156t-36.5 156t-118.5 61t-118.5 -61t-36.5 -156zM398 559
l-120 105l-119 -105h-37l123 167h67l123 -167h-37z" />
    <glyph glyph-name="otilde" unicode="&#xf5;" 
d="M35 234q0 65 21.5 115t57 78t77 42t87.5 14t87.5 -14t77 -42t57 -78t21.5 -115t-21.5 -115t-57 -78t-77 -42t-87.5 -14t-87.5 14t-77 42t-57 78t-21.5 115zM123 234q0 -95 36.5 -156t118.5 -61t118.5 61t36.5 156t-36.5 156t-118.5 61t-118.5 -61t-36.5 -156zM144 584
h-30q7 41 33.5 72t70.5 31q26 0 73 -23t66 -23q42 0 57 50h29q-2 -15 -8.5 -31t-18 -34.5t-33 -30t-49.5 -11.5q-30 0 -72 23t-65 23t-33.5 -9.5t-19.5 -36.5z" />
    <glyph glyph-name="odieresis" unicode="&#xf6;" 
d="M35 234q0 65 21.5 115t57 78t77 42t87.5 14t87.5 -14t77 -42t57 -78t21.5 -115t-21.5 -115t-57 -78t-77 -42t-87.5 -14t-87.5 14t-77 42t-57 78t-21.5 115zM123 234q0 -95 36.5 -156t118.5 -61t118.5 61t36.5 156t-36.5 156t-118.5 61t-118.5 -61t-36.5 -156zM326 637
q0 21 15 36t36 15t36 -15t15 -36t-15 -36t-36 -15t-36 15t-15 36zM129 637q0 21 15 36t36 15t36 -15t15 -36t-15 -36t-36 -15t-36 15t-15 36z" />
    <glyph glyph-name="divide" unicode="&#xf7;" horiz-adv-x="606" 
d="M50 227v52h506v-52h-506zM246 449q0 23 17 40t40 17t40 -17t17 -40t-17 -40t-40 -17t-40 17t-17 40zM246 57q0 23 17 40t40 17t40 -17t17 -40t-17 -40t-40 -17t-40 17t-17 40z" />
    <glyph glyph-name="oslash" unicode="&#xf8;" 
d="M408 368l-252 -285q40 -66 122 -66t118.5 61t36.5 156q0 83 -25 134zM35 234q0 65 21.5 115t57 78t77 42t87.5 14q90 0 155 -48q59 63 70 82q10 -15 25 -22q-22 -17 -75 -77q68 -70 68 -184q0 -65 -21.5 -115t-57 -78t-77 -42t-87.5 -14q-95 0 -161 53l-75 -85
q-10 15 -25 21q31 28 78 84q-60 68 -60 176zM143 110l252 281q-37 60 -117 60q-82 0 -118.5 -61t-36.5 -156q0 -73 20 -124z" />
    <glyph glyph-name="ugrave" unicode="&#xf9;" 
d="M76 149q0 38 1.5 90.5t1.5 74.5q0 47 -2 159q23 -5 42 -5q18 0 41 5q-10 -130 -10 -278q0 -86 31 -121q33 -37 86 -37q81 0 111 64q15 32 18 61.5t3 146.5q0 116 -2 164q23 -5 42 -5t41 5q-7 -121 -7 -304q0 -99 4 -174q-22 5 -39 5t-39 -5q2 29 2 86h-2
q-25 -46 -66.5 -71t-89.5 -25q-78 0 -122.5 43t-44.5 121zM305 559l-147 94q-36 23 -36 47q0 14 11 23t22 9q21 0 45 -24l147 -149h-42z" />
    <glyph glyph-name="uacute" unicode="&#xfa;" 
d="M76 149q0 38 1.5 90.5t1.5 74.5q0 47 -2 159q23 -5 42 -5q18 0 41 5q-10 -130 -10 -278q0 -86 31 -121q33 -37 86 -37q81 0 111 64q15 32 18 61.5t3 146.5q0 116 -2 164q23 -5 42 -5t41 5q-7 -121 -7 -304q0 -99 4 -174q-22 5 -39 5t-39 -5q2 29 2 86h-2
q-25 -46 -66.5 -71t-89.5 -25q-78 0 -122.5 43t-44.5 121zM210 559l147 149q24 24 45 24q11 0 22 -9t11 -23q0 -24 -36 -47l-147 -94h-42z" />
    <glyph glyph-name="ucircumflex" unicode="&#xfb;" 
d="M76 149q0 38 1.5 90.5t1.5 74.5q0 47 -2 159q23 -5 42 -5q18 0 41 5q-10 -130 -10 -278q0 -86 31 -121q33 -37 86 -37q81 0 111 64q15 32 18 61.5t3 146.5q0 116 -2 164q23 -5 42 -5t41 5q-7 -121 -7 -304q0 -99 4 -174q-22 5 -39 5t-39 -5q2 29 2 86h-2
q-25 -46 -66.5 -71t-89.5 -25q-78 0 -122.5 43t-44.5 121zM398 559l-120 105l-119 -105h-37l123 167h67l123 -167h-37z" />
    <glyph glyph-name="udieresis" unicode="&#xfc;" 
d="M76 149q0 38 1.5 90.5t1.5 74.5q0 47 -2 159q23 -5 42 -5q18 0 41 5q-10 -130 -10 -278q0 -86 31 -121q33 -37 86 -37q81 0 111 64q15 32 18 61.5t3 146.5q0 116 -2 164q23 -5 42 -5t41 5q-7 -121 -7 -304q0 -99 4 -174q-22 5 -39 5t-39 -5q2 29 2 86h-2
q-25 -46 -66.5 -71t-89.5 -25q-78 0 -122.5 43t-44.5 121zM326 637q0 21 15 36t36 15t36 -15t15 -36t-15 -36t-36 -15t-36 15t-15 36zM129 637q0 21 15 36t36 15t36 -15t15 -36t-15 -36t-36 -15t-36 15t-15 36z" />
    <glyph glyph-name="yacute" unicode="&#xfd;" horiz-adv-x="500" 
d="M222 -6q-81 211 -200 479q25 -5 46 -5t46 5q36 -111 149 -384q81 169 149 384q18 -5 33 -5t33 5q-46 -93 -170.5 -373t-151.5 -368q-18 5 -34 5t-34 -5q75 123 134 262zM182 559l147 149q24 24 45 24q11 0 22 -9t11 -23q0 -24 -36 -47l-147 -94h-42z" />
    <glyph glyph-name="thorn" unicode="&#xfe;" 
d="M65 20v444q0 199 -8 288q25 -5 45 -5t45 5q-8 -89 -8 -288v-89h2q20 43 61 75.5t108 32.5q84 0 144 -62.5t60 -183.5q0 -120 -65 -186t-151 -66q-109 0 -157 98h-2v-63q0 -199 8 -288q-25 5 -45 5t-45 -5q8 89 8 288zM426 238q0 109 -40 156t-98 47q-76 0 -112.5 -58.5
t-36.5 -152.5q0 -102 37.5 -155t108.5 -53q69 0 105 60t36 156z" />
    <glyph glyph-name="ydieresis" unicode="&#xff;" horiz-adv-x="500" 
d="M222 -6q-81 211 -200 479q25 -5 46 -5t46 5q36 -111 149 -384q81 169 149 384q18 -5 33 -5t33 5q-46 -93 -170.5 -373t-151.5 -368q-18 5 -34 5t-34 -5q75 123 134 262zM298 637q0 21 15 36t36 15t36 -15t15 -36t-15 -36t-36 -15t-36 15t-15 36zM101 637q0 21 15 36
t36 15t36 -15t15 -36t-15 -36t-36 -15t-36 15t-15 36z" />
    <glyph glyph-name="dotlessi" unicode="&#x131;" horiz-adv-x="278" 
d="M102 182v104q0 111 -8 187q25 -5 45 -5t45 5q-8 -76 -8 -187v-104q0 -111 8 -187q-25 5 -45 5t-45 -5q8 76 8 187z" />
    <glyph glyph-name="Lslash" unicode="&#x141;" horiz-adv-x="500" 
d="M98 337v89q0 87 -8 259q28 -5 49 -5t49 5q-8 -172 -8 -259v-39q38 22 104 66q8 -20 19 -36q-29 -15 -123 -69v-90q0 -45 3 -216q176 0 276 13q-5 -17 -5 -30t5 -30q-102 5 -184 5t-185 -5q8 172 8 259v43q-61 -36 -81 -54q-8 18 -22 37z" />
    <glyph glyph-name="lslash" unicode="&#x142;" horiz-adv-x="278" 
d="M102 283v44l-71 -46q-10 20 -19 29l90 55v99q0 199 -8 288q25 -5 45 -5t45 5q-8 -89 -8 -288v-51l72 48q0 -15 18 -31q-3 -2 -33.5 -19.5t-56.5 -34.5v-93q0 -199 8 -288q-25 5 -45 5t-45 -5q8 89 8 288z" />
    <glyph glyph-name="OE" unicode="&#x152;" horiz-adv-x="1000" 
d="M735 339v-101q0 -34 5 -196q177 0 247 11q-5 -17 -5 -29t5 -29q-93 5 -168 5q-74 0 -171 -5q5 55 5 98l-2 2q-101 -113 -265 -113q-147 0 -245.5 94.5t-98.5 251.5q0 175 100.5 272.5t260.5 97.5q171 0 253 -111l2 2q0 32 -4 96q93 -5 164 -5q72 0 162 5q-5 -17 -5 -31
t5 -31q-75 15 -240 15q-5 -145 -5 -175v-82q141 0 225 7q-5 -15 -5 -28t5 -28q-86 7 -225 7zM140 340q0 -158 74 -239.5t187 -81.5q119 0 189.5 88t70.5 233q0 167 -67.5 244t-181.5 77q-121 0 -196.5 -81t-75.5 -240z" />
    <glyph glyph-name="oe" unicode="&#x153;" horiz-adv-x="889" 
d="M434 234q0 61 -13.5 107t-49.5 78t-93 32q-82 0 -118.5 -61t-36.5 -156t36.5 -156t118.5 -61q57 0 93 32t49.5 78t13.5 107zM653 483q100 0 153.5 -58t53.5 -146q0 -13 -2 -39q-24 0 -67.5 1t-79 1.5t-67.5 0.5q-20 0 -41.5 -0.5t-48 -1.5t-41.5 -1q-1 -10 -1 -28
q0 -81 46 -133t127 -52q39 0 81 20t69 51l5 -3l-6 -49q-32 -26 -77.5 -43.5t-89.5 -17.5q-124 0 -194 89q-65 -89 -195 -89q-46 0 -87.5 14t-77 42t-57 78t-21.5 115t21.5 115t57 78t77 42t87.5 14q129 0 193 -87q59 87 182 87zM655 451q-66 0 -100.5 -53.5t-39.5 -119.5
q123 -3 130 -3t133 3q0 31 -5 58t-17 54.5t-38 44t-63 16.5z" />
    <glyph glyph-name="Scaron" unicode="&#x160;" horiz-adv-x="500" 
d="M64 128h12q20 -42 59.5 -73t98.5 -31q65 0 104 41.5t39 103.5q0 37 -17.5 64t-45 43t-61 29.5t-67.5 29t-61.5 36t-45 55.5t-17.5 83q0 84 59 136.5t158 52.5q89 0 148 -47q-16 -30 -27 -84h-12q-36 94 -119 94q-56 0 -92.5 -34.5t-36.5 -89.5q0 -38 17.5 -65.5t45 -43.5
t61.5 -29.5l67.5 -28t61 -33.5t45 -52t17.5 -78q0 -95 -66.5 -160t-178.5 -65q-94 0 -165 57q13 34 19 89zM261 793l119 105h37l-123 -167h-67l-123 167h37z" />
    <glyph glyph-name="scaron" unicode="&#x161;" horiz-adv-x="389" 
d="M59 91h12q13 -25 44 -47t69 -22q40 0 68.5 24t28.5 66q0 34 -24.5 53.5t-59 29.5t-69 21.5t-59 40t-24.5 75.5q0 67 44 109t122 42q22 0 40.5 -4t42.5 -13.5t28 -10.5q-19 -33 -24 -71h-12q-8 26 -32 44t-56 18q-33 0 -59 -21.5t-26 -62.5q0 -36 24.5 -56t59 -29.5
t69 -20.5t59 -38.5t24.5 -74.5q0 -61 -50.5 -109.5t-129.5 -48.5q-71 0 -129 33q19 40 19 73zM195 621l119 105h37l-123 -167h-67l-123 167h37z" />
    <glyph glyph-name="Ydieresis" unicode="&#x178;" horiz-adv-x="611" 
d="M265 279q-184 318 -243 406q30 -5 55 -5t55 5q76 -149 190 -346q97 152 189 346q22 -5 39 -5t39 5q-186 -286 -242 -395q0 -196 8 -295q-28 5 -49 5t-49 -5q8 71 8 284zM363 809q0 21 15 36t36 15t36 -15t15 -36t-15 -36t-36 -15t-36 15t-15 36zM166 809q0 21 15 36
t36 15t36 -15t15 -36t-15 -36t-36 -15t-36 15t-15 36z" />
    <glyph glyph-name="Zcaron" unicode="&#x17d;" horiz-adv-x="611" 
d="M23 -5v17l245 347l188 277q-48 2 -70 2q-179 0 -322 -15q5 17 5 31t-5 31q66 -4 156 -4q70 -1 261 -1q22 0 107 5v-18q-54 -60 -221.5 -300.5t-215.5 -321.5q48 -3 83 -3q214 0 354 18q-5 -20 -5 -33q0 -14 5 -32q-160 5 -235 5q-247 0 -330 -5zM306 793l119 105h37
l-123 -167h-67l-123 167h37z" />
    <glyph glyph-name="zcaron" unicode="&#x17e;" horiz-adv-x="500" 
d="M34 -5v14q85 103 322 422q-19 0 -119.5 -5t-151.5 -10q3 14 3 28q0 12 -3 29q53 -5 250 -5q79 0 131 5v-15q-240 -311 -318 -421q162 0 313 14q-4 -18 -4 -28t4 -28q-207 5 -250 5q-30 0 -177 -5zM251 621l119 105h37l-123 -167h-67l-123 167h37z" />
    <glyph glyph-name="florin" unicode="&#x192;" 
d="M48 -119l7 3q29 -16 45 -16q37 0 52.5 28t26.5 92l63 371q-80 0 -107 -2q9 27 9 44q57 -5 105 -5l12 51q21 88 69.5 156.5t119.5 68.5q20 0 33 -5q-11 -37 -11 -82l-12 -4q-21 29 -52 29q-24 0 -39 -15t-22 -56l-24 -143q25 0 65.5 2.5t45.5 2.5q-10 -24 -10 -44
q-28 2 -108 2l-39 -219q-19 -107 -46.5 -178t-61.5 -104t-65 -44.5t-70 -11.5q14 47 14 79z" />
    <glyph glyph-name="circumflex" unicode="&#x2c6;" horiz-adv-x="333" 
d="M286 559l-120 105l-119 -105h-37l123 167h67l123 -167h-37z" />
    <glyph glyph-name="caron" unicode="&#x2c7;" horiz-adv-x="333" 
d="M167 621l119 105h37l-123 -167h-67l-123 167h37z" />
    <glyph glyph-name="uni02C9" unicode="&#x2c9;" horiz-adv-x="333" 
d="M30 604v52h273v-52h-273z" />
    <glyph glyph-name="breve" unicode="&#x2d8;" horiz-adv-x="333" 
d="M26 717h32q17 -96 108 -96q49 0 72 23t37 73h32q0 -67 -36.5 -112.5t-103.5 -45.5t-104 45t-37 113z" />
    <glyph glyph-name="dotaccent" unicode="&#x2d9;" horiz-adv-x="333" 
d="M116 634q0 21 15 36t36 15t36 -15t15 -36t-15 -36t-36 -15t-36 15t-15 36z" />
    <glyph glyph-name="ring" unicode="&#x2da;" horiz-adv-x="333" 
d="M64 645q0 42 30 72t73 30q42 0 72 -30t30 -72t-30 -72t-73 -30q-42 0 -72 30t-30 72zM106 645q0 -25 17.5 -42.5t42.5 -17.5t43 17.5t18 42.5t-17.5 42.5t-42.5 17.5t-43 -17.5t-18 -42.5z" />
    <glyph glyph-name="ogonek" unicode="&#x2db;" horiz-adv-x="333" 
d="M225 0h40q-54 -49 -72 -76.5t-18 -51.5q0 -30 20 -44.5t48 -14.5q13 0 31 6l11 -33q-21 -10 -58 -10q-47 0 -80.5 22.5t-33.5 62.5q0 56 112 139z" />
    <glyph glyph-name="tilde" unicode="&#x2dc;" horiz-adv-x="333" 
d="M32 584h-30q7 41 33.5 72t70.5 31q26 0 73 -23t66 -23q42 0 57 50h29q-2 -15 -8.5 -31t-18 -34.5t-33 -30t-49.5 -11.5q-30 0 -72 23t-65 23t-33.5 -9.5t-19.5 -36.5z" />
    <glyph glyph-name="hungarumlaut" unicode="&#x2dd;" horiz-adv-x="333" 
d="M-3 559l147 149q24 24 45 24q11 0 22 -9t11 -23q0 -24 -36 -47l-147 -94h-42zM197 559l147 149q24 24 45 24q11 0 22 -9t11 -23q0 -24 -36 -47l-147 -94h-42z" />
    <glyph glyph-name="uni03A9" unicode="&#x3a9;" horiz-adv-x="728" 
d="M693 131l-25 -131h-230l-6 18l29.5 47.5t39 65.5t31.5 65t27.5 83t8.5 83q-1 146 -60 214.5t-145 68.5q-91 0 -147.5 -70t-56.5 -218q0 -23 2.5 -45t9 -45t10.5 -40t16 -41.5t17 -36t20.5 -37t19 -32t21 -33.5t18.5 -29l-8 -18h-228l-23 131l22 2q15 -48 30 -62t46 -14
h108q-32 28 -53.5 50.5t-51 62t-45.5 89t-16 105.5q0 139 83 224t208 85q127 0 206.5 -81t79.5 -220q0 -49 -15 -96t-42.5 -88t-52 -69.5t-58.5 -61.5h112q32 0 45.5 13t28.5 63z" />
    <glyph glyph-name="uni03BC" unicode="&#x3bc;" 
d="M242 -15q-61 0 -92 30q0 -191 10 -283q-23 5 -42 5t-42 -5q0 40 2 146.5t2 179.5q0 95 -1.5 229t-1.5 186q23 -5 42 -5q18 0 41 5q-10 -130 -10 -278q0 -86 31 -121q33 -37 86 -37q81 0 111 64q15 32 18 61.5t3 146.5q0 116 -2 164q23 -5 42 -5t41 5q-7 -121 -7 -304
q0 -99 4 -174q-22 5 -39 5t-39 -5q2 29 2 86h-2q-25 -46 -66.5 -71t-90.5 -25z" />
    <glyph glyph-name="pi" unicode="&#x3c0;" horiz-adv-x="553" 
d="M502 457l22 -9q-11 -48 -34 -79q-16 -4 -69 -4q-7 -63 -4 -237q0 -89 44 -89q25 0 51 32l13 -19q-35 -63 -98 -63q-40 0 -61 26.5t-21 94.5q0 103 10 257q-120 2 -165 2v-20q0 -100 -14 -182t-27.5 -116.5t-23.5 -45.5q-31 -14 -55 -16l-5 15q49 58 70 163.5t21 202.5
q-32 0 -56.5 -7t-36.5 -14.5t-35 -25.5l-13 19q36 42 55 55q44 31 108 30q32 0 123 -1.5t142 -1.5q23 0 35 6.5t24 26.5z" />
    <glyph glyph-name="endash" unicode="&#x2013;" horiz-adv-x="500" 
d="M0 207v47h500v-47h-500z" />
    <glyph glyph-name="emdash" unicode="&#x2014;" horiz-adv-x="1000" 
d="M0 207v47h1000v-47h-1000z" />
    <glyph glyph-name="quoteleft" unicode="&#x2018;" horiz-adv-x="278" 
d="M228 691l-77 -243q-11 -38 -44 -38q-14 0 -25.5 8.5t-11.5 25.5q0 14 15 42l125 212z" />
    <glyph glyph-name="quoteright" unicode="&#x2019;" horiz-adv-x="278" 
d="M50 417l77 243q11 38 44 38q14 0 25.5 -8.5t11.5 -25.5q0 -14 -15 -42l-125 -212z" />
    <glyph glyph-name="quotesinglbase" unicode="&#x201a;" horiz-adv-x="278" 
d="M30 -168l77 243q11 38 44 38q14 0 25.5 -8.5t11.5 -25.5q0 -14 -15 -42l-125 -212z" />
    <glyph glyph-name="quotedblleft" unicode="&#x201c;" horiz-adv-x="444" 
d="M394 691l-77 -243q-11 -38 -44 -38q-14 0 -25.5 8.5t-11.5 25.5q0 14 15 42l125 212zM222 691l-77 -243q-11 -38 -44 -38q-14 0 -25.5 8.5t-11.5 25.5q0 14 15 42l125 212z" />
    <glyph glyph-name="quotedblright" unicode="&#x201d;" horiz-adv-x="444" 
d="M222 417l77 243q11 38 44 38q14 0 25.5 -8.5t11.5 -25.5q0 -14 -15 -42l-125 -212zM50 417l77 243q11 38 44 38q14 0 25.5 -8.5t11.5 -25.5q0 -14 -15 -42l-125 -212z" />
    <glyph glyph-name="quotedblbase" unicode="&#x201e;" horiz-adv-x="444" 
d="M222 -168l77 243q11 38 44 38q14 0 25.5 -8.5t11.5 -25.5q0 -14 -15 -42l-125 -212zM50 -168l77 243q11 38 44 38q14 0 25.5 -8.5t11.5 -25.5q0 -14 -15 -42l-125 -212z" />
    <glyph glyph-name="dagger" unicode="&#x2020;" horiz-adv-x="500" 
d="M216 449q0 194 -8 236q23 -5 42 -5t42 5q-8 -42 -8 -236q116 0 174 8q-5 -20 -5 -37q0 -16 5 -36q-58 8 -174 8q0 -45 8 -397q-23 5 -42 5t-42 -5q8 352 8 397q-116 0 -174 -8q5 20 5 36q0 17 -5 37q58 -8 174 -8z" />
    <glyph glyph-name="daggerdbl" unicode="&#x2021;" horiz-adv-x="500" 
d="M219 340q0 17 -1 50.5t-1 50.5q-117 0 -175 -8q5 20 5 36q0 17 -5 37q58 -8 174 -8q0 91 -8 187q23 -5 42 -5t42 5q-8 -96 -8 -187q116 0 174 8q-5 -20 -5 -37q0 -16 5 -36q-58 8 -175 8q0 -17 -1 -50.5t-1 -50.5t1 -50.5t1 -50.5q117 0 175 8q-5 -20 -5 -37q0 -16 5 -36
q-58 8 -174 8q0 -91 8 -187q-23 5 -42 5t-42 -5q8 96 8 187q-116 0 -174 -8q5 20 5 36q0 17 -5 37q58 -8 175 -8q0 17 1 50.5t1 50.5z" />
    <glyph glyph-name="bullet" unicode="&#x2022;" horiz-adv-x="606" 
d="M133 340q0 70 49.5 120t120.5 50t120.5 -50t49.5 -120t-49.5 -120t-120.5 -50t-120.5 50t-49.5 120z" />
    <glyph glyph-name="ellipsis" unicode="&#x2026;" horiz-adv-x="1000" 
d="M110 45q0 23 17 40t40 17t40 -17t17 -40t-17 -40t-40 -17t-40 17t-17 40zM443 45q0 23 17 40t40 17t40 -17t17 -40t-17 -40t-40 -17t-40 17t-17 40zM776 45q0 23 17 40t40 17t40 -17t17 -40t-17 -40t-40 -17t-40 17t-17 40z" />
    <glyph glyph-name="perthousand" unicode="&#x2030;" horiz-adv-x="1000" 
d="M363 144q0 84 42 122t98 38t98 -38t42 -122t-42 -122t-98 -38t-98 38t-42 122zM431 144q0 -136 72 -136t72 136t-72 136t-72 -136zM687 144q0 84 42 122t98 38t98 -38t42 -122t-42 -122t-98 -38t-98 38t-42 122zM755 144q0 -136 72 -136t72 136t-72 136t-72 -136zM33 512
q0 84 42 122t98 38t98 -38t42 -122t-42 -122t-98 -38t-98 38t-42 122zM101 512q0 -136 72 -136t72 136t-72 136t-72 -136zM121 -39l388 734q13 -5 24 -5q10 0 23 5l-388 -734q-13 5 -23 5q-11 0 -24 -5z" />
    <glyph glyph-name="guilsinglleft" unicode="&#x2039;" horiz-adv-x="333" 
d="M85 232l126 187q13 -24 37 -27l-111 -159l106 -166q-29 -4 -38 -26z" />
    <glyph glyph-name="guilsinglright" unicode="&#x203a;" horiz-adv-x="333" 
d="M196 231l-106 166q29 4 38 26l120 -191l-126 -187q-13 24 -37 27z" />
    <glyph glyph-name="fraction" unicode="&#x2044;" horiz-adv-x="167" 
d="M-78 -28l277 712q13 -5 23 -5t23 5l-277 -712q-13 5 -23 5t-23 -5z" />
    <glyph glyph-name="Euro" unicode="&#x20ac;" 
d="M548 622q-13 -34 -23 -79l-15 -1q-22 40 -62 63.5t-78 23.5q-67 0 -115.5 -57t-63.5 -167h166q76 0 107 6q-7 -15 -16 -57q-34 6 -97 6h-164q-2 -34 -2 -54v-8h142q76 0 107 6q-7 -15 -16 -57q-34 6 -97 6h-133q11 -103 61.5 -162.5t119.5 -59.5q84 0 155 77l8 -12
q-6 -29 -9 -58q-24 -21 -73.5 -36t-95.5 -15q-103 0 -172.5 70.5t-85.5 195.5q-52 -2 -74 -6q10 26 15 57q16 -3 55 -5v20q0 15 2 41q-50 -2 -72 -6q10 26 15 57q17 -3 63 -5q23 116 98 191t175 75q93 0 175 -50z" />
    <glyph glyph-name="afii61289" unicode="&#x2113;" horiz-adv-x="394" 
d="M359 105l17 -15q-57 -104 -157 -104q-62 0 -96 37q-33 42 -33 140v82l-61 -46l-11 21l72 58v121q0 125 9.5 176.5t41.5 86.5q35 42 79 42q40 0 62 -36.5t22 -89.5q0 -80 -38 -149.5t-107 -139.5v-90q0 -92 23 -128.5t68 -36.5q61 0 109 71zM159 458v-128q45 53 72 118.5
t27 127.5q0 43 -12.5 71t-35.5 28q-28 0 -39.5 -49.5t-11.5 -167.5z" />
    <glyph glyph-name="trademark" unicode="&#x2122;" horiz-adv-x="950" 
d="M599 370l51 90l127 231h8l12 -127q13 -127 37 -289q-15 5 -28 5q-12 0 -29 -5q-4 114 -15 199l-14 108h-2l-42 -76q-73 -128 -113 -224h-8q-13 30 -30 62.5l-41 77t-34 64.5l-48 91h-2l-13 -111q-13 -101 -14 -191q-13 5 -23 5q-11 0 -24 -5q19 93 44 272l19 144h10
q50 -108 118 -229l52 -92h2zM159 504v149q-57 0 -129 -5q5 10 5 19q0 8 -5 18q87 -5 155 -5t155 5q-5 -10 -5 -18q0 -9 5 -19q-72 5 -129 5v-141q0 -40 5 -237q-17 5 -31 5t-31 -5q5 133 5 229z" />
    <glyph glyph-name="Omega" unicode="&#x2126;" horiz-adv-x="728" 
d="M693 131l-25 -131h-230l-6 18l29.5 47.5t39 65.5t31.5 65t27.5 83t8.5 83q-1 146 -60 214.5t-145 68.5q-91 0 -147.5 -70t-56.5 -218q0 -23 2.5 -45t9 -45t10.5 -40t16 -41.5t17 -36t20.5 -37t19 -32t21 -33.5t18.5 -29l-8 -18h-228l-23 131l22 2q15 -48 30 -62t46 -14
h108q-32 28 -53.5 50.5t-51 62t-45.5 89t-16 105.5q0 139 83 224t208 85q127 0 206.5 -81t79.5 -220q0 -49 -15 -96t-42.5 -88t-52 -69.5t-58.5 -61.5h112q32 0 45.5 13t28.5 63z" />
    <glyph glyph-name="estimated" unicode="&#x212e;" horiz-adv-x="828" 
d="M795 318h-618q-5 0 -5 -4v-187q0 -11 8 -22q98 -101 234 -101q147 0 246 114h55q-52 -62 -131.5 -97.5t-170.5 -35.5q-158 0 -269.5 100t-111.5 242t111.5 242.5t269.5 100.5t270 -100.5t112 -242.5v-9zM655 342v188q0 14 -9 23q-99 97 -232 97q-135 0 -233 -100
q-9 -10 -9 -24v-184q0 -6 5 -6h474q4 0 4 6z" />
    <glyph glyph-name="partialdiff" unicode="&#x2202;" horiz-adv-x="518" 
d="M257 413h1q38 0 77 -19t63 -54q6 64 7 101q2 83 -27 156q-17 39 -54.5 70t-81.5 31q-68 0 -134 -55q-12 -2 -23 18.5t-4 35.5q61 41 138 41q126 0 200 -136q47 -88 47 -222q0 -147 -46 -246q-69 -148 -197 -148q-82 0 -131 53t-49 143q0 94 58 159q27 32 69 52t87 20z
M277 377h-1q-71 0 -114 -57q-45 -64 -45 -171q0 -57 28.5 -96t75.5 -39q73 0 121 101q32 68 49 186q-12 26 -44 51t-70 25z" />
    <glyph glyph-name="Delta" unicode="&#x2206;" horiz-adv-x="623" 
d="M587 0h-553v21l257 641l33 10l263 -651v-21zM496 41l-209 526l-204 -526h413z" />
    <glyph glyph-name="product" unicode="&#x220f;" horiz-adv-x="668" 
d="M640 665v-23q-63 -4 -76.5 -13.5t-13.5 -47.5v-570q0 -44 13.5 -55.5t73.5 -15.5v-23h-243v23q60 4 72.5 14.5t12.5 56.5v593q0 20 -6 25.5t-28 5.5h-225q-21 0 -26.5 -4.5t-5.5 -22.5v-597q0 -45 10.5 -55.5t67.5 -15.5v-23h-236v23q59 5 72.5 15.5t13.5 55.5v570
q0 38 -13 47t-76 14v23h613z" />
    <glyph glyph-name="summation" unicode="&#x2211;" horiz-adv-x="544" 
d="M519 90l-41 -175h-450v20l223 341l-217 367v22h444q1 -17 12 -154l-24 -5q-11 68 -32 101q-10 17 -29 23t-73 6h-206l190 -315l-221 -343h264q65 0 86 17t50 101z" />
    <glyph glyph-name="minus" unicode="&#x2212;" horiz-adv-x="606" 
d="M50 227v52h506v-52h-506z" />
    <glyph glyph-name="uni2215" unicode="&#x2215;" horiz-adv-x="167" 
d="M-78 -28l277 712q13 -5 23 -5t23 5l-277 -712q-13 5 -23 5t-23 -5z" />
    <glyph glyph-name="uni2219" unicode="&#x2219;" horiz-adv-x="278" 
d="M79 306q0 25 17.5 42.5t42.5 17.5t42.5 -17.5t17.5 -42.5t-17.5 -42.5t-42.5 -17.5t-42.5 17.5t-17.5 42.5z" />
    <glyph glyph-name="radical" unicode="&#x221a;" horiz-adv-x="538" 
d="M519 856l-161 -992l-17 -11l-216 533l-85 -43l-11 29l144 70l174 -439h2l135 862z" />
    <glyph glyph-name="infinity" unicode="&#x221e;" horiz-adv-x="737" 
d="M688 275v-1q0 -67 -43 -109t-102 -42q-43 0 -83 26.5t-91 85.5q-31 -36 -52.5 -56t-56 -38t-70.5 -18q-59 0 -101 42.5t-42 105.5q0 65 42.5 108t107.5 43q48 0 89 -29t87 -83q56 62 82 80q45 32 95 32q61 0 99.5 -41t38.5 -106zM196 169h1q12 0 24.5 3t24.5 10t21 13
t21.5 18l18.5 18l19 20t17 18l-33.5 40t-31.5 32t-42 28t-45 8q-44 0 -69.5 -31t-24.5 -76q0 -43 27.5 -72t71.5 -29zM544 377h-1q-18 0 -35.5 -6.5t-34.5 -20.5t-28 -24.5t-27 -28.5t-21 -23q52 -58 82.5 -81.5t66.5 -23.5q43 0 68.5 31t25.5 71q0 49 -27 77.5t-69 28.5z
" />
    <glyph glyph-name="integral" unicode="&#x222b;" horiz-adv-x="357" 
d="M157 22l-18 397q-5 116 3.5 197t30 122.5t47 59t59.5 17.5q20 0 37 -11t17 -30q0 -18 -11 -27.5t-26 -9.5q-16 0 -27.5 20t-22.5 20q-12 0 -22.5 -12t-18 -52t-4.5 -103l18 -375q5 -102 -1 -179t-18.5 -122.5t-32.5 -73.5t-41.5 -38t-47.5 -10q-24 0 -39.5 12.5
t-15.5 30.5q-1 16 12.5 28t31.5 12q13 0 24.5 -21.5t22.5 -21.5q23 0 35 46.5t8 123.5z" />
    <glyph glyph-name="approxequal" unicode="&#x2248;" horiz-adv-x="537" 
d="M461 410l31 -28q-46 -89 -124 -89q-41 0 -111 39q-56 32 -88 32q-50 0 -95 -70l-32 27q22 42 57 66t76 24q13 0 25.5 -2t25 -7.5t19.5 -9t20 -11t16 -8.5q3 -2 12 -7t11.5 -6.5t10 -5.5t11 -5t10 -3.5t11 -3t11 -1.5t12.5 -1q28 0 49 17t42 53zM461 248l31 -28
q-47 -90 -124 -90q-27 0 -49 9t-62 31q-58 32 -88 32t-51.5 -18.5t-43.5 -52.5l-32 27q22 42 57 66.5t76 24.5q13 0 25.5 -2.5t25 -7.5t20 -8.5t20 -10.5t15.5 -9q4 -2 17 -9.5t18.5 -10l15.5 -7t19 -6t19 -1.5q28 0 48 17t43 54z" />
    <glyph glyph-name="notequal" unicode="&#x2260;" horiz-adv-x="537" 
d="M381 478l-42 -92h148v-48h-168l-63 -138h231v-48h-251l-51 -111l-39 17l44 94h-142v48h162l63 138h-225v48h244l51 110z" />
    <glyph glyph-name="lessequal" unicode="&#x2264;" horiz-adv-x="537" 
d="M485 93l-431 214v50l431 213v-57l-379 -179v-2l379 -181v-58zM488 6h-439v49h439v-49z" />
    <glyph glyph-name="greaterequal" unicode="&#x2265;" horiz-adv-x="537" 
d="M54 570l432 -213v-50l-432 -214v57l379 181v2l-379 180v57zM487 6h-438v49h438v-49z" />
    <glyph glyph-name="lozenge" unicode="&#x25ca;" horiz-adv-x="545" 
d="M497 320l-197 -388h-56l-196 388l198 391h54zM441 320l-166 337h-3l-169 -336l169 -337h3z" />
    </font>
</defs>
</svg>
