<?xml version="1.0" standalone="no"?>
<!DOCTYPE svg PUBLIC "-//W3C//DTD SVG 1.1//EN" "http://www.w3.org/Graphics/SVG/1.1/DTD/svg11.dtd" >
<svg xmlns="http://www.w3.org/2000/svg">
<metadata>Generated by IcoMoon</metadata>
<defs>
<font id="tansim" horiz-adv-x="1024">
<font-face units-per-em="1024" ascent="960" descent="-64" />
<missing-glyph horiz-adv-x="1024" />
<glyph unicode="&#x20;" horiz-adv-x="512" d="" />
<glyph unicode="&#xe900;" glyph-name="minus-16" d="M320 432c0 26.509 21.491 48 48 48h288c26.509 0 48-21.491 48-48s-21.491-48-48-48h-288c-26.509 0-48 21.491-48 48z" />
<glyph unicode="&#xe901;" glyph-name="plus-16" d="M190.828 448c0 26.509 21.491 48 48 48h545.965c26.509 0 48-21.491 48-48s-21.491-48-48-48h-545.965c-26.509 0-48 21.491-48 48zM512 127.117c-26.509 0-48 21.491-48 48v544.163c0 26.509 21.491 48 48 48s48-21.491 48-48v-544.163c0-26.509-21.491-48-48-48z" />
<glyph unicode="&#xe902;" glyph-name="delete-16" d="M128 736c0 17.673 14.327 32 32 32h704c17.67 0 32-14.327 32-32s-14.33-32-32-32h-32v-544c0-88.365-71.635-160-160-160h-320c-88.365 0-160 71.635-160 160v544h-32c-17.673 0-32 14.327-32 32zM256 704v-544c0-53.018 42.98-96 96-96h320c53.018 0 96 42.982 96 96v544h-512zM416 512c17.673 0 32-14.327 32-32v-256c0-17.67-14.327-32-32-32s-32 14.33-32 32v256c0 17.673 14.327 32 32 32zM608 512c17.673 0 32-14.327 32-32v-256c0-17.67-14.327-32-32-32s-32 14.33-32 32v256c0 17.673 14.327 32 32 32zM416 832c-17.673 0-32-14.327-32-32v-64h-64v64c0 53.020 42.98 96 96 96h192c53.018 0 96-42.98 96-96v-64h-64v64c0 17.673-14.327 32-32 32h-192z" />
<glyph unicode="&#xe904;" glyph-name="minus-circle-16" d="M320 480c0 17.673 14.327 32 32 32h256c17.673 0 32-14.327 32-32s-14.327-32-32-32h-256c-17.673 0-32 14.327-32 32zM480 832c-194.404 0-352-157.596-352-352 0-194.406 157.596-352 352-352 194.406 0 352 157.594 352 352 0 194.404-157.594 352-352 352zM64 480c0 229.75 186.25 416 416 416 229.754 0 416-186.25 416-416 0-229.754-186.246-416-416-416-229.75 0-416 186.246-416 416z" />
<glyph unicode="&#xe905;" glyph-name="plus-circle-16" d="M480 704c17.673 0 32-14.327 32-32v-384c0-17.67-14.327-32-32-32s-32 14.33-32 32v384c0 17.673 14.327 32 32 32zM256 480c0 17.673 14.327 32 32 32h384c17.67 0 32-14.327 32-32s-14.33-32-32-32h-384c-17.673 0-32 14.327-32 32zM480 832c-194.404 0-352-157.596-352-352 0-194.406 157.596-352 352-352 194.406 0 352 157.594 352 352 0 194.404-157.594 352-352 352zM64 480c0 229.75 186.25 416 416 416 229.754 0 416-186.25 416-416 0-229.754-186.246-416-416-416-229.75 0-416 186.246-416 416z" />
<glyph unicode="&#xe907;" glyph-name="tickmark-circle-16" d="M512 800c-194.404 0-352-157.596-352-352 0-194.406 157.596-352 352-352 194.406 0 352 157.594 352 352 0 194.404-157.594 352-352 352zM64 448c0 247.423 200.577 448 448 448s448-200.577 448-448c0-247.424-200.576-448-448-448s-448 200.576-448 448zM686.726 628.875c20.365-16.972 23.117-47.238 6.15-67.604l-240.003-287.997c-8.223-9.869-20.060-16.032-32.861-17.107s-25.498 3.027-35.252 11.392l-112 95.997c-20.127 17.252-22.458 47.555-5.206 67.682s47.555 22.459 67.682 5.206l75.046-64.325 208.841 250.61c16.972 20.365 47.236 23.117 67.601 6.146z" />
<glyph unicode="&#xe910;" glyph-name="tickmark-16" d="M817.274 690.601c19.104-18.374 19.706-48.76 1.331-67.869l-400.006-415.999c-9.24-9.613-22.061-14.944-35.392-14.726-13.33 0.224-25.968 5.978-34.886 15.885l-143.998 160.001c-17.734 19.704-16.136 50.054 3.568 67.788s50.055 16.136 67.789-3.569l109.482-121.648 364.24 378.806c18.374 19.109 48.762 19.705 67.872 1.331z" />
<glyph unicode="&#xe915;" glyph-name="edit-box-16" d="M872.506 825.62c-20.493 15.365-49.325 12.506-66.4-6.584l-328.206-367.025-21.192-118.267 100.799 30.497 323.389 390.421c17.984 21.709 14.157 54.044-8.39 70.957zM758.4 861.698c39.213 43.847 105.446 50.415 152.506 15.122 51.795-38.849 60.582-113.12 19.277-162.983l-329.538-397.843c-4.011-4.845-9.359-8.397-15.377-10.221l-160-48.403c-10.656-3.226-22.221-0.678-30.538 6.72s-12.19 18.592-10.227 29.549l32 178.588c1.046 5.836 3.692 11.267 7.645 15.686l334.253 373.785zM64 736c0 88.365 71.635 160 160 160h384c17.673 0 32-14.327 32-32s-14.327-32-32-32h-384c-53.020 0-96-42.98-96-96v-576c0-53.018 42.98-96 96-96h576c53.018 0 96 42.982 96 96v384c0 17.673 14.33 32 32 32s32-14.327 32-32v-384c0-88.365-71.635-160-160-160h-576c-88.365 0-160 71.635-160 160v576z" />
<glyph unicode="&#xe918;" glyph-name="dropdown-circle-left-16" d="M480 64c-229.75 0-416 186.246-416 416 0 229.75 186.25 416 416 416 229.754 0 416-186.25 416-416 0-229.754-186.246-416-416-416zM0 480c0-265.094 214.903-480 480-480 265.094 0 480 214.906 480 480 0 265.097-214.906 480-480 480-265.097 0-480-214.903-480-480zM558.311 259.379c10.841 5.421 17.689 16.499 17.689 28.621v384c0 12.121-6.848 23.201-17.689 28.622s-23.814 4.25-33.511-3.022l-256-192c-8.058-6.043-12.8-15.528-12.8-25.6s4.742-19.556 12.8-25.6l256-192c9.697-7.27 22.669-8.442 33.511-3.021zM341.333 480l170.667 128v-256l-170.667 128z" />
<glyph unicode="&#xe91a;" glyph-name="calendar-16" d="M288 896c17.673 0 32-14.327 32-32v-32h384v32c0 17.673 14.33 32 32 32s32-14.327 32-32v-32h32c88.365 0 160-71.635 160-160v-512c0-88.365-71.635-160-160-160h-576c-88.365 0-160 71.635-160 160v512c0 88.365 71.635 160 160 160h32v32c0 17.673 14.327 32 32 32zM256 736v32h-32c-53.020 0-96-42.98-96-96v-96h768v96c0 53.020-42.982 96-96 96h-32v-32c0-17.673-14.33-32-32-32s-32 14.327-32 32v32h-384v-32c0-17.673-14.327-32-32-32s-32 14.327-32 32zM896 512h-768v-352c0-53.018 42.98-96 96-96h576c53.018 0 96 42.982 96 96v352zM256 384v-64h128v64h-128zM448 320h128v64h-128v-64z" />
<glyph unicode="&#xe91b;" glyph-name="check-square-16" d="M1005.005 813.504c25.133-24.855 25.357-65.377 0.499-90.508l-443.076-448.001c-12.022-12.154-28.408-18.995-45.505-18.995s-33.482 6.842-45.504 18.995l-132.923 134.401c-24.855 25.132-24.632 65.653 0.5 90.508s65.653 24.632 90.508-0.5l87.419-88.39 397.573 401.99c24.858 25.132 65.376 25.355 90.509 0.5zM213.333 768c-5.658 0-11.084-2.248-15.085-6.248s-6.248-9.427-6.248-15.085v-597.336c0-5.658 2.248-11.085 6.248-15.085s9.427-6.246 15.085-6.246h597.336c5.658 0 11.085 2.246 15.085 6.246s6.246 9.427 6.246 15.085v234.669c0 35.346 28.653 64 64 64s64-28.654 64-64v-234.669c0-39.603-15.731-77.587-43.738-105.594s-65.99-43.738-105.594-43.738h-597.336c-39.605 0-77.589 15.731-105.594 43.738s-43.739 65.99-43.739 105.594v597.336c0 39.605 15.733 77.589 43.739 105.594s65.989 43.739 105.594 43.739h469.336c35.347 0 64-28.654 64-64s-28.653-64-64-64h-469.336z" />
<glyph unicode="&#xe91c;" glyph-name="check-circle-16" d="M1015.302 821.933c12.115-12.869 11.501-33.121-1.37-45.234l-544.001-512.001c-6.424-6.048-15.060-9.171-23.866-8.64-8.806 0.538-17.002 4.678-22.649 11.456l-160.003 192.002c-11.314 13.577-9.48 33.755 4.097 45.069s33.755 9.48 45.069-4.097l138.241-165.887 519.246 488.703c12.87 12.113 33.12 11.499 45.235-1.371zM389.113 811.806c-200.925-67.868-308.788-285.767-240.921-486.692 67.868-200.922 285.768-308.788 486.692-240.922 200.924 67.872 308.789 285.768 240.924 486.693-9.402 27.829-21.664 53.839-36.333 77.829-9.222 15.077-4.474 34.774 10.605 43.996 15.072 9.22 34.771 4.473 43.994-10.604 17.139-28.028 31.43-58.365 42.368-90.739 79.174-234.413-46.662-488.627-281.075-567.808s-488.63 46.662-567.809 281.075c-79.179 234.412 46.662 488.628 281.075 567.807 67.527 22.81 212.577 57.753 383.828-44.999 15.155-9.093 20.070-28.749 10.976-43.904-9.088-15.155-28.749-20.068-43.904-10.975-148.744 89.247-272.104 58.942-330.42 39.244z" />
<glyph unicode="&#xe91d;" glyph-name="chevron-down-circle-16" d="M64 480c0-229.754 186.25-416 416-416 229.754 0 416 186.246 416 416 0 229.75-186.246 416-416 416-229.75 0-416-186.25-416-416zM480 0c-265.097 0-480 214.906-480 480 0 265.097 214.903 480 480 480 265.094 0 480-214.903 480-480 0-265.094-214.906-480-480-480zM265.373 566.627c12.497 12.497 32.758 12.497 45.254 0l169.373-169.372 169.37 169.372c12.499 12.497 32.762 12.497 45.261 0 12.493-12.497 12.493-32.758 0-45.254l-192.003-192c-12.497-12.496-32.758-12.496-45.254 0l-192 192c-12.497 12.497-12.497 32.758 0 45.254z" />
<glyph unicode="&#xe91f;" glyph-name="close-16" d="M94.059 865.942c18.745 18.745 49.137 18.745 67.882 0l767.998-768.003c18.746-18.746 18.746-49.133 0-67.878s-49.133-18.746-67.878 0l-768.002 767.999c-18.745 18.745-18.745 49.137 0 67.882zM94.058 30.061c-18.745 18.746-18.745 49.133 0 67.878l768.003 768.002c18.746 18.745 49.133 18.745 67.878 0s18.746-49.137 0-67.882l-767.999-767.998c-18.745-18.746-49.137-18.746-67.882 0z" />
<glyph unicode="&#xe922;" glyph-name="phone-16" d="M184.188 853.444c39.714 39.714 104.889 37.004 141.167-5.871l100.902-119.249c26.961-31.863 30.244-77.496 8.123-112.89l-35.758-57.213c-6.18-9.888-5.75-20.558-0.847-28.010 33.071-50.267 109.38-148.662 225.338-200.831 7.369-3.315 17.206-2.708 26.076 3.206l33.555 22.373c32.25 21.498 74.259 21.498 106.502 0l116.493-77.659c36.282-24.192 48.877-71.616 29.376-110.618-49.843-99.693-163.84-160.058-274.394-120.538-264.399 94.515-453.156 275.272-557.868 503.456-45.474 99.096-12.106 210.404 60.895 283.406l20.438 20.438zM276.499 806.232c-12.093 14.291-33.818 15.195-47.056 1.957l-20.438-20.438c-58.337-58.337-79.976-141.739-47.982-211.458 97.517-212.507 273.064-381.17 521.242-469.887 74.63-26.675 157.504 12.685 195.603 88.896 5.069 10.138 1.798 22.458-7.629 28.742l-116.493 77.664c-10.746 7.162-24.749 7.162-35.501 0l-33.555-22.374c-25.005-16.672-58.075-21.709-87.835-8.32-132.367 59.549-216.957 169.924-252.547 224.019-20.125 30.589-17.913 68.38 0.041 97.107l35.758 57.213c7.374 11.798 6.28 27.009-2.707 37.63l-100.902 119.249z" />
<glyph unicode="&#xe924;" glyph-name="facebook-16" d="M399.311 841.574c50.073 37.662 118.909 54.426 197.053 54.426h139.636c17.67 0 32-14.327 32-32v-160c0-17.673-14.33-32-32-32h-139.636c-12.649 0-20.364-11.016-20.364-16v-80h160c10.285 0 19.942-4.945 25.958-13.289s7.654-19.072 4.397-28.83l-64-192c-4.352-13.067-16.582-21.881-30.355-21.881h-96v-288c0-17.67-14.327-32-32-32h-192c-17.673 0-32 14.33-32 32v288h-96c-17.673 0-32 14.327-32 32v192c0 17.673 14.327 32 32 32h96v96c0 72.97 27.897 130.904 79.311 169.574zM437.78 790.426c-33.677-25.33-53.78-63.396-53.78-118.426v-128c0-17.673-14.327-32-32-32h-96v-128h96c17.673 0 32-14.327 32-32v-288h128v288c0 17.673 14.327 32 32 32h104.934l42.669 128h-147.603c-17.673 0-32 14.327-32 32v112c0 44.936 41.158 80 84.364 80h107.636v96h-107.636c-70.22 0-123.565-15.236-158.583-41.574z" />
<glyph unicode="&#xe926;" glyph-name="filter-16" d="M64 733.156c0 17.673 14.327 32 32 32h512c17.673 0 32-14.327 32-32s-14.327-32-32-32h-512c-17.673 0-32 14.326-32 32zM704 733.156c0 17.673 14.33 32 32 32h192c17.67 0 32-14.327 32-32s-14.33-32-32-32h-192c-17.67 0-32 14.326-32 32zM64 416c0 17.673 14.327 32 32 32h256c17.673 0 32-14.327 32-32s-14.327-32-32-32h-256c-17.673 0-32 14.327-32 32zM460.484 416c0 17.673 14.326 32 32 32h435.516c17.67 0 32-14.327 32-32s-14.33-32-32-32h-435.516c-17.674 0-32 14.327-32 32zM64 96c0 17.67 14.327 32 32 32h448c17.673 0 32-14.33 32-32s-14.327-32-32-32h-448c-17.673 0-32 14.33-32 32zM640 96c0 17.67 14.33 32 32 32h256c17.67 0 32-14.33 32-32s-14.33-32-32-32h-256c-17.67 0-32 14.33-32 32zM736 896c17.67 0 32-14.327 32-32v-256c0-17.673-14.33-32-32-32s-32 14.327-32 32v256c0 17.673 14.33 32 32 32zM480 576c17.673 0 32-14.327 32-32v-256c0-17.67-14.327-32-32-32s-32 14.33-32 32v256c0 17.673 14.327 32 32 32zM672 256c17.67 0 32-14.33 32-32v-256c0-17.67-14.33-32-32-32s-32 14.33-32 32v256c0 17.67 14.33 32 32 32z" />
<glyph unicode="&#xe927;" glyph-name="radiobtn-checked-16" d="M512 832c-212.077 0-384-171.923-384-384s171.923-384 384-384c212.077 0 384 171.923 384 384s-171.923 384-384 384zM64 448c0 247.423 200.577 448 448 448s448-200.577 448-448c0-247.424-200.576-448-448-448s-448 200.576-448 448zM512 704c-141.385 0-256-114.615-256-256 0-141.382 114.615-256 256-256 141.382 0 256 114.618 256 256 0 141.385-114.618 256-256 256z" />
<glyph unicode="&#xe92a;" glyph-name="great-location-16" d="M886.63 822.627c12.493-12.497 12.493-32.758 0-45.254l-384.001-384c-12.497-12.497-32.758-12.497-45.255-0.001l-128.001 128c-12.497 12.497-12.497 32.758-0.001 45.255s32.758 12.497 45.255 0.001l105.374-105.373 361.375 361.373c12.493 12.497 32.755 12.497 45.254 0zM480 832c-159.058 0-288-128.942-288-288 0-48.846 17.61-103.613 46.474-159.898 28.687-55.939 67.3-111.098 106.513-160.115 39.135-48.915 78.355-91.085 107.826-121.050 10.463-10.637 19.674-19.712 27.187-26.976 5.309 5.133 11.467 11.174 18.316 18.029 24.444 24.467 57.577 59.226 92.308 100.346 70.342 83.283 143.801 188.69 168.665 285.855 4.384 17.121 21.818 27.448 38.938 23.067s27.45-21.814 23.066-38.935c-28.666-112.009-110.355-226.73-181.775-311.286-36.15-42.797-70.553-78.88-95.924-104.275-12.697-12.71-23.161-22.771-30.488-29.69-3.665-3.462-6.547-6.138-8.533-7.968l-2.914-2.662-0.172-0.154-0.051-0.051c-0.006 0-0.028-0.019-21.435 23.763-21.407-23.782-21.412-23.782-21.42-23.776l-0.292 0.269-0.76 0.691-2.83 2.592c-2.449 2.266-5.997 5.568-10.488 9.837-8.979 8.531-21.74 20.909-37.023 36.448-30.529 31.040-71.309 74.867-112.174 125.952-40.787 50.982-82.173 109.824-113.487 170.885-31.136 60.715-53.526 125.948-53.526 189.102 0 194.404 157.596 352 352 352 79.892 0 149.864-26.335 203.411-61.178 52.813-34.364 92.39-78.85 109.062-118.389 6.861-16.285-0.774-35.053-17.056-41.919-16.288-6.867-35.053 0.769-41.92 17.053-10.31 24.461-39.443 59.974-84.992 89.611-44.808 29.156-102.835 50.822-168.506 50.822zM480 32l-21.42-23.776c12.17-10.95 30.685-10.938 42.854 0.013l-21.435 23.763z" />
<glyph unicode="&#xe92b;" glyph-name="half-checked-16" d="M128 448c0 212.077 171.923 384 384 384s384-171.923 384-384c0-212.077-171.923-384-384-384s-384 171.923-384 384zM512 896c-247.423 0-448-200.577-448-448s200.577-448 448-448c247.424 0 448 200.576 448 448s-200.576 448-448 448zM224 448c0 159.058 128.942 288 288 288 17.673 0 32-14.327 32-32v-512c0-17.67-14.327-32-32-32-159.058 0-288 128.941-288 288z" />
<glyph unicode="&#xe92d;" glyph-name="heart-16" d="M621.071 874.303c32.625 14.307 67.665 21.697 103.095 21.697 35.437 0 70.47-7.391 103.098-21.697 32.614-14.303 62.125-35.212 86.899-61.439 24.787-26.217 44.358-57.248 57.677-91.276 13.325-34.026 20.16-70.44 20.16-107.174s-6.835-73.148-20.16-107.174c-13.318-34.029-32.89-65.059-57.677-91.276l-378.915-401.018c-6.045-6.394-14.458-10.022-23.26-10.022s-17.214 3.629-23.259 10.022l-378.922 401.023c-50.008 52.925-77.808 124.337-77.808 198.445s27.8 145.521 77.808 198.445c50.066 52.986 118.37 83.118 190.002 83.118s139.936-30.132 190.001-83.118l22.177-23.47 22.172 23.465c0.001 0.002-0.002-0.002 0 0 24.774 26.23 54.293 47.146 86.911 61.45zM867.648 768.908c-19.014 20.129-41.485 35.994-66.086 46.782-24.595 10.785-50.886 16.31-77.395 16.31-26.502 0-52.8-5.524-77.395-16.31-24.598-10.788-47.071-26.653-66.082-46.782l-45.441-48.092c-6.045-6.397-14.458-10.022-23.26-10.022s-17.214 3.625-23.259 10.022l-45.437 48.086c-38.38 40.618-90.034 63.073-143.483 63.073s-105.104-22.454-143.484-63.073c-38.438-40.68-60.326-96.222-60.326-154.49s21.888-113.811 60.326-154.49l355.662-376.409 355.66 376.409c19.027 20.123 34.214 44.118 44.595 70.648 10.387 26.531 15.757 55.026 15.757 83.842s-5.37 57.311-15.757 83.842c-10.381 26.529-25.574 50.531-44.595 70.653z" />
<glyph unicode="&#xe932;" glyph-name="linkedin-16" d="M128 544c0 17.673 14.327 32 32 32h128c17.673 0 32-14.327 32-32v-448c0-17.67-14.327-32-32-32h-128c-17.673 0-32 14.33-32 32v448zM192 512v-384h64v384h-64zM384 544c0 17.673 14.327 32 32 32h128c16.627 0 30.291-12.68 31.852-28.897 32.255 18.765 69.172 28.897 107.131 28.897 117.645 0 213.018-95.372 213.018-213.020v-266.98c0-17.67-14.33-32-32-32h-128c-17.67 0-32 14.33-32 32v192c0 35.346-28.653 64-64 64s-64-28.654-64-64v-192c0-17.67-14.327-32-32-32h-128c-17.673 0-32 14.33-32 32v448zM512 512h-64v-384h64v160c0 70.692 57.308 128 128 128 70.694 0 128-57.308 128-128v-160h64v234.98c0 82.301-66.72 149.020-149.018 149.020-39.526 0-77.428-15.7-105.374-43.647l-10.981-10.98c-9.152-9.152-22.915-11.89-34.873-6.937s-19.754 16.621-19.754 29.564v32zM224 704c-17.673 0-32 14.327-32 32s14.327 32 32 32c17.673 0 32-14.327 32-32s-14.327-32-32-32zM224 640c53.020 0 96 42.98 96 96s-42.98 96-96 96c-53.020 0-96-42.98-96-96s42.98-96 96-96z" />
<glyph unicode="&#xe933;" glyph-name="location-16" d="M512 896c-176.731 0-320-143.269-320-320 0-131.875 81.293-260.301 168.023-358.861 42.794-48.627 85.681-88.602 117.892-116.422 13.571-11.718 25.204-21.248 34.084-28.32 8.88 7.072 20.514 16.602 34.084 28.32 32.212 27.821 75.099 67.795 117.89 116.422 86.733 98.56 168.026 226.986 168.026 358.861 0 176.731-143.27 320-320 320zM512 32c-18.822-25.882-18.829-25.875-18.839-25.869l-0.101 0.077-0.246 0.179-0.867 0.64c-0.742 0.55-1.807 1.344-3.175 2.374-2.735 2.061-6.682 5.082-11.668 8.998-9.967 7.834-24.104 19.27-41.020 33.882-33.788 29.178-78.901 71.206-124.108 122.579-89.27 101.44-183.977 245.014-183.977 401.139 0 212.077 171.923 384 384 384s384-171.923 384-384c0-156.125-94.707-299.699-183.974-401.139-45.21-51.373-90.322-93.402-124.11-122.579-16.916-14.611-31.053-26.048-41.020-33.882-4.986-3.917-8.932-6.938-11.668-8.998-1.368-1.030-2.433-1.824-3.175-2.374l-0.867-0.64-0.246-0.179-0.076-0.058c-0.010-0.006-0.043-0.032-18.865 25.85zM512 32l18.865-25.85c-11.22-8.16-26.483-8.179-37.704-0.019l18.839 25.869zM512 512c-35.346 0-64 28.654-64 64s28.654 64 64 64c35.346 0 64-28.654 64-64s-28.654-64-64-64zM512 448c70.692 0 128 57.308 128 128s-57.308 128-128 128c-70.692 0-128-57.308-128-128s57.308-128 128-128z" />
<glyph unicode="&#xe935;" glyph-name="more-horizontal-16" d="M320 448c0-70.692-57.308-128-128-128s-128 57.308-128 128c0 70.692 57.308 128 128 128s128-57.308 128-128zM192 384c35.346 0 64 28.654 64 64s-28.654 64-64 64c-35.346 0-64-28.654-64-64s28.654-64 64-64zM640 448c0-70.692-57.308-128-128-128s-128 57.308-128 128c0 70.692 57.308 128 128 128s128-57.308 128-128zM512 384c35.346 0 64 28.654 64 64s-28.654 64-64 64c-35.346 0-64-28.654-64-64s28.654-64 64-64zM960 448c0-70.692-57.306-128-128-128s-128 57.308-128 128c0 70.692 57.306 128 128 128s128-57.308 128-128zM832 384c35.347 0 64 28.654 64 64s-28.653 64-64 64c-35.347 0-64-28.654-64-64s28.653-64 64-64z" />
<glyph unicode="&#xe936;" glyph-name="more-vertical-16" d="M512 640c70.692 0 128 57.308 128 128s-57.308 128-128 128c-70.692 0-128-57.308-128-128s57.308-128 128-128zM512 320c70.692 0 128 57.308 128 128s-57.308 128-128 128c-70.692 0-128-57.308-128-128s57.308-128 128-128zM512 0c-70.692 0-128 57.306-128 128s57.308 128 128 128c70.692 0 128-57.306 128-128s-57.308-128-128-128zM512 704c-35.346 0-64 28.654-64 64s28.654 64 64 64c35.346 0 64-28.654 64-64s-28.654-64-64-64zM512 384c-35.346 0-64 28.654-64 64s28.654 64 64 64c35.346 0 64-28.654 64-64s-28.654-64-64-64zM448 128c0-35.347 28.654-64 64-64s64 28.653 64 64c0 35.347-28.654 64-64 64s-64-28.653-64-64z" />
<glyph unicode="&#xe93a;" glyph-name="arrow-down-circle-16" d="M128 480c0-229.754 186.25-416 416-416 229.754 0 416 186.246 416 416 0 229.75-186.246 416-416 416-229.75 0-416-186.25-416-416zM544 0c-265.097 0-480 214.906-480 480 0 265.097 214.903 480 480 480 265.094 0 480-214.903 480-480 0-265.094-214.906-480-480-480zM512 365.255l-137.373 137.372c-12.497 12.497-32.758 12.497-45.254 0s-12.497-32.758 0-45.254l192-192.003c3.068-3.066 6.604-5.382 10.378-6.944 3.717-1.536 7.788-2.4 12.057-2.426 0.064 0 0.128 0 0.192 0s0.128 0 0.192 0c4.269 0.026 8.34 0.89 12.057 2.426 3.774 1.562 7.311 3.878 10.378 6.944l192.003 192.003c12.493 12.497 12.493 32.758 0 45.254-12.499 12.497-32.762 12.497-45.261 0l-137.37-137.372v306.745c0 17.673-14.327 32-32 32s-32-14.327-32-32v-306.745z" />
<glyph unicode="&#xe93b;" glyph-name="radiobtn-unchecked-16" d="M512 832c-212.077 0-384-171.923-384-384s171.923-384 384-384c212.077 0 384 171.923 384 384s-171.923 384-384 384zM64 448c0 247.423 200.577 448 448 448s448-200.577 448-448c0-247.424-200.576-448-448-448s-448 200.576-448 448z" />
<glyph unicode="&#xe93d;" glyph-name="search-16" d="M768 512c0 176.731-143.269 320-320 320s-320-143.269-320-320c0-176.731 143.269-320 320-320s320 143.269 320 320zM627.396 172.397c-53.544-28.346-114.596-44.397-179.396-44.397-212.077 0-384 171.923-384 384s171.923 384 384 384c212.077 0 384-171.923 384-384 0-124.212-58.976-234.65-150.451-304.838l175.437-219.168c11.040-13.792 8.813-33.933-4.986-44.979-13.798-11.040-33.939-8.813-44.979 4.986l-179.624 224.397z" />
<glyph unicode="&#xe93e;" glyph-name="dropdown-circle-16" d="M544 64c-229.75 0-416 186.246-416 416 0 229.75 186.25 416 416 416 229.754 0 416-186.25 416-416 0-229.754-186.246-416-416-416zM64 480c0-265.094 214.903-480 480-480 265.094 0 480 214.906 480 480 0 265.097-214.906 480-480 480-265.097 0-480-214.903-480-480zM352 576c-12.12 0-23.201-6.848-28.621-17.689s-4.251-23.814 3.021-33.511l192-256c6.044-8.058 15.528-12.8 25.6-12.8s19.557 4.742 25.6 12.8l192 256c7.27 9.697 8.442 22.669 3.021 33.511s-16.499 17.689-28.621 17.689h-384zM672 512l-128-170.667-128 170.667h256z" />
<glyph unicode="&#xe943;" glyph-name="twitter-16" d="M816.723 772.195c29.856 10.611 58.202 26.163 87.181 47.134 10.701 7.743 25.062 8.116 36.147 0.94 11.091-7.176 16.627-20.428 13.946-33.36-11.379-54.911-39.539-105.31-74.771-145.555 0.064-0.664 0.128-1.308 0.186-1.93 0.544-6.185 0.582-12.596 0.589-17.783 24.851-211.342-82.893-381.109-241.881-473.82-158.855-92.627-370.291-109.51-556.43-16.442-13.496 6.746-20.444 22.003-16.675 36.614s17.232 24.602 32.307 23.981c65.345-2.707 127.256 22.221 188.906 59.443-59.050 32.218-101.278 72.671-130.495 117.268-37.253 56.865-52.073 118.49-55.667 174.346-3.587 55.763 3.943 106.68 12.216 143.407 4.154 18.442 8.543 33.513 11.936 44.083 1.698 5.29 3.151 9.468 4.207 12.394 0.528 1.463 0.957 2.614 1.27 3.436l0.378 0.984 0.118 0.303 0.041 0.103 0.015 0.040c0.007 0.017 0.013 0.032 29.752-11.781l-29.74 11.813c4.343 10.934 14.335 18.603 26.020 19.97s23.178-3.788 29.928-13.423c63.022-89.967 173.112-114.591 294.651-114.796 4.477 50.948 26.547 98.506 69.341 135.084 75.74 73.087 193.46 69.14 266.523-2.453zM174.383 670.876c-7.252-32.671-13.482-76.586-10.449-123.736 3.074-47.782 15.587-97.976 45.334-143.382 29.553-45.111 77.395-87.476 154.51-118.004 10.986-4.352 18.682-14.4 20.017-26.138s-3.907-23.258-13.636-29.965c-45.795-31.558-95.808-62.054-150.057-81.318 135.209-32.998 275.078-9.773 385.779 54.778 140.52 81.939 232.609 229.283 210.35 412.772-0.154 1.279-0.23 2.565-0.23 3.853 0 6.111-0.026 10.434-0.346 14.081-0.186 2.138-0.422 3.185-0.486 3.473-5.478 11.958-3.078 26.083 6.099 35.569 13.696 14.157 26.163 29.921 36.806 46.785-13.754-5.83-27.866-10.815-42.458-14.929-12.275-3.461-25.44 0.7-33.491 10.589-48.275 59.26-134.765 64.763-188.038 12.751-0.545-0.532-1.108-1.044-1.69-1.535-33.226-28.102-48.397-65.138-48.399-106.78 0-0.001 0-0.002 0-0.003l0.001-11.732c0.002-17.317-13.772-31.494-31.081-31.99-116.636-3.349-247.782 10.304-338.536 94.863z" />
<glyph unicode="&#xe946;" glyph-name="whatsapp-16" d="M512 832c-212.077 0-384-171.923-384-384 0-72.206 19.899-139.667 54.493-197.306 3.872-6.451 5.347-14.061 4.166-21.491l-20.244-127.373 130.894 18.752c7.171 1.030 14.479-0.41 20.728-4.070 56.897-33.37 123.146-52.512 193.964-52.512 212.077 0 384 171.923 384 384s-171.923 384-384 384zM64 448c0 247.423 200.577 448 448 448s448-200.577 448-448c0-247.424-200.576-448-448-448-78.449 0-152.271 20.192-216.461 55.674l-163.001-23.347c-10.060-1.446-20.207 1.978-27.338 9.222-7.132 7.238-10.399 17.44-8.803 27.475l25.266 158.963c-36.717 65.011-57.663 140.109-57.663 220.013zM329.375 694.627l-39.78-39.78c-22.552-22.551-33.328-56.020-24.005-88.799 15.103-53.104 52.823-161.713 127.785-236.675 74.961-74.96 183.571-112.682 236.676-127.786 32.778-9.325 66.25 1.453 88.797 24.006l39.782 39.776c6.003 6.003 9.37 14.144 9.37 22.63v63.999c0 11.484-6.15 22.087-16.122 27.784l-111.999 64c-10.524 6.013-23.542 5.565-33.627-1.158l-34.208-22.806c-32.061 14.267-54.693 37.347-70.003 58.78-8.129 11.38-13.972 22.002-17.85 29.995l22.436 33.655c6.724 10.085 7.172 23.103 1.158 33.628l-64.002 112c-5.697 9.97-16.3 16.123-27.784 16.123h-63.997c-8.487 0-16.627-3.372-22.628-9.373zM448.003 512c-30.358-10.119-30.354-10.132-30.35-10.144l0.030-0.088 0.050-0.148 0.138-0.402 0.431-1.212c0.357-0.985 0.856-2.317 1.504-3.958 1.296-3.277 3.198-7.802 5.777-13.246 5.141-10.854 13.066-25.561 24.38-41.401 22.54-31.556 59.556-68.97 115.92-87.758 9.368-3.123 19.653-1.745 27.87 3.732l31.544 21.030 78.702-44.974v-32.175l-30.406-30.406c-7.712-7.712-17.651-10.086-26.035-7.706-50.931 14.49-146.079 48.634-208.929 111.485s-96.996 157.997-111.481 208.929c-2.385 8.386-0.009 18.326 7.702 26.036l30.408 30.408h32.173l44.976-78.705-21.030-31.544c-5.478-8.216-6.847-18.526-3.724-27.894l30.35 10.144z" />
<glyph unicode="&#xe957;" glyph-name="arrow-fill-down-16" d="M224.001 640c-12.637 0-24.091-7.437-29.232-18.981s-3.007-25.032 5.446-34.426l288-320.001c6.068-6.739 14.714-10.592 23.786-10.592s17.716 3.853 23.786 10.592l288.003 320.001c8.448 9.393 10.586 22.881 5.446 34.426-5.146 11.544-16.595 18.981-29.235 18.981h-575.999z" />
<glyph unicode="&#xe95c;" glyph-name="arrow-fill-up-16" d="M224.001 256c-12.637 0-24.091 7.437-29.232 18.982s-3.007 25.030 5.446 34.426l288 319.999c6.068 6.743 14.714 10.593 23.786 10.593s17.716-3.85 23.786-10.593l288.003-319.999c8.448-9.395 10.586-22.88 5.446-34.426-5.146-11.546-16.595-18.982-29.235-18.982h-575.999z" />
<glyph unicode="&#xe964;" glyph-name="arrow-top-16" d="M182.627 393.373c-12.497-12.497-32.758-12.497-45.254 0s-12.497 32.758 0 45.254l320 320c12.497 12.497 32.758 12.497 45.254 0l320.003-320c12.493-12.497 12.493-32.758 0-45.254-12.499-12.497-32.762-12.497-45.261 0l-265.37 265.372v-562.745c0-17.67-14.327-32-32-32s-32 14.33-32 32v562.745l-265.373-265.372z" />
<glyph unicode="&#xe969;" glyph-name="arrow-left-circle-16" d="M544 896c-229.75 0-416-186.25-416-416 0-229.754 186.25-416 416-416 229.754 0 416 186.246 416 416 0 229.75-186.246 416-416 416zM64 480c0 265.097 214.903 480 480 480 265.094 0 480-214.903 480-480 0-265.094-214.906-480-480-480-265.097 0-480 214.906-480 480zM429.255 512l137.372 137.373c12.497 12.497 12.497 32.758 0 45.254s-32.758 12.497-45.254 0l-192-192c-12.497-12.497-12.497-32.758 0-45.254l192-192.003c12.497-12.493 32.758-12.493 45.254 0 12.497 12.499 12.497 32.762 0 45.261l-137.372 137.37h306.745c17.67 0 32 14.327 32 32s-14.33 32-32 32h-306.745z" />
<glyph unicode="&#xe96a;" glyph-name="arrow-down-16" d="M467.751 66.426c3.717-1.536 7.788-2.4 12.057-2.426 0.064 0 0.128 0 0.192 0s0.128 0 0.192 0c8.125 0.051 16.236 3.174 22.435 9.37l320.003 320.003c12.493 12.497 12.493 32.758 0 45.254-12.499 12.497-32.762 12.497-45.261 0l-265.37-265.373v562.746c0 17.673-14.327 32-32 32s-32-14.327-32-32v-562.746l-265.373 265.373c-12.497 12.497-32.758 12.497-45.254 0s-12.497-32.758 0-45.254l320-320.003c3.068-3.066 6.604-5.382 10.378-6.944z" />
<glyph unicode="&#xe97d;" glyph-name="camera-16" d="M288 832c-17.673 0-32-14.327-32-32s14.327-32 32-32h160c17.673 0 32 14.327 32 32s-14.327 32-32 32h-160zM224 640c-53.020 0-96-42.98-96-96v-384c0-53.018 42.98-96 96-96h576c53.018 0 96 42.982 96 96v384c0 53.020-42.982 96-96 96h-576zM64 544c0 88.365 71.635 160 160 160h576c88.365 0 160-71.635 160-160v-384c0-88.365-71.635-160-160-160h-576c-88.365 0-160 71.635-160 160v384zM544 512c-88.365 0-160-71.635-160-160s71.635-160 160-160c88.365 0 160 71.635 160 160s-71.635 160-160 160zM320 352c0 123.712 100.288 224 224 224s224-100.288 224-224c0-123.712-100.288-224-224-224s-224 100.288-224 224z" />
<glyph unicode="&#xe982;" glyph-name="chevron-down-16" d="M156.323 608.11c17.734 19.704 48.084 21.302 67.788 3.567l287.89-259.1 287.891 259.1c19.706 17.734 50.054 16.137 67.789-3.567s16.134-50.054-3.571-67.789l-319.998-288.001c-18.255-16.429-45.966-16.429-64.221 0l-320 288.001c-19.704 17.734-21.302 48.084-3.567 67.789z" />
<glyph unicode="&#xe984;" glyph-name="chevron-left-16" d="M693.408 104.218c13.133 11.821 14.202 32.051 2.374 45.19l-268.731 298.592 268.731 298.593c11.827 13.137 10.758 33.37-2.374 45.192-13.139 11.823-33.37 10.758-45.197-2.378l-287.997-320c-10.953-12.17-10.953-30.644 0-42.814l287.997-320.001c11.827-13.133 32.058-14.202 45.197-2.374z" />
<glyph unicode="&#xe985;" glyph-name="chevron-left-circle-16" d="M128 480c0 229.75 186.25 416 416 416 229.754 0 416-186.25 416-416 0-229.754-186.246-416-416-416-229.75 0-416 186.246-416 416zM544 960c-265.097 0-480-214.903-480-480 0-265.094 214.903-480 480-480 265.094 0 480 214.906 480 480 0 265.097-214.906 480-480 480zM630.627 649.373c12.496 12.497 12.496 32.758 0 45.254s-32.758 12.497-45.254 0l-192-192c-12.497-12.497-12.497-32.758 0-45.254l192-192.003c12.497-12.493 32.758-12.493 45.254 0 12.496 12.499 12.496 32.762 0 45.261l-169.372 169.37 169.372 169.373z" />
<glyph unicode="&#xe988;" glyph-name="clock-16" d="M480 640c17.673 0 32-14.327 32-32v-144l115.2-86.4c14.138-10.604 17.005-30.662 6.4-44.8s-30.662-17.005-44.8-6.4l-128 96c-8.058 6.044-12.8 15.528-12.8 25.6v160c0 17.673 14.327 32 32 32zM512 832c-212.077 0-384-171.923-384-384s171.923-384 384-384c212.077 0 384 171.923 384 384s-171.923 384-384 384zM64 448c0 247.423 200.577 448 448 448s448-200.577 448-448c0-247.424-200.576-448-448-448s-448 200.576-448 448z" />
<glyph unicode="&#xe989;" glyph-name="close-circle-16" d="M329.373 630.627c12.497 12.497 32.758 12.497 45.254 0l320.003-319.997c12.493-12.499 12.493-32.762 0-45.261-12.499-12.493-32.762-12.493-45.261 0l-319.997 320.003c-12.497 12.497-12.497 32.758 0 45.254zM329.373 265.37c-12.497 12.499-12.497 32.762 0 45.261l320.003 319.997c12.493 12.497 32.755 12.497 45.254 0 12.493-12.497 12.493-32.758 0-45.254l-320.002-320.003c-12.497-12.493-32.758-12.493-45.255 0zM512 832c-212.077 0-384-171.923-384-384s171.923-384 384-384c212.077 0 384 171.923 384 384s-171.923 384-384 384zM64 448c0 247.423 200.577 448 448 448s448-200.577 448-448c0-247.424-200.576-448-448-448s-448 200.576-448 448z" />
<glyph unicode="&#xe98d;" glyph-name="download-16" d="M480 896c17.673 0 32-14.327 32-32v-498.745l137.37 137.372c12.499 12.497 32.762 12.497 45.261 0 12.493-12.497 12.493-32.758 0-45.254l-192.003-192.003c-12.497-12.493-32.758-12.493-45.254 0l-192 192.003c-12.497 12.497-12.497 32.758 0 45.254s32.758 12.497 45.254 0l137.373-137.372v498.745c0 17.673 14.327 32 32 32zM96 384c17.673 0 32-14.327 32-32v-192c0-53.018 42.98-96 96-96h512c53.018 0 96 42.982 96 96v192c0 17.673 14.33 32 32 32s32-14.327 32-32v-192c0-88.365-71.635-160-160-160h-512c-88.365 0-160 71.635-160 160v192c0 17.673 14.327 32 32 32z" />
<glyph unicode="&#xe98e;" glyph-name="edit-16" d="M809.997 760.506c-20.762 15.572-50.074 12.226-66.79-7.628l-457.082-542.786-21.21-127.258 99.369 39.744 454.565 568.209c17.261 21.572 13.248 53.143-8.851 69.718zM694.253 794.103c38.579 45.818 106.227 53.543 154.144 17.603 51.002-38.253 60.256-111.115 20.429-160.899l-459.837-574.794c-3.455-4.32-7.969-7.667-13.103-9.722l-160-64c-10.732-4.294-22.945-2.464-31.949 4.781-9.004 7.251-13.4 18.79-11.5 30.189l32 192c0.943 5.664 3.391 10.963 7.088 15.354l462.729 549.489z" />
<glyph unicode="&#xe98f;" glyph-name="email-16" d="M147.195 729.602c17.514 23.316 45.398 38.398 76.805 38.398h576c31.405 0 59.29-15.082 76.806-38.398 0-0.001-0.006-0.003-0.006-0.004l-364.8-273.6-364.8 273.6c-0.002 0.001-0.004 0.003-0.005 0.004zM128 663.998l364.8-273.6c11.378-8.533 27.022-8.533 38.4 0l364.8 273.6v-439.998c0-53.018-42.982-96-96-96h-576c-53.020 0-96 42.982-96 96v439.998zM224 832c-88.365 0-160-71.635-160-160v-448c0-88.365 71.635-160 160-160h576c88.365 0 160 71.635 160 160v448c0 88.365-71.635 160-160 160h-576z" />
<glyph unicode="&#xe996;" glyph-name="half-star-16" d="M512 888.836v7.164l-3.658-7.266c-21.423-1.196-42.322-12.902-53.507-35.12l-102.772-204.15-226.483-32.083c-53.185-7.534-73.988-73.282-34.817-110.038l162.694-152.663-39.514-222.079c-9.238-51.917 44.755-92.102 91.837-68.352l206.22 104.038 206.221-104.038c47.078-23.75 101.075 16.435 91.834 68.352l-39.514 222.079 162.694 152.663c39.174 36.756 18.368 102.504-34.816 110.038l-226.483 32.083-102.771 204.15c-11.821 23.481-34.493 35.222-57.165 35.222zM512 232.288v592.548l102.772-204.149c9.428-18.727 27.429-31.649 48.191-34.589l226.483-32.083-162.694-152.663c-15.782-14.805-23.008-36.58-19.219-57.882l39.514-222.081-206.22 104.038c-9.065 4.57-18.946 6.861-28.827 6.861z" />
<glyph unicode="&#xe997;" glyph-name="help-16" d="M512 64c-212.077 0-384 171.923-384 384s171.923 384 384 384c212.077 0 384-171.923 384-384s-171.923-384-384-384zM512 0c247.424 0 448 200.576 448 448s-200.576 448-448 448c-247.423 0-448-200.577-448-448s200.577-448 448-448zM492.86 368.897l51.264 17.28c-8.064 5.76-12.672 16.704-12.672 25.92 0 51.264 102.528 58.176 102.528 143.424 0 51.84-44.352 90.432-116.928 90.432-51.84 0-96.192-20.736-125.568-57.024l39.168-43.2c19.008 24.768 44.352 40.32 80.064 40.32 36.864 0 54.72-19.008 54.72-41.472 0-48.96-92.736-55.872-92.736-126.144 0-19.008 6.336-36.288 20.16-49.536zM513.596 249.664c21.888 0 40.32 19.008 40.32 40.896 0 21.312-18.432 39.745-40.32 39.745s-40.32-18.433-40.32-39.745c0-21.888 18.432-40.896 40.32-40.896z" />
<glyph unicode="&#xe99a;" glyph-name="arrow-left-16" d="M181.336 416c0 17.673 14.327 32 32 32h597.333c17.677 0 32-14.327 32-32s-14.323-32-32-32h-597.333c-17.673 0-32 14.327-32 32zM535.788 725.407c11.823-13.137 10.758-33.37-2.379-45.192l-294.502-265.050 295.336-285.487c12.707-12.288 13.050-32.544 0.767-45.248-12.284-12.71-32.541-13.056-45.249-0.768l-320.003 309.331c-6.38 6.167-9.912 14.706-9.754 23.578s3.993 17.28 10.588 23.215l320.003 288c13.137 11.823 33.37 10.758 45.192-2.378z" />
<glyph unicode="&#xe99d;" glyph-name="mobile-16" d="M320 736c0 53.020 42.98 96 96 96h256c53.018 0 96-42.98 96-96v-576c0-53.018-42.982-96-96-96h-256c-53.020 0-96 42.982-96 96v576zM416 896c-88.365 0-160-71.635-160-160v-576c0-88.365 71.635-160 160-160h256c88.365 0 160 71.635 160 160v576c0 88.365-71.635 160-160 160h-256zM544 128c17.673 0 32 14.33 32 32s-14.327 32-32 32c-17.673 0-32-14.33-32-32s14.327-32 32-32z" />
<glyph unicode="&#xe99e;" glyph-name="navigation-16" d="M755.712 773.504c50.854 18.156 99.949-30.941 81.798-81.793l-232.073-650.002c-20.477-57.357-101.924-56.39-121.039 1.434l-93.729 283.526-283.526 93.728c-57.823 19.115-58.787 100.562-1.432 121.039l650.001 232.068zM777.235 713.23l-650.004-232.068 283.526-93.727c19.233-6.358 34.32-21.446 40.678-40.678l93.728-283.53 232.072 650.004z" />
<glyph unicode="&#xe99f;" glyph-name="navigation-fill-16" d="M755.712 773.508c50.854 18.156 99.949-30.941 81.798-81.793l-232.073-649.999c-20.477-57.357-101.924-56.397-121.039 1.427l-93.729 283.53-283.526 93.728c-57.823 19.116-58.787 100.562-1.432 121.039l650.001 232.068z" />
<glyph unicode="&#xe9a3;" glyph-name="arrow-right-16" d="M821.338 416c0 17.673-14.33 32-32 32h-597.335c-17.673 0-32-14.327-32-32s14.327-32 32-32h597.335c17.67 0 32 14.327 32 32zM466.884 725.407c-11.823-13.137-10.758-33.37 2.379-45.192l294.5-265.050-295.334-285.487c-12.707-12.288-13.050-32.544-0.767-45.248 12.284-12.71 32.541-13.056 45.249-0.768l320.005 309.331c6.374 6.167 9.907 14.706 9.754 23.578-0.16 8.872-3.994 17.28-10.592 23.215l-320.001 288c-13.137 11.823-33.37 10.758-45.192-2.378z" />
<glyph unicode="&#xe9ae;" glyph-name="star-16" d="M454.869 837.839c23.665 46.876 90.598 46.876 114.264 0l97.818-193.756 215.302-30.412c53.242-7.521 74.035-73.366 34.771-110.104l-154.464-144.532 37.555-210.479c9.261-51.891-44.678-92.102-91.77-68.41l-196.344 98.771-196.346-98.771c-47.091-23.693-101.026 16.518-91.766 68.41l37.556 210.479-154.468 144.532c-39.263 36.737-18.467 102.583 34.775 110.104l215.299 30.412 97.819 193.756z" />
<glyph unicode="&#xe9af;" glyph-name="star-outline-16" d="M454.869 837.839c23.665 46.876 90.598 46.876 114.264 0l97.818-193.756 215.302-30.412c53.242-7.521 74.035-73.366 34.771-110.104l-154.464-144.532 37.555-210.479c9.261-51.891-44.678-92.102-91.77-68.41l-196.344 98.771-196.346-98.771c-47.091-23.693-101.026 16.518-91.766 68.41l37.556 210.479-154.468 144.532c-39.263 36.737-18.467 102.583 34.775 110.104l215.299 30.412 97.819 193.756zM609.82 615.24l-97.819 193.756-97.819-193.756c-9.441-18.701-27.437-31.597-48.18-34.527l-215.299-30.412 154.468-144.532c15.831-14.813 23.087-36.632 19.278-57.976l-37.556-210.475 196.346 98.771c18.093 9.101 39.428 9.101 57.522 0l196.345-98.771-37.555 210.475c-3.808 21.343 3.45 43.163 19.277 57.976l154.47 144.532-215.296 30.412c-20.746 2.93-38.742 15.827-48.183 34.527z" />
<glyph unicode="&#xe9b1;" glyph-name="telephone-16" d="M960 591.912c0-44.134-35.776-79.912-79.91-79.912h-98.368c-41.024 0-77.517 26.070-90.816 64.879l-7.661 22.353c-3.098 9.048-9.325 14.73-16.109 16.742-53.772 15.957-180.041 43.308-309.565 1.012-7.147-2.334-13.667-8.557-16.818-17.754l-7.354-21.461c-13.521-39.457-50.973-65.67-92.675-64.862l-98.070 1.899c-43.684 0.846-78.654 36.5-78.654 80.192 0 97.38 62.928 186.532 159.68 211.072 239.537 60.754 424.73 58.576 616.403-22.899 77.434-32.912 119.917-111.379 119.917-191.261zM880.090 576c8.787 0 15.91 7.124 15.91 15.913 0 58.595-30.938 111.101-80.947 132.361-175.284 74.507-345.436 78.149-575.638 19.763-66.038-16.749-111.414-78.472-111.414-149.036 0-8.829 7.066-16.033 15.893-16.204l98.070-1.899c13.901-0.269 26.385 8.468 30.892 21.62l7.354 21.461c8.934 26.073 29.201 48.607 57.495 57.846 147.696 48.23 288.991 16.909 347.64-0.495 28.96-8.593 49.459-31.13 58.445-57.351l7.661-22.353c4.435-12.936 16.595-21.626 30.272-21.626h98.368zM128 128c0 167.194 106.856 309.435 256 362.15v53.85c0 17.673 14.327 32 32 32s32-14.327 32-32v-37.309c20.813 3.492 42.195 5.309 64 5.309s43.187-1.818 64-5.309v37.309c0 17.673 14.327 32 32 32s32-14.327 32-32v-53.85c149.146-52.715 256-194.956 256-362.15v-96c0-17.67-14.33-32-32-32h-704c-17.673 0-32 14.33-32 32v96zM512 448c-176.731 0-320-143.27-320-320v-64h640v64c0 176.73-143.27 320-320 320zM576 256c0 35.347-28.653 64-64 64s-64-28.653-64-64c0-35.347 28.654-64 64-64s64 28.653 64 64zM640 256c0-70.694-57.308-128-128-128s-128 57.306-128 128c0 70.692 57.308 128 128 128s128-57.308 128-128z" />
<glyph unicode="&#xe9b9;" glyph-name="warning-16" d="M525.988 787.989c-6.096 10.973-21.876 10.973-27.972 0l-371.231-668.213c-5.924-10.669 1.787-23.776 13.987-23.776h742.461c12.198 0 19.91 13.107 13.984 23.776l-371.228 668.213zM414.096 834.611c42.673 76.811 153.139 76.811 195.811 0l371.232-668.217c41.472-74.65-12.506-166.394-97.907-166.394h-742.461c-85.398 0-139.379 91.744-97.906 166.394l371.231 668.217zM512 640c26.509 0 48-21.491 48-48v-192c0-26.509-21.491-48-48-48s-48 21.491-48 48v192c0 26.509 21.491 48 48 48zM512 192c35.346 0 64 28.653 64 64s-28.654 64-64 64c-35.346 0-64-28.653-64-64s28.654-64 64-64z" />
<glyph unicode="&#xea03;" glyph-name="faq-16" d="M900.269 448c0 214.434-173.837 388.267-388.269 388.267-214.434 0-388.267-173.833-388.267-388.267 0-214.432 173.833-388.269 388.267-388.269 214.432 0 388.269 173.837 388.269 388.269zM960 448c0-247.424-200.576-448-448-448s-448 200.576-448 448c0 247.423 200.577 448 448 448s448-200.577 448-448zM481.5 364.25h63.75c-0.333 19.333 1.25 32.749 4.75 40.25 3.667 7.5 12.916 17.417 27.75 29.75 28.667 23.833 47.334 42.666 56 56.5 8.836 13.833 13.252 28.5 13.252 44 0 28-11.918 52.5-35.752 73.5-23.833 21.167-55.917 31.75-96.25 31.75-38.333 0-69.334-10.417-93-31.25-23.5-20.833-36.166-46.167-38-76l64.5-8c4.5 20.833 12.75 36.333 24.75 46.5s26.916 15.25 44.75 15.25c18.5 0 33.167-4.916 44-14.75 11-9.667 16.5-21.333 16.5-35 0-9.834-3.083-18.833-9.25-27-4-5.167-16.25-16.083-36.75-32.75s-34.166-31.667-41-45c-6.833-13.333-10.25-30.333-10.25-51 0-1.999 0.083-7.583 0.25-16.749zM481.5 340h70.25v-70.253h-70.25v70.253z" />
<glyph unicode="&#xea04;" glyph-name="whatsapp-fill-16" d="M512 832c-212.077 0-384-171.923-384-384 0-72.206 19.898-139.667 54.493-197.306 4.592-7.654 5.781-16.87 3.279-25.44l-42.962-147.11 150.509 41.606c8.338 2.304 17.254 1.139 24.716-3.238 56.897-33.37 123.146-52.512 193.964-52.512 212.077 0 384 171.923 384 384s-171.923 384-384 384zM64 448c0 247.423 200.576 448 448 448s448-200.577 448-448c0-247.424-200.576-448-448-448-77.606 0-150.682 19.757-214.386 54.534l-193.087-53.376c-11.187-3.091-23.17 0.115-31.317 8.378s-11.18 20.294-7.927 31.437l55.219 189.082c-35.997 64.531-56.501 138.888-56.501 217.946zM605.798 377.825l-16.707-14.479c-8.168-7.079-19.468-9.744-29.518-5.767-72.319 28.618-107.139 98.157-120.594 133.319-4.771 12.468 0.435 26.045 11.544 33.451 15.705 10.47 18.784 32.285 6.59 46.692l-25.114 29.673-23.665 27.256c-12.817 14.763-35.76 14.682-48.474-0.17l-25.087-29.308c-12.214-14.269-17.576-33.161-12.637-51.282 11.796-43.275 41.91-127.26 109.862-195.212 69.874-69.875 148.225-88.89 185.696-94.067 14.396-1.984 28.487 3.014 39.834 12.090l34.554 27.642c14.893 11.917 16.122 34.131 2.637 47.617l-4.346 4.346c-1.581 1.578-3.315 2.986-5.19 4.203l-40.986 26.644c-11.962 7.773-27.622 6.693-38.4-2.648z" />
<glyph unicode="&#xea08;" glyph-name="excluded-16" d="M807.29 818.519c27.904-21.7 32.928-61.91 11.226-89.811l-447.997-575.997c-21.7-27.904-61.91-32.928-89.811-11.226-27.9 21.696-32.927 61.907-11.226 89.811l447.997 575.996c21.702 27.901 61.914 32.927 89.811 11.227zM882.515 216.71c-21.696-27.904-61.907-32.928-89.805-11.226l-576.003 447.997c-27.901 21.7-32.927 61.91-11.227 89.811s61.91 32.927 89.811 11.226l575.997-447.997c27.904-21.702 32.928-61.914 11.226-89.811z" />
<glyph unicode="&#xea0a;" glyph-name="support-16" d="M479.999 768c194.407 0 352.001-157.596 352.001-352 0-66.193-18.24-128.026-49.952-180.864-4.589-7.648-5.779-16.87-3.277-25.434l38.419-131.558-134.675 37.229c-8.339 2.304-17.254 1.139-24.717-3.238-52.154-30.592-112.879-48.134-177.799-48.134-194.404 0-352 157.594-352 352 0 194.404 157.596 352 352 352zM896 416c0 229.75-186.253 416-416.001 416-229.75 0-416-186.25-416-416 0-229.754 186.25-416 416-416 71.703 0 139.248 18.17 198.196 50.163l177.28-49.005c11.181-3.091 23.168 0.115 31.315 8.378s11.181 20.294 7.923 31.437l-50.682 173.549c33.12 59.718 51.968 128.439 51.968 201.478zM320 480c0 17.673 14.327 32 32 32h256c17.673 0 32-14.327 32-32s-14.327-32-32-32h-256c-17.673 0-32 14.327-32 32zM320 288c0 17.67 14.327 32 32 32h128c17.673 0 32-14.33 32-32s-14.327-32-32-32h-128c-17.673 0-32 14.33-32 32z" />
<glyph unicode="&#xea10;" glyph-name="chevron-right-16" d="M362.593 104.218c-13.136 11.821-14.201 32.051-2.378 45.19l268.733 298.592-268.733 298.593c-11.823 13.137-10.758 33.37 2.378 45.192s33.37 10.758 45.192-2.378l288.003-320c10.95-12.17 10.95-30.644 0-42.814l-288.003-320.001c-11.823-13.133-32.056-14.202-45.192-2.374z" />
<glyph unicode="&#xea11;" glyph-name="chevron-top-16" d="M156.323 255.891c17.734-19.706 48.084-21.306 67.788-3.571l287.89 259.103 287.891-259.103c19.706-17.734 50.054-16.134 67.789 3.571s16.134 50.054-3.571 67.788l-319.998 288c-18.255 16.429-45.966 16.429-64.221 0l-320-288c-19.704-17.733-21.302-48.082-3.567-67.788z" />
<glyph unicode="&#xea12;" glyph-name="share-16" d="M704 640c-35.347 0-64 28.654-64 64s28.653 64 64 64c35.347 0 64-28.654 64-64s-28.653-64-64-64zM704 576c70.694 0 128 57.308 128 128s-57.306 128-128 128c-70.692 0-128-57.308-128-128 0-4.957 0.282-9.848 0.83-14.659l-190.47-131.864c-19.35 11.754-42.065 18.523-66.36 18.523-70.692 0-128-57.308-128-128s57.308-128 128-128c19.603 0 38.177 4.406 54.785 12.284 1.939-2.477 4.278-4.709 7-6.594l194.218-134.458c0.413-70.336 57.561-127.232 127.997-127.232 70.694 0 128 57.306 128 128s-57.306 128-128 128c-47.021 0-88.116-25.35-110.369-63.13l-169.181 117.123c14.832 20.895 23.551 46.433 23.551 74.006 0 22.859-5.992 44.319-16.492 62.893l169.374 117.259c23.305-31.631 60.813-52.152 103.117-52.152zM320 384c-35.346 0-64 28.654-64 64s28.654 64 64 64c35.346 0 64-28.654 64-64s-28.654-64-64-64zM768 192c0-35.347-28.653-64-64-64s-64 28.653-64 64c0 35.347 28.653 64 64 64s64-28.653 64-64z" />
<glyph unicode="&#xea16;" glyph-name="included-16" d="M880.595 745.651c23.002-26.836 19.891-67.24-6.944-90.243-105.331-90.285-197.466-212.541-264.085-314.432-33.056-50.557-59.304-95.281-77.24-127.274-8.96-15.981-15.823-28.749-20.404-37.434-2.289-4.339-4.006-7.654-5.128-9.843l-1.232-2.413-0.275-0.544-0.044-0.090-0.007-0.013c-9.203-18.394-26.684-31.245-46.985-34.541-20.307-3.296-40.959 3.373-55.507 17.92l-192 192.001c-24.993 24.993-24.993 65.516 0 90.509s65.516 24.993 90.51 0l131.571-131.572c18.026 31.32 41.488 70.334 69.608 113.341 69.379 106.109 169.246 239.854 287.915 341.569 26.835 23.003 67.238 19.895 90.246-6.942z" />
<glyph unicode="&#xea1e;" glyph-name="bell-16" d="M480 896c-17.673 0-32-14.327-32-32s14.327-32 32-32h128c17.673 0 32 14.327 32 32s-14.327 32-32 32h-128zM320 480c0 123.712 100.288 224 224 224s224-100.288 224-224v-288h-448v288zM864 192h-32v288c0 159.058-128.941 288-288 288s-288-128.942-288-288v-288h-24.889c-17.673 0-32-14.33-32-32s14.327-32 32-32h156.090c14.824-73.030 79.393-128 156.799-128s141.978 54.97 156.8 128h163.2c17.67 0 32 14.33 32 32s-14.33 32-32 32zM634.538 128c-13.179-37.286-48.739-64-90.538-64s-77.359 26.714-90.538 64h181.075z" />
<glyph unicode="&#xea1f;" glyph-name="bookmark-16" d="M192 768c0 35.347 28.654 64 64 64l448-0.001c35.347 0 64-28.653 64-64v-577.081c0-49.747-54.272-80.474-96.928-54.88l-191.072 114.643-191.072-114.643c-42.658-25.594-96.928 5.133-96.928 54.88v577.082z" />
<glyph unicode="&#xea20;" glyph-name="bookmark-outline-16" d="M192 768c0 35.347 28.654 64 64 64l448-0.001c35.347 0 64-28.653 64-64v-577.081c0-49.747-54.272-80.474-96.928-54.88l-191.072 114.643-191.072-114.643c-42.658-25.594-96.928 5.133-96.928 54.88v577.082zM704 767.999l-448 0.001v-577.082l191.072 114.643c20.268 12.16 45.588 12.16 65.856 0l191.072-114.643v577.081z" />
<glyph unicode="&#xea24;" glyph-name="contact-16" d="M184.188 853.444c39.714 39.714 104.889 37.004 141.167-5.871l100.902-119.249c26.961-31.863 30.244-77.496 8.123-112.89l-35.758-57.213c-6.18-9.888-5.75-20.558-0.847-28.010 33.071-50.267 109.38-148.662 225.338-200.831 7.369-3.315 17.206-2.708 26.076 3.206l33.555 22.373c32.25 21.498 74.259 21.498 106.502 0l116.493-77.659c36.282-24.192 48.877-71.616 29.376-110.618-49.843-99.693-163.84-160.058-274.394-120.538-264.399 94.515-453.156 275.272-557.868 503.456-45.474 99.096-12.106 210.404 60.895 283.406l20.438 20.438zM276.499 806.232c-12.093 14.291-33.818 15.195-47.056 1.957l-20.438-20.438c-58.337-58.337-79.976-141.739-47.982-211.458 97.517-212.507 273.064-381.17 521.242-469.887 74.63-26.675 157.504 12.685 195.603 88.896 5.069 10.138 1.798 22.458-7.629 28.742l-116.493 77.664c-10.746 7.162-24.749 7.162-35.501 0l-33.555-22.374c-25.005-16.672-58.075-21.709-87.835-8.32-132.367 59.549-216.957 169.924-252.547 224.019-20.125 30.589-17.913 68.38 0.041 97.107l35.758 57.213c7.374 11.798 6.28 27.009-2.707 37.63l-100.902 119.249z" />
<glyph unicode="&#xea28;" glyph-name="exclamation-16" d="M864 448c0 194.404-157.594 352-352 352-194.404 0-352-157.596-352-352 0-194.406 157.596-352 352-352 194.406 0 352 157.594 352 352zM960 448c0-247.424-200.576-448-448-448s-448 200.576-448 448c0 247.423 200.577 448 448 448s448-200.577 448-448zM512 640.851c26.509 0 48-21.491 48-48v-160.607c0-26.51-21.491-48-48-48s-48 21.49-48 48v160.607c0 26.509 21.491 48 48 48zM560 272c0-26.509-21.491-48-48-48s-48 21.491-48 48c0 26.509 21.491 48 48 48s48-21.491 48-48z" />
<glyph unicode="&#xea2f;" glyph-name="hamburger-menu-16" d="M128 736c0 17.673 14.327 32 32 32h704c17.67 0 32-14.327 32-32s-14.33-32-32-32h-704c-17.673 0-32 14.327-32 32zM310.627 566.627c12.497-12.497 12.497-32.758 0-45.254l-105.372-105.373 105.372-105.37c12.497-12.499 12.497-32.762 0-45.261-12.497-12.493-32.758-12.493-45.255 0l-127.999 128.003c-12.497 12.497-12.497 32.758 0 45.254l127.999 128c12.497 12.497 32.758 12.497 45.255 0zM384 416c0 17.673 14.327 32 32 32h448c17.67 0 32-14.327 32-32s-14.33-32-32-32h-448c-17.673 0-32 14.327-32 32zM128.001 96c0 17.67 14.327 32 32 32h703.999c17.67 0 32-14.33 32-32s-14.33-32-32-32h-703.999c-17.673 0-32 14.33-32 32z" />
<glyph unicode="&#xea30;" glyph-name="heart-fill-16" d="M621.071 874.303c32.625 14.307 67.665 21.697 103.095 21.697 35.437 0 70.47-7.391 103.098-21.697 32.614-14.303 62.125-35.212 86.899-61.439 24.787-26.217 44.358-57.248 57.677-91.276 13.325-34.026 20.16-70.44 20.16-107.174s-6.835-73.148-20.16-107.174c-13.318-34.029-32.89-65.059-57.677-91.276l-378.915-401.018c-6.045-6.394-14.458-10.022-23.26-10.022s-17.214 3.629-23.259 10.022l-378.922 401.023c-50.008 52.925-77.808 124.337-77.808 198.445s27.8 145.521 77.808 198.445c50.066 52.986 118.37 83.118 190.002 83.118s139.936-30.132 190.001-83.118l22.177-23.47 22.172 23.465c24.774 26.23 54.293 47.146 86.911 61.45z" />
<glyph unicode="&#xea31;" glyph-name="home-16" d="M404.372 809.402c61.027 55.48 154.228 55.479 215.255 0l224.001-203.636c33.357-30.323 52.371-73.311 52.371-118.39v-327.375c0-88.365-71.635-160-160-160h-448c-88.365 0-160 71.635-160 160v327.375c0 45.079 19.016 88.067 52.372 118.39l224 203.636zM576.577 762.046c-36.616 33.288-92.537 33.288-129.153 0l-224-203.636c-20.013-18.194-31.423-43.987-31.423-71.034v-327.375c0-53.018 42.98-96 96-96h96v192c0 70.691 57.308 127.999 128 127.999s128-57.308 128-127.999v-192h96c53.018 0 96 42.982 96 96v327.375c0 27.048-11.411 52.84-31.424 71.034l-223.999 203.636zM576 64v192c0 35.347-28.654 64-64 64s-64-28.653-64-64v-192h128z" />
<glyph unicode="&#xea36;" glyph-name="link-16" d="M543.493 823.377c94.129 96.732 247.886 96.83 342.139 0.294 98.746-96.726 97.824-257.673 5.146-357.924l-0.563-0.595c-49.779-51.157-153.459-157.331-153.459-157.331-109.789-87.181-263.339-60.378-346.332 49.997-10.621 14.125-7.78 34.186 6.344 44.808s34.187 7.78 44.808-6.344c62.727-83.423 174.596-101.1 253.828-39.555l148.646 152.755c70.285 76.338 69.357 197.629-3.424 268.682l-0.576 0.581c-69.101 71.007-181.594 71.007-250.69 0l-73.065-75.085c-12.325-12.666-32.584-12.943-45.251-0.618s-12.942 32.585-0.617 45.251l73.064 75.085zM633.576 538.182c-82.993 110.373-236.541 137.179-346.33 49.996 0 0-103.685-106.168-153.469-157.324l-0.556-0.602c-92.676-100.252-93.602-261.197 5.149-357.926 94.25-96.538 248.009-96.435 342.137 0.294l73.065 75.085c12.325 12.666 12.049 32.928-0.618 45.254-12.666 12.32-32.925 12.045-45.251-0.621l-73.064-75.085c-69.097-71.008-181.585-71.002-250.682 0.006l-0.587 0.576c-72.78 71.053-73.706 192.346-3.421 268.682l148.643 152.755c79.235 61.544 191.104 43.866 253.831-39.555 10.621-14.125 30.683-16.966 44.808-6.344s16.967 30.682 6.344 44.808z" />
<glyph unicode="&#xea37;" glyph-name="list-16" d="M192 768h-64v-64h64v64zM352 768c-17.673 0-32-14.327-32-32s14.327-32 32-32h512c17.67 0 32 14.327 32 32s-14.33 32-32 32h-512zM128 448h64v-64h-64v64zM352 448c-17.673 0-32-14.327-32-32s14.327-32 32-32h512c17.67 0 32 14.327 32 32s-14.33 32-32 32h-512zM128 128h64v-64h-64v64zM352 128c-17.673 0-32-14.33-32-32s14.327-32 32-32h512c17.67 0 32 14.33 32 32s-14.33 32-32 32h-512z" />
<glyph unicode="&#xea39;" glyph-name="male-16" d="M512 832c-88.365 0-160-71.635-160-160s71.635-160 160-160c88.365 0 160 71.635 160 160s-71.635 160-160 160zM288 672c0 123.712 100.288 224 224 224s224-100.288 224-224c0-123.712-100.288-224-224-224s-224 100.288-224 224zM352 320c-53.020 0-96-42.982-96-96l0.001-192c0-17.67-14.327-32-32-32s-32 14.33-32 32l-0.001 192c-0.001 88.365 71.634 160 160 160h320c88.371 0 160-71.635 160-160v-192c0-17.67-14.323-32-32-32-17.67 0-32 14.33-32 32v192c0 53.018-42.976 96-96 96h-320z" />
<glyph unicode="&#xea42;" glyph-name="setting-16" d="M512 512c-35.346 0-64-28.654-64-64s28.654-64 64-64c35.346 0 64 28.654 64 64s-28.654 64-64 64zM384 448c0 70.692 57.308 128 128 128s128-57.308 128-128c0-70.692-57.308-128-128-128s-128 57.308-128 128zM512 832c-23.927 0-43.636-19.709-43.636-43.636v-7.564c0-36.49-23.562-69.377-55.507-85.349-34.169-17.084-77.201-8.184-106.156 14.979-2.312 1.85-4.33 4.053-6.419 6.143-17.757 17.757-42.878 17.757-60.636 0s-17.757-42.879 0-60.636c2.090-2.090 4.293-4.108 6.142-6.419 48.887-61.108 13.153-161.663-70.369-161.663h-3.782c-23.927 0-43.636-19.709-43.636-43.636s19.709-43.636 43.636-43.636h7.564c36.49 0 69.377-23.562 85.349-55.507 17.453-34.905 11.391-76.281-17.34-105.011l-3.782-3.782c-17.757-17.76-17.757-42.88 0-60.634 17.758-17.76 42.879-17.76 60.636 0 2.090 2.086 4.108 4.288 6.419 6.138 24.173 19.341 62.756 33.158 99.655 16.282 39.768-12.666 62.008-48.198 62.008-86.65v-3.782c0-23.923 19.709-43.635 43.636-43.635s43.636 19.712 43.636 43.635v7.565c0 36.493 23.562 69.376 55.507 85.35 34.905 17.453 76.281 11.392 105.011-17.344l3.782-3.776c17.76-17.76 42.88-17.76 60.634 0 17.76 17.754 17.76 42.874 0 60.634-2.086 2.086-4.288 4.109-6.138 6.419-19.814 24.768-33.837 64.659-14.982 102.373 15.974 31.945 48.858 55.507 85.35 55.507h3.782c23.923 0 43.635 19.709 43.635 43.636s-19.712 43.636-43.635 43.636h-7.565c-36.493 0-69.376 23.562-85.35 55.507-17.747 35.499-10.656 80.797 17.344 108.793l3.776 3.782c17.76 17.757 17.76 42.878 0 60.636-17.754 17.757-42.874 17.757-60.634 0-2.086-2.090-4.109-4.292-6.419-6.142-61.53-49.226-157.88-12.584-157.88 70.369v3.782c0 23.927-19.709 43.636-43.636 43.636zM404.364 788.364c0 59.273 48.364 107.636 107.636 107.636s107.636-48.364 107.636-107.636v-3.782c0-28.389 32.396-36.664 52.658-21.361l2.387 2.388c42.752 42.751 108.397 42.751 151.149 0 42.746-42.751 42.746-108.394 0-151.146l-3.782-3.782c-17.568-17.564-2.298-55.045 22.752-55.045h7.565c59.27 0 107.635-48.364 107.635-107.636s-48.365-107.636-107.635-107.636h-3.782c-8.89 0-21.389-6.692-28.109-20.129-3.712-7.428-2.79-19.896 6.746-32.529l2.387-2.387c42.752-42.752 42.752-108.397 0-151.149-42.746-42.746-108.39-42.746-151.142 0l-3.782 3.782c-17.888 17.888-51.263 2.138-51.263-22.752v-7.565c0-59.27-48.364-107.635-107.636-107.635s-107.636 48.365-107.636 107.635v3.782c0 28.557-36.751 36.23-56.438 21.363l-2.388-2.387c-42.751-42.752-108.394-42.752-151.146 0-42.751 42.746-42.751 108.39 0 151.142l3.782 3.782c9.087 9.088 10.589 20.659 5.351 31.136-6.719 13.436-19.214 20.127-28.106 20.127h-7.564c-59.273 0-107.636 48.364-107.636 107.636s48.364 107.636 107.636 107.636h3.782c29.005 0 35.983 37.077 21.361 56.438l-2.388 2.388c-42.751 42.751-42.751 108.394 0 151.146s108.394 42.751 151.146 0l2.388-2.388c18.911-14.282 56.438-6.76 56.438 21.361v7.564z" />
<glyph unicode="&#xea46;" glyph-name="stopwatch-16" d="M480 704c-176.731 0-320-143.269-320-320s143.269-320 320-320c176.73 0 320 143.27 320 320s-143.27 320-320 320zM96 384c0 212.077 171.923 384 384 384s384-171.923 384-384c0-212.077-171.923-384-384-384s-384 171.923-384 384zM384 864c0 17.673 14.327 32 32 32h128c17.673 0 32-14.327 32-32s-14.327-32-32-32h-128c-17.673 0-32 14.327-32 32zM480 576c17.673 0 32-14.327 32-32v-144l115.2-86.4c14.138-10.605 17.005-30.662 6.4-44.8s-30.662-17.005-44.8-6.4l-128 96c-8.058 6.044-12.8 15.528-12.8 25.6v160c0 17.673 14.327 32 32 32zM950.63 649.373c-12.499-12.497-32.762-12.497-45.261-0.001l-63.994 63.999c-12.499 12.497-12.499 32.758 0 45.255 12.493 12.497 32.755 12.497 45.254 0l64-63.999c12.493-12.497 12.493-32.758 0-45.254z" />
<glyph unicode="&#xea48;" glyph-name="switch-16" d="M192 416c0-194.406 157.596-352 352-352 194.406 0 352 157.594 352 352 0 111.657-51.949 211.16-133.126 275.698-13.837 10.998-16.134 31.129-5.133 44.963 10.995 13.834 31.13 16.132 44.96 5.133 95.789-76.157 157.299-193.803 157.299-325.794 0-229.754-186.246-416-416-416-229.75 0-416 186.246-416 416 0 131.991 61.508 249.636 157.299 325.794 13.834 10.999 33.964 8.7 44.963-5.133s8.7-33.964-5.134-44.963c-81.176-64.538-133.127-164.041-133.127-275.698zM544 832c17.673 0 32-14.327 32-32v-384c0-17.673-14.327-32-32-32s-32 14.327-32 32v384c0 17.673 14.327 32 32 32z" />
<glyph unicode="&#xea4a;" glyph-name="thumb-down-16" d="M435.363 19.974c4.896-12.070 16.625-19.974 29.656-19.974 93.694 0 170.382 67.488 170.382 160v96h198.634c47.29 0 82.413 21.088 103.398 50.925 20.019 28.464 26.611 64.097 20.205 94.198l-78.125 395.293c-7.603 62.267-66.56 99.584-123.891 99.584h-567.368c-66.017 0-124.255-50.423-124.255-117.333v-320c0-66.911 58.237-117.334 124.255-117.334h116.826l130.283-321.359zM294.637 405.333h-106.382c-35.462 0-60.255 26.378-60.255 53.334v320c0 26.956 24.792 53.333 60.255 53.333h106.382v-426.667zM358.637 832h396.986c34.458 0 58.042-21.813 60.442-43.973 0.096-0.927 0.237-1.849 0.416-2.764l78.528-397.36c2.707-12.501 0-30.055-9.926-44.159-9.024-12.833-24.64-23.743-51.046-23.743h-230.634c-17.673 0-32-14.33-32-32v-128c0-46.534-33.901-85.926-85.498-94.342l-127.266 313.916v452.427z" />
<glyph unicode="&#xea4b;" glyph-name="thumb-up-16" d="M435.363 876.023c4.896 12.076 16.625 19.977 29.656 19.977 93.694 0 170.382-67.489 170.382-160v-96h198.634c47.29 0 82.413-21.090 103.398-50.923 20.019-28.466 26.611-64.099 20.205-94.2l-78.125-395.293c-7.603-62.266-66.56-99.584-123.891-99.584h-567.368c-66.017 0-124.255 50.426-124.255 117.331v320.002c0 66.911 58.237 117.334 124.255 117.334h116.826l130.283 321.356zM294.637 490.667h-106.382c-35.462 0-60.255-26.378-60.255-53.334v-320.002c0-26.957 24.792-53.331 60.255-53.331h106.382v426.667zM358.637 64h396.986c34.458 0 58.042 21.811 60.442 43.974 0.096 0.928 0.237 1.85 0.416 2.765l78.528 397.358c2.707 12.501 0 30.055-9.926 44.159-9.024 12.833-24.64 23.743-51.046 23.743h-230.634c-17.673 0-32 14.327-32 32v128c0 46.534-33.901 85.925-85.498 94.34l-127.266-313.914v-452.427z" />
<glyph unicode="&#xea94;" glyph-name="arrow-fill-left-16" d="M320 160c0-12.64 7.437-24.090 18.981-29.235 11.544-5.139 25.033-3.002 34.426 5.453l320.001 287.997c6.739 6.068 10.592 14.714 10.592 23.786s-3.853 17.717-10.592 23.786l-320.001 288c-9.393 8.454-22.881 10.588-34.426 5.446s-18.981-16.595-18.981-29.232v-576z" />
<glyph unicode="&#xea95;" glyph-name="arrow-fill-right-16" d="M704 160c0-12.64-7.437-24.090-18.982-29.235-11.546-5.139-25.030-3.002-34.426 5.453l-319.999 287.997c-6.743 6.068-10.593 14.714-10.593 23.786s3.85 17.717 10.593 23.786l319.999 288c9.395 8.454 22.88 10.588 34.426 5.446s18.982-16.595 18.982-29.232v-576z" />
<glyph unicode="&#xea96;" glyph-name="arrow-right-circle-16" d="M544 896c229.754 0 416-186.25 416-416 0-229.754-186.246-416-416-416-229.75 0-416 186.246-416 416 0 229.75 186.25 416 416 416zM1024 480c0 265.097-214.906 480-480 480-265.097 0-480-214.903-480-480 0-265.094 214.903-480 480-480 265.094 0 480 214.906 480 480zM658.746 512l-137.373 137.373c-12.497 12.497-12.497 32.758 0 45.254s32.758 12.497 45.254 0l192.003-192c12.493-12.497 12.493-32.758 0-45.254l-192.003-192.003c-12.497-12.493-32.758-12.493-45.254 0-12.497 12.499-12.497 32.762 0 45.261l137.373 137.37h-306.746c-17.673 0-32 14.327-32 32s14.327 32 32 32h306.746z" />
<glyph unicode="&#xea97;" glyph-name="arrow-up-circle-16" d="M128 480c0 229.75 186.25 416 416 416 229.754 0 416-186.25 416-416 0-229.754-186.246-416-416-416-229.75 0-416 186.246-416 416zM544 960c-265.097 0-480-214.903-480-480 0-265.094 214.903-480 480-480 265.094 0 480 214.906 480 480 0 265.097-214.906 480-480 480zM556.249 701.572c-3.717 1.542-7.788 2.403-12.057 2.428-0.064 0.001-0.128 0.001-0.192 0.001s-0.128 0-0.192-0.001c-8.125-0.049-16.236-3.172-22.435-9.372l-192-192c-12.497-12.497-12.497-32.758 0-45.254s32.758-12.497 45.254 0l137.373 137.372v-306.745c0-17.67 14.327-32 32-32s32 14.33 32 32v306.745l137.37-137.372c12.499-12.497 32.762-12.497 45.261 0 12.493 12.497 12.493 32.758 0 45.254l-192.003 192c-3.068 3.068-6.604 5.383-10.378 6.945z" />
<glyph unicode="&#xeaa2;" glyph-name="home-fill-16" d="M619.628 809.406c-61.027 55.48-154.228 55.48-215.255 0l-224-203.636c-33.356-30.323-52.372-73.311-52.372-118.39v-327.379c0-88.365 71.635-160 160-160h448c88.365 0 160 71.635 160 160v327.379c0 45.079-19.014 88.067-52.371 118.39l-224.001 203.636zM640 256v-192h-256v192c0 70.692 57.308 128 128 128s128-57.308 128-128z" />
<glyph unicode="&#xeaa3;" glyph-name="image-16" d="M288 832c-88.365 0-160-71.635-160-160v-450.112c0-88.576 71.957-160.294 160.529-160l13.215 0.045 343.889 500.196c5.382 7.834 13.971 12.868 23.443 13.737 9.466 0.869 18.829-2.516 25.549-9.238l201.376-201.373v306.746c0 88.365-71.635 160-160 160h-448zM896 274.746l-219.424 219.425-296.989-431.981 356.945 1.178c88.154 0.294 159.469 71.84 159.469 160v51.379zM64 672c0 123.712 100.288 224 224 224h448c123.712 0 224-100.288 224-224v-448.634c0-123.424-99.84-223.59-223.258-224l-448.002-1.478c-124.001-0.41-224.74 100-224.74 224v450.112zM384 640c0-35.346-28.654-64-64-64s-64 28.654-64 64c0 35.346 28.654 64 64 64s64-28.654 64-64z" />
<glyph unicode="&#xeaa4;" glyph-name="info-16" d="M512 255.149c26.509 0 48 21.491 48 48v160.607c0 26.51-21.491 48-48 48s-48-21.49-48-48v-160.607c0-26.509 21.491-48 48-48zM560 624c0 26.509-21.491 48-48 48s-48-21.491-48-48c0-26.509 21.491-48 48-48s48 21.491 48 48zM512 800c-194.404 0-352-157.596-352-352 0-194.406 157.596-352 352-352 194.406 0 352 157.594 352 352 0 194.404-157.594 352-352 352zM512 896c247.424 0 448-200.577 448-448s-200.576-448-448-448c-247.423 0-448 200.576-448 448s200.577 448 448 448z" />
<glyph unicode="&#xeaa5;" glyph-name="recent-16" d="M512 832c-78.553 0-151.53-23.555-212.346-64h52.346c17.673 0 32-14.327 32-32s-14.327-32-32-32h-128c-17.673 0-32 14.327-32 32v128c0 17.673 14.327 32 32 32s32-14.327 32-32v-48.303c72.569 50.611 160.856 80.303 256 80.303 247.424 0 448-200.577 448-448s-200.576-448-448-448c-247.423 0-448 200.576-448 448 0 17.673 14.327 32 32 32s32-14.327 32-32c0-212.077 171.923-384 384-384s384 171.923 384 384c0 212.077-171.923 384-384 384zM512 608c0 17.673-14.327 32-32 32s-32-14.327-32-32v-160c0-10.072 4.742-19.556 12.8-25.6l128-96c14.138-10.605 34.196-7.738 44.8 6.4s7.738 34.196-6.4 44.8l-115.2 86.4v144z" />
<glyph unicode="&#xeaa6;" glyph-name="serif-info-16" d="M576 640c35.346 0 64 28.654 64 64s-28.654 64-64 64c-35.346 0-64-28.654-64-64s28.654-64 64-64zM572.006 200.109c14.746 5.542 34.406 13.222 59.392 23.462l8.602 34.989c-4.506-2.131-11.469-4.691-20.89-7.251-9.83-2.989-18.022-4.269-25.805-4.269-15.974 0-27.443 2.56-33.997 8.109-6.554 5.542-9.83 15.782-9.83 31.142 0 5.978 0.819 15.36 2.867 26.88 2.048 11.949 4.506 22.189 6.963 31.576l29.901 88.746c2.867 10.667 4.915 21.76 6.144 34.56s1.638 21.334 1.638 26.454c0 24.32-7.782 43.946-24.166 58.88-15.974 14.933-39.322 22.613-69.222 22.613-16.384 0-34.406-2.987-52.838-9.387-18.432-5.973-38.093-13.653-58.573-22.186l-8.192-35.414c6.144 2.56 13.517 5.12 21.709 7.68 8.602 2.56 16.794 3.84 24.986 3.84 16.384 0 27.443-2.56 33.178-8.533s8.602-16.213 8.602-30.72c0-8.107-0.819-17.067-2.867-26.88-0.248-1.19-0.497-2.386-0.746-3.589-1.811-8.72-3.697-17.809-6.217-27.558l-29.901-89.173c-2.867-11.947-4.915-22.611-5.734-32.429-1.229-9.811-2.048-18.771-2.048-28.16 0-23.891 8.192-43.091 24.986-58.451s40.141-23.040 70.451-23.040c19.661 0 36.864 2.56 51.61 8.109z" />
<glyph unicode="&#xeaa8;" glyph-name="sort-ascending-16" d="M64 784c0 26.509 21.491 48 48 48h800c26.509 0 48-21.491 48-48s-21.491-48-48-48h-800c-26.509 0-48 21.491-48 48zM512 464c0 26.509 21.491 48 48 48h352c26.509 0 48-21.491 48-48s-21.491-48-48-48h-352c-26.509 0-48 21.491-48 48zM688 192c-26.509 0-48-21.491-48-48s21.491-48 48-48h224c26.509 0 48 21.491 48 48s-21.491 48-48 48h-224zM288 576c26.509 0 48-21.491 48-48v-371.494l95.712 87.008c19.615 17.837 49.973 16.39 67.805-3.226s16.387-49.971-3.229-67.808l-175.999-160c-2.598-2.362-5.389-4.384-8.32-6.074-6.384-3.686-13.696-5.946-21.5-6.342-0.818-0.045-1.642-0.064-2.47-0.064-0.484 0-0.968 0.006-1.451 0.019-11.943 0.358-22.79 5.075-31.003 12.614l-175.834 159.846c-19.615 17.837-21.061 48.192-3.229 67.808s48.19 21.062 67.805 3.232l95.711-87.014v371.494c0 26.509 21.491 48 48 48z" />
<glyph unicode="&#xeaa9;" glyph-name="sort-descending-16" d="M431.708 652.483c19.615-17.832 49.973-16.387 67.805 3.229s16.387 49.973-3.229 67.805l-175.835 159.85c-8.213 7.54-19.060 12.257-31.002 12.611-1.012 0.030-2.026 0.029-3.038-0.004-8.135-0.264-15.758-2.552-22.382-6.378-2.931-1.691-5.722-3.717-8.32-6.079l-175.999-160c-19.616-17.832-21.061-48.189-3.229-67.805s48.19-21.061 67.805-3.228l95.712 87.011v-371.494c0-26.509 21.491-47.999 48-47.999s48 21.49 48 47.999v371.494l95.711-87.011zM768 735.999c-26.509 0-48 21.491-48 48s21.491 48 48 48h144c26.509 0 48-21.49 48-48s-21.491-48-48-48h-144zM591.999 463.999c0-26.509 21.491-48 48-48h272.001c26.509 0 48 21.491 48 48s-21.491 48-48 48h-272.001c-26.509 0-48-21.49-48-48zM63.999 144c0-26.509 21.49-48 48-48h800.001c26.509 0 48 21.491 48 48s-21.491 48-48 48h-800.001c-26.509 0-48-21.491-48-48z" />
<glyph unicode="&#xeabe;" glyph-name="account-16" d="M128 448c0 212.077 171.923 384 384 384s384-171.923 384-384c0-98.976-37.446-189.203-98.944-257.293-14.317 73.67-79.194 129.293-157.056 129.293h-256c-77.864 0-142.737-55.622-157.057-129.293-61.498 68.090-98.943 158.317-98.943 257.293zM288 136.064v23.936c0 53.018 42.98 96 96 96h256c53.018 0 96-42.982 96-96v-23.936c-63.046-45.35-140.404-72.064-224-72.064s-160.952 26.714-224 72.064zM512 896c-247.423 0-448-200.577-448-448s200.577-448 448-448c247.424 0 448 200.576 448 448s-200.576 448-448 448zM512 640c-53.020 0-96-42.98-96-96s42.98-96 96-96c53.020 0 96 42.98 96 96s-42.98 96-96 96zM352 544c0 88.365 71.635 160 160 160s160-71.635 160-160c0-88.365-71.635-160-160-160s-160 71.635-160 160z" />
<glyph unicode="&#xeabf;" glyph-name="cached-16" d="M895.923 554.29c-69.024 215.073-279.368 330.27-476.84 254.509-0.425-0.163-0.847-0.335-1.265-0.516-53.347-23.124-98.282-55.46-138.643-96.397l-0.673-0.704-150.504-162.24v187.057c0 17.673-14.327 32-32 32s-32-14.327-32-32v-256c0-17.673 14.327-32 32-32h256c17.673 0 32 14.327 32 32s-14.327 32-32 32h-170.973l144.060 155.294c35.018 35.446 72.99 62.579 117.555 81.995 157.854 60.142 332.871-29.248 392.34-214.557 5.402-16.828 23.424-26.091 40.25-20.69 16.832 5.401 26.093 23.421 20.691 40.248zM736 448c-17.67 0-32-14.327-32-32s14.33-32 32-32h110.413l-148.314-159.891c-119.63-134.822-312.786-134.822-432.418 0-34.776 39.194-59.201 82.291-76.851 134.006-5.708 16.726-23.894 25.658-40.621 19.949s-25.657-23.895-19.949-40.621c20.168-59.095 48.689-109.764 89.549-155.812 145.016-163.43 382.804-163.52 527.924-0.269l150.266 161.984v-183.347c0-17.67 14.33-32 32-32s32 14.33 32 32v256c0 17.673-14.33 32-32 32h-192z" />
<glyph unicode="&#xeac0;" glyph-name="check_box_active-16" d="M160 896h704c53.018 0 96-42.98 96-96v-704c0-53.018-42.982-96-96-96h-704c-53.020 0-96 42.982-96 96v704c0 53.020 42.98 96 96 96zM758.63 585.373c12.493 12.497 12.493 32.758 0 45.254-12.499 12.497-32.762 12.497-45.261 0l-297.37-297.372-105.373 105.372c-12.497 12.497-32.758 12.497-45.254 0s-12.497-32.758 0-45.254l128-128.003c12.497-12.493 32.758-12.493 45.254 0l320.003 320.003z" />
<glyph unicode="&#xeac1;" glyph-name="check_box_blank-16" d="M64 800c0 53.020 42.98 96 96 96h704c53.018 0 96-42.98 96-96v-704c0-53.018-42.982-96-96-96h-704c-53.020 0-96 42.982-96 96v704zM160 832c-17.673 0-32-14.327-32-32v-704c0-17.67 14.327-32 32-32h704c17.67 0 32 14.33 32 32v704c0 17.673-14.33 32-32 32h-704z" />
<glyph unicode="&#xeade;" glyph-name="attach-16" d="M682.221 684.758c-72.416 74.83-193.942 69.578-259.631-11.22l-173.759-213.724c-11.149-13.713-31.303-15.792-45.016-4.643s-15.791 31.303-4.643 45.016l173.759 213.724c89.89 110.564 256.187 117.752 355.281 15.354 83.616-86.404 89.549-221.638 13.824-315.033l-182.912-225.592c-58.58-72.25-165.309-81.734-235.71-20.941-67.611 58.374-76.402 159.992-19.822 229.116l168.569 205.939c37.198 45.444 105.498 48.843 147.024 7.316 36.31-36.308 38.941-94.31 6.067-133.756l-120.668-144.801c-11.314-13.574-31.492-15.411-45.069-4.097s-15.411 31.492-4.097 45.069l120.668 144.801c11.681 14.017 10.746 34.628-2.156 47.53-14.756 14.756-39.026 13.549-52.244-2.6l-168.569-205.939c-34.607-42.28-29.23-104.431 12.124-140.143 43.060-37.178 108.34-31.379 144.172 12.813l182.909 225.592c55.341 68.252 51.008 167.077-10.099 230.219z" />
<glyph unicode="&#xeae0;" glyph-name="instagram-16" d="M128 672c0 88.365 71.635 160 160 160h448c88.365 0 160-71.635 160-160v-448c0-88.365-71.635-160-160-160h-448c-88.365 0-160 71.635-160 160v448zM288 896c-123.712 0-224-100.288-224-224v-448c0-123.712 100.288-224 224-224h448c123.712 0 224 100.288 224 224v448c0 123.712-100.288 224-224 224h-448zM768 672c0 17.673-14.33 32-32 32s-32-14.327-32-32c0-17.673 14.33-32 32-32s32 14.327 32 32zM530.585 574.572l0.137-0.020c55.682-8.321 99.56-52.185 107.902-107.863 10.24-70.261-37.83-135.080-107.8-145.304-70.276-10.268-135.122 37.806-145.348 107.796l-0.024 0.163c-10.545 69.661 37.725 134.95 107.816 145.192v-0.001l0.239 0.036c12.378 1.905 24.7 1.905 37.078 0zM540.249 637.838c-18.766 2.88-37.588 2.883-56.354 0.008-105.056-15.417-177.54-113.288-161.735-217.999 15.417-105.21 112.983-177.126 217.918-161.792 105.253 15.379 177.202 112.975 161.868 217.938l-0.019 0.102c-12.474 83.51-78.179 149.235-161.677 161.743z" />
<glyph unicode="&#xeaef;" glyph-name="back-to-itinerary-16" d="M374.627 822.627c12.497-12.497 12.497-32.758 0-45.254l-137.372-137.373h370.745c159.059 0 288-128.942 288-288s-128.941-288-288-288h-384c-17.673 0-32 14.33-32 32s14.327 32 32 32h384c123.712 0 224 100.288 224 224s-100.288 224-224 224h-370.745l137.372-137.373c12.497-12.497 12.497-32.758 0-45.254s-32.758-12.497-45.254 0l-192 192c-12.497 12.497-12.497 32.758 0 45.254l192 192c12.497 12.497 32.758 12.497 45.254 0z" />
<glyph unicode="&#xeaf0;" glyph-name="back-to-list-16" d="M160 832c-17.673 0-32-14.327-32-32s14.327-32 32-32h704c17.67 0 32 14.327 32 32s-14.33 32-32 32h-704zM692.486 455.416c13.574 11.314 15.411 31.492 4.096 45.069s-31.494 15.411-45.069 4.097l-191.999-160c-7.296-6.080-11.514-15.086-11.514-24.582 0-9.498 4.218-18.502 11.514-24.582l191.999-160c13.574-11.315 33.754-9.478 45.069 4.096s9.478 33.754-4.096 45.069l-124.101 103.418h295.615c17.67 0 32 14.323 32 32 0 17.672-14.33 31.999-32 31.999h-295.615l124.101 103.417zM128 160c0 17.67 14.327 32 32 32h192c17.673 0 32-14.33 32-32s-14.327-32-32-32h-192c-17.673 0-32 14.33-32 32zM160 512c-17.673 0-32-14.327-32-32s14.327-32 32-32h192c17.673 0 32 14.327 32 32s-14.327 32-32 32h-192z" />
<glyph unicode="&#xeaf1;" glyph-name="filters-16" d="M195.786 815.1c5.569 10.405 16.412 16.9 28.214 16.9h640c11.802 0 22.643-6.495 28.211-16.9s4.96-23.030-1.587-32.85l-250.624-375.939v-310.311c0-11.091-5.743-21.389-15.176-27.219s-21.215-6.362-31.135-1.402l-128 64c-10.841 5.421-17.689 16.499-17.689 28.621v246.311l-250.625 375.939c-6.547 9.82-7.157 22.445-1.588 32.85zM283.793 768l222.833-334.25c3.504-5.256 5.374-11.433 5.374-17.75v-236.224l64-32v268.224c0 6.317 1.87 12.494 5.375 17.75l222.83 334.25h-520.412z" />
</font>
</defs>
</svg>
