<?xml version="1.0" standalone="no"?>
<!DOCTYPE svg PUBLIC "-//W3C//DTD SVG 1.1//EN" "http://www.w3.org/Graphics/SVG/1.1/DTD/svg11.dtd" >
<svg xmlns="http://www.w3.org/2000/svg">
<metadata>Generated by IcoMoon</metadata>
<defs>
<font id="icomoon" horiz-adv-x="1024">
<font-face units-per-em="1024" ascent="960" descent="-64" />
<missing-glyph horiz-adv-x="1024" />
<glyph unicode="&#x20;" horiz-adv-x="512" d="" />
<glyph unicode="&#xe900;" glyph-name="backarrow" horiz-adv-x="496" d="M436.547-64c-21.558 0-37.726 10.779-48.505 26.947l-377.263 452.716c-5.389 0-10.779 16.168-16.168 32.337 0 16.168 5.389 32.337 16.168 43.116l377.263 452.716c10.779 5.389 26.947 16.168 43.116 16.168s32.337-5.389 43.116-16.168c10.779-10.779 21.558-21.558 21.558-32.337 5.389-16.168 0-37.726-10.779-48.505l-344.926-420.379 344.926-409.6c21.558-32.337 16.168-70.063-10.779-86.232-10.779-10.779-26.947-10.779-37.726-10.779z" />
<glyph unicode="&#xe901;" glyph-name="hamburger" horiz-adv-x="1536" d="M0-64h1536v170.667h-1536v-170.667zM640 362.667h896v170.667h-896v-170.667zM0 960v-170.667h1536v170.667h-1536z" />
<glyph unicode="&#xe902;" glyph-name="nextarrow" horiz-adv-x="496" d="M64.674-58.611c-10.779 0-26.947 5.389-37.726 10.779-16.168 10.779-21.558 26.947-26.947 43.116 0 16.168 5.389 32.337 10.779 43.116l344.926 409.6-334.147 409.6c-10.779 10.779-21.558 21.558-21.558 37.726s5.389 37.726 16.168 48.505v0c32.337 26.947 70.063 16.168 86.232 10.779h5.389l382.653-458.105c21.558-21.558 21.558-59.284 0-80.842l-377.263-452.716c-10.779-10.779-21.558-21.558-48.505-21.558 5.389 0 5.389 0 0 0z" />
<glyph unicode="&#xe903;" glyph-name="search" d="M1004.8 51.2l-262.4 262.4c44.8 64 76.8 147.2 76.8 236.8 0 224-185.6 409.6-409.6 409.6s-409.6-185.6-409.6-409.6 185.6-409.6 409.6-409.6c89.6 0 172.8 25.6 236.8 76.8l262.4-262.4c12.8-12.8 32-19.2 51.2-19.2s32 6.4 51.2 19.2c19.2 25.6 19.2 70.4-6.4 96zM409.6 275.2c-153.6 0-275.2 121.6-275.2 275.2s121.6 275.2 275.2 275.2 275.2-121.6 275.2-275.2-121.6-275.2-275.2-275.2z" />
<glyph unicode="&#xe904;" glyph-name="arrowdown" horiz-adv-x="1843" d="M1556.48 931.774c40.96 20.48 61.44 40.96 122.88 40.96 40.96 0 81.92-20.48 122.88-61.44s40.96-81.92 40.96-122.88c0-40.96-20.48-81.92-61.44-122.88l-737.28-675.84c-20.48-20.48-61.44-40.96-102.4-40.96 0 0 0 0-20.48 0-40.96 0-81.92 20.48-122.88 40.96l-737.28 675.84c-81.92 61.44-81.92 184.32-20.48 245.76 40.96 40.96 81.92 61.44 122.88 61.44s102.4-20.48 122.88-40.96l634.88-573.44 593.92 532.48 40.96 40.96zM163.84 767.934v0 0z" />
<glyph unicode="&#xe905;" glyph-name="arrowup" horiz-adv-x="1843" d="M286.72-30.786c-40.96-20.48-61.44-40.96-122.88-40.96-40.96 0-81.92 20.48-122.88 61.44s-40.96 81.92-40.96 122.88c0 40.96 20.48 81.92 61.44 122.88l737.28 675.84c20.48 20.48 61.44 40.96 102.4 40.96 0 0 0 0 20.48 0 40.96 0 81.92-20.48 122.88-40.96l737.28-675.84c81.92-61.44 81.92-184.32 20.48-245.76-40.96-40.96-81.92-61.44-122.88-61.44s-102.4 20.48-122.88 40.96l-634.88 573.44-593.92-532.48-40.96-40.96zM1679.36 133.054v0 0z" />
<glyph unicode="&#xe906;" glyph-name="close" d="M0 38.4l102.4-102.4 921.6 921.6-102.4 102.4-921.6-921.6zM1.253 857.772l102.222 102.222 919.995-919.995-102.222-102.222-919.995 919.995z" />
<glyph unicode="&#xe907;" glyph-name="comments" horiz-adv-x="1181" d="M983.040 960h-546.133c-116.053 0-204.8-88.747-204.8-197.973v-457.387l-225.28-300.373c-13.653-20.48-6.827-40.96-6.827-47.787 13.653-13.653 27.307-20.48 40.96-20.48h935.253c116.053 0 197.973 88.747 197.973 197.973v628.053c6.827 109.227-81.92 197.973-191.147 197.973zM1092.267 133.973c0-68.267-47.787-109.227-109.227-109.227h-853.333l184.32 238.933c0 6.827 6.827 20.48 6.827 27.307v471.040c0 68.267 47.787 109.227 109.227 109.227h546.133c68.267 0 109.227-47.787 109.227-109.227v-628.053zM546.133 645.973h320.853v-88.747h-320.853v88.747zM546.133 338.773h320.853v-88.747h-320.853v88.747z" />
<glyph unicode="&#xe908;" glyph-name="quote-down" horiz-adv-x="1132" d="M1132.461 960v-488.075c3.19-70.181-6.38-137.171-31.9-197.782-22.33-60.611-54.231-114.841-92.511-162.692-41.47-47.85-89.321-86.131-143.551-114.841-57.421-31.9-118.031-51.040-185.022-60.611v210.542c79.751 28.71 137.171 66.991 165.882 121.221s44.66 121.221 44.66 197.782h-210.542v494.455h452.984zM452.984 960v-488.075c3.19-70.181-6.38-137.171-31.9-197.782-22.33-60.611-54.231-114.841-92.511-162.692-41.47-47.85-89.321-86.131-146.741-114.841-57.421-31.9-118.031-51.040-185.022-60.611v210.542c79.751 28.71 137.171 66.991 165.882 121.221s44.66 121.221 44.66 197.782h-207.352v494.455h452.984z" />
<glyph unicode="&#xe909;" glyph-name="quote-up" horiz-adv-x="1132" d="M0-64v488.075c-3.19 70.181 6.38 137.171 31.9 197.782 22.33 60.611 51.040 114.841 92.511 162.692s89.321 86.131 146.741 114.841c57.421 31.9 118.031 51.040 185.022 60.611v-210.542c-82.941-28.71-140.361-70.181-169.072-121.221-28.71-54.231-44.66-121.221-44.66-197.782h210.542v-491.265h-452.984zM679.477-64v488.075c-3.19 70.181 6.38 137.171 31.9 197.782 22.33 60.611 51.040 114.841 92.511 162.692s89.321 86.131 146.741 114.841c57.421 31.9 118.031 51.040 181.832 60.611v-210.542c-79.751-28.71-137.171-66.991-165.882-121.221s-44.66-121.221-44.66-197.782h210.542v-491.265h-452.984z" />
<glyph unicode="&#xe90a;" glyph-name="search2" d="M927.624-64c-24.094 0-48.188 12.047-66.259 30.118l-228.894 228.894c-66.259-42.165-138.541-60.235-216.847-60.235-228.894-6.024-415.624 180.706-415.624 409.6s186.729 415.624 415.624 415.624 415.624-186.729 415.624-415.624c0-78.306-24.094-150.588-60.235-216.847l228.894-228.894c18.071-18.071 30.118-42.165 30.118-66.259s-12.047-48.188-30.118-66.259c-24.094-18.071-42.165-30.118-72.282-30.118zM415.624 773.271c-126.494 0-228.894-102.4-228.894-228.894s102.4-228.894 228.894-228.894 228.894 102.4 228.894 228.894-102.4 228.894-228.894 228.894z" />
<glyph unicode="&#xe90b;" glyph-name="socialmedia_fb" d="M425.984 443.904v-315.392c0-4.096 4.096-8.192 8.192-8.192h114.688c4.096 0 8.192 4.096 8.192 8.192v319.488h86.016c4.096 0 8.192 4.096 8.192 8.192l8.192 94.208c0 4.096-4.096 8.192-8.192 8.192h-94.208v73.728c0 16.384 12.288 28.672 28.672 28.672h69.632c4.096 0 8.192 4.096 8.192 8.192v94.208c0 4.096-4.096 8.192-8.192 8.192h-110.592c-65.536 0-118.784-53.248-118.784-118.784v-94.208h-57.344c-4.096 0-8.192-4.096-8.192-8.192v-94.208c0-4.096 4.096-8.192 8.192-8.192h57.344v-4.096z" />
<glyph unicode="&#xe90c;" glyph-name="socialmedia_gplus" d="M606.208 480.768v0h-237.568v-86.016h143.36c-20.48-61.44-77.824-106.496-143.36-106.496-86.016 0-151.552 69.632-151.552 155.648s69.632 155.648 151.552 155.648c36.864 0 69.632-12.288 98.304-36.864h4.096l61.44 69.632c-45.056 40.96-102.4 65.536-163.84 65.536-135.168 0-241.664-110.592-241.664-245.76s110.592-245.76 241.664-245.76c16.384 0 36.864 0 53.248 4.096 36.864 8.192 69.632 24.576 94.208 45.056 28.672 20.48 49.152 49.152 65.536 81.92 8.192 16.384 16.384 32.768 20.48 49.152 4.096 20.48 4.096 45.056 4.096 65.536 0 8.192 0 20.48 0 28.672zM757.76 554.496h69.632v-212.992h-69.632v212.992zM688.128 484.864h212.992v-69.632h-212.992v69.632z" />
<glyph unicode="&#xe90d;" glyph-name="socialmedia_ln" d="M245.76 538.112h122.88v-352.256h-122.88v352.256zM307.2 714.24c-36.864 0-65.536-36.864-57.344-77.824 4.096-24.576 24.576-40.96 49.152-45.056 36.864-8.192 69.632 20.48 69.632 57.344s-24.576 65.536-61.44 65.536zM774.144 427.52c-8.192 65.536-40.96 106.496-131.072 106.496-65.536 0-90.112-8.192-102.4-36.864v0 36.864h-98.304v-352.256h102.4v184.32c0 45.056 8.192 81.92 65.536 81.92s61.44-40.96 61.44-81.92v-184.32h106.496c-4.096 0 0 229.376-4.096 245.76z" />
<glyph unicode="&#xe90e;" glyph-name="socialmedia_tw" d="M823.296 644.608c-20.48-8.192-40.96-16.384-65.536-16.384 12.288 0 24.576 20.48 32.768 28.672 8.192 12.288 16.384 24.576 20.48 36.864 0 0 0 4.096 0 4.096s-4.096 0-4.096 0c-24.576-12.288-49.152-20.48-73.728-28.672-4.096 0-4.096 0-4.096 0 0 4.096-4.096 4.096-8.192 8.192-12.288 8.192-24.576 16.384-36.864 20.48-16.384 8.192-36.864 12.288-57.344 8.192-20.48 0-36.864-8.192-53.248-16.384-12.288-4.096-28.672-16.384-40.96-32.768s-20.48-32.768-24.576-53.248c-4.096-16.384-4.096-36.864 0-53.248 0-4.096 0-4.096-4.096-4.096-102.4 16.384-188.416 57.344-258.048 135.168-4.096 4.096-4.096 4.096-8.192 0-32.768-45.056-16.384-118.784 20.48-155.648 4.096-4.096 12.288-8.192 16.384-12.288-4.096 0-28.672 4.096-49.152 12.288-4.096 0-4.096 0-4.096-4.096s0-8.192 0-16.384c4.096-45.056 36.864-90.112 81.92-106.496 4.096-4.096 12.288-4.096 16.384-4.096-8.192-4.096-20.48-4.096-49.152 0-4.096 0-4.096 0-4.096-4.096 24.576-57.344 69.632-77.824 102.4-86.016 4.096 0 8.192 0 12.288 0 0 0 0 0 0 0-12.288-16.384-53.248-32.768-69.632-36.864-32.768-12.288-69.632-16.384-106.496-12.288-4.096 0-8.192 0-8.192 0s0-4.096 0-4.096c8.192-4.096 16.384-8.192 20.48-12.288 28.672-16.384 49.152-28.672 77.824-36.864 126.976-36.864 274.432-8.192 368.64 86.016 77.824 73.728 102.4 180.224 102.4 282.624 0 4.096 4.096 8.192 8.192 8.192 20.48 16.384 36.864 32.768 49.152 53.248 4.096 8.192 4.096 12.288 0 12.288 4.096 0 4.096 0 0 0 4.096 4.096 4.096 4.096 0 0zM385.024 189.952c53.248 0 0 0 0 0 4.096 0 0 0 0 0zM385.024 189.952c0 0-12.288 0 0 0 0 0-4.096 0 0 0zM405.504 185.856c0 4.096 12.288 0 0 0 0 4.096 0 0 0 0zM626.688 706.048c0-4.096 0-4.096 0 0 0 0 0 0 0 0z" />
<glyph unicode="&#xe90f;" glyph-name="calender" d="M864.256 863.744h-126.976v32.768c0 18.432-12.288 32.768-32.768 32.768s-32.768-12.288-32.768-32.768v-32.768h-319.488v32.768c0 18.432-12.288 32.768-32.768 32.768-18.432 0-32.768-12.288-32.768-32.768v-32.768h-126.976c-90.112 0-159.744-71.68-159.744-159.744v-575.488c0-90.112 69.632-159.744 159.744-159.744h704.512c90.112 0 159.744 69.632 159.744 159.744v575.488c2.048 88.064-69.632 159.744-159.744 159.744v0zM65.536 704c0 51.2 45.056 96.256 96.256 96.256h126.976v-32.768c0-18.432 12.288-32.768 32.768-32.768 18.432 0 32.768 12.288 32.768 32.768v32.768h321.536v-32.768c0-18.432 12.288-32.768 32.768-32.768 18.432 0 32.768 12.288 32.768 32.768v32.768h126.976c51.2 0 96.256-45.056 96.256-96.256v-96.256h-897.024l-2.048 96.256zM960.512 128.512c0-51.2-45.056-96.256-96.256-96.256h-702.464c-51.2 0-96.256 45.056-96.256 96.256v413.696h894.976v-413.696zM225.28 128.512c18.432 0 32.768 6.144 45.056 18.432s18.432 32.768 18.432 45.056-6.144 32.768-18.432 45.056c-26.624 26.624-63.488 26.624-90.112 0-12.288-12.288-18.432-26.624-18.432-45.056 0-12.288 6.144-32.768 18.432-45.056 14.336-14.336 26.624-18.432 45.056-18.432zM225.28 318.976c18.432 0 32.768 6.144 45.056 18.432s18.432 32.768 18.432 45.056c0 12.288-6.144 32.768-18.432 45.056-26.624 26.624-63.488 26.624-90.112 0-12.288-12.288-18.432-26.624-18.432-45.056s6.144-32.768 18.432-45.056c14.336-12.288 26.624-18.432 45.056-18.432zM417.792 128.512c18.432 0 32.768 6.144 45.056 18.432s18.432 32.768 18.432 45.056-6.144 32.768-18.432 45.056c-26.624 26.624-63.488 26.624-90.112 0-12.288-12.288-18.432-32.768-18.432-45.056s6.144-32.768 18.432-45.056c14.336-14.336 26.624-18.432 45.056-18.432zM417.792 318.976c18.432 0 32.768 6.144 45.056 18.432s18.432 32.768 18.432 45.056c0 12.288-6.144 32.768-18.432 45.056-26.624 26.624-63.488 26.624-90.112 0-12.288-12.288-18.432-32.768-18.432-45.056s6.144-32.768 18.432-45.056c14.336-12.288 26.624-18.432 45.056-18.432zM610.304 128.512c18.432 0 32.768 6.144 45.056 18.432s18.432 26.624 18.432 45.056c0 18.432-6.144 32.768-18.432 45.056-26.624 26.624-63.488 26.624-90.112 0-12.288-12.288-18.432-32.768-18.432-45.056s6.144-32.768 18.432-45.056c12.288-14.336 26.624-18.432 45.056-18.432zM610.304 318.976c18.432 0 32.768 6.144 45.056 18.432s18.432 26.624 18.432 45.056c0 12.288-6.144 32.768-18.432 45.056-26.624 26.624-63.488 26.624-90.112 0-12.288-12.288-18.432-32.768-18.432-45.056s6.144-32.768 18.432-45.056c12.288-12.288 26.624-18.432 45.056-18.432zM800.768 128.512c18.432 0 32.768 6.144 45.056 18.432s18.432 32.768 18.432 45.056-6.144 32.768-18.432 45.056c-26.624 26.624-63.488 26.624-90.112 0-12.288-12.288-18.432-26.624-18.432-45.056 0-12.288 6.144-32.768 18.432-45.056 14.336-14.336 26.624-18.432 45.056-18.432zM800.768 318.976c18.432 0 32.768 6.144 45.056 18.432s18.432 26.624 18.432 45.056c0 12.288-6.144 32.768-18.432 45.056-26.624 26.624-63.488 26.624-90.112 0-12.288-12.288-18.432-32.768-18.432-45.056s6.144-32.768 18.432-45.056c14.336-12.288 26.624-18.432 45.056-18.432z" />
<glyph unicode="&#xe910;" glyph-name="call" d="M675.84-12.8c73.728 0 141.312 24.576 192.512 75.776l75.776 75.776c36.864 36.864 36.864 98.304 0 137.216l-114.688 114.688c-18.432 18.432-47.104 28.672-73.728 28.672-28.672-2.048-53.248-16.384-69.632-36.864l-73.728-96.256c-53.248 28.672-104.448 67.584-149.504 112.64s-83.968 96.256-112.64 149.504l96.256 73.728c20.48 16.384 34.816 43.008 36.864 69.632 2.048 28.672-8.192 55.296-28.672 73.728l-114.688 114.688c-18.432 18.432-43.008 28.672-67.584 28.672s-51.2-10.24-69.632-26.624l-59.392-61.44c-6.144-4.096-10.24-10.24-16.384-14.336-139.264-139.264-83.968-389.12 133.12-608.256 139.264-139.264 288.768-210.944 415.744-210.944zM174.080 759.296c4.096 4.096 8.192 8.192 14.336 12.288 2.048 2.048 2.048 2.048 2.048 2.048l61.44 61.44c6.144 6.144 14.336 8.192 22.528 8.192s16.384-4.096 22.528-8.192l114.688-114.688c6.144-6.144 10.24-14.336 8.192-24.576-2.048-8.192-4.096-16.384-12.288-22.528l-108.544-83.968c-16.384-14.336-22.528-36.864-12.288-57.344 32.768-65.536 75.776-126.976 131.072-180.224 53.248-53.248 116.736-98.304 182.272-131.072 18.432-10.24 43.008-4.096 57.344 12.288l83.968 108.544c6.144 6.144 14.336 12.288 22.528 12.288 8.192 2.048 18.432-2.048 24.576-8.192l114.688-114.688c12.288-12.288 12.288-32.768 0-43.008l-75.776-75.776c-114.688-114.688-325.632-59.392-516.096 131.072-194.56 190.464-249.856 403.456-137.216 516.096z" />
<glyph unicode="&#xe911;" glyph-name="close2" d="M835.584 884.224l-323.584-323.584-323.584 323.584c-32.768 32.768-81.92 32.768-112.64 0-32.768-32.768-32.768-81.92 0-112.64l323.584-323.584-323.584-323.584c-32.768-32.768-32.768-81.92 0-112.64 32.768-32.768 81.92-32.768 112.64 0l323.584 323.584 323.584-323.584c32.768-32.768 81.92-32.768 112.64 0 32.768 32.768 32.768 81.92 0 112.64l-323.584 323.584 323.584 323.584c32.768 32.768 32.768 81.92 0 112.64-30.72 32.768-81.92 32.768-112.64 0z" />
<glyph unicode="&#xe912;" glyph-name="edit" d="M141.312 321.024c-4.096-4.096-6.144-8.192-8.192-12.288l-81.92-284.672c-4.096-10.24 0-20.48 8.192-28.672 6.144-6.144 12.288-8.192 20.48-8.192 4.096 0 6.144 0 8.192 2.048l284.672 81.92c4.096 2.048 10.24 4.096 12.288 8.192l440.32 440.32-245.76 241.664-438.272-440.32zM972.8 718.336c0 34.816-14.336 67.584-38.912 92.16l-61.44 61.44c-51.2 51.2-133.12 51.2-184.32 0l-79.872-79.872 245.76-241.664 77.824 77.824c26.624 22.528 40.96 55.296 40.96 90.112z" />
<glyph unicode="&#xe913;" glyph-name="plus" d="M522.24 919.040c-253.952 0-460.8-206.848-460.8-460.8s206.848-460.8 460.8-460.8 460.8 206.848 460.8 460.8-206.848 460.8-460.8 460.8zM522.24 52.736c-223.232 0-405.504 182.272-405.504 405.504s182.272 405.504 405.504 405.504 405.504-182.272 405.504-405.504-182.272-405.504-405.504-405.504zM708.608 486.912h-157.696v157.696c0 16.384-12.288 28.672-28.672 28.672s-28.672-12.288-28.672-28.672v-157.696h-157.696c-16.384 0-28.672-12.288-28.672-28.672s12.288-28.672 28.672-28.672h157.696v-157.696c0-16.384 12.288-28.672 28.672-28.672s28.672 12.288 28.672 28.672v157.696h157.696c16.384 0 28.672 12.288 28.672 28.672s-14.336 28.672-28.672 28.672z" />
<glyph unicode="&#xe914;" glyph-name="question" d="M512 908.8c-253.952 0-460.8-206.848-460.8-460.8s206.848-460.8 460.8-460.8 460.8 206.848 460.8 460.8-206.848 460.8-460.8 460.8zM512 42.496c-223.232 0-405.504 182.272-405.504 405.504s182.272 405.504 405.504 405.504c223.232 0 405.504-182.272 405.504-405.504s-182.272-405.504-405.504-405.504zM512 271.872c-12.288 0-22.528-4.096-30.72-12.288s-12.288-18.432-12.288-30.72 4.096-22.528 12.288-30.72 18.432-12.288 30.72-12.288c10.24 0 20.48 4.096 30.72 12.288 8.192 8.192 12.288 18.432 12.288 30.72s-4.096 22.528-12.288 30.72-18.432 12.288-30.72 12.288zM618.496 677.376c-12.288 10.24-26.624 18.432-45.056 24.576-16.384 6.144-34.816 8.192-55.296 8.192s-38.912-2.048-55.296-8.192c-16.384-6.144-32.768-14.336-45.056-24.576-14.336-10.24-24.576-22.528-32.768-38.912-8.192-14.336-14.336-32.768-18.432-53.248l65.536-6.144c4.096 22.528 12.288 43.008 28.672 57.344 14.336 14.336 34.816 22.528 59.392 22.528s43.008-8.192 55.296-22.528c14.336-14.336 20.48-32.768 20.48-55.296 0-12.288-2.048-22.528-6.144-30.72s-8.192-18.432-14.336-26.624c-6.144-8.192-12.288-16.384-20.48-22.528s-14.336-14.336-22.528-22.528c-10.24-10.24-18.432-18.432-24.576-24.576s-10.24-14.336-14.336-20.48c-4.096-6.144-6.144-14.336-8.192-22.528s-2.048-20.48-2.048-32.768v-45.056h59.392v32.768c0 10.24 0 18.432 2.048 24.576 0 6.144 2.048 12.288 4.096 18.432s6.144 10.24 10.24 16.384c4.096 6.144 10.24 12.288 18.432 18.432 10.24 10.24 20.48 20.48 30.72 30.72s18.432 20.48 26.624 30.72c8.192 10.24 14.336 22.528 18.432 34.816s6.144 26.624 6.144 43.008c0 20.48-4.096 38.912-10.24 55.296-8.192 14.336-18.432 28.672-30.72 38.912z" />
<glyph unicode="&#xe915;" glyph-name="search-3" d="M958.464 67.072l-233.472 233.472c126.976 163.84 98.304 399.36-65.536 528.384s-399.36 98.304-528.384-65.536-100.352-399.36 65.536-528.384c135.168-106.496 327.68-106.496 462.848 0l233.472-233.472c18.432-18.432 47.104-18.432 65.536 0s18.432 47.104 0 65.536zM102.4 531.968c0 180.224 145.408 325.632 325.632 325.632s325.632-145.408 325.632-325.632-145.408-325.632-325.632-325.632c-180.224 0-325.632 145.408-325.632 325.632z" />
<glyph unicode="&#xe916;" glyph-name="star" d="M112.64 908.8v-921.6l399.36 153.6 399.36-153.6v921.6h-798.72zM679.936 263.68l-165.888 83.968-169.984-83.968 28.672 184.32-131.072 137.216 182.272 30.72 88.064 169.984 83.968-165.888 186.368-32.768-129.024-133.12 26.624-190.464z" />
<glyph unicode="&#xe917;" glyph-name="swipe" d="M962.56 540.16l-286.72 194.56-36.864-53.248 169.984-114.688h-593.92v-63.488h737.28c12.288 0 18.432 8.192 20.48 14.336s0 16.384-10.24 22.528zM53.248 374.272c-2.048-10.24-2.048-22.528 12.288-32.768l266.24-180.224 36.864 53.248-169.984 114.688h595.968v63.488h-714.752c-16.384 2.048-24.576-8.192-26.624-18.432z" />
<glyph unicode="&#xe918;" glyph-name="tick2" d="M839.68 749.056l-458.752-432.128-190.464 200.704c-32.768 32.768-81.92 34.816-114.688 2.048s-34.816-81.92-2.048-114.688v0l245.76-256c14.336-16.384 34.816-24.576 55.296-24.576s40.96 8.192 55.296 20.48l516.096 489.472c32.768 28.672 32.768 79.872 2.048 112.64-28.672 32.768-77.824 34.816-110.592 6.144 4.096-2.048 2.048-2.048 2.048-4.096z" />
<glyph unicode="&#xe919;" glyph-name="right-arrow2" d="M972.8 445.952v0l-399.36-399.36-59.392 55.296 309.248 305.152h-772.096v79.872h770.048l-307.2 305.152 59.392 57.344 399.36-403.456z" />
<glyph unicode="&#xe91a;" glyph-name="download" d="M152.576 556.544c12.288 12.288 31.744 12.288 43.008 0 0 0 0 0 0 0l285.696-285.696v602.112c0 17.408 13.312 30.72 30.72 30.72s30.72-13.312 30.72-30.72v-602.112l285.696 285.696c12.288 12.288 31.744 11.264 43.008-1.024s11.264-30.72 0-43.008l-337.92-337.92c-12.288-12.288-31.744-12.288-43.008 0 0 0 0 0 0 0l-337.92 337.92c-12.288 12.288-12.288 31.744 0 44.032zM20.48 12.8c0-17.408 13.312-30.72 30.72-30.72 0 0 0 0 0 0h921.6c17.408 0 30.72 13.312 30.72 30.72s-13.312 30.72-30.72 30.72h-921.6c-17.408 0-30.72-13.312-30.72-30.72 0 0 0 0 0 0z" />
<glyph unicode="&#xe91b;" glyph-name="email" d="M964.608 773.632h-905.216c-21.504 0-38.912-17.408-38.912-38.912v-573.44c0-21.504 17.408-38.912 38.912-38.912h905.216c21.504 0 38.912 17.408 38.912 38.912v573.44c0 21.504-17.408 38.912-38.912 38.912zM913.408 718.336l-401.408-344.064-401.408 344.064h802.816zM530.432 316.928l417.792 358.4v-497.664h-872.448v497.664l417.792-358.4c10.24-9.216 26.624-9.216 36.864 0z" />
<glyph unicode="&#xe91c;" glyph-name="fax" d="M924.672 434.688h-90.112v174.080c0 7.168-3.072 13.312-7.168 18.432l-188.416 201.728c-5.12 5.12-12.288 8.192-19.456 8.192h-349.184c-44.032 0-80.896-35.84-80.896-80.896v-321.536h-90.112c-38.912 0-70.656-29.696-70.656-67.584v-241.664c0-36.864 31.744-67.584 70.656-67.584h825.344c38.912 0 70.656 29.696 70.656 67.584v241.664c0 37.888-31.744 67.584-70.656 67.584zM82.944 367.104c0 7.168 7.168 13.312 16.384 13.312h90.112v-39.936c0-44.032 35.84-80.896 80.896-80.896h483.328c44.032 0 80.896 35.84 80.896 80.896v39.936h90.112c9.216 0 16.384-6.144 16.384-13.312v-241.664c0-7.168-7.168-13.312-16.384-13.312h-825.344c-9.216 0-16.384 6.144-16.384 13.312v241.664zM632.832 622.080v134.144l124.928-134.144h-124.928zM606.208 568.832h174.080v-228.352c0-15.36-12.288-26.624-26.624-26.624h-483.328c-15.36 0-26.624 12.288-26.624 26.624v415.744c0 15.36 12.288 26.624 26.624 26.624h308.224v-187.392c1.024-14.336 12.288-26.624 27.648-26.624zM764.928 153.088c1.024 0 1.024 0 2.048 0h107.52c0 0 0 0 0 0 7.168 0 13.312 3.072 18.432 7.168 5.12 5.12 8.192 11.264 8.192 18.432s-3.072 14.336-7.168 19.456c-5.12 5.12-11.264 8.192-19.456 8.192h-110.592c-14.336-1.024-25.6-14.336-24.576-29.696 1.024-13.312 12.288-23.552 25.6-23.552z" />
<glyph unicode="&#xe91d;" glyph-name="arrowback" d="M31.744 443.904v0l418.816 418.816 61.44-59.392-323.584-320.512h808.96v-82.944h-806.912l321.536-320.512-61.44-59.392-419.84 421.888z" />
<glyph unicode="&#xe91e;" glyph-name="bell" d="M819.2 225.792v275.456c0 142.336-94.208 261.12-234.496 294.912l-11.264 2.048v43.008c0 22.528-11.264 44.032-30.72 54.272 0 0 0 0 0 0-2.048 2.048-4.096 3.072-6.144 3.072 0 0-1.024 0-1.024 0-2.048 1.024-4.096 1.024-6.144 2.048-1.024 0-1.024 0-2.048 0-2.048 0-3.072 1.024-5.12 1.024-1.024 0-2.048 0-2.048 0-1.024 0-2.048 0-4.096 0-1.024 0-2.048 0-4.096 0-1.024 0-1.024 0-2.048 0-2.048 0-3.072 0-5.12-1.024 0 0-1.024 0-1.024 0-2.048 0-4.096-1.024-6.144-2.048 0 0 0 0-1.024 0s-3.072-1.024-5.12-3.072c0 0 0 0 0 0-19.456-10.24-30.72-31.744-30.72-54.272v-43.008l-11.264-2.048c-140.288-33.792-234.496-152.576-234.496-294.912v-275.456l-102.4-98.304v-27.648h808.96v27.648l-102.4 98.304zM757.76 161.28h-471.040v329.728c0 128 99.328 237.568 227.328 241.664 133.12 5.12 243.712-103.424 243.712-236.544v-334.848zM520.192-18.944c39.936 0 73.728 29.696 80.896 67.584h-162.816c7.168-38.912 40.96-67.584 81.92-67.584z" />
<glyph unicode="&#xe91f;" glyph-name="cart" d="M317.44 293.376h532.48c60.416 0 109.568 49.152 109.568 109.568v226.304c0 0 0 1.024 0 1.024s0 1.024 0 1.024c0 0 0 1.024 0 1.024s0 1.024 0 1.024c0 0 0 1.024 0 1.024s0 1.024 0 1.024c0 0 0 1.024-1.024 1.024 0 0 0 1.024-1.024 1.024l-1.024 1.024c0 0 0 1.024-1.024 1.024 0 0-1.024 1.024-1.024 1.024s0 1.024-1.024 1.024c0 0-1.024 1.024-1.024 1.024s-1.024 1.024-1.024 1.024c0 0-1.024 1.024-1.024 1.024l-1.024 1.024c0 0-1.024 1.024-1.024 1.024s-1.024 1.024-1.024 1.024c0 0-1.024 0-1.024 1.024 0 0-1.024 0-1.024 1.024l-2.048 1.024-1.024 1.024c0 0-1.024 0-1.024 0s-1.024 0-1.024 0c0 0-1.024 0-1.024 0-1.024 0-1.024 0-2.048 0 0 0 0 0-1.024 0l-673.792 93.184v94.208c0 1.024 0 2.048 0 3.072 0 0 0 0 0 1.024s0 1.024 0 2.048 0 1.024 0 2.048c0 0 0 1.024 0 1.024l-1.024 2.048c0 0 0 1.024 0 1.024 0 1.024 0 1.024-1.024 2.048 0 0 0 1.024 0 1.024s0 1.024-1.024 1.024c0 0 0 1.024-1.024 1.024 0 0 0 1.024-1.024 1.024 0 0-1.024 1.024-1.024 1.024l-3.072 3.072c0 0-1.024 1.024-1.024 1.024s-1.024 0-1.024 1.024c0 0-1.024 1.024-1.024 1.024-1.024 0-1.024 1.024-2.048 1.024 0 0 0 0-1.024 0s-2.048 1.024-3.072 1.024l-146.432 61.44c-11.264 5.12-27.648-2.048-32.768-15.36-1.024-3.072-2.048-7.168-2.048-10.24v0c0-10.24 6.144-20.48 16.384-24.576l130.048-54.272v-586.752c0-55.296 41.984-101.376 95.232-108.544-9.216-16.384-15.36-34.816-15.36-55.296 0-59.392 48.128-108.544 108.544-108.544s108.544 48.128 108.544 108.544c0 19.456-5.12 38.912-15.36 54.272h240.64c-9.216-16.384-15.36-34.816-15.36-54.272 0-59.392 48.128-108.544 108.544-108.544s107.52 48.128 107.52 107.52-48.128 108.544-108.544 108.544h-505.856c-30.72 0-56.32 25.6-56.32 56.32v72.704c17.408-10.24 35.84-16.384 56.32-16.384zM262.144 692.736l644.096-89.088v-200.704c0-30.72-25.6-56.32-56.32-56.32h-532.48c-30.72 0-56.32 25.6-56.32 56.32v289.792zM824.32 126.464c29.696 0 54.272-24.576 54.272-54.272s-24.576-54.272-54.272-54.272c-29.696 0-54.272 24.576-54.272 54.272-1.024 29.696 23.552 54.272 54.272 54.272zM396.288 126.464c29.696 0 54.272-24.576 54.272-54.272s-24.576-54.272-54.272-54.272c-29.696 0-54.272 24.576-54.272 54.272s24.576 54.272 54.272 54.272z" />
<glyph unicode="&#xe920;" glyph-name="b-loan" d="M978.944 672.256h-256v166.912c0 8.192-6.144 14.336-14.336 14.336h-391.168v2.048c-8.192 0-14.336-6.144-14.336-14.336v-166.912h-258.048c-8.192 0-14.336-6.144-14.336-14.336v-498.688c0-67.584 55.296-119.808 119.808-119.808h721.92c67.584 0 120.832 54.272 120.832 119.808v496.64c0 8.192-6.144 14.336-14.336 14.336zM692.224 824.832v-150.528h-28.672v107.52c0 8.192-6.144 14.336-14.336 14.336h-270.336c-8.192 0-14.336-6.144-14.336-14.336v-107.52h-30.72v150.528h358.4zM632.832 765.44v-91.136h-239.616v91.136h239.616zM964.608 161.28c0-51.2-40.96-89.088-89.088-89.088h-722.944c-51.2 0-89.088 40.96-89.088 89.088v181.248h270.336c8.192-93.184 84.992-164.864 179.2-164.864 93.184 0 173.056 73.728 179.2 164.864h272.384v-181.248zM362.496 356.864c0 82.944 67.584 150.528 150.528 150.528s150.528-67.584 150.528-150.528-67.584-150.528-150.528-150.528c-82.944 0-150.528 66.56-150.528 150.528zM964.608 372.224h-272.384c-8.192 93.184-84.992 164.864-179.2 164.864-93.184 0-173.056-73.728-179.2-164.864h-272.384v271.36h903.168v-271.36zM513.024 397.824l-12.288 26.624h-23.552l22.528-26.624z" />
<glyph unicode="&#xe921;" glyph-name="document" d="M889.856 898.56l-638.976-2.048c-54.272 0-99.328-45.056-99.328-99.328v-621.568h-105.472c-9.216 0-15.36-7.168-15.36-15.36v-63.488c0-56.32 45.056-99.328 99.328-99.328h584.704c56.32 0 103.424 47.104 103.424 103.424v619.52h160.768c9.216 0 15.36 7.168 15.36 15.36v61.44c0 56.32-47.104 101.376-104.448 101.376zM126.976 27.136v2.048c-37.888 0-67.584 31.744-67.584 67.584v47.104h550.912v-45.056c0-20.48 7.168-40.96 18.432-58.368l9.216-13.312h-510.976zM801.792 853.504c-11.264-18.432-18.432-35.84-18.432-58.368v-695.296c0-40.96-31.744-72.704-72.704-72.704s-72.704 31.744-72.704 72.704v61.44c0 9.216-7.168 15.36-15.36 15.36h-441.344v620.544c0 37.888 31.744 67.584 67.584 67.584l562.176 2.048-9.216-13.312zM962.56 749.056h-144.384v45.056c0 40.96 31.744 72.704 72.704 72.704s72.704-31.744 72.704-72.704v-45.056zM329.728 604.672h2.048c4.096 0 9.216 2.048 11.264 4.096l25.6 23.552v-133.12c0-9.216 7.168-15.36 15.36-15.36h189.44c9.216 0 15.36 7.168 15.36 15.36v133.12l24.576-22.528c7.168-7.168 15.36-9.216 22.528-2.048 2.048 2.048 4.096 7.168 4.096 11.264s-2.048 9.216-4.096 11.264l-147.456 139.264c-7.168 7.168-15.36 7.168-22.528 0l-144.384-137.216c-7.168-7.168-7.168-15.36 0-22.528 2.048-3.072 4.096-5.12 8.192-5.12zM409.6 658.944l69.632 65.536 69.632-65.536v-135.168h-139.264v135.168zM318.464 365.056h320.512c9.216 0 15.36 7.168 15.36 15.36 0 9.216-7.168 15.36-15.36 15.36h-320.512c-9.216 0-15.36-7.168-15.36-15.36s7.168-15.36 15.36-15.36zM316.416 263.68h198.656c9.216 0 15.36 7.168 15.36 15.36 0 9.216-7.168 15.36-15.36 15.36h-198.656c-9.216 0-15.36-7.168-15.36-15.36s6.144-15.36 15.36-15.36z" />
<glyph unicode="&#xe922;" glyph-name="h-loan" d="M946.176 304.64c-18.432 25.6-51.2 33.792-81.92 18.432l-116.736-67.584c-27.648-16.384-63.488-24.576-98.304-24.576h-27.648c-9.216 53.248-56.32 93.184-112.64 93.184h-27.648c-1.024 0-3.072 0-4.096 1.024-3.072 1.024-7.168 1.024-10.24 1.024l-57.344 11.264-46.080 17.408c-13.312 5.12-30.72 9.216-46.080 9.216h-21.504c-18.432 0-38.912-5.12-58.368-15.36l-25.6-15.36v16.384c0 13.312-10.24 23.552-23.552 23.552h-99.328c-13.312 0-23.552-10.24-23.552-23.552v-369.664c0-13.312 10.24-23.552 23.552-23.552h98.304c13.312 0 23.552 10.24 23.552 23.552v11.264h252.928c1.024 0 3.072 0 4.096 0l225.28 44.032c10.24 1.024 21.504 5.12 28.672 12.288l212.992 171.008c25.6 22.528 30.72 59.392 11.264 86.016zM163.84 3.584h-51.2v322.56h51.2v-322.56zM905.216 255.488l-212.992-171.008c-1.024-1.024-1.024-1.024-2.048-2.048-1.024 0-3.072 0-4.096 0l-225.28-44.032h-249.856v240.64l48.128 28.672c12.288 6.144 24.576 9.216 36.864 9.216h21.504c9.216 0 20.48-2.048 28.672-5.12l29.696-12.288 21.504-7.168c1.024 0 2.048-1.024 3.072-1.024l60.416-11.264c1.024 0 3.072 0 4.096 0s3.072 0 4.096-1.024c4.096-1.024 9.216-2.048 12.288-2.048h27.648c29.696 0 56.32-20.48 64.512-47.104h-90.112c-56.32 0-111.616-20.48-157.696-59.392-10.24-8.192-11.264-22.528-3.072-32.768s22.528-11.264 32.768-3.072c37.888 31.744 81.92 48.128 128 48.128h165.888c43.008 0 86.016 11.264 121.856 30.72l115.712 67.584c8.192 4.096 17.408 2.048 21.504-4.096 5.12-6.144 3.072-16.384-3.072-21.504zM218.112 551.424h56.32v-161.792c0-13.312 10.24-23.552 23.552-23.552s23.552 10.24 23.552 23.552v184.32c0 13.312-10.24 23.552-23.552 23.552h-23.552l280.576 284.672 269.312-284.672h-27.648c-13.312 0-23.552-10.24-23.552-23.552v-247.808c0-13.312 10.24-23.552 23.552-23.552s23.552 10.24 23.552 23.552v225.28h58.368c9.216 0 17.408 5.12 21.504 14.336 4.096 8.192 2.048 18.432-4.096 25.6l-323.584 340.992c-4.096 5.12-10.24 7.168-16.384 7.168s-12.288-2.048-17.408-7.168l-336.896-342.016c-6.144-7.168-8.192-16.384-5.12-25.6 3.072-8.192 12.288-13.312 21.504-13.312zM473.088 546.304c29.696 0 54.272 24.576 54.272 54.272s-24.576 54.272-54.272 54.272c-29.696 0-54.272-24.576-54.272-54.272 1.024-29.696 24.576-54.272 54.272-54.272zM473.088 630.272c16.384 0 30.72-13.312 30.72-30.72s-13.312-30.72-30.72-30.72c-16.384 0-30.72 13.312-30.72 30.72s14.336 30.72 30.72 30.72zM636.928 489.984c-29.696 0-54.272-24.576-54.272-54.272s24.576-54.272 54.272-54.272 54.272 24.576 54.272 54.272c0 30.72-24.576 54.272-54.272 54.272zM636.928 406.016c-16.384 0-30.72 13.312-30.72 30.72s13.312 30.72 30.72 30.72 30.72-13.312 30.72-30.72-14.336-30.72-30.72-30.72zM686.080 649.728c-9.216 9.216-23.552 9.216-32.768 0l-231.424-232.448c-9.216-9.216-9.216-23.552 0-32.768 4.096-4.096 10.24-7.168 16.384-7.168s12.288 2.048 16.384 7.168l231.424 231.424c9.216 9.216 9.216 24.576 0 33.792z" />
<glyph unicode="&#xe923;" glyph-name="p-loan" d="M208.896 481.792l24.576-29.696h15.36l-14.336 29.696zM784.384 463.36l-8.192 26.624c47.104 30.72 77.824 88.064 77.824 150.528 12.288 30.72 10.24 75.776 0 106.496-20.48 57.344-77.824 102.4-142.336 108.544h-2.048c0 0-51.2 3.072-94.208-30.72l3.072 4.096c-129.024-63.488-79.872-250.88-79.872-250.88l-497.664 2.048c-8.192 0-16.384-8.192-16.384-16.384v-326.656c0-8.192 8.192-16.384 16.384-16.384h343.040v-162.816c0-8.192 8.192-16.384 16.384-16.384h585.728c8.192 0 16.384 8.192 16.384 16.384v162.816c-2.048 134.144-94.208 236.544-218.112 242.688zM751.616 514.56c-10.24-4.096-18.432-8.192-28.672-12.288-4.096-2.048-10.24-2.048-14.336-2.048-8.192-2.048-18.432-2.048-26.624 0-2.048 0-2.048 0-4.096 0s-6.144 0-8.192 2.048h-2.048c-2.048 0-2.048 0-4.096 0s-6.144 2.048-8.192 2.048c-2.048 0-2.048 0-4.096 2.048-2.048 0-2.048 2.048-4.096 2.048-2.048 2.048-4.096 2.048-6.144 4.096-4.096 2.048-6.144 4.096-10.24 6.144l-2.048 2.048c-4.096 2.048-8.192 6.144-10.24 8.192l-2.048 2.048c-8.192 8.192-16.384 16.384-22.528 26.624-4.096 4.096-6.144 10.24-8.192 14.336-6.144 10.24-10.24 22.528-12.288 34.816v2.048c-2.048 4.096-2.048 10.24-2.048 14.336 0 2.048 0 2.048 0 4.096 0 6.144-2.048 12.288-2.048 18.432v2.048c0 2.048 0 4.096 0 6.144 6.144-2.048 14.336-2.048 20.48 0 6.144 0 14.336 2.048 20.48 2.048 0 0 0 0 2.048 0s6.144 2.048 8.192 2.048c0 0 0 0 2.048 0s6.144 2.048 8.192 2.048c0 0 0 0 2.048 0s4.096 2.048 4.096 2.048h2.048c2.048 0 4.096 2.048 4.096 2.048 6.144 2.048 12.288 6.144 18.432 8.192h2.048c6.144 2.048 12.288 6.144 18.432 10.24 4.096 2.048 10.24 6.144 14.336 8.192 10.24 8.192 20.48 14.336 26.624 20.48 4.096-16.384 12.288-36.864 26.624-55.296 0 0 0-2.048 2.048-2.048 2.048-2.048 2.048-4.096 4.096-6.144 0 0 0 0 2.048-2.048 4.096-4.096 8.192-10.24 14.336-14.336 0 0 2.048-2.048 4.096-2.048 0 0 0 0 2.048 0s2.048-2.048 4.096-2.048c0 0 2.048 0 2.048-2.048 2.048 0 2.048-2.048 4.096-2.048 0 0 2.048 0 2.048-2.048 2.048 0 2.048-2.048 4.096-2.048 0 0 2.048 0 2.048-2.048 2.048 0 4.096-2.048 4.096-2.048 2.048 0 2.048 0 4.096-2.048 2.048 0 4.096-2.048 4.096-2.048 2.048 0 2.048 0 4.096 0s4.096 0 6.144 0c2.048 0 2.048 0 4.096 0h2.048c2.048 0 2.048 0 4.096 0h2.048c-18.432-41.984-45.056-77.824-79.872-96.256zM631.808 414.208l18.432-14.336 14.336-10.24-32.768-14.336v38.912zM629.76 459.264l2.048 6.144 4.096 14.336h2.048c2.048-2.048 6.144-2.048 8.192-2.048s4.096-2.048 6.144-2.048c2.048 0 6.144-2.048 8.192-2.048s4.096 0 8.192-2.048h2.048c2.048 0 4.096 0 4.096 0 2.048 0 2.048 0 4.096 0 4.096 0 8.192 0 12.288 0 2.048 0 2.048 0 4.096 0 4.096 0 8.192 0 10.24 0s2.048 0 4.096 0h2.048c2.048 0 4.096 0 8.192 2.048 2.048 0 6.144 2.048 8.192 2.048s4.096 2.048 6.144 2.048c2.048 0 6.144 2.048 8.192 2.048 6.144-4.096 6.144-4.096 8.192-2.048l6.144-20.48-63.488-49.152-63.488 51.2zM759.808 416.256v-38.912l-32.768 12.288 32.768 26.624zM631.808 818.688c2.048 2.048 6.144 4.096 8.192 4.096s4.096 2.048 6.144 2.048c2.048 2.048 6.144 2.048 8.192 4.096 2.048 0 4.096 2.048 6.144 2.048 4.096 2.048 8.192 2.048 12.288 2.048 2.048 0 2.048 0 4.096 0s6.144 0 8.192 2.048c2.048 0 2.048 0 4.096 0s6.144 0 8.192 0h2.048c6.144 0 12.288 0 16.384 0 47.104-14.336 94.208-51.2 110.592-96.256 12.288-30.72 8.192-67.584 0-83.968-2.048-4.096-4.096-8.192-8.192-8.192-6.144-2.048-22.528 4.096-32.768 14.336-4.096 4.096-6.144 6.144-10.24 10.24-2.048 2.048-4.096 4.096-4.096 6.144-3.072 2.048-3.072 4.096-5.12 6.144-12.288 20.48-18.432 43.008-22.528 55.296v2.048c0 2.048 0 2.048 0 4.096v6.144c0 2.048 0 4.096-2.048 4.096v2.048c0 2.048-2.048 2.048-2.048 2.048s0 0-2.048 2.048c-2.048 0-2.048 2.048-4.096 2.048 0 0 0 0-2.048 0s-2.048 0-4.096 0h-2.048c0 0 0 0-2.048 0s-2.048-2.048-4.096-4.096c0 0-36.864-40.96-92.16-61.44-2.048-2.048-6.144-2.048-8.192-2.048s-4.096-2.048-6.144-2.048h-2.048c-2.048 0-6.144-2.048-8.192-2.048 0 0 0 0-2.048 0s-6.144 0-8.192-2.048c-2.048 0-6.144 0-8.192 0s-4.096 0-8.192 0c-2.048 0-4.096 0-6.144 2.048-2.048 0-2.048 2.048-4.096 2.048 0 0-2.048 0-2.048 2.048 0 0 0 2.048-2.048 2.048 0 0 0 0 0 2.048v2.048c0 0 0 0 0 2.048s0 2.048 0 4.096c0 0 0 0 0 2.048s0 4.096 0 6.144c2.048 24.576 20.48 63.488 51.2 90.112 4.096 4.096 8.192 6.144 14.336 10.24 3.072 0 5.12 2.048 5.12 2.048zM549.888 704l16.384 53.248 3.072 4.096c-3.072-9.216-6.144-19.456-9.216-30.72 0 0-6.144-16.384-12.288-48.128l2.048 21.504zM559.104 727.552c0-1.024-1.024-3.072-1.024-4.096 1.024 1.024 1.024 3.072 1.024 4.096zM557.056 717.312c0-1.024 0-2.048-1.024-4.096 1.024 2.048 1.024 3.072 1.024 4.096zM556.032 710.144c0-2.048-1.024-3.072-1.024-4.096 0 1.024 0 2.048 1.024 4.096zM552.96 695.808c0 0 0-1.024 0-1.024s0 1.024 0 1.024zM551.936 689.664c-1.024-3.072-1.024-6.144-2.048-9.216 1.024 3.072 1.024 6.144 2.048 9.216zM58.368 547.328h47.104c-6.144-22.528-24.576-40.96-47.104-47.104v47.104zM58.368 255.488v47.104c22.528-6.144 40.96-24.576 47.104-47.104h-47.104zM388.096 251.392h-248.832v4.096c-6.144 40.96-38.912 73.728-79.872 79.872v132.096c40.96 6.144 73.728 38.912 79.872 79.872h420.864c2.048-2.048 2.048-4.096 4.096-6.144 0-2.048 2.048-2.048 2.048-4.096 0 0 0 0 0-2.048 4.096-6.144 8.192-10.24 12.288-14.336s10.24-10.24 14.336-14.336l2.048-2.048c2.048-2.048 4.096-4.096 6.144-6.144s4.096-2.048 6.144-4.096l2.048-2.048-6.144-14.336-4.096-10.24c-2.048 0-4.096 0-6.144 0-4.096 0-6.144 0-10.24 0s-8.192-2.048-12.288-2.048c-2.048 0-6.144-2.048-8.192-2.048-4.096 0-8.192-2.048-12.288-4.096-2.048 0-6.144-2.048-8.192-2.048-4.096-2.048-8.192-4.096-14.336-6.144-2.048 0-4.096-2.048-6.144-2.048-6.144-2.048-12.288-6.144-18.432-10.24-2.048-2.048-6.144-4.096-8.192-6.144-4.096-2.048-6.144-4.096-8.192-6.144-4.096-2.048-6.144-4.096-8.192-6.144s-4.096-4.096-8.192-6.144c-4.096-2.048-6.144-6.144-8.192-8.192s-4.096-4.096-6.144-6.144c-2.048-4.096-6.144-6.144-8.192-10.24-2.048-2.048-4.096-4.096-4.096-6.144-2.048-4.096-6.144-8.192-8.192-10.24s-2.048-4.096-4.096-6.144-6.144-8.192-8.192-12.288c0 0-2.048-2.048-2.048-4.096-16.384-28.672-26.624-62.464-32.768-99.328zM969.728 75.264h-81.92v163.84h-32.768v-162.816h-325.632v162.816h-32.768v-162.816h-81.92v146.432c0 6.144 0 10.24 0 14.336 0 14.336 2.048 28.672 6.144 40.96 2.048 6.144 4.096 12.288 4.096 18.432v2.048c2.048 6.144 4.096 10.24 6.144 16.384 0 0 0 2.048 2.048 2.048 2.048 4.096 4.096 10.24 6.144 14.336 0 2.048 2.048 2.048 2.048 4.096 2.048 4.096 4.096 8.192 8.192 12.288 0 2.048 2.048 2.048 2.048 4.096 2.048 4.096 4.096 6.144 8.192 10.24 2.048 2.048 2.048 4.096 4.096 4.096 2.048 4.096 6.144 6.144 8.192 8.192s4.096 4.096 4.096 4.096 6.144 6.144 8.192 8.192c2.048 2.048 4.096 4.096 6.144 4.096 2.048 2.048 6.144 4.096 8.192 6.144s4.096 2.048 6.144 4.096c2.048 2.048 6.144 4.096 8.192 6.144s4.096 2.048 8.192 4.096c2.048 2.048 6.144 2.048 8.192 4.096s6.144 2.048 8.192 4.096c4.096 2.048 6.144 2.048 10.24 4.096 2.048 0 6.144 2.048 8.192 2.048 4.096 0 6.144 2.048 10.24 2.048s6.144 2.048 10.24 2.048c4.096 0 6.144 2.048 10.24 2.048 2.048 0 4.096 0 6.144 0v-81.92c0-6.144 2.048-10.24 8.192-14.336 2.048-2.048 6.144-2.048 8.192-2.048s4.096 0 6.144 2.048l75.776 30.72 75.776-30.72c2.048 0 4.096-2.048 6.144-2.048 4.096 0 6.144 0 8.192 2.048 4.096 2.048 8.192 8.192 8.192 14.336v79.872c4.096 4.096 164.864 4.096 181.248-205.824v-148.48zM677.888 317.952h32.768v-32.768h-32.768v32.768zM677.888 255.488h32.768v-32.768h-32.768v32.768zM677.888 189.952h32.768v-32.768h-32.768v32.768z" />
<glyph unicode="&#xe924;" glyph-name="play" d="M696.32 473.6l-237.568 226.304c-8.192 8.192-19.456 10.24-31.744 6.144l-2.048-1.024c-11.264-5.12-17.408-16.384-17.408-27.648v-449.536c0-12.288 9.216-21.504 17.408-25.6l4.096-4.096h7.168c11.264 0 17.408 6.144 19.456 8.192l237.568 224.256c5.12 5.12 9.216 14.336 9.216 22.528 0 7.168-3.072 12.288-5.12 15.36l-1.024 5.12zM467.968 297.472v311.296l163.84-155.648-163.84-155.648zM512 934.4c-268.288 0-486.4-218.112-486.4-486.4s218.112-486.4 486.4-486.4 486.4 218.112 486.4 486.4-218.112 486.4-486.4 486.4zM512 38.4c-225.28 0-409.6 184.32-409.6 409.6s184.32 409.6 409.6 409.6c225.28 0 409.6-184.32 409.6-409.6s-184.32-409.6-409.6-409.6z" />
<glyph unicode="&#xe925;" glyph-name="transfer-loan" d="M986.112 430.592l-457.728 470.016c-4.096 7.168-11.264 9.216-18.432 7.168-4.096 0-9.216-2.048-13.312-7.168l-458.752-470.016c-9.216-9.216-9.216-22.528 0-29.696 4.096-4.096 9.216-7.168 16.384-7.168h118.784v-382.976c0-11.264 9.216-22.528 22.528-22.528h633.856c11.264 0 22.528 9.216 22.528 22.528v382.976h118.784c11.264 0 22.528 9.216 22.528 20.48 0 7.168-2.048 11.264-7.168 16.384zM576.512 36.352h-131.072v109.568c0 0 2.048 9.216 7.168 13.312 7.168 2.048 13.312 7.168 16.384 7.168h87.040c4.096 0 9.216-2.048 13.312-7.168 4.096-4.096 7.168-13.312 7.168-13.312v-109.568zM828.416 437.76c-11.264 0-22.528-9.216-22.528-22.528v-382.976h-186.368v109.568c0 16.384-7.168 31.744-18.432 44.032-11.264 11.264-27.648 22.528-48.128 22.528h-87.040c-20.48 0-36.864-9.216-48.128-22.528-11.264-14.336-18.432-28.672-18.432-44.032v-109.568h-185.344v381.952c0 11.264-9.216 22.528-22.528 22.528h-90.112l410.624 417.792 405.504-416.768h-89.088zM508.928 631.296l54.272-54.272h-153.6c-6.144 0-11.264-5.12-11.264-11.264s5.12-11.264 11.264-11.264h151.552l-48.128-49.152c-4.096-4.096-4.096-12.288 0-16.384 2.048-2.048 5.12-3.072 8.192-3.072s6.144 1.024 8.192 3.072l64.512 66.56c2.048 2.048 3.072 6.144 3.072 9.216 0 0 0 1.024 0 1.024 0 1.024 0 1.024 0 2.048 1.024 4.096 0 7.168-3.072 10.24l-68.608 68.608c-4.096 4.096-11.264 4.096-16.384 0-5.12-3.072-5.12-10.24 0-15.36zM501.76 429.568c4.096 4.096 5.12 11.264 0 16.384-4.096 4.096-11.264 5.12-16.384 0l-66.56-64.512c-4.096-4.096-4.096-11.264-1.024-15.36-1.024-3.072 0-7.168 3.072-10.24l66.56-68.608c2.048-2.048 5.12-3.072 8.192-3.072s6.144 1.024 8.192 3.072c4.096 4.096 5.12 11.264 0 16.384l-52.224 54.272h152.576c6.144 0 11.264 5.12 11.264 11.264s-5.12 11.264-11.264 11.264h-153.6l51.2 49.152z" />
<glyph unicode="&#xe926;" glyph-name="graph-view" d="M615.424 649.728h89.088v-631.808h-89.088v631.808zM912.384 857.6h89.088v-839.68h-89.088v839.68zM319.488 441.856h89.088v-423.936h-89.088v423.936zM22.528 235.008h89.088v-217.088h-89.088v217.088z" />
<glyph unicode="&#xe927;" glyph-name="table-view" d="M153.899 726.244c8.318-35.225-13.495-70.522-48.719-78.84s-70.522 13.495-78.84 48.719c-8.318 35.225 13.495 70.522 48.719 78.84s70.522-13.495 78.84-48.719zM233.472 752.128h762.88v-80.896h-762.88v80.896zM153.911 460.018c8.318-35.225-13.495-70.522-48.719-78.84s-70.522 13.495-78.84 48.719c-8.318 35.225 13.495 70.522 48.719 78.84s70.522-13.495 78.84-48.719zM233.472 485.888h762.88v-80.896h-762.88v80.896zM153.923 193.79c8.318-35.225-13.495-70.522-48.719-78.84s-70.522 13.495-78.84 48.719c-8.318 35.225 13.495 70.522 48.719 78.84s70.522-13.495 78.84-48.719zM233.472 219.648h762.88v-80.896h-762.88v80.896z" />
<glyph unicode="&#xe928;" glyph-name="filter" d="M988.16 884.224c-4.096 10.24-10.24 19.456-18.432 26.624-5.12 4.096-10.24 8.192-15.36 10.24-6.144 3.072-11.264 5.12-17.408 6.144-5.12 1.024-6.144 1.024-10.24 2.048-2.048 0-3.072 0-5.12 0h-819.2c-4.096 0-5.12 0-9.216-1.024-8.192-1.024-15.36-3.072-22.528-6.144-10.24-5.12-18.432-12.288-25.6-20.48-6.144-9.216-11.264-20.48-13.312-30.72-1.024-6.144-1.024-12.288-1.024-18.432s2.048-12.288 4.096-18.432c1.024-4.096 2.048-5.12 4.096-8.192l2.048-5.12 296.96-494.592v-185.344c0-2.048 0-3.072 0-5.12 0-3.072 1.024-6.144 1.024-9.216 3.072-15.36 11.264-29.696 22.528-39.936 3.072-3.072 7.168-6.144 11.264-8.192 1.024-1.024 3.072-1.024 4.096-2.048l204.8-102.4c4.096-2.048 5.12-2.048 8.192-4.096 6.144-2.048 12.288-3.072 18.432-4.096 6.144 0 12.288 0 18.432 1.024 11.264 2.048 21.504 7.168 29.696 13.312 9.216 7.168 15.36 15.36 20.48 25.6 3.072 5.12 5.12 11.264 6.144 17.408 1.024 4.096 1.024 5.12 1.024 9.216v293.888l296.96 494.592c2.048 4.096 3.072 4.096 4.096 8.192 3.072 7.168 5.12 15.36 6.144 22.528 3.072 11.264 1.024 22.528-3.072 32.768zM614.4 345.6v-307.2l-204.8 102.4v204.8l-307.2 512c273.408 0 545.792 0 819.2 0l-307.2-512z" />
<glyph unicode="&#xe929;" glyph-name="location" d="M872.448 469.504c-11.264 181.248-156.672 326.656-337.92 337.92v121.856h-44.032v-121.856c-181.248-11.264-327.68-156.672-337.92-337.92h-121.856v-44.032h120.832c11.264-181.248 156.672-327.68 337.92-337.92v-120.832h44.032v120.832c181.248 11.264 327.68 156.672 337.92 337.92h121.856v44.032h-120.832zM828.416 426.496c-10.24-157.696-136.192-283.648-294.912-294.912v119.808h-44.032v-119.808c-157.696 10.24-283.648 136.192-294.912 294.912h119.808v44.032h-118.784c11.264 157.696 137.216 283.648 294.912 293.888v-118.784h44.032v118.784c157.696-10.24 283.648-136.192 294.912-293.888h-120.832v-44.032h119.808z" />
<glyph unicode="&#xe92a;" glyph-name="minus" d="M515.072 919.040c-262.144 0-476.16-212.992-476.16-476.16s212.992-476.16 476.16-476.16c262.144 0 476.16 212.992 476.16 476.16s-214.016 476.16-476.16 476.16zM515.072 25.088c-231.424 0-418.816 187.392-418.816 417.792s187.392 417.792 417.792 417.792c230.4 0 417.792-187.392 417.792-417.792 1.024-230.4-186.368-417.792-416.768-417.792zM707.584 471.552h-385.024c-15.36 0-28.672-13.312-28.672-28.672s13.312-28.672 28.672-28.672h385.024c15.36 0 28.672 13.312 28.672 28.672 0 16.384-13.312 28.672-28.672 28.672z" />
<glyph unicode="&#xe92b;" glyph-name="warning" d="M512 908.8c-253.952 0-460.8-206.848-460.8-460.8s206.848-460.8 460.8-460.8 460.8 206.848 460.8 460.8-206.848 460.8-460.8 460.8zM512 42.496c-223.232 0-405.504 182.272-405.504 405.504s182.272 405.504 405.504 405.504 405.504-182.272 405.504-405.504-182.272-405.504-405.504-405.504zM514.048 677.376c-12.288 0-24.576-4.096-30.72-12.288-8.192-8.192-12.288-20.48-12.288-34.816 0-10.24 0-30.72 2.048-55.296l8.192-174.080c2.048-16.384 4.096-30.72 8.192-38.912s10.24-12.288 20.48-12.288c10.24 0 16.384 4.096 20.48 12.288s6.144 20.48 8.192 36.864l12.288 176.128c2.048 12.288 2.048 24.576 2.048 36.864 0 20.48-2.048 36.864-8.192 47.104-4.096 12.288-14.336 18.432-30.72 18.432zM512 300.544c-12.288 0-20.48-4.096-28.672-12.288s-12.288-18.432-12.288-28.672c0-12.288 4.096-22.528 12.288-30.72s18.432-10.24 28.672-10.24c10.24 0 20.48 4.096 28.672 10.24 8.192 8.192 12.288 18.432 12.288 30.72s-4.096 20.48-12.288 28.672c-8.192 8.192-16.384 12.288-28.672 12.288z" />
<glyph unicode="&#xe92c;" glyph-name="delete" d="M355.328 246.272c0 0-1.024 0-1.024-1.024-1.024 0-1.024-1.024-2.048-2.048 1.024 0 1.024 0 2.048 0h-2.048c0 0 0-1.024 0-1.024h5.12c-1.024 1.024-2.048 3.072-2.048 4.096 0 0 0 0 0 0zM737.28 635.392h-87.040v5.12c0 11.264 0 22.528-2.048 31.744-4.096 14.336-14.336 26.624-27.648 32.768-12.288 6.144-27.648 6.144-41.984 6.144-3.072 0-6.144 0-9.216 0h-118.784c-3.072 0-5.12 0-8.192 0-15.36 0-29.696 1.024-41.984-7.168-13.312-7.168-22.528-20.48-25.6-35.84-1.024-9.216-1.024-17.408-1.024-26.624v-7.168h-87.040c-4.096 0-9.216-2.048-14.336-6.144-4.096-5.12-5.12-8.192-5.12-12.288v0c1.024-10.24 8.192-18.432 18.432-18.432h27.648v-322.56c0-24.576 0-45.056 14.336-64.512 14.336-18.432 34.816-26.624 64.512-26.624h222.208c3.072 0 5.12 0 8.192 0 10.24 0 20.48 0 29.696 2.048v0c22.528 5.12 40.96 21.504 49.152 40.96v0c5.12 10.24 5.12 21.504 5.12 33.792v338.944h20.48c6.144 0 15.36 1.024 20.48 5.12 3.072 4.096 5.12 8.192 5.12 13.312v1.024c1.024 5.12-1.024 8.192-3.072 10.24-2.048 4.096-7.168 6.144-12.288 6.144zM425.984 676.352c8.192 1.024 17.408 0 25.6 0 4.096 0 7.168 0 11.264 0h95.232c4.096 0 8.192 0 13.312 0 10.24 0 21.504 1.024 28.672 0 1.024 0 2.048 0 3.072-1.024 0 0 1.024 0 1.024 0 3.072 0 5.12-2.048 5.12-2.048l3.072-3.072v-1.024c0-1.024 1.024-2.048 1.024-3.072 0 0 0 0 0 0 0-1.024 1.024-2.048 1.024-4.096v-25.6h-200.704l-1.024 3.072c-3.072 8.192-2.048 17.408-1.024 21.504v1.024c0 1.024 0 2.048 1.024 4.096 0 0 0 1.024 1.024 1.024v1.024l2.048 2.048-8.192 4.096 18.432 2.048zM660.48 226.816c-1.024-1.024-2.048-2.048-3.072-2.048 0 0-1.024-1.024-1.024-1.024l-1.024-1.024h-1.024c-1.024 0-2.048-1.024-3.072-1.024l-6.144-7.168v5.12c-13.312-1.024-27.648-1.024-40.96 0-6.144 0-13.312 0-19.456 0h-205.824l-1.024 1.024c0 0-1.024 0-2.048 1.024-1.024 0-3.072 1.024-5.12 1.024h-1.024c0 0 0 0 0 0h-2.048l-1.024 1.024c0 0 0 0 0 0-1.024 0-2.048 1.024-3.072 2.048s-1.024 1.024-2.048 2.048h-1.024l-5.12 5.12v1.024c0 0 0 0-1.024 1.024s-2.048 2.048-2.048 3.072c0 0 0 0 0 0l-4.096 4.096h3.072c0 0 0 1.024 0 1.024h-1.024v5.12c-1.024 17.408 0 35.84 0 53.248 0 9.216 0 18.432 0 26.624v270.336h322.56v-303.104c2.048-8.192 2.048-16.384 2.048-23.552 0-2.048 0-4.096 0-6.144 0-5.12 0-9.216 0-14.336v-4.096l-1.024-1.024c0-1.024 0-1.024-1.024-2.048 0-1.024 0-2.048-1.024-3.072h4.096l-15.36-14.336zM444.416 558.592c-2.048 2.048-6.144 4.096-11.264 4.096-10.24 0-18.432-8.192-18.432-18.432v-272.384c0-4.096 2.048-9.216 6.144-14.336 3.072-3.072 7.168-4.096 11.264-4.096h1.024c10.24 1.024 17.408 9.216 17.408 18.432v272.384c0 4.096-2.048 9.216-6.144 14.336v0zM603.136 557.568v0c-3.072 3.072-8.192 6.144-12.288 5.12v0c-10.24-1.024-18.432-8.192-18.432-18.432v-272.384c0-4.096 2.048-9.216 6.144-14.336 3.072-3.072 7.168-4.096 11.264-4.096h1.024c10.24 1.024 17.408 9.216 17.408 18.432v272.384c0 6.144-1.024 11.264-5.12 13.312zM850.944 786.944v0c-90.112 90.112-209.92 140.288-338.944 140.288s-248.832-50.176-338.944-140.288c-90.112-90.112-140.288-209.92-140.288-338.944 0-128 50.176-247.808 140.288-338.944 91.136-91.136 210.944-140.288 338.944-140.288 129.024 0 248.832 50.176 338.944 140.288 91.136 91.136 140.288 210.944 140.288 338.944 0 129.024-50.176 248.832-140.288 338.944zM823.296 136.704c-81.92-83.968-192.512-129.024-311.296-129.024-117.76 0-228.352 46.080-311.296 129.024-83.968 82.944-129.024 193.536-129.024 311.296s46.080 228.352 129.024 311.296c81.92 83.968 192.512 129.024 311.296 129.024 117.76 0 228.352-46.080 311.296-129.024 83.968-81.92 129.024-192.512 129.024-311.296s-45.056-229.376-129.024-311.296z" />
<glyph unicode="&#xe92d;" glyph-name="rating-star-filled" d="M233.472-12.163c-19.456 3.072-31.744 20.48-29.696 39.936l35.84 286.72-195.584 209.92c-13.312 14.336-12.288 36.864 2.048 50.176 5.12 4.096 11.264 7.168 17.408 9.216l280.576 53.248 137.216 252.928c9.216 17.408 30.72 23.552 48.128 14.336 6.144-3.072 11.264-8.192 14.336-14.336l137.216-252.928 280.576-53.248c19.456-4.096 31.744-22.528 27.648-41.984-1.024-6.144-4.096-12.288-8.192-17.408l-195.584-209.92 35.84-286.72c3.072-19.456-11.264-37.888-29.696-39.936-7.168-1.024-13.312 0-19.456 3.072l-260.096 123.904-258.048-123.904c-7.168-3.072-14.336-4.096-20.48-3.072v0z" />
<glyph unicode="&#xe92e;" glyph-name="rating-star" d="M233.472-12.163c-19.456 3.072-31.744 20.48-29.696 39.936l35.84 286.72-195.584 209.92c-13.312 14.336-12.288 36.864 2.048 50.176 5.12 4.096 11.264 7.168 17.408 9.216l280.576 53.248 137.216 252.928c9.216 17.408 30.72 23.552 48.128 14.336 6.144-3.072 11.264-8.192 14.336-14.336l137.216-252.928 280.576-53.248c19.456-4.096 31.744-22.528 27.648-41.984-1.024-6.144-4.096-12.288-8.192-17.408l-195.584-209.92 35.84-286.72c3.072-19.456-11.264-37.888-29.696-39.936-7.168-1.024-13.312 0-19.456 3.072l-260.096 123.904-258.048-123.904c-7.168-3.072-14.336-4.096-20.48-3.072v0zM281.6 83.069l215.040 103.424c9.216 5.12 20.48 5.12 30.72 0l215.040-103.424-30.72 238.592c-1.024 10.24 2.048 21.504 9.216 28.672l163.84 175.104-234.496 45.056c-10.24 2.048-19.456 8.192-24.576 17.408l-113.664 210.944-113.664-210.944c-5.12-9.216-14.336-15.36-24.576-17.408l-234.496-44.032 162.816-175.104c7.168-8.192 10.24-18.432 9.216-28.672 1.024-1.024-29.696-239.616-29.696-239.616z" />
</font>
</defs>
</svg>
