<svg xmlns="http://www.w3.org/2000/svg">
<defs>
<font id="UTMAvo" horiz-adv-x="1341" >
  <font-face 
    font-family="UTM Avo"
    font-weight="400"
    font-stretch="normal"
    units-per-em="2048"
    panose-1="2 4 6 3 5 5 6 2 2 4"
    ascent="1638"
    descent="-410"
    x-height="1120"
    cap-height="1516"
    bbox="-133 -455 4942 2343"
    underline-thickness="109"
    underline-position="-143"
    unicode-range="U+0020-2026"
  />
<missing-glyph horiz-adv-x="5040" 
d="M3351 2045h10q37 -10 37 -52q0 -12 -32 -57h-28q0 24 28 54l2 10q-5 13 -10 15h-9q-8 0 -10 -19h-30q6 49 42 49zM2019 2016l29 -31q0 -16 -40 -30h-19l-59 12l-11 -12l-28 25q11 29 43 29h11l42 -11h2q10 0 30 18zM468 1980h142v-60h-94v-75h89v-59h-89v-129l-5 -5h-49
v323zM1155 1980h43l6 -5v-78h30v-52h-30v-188l-6 -5h-49v193h-25v52h25v78zM1621 1980h42l4 -5v-94h3q23 24 54 24h2q58 0 83 -71l2 -39v-143h-52v115q0 80 -42 80h-7q-43 0 -43 -86v-109h-51v323zM2200 1980h49l5 -5v-222q10 -51 45 -51q44 7 44 59v214l5 5h49v-216
q0 -85 -66 -112q-15 -8 -35 -8q-47 0 -82 55q-14 24 -14 57v224zM2435 1980h159v-60h-56v-268h-53v268h-55v55zM2621 1980h71q7 -4 83 -251h2l80 251h73v-328h-54v242h-2l-74 -242h-44q-4 0 -58 182l-19 60h-3v-242h-55v328zM3760 1980h52v-328h-45l-5 5v11l3 2l-3 14
q-29 -40 -78 -40q-67 0 -100 91l-5 39v3q0 94 92 125l23 3q35 0 63 -32h3v107zM2057 1928h36l4 -6v-49h-45v-221h-48v23q-23 -31 -59 -31q-89 14 -89 97v156h51v-104q0 -79 26 -86l18 -5h6q26 0 39 36l3 26v133h53v25zM3476 1928v-55h-31v-221h-47v25h-2q-15 -33 -57 -33
q-68 0 -86 78l-3 29v146h52v-120q0 -50 19 -68l21 -7h9q42 0 42 69v126h27q4 0 4 28l3 3h49zM758 1905q68 0 103 -77q9 -18 12 -54q0 -88 -90 -127l-32 -3q-63 0 -101 73q-12 22 -12 52v10q0 94 101 126h19zM1011 1905h3q74 0 83 -101v-152h-51v119q0 76 -42 76h-5
q-44 0 -44 -76v-119h-52v245h46v-21q30 29 62 29zM1466 1905h7q72 0 105 -89h-60q-16 31 -42 31h-17q-53 -14 -53 -61l-3 -15q12 -69 61 -69h9q22 0 47 27h40l2 3h3l2 -3l2 3l3 -3l2 3l2 -7q-33 -81 -110 -81q-76 0 -110 94l-4 36v3q0 85 77 120q15 8 37 8zM3141 1905h2

<glyph glyph-name=".notdef" horiz-adv-x="5040" 
d="M3351 2045h10q37 -10 37 -52q0 -12 -32 -57h-28q0 24 28 54l2 10q-5 13 -10 15h-9q-8 0 -10 -19h-30q6 49 42 49zM2019 2016l29 -31q0 -16 -40 -30h-19l-59 12l-11 -12l-28 25q11 29 43 29h11l42 -11h2q10 0 30 18zM468 1980h142v-60h-94v-75h89v-59h-89v-129l-5 -5h-49
v323zM1155 1980h43l6 -5v-78h30v-52h-30v-188l-6 -5h-49v193h-25v52h25v78zM1621 1980h42l4 -5v-94h3q23 24 54 24h2q58 0 83 -71l2 -39v-143h-52v115q0 80 -42 80h-7q-43 0 -43 -86v-109h-51v323zM2200 1980h49l5 -5v-222q10 -51 45 -51q44 7 44 59v214l5 5h49v-216
q0 -85 -66 -112q-15 -8 -35 -8q-47 0 -82 55q-14 24 -14 57v224zM2435 1980h159v-60h-56v-268h-53v268h-55v55zM2621 1980h71q7 -4 83 -251h2l80 251h73v-328h-54v242h-2l-74 -242h-44q-4 0 -58 182l-19 60h-3v-242h-55v328zM3760 1980h52v-328h-45l-5 5v11l3 2l-3 14
q-29 -40 -78 -40q-67 0 -100 91l-5 39v3q0 94 92 125l23 3q35 0 63 -32h3v107zM2057 1928h36l4 -6v-49h-45v-221h-48v23q-23 -31 -59 -31q-89 14 -89 97v156h51v-104q0 -79 26 -86l18 -5h6q26 0 39 36l3 26v133h53v25zM3476 1928v-55h-31v-221h-47v25h-2q-15 -33 -57 -33
q-68 0 -86 78l-3 29v146h52v-120q0 -50 19 -68l21 -7h9q42 0 42 69v126h27q4 0 4 28l3 3h49zM758 1905q68 0 103 -77q9 -18 12 -54q0 -88 -90 -127l-32 -3q-63 0 -101 73q-12 22 -12 52v10q0 94 101 126h19zM1011 1905h3q74 0 83 -101v-152h-51v119q0 76 -42 76h-5
q-44 0 -44 -76v-119h-52v245h46v-21q30 29 62 29zM1466 1905h7q72 0 105 -89h-60q-16 31 -42 31h-17q-53 -14 -53 -61l-3 -15q12 -69 61 -69h9q22 0 47 27h40l2 3h3l2 -3l2 3l3 -3l2 3l2 -7q-33 -81 -110 -81q-76 0 -110 94l-4 36v3q0 85 77 120q15 8 37 8zM3141 1905h2
q49 0 70 -60v-14h-52q0 16 -16 16h-4q-14 0 -19 -13v-13q0 -9 68 -35q30 -19 30 -59q0 -58 -61 -80l-23 -3q-76 12 -76 83h54q0 -20 27 -25h4q19 0 24 23q0 22 -68 44q-34 27 -34 59q0 66 74 77zM4203 1905q55 0 77 -63q7 -18 7 -65v-125h-52v112q0 83 -40 83h-11
q-33 0 -40 -54v-141h-52v5h-2l2 2v238h47v-21q25 29 64 29zM4432 1905h5q40 0 69 -40v18l-3 3l3 11h47v-208q0 -97 -85 -132l-33 -4h-7q-70 0 -104 80h59q24 -22 45 -23h13q22 0 43 22q15 13 22 52h-3q-32 -40 -73 -40q-57 0 -96 70q-10 18 -14 63q0 88 87 125zM3851 1897
h53v-136q6 -59 40 -59h7q46 0 46 93v102h51v-245h-47l-3 10h3l-3 3v5l3 2v3h-4q0 -23 -57 -31h-3q-59 0 -84 75l-2 85v93zM690 1771q10 -69 63 -69h7q59 14 59 65v15q-13 65 -59 65h-5q-58 0 -65 -76zM3630 1774q13 -72 61 -72h5q58 0 66 75q0 49 -51 70h-22q-37 0 -56 -57z
M4374 1774q8 -72 65 -72h5q59 12 59 72q0 61 -59 73h-14q-56 -16 -56 -62v-11zM3928 1620h52v-57h-52v57zM1054 1402q43 -11 43 -49v-4q0 -17 -32 -60h-28q0 25 31 57v7q0 12 -7 15h-12q-10 -4 -10 -19h-28v6q0 32 33 44zM3349 1339q92 0 138 -99h-60q-37 42 -80 42
q-55 0 -87 -68q-10 -22 -10 -47q0 -78 81 -110l18 -1q36 0 75 39h61q-44 -97 -138 -97q-93 0 -141 112q-10 31 -10 62q0 97 90 152q29 15 63 15zM3664 1339q57 0 103 -47q46 -51 46 -115v-20q0 -89 -91 -146q-33 -13 -63 -13q-89 0 -138 101q-13 33 -13 60v18q0 98 98 151
q29 11 58 11zM2261 1337h2l47 -11h3q11 0 26 11l18 -36q-18 -19 -35 -19h-3l-54 10l-20 -7l-20 36q18 16 36 16zM716 1334h19q118 0 129 -26q25 -26 25 -62q-10 -57 -30 -57v-6q47 -23 47 -66v-18q0 -63 -69 -88l-54 -5h-67v328zM2550 1334h53v-217q6 -61 45 -61q29 0 44 39
l3 30v203l4 6h45l5 -6v-171q0 -118 -40 -133q-24 -26 -64 -26q-55 0 -91 76l-4 54v206zM2805 1334h59q4 0 122 -237h4v237h50l4 -6v-322h-58q-29 48 -125 238h-3v-238h-53v328zM3101 1334h54v-328h-54v328zM3859 1334h8q155 0 174 -40q23 -11 47 -75l4 -36v-11l3 -2
q0 -94 -82 -149q-35 -15 -99 -15h-55v328zM4141 1334h153v-60h-103v-75h101v-57h-101v-74l4 -5h99v-57h-157v322zM3563 1175v-10q0 -76 79 -108l19 -1q68 0 96 86l3 20v15q0 61 -60 94q-12 8 -39 11q-66 0 -96 -83zM770 1274v-67h9q54 0 54 28l3 14q-11 25 -29 25h-37z
M3912 1274v-206l2 -3v-2q104 0 122 76l2 15v29q0 34 -32 68q-25 23 -78 23h-16zM1041 1259h5q38 0 71 -40v32h49v-245h-49v32q-36 -40 -80 -40q-75 0 -101 97l-5 36q0 89 85 125zM1314 1259h3q74 0 83 -102v-151h-51v128q0 67 -42 67h-10q-34 0 -39 -62v-133h-52v245h47v-21
q28 29 61 29zM1543 1259h5q45 0 71 -40v32h47v-219q0 -95 -104 -126h-16q-74 0 -108 82h59q26 -25 44 -25h14q52 0 64 77q-33 -42 -76 -42q-60 0 -101 81l-7 44v16q0 79 85 117zM1912 1259h2q43 0 61 -37h2q32 37 69 37h4q57 0 79 -55q8 -25 8 -45v-153h-52v138q0 44 -23 55
l-12 2h-15q-32 0 -36 -65v-130h-52v136q0 59 -43 59h-8q-32 0 -36 -57v-138h-54v245h50v-21h2q6 24 54 29zM2282 1259q47 0 75 -42v34h47v-245h-47v32q-36 -40 -78 -40q-74 0 -102 92l-6 41q0 90 85 125zM985 1117q0 -48 61 -61h4q45 0 62 46l3 15v22q-12 62 -57 62h-14
q-41 0 -59 -57v-27zM1487 1128q0 -48 43 -68l18 -4h5q47 0 63 57v23q-11 65 -58 65h-12q-50 0 -59 -73zM2225 1131v-14q15 -61 57 -61h14q58 12 58 64v11q0 45 -37 65l-18 5h-10q-64 -8 -64 -70zM770 1150v-82q0 -5 7 -5q77 0 77 45q0 34 -47 42h-37zM2966 753l24 -28
l-51 -55q-18 12 -27 26zM1524 727l85 -54q0 -15 -21 -42l-87 54q18 41 23 42zM2850 693h38l55 -60h-54l-21 26l-23 -26h-54q54 60 59 60zM3422 693h40l56 -60h-54l-24 26h-1q0 -5 -19 -26h-54zM622 685h52q8 -4 47 -137l34 -110q9 8 34 100l48 147h54v-2l-112 -326h-44z
M1159 685h51v-54h-51v54zM1354 685h46l6 -5v-323h-52v328zM2317 685h45l4 -5v-78h31v-52h-31v-193h-53v193h-26v52h26v78zM2425 685h52v-98h2q23 23 54 23h3q57 0 81 -71l3 -38v-144h-52v115q0 81 -39 81h-10q-42 0 -42 -87v-109h-52v328zM2664 685h52v-54h-52v54zM3028 685
h44l6 -5v-78h29v-52h-29v-193h-54v193h-27v52h27v78zM3234 685h52v-328h-52v328zM3957 685h52v-328h-52v328zM4316 685h51v-54h-51v54zM1555 610h5q83 0 110 -102l3 -23v-11q0 -83 -85 -120l-35 -5q-76 0 -111 97l-4 32q0 97 93 130zM1811 610h4q53 0 78 -60q7 -25 7 -81
v-112h-54v146q-7 50 -37 50h-10q-38 0 -42 -57v-139h-54v245h49v-21q26 29 59 29zM2046 610h4q45 0 63 -39h3v31h49v-206q0 -102 -89 -135l-28 -3h-5q-73 0 -106 81h52l37 -20l15 -3h14q50 0 61 72q-33 -39 -73 -39q-62 0 -98 76q-11 23 -12 60q0 85 86 123zM2866 610h2
q82 0 111 -104l2 -25l-2 -27h-172q15 -45 45 -45l14 -3q29 0 49 22h57v-3q-35 -76 -108 -76q-77 0 -111 97l-1 28v8q0 49 32 89q34 39 82 39zM3429 610h5q41 0 70 -39h2v31h47v-245h-47v31h-2q-35 -39 -77 -39q-71 0 -101 89l-5 36v14q0 86 84 120zM3711 610h7
q88 0 107 -128l-2 -1v-15q0 -65 -66 -106q-21 -11 -46 -11q-34 0 -64 32v-99l-5 -5h-49v325h49v-28q31 36 69 36zM4151 610q44 0 75 -39v31h49v-245h-49v31q-35 -39 -77 -39q-92 0 -108 132q0 84 73 121q15 8 37 8zM922 602h50v-136q3 -60 42 -60h5q44 0 44 87v109h52v-245
h-47v24h-5q0 -23 -56 -32h-3q-55 0 -82 68q-4 35 -4 99v81zM1159 602h51v-245h-51v245zM2664 602h52v-245h-52v245zM4316 602h51v-245h-51v245zM1492 488v-16q13 -66 59 -66h4q59 0 66 76q-13 71 -59 71h-11q-59 -16 -59 -65zM1987 472q15 -66 59 -66h11q48 0 59 75v1
q-13 71 -59 71h-14q-39 0 -56 -57v-24zM2805 506h122v2q-16 45 -59 45h-7q-35 0 -56 -47zM3373 474q13 -68 61 -68h5q52 0 65 63v12q-10 72 -57 72h-16q-56 -14 -56 -63zM3642 478q12 -72 61 -72h3q50 0 65 60v22q0 43 -49 65h-22q-47 0 -58 -72v-3zM4095 472q10 -66 66 -66
q43 0 61 48l2 15v16q0 54 -52 68h-18q-42 0 -59 -60v-21zM3416 321h51v-52h-51v52zM4137 321h51v-52h-51v52zM2733 133h4q35 0 43 -50v-2q0 -16 -24 -41l-10 -17h-28q0 25 28 56l3 2v2q-3 19 -9 19h-10q-8 0 -9 -19h-30q6 50 42 50zM1546 116l52 -60l-26 -19l-52 52zM352 79
h4q75 -48 85 -60l-20 -37q-88 49 -88 58zM3490 79l86 -58l-18 -39q-10 0 -91 55q15 36 23 42zM4578 76l19 -42l-91 -52l-20 39l92 58v-3zM1204 53h51v-19l5 -5h14v-36h-14l-5 -5v-279h-46v31q-34 -40 -81 -40q-72 0 -102 105l-3 26q0 102 101 131h14q33 0 66 -33v59l-6 5
h-43v36h49v24zM1480 45h40l56 -61h-53l-23 27l-23 -27h-53zM2641 45h33q12 0 63 -61h-54l-23 27q-19 -21 -19 -27h-58v4zM49 37h160v-60h-56v-268h-50l-4 5v245l2 3v2l-2 2l2 3l-2 2l2 3l-2 3h-54v54zM699 37h47v-73l2 -2l-2 -3v-3l2 -2l-2 -3v-3l2 -2v-2l-2 -3l2 -3h3
q17 24 51 24h3q53 0 77 -58q7 -17 7 -42v-153h-52v127q0 68 -40 68h-8q-43 0 -43 -86v-109h-52v322zM1297 37h47l5 -6v-49h-52v55zM1987 37h52v-198l70 115h62l-78 -118l90 -125v-2h-70q-10 22 -74 115v-115h-52v328zM2271 37v-99q24 24 53 24q57 0 80 -56q10 -19 10 -77
v-120h-54v133q0 62 -41 62h-11q-31 0 -37 -55v-140h-53v314l-1 3v3l1 2l-1 3l1 3h53zM2458 37h51v-55h-51v55zM3148 37h51v-108q27 33 68 33h3q75 0 105 -94l5 -37q0 -75 -64 -120q-30 -11 -49 -11q-41 0 -72 40v-31h-47v328zM4275 37h52v-99h2q23 24 54 24h3q60 0 82 -74
l2 -41v-138h-52v111q0 82 -32 82l-10 2h-12q-37 0 -37 -80v-115h-52v328zM329 -38h3v-58h-5q-42 0 -42 -57v-138h-53v245h47v-21q18 29 50 29zM564 -38q71 0 86 -87v-166h-51v136q-6 59 -41 59h-6q-45 0 -45 -84v-111h-52v245h50v-21q25 29 59 29zM1504 -38q72 0 105 -94
l5 -39q-2 -24 -7 -24h-169q17 -47 62 -47q24 0 48 21h57q-33 -79 -108 -79q-82 0 -113 105v37q0 81 89 117zM2657 -38h5q77 0 107 -97l3 -26v-21l-3 -13h-170q18 -47 53 -47h12q21 0 42 21h59q-34 -79 -105 -79q-84 0 -115 102l-2 29q0 93 91 128zM2915 -38h4q54 0 78 -60
q7 -25 7 -82v-111h-54v138q0 48 -35 57h-11q-38 0 -43 -57v-138h-54v245h50v-21q25 29 58 29zM3508 -38h6q40 0 70 -40h2v32h47v-245h-47v31h-2q-34 -40 -78 -40q-71 0 -101 90l-4 37v12q0 82 77 117q11 6 30 6zM3781 -38h4q62 0 82 -78l3 -84v-91h-54v138q0 48 -38 57h-9
q-38 0 -42 -52v-143h-54v245h49v-21q26 29 59 29zM4133 -38h1q74 0 104 -93l4 -40q0 -88 -84 -126l-25 -3q-41 0 -68 34v-106h-52v326h47v-29q30 37 73 37zM4714 -38h5q34 0 63 -37q27 37 69 37h6q56 0 79 -66l6 -51v-136h-52v122q0 73 -39 73h-7q-35 0 -41 -50v-140l-5 -5
h-48v140q0 42 -31 55h-17q-40 0 -40 -77v-118h-51v245h47v-21q22 29 56 29zM359 -46h49l5 -6v-234l-5 -5h-49v245zM1297 -46h52v-245h-52v245zM1649 -46h52v-136q4 -60 43 -60h4q44 0 44 81v115h52v-245h-47v24h-5q-12 -33 -59 -33q-52 0 -79 63q-5 12 -5 34v157zM2458 -46
h51v-245h-51v245zM4515 -46h51v-245h-51v245zM1077 -169q0 -53 51 -73h12q54 0 66 66v10q0 53 -54 70h-17q-38 0 -58 -57v-16zM1438 -143h122q-18 47 -53 47h-7q-43 0 -62 -44v-3zM2599 -143h122q-21 47 -54 47h-7q-46 0 -61 -47zM3196 -158v-11q10 -73 61 -73h5q64 8 64 71
v5q0 45 -38 65l-18 5h-14q-60 -14 -60 -62zM3452 -173q14 -69 62 -69h11q41 0 59 60v13q-8 73 -56 73h-17q-47 0 -59 -73v-4zM4062 -158v-22q0 -47 59 -62h9q50 0 61 76q-13 70 -58 70h-15q-56 -17 -56 -62z" />
    <glyph glyph-name=".null" horiz-adv-x="0" 
 />
    <glyph glyph-name="nonmarkingreturn" horiz-adv-x="571" 
 />
    <glyph glyph-name="space" unicode=" " horiz-adv-x="567" 
 />
    <glyph glyph-name="exclam" unicode="!" horiz-adv-x="604" 
d="M227 395v1121h152v-1121h-152zM227 0v258h152v-258h-152z" />
    <glyph glyph-name="quotedbl" unicode="&#x22;" horiz-adv-x="632" 
d="M534 909h-117l-25 607h166zM214 909h-116l-25 607h166z" />
    <glyph glyph-name="numbersign" unicode="#" horiz-adv-x="1134" 
d="M876 956l-55 -397h188v-137h-207l-59 -422h-141l59 422h-254l-59 -422h-142l60 422h-199v137h219l53 395h-219v140h240l59 422h142l-60 -422h254l60 422h141l-60 -422h170v-138h-190zM483 956l-56 -397h252l56 397h-252z" />
    <glyph glyph-name="dollar" unicode="$" horiz-adv-x="1134" 
d="M896 190q-99 -115 -251 -131v-202h-152v202q-143 16 -246 125q-104 111 -104 254v29h152q0 -283 280 -283q266 0 266 273q0 126 -85 198q-65 54 -201 88q-87 22 -147 48q-70 30 -116 70q-105 91 -106 257v8q-3 308 307 363v172h152v-166q320 -44 334 -381h-152
q0 248 -256 248q-233 0 -233 -236q0 -116 80 -175q33 -25 85 -44q36 -14 101 -30q182 -49 276 -137q113 -107 113 -283q0 -154 -97 -267z" />
    <glyph glyph-name="percent" unicode="%" horiz-adv-x="1587" 
d="M675 912q-109 -107 -261 -107q-153 0 -262 107q-109 108 -109 259q0 152 109 260q109 107 262 107q152 0 261 -107q109 -108 109 -260q0 -151 -109 -259zM422 0h-139l868 1516h139zM1433 81q-109 -108 -262 -108q-152 0 -261 108q-109 107 -109 259t109 259
q109 108 261 108q153 0 262 -108q109 -107 109 -259t-109 -259zM590 1350q-72 73 -176 73t-176 -73q-72 -74 -72 -179q0 -104 72 -178q72 -73 176 -73t176 73q71 74 71 178q0 105 -71 179zM1348 518q-72 74 -177 74q-104 0 -176 -74q-71 -73 -71 -178t71 -178
q72 -74 176 -74q105 0 177 74q71 73 71 178t-71 178z" />
    <glyph glyph-name="ampersand" unicode="&#x26;" horiz-adv-x="1550" 
d="M1398 -25l-346 338q-83 -159 -181 -239q-120 -99 -280 -99q-194 0 -334 134q-143 136 -143 329q0 159 103 279q87 100 247 172q-83 81 -119 141q-51 83 -51 176q0 144 112 242q107 94 253 94t253 -103q109 -105 109 -251q0 -120 -91 -217q-81 -85 -204 -127l287 -283
l221 426h170l-280 -534l383 -373zM805 1345q-61 54 -148 54q-83 0 -146 -53q-65 -56 -65 -138q0 -69 58 -144q23 -29 56 -61q23 -22 58 -53q56 22 89 38q49 23 81 49q82 65 82 165q0 87 -65 143zM573 780q-128 -44 -211 -130q-96 -98 -96 -220q0 -126 93 -219
q94 -92 220 -92t221 96q39 39 76 97q27 43 61 110z" />
    <glyph glyph-name="quotesingle" unicode="'" horiz-adv-x="718" 
d="M344 1118h-152l180 398h152z" />
    <glyph glyph-name="parenleft" unicode="(" horiz-adv-x="755" 
d="M727 -420q-126 41 -256 154q-375 329 -375 831q0 503 375 832q130 112 256 153v-153q-212 -127 -345 -355q-134 -231 -134 -477q0 -249 132 -479q131 -227 347 -358v-148z" />
    <glyph glyph-name="parenright" unicode=")" horiz-adv-x="755" 
d="M284 -266q-130 -113 -256 -154v148q215 131 346 358q133 230 133 479q0 246 -134 477q-133 228 -345 355v153q126 -41 256 -153q375 -329 375 -832q0 -502 -375 -831z" />
    <glyph glyph-name="asterisk" unicode="*" horiz-adv-x="870" 
d="M526 1171l139 -188l-96 -70l-138 193l-135 -191l-96 70l141 189l-223 69l37 115l223 -78l-2 236h119l-4 -238l223 76l37 -113z" />
    <glyph glyph-name="plus" unicode="+" horiz-adv-x="1241" 
d="M690 449v-449h-140v449h-446v139h446v448h140v-448h446v-139h-446z" />
    <glyph glyph-name="comma" unicode="," horiz-adv-x="567" 
d="M180 -137h-152l180 395h152z" />
    <glyph glyph-name="hyphen" unicode="-" horiz-adv-x="679" 
d="M61 508v137h557v-137h-557z" />
    <glyph glyph-name="hyphen" unicode="&#x2010;" horiz-adv-x="679" 
d="M61 508v137h557v-137h-557z" />
    <glyph glyph-name="period" unicode="." horiz-adv-x="567" 
d="M208 0v258h152v-258h-152z" />
    <glyph glyph-name="slash" unicode="/" horiz-adv-x="894" 
d="M246 -205h-156l573 1721h162z" />
    <glyph glyph-name="zero" unicode="0" horiz-adv-x="1134" 
d="M1075 553q0 -94 -17 -177q-19 -97 -59 -167q-139 -236 -432 -236t-432 236q-40 70 -60 167q-16 83 -16 177v442q0 167 57 279q136 268 451 268t450 -268q58 -112 58 -279v-442zM923 961q0 74 -15 149q-18 87 -50 139q-98 156 -291 156t-291 -156q-33 -52 -50 -139
q-15 -75 -15 -149v-386q0 -85 11 -156q14 -94 46 -147q98 -161 299 -161t299 161q32 53 46 147q11 71 11 156v386z" />
    <glyph glyph-name="one" unicode="1" horiz-adv-x="1134" 
d="M536 0v1378h-260v138h412v-1516h-152z" />
    <glyph glyph-name="two" unicode="2" horiz-adv-x="1134" 
d="M965 814q-35 -52 -89 -110q-37 -40 -103 -102l-487 -465h758v-137h-963v137l627 603q57 56 93 102q99 124 99 241q0 133 -98 228q-96 94 -229 94q-158 0 -246 -113q-82 -103 -82 -266h-152v4q0 169 70 288q76 130 225 187q92 37 193 37q312 0 434 -289q37 -87 37 -172
q0 -139 -87 -267z" />
    <glyph glyph-name="three" unicode="3" horiz-adv-x="1134" 
d="M901 118q-137 -145 -343 -145q-94 0 -180 35q-150 57 -229 183q-74 117 -80 284h152q5 -67 14 -105q12 -53 39 -98q97 -161 284 -161q148 0 239 101q87 97 87 247q0 114 -74 205q-72 90 -184 118q-36 9 -88 12l-88 3v133l51 -2q120 0 198 58q85 64 85 179q0 104 -66 172
t-170 68q-106 0 -169 -84q-58 -75 -58 -184h-152q5 173 107 286q106 119 276 119q165 0 275 -112q108 -112 108 -277q0 -92 -41 -162q-36 -61 -114 -123q256 -135 256 -401q0 -207 -135 -349z" />
    <glyph glyph-name="four" unicode="4" horiz-adv-x="1134" 
d="M943 276v-276h-151v276h-764v138l735 1102h180v-1102h138v-138h-138zM792 1307h-4l-586 -893h590v893z" />
    <glyph glyph-name="five" unicode="5" horiz-adv-x="1134" 
d="M937 130q-150 -157 -366 -157q-88 0 -176 33q-151 55 -239 183q-80 118 -103 288h152q16 -155 112 -258q103 -108 254 -108q154 0 260 119q103 115 103 272q0 159 -99 274q-104 121 -262 121q-183 0 -315 -172l-119 43l137 748h682v-138h-561l-76 -417q131 71 258 71
q217 0 363 -158q143 -154 143 -372q0 -217 -148 -372z" />
    <glyph glyph-name="six" unicode="6" horiz-adv-x="1134" 
d="M938 128q-148 -155 -371 -155q-229 0 -375 156q-143 152 -143 383q0 116 56 235q22 48 58 106q22 35 68 103l377 557h172l-350 -514l4 -2q69 33 141 33q219 0 366 -154q144 -152 144 -372q0 -223 -147 -376zM832 776q-106 117 -265 117q-160 0 -265 -119
q-101 -115 -101 -276q0 -159 103 -271q106 -116 263 -116q161 0 266 116q101 112 101 275q0 160 -102 274z" />
    <glyph glyph-name="seven" unicode="7" horiz-adv-x="1134" 
d="M385 0h-160l625 1378h-721v138h877v-138z" />
    <glyph glyph-name="eight" unicode="8" horiz-adv-x="1134" 
d="M906 109q-142 -136 -338 -136t-339 135q-146 137 -146 332q0 131 70 243q73 116 190 163q-178 115 -178 303q0 168 117 281q116 112 284 112q169 0 286 -115q116 -115 116 -284q0 -198 -180 -297q262 -125 262 -406q0 -194 -144 -331zM745 1331q-72 74 -175 74
q-106 0 -180 -72t-74 -178q0 -100 77 -173q75 -73 175 -73q102 0 175 72t73 174t-71 176zM800 673q-98 95 -236 95q-131 0 -230 -95q-99 -96 -99 -227q0 -144 95 -240q96 -95 240 -95q137 0 233 97q95 97 95 232q0 138 -98 233z" />
    <glyph glyph-name="nine" unicode="9" horiz-adv-x="1134" 
d="M1029 766q-22 -48 -58 -105q-22 -36 -68 -104l-377 -557h-172l350 514l-4 2q-62 -33 -141 -33q-219 0 -366 154q-144 152 -144 373q0 223 147 375q149 155 371 155q229 0 375 -156q143 -152 143 -383q0 -116 -56 -235zM830 1287q-106 116 -263 116q-161 0 -265 -117
q-101 -112 -101 -274q0 -161 101 -274q106 -117 265 -117q160 0 266 119q101 114 101 276q0 158 -104 271z" />
    <glyph glyph-name="colon" unicode=":" horiz-adv-x="567" 
d="M208 864v258h152v-258h-152zM208 0v258h152v-258h-152z" />
    <glyph glyph-name="semicolon" unicode=";" horiz-adv-x="567" 
d="M208 864v258h152v-258h-152zM180 -137h-152l180 395h152z" />
    <glyph glyph-name="less" unicode="&#x3c;" horiz-adv-x="1241" 
d="M94 455v127l1040 471v-140l-870 -395l870 -395v-139z" />
    <glyph glyph-name="equal" unicode="=" horiz-adv-x="1241" 
d="M104 655v140h1032v-140h-1032zM104 242v139h1032v-139h-1032z" />
    <glyph glyph-name="greater" unicode="&#x3e;" horiz-adv-x="1241" 
d="M106 -16v139l870 395l-870 395v140l1040 -471v-127z" />
    <glyph glyph-name="question" unicode="?" horiz-adv-x="1210" 
d="M1019 887q-23 -37 -60 -77l-34 -35l-105 -104q-38 -41 -63 -77q-61 -91 -67 -199h-151v8q0 124 60 226q25 42 62 85q27 32 71 74l71 69q39 39 62 70q61 80 61 165q0 127 -97 217q-95 88 -223 88q-176 0 -276 -150q-31 -46 -41 -99q-6 -37 -6 -108h-152v39q0 192 145 328
q143 133 336 133q197 0 330 -129q135 -130 135 -326q0 -108 -58 -198zM539 0v258h151v-258h-151z" />
    <glyph glyph-name="at" unicode="@" horiz-adv-x="1775" 
d="M1618 670q-38 -137 -120 -234q-99 -117 -224 -117q-157 0 -164 164h-4q-101 -164 -283 -164q-148 0 -237 113q-82 104 -82 256q0 181 107 317q116 146 292 146q199 0 254 -182h4l29 153h123l-98 -544q-7 -36 -7 -60q0 -84 70 -84q86 0 153 98q50 76 74 179q17 82 17 155
q0 260 -170 414q-164 147 -426 147q-291 0 -480 -190q-190 -191 -190 -481q0 -309 192 -490q188 -178 500 -178q262 0 488 102l30 -104q-240 -113 -518 -113q-257 0 -446 105q-206 113 -303 336q-66 149 -66 327q0 352 229 577q227 224 580 224q308 0 502 -182
q200 -186 200 -492q0 -107 -26 -198zM1063 967q-57 69 -150 69q-130 0 -212 -110q-74 -99 -74 -234q0 -113 53 -182q59 -76 168 -76q129 0 205 127q63 106 63 246q0 95 -53 160z" />
    <glyph glyph-name="A" unicode="A" horiz-adv-x="1515" 
d="M1327 0l-220 510h-704l-221 -510h-158l647 1516h170l651 -1516h-165zM757 1343l-297 -696h588z" />
    <glyph glyph-name="B" unicode="B" horiz-adv-x="1175" 
d="M939 84q-83 -52 -178 -70q-71 -14 -192 -14h-418v1516h381q162 0 275 -53q134 -62 190 -195q31 -74 31 -156q0 -99 -44 -174q-38 -65 -122 -131q252 -103 252 -373q0 -240 -175 -350zM813 1284q-50 58 -143 79q-37 9 -83 13q-35 2 -82 2h-202v-516l257 1q37 1 66 5
q74 9 127 37q123 65 123 213q0 94 -63 166zM784 690q-61 24 -145 31q-33 3 -75 4h-261v-588l285 1l73 4q81 8 141 34q160 67 160 258q0 183 -178 256z" />
    <glyph glyph-name="C" unicode="C" horiz-adv-x="1665" 
d="M1579 397q-231 -424 -698 -424q-328 0 -560 227q-233 229 -233 556q0 331 230 558q229 226 561 226q359 0 598 -270q66 -74 96 -144h-170q-186 277 -527 277q-259 0 -449 -196q-187 -193 -187 -453q0 -256 191 -449q192 -194 448 -194q159 0 299 78q130 74 231 208h170z
" />
    <glyph glyph-name="D" unicode="D" horiz-adv-x="1523" 
d="M1087 125q-97 -62 -238 -96q-126 -29 -256 -29h-442v1516h442q131 0 256 -30q140 -33 238 -95q344 -220 344 -637q0 -405 -344 -629zM1021 1262q-101 71 -239 97q-58 11 -128 16q-56 3 -132 3h-219v-1241h251q76 0 131 4q68 5 124 17q130 28 233 102q113 82 177 222
q60 132 60 278q0 324 -258 502z" />
    <glyph glyph-name="E" unicode="E" horiz-adv-x="1097" 
d="M143 0v1516h829v-138h-677v-544h655v-138h-655v-559h677v-137h-829z" />
    <glyph glyph-name="F" unicode="F" horiz-adv-x="993" 
d="M295 1378v-549h591v-137h-591v-692h-152v1516h766v-138h-614z" />
    <glyph glyph-name="G" unicode="G" horiz-adv-x="1785" 
d="M1695 696q-25 -309 -258 -517q-231 -206 -543 -206q-327 0 -568 228q-245 232 -245 557q0 328 243 558q238 226 568 226q375 0 619 -278q66 -74 98 -152h-176q-78 135 -231 216q-147 77 -308 77q-271 0 -465 -189q-196 -190 -196 -460q0 -272 198 -460q196 -185 469 -185
q205 0 381 125q182 129 232 323h-846v137h1028z" />
    <glyph glyph-name="H" unicode="H" horiz-adv-x="1398" 
d="M1091 0v711h-784v-711h-152v1516h152v-668h784v668h151v-1516h-151z" />
    <glyph glyph-name="I" unicode="I" horiz-adv-x="462" 
d="M155 0v1516h152v-1516h-152z" />
    <glyph glyph-name="J" unicode="J" horiz-adv-x="987" 
d="M822 409l-4 -74q-8 -84 -34 -142q-95 -220 -360 -220q-173 0 -288 108t-124 279h150q17 -249 264 -249q151 0 207 116q23 47 32 117q6 52 6 131v1041h152z" />
    <glyph glyph-name="K" unicode="K" horiz-adv-x="1210" 
d="M1019 0l-506 657l-196 -241v-416h-152v1516h152v-871h4l694 871h194l-600 -740l600 -776h-190z" />
    <glyph glyph-name="L" unicode="L" horiz-adv-x="946" 
d="M167 0v1516h152v-1379h626v-137h-778z" />
    <glyph glyph-name="M" unicode="M" horiz-adv-x="1882" 
d="M1574 0v1350h-4l-567 -1350h-129l-563 1350h-4v-1350h-152v1516h233l551 -1291l553 1291h234v-1516h-152z" />
    <glyph glyph-name="N" unicode="N" horiz-adv-x="1515" 
d="M1208 0l-899 1333h-4v-1333h-152v1516h205l846 -1258h4v1258h151v-1516h-151z" />
    <glyph glyph-name="O" unicode="O" horiz-adv-x="1779" 
d="M1452 201q-236 -228 -563 -228q-322 0 -560 226q-241 230 -241 551q0 330 235 562q234 230 566 230q328 0 564 -228q239 -230 239 -556t-240 -557zM1348 1214q-192 191 -459 191q-270 0 -460 -193q-189 -193 -189 -462q0 -262 194 -451q192 -188 455 -188q266 0 458 189
q193 189 193 456t-192 458z" />
    <glyph glyph-name="P" unicode="P" horiz-adv-x="1212" 
d="M966 698q-78 -53 -188 -73q-46 -8 -101 -12q-44 -3 -102 -3h-270v-610h-152v1516h422q58 0 102 -3q55 -4 101 -12q110 -21 188 -74q188 -128 188 -364t-188 -365zM827 1339q-57 28 -127 35l-65 4h-330v-630h330l65 4q70 7 127 34q176 84 176 277t-176 276z" />
    <glyph glyph-name="Q" unicode="Q" horiz-adv-x="1783" 
d="M1463 193q100 -85 226 -82v-138q-194 0 -338 131q-198 -131 -455 -131q-331 0 -570 223q-245 227 -245 556q0 339 240 566q235 224 577 224q345 0 579 -225q236 -228 236 -572q0 -319 -250 -552zM1368 1215q-193 190 -468 190q-279 0 -473 -191q-194 -192 -194 -471
q0 -89 26 -172q157 52 320 52q232 0 421 -89q85 -40 177 -104q77 -54 176 -139q98 96 151 208q58 122 58 251q0 274 -194 465zM1184 248q-33 26 -52 41q-62 48 -105 73q-206 123 -471 123q-134 0 -235 -43q29 -58 88 -120q195 -211 491 -211q195 0 334 98z" />
    <glyph glyph-name="R" unicode="R" horiz-adv-x="1243" 
d="M1041 705q-127 -127 -320 -140l428 -565h-191l-514 686l164 1q103 3 162 22q250 76 250 321q0 201 -166 291q-65 35 -143 48q-58 9 -152 9h-264v-1378h-152v1516h385q51 0 92 -2q53 -3 97 -8q112 -14 184 -48q270 -130 270 -432q0 -191 -130 -321z" />
    <glyph glyph-name="S" unicode="S" horiz-adv-x="1019" 
d="M834 101q-133 -128 -322 -128q-203 0 -333 124q-131 124 -134 327h152q13 -313 315 -313q127 0 215 86q90 88 90 215q0 137 -107 220q-43 33 -108 61q-49 20 -123 42q-95 28 -152 53q-76 32 -125 72q-116 96 -116 275q0 177 125 293q123 114 301 114q176 0 297 -117
q123 -119 123 -295h-152q0 112 -78 193q-79 82 -190 82q-115 0 -194 -75q-80 -75 -80 -189q0 -132 122 -201q45 -25 117 -48l121 -36q173 -52 267 -155q104 -114 104 -283q0 -188 -135 -317z" />
    <glyph glyph-name="T" unicode="T" horiz-adv-x="872" 
d="M512 1378v-1378h-152v1378h-348v138h846v-138h-346z" />
    <glyph glyph-name="U" unicode="U" 
d="M1185 571q0 -85 -12 -161q-15 -89 -45 -154q-132 -283 -459 -283t-459 283q-30 65 -44 154q-13 76 -13 161v945h152v-945q0 -74 10 -140q13 -84 41 -134q102 -186 313 -186t313 186q28 50 41 134q11 66 11 140v945h151v-945z" />
    <glyph glyph-name="V" unicode="V" horiz-adv-x="1437" 
d="M790 0h-149l-625 1516h168l534 -1328l537 1328h164z" />
    <glyph glyph-name="W" unicode="W" horiz-adv-x="1966" 
d="M1511 0h-193l-333 1243h-5l-331 -1243h-195l-432 1516h156l370 -1321h4l361 1321h141l363 -1319h4l370 1319h154z" />
    <glyph glyph-name="X" unicode="X" horiz-adv-x="1247" 
d="M1052 0l-426 647l-432 -647h-178l514 774l-485 742h178l403 -607l400 607h176l-488 -742l519 -774h-181z" />
    <glyph glyph-name="Y" unicode="Y" horiz-adv-x="1212" 
d="M680 506v-506h-152v506l-526 1010h168l432 -850l444 850h166z" />
    <glyph glyph-name="Z" unicode="Z" horiz-adv-x="983" 
d="M24 0v137l745 1241h-722v138h892v-138l-743 -1241h766v-137h-938z" />
    <glyph glyph-name="bracketleft" unicode="[" horiz-adv-x="718" 
d="M690 -367q-418 115 -418 566v774q0 341 268 504q75 47 150 65v-153q-266 -116 -266 -416v-748q0 -168 55 -265q61 -106 211 -173v-154z" />
    <glyph glyph-name="backslash" unicode="\" horiz-adv-x="1239" 
d="M821 -205l-580 1721h162l573 -1721h-155z" />
    <glyph glyph-name="bracketright" unicode="]" horiz-adv-x="718" 
d="M446 199q0 -451 -418 -566v154q150 67 211 173q55 97 55 265v748q0 300 -266 416v153q75 -18 150 -65q268 -163 268 -504v-774z" />
    <glyph glyph-name="asciicircum" unicode="^" horiz-adv-x="1241" 
d="M989 629l-371 737l-365 -737h-145l446 887h132l446 -887h-143z" />
    <glyph glyph-name="underscore" unicode="_" horiz-adv-x="1024" 
d="M0 -256v102h1024v-102h-1024z" />
    <glyph glyph-name="grave" unicode="`" horiz-adv-x="718" 
d="M374 1118l-180 398h152l180 -398h-152z" />
    <glyph glyph-name="a" unicode="a" horiz-adv-x="1398" 
d="M1128 0v197h-4q-148 -224 -436 -224q-253 0 -427 169q-175 169 -175 421q0 250 177 419q175 167 425 167q293 0 436 -225h4v196h144v-1120h-144zM1008 883q-131 137 -320 137q-199 0 -329 -132t-130 -331q0 -196 131 -326q131 -129 328 -129q189 0 320 135
q129 133 129 322t-129 324z" />
    <glyph glyph-name="b" unicode="b" horiz-adv-x="1396" 
d="M1150 142q-174 -169 -427 -169q-283 0 -437 224h-4v-197h-143v1516h143v-592h4q158 225 437 225q250 0 424 -167q178 -169 178 -419q0 -252 -175 -421zM1052 888q-130 132 -329 132q-189 0 -320 -137q-129 -135 -129 -324t129 -322q131 -135 320 -135q197 0 327 129
q131 130 131 326q0 199 -129 331z" />
    <glyph glyph-name="c" unicode="c" horiz-adv-x="1325" 
d="M1242 330q-181 -357 -557 -357q-250 0 -425 168q-177 170 -177 418q0 246 178 419q177 171 424 171q185 0 335 -97q154 -100 222 -270h-158q-125 238 -395 238q-193 0 -327 -132q-136 -132 -136 -325q0 -195 134 -328t329 -133q277 0 395 228h158z" />
    <glyph glyph-name="d" unicode="d" horiz-adv-x="1402" 
d="M1121 0v197h-4q-150 -224 -436 -224q-253 0 -427 169q-175 169 -175 421q0 250 177 419q175 167 425 167q285 0 436 -221h4v588h144v-1516h-144zM1001 883q-131 137 -320 137q-199 0 -329 -132t-130 -331q0 -196 131 -326q131 -129 328 -129q189 0 320 135
q129 133 129 322t-129 324z" />
    <glyph glyph-name="e" unicode="e" horiz-adv-x="1331" 
d="M1244 508h-1020q8 -165 139 -286q130 -120 296 -120q132 0 242 70q114 73 159 195h152q-62 -176 -214 -285t-337 -109q-242 0 -414 173q-170 171 -170 413q0 241 170 415q172 175 412 175q244 0 416 -179q171 -177 171 -421zM1099 637q-28 166 -149 274
q-122 109 -289 109q-166 0 -289 -109q-121 -108 -148 -274h875z" />
    <glyph glyph-name="f" unicode="f" horiz-adv-x="643" 
d="M355 991v-991h-143v991h-174v129h174l2 42q1 24 3 42q4 47 14 84q37 139 155 201q97 51 256 53v-133q-287 0 -287 -281v-8h287v-129h-287z" />
    <glyph glyph-name="g" unicode="g" horiz-adv-x="1378" 
d="M1240 176q0 -64 -3 -109q-4 -58 -13 -105q-23 -112 -86 -195q-157 -207 -445 -207q-206 0 -358 106q-158 109 -215 305h152q112 -282 419 -282q188 0 298 115q108 113 108 302v99h-4q-59 -112 -183 -174q-114 -58 -249 -58q-244 0 -414 169q-172 170 -172 413
q0 245 170 419q171 175 416 175q284 0 432 -229h4v200h143v-944zM977 882q-130 138 -316 138q-187 0 -316 -138q-127 -134 -127 -323q0 -187 127 -320q129 -137 316 -137q184 0 315 137q129 134 129 320q0 187 -128 323z" />
    <glyph glyph-name="h" unicode="h" horiz-adv-x="1249" 
d="M968 0v616q0 90 -24 166q-27 89 -83 142q-102 96 -243 96q-142 0 -244 -96q-55 -52 -82 -138q-23 -74 -23 -159v-627h-143v1516h143v-539h4q111 172 345 172q235 0 367 -150q126 -144 126 -383v-616h-143z" />
    <glyph glyph-name="i" unicode="i" horiz-adv-x="409" 
d="M133 1257v259h143v-259h-143zM133 0v1120h143v-1120h-143z" />
    <glyph glyph-name="j" unicode="j" horiz-adv-x="415" 
d="M137 1257v259h144v-259h-144zM281 53q0 -122 -20 -193q-28 -97 -103 -163q-100 -87 -248 -90v141q138 4 190 104q21 42 30 104q7 49 7 122v1042h144v-1067z" />
    <glyph glyph-name="k" unicode="k" horiz-adv-x="1028" 
d="M835 0l-368 442l-181 -229v-213h-143v1516h143v-1080h4l523 684h184l-442 -565l465 -555h-185z" />
    <glyph glyph-name="l" unicode="l" horiz-adv-x="409" 
d="M133 0v1516h143v-1516h-143z" />
    <glyph glyph-name="m" unicode="m" horiz-adv-x="1921" 
d="M1642 0v649q0 163 -69 260q-80 111 -236 111t-235 -111q-70 -97 -70 -260v-649h-143v649q0 163 -70 260q-79 111 -235 111q-157 0 -236 -111q-70 -97 -70 -260v-649h-143v1120h143v-129q100 158 306 158q256 0 376 -215q135 215 377 215q210 0 332 -139
q117 -132 117 -344v-666h-144z" />
    <glyph glyph-name="n" unicode="n" horiz-adv-x="1249" 
d="M975 0v616q0 90 -24 166q-27 89 -83 142q-102 96 -243 96q-142 0 -244 -96q-55 -52 -82 -138q-23 -74 -23 -159v-627h-143v1120h143v-143h4q111 172 345 172q235 0 367 -150q126 -144 126 -383v-616h-143z" />
    <glyph glyph-name="o" unicode="o" 
d="M1084 147q-173 -174 -414 -174q-237 0 -410 172q-174 172 -174 408q0 244 170 419q171 177 414 177q239 0 413 -174t174 -414q0 -241 -173 -414zM985 885q-130 135 -313 135q-188 0 -317 -140q-126 -136 -126 -325q0 -184 129 -318q130 -135 314 -135q190 0 318 138
q124 135 124 327q0 184 -129 318z" />
    <glyph glyph-name="p" unicode="p" horiz-adv-x="1396" 
d="M1142 142q-174 -169 -427 -169q-283 0 -437 224h-4v-590h-143v1513h143v-196h4q159 225 437 225q250 0 424 -167q178 -169 178 -419q0 -252 -175 -421zM1044 888q-130 132 -329 132q-189 0 -320 -137q-129 -135 -129 -324t129 -322q131 -135 320 -135q197 0 327 129
q131 130 131 326q0 199 -129 331z" />
    <glyph glyph-name="q" unicode="q" horiz-adv-x="1396" 
d="M1117 -393v590h-4q-145 -224 -436 -224q-253 0 -427 169q-175 169 -175 421q0 250 177 419q175 167 425 167q291 0 436 -225h4v196h144v-1513h-144zM997 883q-131 137 -320 137q-199 0 -329 -132t-130 -331q0 -196 131 -326q131 -129 328 -129q189 0 320 135
q129 133 129 322t-129 324z" />
    <glyph glyph-name="r" unicode="r" horiz-adv-x="616" 
d="M596 997q-320 -26 -320 -342v-655h-143v1120h143v-162h4q44 101 127 146q68 36 189 45v-152z" />
    <glyph glyph-name="s" unicode="s" horiz-adv-x="794" 
d="M393 -27q-150 0 -247 98t-97 248v13h143q4 -230 201 -230q209 0 209 201q0 98 -81 156q-32 23 -84 45l-95 37q-60 23 -96 41q-50 26 -83 56q-81 74 -81 200q0 137 91 224q90 87 228 87q129 0 217 -88t88 -217h-143q-11 176 -168 176q-170 0 -170 -168q0 -84 81 -134
q31 -19 84 -39l23 -9l24 -9l48 -18q58 -23 96 -44q50 -27 83 -61q81 -83 81 -223q0 -342 -352 -342z" />
    <glyph glyph-name="t" unicode="t" horiz-adv-x="694" 
d="M407 991v-991h-143v991h-236v129h236v396h143v-396h268v-129h-268z" />
    <glyph glyph-name="u" unicode="u" horiz-adv-x="1245" 
d="M972 0v174h-4q-47 -99 -149 -152q-93 -49 -210 -49q-252 0 -385 168q-55 70 -79 171q-19 82 -19 190v618h143v-616q0 -188 74 -288q85 -114 266 -114q142 0 238 91q68 65 95 154q22 71 22 181v592h143v-1120h-135z" />
    <glyph glyph-name="v" unicode="v" horiz-adv-x="1134" 
d="M645 0h-158l-473 1120h154l395 -942l401 942h154z" />
    <glyph glyph-name="w" unicode="w" horiz-adv-x="1701" 
d="M1251 0h-162l-238 745h-4l-233 -745h-162l-426 1120h150l352 -938h4l256 803h125l258 -803h4l356 938h148z" />
    <glyph glyph-name="x" unicode="x" horiz-adv-x="983" 
d="M788 0l-297 449l-297 -449h-170l383 569l-383 551h172l295 -432l293 432h174l-383 -551l383 -569h-170z" />
    <glyph glyph-name="y" unicode="y" horiz-adv-x="1097" 
d="M421 -393h-149l194 430l-436 1083h152l356 -893l381 893h151z" />
    <glyph glyph-name="z" unicode="z" horiz-adv-x="870" 
d="M20 0v125l621 866h-601v129h773v-129l-615 -862h651v-129h-829z" />
    <glyph glyph-name="braceleft" unicode="{" horiz-adv-x="718" 
d="M542 -387q-105 0 -164 84q-53 75 -53 184v373q0 91 -44 160q-51 79 -138 84v131q84 4 136 85q46 71 46 160v373q0 110 53 184q59 85 164 85h136v-123h-103q-58 0 -82 -64q-16 -42 -16 -112v-375q0 -92 -45 -168q-49 -85 -133 -107v-6q36 -6 71 -31q56 -38 84 -108
q23 -59 23 -135v-375q0 -70 16 -113q24 -63 82 -63h103v-123h-136z" />
    <glyph glyph-name="bar" unicode="|" horiz-adv-x="1376" 
d="M612 -455v2048h152v-2048h-152z" />
    <glyph glyph-name="braceright" unicode="}" horiz-adv-x="718" 
d="M575 498q-88 -5 -138 -84q-45 -69 -45 -160v-373q0 -109 -52 -184q-60 -84 -165 -84h-135v123h102q59 0 83 63q16 43 16 113v375q0 76 23 135q27 70 83 108q35 25 72 31v6q-84 22 -134 107q-44 76 -44 168v375q0 70 -16 112q-24 64 -83 64h-102v123h135q105 0 165 -85
q52 -74 52 -184v-373q0 -89 46 -160q52 -81 137 -85v-131z" />
    <glyph glyph-name="asciitilde" unicode="~" horiz-adv-x="1241" 
d="M1093 551q-61 -87 -106 -123q-67 -53 -150 -53q-54 0 -115 23q-36 14 -106 51q-70 36 -107 50q-61 23 -116 23q-61 0 -108 -51q-33 -35 -64 -104l-74 102q90 176 256 176q53 0 121 -23q48 -16 121 -51l56 -27q32 -15 52 -23q55 -23 86 -23q55 0 106 54q19 21 41 51
q7 11 17 26l16 24z" />
    <glyph glyph-name="dieresis" unicode="&#xa8;" horiz-adv-x="1024" 
 />
    <glyph glyph-name="copyright" unicode="&#xa9;" horiz-adv-x="1529" 
d="M1318 205q-229 -230 -552 -230q-324 0 -554 229t-230 554t230 554q230 228 554 228t553 -230q228 -229 228 -552t-229 -553zM1240 1236q-196 200 -476 200t-475 -200q-194 -198 -194 -478t194 -478q196 -200 475 -200q280 0 476 200q194 198 194 478q0 279 -194 478z
M1170 604q-16 -140 -136 -228q-112 -83 -257 -83q-200 0 -323 135q-118 130 -118 332q0 201 118 332q123 135 323 135q145 0 257 -83q120 -88 136 -229h-113q-45 207 -280 207q-158 0 -246 -104q-82 -98 -82 -258t82 -258q88 -105 246 -105q235 0 280 207h113z" />
    <glyph glyph-name="registered" unicode="&#xae;" horiz-adv-x="1529" 
d="M1318 205q-229 -230 -552 -230q-324 0 -554 229t-230 554t230 554q230 228 554 228t553 -230q228 -229 228 -552t-229 -553zM1240 1236q-196 200 -476 200t-475 -200q-194 -198 -194 -478t194 -478q196 -200 475 -200q280 0 476 200q194 198 194 478q0 279 -194 478z
M1022 303q-17 28 -22 81q-1 10 -2 22l-2 63q-3 128 -50 171q-46 42 -180 42h-223v-379h-112v895h385q132 0 212 -53q95 -64 95 -191q0 -177 -166 -217v-4q86 -24 118 -81q26 -45 31 -142l4 -106q5 -67 25 -101h-113zM937 1069q-52 25 -148 25h-246v-310h238q98 0 155 32
q74 41 74 132q0 86 -73 121z" />
    <glyph glyph-name="acute" unicode="&#xb4;" horiz-adv-x="1024" 
 />
    <glyph glyph-name="paragraph" unicode="&#xb6;" horiz-adv-x="1024" 
d="M929 1435v-70h-127v-1365h-82v1365h-166v-1365h-84v738q-174 8 -275.5 102.5t-101.5 245.5q0 157 107.5 253t285.5 96h443z" />
    <glyph glyph-name="onequarter" unicode="&#xbc;" horiz-adv-x="1298" 
 />
    <glyph glyph-name="onehalf" unicode="&#xbd;" horiz-adv-x="1320" 
 />
    <glyph glyph-name="threequarters" unicode="&#xbe;" horiz-adv-x="1288" 
 />
    <glyph glyph-name="Agrave" unicode="&#xc0;" horiz-adv-x="1515" 
d="M1327 0l-220 510h-704l-221 -510h-158l647 1516h170l651 -1516h-165zM757 1343l-297 -696h588zM917 1602l-406 219l66 123l408 -224z" />
    <glyph glyph-name="Aacute" unicode="&#xc1;" horiz-adv-x="1515" 
d="M1327 0l-220 510h-704l-221 -510h-158l647 1516h170l651 -1516h-165zM757 1343l-297 -696h588zM602 1602l-68 118l408 224l65 -123z" />
    <glyph glyph-name="uni1EA2" unicode="&#x1ea2;" horiz-adv-x="1515" 
d="M1327 0l-220 510h-704l-221 -510h-158l647 1516h170l651 -1516h-165zM757 1343l-297 -696h588zM954 1794q-7 -11 -23 -28l-13 -14l-41 -40q-12 -14 -23 -30q-18 -27 -21 -87h-127v27q0 51 28 99q8 14 27 36q8 9 26 26l27 26q13 14 24 28q16 22 16 49q0 42 -26 66
q-29 27 -61 27q-46 0 -74 -42q-10 -15 -13 -34q-2 -11 -2 -61h-129v39q0 81 67 144q62 57 153 57q93 0 151 -56q62 -61 62 -142q0 -46 -28 -90z" />
    <glyph glyph-name="Atilde" unicode="&#xc3;" horiz-adv-x="1515" 
d="M1327 0l-220 510h-704l-221 -510h-158l647 1516h170l651 -1516h-165zM757 1343l-297 -696h588zM1111 1726q-107 -79 -200 -79q-41 0 -85 13q-29 8 -74 29l-69 28q-38 14 -69 14q-72 0 -137 -62l-72 103q92 86 213 86q40 0 82 -14q28 -8 73 -28q2 -2 8 -4q6 -3 9 -4
q10 -5 17 -8l33 -13q38 -13 69 -13q32 0 67 17l46 26l16 10z" />
    <glyph glyph-name="uni1EA0" unicode="&#x1ea0;" horiz-adv-x="1515" 
d="M1327 0l-220 510h-704l-221 -510h-158l647 1516h170l651 -1516h-165zM757 1343l-297 -696h588zM682 -385v259h152v-259h-152z" />
    <glyph glyph-name="Acircumflex" unicode="&#xc2;" horiz-adv-x="1515" 
d="M1327 0l-220 510h-704l-221 -510h-158l647 1516h170l651 -1516h-165zM757 1343l-297 -696h588zM937 1642l-176 150l-180 -150h-186l297 256h135l293 -256h-183z" />
    <glyph glyph-name="uni1EA6" unicode="&#x1ea6;" horiz-adv-x="1515" 
d="M1327 0l-220 510h-704l-221 -510h-158l647 1516h170l651 -1516h-165zM757 1343l-297 -696h588zM1007 1863l-406 219l66 123l408 -224zM937 1642l-176 150l-180 -150h-186l297 256h135l293 -256h-183z" />
    <glyph glyph-name="uni1EA4" unicode="&#x1ea4;" horiz-adv-x="1515" 
d="M1327 0l-220 510h-704l-221 -510h-158l647 1516h170l651 -1516h-165zM757 1343l-297 -696h588zM1004 1803l-68 118l408 224l65 -123zM937 1642l-176 150l-180 -150h-186l297 256h135l293 -256h-183z" />
    <glyph glyph-name="uni1EA8" unicode="&#x1ea8;" horiz-adv-x="1515" 
d="M1327 0l-220 510h-704l-221 -510h-158l647 1516h170l651 -1516h-165zM757 1343l-297 -696h588zM1175 2045q-7 -11 -23 -28l-13 -14l-41 -40q-12 -14 -23 -30q-18 -27 -21 -87h-127v27q0 51 28 99q8 14 27 36q8 9 26 26l27 26q13 14 24 28q16 22 16 49q0 42 -26 66
q-29 27 -61 27q-46 0 -74 -42q-10 -15 -13 -34q-2 -11 -2 -61h-129v39q0 81 67 144q62 57 153 57q93 0 151 -56q62 -61 62 -142q0 -46 -28 -90zM937 1642l-176 150l-180 -150h-186l297 256h135l293 -256h-183z" />
    <glyph glyph-name="uni1EAA" unicode="&#x1eaa;" horiz-adv-x="1515" 
d="M1327 0l-220 510h-704l-221 -510h-158l647 1516h170l651 -1516h-165zM757 1343l-297 -696h588zM1221 1987q-107 -79 -200 -79q-41 0 -85 13q-29 8 -74 29l-69 28q-38 14 -69 14q-72 0 -137 -62l-72 103q92 86 213 86q40 0 82 -14q28 -8 73 -28q2 -2 8 -4q6 -3 9 -4
q10 -5 17 -8l33 -13q38 -13 69 -13q32 0 67 17l46 26l16 10zM937 1642l-176 150l-180 -150h-186l297 256h135l293 -256h-183z" />
    <glyph glyph-name="uni1EAC" unicode="&#x1eac;" horiz-adv-x="1515" 
d="M1327 0l-220 510h-704l-221 -510h-158l647 1516h170l651 -1516h-165zM757 1343l-297 -696h588zM682 -385v259h152v-259h-152zM937 1642l-176 150l-180 -150h-186l297 256h135l293 -256h-183z" />
    <glyph glyph-name="Abreve" unicode="&#x102;" horiz-adv-x="1515" 
d="M1327 0l-220 510h-704l-221 -510h-158l647 1516h170l651 -1516h-165zM757 1343l-297 -696h588zM1116 1823q-41 -111 -143 -165q-88 -46 -216 -46q-127 0 -215 46q-101 53 -141 165h133q69 -94 223 -94q68 0 124 21q66 24 101 73h134z" />
    <glyph glyph-name="uni1EB0" unicode="&#x1eb0;" horiz-adv-x="1515" 
d="M1327 0l-220 510h-704l-221 -510h-158l647 1516h170l651 -1516h-165zM757 1343l-297 -696h588zM856 1863l-406 219l66 123l408 -224zM1116 1823q-40 -111 -142 -165q-89 -46 -216 -46q-128 0 -215 46q-101 53 -142 165h134q69 -94 223 -94q68 0 124 21q65 24 101 73h133z
" />
    <glyph glyph-name="uni1EAE" unicode="&#x1eae;" horiz-adv-x="1515" 
d="M1327 0l-220 510h-704l-221 -510h-158l647 1516h170l651 -1516h-165zM757 1343l-297 -696h588zM773 1803l-68 118l408 224l65 -123zM1116 1823q-40 -111 -142 -165q-89 -46 -216 -46q-128 0 -215 46q-101 53 -142 165h134q69 -94 223 -94q68 0 124 21q65 24 101 73h133z
" />
    <glyph glyph-name="uni1EB2" unicode="&#x1eb2;" horiz-adv-x="1515" 
d="M1327 0l-220 510h-704l-221 -510h-158l647 1516h170l651 -1516h-165zM757 1343l-297 -696h588zM954 2045q-7 -11 -23 -28l-13 -14l-41 -40q-12 -14 -23 -30q-18 -27 -21 -87h-127v27q0 51 28 99q8 14 27 36q8 9 26 26l27 26q13 14 24 28q16 22 16 49q0 42 -26 66
q-29 27 -61 27q-46 0 -74 -42q-10 -15 -13 -34q-2 -11 -2 -61h-129v39q0 81 67 144q62 57 153 57q93 0 151 -56q62 -61 62 -142q0 -46 -28 -90zM1116 1823q-40 -111 -142 -165q-89 -46 -216 -46q-128 0 -215 46q-101 53 -142 165h134q69 -94 223 -94q68 0 124 21
q65 24 101 73h133z" />
    <glyph glyph-name="uni1EB4" unicode="&#x1eb4;" horiz-adv-x="1515" 
d="M1327 0l-220 510h-704l-221 -510h-158l647 1516h170l651 -1516h-165zM757 1343l-297 -696h588zM1221 1987q-107 -79 -200 -79q-41 0 -85 13q-29 8 -74 29l-69 28q-38 14 -69 14q-72 0 -137 -62l-72 103q92 86 213 86q40 0 82 -14q28 -8 73 -28q2 -2 8 -4q6 -3 9 -4
q10 -5 17 -8l33 -13q38 -13 69 -13q32 0 67 17l46 26l16 10zM1116 1823q-40 -111 -142 -165q-89 -46 -216 -46q-128 0 -215 46q-101 53 -142 165h134q69 -94 223 -94q68 0 124 21q65 24 101 73h133z" />
    <glyph glyph-name="uni1EB6" unicode="&#x1eb6;" horiz-adv-x="1515" 
d="M1327 0l-220 510h-704l-221 -510h-158l647 1516h170l651 -1516h-165zM757 1343l-297 -696h588zM682 -385v259h152v-259h-152zM1116 1823q-40 -111 -142 -165q-89 -46 -216 -46q-128 0 -215 46q-101 53 -142 165h134q69 -94 223 -94q68 0 124 21q65 24 101 73h133z" />
    <glyph glyph-name="Egrave" unicode="&#xc8;" horiz-adv-x="1097" 
d="M143 0v1516h829v-138h-677v-544h655v-138h-655v-559h677v-137h-829zM708 1602l-405 219l65 123l408 -224z" />
    <glyph glyph-name="Eacute" unicode="&#xc9;" horiz-adv-x="1097" 
d="M143 0v1516h829v-138h-677v-544h655v-138h-655v-559h677v-137h-829zM393 1602l-68 118l408 224l65 -123z" />
    <glyph glyph-name="uni1EBA" unicode="&#x1eba;" horiz-adv-x="1097" 
d="M143 0v1516h829v-138h-677v-544h655v-138h-655v-559h677v-137h-829zM744 1794q-7 -11 -23 -28l-13 -14l-41 -40q-12 -14 -23 -30q-18 -27 -21 -87h-127v27q0 51 28 99q8 14 27 36q8 9 26 26l27 26q13 14 24 28q16 22 16 49q0 42 -26 66q-29 27 -61 27q-46 0 -74 -42
q-10 -15 -13 -34q-2 -11 -2 -61h-129v39q0 81 67 144q62 57 153 57q93 0 151 -56q62 -61 62 -142q0 -46 -28 -90z" />
    <glyph glyph-name="uni1EBC" unicode="&#x1ebc;" horiz-adv-x="1097" 
d="M143 0v1516h829v-138h-677v-544h655v-138h-655v-559h677v-137h-829zM930 1726q-107 -79 -200 -79q-41 0 -85 13q-29 8 -74 29l-69 28q-38 14 -69 14q-72 0 -137 -62l-72 103q92 86 213 86q40 0 82 -14q28 -8 73 -28q2 -2 8 -4q6 -3 9 -4q10 -5 17 -8l33 -13
q38 -13 69 -13q32 0 67 17l46 26l16 10z" />
    <glyph glyph-name="uni1EB8" unicode="&#x1eb8;" horiz-adv-x="1097" 
d="M143 0v1516h829v-138h-677v-544h655v-138h-655v-559h677v-137h-829zM482 -385v259h152v-259h-152z" />
    <glyph glyph-name="Ecircumflex" unicode="&#xca;" horiz-adv-x="1097" 
d="M143 0v1516h829v-138h-677v-544h655v-138h-655v-559h677v-137h-829zM729 1642l-176 150l-181 -150h-186l297 256h135l293 -256h-182z" />
    <glyph glyph-name="uni1EC0" unicode="&#x1ec0;" horiz-adv-x="1097" 
d="M143 0v1516h829v-138h-677v-544h655v-138h-655v-559h677v-137h-829zM779 1853l-405 219l65 123l408 -224zM729 1642l-176 150l-181 -150h-186l297 256h135l293 -256h-182z" />
    <glyph glyph-name="uni1EBE" unicode="&#x1ebe;" horiz-adv-x="1097" 
d="M143 0v1516h829v-138h-677v-544h655v-138h-655v-559h677v-137h-829zM814 1793l-68 118l408 224l65 -123zM729 1642l-176 150l-181 -150h-186l297 256h135l293 -256h-182z" />
    <glyph glyph-name="uni1EC2" unicode="&#x1ec2;" horiz-adv-x="1097" 
d="M143 0v1516h829v-138h-677v-544h655v-138h-655v-559h677v-137h-829zM974 2045q-7 -11 -23 -28l-13 -14l-41 -40q-12 -14 -23 -30q-18 -27 -21 -87h-127v27q0 51 28 99q8 14 27 36q8 9 26 26l27 26q13 14 24 28q16 22 16 49q0 42 -26 66q-29 27 -61 27q-46 0 -74 -42
q-10 -15 -13 -34q-2 -11 -2 -61h-129v39q0 81 67 144q62 57 153 57q93 0 151 -56q62 -61 62 -142q0 -46 -28 -90zM729 1642l-176 150l-181 -150h-186l297 256h135l293 -256h-182z" />
    <glyph glyph-name="uni1EC4" unicode="&#x1ec4;" horiz-adv-x="1097" 
d="M143 0v1516h829v-138h-677v-544h655v-138h-655v-559h677v-137h-829zM1001 1977q-107 -79 -200 -79q-41 0 -85 13q-29 8 -74 29l-69 28q-38 14 -69 14q-72 0 -137 -62l-72 103q92 86 213 86q40 0 82 -14q28 -8 73 -28q2 -2 8 -4q6 -3 9 -4q10 -5 17 -8l33 -13
q38 -13 69 -13q32 0 67 17l46 26l16 10zM729 1642l-176 150l-181 -150h-186l297 256h135l293 -256h-182z" />
    <glyph glyph-name="uni1EC6" unicode="&#x1ec6;" horiz-adv-x="1097" 
d="M143 0v1516h829v-138h-677v-544h655v-138h-655v-559h677v-137h-829zM482 -385v259h152v-259h-152zM729 1642l-176 150l-181 -150h-186l297 256h135l293 -256h-182z" />
    <glyph glyph-name="Igrave" unicode="&#xcc;" horiz-adv-x="462" 
d="M156 0v1516h151v-1516h-151zM310 1602l-406 219l66 123l407 -224z" />
    <glyph glyph-name="Iacute" unicode="&#xcd;" horiz-adv-x="462" 
d="M156 0v1516h151v-1516h-151zM156 1602l-68 118l408 224l65 -123z" />
    <glyph glyph-name="uni1EC8" unicode="&#x1ec8;" horiz-adv-x="462" 
d="M155 0v1516h151v-1516h-151zM422 1794q-7 -11 -23 -28l-13 -14l-41 -40q-12 -14 -23 -30q-18 -27 -21 -87h-127v27q0 51 28 99q8 14 27 36q8 9 26 26l27 26q13 14 24 28q16 22 16 49q0 42 -26 66q-29 27 -61 27q-46 0 -74 -42q-10 -15 -13 -34q-2 -11 -2 -61h-129v39
q0 81 67 144q62 57 153 57q93 0 151 -56q62 -61 62 -142q0 -46 -28 -90z" />
    <glyph glyph-name="Itilde" unicode="&#x128;" horiz-adv-x="462" 
d="M155 0v1516h151v-1516h-151zM597 1726q-107 -79 -200 -79q-41 0 -85 13q-29 8 -74 29l-69 28q-38 14 -69 14q-72 0 -137 -62l-72 103q92 86 213 86q40 0 82 -14q28 -8 73 -28q2 -2 8 -4q6 -3 9 -4q10 -5 17 -8l33 -13q38 -13 69 -13q32 0 67 17l46 26l16 10z" />
    <glyph glyph-name="uni1ECA" unicode="&#x1eca;" horiz-adv-x="462" 
d="M155 0v1516h152v-1516h-152zM160 -385v259h152v-259h-152z" />
    <glyph glyph-name="Ograve" unicode="&#xd2;" horiz-adv-x="1779" 
d="M1452 201q-236 -228 -563 -228q-322 0 -560 226q-241 230 -241 551q0 330 235 562q234 230 566 230q328 0 564 -228q239 -230 239 -556t-240 -557zM1348 1214q-192 191 -459 191q-270 0 -460 -193q-189 -193 -189 -462q0 -262 194 -451q192 -188 455 -188q266 0 458 189
q193 189 193 456t-192 458zM1051 1602l-406 219l66 123l407 -224z" />
    <glyph glyph-name="Oacute" unicode="&#xd3;" horiz-adv-x="1779" 
d="M1452 201q-236 -228 -563 -228q-322 0 -560 226q-241 230 -241 551q0 330 235 562q234 230 566 230q328 0 564 -228q239 -230 239 -556t-240 -557zM1348 1214q-192 191 -459 191q-270 0 -460 -193q-189 -193 -189 -462q0 -262 194 -451q192 -188 455 -188q266 0 458 189
q193 189 193 456t-192 458zM815 1602l-68 118l408 224l66 -123z" />
    <glyph glyph-name="uni1ECE" unicode="&#x1ece;" horiz-adv-x="1779" 
d="M1452 201q-236 -228 -563 -228q-322 0 -560 226q-241 230 -241 551q0 330 235 562q234 230 566 230q328 0 564 -228q239 -230 239 -556t-240 -557zM1348 1214q-192 191 -459 191q-270 0 -460 -193q-189 -193 -189 -462q0 -262 194 -451q192 -188 455 -188q266 0 458 189
q193 189 193 456t-192 458zM1078 1794q-7 -11 -23 -28l-13 -14l-41 -40q-12 -14 -23 -30q-18 -27 -21 -87h-127v27q0 51 28 99q8 14 27 36q8 9 26 26l27 26q13 14 24 28q16 22 16 49q0 42 -26 66q-29 27 -61 27q-46 0 -74 -42q-10 -15 -13 -34q-2 -11 -2 -61h-129v39
q0 81 67 144q62 57 153 57q93 0 151 -56q62 -61 62 -142q0 -46 -28 -90z" />
    <glyph glyph-name="Otilde" unicode="&#xd5;" horiz-adv-x="1779" 
d="M1452 201q-236 -228 -563 -228q-322 0 -560 226q-241 230 -241 551q0 330 235 562q234 230 566 230q328 0 564 -228q239 -230 239 -556t-240 -557zM1348 1214q-192 191 -459 191q-270 0 -460 -193q-189 -193 -189 -462q0 -262 194 -451q192 -188 455 -188q266 0 458 189
q193 189 193 456t-192 458zM1243 1726q-108 -79 -201 -79q-41 0 -85 13q-29 8 -74 29l-69 28q-37 14 -69 14q-72 0 -137 -62l-71 103q92 86 213 86q39 0 82 -14q28 -8 72 -28q3 -2 9 -4q5 -3 8 -4q10 -5 17 -8l34 -13q37 -13 68 -13q32 0 68 17l46 26l15 10z" />
    <glyph glyph-name="uni1ECC" unicode="&#x1ecc;" horiz-adv-x="1779" 
d="M1452 201q-236 -228 -563 -228q-322 0 -560 226q-241 230 -241 551q0 330 235 562q234 230 566 230q328 0 564 -228q239 -230 239 -556t-240 -557zM1348 1214q-192 191 -459 191q-270 0 -460 -193q-189 -193 -189 -462q0 -262 194 -451q192 -188 455 -188q266 0 458 189
q193 189 193 456t-192 458zM814 -385v259h152v-259h-152z" />
    <glyph glyph-name="Ocircumflex" unicode="&#xd4;" horiz-adv-x="1779" 
d="M1452 201q-236 -228 -563 -228q-322 0 -560 226q-241 230 -241 551q0 330 235 562q234 230 566 230q328 0 564 -228q239 -230 239 -556t-240 -557zM1348 1214q-192 191 -459 191q-270 0 -460 -193q-189 -193 -189 -462q0 -262 194 -451q192 -188 455 -188q266 0 458 189
q193 189 193 456t-192 458zM1071 1642l-176 150l-180 -150h-187l297 256h135l293 -256h-182z" />
    <glyph glyph-name="uni1ED2" unicode="&#x1ed2;" horiz-adv-x="1779" 
d="M1452 201q-236 -228 -563 -228q-322 0 -560 226q-241 230 -241 551q0 330 235 562q234 230 566 230q328 0 564 -228q239 -230 239 -556t-240 -557zM1348 1214q-192 191 -459 191q-270 0 -460 -193q-189 -193 -189 -462q0 -262 194 -451q192 -188 455 -188q266 0 458 189
q193 189 193 456t-192 458zM1121 1863l-406 219l66 123l407 -224zM1071 1642l-176 150l-180 -150h-187l297 256h136l292 -256h-182z" />
    <glyph glyph-name="uni1ED0" unicode="&#x1ed0;" horiz-adv-x="1779" 
d="M1452 201q-236 -228 -563 -228q-322 0 -560 226q-241 230 -241 551q0 330 235 562q234 230 566 230q328 0 564 -228q239 -230 239 -556t-240 -557zM1348 1214q-192 191 -459 191q-270 0 -460 -193q-189 -193 -189 -462q0 -262 194 -451q192 -188 455 -188q266 0 458 189
q193 189 193 456t-192 458zM1157 1773l-68 118l408 224l66 -123zM1071 1642l-176 150l-180 -150h-187l297 256h136l292 -256h-182z" />
    <glyph glyph-name="uni1ED4" unicode="&#x1ed4;" horiz-adv-x="1779" 
d="M1452 201q-236 -228 -563 -228q-322 0 -560 226q-241 230 -241 551q0 330 235 562q234 230 566 230q328 0 564 -228q239 -230 239 -556t-240 -557zM1348 1214q-192 191 -459 191q-270 0 -460 -193q-189 -193 -189 -462q0 -262 194 -451q192 -188 455 -188q266 0 458 189
q193 189 193 456t-192 458zM1309 2055q-7 -11 -23 -28l-13 -14l-41 -40q-12 -14 -23 -30q-18 -27 -21 -87h-127v27q0 51 28 99q8 14 27 36q8 9 26 26l27 26q13 14 24 28q16 22 16 49q0 42 -26 66q-29 27 -61 27q-46 0 -74 -42q-10 -15 -13 -34q-2 -11 -2 -61h-129v39
q0 81 67 144q62 57 153 57q93 0 151 -56q62 -61 62 -142q0 -46 -28 -90zM1071 1642l-176 150l-180 -150h-187l297 256h135l293 -256h-182z" />
    <glyph glyph-name="uni1ED6" unicode="&#x1ed6;" horiz-adv-x="1779" 
d="M1452 201q-236 -228 -563 -228q-322 0 -560 226q-241 230 -241 551q0 330 235 562q234 230 566 230q328 0 564 -228q239 -230 239 -556t-240 -557zM1348 1214q-192 191 -459 191q-270 0 -460 -193q-189 -193 -189 -462q0 -262 194 -451q192 -188 455 -188q266 0 458 189
q193 189 193 456t-192 458zM1354 1997q-108 -79 -201 -79q-41 0 -85 13q-29 8 -74 29l-69 28q-37 14 -69 14q-72 0 -137 -62l-71 103q92 86 213 86q39 0 82 -14q28 -8 72 -28q3 -2 9 -4q5 -3 8 -4q10 -5 17 -8l34 -13q37 -13 68 -13q32 0 68 17l46 26l15 10zM1071 1642
l-176 150l-180 -150h-187l297 256h136l292 -256h-182z" />
    <glyph glyph-name="uni1ED8" unicode="&#x1ed8;" horiz-adv-x="1779" 
d="M1452 201q-236 -228 -563 -228q-322 0 -560 226q-241 230 -241 551q0 330 235 562q234 230 566 230q328 0 564 -228q239 -230 239 -556t-240 -557zM1348 1214q-192 191 -459 191q-270 0 -460 -193q-189 -193 -189 -462q0 -262 194 -451q192 -188 455 -188q266 0 458 189
q193 189 193 456t-192 458zM814 -385v259h152v-259h-152zM1071 1642l-176 150l-180 -150h-187l297 256h135l293 -256h-182z" />
    <glyph glyph-name="Ugrave" unicode="&#xd9;" 
d="M1185 571q0 -85 -12 -161q-15 -89 -45 -154q-132 -283 -459 -283t-459 283q-30 65 -44 154q-13 76 -13 161v945h152v-945q0 -74 10 -140q13 -84 41 -134q102 -186 313 -186t313 186q28 50 41 134q11 66 11 140v945h151v-945zM790 1602l-406 219l66 123l408 -224z" />
    <glyph glyph-name="Uacute" unicode="&#xda;" 
d="M1185 571q0 -85 -12 -161q-15 -89 -45 -154q-132 -283 -459 -283t-459 283q-30 65 -44 154q-13 76 -13 161v945h152v-945q0 -74 10 -140q13 -84 41 -134q102 -186 313 -186t313 186q28 50 41 134q11 66 11 140v945h151v-945zM554 1602l-67 118l407 224l66 -123z" />
    <glyph glyph-name="uni1EE6" unicode="&#x1ee6;" 
d="M1185 571q0 -85 -12 -161q-15 -89 -45 -154q-132 -283 -459 -283t-459 283q-30 65 -44 154q-13 76 -13 161v945h152v-945q0 -74 10 -140q13 -84 41 -134q102 -186 313 -186t313 186q28 50 41 134q11 66 11 140v945h151v-945zM847 1794q-7 -11 -23 -28l-13 -14l-41 -40
q-12 -14 -23 -30q-18 -27 -21 -87h-127v27q0 51 28 99q8 14 27 36q8 9 26 26l27 26q13 14 24 28q16 22 16 49q0 42 -26 66q-29 27 -61 27q-46 0 -74 -42q-10 -15 -13 -34q-2 -11 -2 -61h-129v39q0 81 67 144q62 57 153 57q93 0 151 -56q62 -61 62 -142q0 -46 -28 -90z" />
    <glyph glyph-name="Utilde" unicode="&#x168;" 
d="M1185 571q0 -85 -12 -161q-15 -89 -45 -154q-132 -283 -459 -283t-459 283q-30 65 -44 154q-13 76 -13 161v945h152v-945q0 -74 10 -140q13 -84 41 -134q102 -186 313 -186t313 186q28 50 41 134q11 66 11 140v945h151v-945zM1012 1726q-108 -79 -201 -79q-41 0 -85 13
q-29 8 -74 29l-69 28q-37 14 -69 14q-72 0 -137 -62l-71 103q92 86 213 86q39 0 82 -14q28 -8 72 -28q3 -2 9 -4q5 -3 8 -4q10 -5 17 -8l34 -13q37 -13 68 -13q32 0 68 17l46 26l15 10z" />
    <glyph glyph-name="uni1EE4" unicode="&#x1ee4;" 
d="M1185 571q0 -85 -12 -161q-15 -89 -45 -154q-132 -283 -459 -283t-459 283q-30 65 -44 154q-13 76 -13 161v945h152v-945q0 -74 10 -140q13 -84 41 -134q102 -186 313 -186t313 186q28 50 41 134q11 66 11 140v945h151v-945zM593 -385v259h152v-259h-152z" />
    <glyph glyph-name="Uhorn" unicode="&#x1af;" 
d="M1185 1344v-773q0 -85 -13 -161q-14 -89 -45 -154q-131 -283 -458 -283t-459 283q-30 65 -45 154q-12 76 -12 161v945h151v-945q0 -74 10 -140q14 -84 41 -134q103 -186 314 -186t313 186q28 50 41 134q10 66 10 140v945h152v-36q38 29 43 70h-65v180h189v-186
q-7 -49 -25 -81.5t-43.5 -54.5t-44.5 -34t-54 -30z" />
    <glyph glyph-name="uni1EEA" unicode="&#x1eea;" 
d="M790 1602l-406 219l66 123l408 -224zM1186 1344v-773q0 -85 -13 -161q-14 -89 -45 -154q-131 -283 -458 -283t-459 283q-30 65 -45 154q-12 76 -12 161v945h151v-945q0 -74 10 -140q14 -84 41 -134q103 -186 314 -186t313 186q28 50 41 134q10 66 10 140v945h152v-36
q38 29 43 70h-65v180h189v-186q-7 -49 -25 -81.5t-43.5 -54.5t-44.5 -34t-54 -30z" />
    <glyph glyph-name="uni1EE8" unicode="&#x1ee8;" 
d="M554 1602l-67 118l407 224l66 -123zM1186 1344v-773q0 -85 -13 -161q-14 -89 -45 -154q-131 -283 -458 -283t-459 283q-30 65 -45 154q-12 76 -12 161v945h151v-945q0 -74 10 -140q14 -84 41 -134q103 -186 314 -186t313 186q28 50 41 134q10 66 10 140v945h152v-36
q38 29 43 70h-65v180h189v-186q-7 -49 -25 -81.5t-43.5 -54.5t-44.5 -34t-54 -30z" />
    <glyph glyph-name="uni1EEC" unicode="&#x1eec;" 
d="M846 1794q-7 -11 -23 -28l-13 -14l-41 -40q-12 -14 -23 -30q-18 -27 -21 -87h-127v27q0 51 28 99q8 14 27 36q8 9 26 26l27 26q13 14 24 28q16 22 16 49q0 42 -26 66q-29 27 -61 27q-46 0 -74 -42q-10 -15 -13 -34q-2 -11 -2 -61h-129v39q0 81 67 144q62 57 153 57
q93 0 151 -56q62 -61 62 -142q0 -46 -28 -90zM1185 1344v-773q0 -85 -13 -161q-14 -89 -45 -154q-131 -283 -458 -283t-459 283q-30 65 -45 154q-12 76 -12 161v945h151v-945q0 -74 10 -140q14 -84 41 -134q103 -186 314 -186t313 186q28 50 41 134q10 66 10 140v945h152
v-36q38 29 43 70h-65v180h189v-186q-7 -49 -25 -81.5t-43.5 -54.5t-44.5 -34t-54 -30z" />
    <glyph glyph-name="uni1EEE" unicode="&#x1eee;" 
d="M1012 1726q-108 -79 -201 -79q-41 0 -85 13q-29 8 -74 29l-69 28q-37 14 -69 14q-72 0 -137 -62l-71 103q92 86 213 86q39 0 82 -14q28 -8 72 -28q3 -2 9 -4q5 -3 8 -4q10 -5 17 -8l34 -13q37 -13 68 -13q32 0 68 17l46 26l15 10zM1185 1344v-773q0 -85 -13 -161
q-14 -89 -45 -154q-131 -283 -458 -283t-459 283q-30 65 -45 154q-12 76 -12 161v945h151v-945q0 -74 10 -140q14 -84 41 -134q103 -186 314 -186t313 186q28 50 41 134q10 66 10 140v945h152v-36q38 29 43 70h-65v180h189v-186q-7 -49 -25 -81.5t-43.5 -54.5t-44.5 -34
t-54 -30z" />
    <glyph glyph-name="uni1EF0" unicode="&#x1ef0;" 
d="M593 -385v259h152v-259h-152zM1185 1344v-773q0 -85 -13 -161q-14 -89 -45 -154q-131 -283 -458 -283t-459 283q-30 65 -45 154q-12 76 -12 161v945h151v-945q0 -74 10 -140q14 -84 41 -134q103 -186 314 -186t313 186q28 50 41 134q10 66 10 140v945h152v-36
q38 29 43 70h-65v180h189v-186q-7 -49 -25 -81.5t-43.5 -54.5t-44.5 -34t-54 -30z" />
    <glyph glyph-name="Ohorn" unicode="&#x1a0;" horiz-adv-x="1779" 
d="M1348 1214q-192 191 -459 191q-270 0 -460 -193q-189 -193 -189 -462q0 -262 194 -451q192 -188 455 -188q266 0 458 189q193 189 193 456t-192 458zM1416 1348q19 -16 37 -34q239 -230 239 -556t-240 -557q-236 -228 -563 -228q-322 0 -560 226q-241 230 -241 551
q0 330 235 562q234 230 566 230q235 0 423 -117q22 10 35 16q20 9 59 38t44 71h-65v180h189v-186q-7 -49 -25 -81.5t-43.5 -54.5t-44.5 -34q-16 -11 -45 -26z" />
    <glyph glyph-name="uni1EDC" unicode="&#x1edc;" horiz-adv-x="1779" 
d="M1348 1214q-192 191 -459 191q-270 0 -460 -193q-189 -193 -189 -462q0 -262 194 -451q192 -188 455 -188q266 0 458 189q193 189 193 456t-192 458zM1051 1602l-406 219l66 123l407 -224zM1416 1348q19 -16 37 -34q239 -230 239 -556t-240 -557q-236 -228 -563 -228
q-322 0 -560 226q-241 230 -241 551q0 330 235 562q234 230 566 230q235 0 423 -117q22 10 35 16q20 9 59 38t44 71h-65v180h189v-186q-7 -49 -25 -81.5t-43.5 -54.5t-44.5 -34q-16 -11 -45 -26z" />
    <glyph glyph-name="uni1EDA" unicode="&#x1eda;" horiz-adv-x="1779" 
d="M1348 1214q-192 191 -459 191q-270 0 -460 -193q-189 -193 -189 -462q0 -262 194 -451q192 -188 455 -188q266 0 458 189q193 189 193 456t-192 458zM815 1602l-68 118l408 224l66 -123zM1416 1348q19 -16 37 -34q239 -230 239 -556t-240 -557q-236 -228 -563 -228
q-322 0 -560 226q-241 230 -241 551q0 330 235 562q234 230 566 230q235 0 423 -117q22 10 35 16q20 9 59 38t44 71h-65v180h189v-186q-7 -49 -25 -81.5t-43.5 -54.5t-44.5 -34q-16 -11 -45 -26z" />
    <glyph glyph-name="uni1EDE" unicode="&#x1ede;" horiz-adv-x="1779" 
d="M1348 1214q-192 191 -459 191q-270 0 -460 -193q-189 -193 -189 -462q0 -262 194 -451q192 -188 455 -188q266 0 458 189q193 189 193 456t-192 458zM1078 1794q-7 -11 -23 -28l-13 -14l-41 -40q-12 -14 -23 -30q-18 -27 -21 -87h-127v27q0 51 28 99q8 14 27 36
q8 9 26 26l27 26q13 14 24 28q16 22 16 49q0 42 -26 66q-29 27 -61 27q-46 0 -74 -42q-10 -15 -13 -34q-2 -11 -2 -61h-129v39q0 81 67 144q62 57 153 57q93 0 151 -56q62 -61 62 -142q0 -46 -28 -90zM1416 1348q19 -16 37 -34q239 -230 239 -556t-240 -557
q-236 -228 -563 -228q-322 0 -560 226q-241 230 -241 551q0 330 235 562q234 230 566 230q235 0 423 -117q22 10 35 16q20 9 59 38t44 71h-65v180h189v-186q-7 -49 -25 -81.5t-43.5 -54.5t-44.5 -34q-16 -11 -45 -26z" />
    <glyph glyph-name="uni1EE0" unicode="&#x1ee0;" horiz-adv-x="1779" 
d="M1348 1214q-192 191 -459 191q-270 0 -460 -193q-189 -193 -189 -462q0 -262 194 -451q192 -188 455 -188q266 0 458 189q193 189 193 456t-192 458zM1243 1726q-108 -79 -201 -79q-41 0 -85 13q-29 8 -74 29l-69 28q-37 14 -69 14q-72 0 -137 -62l-71 103q92 86 213 86
q39 0 82 -14q28 -8 72 -28q3 -2 9 -4q5 -3 8 -4q10 -5 17 -8l34 -13q37 -13 68 -13q32 0 68 17l46 26l15 10zM1416 1348q19 -16 37 -34q239 -230 239 -556t-240 -557q-236 -228 -563 -228q-322 0 -560 226q-241 230 -241 551q0 330 235 562q234 230 566 230q235 0 423 -117
q22 10 35 16q20 9 59 38t44 71h-65v180h189v-186q-7 -49 -25 -81.5t-43.5 -54.5t-44.5 -34q-16 -11 -45 -26z" />
    <glyph glyph-name="uni1EE2" unicode="&#x1ee2;" horiz-adv-x="1779" 
d="M1348 1214q-192 191 -459 191q-270 0 -460 -193q-189 -193 -189 -462q0 -262 194 -451q192 -188 455 -188q266 0 458 189q193 189 193 456t-192 458zM814 -385v259h152v-259h-152zM1416 1348q19 -16 37 -34q239 -230 239 -556t-240 -557q-236 -228 -563 -228
q-322 0 -560 226q-241 230 -241 551q0 330 235 562q234 230 566 230q235 0 423 -117q22 10 35 16q20 9 59 38t44 71h-65v180h189v-186q-7 -49 -25 -81.5t-43.5 -54.5t-44.5 -34q-16 -11 -45 -26z" />
    <glyph glyph-name="Ygrave" unicode="&#x1ef2;" horiz-adv-x="1212" 
d="M680 506v-506h-152v506l-526 1010h168l432 -850l444 850h166zM790 1602l-406 219l66 123l408 -224z" />
    <glyph glyph-name="Yacute" unicode="&#xdd;" horiz-adv-x="1212" 
d="M680 506v-506h-152v506l-526 1010h168l432 -850l444 850h166zM491 1602l-67 118l407 224l66 -123z" />
    <glyph glyph-name="uni1EF6" unicode="&#x1ef6;" horiz-adv-x="1212" 
d="M680 506v-506h-152v506l-526 1010h168l432 -850l444 850h166zM796 1794q-7 -11 -23 -28l-13 -14l-41 -40q-12 -14 -23 -30q-18 -27 -21 -87h-127v27q0 51 28 99q8 14 27 36q8 9 26 26l27 26q13 14 24 28q16 22 16 49q0 42 -26 66q-29 27 -61 27q-46 0 -74 -42
q-10 -15 -13 -34q-2 -11 -2 -61h-129v39q0 81 67 144q62 57 153 57q93 0 151 -56q62 -61 62 -142q0 -46 -28 -90z" />
    <glyph glyph-name="uni1EF8" unicode="&#x1ef8;" horiz-adv-x="1212" 
d="M680 506v-506h-152v506l-526 1010h168l432 -850l444 850h166zM960 1726q-108 -79 -201 -79q-41 0 -85 13q-29 8 -74 29l-69 28q-37 14 -69 14q-72 0 -137 -62l-71 103q92 86 213 86q39 0 82 -14q28 -8 72 -28q3 -2 9 -4q5 -3 8 -4q10 -5 17 -8l34 -13q37 -13 68 -13
q32 0 68 17l46 26l15 10z" />
    <glyph glyph-name="uni1EF4" unicode="&#x1ef4;" horiz-adv-x="1212" 
d="M680 506v-506h-152v506l-526 1010h168l432 -850l444 850h166zM533 -385v259h152v-259h-152z" />
    <glyph glyph-name="agrave" unicode="&#xe0;" horiz-adv-x="1398" 
d="M1128 0v197h-4q-148 -224 -436 -224q-253 0 -427 169q-175 169 -175 421q0 250 177 419q175 167 425 167q293 0 436 -225h4v196h144v-1120h-144zM1008 883q-131 137 -320 137q-199 0 -329 -132t-130 -331q0 -196 131 -326q131 -129 328 -129q189 0 320 135
q129 133 129 322t-129 324zM860 1268l-405 219l65 123l408 -224z" />
    <glyph glyph-name="aacute" unicode="&#xe1;" horiz-adv-x="1398" 
d="M1128 0v197h-4q-148 -224 -436 -224q-253 0 -427 169q-175 169 -175 421q0 250 177 419q175 167 425 167q293 0 436 -225h4v196h144v-1120h-144zM1008 883q-131 137 -320 137q-199 0 -329 -132t-130 -331q0 -196 131 -326q131 -129 328 -129q189 0 320 135
q129 133 129 322t-129 324zM543 1268l-68 118l408 224l65 -123z" />
    <glyph glyph-name="uni1EA3" unicode="&#x1ea3;" horiz-adv-x="1398" 
d="M1128 0v197h-4q-148 -224 -436 -224q-253 0 -427 169q-175 169 -175 421q0 250 177 419q175 167 425 167q293 0 436 -225h4v196h144v-1120h-144zM1008 883q-131 137 -320 137q-199 0 -329 -132t-130 -331q0 -196 131 -326q131 -129 328 -129q189 0 320 135
q129 133 129 322t-129 324zM876 1442q-7 -11 -23 -28l-13 -14l-41 -40q-12 -14 -23 -30q-18 -27 -21 -87h-127v27q0 51 28 99q8 14 27 36q8 9 26 26l27 26q13 14 24 28q16 22 16 49q0 42 -26 66q-29 27 -61 27q-46 0 -74 -42q-10 -15 -13 -34q-2 -11 -2 -61h-129v39
q0 81 67 144q62 57 153 57q93 0 151 -56q62 -61 62 -142q0 -46 -28 -90z" />
    <glyph glyph-name="atilde" unicode="&#xe3;" horiz-adv-x="1398" 
d="M1128 0v197h-4q-148 -224 -436 -224q-253 0 -427 169q-175 169 -175 421q0 250 177 419q175 167 425 167q293 0 436 -225h4v196h144v-1120h-144zM1008 883q-131 137 -320 137q-199 0 -329 -132t-130 -331q0 -196 131 -326q131 -129 328 -129q189 0 320 135
q129 133 129 322t-129 324zM1053 1413q-108 -80 -201 -80q-41 0 -85 13q-29 9 -74 29l-69 29q-38 13 -69 13q-72 0 -137 -61l-72 102q92 86 213 86q40 0 82 -13q28 -9 73 -29l8 -4q6 -2 9 -4q10 -4 17 -7l33 -14q38 -13 69 -13q32 0 67 18l47 26l15 9z" />
    <glyph glyph-name="uni1EA1" unicode="&#x1ea1;" horiz-adv-x="1398" 
d="M1128 0v197h-4q-148 -224 -436 -224q-253 0 -427 169q-175 169 -175 421q0 250 177 419q175 167 425 167q293 0 436 -225h4v196h144v-1120h-144zM1008 883q-131 137 -320 137q-199 0 -329 -132t-130 -331q0 -196 131 -326q131 -129 328 -129q189 0 320 135
q129 133 129 322t-129 324zM603 -385v259h152v-259h-152z" />
    <glyph glyph-name="acircumflex" unicode="&#xe2;" horiz-adv-x="1398" 
d="M1128 0v197h-4q-148 -224 -436 -224q-253 0 -427 169q-175 169 -175 421q0 250 177 419q175 167 425 167q293 0 436 -225h4v196h144v-1120h-144zM1008 883q-131 137 -320 137q-199 0 -329 -132t-130 -331q0 -196 131 -326q131 -129 328 -129q189 0 320 135
q129 133 129 322t-129 324zM881 1309l-177 149l-180 -149h-186l297 256h135l293 -256h-182z" />
    <glyph glyph-name="uni1EA7" unicode="&#x1ea7;" horiz-adv-x="1398" 
d="M1128 0v197h-4q-148 -224 -436 -224q-253 0 -427 169q-175 169 -175 421q0 250 177 419q175 167 425 167q293 0 436 -225h4v196h144v-1120h-144zM1008 883q-131 137 -320 137q-199 0 -329 -132t-130 -331q0 -196 131 -326q131 -129 328 -129q189 0 320 135
q129 133 129 322t-129 324zM970 1539l-405 219l65 123l408 -224zM881 1309l-177 149l-180 -149h-186l297 256h135l293 -256h-182z" />
    <glyph glyph-name="uni1EA5" unicode="&#x1ea5;" horiz-adv-x="1398" 
d="M1128 0v197h-4q-148 -224 -436 -224q-253 0 -427 169q-175 169 -175 421q0 250 177 419q175 167 425 167q293 0 436 -225h4v196h144v-1120h-144zM1008 883q-131 137 -320 137q-199 0 -329 -132t-130 -331q0 -196 131 -326q131 -129 328 -129q189 0 320 135
q129 133 129 322t-129 324zM1005 1448l-68 118l408 224l65 -123zM881 1309l-177 149l-180 -149h-186l297 256h135l293 -256h-182z" />
    <glyph glyph-name="uni1EA9" unicode="&#x1ea9;" horiz-adv-x="1398" 
d="M1128 0v197h-4q-148 -224 -436 -224q-253 0 -427 169q-175 169 -175 421q0 250 177 419q175 167 425 167q293 0 436 -225h4v196h144v-1120h-144zM1008 883q-131 137 -320 137q-199 0 -329 -132t-130 -331q0 -196 131 -326q131 -129 328 -129q189 0 320 135
q129 133 129 322t-129 324zM881 1309l-177 149l-180 -149h-186l297 256h135l293 -256h-182zM1157 1683q-7 -11 -23 -28l-13 -14l-41 -40q-12 -14 -23 -30q-18 -27 -21 -87h-127v27q0 51 28 99q8 14 27 36q8 9 26 26l27 26q13 14 24 28q16 22 16 49q0 42 -26 66
q-29 27 -61 27q-46 0 -74 -42q-10 -15 -13 -34q-2 -11 -2 -61h-129v39q0 81 67 144q62 57 153 57q93 0 151 -56q62 -61 62 -142q0 -46 -28 -90z" />
    <glyph glyph-name="uni1EAB" unicode="&#x1eab;" horiz-adv-x="1398" 
d="M1128 0v197h-4q-148 -224 -436 -224q-253 0 -427 169q-175 169 -175 421q0 250 177 419q175 167 425 167q293 0 436 -225h4v196h144v-1120h-144zM1008 883q-131 137 -320 137q-199 0 -329 -132t-130 -331q0 -196 131 -326q131 -129 328 -129q189 0 320 135
q129 133 129 322t-129 324zM1123 1674q-108 -80 -201 -80q-41 0 -85 13q-29 9 -74 29l-69 29q-38 13 -69 13q-72 0 -137 -61l-72 102q92 86 213 86q40 0 82 -13q28 -9 73 -29l8 -4q6 -2 9 -4q10 -4 17 -7l33 -14q38 -13 69 -13q32 0 67 18l47 26l15 9zM881 1309l-177 149
l-180 -149h-186l297 256h135l293 -256h-182z" />
    <glyph glyph-name="uni1EAD" unicode="&#x1ead;" horiz-adv-x="1398" 
d="M1128 0v197h-4q-148 -224 -436 -224q-253 0 -427 169q-175 169 -175 421q0 250 177 419q175 167 425 167q293 0 436 -225h4v196h144v-1120h-144zM1008 883q-131 137 -320 137q-199 0 -329 -132t-130 -331q0 -196 131 -326q131 -129 328 -129q189 0 320 135
q129 133 129 322t-129 324zM603 -385v259h152v-259h-152zM881 1309l-177 149l-180 -149h-186l297 256h135l293 -256h-182z" />
    <glyph glyph-name="abreve" unicode="&#x103;" horiz-adv-x="1398" 
d="M1128 0v197h-4q-148 -224 -436 -224q-253 0 -427 169q-175 169 -175 421q0 250 177 419q175 167 425 167q293 0 436 -225h4v196h144v-1120h-144zM1008 883q-131 137 -320 137q-199 0 -329 -132t-130 -331q0 -196 131 -326q131 -129 328 -129q189 0 320 135
q129 133 129 322t-129 324zM1068 1491q-41 -111 -143 -165q-88 -46 -216 -46q-127 0 -215 46q-101 53 -141 165h133q69 -94 223 -94q68 0 125 21q65 24 101 73h133z" />
    <glyph glyph-name="uni1EB1" unicode="&#x1eb1;" horiz-adv-x="1398" 
d="M1128 0v197h-4q-148 -224 -436 -224q-253 0 -427 169q-175 169 -175 421q0 250 177 419q175 167 425 167q293 0 436 -225h4v196h144v-1120h-144zM1008 883q-131 137 -320 137q-199 0 -329 -132t-130 -331q0 -196 131 -326q131 -129 328 -129q189 0 320 135
q129 133 129 322t-129 324zM820 1539l-405 219l65 123l408 -224zM1068 1491q-41 -111 -143 -165q-88 -46 -216 -46q-127 0 -215 46q-101 53 -141 165h133q69 -94 223 -94q68 0 125 21q65 24 101 73h133z" />
    <glyph glyph-name="uni1EAF" unicode="&#x1eaf;" horiz-adv-x="1398" 
d="M1128 0v197h-4q-148 -224 -436 -224q-253 0 -427 169q-175 169 -175 421q0 250 177 419q175 167 425 167q293 0 436 -225h4v196h144v-1120h-144zM1008 883q-131 137 -320 137q-199 0 -329 -132t-130 -331q0 -196 131 -326q131 -129 328 -129q189 0 320 135
q129 133 129 322t-129 324zM703 1478l-68 118l408 224l65 -123zM1068 1491q-41 -111 -143 -165q-88 -46 -216 -46q-127 0 -215 46q-101 53 -141 165h133q69 -94 223 -94q68 0 125 21q65 24 101 73h133z" />
    <glyph glyph-name="uni1EB3" unicode="&#x1eb3;" horiz-adv-x="1398" 
d="M1128 0v197h-4q-148 -224 -436 -224q-253 0 -427 169q-175 169 -175 421q0 250 177 419q175 167 425 167q293 0 436 -225h4v196h144v-1120h-144zM1008 883q-131 137 -320 137q-199 0 -329 -132t-130 -331q0 -196 131 -326q131 -129 328 -129q189 0 320 135
q129 133 129 322t-129 324zM906 1703q-7 -11 -23 -28l-13 -14l-41 -40q-12 -14 -23 -30q-18 -27 -21 -87h-127v27q0 51 28 99q8 14 27 36q8 9 26 26l27 26q13 14 24 28q16 22 16 49q0 42 -26 66q-29 27 -61 27q-46 0 -74 -42q-10 -15 -13 -34q-2 -11 -2 -61h-129v39
q0 81 67 144q62 57 153 57q93 0 151 -56q62 -61 62 -142q0 -46 -28 -90zM1068 1491q-41 -111 -143 -165q-88 -46 -216 -46q-127 0 -215 46q-101 53 -141 165h133q69 -94 223 -94q68 0 125 21q65 24 101 73h133z" />
    <glyph glyph-name="uni1EB5" unicode="&#x1eb5;" horiz-adv-x="1398" 
d="M1128 0v197h-4q-148 -224 -436 -224q-253 0 -427 169q-175 169 -175 421q0 250 177 419q175 167 425 167q293 0 436 -225h4v196h144v-1120h-144zM1008 883q-131 137 -320 137q-199 0 -329 -132t-130 -331q0 -196 131 -326q131 -129 328 -129q189 0 320 135
q129 133 129 322t-129 324zM1123 1674q-108 -80 -201 -80q-41 0 -85 13q-29 9 -74 29l-69 29q-38 13 -69 13q-72 0 -137 -61l-72 102q92 86 213 86q40 0 82 -13q28 -9 73 -29l8 -4q6 -2 9 -4q10 -4 17 -7l33 -14q38 -13 69 -13q32 0 67 18l47 26l15 9zM1068 1491
q-41 -111 -143 -165q-88 -46 -216 -46q-127 0 -215 46q-101 53 -141 165h133q69 -94 223 -94q68 0 125 21q65 24 101 73h133z" />
    <glyph glyph-name="uni1EB7" unicode="&#x1eb7;" horiz-adv-x="1398" 
d="M1128 0v197h-4q-148 -224 -436 -224q-253 0 -427 169q-175 169 -175 421q0 250 177 419q175 167 425 167q293 0 436 -225h4v196h144v-1120h-144zM1008 883q-131 137 -320 137q-199 0 -329 -132t-130 -331q0 -196 131 -326q131 -129 328 -129q189 0 320 135
q129 133 129 322t-129 324zM603 -385v259h152v-259h-152zM1068 1491q-41 -111 -143 -165q-88 -46 -216 -46q-127 0 -215 46q-101 53 -141 165h133q69 -94 223 -94q68 0 125 21q65 24 101 73h133z" />
    <glyph glyph-name="egrave" unicode="&#xe8;" horiz-adv-x="1331" 
d="M1244 508h-1020q8 -165 139 -286q130 -120 296 -120q132 0 242 70q114 73 159 195h152q-62 -176 -214 -285t-337 -109q-242 0 -414 173q-170 171 -170 413q0 241 170 415q172 175 412 175q244 0 416 -179q171 -177 171 -421zM1099 637q-28 166 -149 274
q-122 109 -289 109q-166 0 -289 -109q-121 -108 -148 -274h875zM825 1268l-406 219l66 123l407 -224z" />
    <glyph glyph-name="eacute" unicode="&#xe9;" horiz-adv-x="1331" 
d="M1244 508h-1020q8 -165 139 -286q130 -120 296 -120q132 0 242 70q114 73 159 195h152q-62 -176 -214 -285t-337 -109q-242 0 -414 173q-170 171 -170 413q0 241 170 415q172 175 412 175q244 0 416 -179q171 -177 171 -421zM1099 637q-28 166 -149 274
q-122 109 -289 109q-166 0 -289 -109q-121 -108 -148 -274h875zM509 1268l-67 118l407 224l66 -123z" />
    <glyph glyph-name="uni1EBB" unicode="&#x1ebb;" horiz-adv-x="1331" 
d="M1244 508h-1020q8 -165 139 -286q130 -120 296 -120q132 0 242 70q114 73 159 195h152q-62 -176 -214 -285t-337 -109q-242 0 -414 173q-170 171 -170 413q0 241 170 415q172 175 412 175q244 0 416 -179q171 -177 171 -421zM1099 637q-28 166 -149 274
q-122 109 -289 109q-166 0 -289 -109q-121 -108 -148 -274h875zM835 1442q-7 -11 -23 -28l-13 -14l-41 -40q-12 -14 -23 -30q-18 -27 -21 -87h-127v27q0 51 28 99q8 14 27 36q8 9 26 26l27 26q13 14 24 28q16 22 16 49q0 42 -26 66q-29 27 -61 27q-46 0 -74 -42
q-10 -15 -13 -34q-2 -11 -2 -61h-129v39q0 81 67 144q62 57 153 57q93 0 151 -56q62 -61 62 -142q0 -46 -28 -90z" />
    <glyph glyph-name="uni1EBD" unicode="&#x1ebd;" horiz-adv-x="1331" 
d="M1244 508h-1020q8 -165 139 -286q130 -120 296 -120q132 0 242 70q114 73 159 195h152q-62 -176 -214 -285t-337 -109q-242 0 -414 173q-170 171 -170 413q0 241 170 415q172 175 412 175q244 0 416 -179q171 -177 171 -421zM1099 637q-28 166 -149 274
q-122 109 -289 109q-166 0 -289 -109q-121 -108 -148 -274h875zM1015 1413q-108 -80 -201 -80q-41 0 -85 13q-29 9 -74 29l-69 29q-38 13 -69 13q-72 0 -137 -61l-72 102q93 86 213 86q40 0 83 -13q28 -9 72 -29q3 -1 9 -4q5 -2 8 -4q10 -4 17 -7l34 -14q37 -13 68 -13
q32 0 68 18l46 26l15 9z" />
    <glyph glyph-name="uni1EB9" unicode="&#x1eb9;" horiz-adv-x="1331" 
d="M1244 508h-1020q8 -165 139 -286q130 -120 296 -120q132 0 242 70q114 73 159 195h152q-62 -176 -214 -285t-337 -109q-242 0 -414 173q-170 171 -170 413q0 241 170 415q172 175 412 175q244 0 416 -179q171 -177 171 -421zM1099 637q-28 166 -149 274
q-122 109 -289 109q-166 0 -289 -109q-121 -108 -148 -274h875zM586 -385v259h152v-259h-152z" />
    <glyph glyph-name="ecircumflex" unicode="&#xea;" horiz-adv-x="1331" 
d="M1244 508h-1020q8 -165 139 -286q130 -120 296 -120q132 0 242 70q114 73 159 195h152q-62 -176 -214 -285t-337 -109q-242 0 -414 173q-170 171 -170 413q0 241 170 415q172 175 412 175q244 0 416 -179q171 -177 171 -421zM1099 637q-28 166 -149 274
q-122 109 -289 109q-166 0 -289 -109q-121 -108 -148 -274h875zM845 1309l-176 149l-180 -149h-187l297 256h135l293 -256h-182z" />
    <glyph glyph-name="uni1EC1" unicode="&#x1ec1;" horiz-adv-x="1331" 
d="M1244 508h-1020q8 -165 139 -286q130 -120 296 -120q132 0 242 70q114 73 159 195h152q-62 -176 -214 -285t-337 -109q-242 0 -414 173q-170 171 -170 413q0 241 170 415q172 175 412 175q244 0 416 -179q171 -177 171 -421zM1099 637q-28 166 -149 274
q-122 109 -289 109q-166 0 -289 -109q-121 -108 -148 -274h875zM915 1539l-406 219l66 123l407 -224zM845 1309l-176 149l-180 -149h-187l297 256h135l293 -256h-182z" />
    <glyph glyph-name="uni1EBF" unicode="&#x1ebf;" horiz-adv-x="1331" 
d="M1244 508h-1020q8 -165 139 -286q130 -120 296 -120q132 0 242 70q114 73 159 195h152q-62 -176 -214 -285t-337 -109q-242 0 -414 173q-170 171 -170 413q0 241 170 415q172 175 412 175q244 0 416 -179q171 -177 171 -421zM1099 637q-28 166 -149 274
q-122 109 -289 109q-166 0 -289 -109q-121 -108 -148 -274h875zM921 1459l-67 118l407 224l66 -123zM845 1309l-176 149l-180 -149h-187l297 256h135l293 -256h-182z" />
    <glyph glyph-name="uni1EC3" unicode="&#x1ec3;" horiz-adv-x="1331" 
d="M1244 508h-1020q8 -165 139 -286q130 -120 296 -120q132 0 242 70q114 73 159 195h152q-62 -176 -214 -285t-337 -109q-242 0 -414 173q-170 171 -170 413q0 241 170 415q172 175 412 175q244 0 416 -179q171 -177 171 -421zM1099 637q-28 166 -149 274
q-122 109 -289 109q-166 0 -289 -109q-121 -108 -148 -274h875zM1096 1713q-7 -11 -23 -28l-13 -14l-41 -40q-12 -14 -23 -30q-18 -27 -21 -87h-127v27q0 51 28 99q8 14 27 36q8 9 26 26l27 26q13 14 24 28q16 22 16 49q0 42 -26 66q-29 27 -61 27q-46 0 -74 -42
q-10 -15 -13 -34q-2 -11 -2 -61h-129v39q0 81 67 144q62 57 153 57q93 0 151 -56q62 -61 62 -142q0 -46 -28 -90zM845 1309l-176 149l-180 -149h-187l297 256h135l293 -256h-182z" />
    <glyph glyph-name="uni1EC5" unicode="&#x1ec5;" horiz-adv-x="1331" 
d="M1244 508h-1020q8 -165 139 -286q130 -120 296 -120q132 0 242 70q114 73 159 195h152q-62 -176 -214 -285t-337 -109q-242 0 -414 173q-170 171 -170 413q0 241 170 415q172 175 412 175q244 0 416 -179q171 -177 171 -421zM1099 637q-28 166 -149 274
q-122 109 -289 109q-166 0 -289 -109q-121 -108 -148 -274h875zM1135 1663q-108 -80 -201 -80q-41 0 -85 13q-29 9 -74 29l-69 29q-38 13 -69 13q-72 0 -137 -61l-72 102q93 86 213 86q40 0 83 -13q28 -9 72 -29q3 -1 9 -4q5 -2 8 -4q10 -4 17 -7l34 -14q37 -13 68 -13
q32 0 68 18l46 26l15 9zM845 1309l-176 149l-180 -149h-187l297 256h135l293 -256h-182z" />
    <glyph glyph-name="uni1EC7" unicode="&#x1ec7;" horiz-adv-x="1331" 
d="M1244 508h-1020q8 -165 139 -286q130 -120 296 -120q132 0 242 70q114 73 159 195h152q-62 -176 -214 -285t-337 -109q-242 0 -414 173q-170 171 -170 413q0 241 170 415q172 175 412 175q244 0 416 -179q171 -177 171 -421zM1099 637q-28 166 -149 274
q-122 109 -289 109q-166 0 -289 -109q-121 -108 -148 -274h875zM586 -385v259h152v-259h-152zM845 1309l-176 149l-180 -149h-187l297 256h135l293 -256h-182z" />
    <glyph glyph-name="igrave" unicode="&#xec;" horiz-adv-x="409" 
d="M134 0v1120h143v-1120h-143zM284 1268l-406 219l66 123l407 -224z" />
    <glyph glyph-name="iacute" unicode="&#xed;" horiz-adv-x="409" 
d="M133 0v1120h143v-1120h-143zM129 1268l-68 118l408 224l65 -123z" />
    <glyph glyph-name="uni1EC9" unicode="&#x1ec9;" horiz-adv-x="409" 
d="M133 0v1120h144v-1120h-144zM384 1442q-7 -11 -23 -28l-13 -14l-41 -40q-12 -14 -23 -30q-18 -27 -21 -87h-127v27q0 51 28 99q8 14 27 36q8 9 26 26l27 26q13 14 24 28q16 22 16 49q0 42 -26 66q-29 27 -61 27q-46 0 -74 -42q-10 -15 -13 -34q-2 -11 -2 -61h-129v39
q0 81 67 144q62 57 153 57q93 0 151 -56q62 -61 62 -142q0 -46 -28 -90z" />
    <glyph glyph-name="itilde" unicode="&#x129;" horiz-adv-x="409" 
d="M133 0v1120h143v-1120h-143zM574 1353q-108 -80 -201 -80q-41 0 -85 13q-29 9 -74 29l-69 29q-38 13 -69 13q-72 0 -137 -61l-72 102q92 86 213 86q40 0 82 -13q28 -9 73 -29l8 -4q6 -2 9 -4q10 -4 17 -7l33 -14q38 -13 69 -13q32 0 67 18l47 26l15 9z" />
    <glyph glyph-name="uni1ECB" unicode="&#x1ecb;" horiz-adv-x="409" 
d="M134 1257v259h143v-259h-143zM134 0v1120h143v-1120h-143zM125 -385v259h152v-259h-152z" />
    <glyph glyph-name="ograve" unicode="&#xf2;" 
d="M1084 147q-173 -174 -414 -174q-237 0 -410 172q-174 172 -174 408q0 244 170 419q171 177 414 177q239 0 413 -174t174 -414q0 -241 -173 -414zM985 885q-130 135 -313 135q-188 0 -317 -140q-126 -136 -126 -325q0 -184 129 -318q130 -135 314 -135q190 0 318 138
q124 135 124 327q0 184 -129 318zM831 1268l-405 219l66 123l407 -224z" />
    <glyph glyph-name="oacute" unicode="&#xf3;" 
d="M1084 147q-173 -174 -414 -174q-237 0 -410 172q-174 172 -174 408q0 244 170 419q171 177 414 177q239 0 413 -174t174 -414q0 -241 -173 -414zM985 885q-130 135 -313 135q-188 0 -317 -140q-126 -136 -126 -325q0 -184 129 -318q130 -135 314 -135q190 0 318 138
q124 135 124 327q0 184 -129 318zM575 1268l-67 118l407 224l66 -123z" />
    <glyph glyph-name="uni1ECF" unicode="&#x1ecf;" 
d="M1084 147q-173 -174 -414 -174q-237 0 -410 172q-174 172 -174 408q0 244 170 419q171 177 414 177q239 0 413 -174t174 -414q0 -241 -173 -414zM985 885q-130 135 -313 135q-188 0 -317 -140q-126 -136 -126 -325q0 -184 129 -318q130 -135 314 -135q190 0 318 138
q124 135 124 327q0 184 -129 318zM866 1442q-7 -11 -23 -28l-13 -14l-41 -40q-12 -14 -23 -30q-18 -27 -21 -87h-127v27q0 51 28 99q8 14 27 36q8 9 26 26l27 26q13 14 24 28q16 22 16 49q0 42 -26 66q-29 27 -61 27q-46 0 -74 -42q-10 -15 -13 -34q-2 -11 -2 -61h-129v39
q0 81 67 144q62 57 153 57q93 0 151 -56q62 -61 62 -142q0 -46 -28 -90z" />
    <glyph glyph-name="otilde" unicode="&#xf5;" 
d="M1084 147q-173 -174 -414 -174q-237 0 -410 172q-174 172 -174 408q0 244 170 419q171 177 414 177q239 0 413 -174t174 -414q0 -241 -173 -414zM985 885q-130 135 -313 135q-188 0 -317 -140q-126 -136 -126 -325q0 -184 129 -318q130 -135 314 -135q190 0 318 138
q124 135 124 327q0 184 -129 318zM1024 1413q-108 -80 -201 -80q-41 0 -85 13q-29 9 -74 29l-69 29q-38 13 -69 13q-72 0 -137 -61l-72 102q93 86 213 86q40 0 83 -13q28 -9 72 -29q3 -1 9 -4q5 -2 8 -4q10 -4 17 -7l34 -14q37 -13 68 -13q32 0 68 18l46 26l15 9z" />
    <glyph glyph-name="uni1ECD" unicode="&#x1ecd;" 
d="M1084 147q-173 -174 -414 -174q-237 0 -410 172q-174 172 -174 408q0 244 170 419q171 177 414 177q239 0 413 -174t174 -414q0 -241 -173 -414zM985 885q-130 135 -313 135q-188 0 -317 -140q-126 -136 -126 -325q0 -184 129 -318q130 -135 314 -135q190 0 318 138
q124 135 124 327q0 184 -129 318zM596 -385v259h152v-259h-152z" />
    <glyph glyph-name="ocircumflex" unicode="&#xf4;" 
d="M1084 147q-173 -174 -414 -174q-237 0 -410 172q-174 172 -174 408q0 244 170 419q171 177 414 177q239 0 413 -174t174 -414q0 -241 -173 -414zM985 885q-130 135 -313 135q-188 0 -317 -140q-126 -136 -126 -325q0 -184 129 -318q130 -135 314 -135q190 0 318 138
q124 135 124 327q0 184 -129 318zM852 1309l-176 149l-180 -149h-187l297 256h135l293 -256h-182z" />
    <glyph glyph-name="uni1ED3" unicode="&#x1ed3;" 
d="M1084 147q-173 -174 -414 -174q-237 0 -410 172q-174 172 -174 408q0 244 170 419q171 177 414 177q239 0 413 -174t174 -414q0 -241 -173 -414zM985 885q-130 135 -313 135q-188 0 -317 -140q-126 -136 -126 -325q0 -184 129 -318q130 -135 314 -135q190 0 318 138
q124 135 124 327q0 184 -129 318zM931 1539l-405 219l66 123l407 -224zM852 1309l-176 149l-180 -149h-187l297 256h135l293 -256h-182z" />
    <glyph glyph-name="uni1ED1" unicode="&#x1ed1;" 
d="M1084 147q-173 -174 -414 -174q-237 0 -410 172q-174 172 -174 408q0 244 170 419q171 177 414 177q239 0 413 -174t174 -414q0 -241 -173 -414zM985 885q-130 135 -313 135q-188 0 -317 -140q-126 -136 -126 -325q0 -184 129 -318q130 -135 314 -135q190 0 318 138
q124 135 124 327q0 184 -129 318zM947 1449l-67 118l407 224l66 -123zM852 1309l-176 149l-180 -149h-187l297 256h135l293 -256h-182z" />
    <glyph glyph-name="uni1ED5" unicode="&#x1ed5;" 
d="M1084 147q-173 -174 -414 -174q-237 0 -410 172q-174 172 -174 408q0 244 170 419q171 177 414 177q239 0 413 -174t174 -414q0 -241 -173 -414zM985 885q-130 135 -313 135q-188 0 -317 -140q-126 -136 -126 -325q0 -184 129 -318q130 -135 314 -135q190 0 318 138
q124 135 124 327q0 184 -129 318zM1107 1703q-7 -11 -23 -28l-13 -14l-41 -40q-12 -14 -23 -30q-18 -27 -21 -87h-127v27q0 51 28 99q8 14 27 36q8 9 26 26l27 26q13 14 24 28q16 22 16 49q0 42 -26 66q-29 27 -61 27q-46 0 -74 -42q-10 -15 -13 -34q-2 -11 -2 -61h-129v39
q0 81 67 144q62 57 153 57q93 0 151 -56q62 -61 62 -142q0 -46 -28 -90zM852 1309l-176 149l-180 -149h-187l297 256h135l293 -256h-182z" />
    <glyph glyph-name="uni1ED7" unicode="&#x1ed7;" 
d="M1084 147q-173 -174 -414 -174q-237 0 -410 172q-174 172 -174 408q0 244 170 419q171 177 414 177q239 0 413 -174t174 -414q0 -241 -173 -414zM985 885q-130 135 -313 135q-188 0 -317 -140q-126 -136 -126 -325q0 -184 129 -318q130 -135 314 -135q190 0 318 138
q124 135 124 327q0 184 -129 318zM1114 1663q-108 -80 -201 -80q-41 0 -85 13q-29 9 -74 29l-69 29q-38 13 -69 13q-72 0 -137 -61l-72 102q93 86 213 86q40 0 83 -13q28 -9 72 -29q3 -1 9 -4q5 -2 8 -4q10 -4 17 -7l34 -14q37 -13 68 -13q32 0 68 18l46 26l15 9zM852 1309
l-176 149l-180 -149h-187l297 256h135l293 -256h-182z" />
    <glyph glyph-name="uni1ED9" unicode="&#x1ed9;" 
d="M1084 147q-173 -174 -414 -174q-237 0 -410 172q-174 172 -174 408q0 244 170 419q171 177 414 177q239 0 413 -174t174 -414q0 -241 -173 -414zM985 885q-130 135 -313 135q-188 0 -317 -140q-126 -136 -126 -325q0 -184 129 -318q130 -135 314 -135q190 0 318 138
q124 135 124 327q0 184 -129 318zM596 -385v259h152v-259h-152zM852 1309l-176 149l-180 -149h-187l297 256h135l293 -256h-182z" />
    <glyph glyph-name="glyph216" unicode="&#xf9;" horiz-adv-x="1245" 
d="M972 0v174h-4q-47 -99 -149 -152q-93 -49 -210 -49q-252 0 -385 168q-55 70 -79 171q-19 82 -19 190v618h143v-616q0 -188 74 -288q85 -114 266 -114q142 0 238 91q68 65 95 154q22 71 22 181v592h143v-1120h-135zM740 1268l-405 219l65 123l408 -224z" />
    <glyph glyph-name="glyph217" unicode="&#xfa;" horiz-adv-x="1245" 
d="M972 0v174h-4q-47 -99 -149 -152q-93 -49 -210 -49q-252 0 -385 168q-55 70 -79 171q-19 82 -19 190v618h143v-616q0 -188 74 -288q85 -114 266 -114q142 0 238 91q68 65 95 154q22 71 22 181v592h143v-1120h-135zM507 1268l-68 118l408 224l65 -123z" />
    <glyph glyph-name="uni1EE7" unicode="&#x1ee7;" horiz-adv-x="1245" 
d="M972 0v174h-4q-47 -99 -149 -152q-93 -49 -210 -49q-252 0 -385 168q-55 70 -79 171q-19 82 -19 190v618h143v-616q0 -188 74 -288q85 -114 266 -114q142 0 238 91q68 65 95 154q22 71 22 181v592h143v-1120h-135zM815 1442q-7 -11 -23 -28l-13 -14l-41 -40
q-12 -14 -23 -30q-18 -27 -21 -87h-127v27q0 51 28 99q8 14 27 36q8 9 26 26l27 26q13 14 24 28q16 22 16 49q0 42 -26 66q-29 27 -61 27q-46 0 -74 -42q-10 -15 -13 -34q-2 -11 -2 -61h-129v39q0 81 67 144q62 57 153 57q93 0 151 -56q62 -61 62 -142q0 -46 -28 -90z" />
    <glyph glyph-name="utilde" unicode="&#x169;" horiz-adv-x="1245" 
d="M972 0v174h-4q-47 -99 -149 -152q-93 -49 -210 -49q-252 0 -385 168q-55 70 -79 171q-19 82 -19 190v618h143v-616q0 -188 74 -288q85 -114 266 -114q142 0 238 91q68 65 95 154q22 71 22 181v592h143v-1120h-135zM1023 1413q-108 -80 -201 -80q-41 0 -85 13
q-29 9 -74 29l-69 29q-38 13 -69 13q-72 0 -137 -61l-72 102q93 86 213 86q40 0 83 -13q28 -9 72 -29q3 -1 9 -4q5 -2 8 -4q10 -4 17 -7l34 -14q37 -13 68 -13q32 0 68 18l46 26l15 9z" />
    <glyph glyph-name="uni1EE5" unicode="&#x1ee5;" horiz-adv-x="1245" 
d="M972 0v174h-4q-47 -99 -149 -152q-93 -49 -210 -49q-252 0 -385 168q-55 70 -79 171q-19 82 -19 190v618h143v-616q0 -188 74 -288q85 -114 266 -114q142 0 238 91q68 65 95 154q22 71 22 181v592h143v-1120h-135zM595 -385v259h152v-259h-152z" />
    <glyph glyph-name="uhorn" unicode="&#x1b0;" horiz-adv-x="1245" 
d="M1107 954v-954h-135v174h-4q-47 -99 -149 -152q-93 -49 -210 -49q-252 0 -385 168q-55 70 -79 171q-19 82 -19 190v618h143v-616q0 -188 74 -288q85 -114 266 -114q142 0 238 91q68 65 95 154q22 71 22 181v592h143v-33q2 2 5 4q36 29 41 71h-61v180h176v-186
q-7 -49 -23.5 -81.5t-40 -54.5t-42 -34.5t-54.5 -32.5z" />
    <glyph glyph-name="uni1EEB" unicode="&#x1eeb;" horiz-adv-x="1245" 
d="M740 1268l-405 219l65 123l408 -224zM1107 954v-954h-135v174h-4q-47 -99 -149 -152q-93 -49 -210 -49q-252 0 -385 168q-55 70 -79 171q-19 82 -19 190v618h143v-616q0 -188 74 -288q85 -114 266 -114q142 0 238 91q68 65 95 154q22 71 22 181v592h143v-33q2 2 5 4
q36 29 41 71h-61v180h176v-186q-7 -49 -23.5 -81.5t-40 -54.5t-42 -34.5t-54.5 -32.5z" />
    <glyph glyph-name="uni1EE9" unicode="&#x1ee9;" horiz-adv-x="1245" 
d="M507 1268l-68 118l408 224l65 -123zM1107 954v-954h-135v174h-4q-47 -99 -149 -152q-93 -49 -210 -49q-252 0 -385 168q-55 70 -79 171q-19 82 -19 190v618h143v-616q0 -188 74 -288q85 -114 266 -114q142 0 238 91q68 65 95 154q22 71 22 181v592h143v-33q2 2 5 4
q36 29 41 71h-61v180h176v-186q-7 -49 -23.5 -81.5t-40 -54.5t-42 -34.5t-54.5 -32.5z" />
    <glyph glyph-name="uni1EED" unicode="&#x1eed;" horiz-adv-x="1245" 
d="M815 1442q-7 -11 -23 -28l-13 -14l-41 -40q-12 -14 -23 -30q-18 -27 -21 -87h-127v27q0 51 28 99q8 14 27 36q8 9 26 26l27 26q13 14 24 28q16 22 16 49q0 42 -26 66q-29 27 -61 27q-46 0 -74 -42q-10 -15 -13 -34q-2 -11 -2 -61h-129v39q0 81 67 144q62 57 153 57
q93 0 151 -56q62 -61 62 -142q0 -46 -28 -90zM1107 954v-954h-135v174h-4q-47 -99 -149 -152q-93 -49 -210 -49q-252 0 -385 168q-55 70 -79 171q-19 82 -19 190v618h143v-616q0 -188 74 -288q85 -114 266 -114q142 0 238 91q68 65 95 154q22 71 22 181v592h143v-33q2 2 5 4
q36 29 41 71h-61v180h176v-186q-7 -49 -23.5 -81.5t-40 -54.5t-42 -34.5t-54.5 -32.5z" />
    <glyph glyph-name="uni1EEF" unicode="&#x1eef;" horiz-adv-x="1245" 
d="M1023 1413q-108 -80 -201 -80q-41 0 -85 13q-29 9 -74 29l-69 29q-38 13 -69 13q-72 0 -137 -61l-72 102q93 86 213 86q40 0 83 -13q28 -9 72 -29q3 -1 9 -4q5 -2 8 -4q10 -4 17 -7l34 -14q37 -13 68 -13q32 0 68 18l46 26l15 9zM1107 954v-954h-135v174h-4
q-47 -99 -149 -152q-93 -49 -210 -49q-252 0 -385 168q-55 70 -79 171q-19 82 -19 190v618h143v-616q0 -188 74 -288q85 -114 266 -114q142 0 238 91q68 65 95 154q22 71 22 181v592h143v-33q2 2 5 4q36 29 41 71h-61v180h176v-186q-7 -49 -23.5 -81.5t-40 -54.5t-42 -34.5
t-54.5 -32.5z" />
    <glyph glyph-name="uni1EF1" unicode="&#x1ef1;" horiz-adv-x="1245" 
d="M595 -385v259h152v-259h-152zM1107 954v-954h-135v174h-4q-47 -99 -149 -152q-93 -49 -210 -49q-252 0 -385 168q-55 70 -79 171q-19 82 -19 190v618h143v-616q0 -188 74 -288q85 -114 266 -114q142 0 238 91q68 65 95 154q22 71 22 181v592h143v-33q2 2 5 4q36 29 41 71
h-61v180h176v-186q-7 -49 -23.5 -81.5t-40 -54.5t-42 -34.5t-54.5 -32.5z" />
    <glyph glyph-name="ohorn" unicode="&#x1a1;" 
d="M985 885q-130 135 -313 135q-188 0 -317 -140q-126 -136 -126 -325q0 -184 129 -318q130 -135 314 -135q190 0 318 138q124 135 124 327q0 184 -129 318zM1095 962q162 -170 162 -401q0 -241 -173 -414q-173 -174 -414 -174q-237 0 -410 172q-174 172 -174 408
q0 244 170 419q171 177 414 177q188 0 335 -107q14 7 23 11q19 9 55 38t41 71h-61v180h176v-186q-7 -49 -23.5 -81.5t-40 -54.5t-41.5 -34q-15 -10 -39 -24z" />
    <glyph glyph-name="uni1EDD" unicode="&#x1edd;" 
d="M985 885q-130 135 -313 135q-188 0 -317 -140q-126 -136 -126 -325q0 -184 129 -318q130 -135 314 -135q190 0 318 138q124 135 124 327q0 184 -129 318zM831 1268l-405 219l66 123l407 -224zM1095 962q162 -170 162 -401q0 -241 -173 -414q-173 -174 -414 -174
q-237 0 -410 172q-174 172 -174 408q0 244 170 419q171 177 414 177q188 0 335 -107q14 7 23 11q19 9 55 38t41 71h-61v180h176v-186q-7 -49 -23.5 -81.5t-40 -54.5t-41.5 -34q-15 -10 -39 -24z" />
    <glyph glyph-name="uni1EDB" unicode="&#x1edb;" 
d="M985 885q-130 135 -313 135q-188 0 -317 -140q-126 -136 -126 -325q0 -184 129 -318q130 -135 314 -135q190 0 318 138q124 135 124 327q0 184 -129 318zM575 1268l-67 118l407 224l66 -123zM1095 962q162 -170 162 -401q0 -241 -173 -414q-173 -174 -414 -174
q-237 0 -410 172q-174 172 -174 408q0 244 170 419q171 177 414 177q188 0 335 -107q14 7 23 11q19 9 55 38t41 71h-61v180h176v-186q-7 -49 -23.5 -81.5t-40 -54.5t-41.5 -34q-15 -10 -39 -24z" />
    <glyph glyph-name="uni1EDF" unicode="&#x1edf;" 
d="M985 885q-130 135 -313 135q-188 0 -317 -140q-126 -136 -126 -325q0 -184 129 -318q130 -135 314 -135q190 0 318 138q124 135 124 327q0 184 -129 318zM866 1442q-7 -11 -23 -28l-13 -14l-41 -40q-12 -14 -23 -30q-18 -27 -21 -87h-127v27q0 51 28 99q8 14 27 36
q8 9 26 26l27 26q13 14 24 28q16 22 16 49q0 42 -26 66q-29 27 -61 27q-46 0 -74 -42q-10 -15 -13 -34q-2 -11 -2 -61h-129v39q0 81 67 144q62 57 153 57q93 0 151 -56q62 -61 62 -142q0 -46 -28 -90zM1095 962q162 -170 162 -401q0 -241 -173 -414q-173 -174 -414 -174
q-237 0 -410 172q-174 172 -174 408q0 244 170 419q171 177 414 177q188 0 335 -107q14 7 23 11q19 9 55 38t41 71h-61v180h176v-186q-7 -49 -23.5 -81.5t-40 -54.5t-41.5 -34q-15 -10 -39 -24z" />
    <glyph glyph-name="uni1EE1" unicode="&#x1ee1;" 
d="M985 885q-130 135 -313 135q-188 0 -317 -140q-126 -136 -126 -325q0 -184 129 -318q130 -135 314 -135q190 0 318 138q124 135 124 327q0 184 -129 318zM1024 1413q-108 -80 -201 -80q-41 0 -85 13q-29 9 -74 29l-69 29q-38 13 -69 13q-72 0 -137 -61l-72 102
q93 86 213 86q40 0 83 -13q28 -9 72 -29q3 -1 9 -4q5 -2 8 -4q10 -4 17 -7l34 -14q37 -13 68 -13q32 0 68 18l46 26l15 9zM1095 962q162 -170 162 -401q0 -241 -173 -414q-173 -174 -414 -174q-237 0 -410 172q-174 172 -174 408q0 244 170 419q171 177 414 177
q188 0 335 -107q14 7 23 11q19 9 55 38t41 71h-61v180h176v-186q-7 -49 -23.5 -81.5t-40 -54.5t-41.5 -34q-15 -10 -39 -24z" />
    <glyph glyph-name="uni1EE3" unicode="&#x1ee3;" 
d="M985 885q-130 135 -313 135q-188 0 -317 -140q-126 -136 -126 -325q0 -184 129 -318q130 -135 314 -135q190 0 318 138q124 135 124 327q0 184 -129 318zM596 -385v259h152v-259h-152zM1095 962q162 -170 162 -401q0 -241 -173 -414q-173 -174 -414 -174q-237 0 -410 172
q-174 172 -174 408q0 244 170 419q171 177 414 177q188 0 335 -107q14 7 23 11q19 9 55 38t41 71h-61v180h176v-186q-7 -49 -23.5 -81.5t-40 -54.5t-41.5 -34q-15 -10 -39 -24z" />
    <glyph glyph-name="ygrave" unicode="&#x1ef3;" horiz-adv-x="1097" 
d="M421 -393h-149l194 430l-436 1083h152l356 -893l381 893h151zM310 1487l65 123l408 -224l-68 -118z" />
    <glyph glyph-name="glyph234" unicode="&#xfd;" horiz-adv-x="1097" 
d="M421 -393h-149l194 430l-436 1083h152l356 -893l381 893h151zM433 1268l-67 118l407 224l66 -123z" />
    <glyph glyph-name="uni1EF7" unicode="&#x1ef7;" horiz-adv-x="1097" 
d="M421 -393h-149l194 430l-436 1083h152l356 -893l381 893h151zM775 1442q-7 -11 -23 -28l-13 -14l-41 -40q-12 -14 -23 -30q-18 -27 -21 -87h-127v27q0 51 28 99q8 14 27 36q8 9 26 26l27 26q13 14 24 28q16 22 16 49q0 42 -26 66q-29 27 -61 27q-46 0 -74 -42
q-10 -15 -13 -34q-2 -11 -2 -61h-129v39q0 81 67 144q62 57 153 57q93 0 151 -56q62 -61 62 -142q0 -46 -28 -90z" />
    <glyph glyph-name="uni1EF9" unicode="&#x1ef9;" horiz-adv-x="1097" 
d="M421 -393h-149l194 430l-436 1083h152l356 -893l381 893h151zM933 1413q-108 -80 -200 -80q-42 0 -85 13q-29 9 -75 29l-69 29q-37 13 -68 13q-73 0 -138 -61l-71 102q92 86 213 86q40 0 82 -13q28 -9 72 -29q3 -1 9 -4q5 -2 8 -4q10 -4 17 -7l34 -14q37 -13 69 -13
q31 0 67 18l46 26l16 9z" />
    <glyph glyph-name="uni1EF5" unicode="&#x1ef5;" horiz-adv-x="1097" 
d="M421 -393h-149l194 430l-436 1083h152l356 -893l381 893h151zM595 -385v259h152v-259h-152z" />
    <glyph glyph-name="divide" unicode="&#xf7;" horiz-adv-x="1706" 
 />
    <glyph glyph-name="ugrave" horiz-adv-x="582" 
 />
    <glyph glyph-name="uacute" horiz-adv-x="580" 
 />
    <glyph glyph-name="yacute" horiz-adv-x="629" 
 />
    <glyph glyph-name="Ccaron" unicode="&#x10c;" horiz-adv-x="1274" 
 />
    <glyph glyph-name="ccaron" unicode="&#x10d;" horiz-adv-x="922" 
 />
    <glyph glyph-name="Dslash" unicode="&#x110;" horiz-adv-x="1523" 
d="M302 711v-574h252q75 0 130 4q68 5 124 17q131 28 233 102q114 82 178 222q60 132 60 278q0 324 -258 502q-102 71 -239 97q-58 11 -129 16q-55 3 -132 3h-219v-530h460v-137h-460zM151 848v668h442q131 0 256 -30q140 -33 237 -95q345 -220 345 -637q0 -405 -345 -629
q-97 -62 -238 -96q-125 -29 -255 -29h-442v711h-122v137h122z" />
    <glyph glyph-name="dcroat" unicode="&#x111;" horiz-adv-x="1402" 
d="M1121 0v197h-4q-150 -224 -436 -224q-253 0 -427 169q-175 169 -175 421q0 250 177 419q175 167 425 167q285 0 436 -221h4v588h144v-1516h-144zM1001 883q-131 137 -320 137q-199 0 -329 -132t-130 -331q0 -196 131 -326q131 -129 328 -129q189 0 320 135
q129 133 129 322t-129 324zM1393 1362v-140h-624v140h624z" />
    <glyph glyph-name="quoteleft" unicode="&#x2018;" horiz-adv-x="802" 
d="M378 1118l-180 398h152l180 -398h-152z" />
    <glyph glyph-name="quoteright" unicode="&#x2019;" horiz-adv-x="731" 
d="M389 1118h-152l180 398h152z" />
    <glyph glyph-name="quotedblleft" unicode="&#x201c;" horiz-adv-x="1028" 
d="M679 1118l-178 398h150l180 -398h-152zM378 1118l-180 398h152l180 -398h-152z" />
    <glyph glyph-name="quotedblright" unicode="&#x201d;" horiz-adv-x="991" 
d="M649 1118h-152l180 398h152zM348 1118h-152l180 398h150z" />
    <glyph glyph-name="ellipsis" unicode="&#x2026;" horiz-adv-x="2048" 
d="M1630 0v258h152v-258h-152zM948 0v258h152v-258h-152zM266 0v258h152v-258h-152z" />
    </font>
</defs>
</svg>
