<?xml version="1.0" standalone="no"?>
<!DOCTYPE svg PUBLIC "-//W3C//DTD SVG 1.1//EN" "http://www.w3.org/Graphics/SVG/1.1/DTD/svg11.dtd" >
<svg xmlns="http://www.w3.org/2000/svg">
<metadata>
This is a custom SVG webfont generated by Font Squirrel.
Copyright   : Copyright 19921997 Adobe Systems Incorporated  All Rights Reserved
Designer    : Robert Slimbach and Carol Twombly
Foundry     : Adobe Systems Incorporated
Foundry URL : httpwwwadobecomtype
</metadata>
<defs>
<font id="webfontUfjLZFyd" horiz-adv-x="925" >
<font-face units-per-em="2048" ascent="1638" descent="-410" />
<missing-glyph horiz-adv-x="376" />
<glyph unicode=" "  horiz-adv-x="376" />
<glyph unicode="&#x09;" horiz-adv-x="376" />
<glyph unicode="&#xa0;" horiz-adv-x="376" />
<glyph unicode="!" horiz-adv-x="448" d="M111 102q0 54 32.5 89.5t81.5 35.5q51 0 83 -34.5t32 -90.5q0 -54 -31 -87t-84 -33q-50 0 -82 34t-32 86zM127 1380h192l-24 -985h-143z" />
<glyph unicode="&#x22;" horiz-adv-x="667" d="M100 1407h168l-32 -487h-103zM399 1407h168l-32 -487h-103z" />
<glyph unicode="#" horiz-adv-x="909" d="M59 403v119h168l39 299h-160v117h177l51 393h117l-52 -393h185l53 393h115l-52 -393h150v-117h-166l-39 -299h160v-116h-176l-51 -406h-119l53 406h-184l-52 -406h-118l53 403h-152zM344 522h184l39 299h-184z" />
<glyph unicode="$" d="M117 111l45 137q121 -78 254 -78q96 0 154.5 55.5t58.5 143.5q0 81 -47.5 140t-153.5 109q-170 82 -234.5 163.5t-64.5 185.5q0 121 73 210t201 115v203h125v-192q133 -3 232 -64l-45 -135q-101 61 -221 61q-88 0 -140.5 -50.5t-52.5 -123.5q0 -78 48.5 -125.5 t174.5 -109.5q144 -70 210.5 -158.5t66.5 -210.5q0 -132 -76 -225.5t-211 -120.5v-215h-125v205q-154 5 -272 80z" />
<glyph unicode="%" horiz-adv-x="1478" d="M61 938q0 187 81.5 299.5t207.5 112.5q128 0 204.5 -107.5t76.5 -292.5q0 -198 -83 -303.5t-204 -105.5q-124 0 -203.5 107.5t-79.5 289.5zM201 944q0 -135 39 -216t108 -81q71 0 109.5 79t38.5 218q0 140 -38 219.5t-110 79.5q-69 0 -108 -83t-39 -216zM309 -27 l746 1383h110l-745 -1383h-111zM848 387q0 187 81.5 298.5t207.5 111.5q129 0 204.5 -106.5t75.5 -291.5q0 -194 -81.5 -303.5t-205.5 -109.5t-203 109t-79 292zM987 393q0 -134 39.5 -217.5t108.5 -83.5q71 0 109 81t38 220t-38 218t-109 79q-70 0 -109 -82t-39 -215z" />
<glyph unicode="&#x26;" horiz-adv-x="1130" d="M61 365q0 242 240 399l2 6q-109 150 -108 297q0 137 88.5 234.5t230.5 97.5q121 0 200 -79.5t79 -211.5q0 -113 -66.5 -201t-202.5 -168v-6l293 -381q79 143 107 396h159q-46 -331 -178 -504l205 -244h-205l-108 129q-145 -147 -348 -147q-175 0 -281.5 110t-106.5 273z M231 389q0 -116 69 -194t177 -78q144 0 238 119l-336 428q-148 -117 -148 -275zM358 1079q0 -121 91 -245q190 124 190 266q0 77 -35.5 125.5t-99.5 48.5q-67 0 -106.5 -54t-39.5 -141z" />
<glyph unicode="'" horiz-adv-x="368" d="M100 1407h168l-32 -487h-103z" />
<glyph unicode="(" horiz-adv-x="552" d="M125 586q0 493 244 833h137q-233 -344 -234 -835q0 -477 234 -830h-137q-244 343 -244 832z" />
<glyph unicode=")" horiz-adv-x="552" d="M47 -246q233 351 234 834q0 484 -234 831h137q244 -337 244 -831q0 -489 -244 -834h-137z" />
<glyph unicode="*" horiz-adv-x="811" d="M55 979v137l285 -39l2 6l-182 244l119 68l124 -275h5l118 279l121 -68l-186 -252v-4l295 41v-137l-295 37v-6l188 -240l-125 -72l-121 281l-4 -2l-127 -283l-114 72l186 248v4z" />
<glyph unicode="+" horiz-adv-x="1220" d="M82 487v121h465v482h127v-482h465v-121h-465v-487h-127v487h-465z" />
<glyph unicode="," horiz-adv-x="415" d="M33 -256q81 233 123 489l196 21q-93 -316 -196 -496z" />
<glyph unicode="-" horiz-adv-x="600" d="M61 479v131h478v-131h-478z" />
<glyph unicode="." horiz-adv-x="415" d="M104 109q0 56 33.5 92.5t83.5 36.5q52 0 84.5 -35.5t32.5 -93.5q0 -56 -32.5 -91.5t-84.5 -35.5q-50 0 -83.5 36t-33.5 91z" />
<glyph unicode="/" horiz-adv-x="638" d="M6 -82l502 1481h133l-504 -1481h-131z" />
<glyph unicode="0" d="M63 662q0 329 110.5 508.5t299.5 179.5q185 0 287 -177.5t102 -498.5q0 -335 -107 -513.5t-298 -178.5q-182 0 -288 179.5t-106 500.5zM240 668q0 -259 58 -401t163 -142q108 0 164.5 139.5t56.5 403.5q0 251 -54.5 394.5t-164.5 143.5q-103 0 -163 -143t-60 -395z" />
<glyph unicode="1" d="M170 1171l289 160h147v-1331h-172v1161h-4l-227 -125z" />
<glyph unicode="2" d="M80 0v111l345 407q82 101 141 214t59 224q0 112 -55 179t-169 67q-121 0 -237 -92l-49 127q137 113 319 113q174 0 270.5 -104t96.5 -273q0 -125 -57 -246.5t-138.5 -226t-290.5 -344.5v-4h514v-152h-749z" />
<glyph unicode="3" d="M72 57l41 138q116 -68 245 -68q123 0 193 70t70 184q0 123 -84.5 194.5t-219.5 71.5h-69v133h65q104 0 185.5 61.5t81.5 164.5q0 91 -53 144.5t-150 53.5q-106 0 -217 -74l-41 130q126 90 297 90q158 0 250 -88t92 -226q0 -102 -57.5 -184t-163.5 -127v-4 q123 -30 193.5 -121.5t70.5 -222.5q0 -171 -120 -283t-319 -112q-167 -1 -290 75z" />
<glyph unicode="4" d="M35 362v117l508 852h184v-829h164v-140h-164v-362h-164v362h-528zM207 502h356v403q0 103 10 236h-8q-88 -187 -110 -226l-248 -409v-4z" />
<glyph unicode="5" d="M72 51l41 137q113 -61 235 -61q120 0 200.5 80.5t80.5 212.5q0 141 -88 217t-252 76q-85 0 -146 -11l86 629h559v-151h-430l-51 -338q33 6 78 6q173 0 296.5 -108.5t123.5 -303.5q0 -197 -127.5 -325.5t-325.5 -128.5q-168 -1 -280 69z" />
<glyph unicode="6" d="M63 537q0 364 192 588.5t503 224.5v-146q-213 0 -346.5 -128.5t-167.5 -348.5h6q102 137 270 137q154 0 250 -114.5t96 -305.5q0 -199 -107.5 -330.5t-281.5 -131.5q-189 0 -301.5 151.5t-112.5 403.5zM240 500q0 -179 64 -281t173 -102q95 0 153 84t58 233 q0 139 -59.5 218t-161.5 79q-90 0 -158.5 -69t-68.5 -162z" />
<glyph unicode="7" d="M96 1180v151h748v-112l-504 -1219h-178l497 1176v4h-563z" />
<glyph unicode="8" d="M68 332q0 237 237 368l-2 7q-93 52 -142.5 131.5t-49.5 167.5q0 154 105 249t259 95q156 0 249 -93t93 -227q0 -199 -196 -311v-6q238 -126 237 -353q0 -166 -112.5 -272t-286.5 -106q-176 0 -283.5 102t-107.5 248zM246 358q0 -110 59.5 -178.5t157.5 -68.5 q100 0 160.5 63.5t60.5 171.5q0 198 -238 293q-96 -41 -148 -116t-52 -165zM285 1018q0 -167 204 -246q164 80 164 240q0 95 -47.5 153t-132.5 58t-136.5 -57.5t-51.5 -147.5z" />
<glyph unicode="9" d="M72 889q0 191 113.5 326t285.5 135q180 0 284.5 -149.5t104.5 -399.5q0 -371 -184 -595t-508 -224v147q438 0 514 481h-4q-102 -125 -264 -125q-150 0 -246 113t-96 291zM248 901q0 -132 57 -207.5t156 -75.5q76 0 148.5 53.5t72.5 149.5q0 188 -58.5 290.5t-164.5 102.5 q-92 0 -151.5 -84.5t-59.5 -228.5z" />
<glyph unicode=":" horiz-adv-x="415" d="M102 106q0 55 33.5 91t83.5 36t82.5 -35t32.5 -92q0 -55 -32.5 -89.5t-84.5 -34.5q-50 0 -82.5 35t-32.5 89zM104 838q0 55 33 91t84 36q50 0 82.5 -35.5t32.5 -91.5q0 -55 -32.5 -90t-84.5 -35q-50 0 -82.5 35.5t-32.5 89.5z" />
<glyph unicode=";" horiz-adv-x="415" d="M33 -256q81 233 123 489l194 21q-93 -316 -196 -496zM123 838q0 55 33 91t84 36q50 0 82 -35.5t32 -91.5q0 -55 -32 -90t-84 -35q-50 0 -82.5 35.5t-32.5 89.5z" />
<glyph unicode="&#x3c;" horiz-adv-x="1220" d="M133 492v106l952 492v-144l-792 -399v-4l792 -400v-143z" />
<glyph unicode="=" horiz-adv-x="1220" d="M82 293v121h1057v-121h-1057zM82 688v121h1057v-121h-1057z" />
<glyph unicode="&#x3e;" horiz-adv-x="1220" d="M133 0v143l811 400v4l-811 399v144l954 -484v-123z" />
<glyph unicode="?" horiz-adv-x="737" d="M94 1337q110 68 252 68q152 0 236 -82t84 -211q0 -65 -26.5 -138t-129.5 -214q-48 -66 -70.5 -115t-29.5 -91t-7 -122l3 -43h-156q-7 66 -7 92q0 163 109 320q87 121 109 178t22 108q0 80 -46 124t-130 44q-100 0 -170 -51zM207 104q0 56 32.5 91.5t84.5 35.5 q51 0 82.5 -34.5t31.5 -92.5q0 -53 -32 -87.5t-84 -34.5q-50 0 -82.5 34.5t-32.5 87.5z" />
<glyph unicode="@" horiz-adv-x="1363" d="M80 594q0 338 200 573.5t500 235.5q230 0 371 -151.5t141 -391.5q0 -249 -95.5 -393.5t-244.5 -144.5q-137 0 -137 170h-6q-97 -170 -256 -170q-86 0 -140.5 65.5t-54.5 175.5q0 199 132 350.5t331 151.5q101 0 183 -37q-76 -401 -82 -434.5t-6 -73.5q0 -104 65 -104 q80 0 143.5 117.5t63.5 300.5q0 225 -111.5 353t-312.5 128q-240 0 -409 -202.5t-169 -514.5q0 -250 129.5 -390t346.5 -140q152 0 280 69l29 -82q-141 -80 -334 -80q-243 0 -400 168.5t-157 450.5zM489 569q0 -141 109 -141q69 0 133.5 81t83.5 179l51 262q-28 12 -78 13 q-120 0 -209.5 -120t-89.5 -274z" />
<glyph unicode="A" horiz-adv-x="1077" d="M47 0l391 1380h205l387 -1380h-182l-117 418h-393l-115 -418h-176zM369 557h333q-104 377 -120 452l-43 199h-7q-43 -218 -61 -282z" />
<glyph unicode="B" horiz-adv-x="989" d="M139 4v1356q117 29 283 29q230 0 339 -93t109 -245q0 -101 -57.5 -183t-163.5 -123v-6q126 -33 198.5 -125.5t72.5 -222.5q0 -173 -122.5 -287t-412.5 -114q-126 0 -246 14zM315 135q35 -8 113 -8q143 0 225 69t82 197q0 133 -89 202t-224 69h-107v-529zM315 797h115 q116 0 190 66.5t74 168.5q0 108 -66.5 164.5t-193.5 56.5q-78 0 -119 -10v-446z" />
<glyph unicode="C" horiz-adv-x="978" d="M70 676q0 337 169 529t437 192q158 0 252 -47l-41 -146q-88 43 -207 43q-193 0 -309.5 -147t-116.5 -412q0 -273 113.5 -412t308.5 -139q121 0 217 41l31 -143q-104 -51 -281 -51q-263 0 -418 182.5t-155 509.5z" />
<glyph unicode="D" horiz-adv-x="1142" d="M139 4v1356q135 29 299 29q327 0 481 -176.5t154 -489.5q0 -362 -171.5 -547.5t-510.5 -185.5q-132 0 -252 14zM315 139q30 -6 117 -6q224 0 340.5 147.5t116.5 436.5q0 256 -109.5 393t-326.5 137q-72 0 -138 -12v-1096z" />
<glyph unicode="E" horiz-adv-x="872" d="M139 0v1380h641v-149h-465v-436h439v-148h-439v-497h494v-150h-670z" />
<glyph unicode="F" horiz-adv-x="858" d="M139 0v1380h639v-149h-463v-463h430v-147h-430v-621h-176z" />
<glyph unicode="G" horiz-adv-x="1112" d="M70 676q0 343 178.5 530t456.5 187q163 0 274 -52l-41 -147q-97 47 -233 47q-207 0 -329 -144.5t-122 -408.5q0 -265 113.5 -409t310.5 -144q106 0 162 25v424h-224v143h394v-678q-167 -61 -338 -61q-296 0 -449 188.5t-153 499.5z" />
<glyph unicode="H" horiz-adv-x="1148" d="M139 0v1380h176v-583h519v583h176v-1380h-176v641h-519v-641h-176z" />
<glyph unicode="I" horiz-adv-x="454" d="M139 0v1380h176v-1380h-176z" />
<glyph unicode="J" horiz-adv-x="655" d="M6 4l21 146q60 -16 114 -17q121 0 167 72.5t46 226.5v948h176v-954q0 -224 -91 -334t-283 -110q-79 -1 -150 22z" />
<glyph unicode="K" horiz-adv-x="976" d="M139 0v1380h176v-657h7l59 99q35 58 125 193l244 365h206l-415 -587l440 -793h-201l-360 666l-105 -142v-524h-176z" />
<glyph unicode="L" horiz-adv-x="839" d="M139 0v1380h176v-1230h488v-150h-664z" />
<glyph unicode="M" horiz-adv-x="1441" d="M102 0l91 1380h208l252 -841.5t70 -268.5q52 241 115 445l204 665h213l82 -1380h-168q-40 726 -44 817q-8 210 -11 342q-39 -178 -344 -1149h-123q-216 715 -252.5 847t-77.5 302q-2 -164 -16 -448l-35 -711h-164z" />
<glyph unicode="N" horiz-adv-x="1155" d="M139 0v1380h180l343 -663q117 -224 210 -463h5q-20 278 -21 602v524h162v-1380h-172l-344 672q-139 270 -211 465h-4q14 -243 14 -615v-522h-162z" />
<glyph unicode="O" horiz-adv-x="1165" d="M70 684q0 327 144.5 521t379.5 194q229 0 365.5 -188.5t136.5 -508.5q0 -344 -141.5 -532t-379.5 -188q-229 0 -367 189t-138 513zM252 688q0 -241 89 -400t239 -159q154 0 241.5 157.5t87.5 409.5q0 239 -87.5 397t-239.5 158q-154 0 -242 -158.5t-88 -404.5z" />
<glyph unicode="P" horiz-adv-x="960" d="M139 0v1362q139 27 291 27q231 0 346 -106.5t115 -291.5q0 -215 -133 -328.5t-338 -113.5q-63 0 -105 8v-557h-176zM315 700q35 -10 103 -10q139 0 218 76.5t79 214.5q0 125 -72 195.5t-203 70.5q-71 0 -125 -12v-535z" />
<glyph unicode="Q" horiz-adv-x="1165" d="M70 684q0 331 144.5 523t381.5 192q228 0 364 -189t136 -508q0 -255 -80.5 -423.5t-231.5 -229.5v-8q169 -54 334 -92l-57 -144q-180 55 -326.5 116t-167.5 61q-224 5 -360.5 190.5t-136.5 511.5zM254 686q0 -241 89 -399t241 -158t239.5 158.5t87.5 408.5 q0 241 -86.5 398t-236.5 157q-155 0 -244.5 -159t-89.5 -406z" />
<glyph unicode="R" horiz-adv-x="976" d="M139 0v1360q127 29 289 29q241 0 352 -101t111 -274q0 -253 -240 -352v-5q142 -46 193 -292q62 -300 92 -365h-180q-29 58 -82 336q-27 141 -82.5 200.5t-165.5 59.5h-111v-596h-176zM315 729h121q125 0 201 72.5t76 191.5q0 256 -271 256q-89 0 -127 -12v-508z" />
<glyph unicode="S" horiz-adv-x="878" d="M72 57l41 148q122 -72 260 -72q119 0 187.5 62.5t68.5 166.5q0 88 -51.5 153t-169.5 122q-311 152 -312 389q0 162 114 266.5t296 104.5q148 0 250 -60l-43 -145q-94 55 -213 55q-106 0 -167 -57.5t-61 -140.5q0 -91 53.5 -146.5t184.5 -122.5q155 -81 225 -176.5 t70 -226.5q0 -175 -119.5 -284t-318.5 -109q-176 -1 -295 73z" />
<glyph unicode="T" horiz-adv-x="876" d="M16 1227v153h846v-153h-336v-1227h-176v1227h-334z" />
<glyph unicode="U" horiz-adv-x="1136" d="M137 518v862h176v-868q0 -187 65.5 -284t186.5 -97q258 0 258 381v868h176v-850q0 -269 -114 -408.5t-326 -139.5q-207 0 -314.5 135.5t-107.5 400.5z" />
<glyph unicode="V" horiz-adv-x="1009" d="M18 1380h191l187 -718q71 -269 106 -461h6q31 183 106 461l195 718h188l-405 -1380h-191z" />
<glyph unicode="W" horiz-adv-x="1540" d="M35 1380h184q205 -993 221 -1161h6q20 160 73 388l177 773h166q156 -714 185 -858.5t49 -300.5h4q13 145 233 1159h178l-327 -1380h-180q-163 746 -186.5 864t-43.5 271h-4q-25 -177 -90 -455l-162 -680h-178z" />
<glyph unicode="X" horiz-adv-x="989" d="M39 0l350 702l-338 678h195q247 -523 252 -544h6q14 50 244 544h192l-344 -671l356 -709h-194l-269 569h-6q-11 -32 -98 -226l-154 -343h-192z" />
<glyph unicode="Y" horiz-adv-x="962" d="M20 1380h195q239 -549 272 -657h5q35 115 272 657h192l-389 -792v-588h-176v582z" />
<glyph unicode="Z" horiz-adv-x="935" d="M49 0v102l615 1123v6h-562v149h777v-112l-609 -1112v-6h613v-150h-834z" />
<glyph unicode="[" horiz-adv-x="552" d="M158 -229v1634h344v-115h-205v-1405h205v-114h-344z" />
<glyph unicode="\" horiz-adv-x="641" d="M2 1399h133l500 -1481h-133z" />
<glyph unicode="]" horiz-adv-x="552" d="M53 -115h203v1405h-203v115h342v-1634h-342v114z" />
<glyph unicode="^" horiz-adv-x="1220" d="M125 385l424 946h123l424 -946h-144l-340 791h-6l-340 -791h-141z" />
<glyph unicode="_" horiz-adv-x="1024" d="M0 -154h1024v-102h-1024v102z" />
<glyph unicode="`" horiz-adv-x="614" d="M61 1395h185l168 -287h-121z" />
<glyph unicode="a" horiz-adv-x="874" d="M61 266q0 179 138 272t372 93v24q0 221 -190 222q-118 0 -213 -64l-39 121q120 76 285 76q334 0 334 -381v-398q0 -154 12 -231h-158l-14 115h-4q-90 -133 -252 -133q-121 0 -196 80.5t-75 203.5zM236 285q0 -85 41 -127.5t102 -42.5q84 0 140 61.5t56 147.5v184 q-339 0 -339 -223z" />
<glyph unicode="b" horiz-adv-x="997" d="M119 0q8 133 8 250v1186h176v-582h4q88 156 273 156q154 0 250 -137t96 -365q0 -244 -108 -385t-267 -141q-176 0 -264 163h-6l-11 -145h-151zM303 375q0 -103 61.5 -176.5t149.5 -73.5q110 0 172 100.5t62 274.5q0 164 -62 264t-170 100q-85 0 -149 -76.5t-64 -187.5 v-225z" />
<glyph unicode="c" horiz-adv-x="770" d="M72 487q0 230 128 376.5t337 146.5q112 0 194 -41l-35 -140q-74 37 -161 37q-130 0 -207.5 -105.5t-77.5 -268.5q0 -167 78.5 -266t206.5 -99q90 0 165 37l27 -133q-90 -47 -225 -47q-196 0 -313 135.5t-117 367.5z" />
<glyph unicode="d" horiz-adv-x="991" d="M72 487q0 239 107 381t265 142q168 0 238 -131h4v557h176v-1186q0 -117 8 -250h-155l-10 147h-5q-87 -166 -272 -165q-157 0 -256.5 138.5t-99.5 366.5zM250 492q0 -160 59 -262.5t166 -102.5q96 0 153.5 79t57.5 177v217q0 118 -58 192t-147 74q-108 0 -169.5 -102.5 t-61.5 -271.5z" />
<glyph unicode="e" horiz-adv-x="890" d="M72 483q0 234 111.5 380.5t291.5 146.5q167 0 257.5 -127t90.5 -326q0 -55 -6 -88h-573q1 -171 74.5 -258.5t207.5 -87.5q127 0 219 43l31 -127q-114 -55 -276 -55q-199 0 -313.5 134t-114.5 365zM246 596h407q0 135 -51.5 209t-140.5 74q-88 0 -146 -78t-69 -205z" />
<glyph unicode="f" horiz-adv-x="540" d="M25 858v133h131v53q0 139 41.5 230.5t116 135.5t165.5 44q80 0 142 -27l-25 -135q-44 18 -100 19q-164 0 -164 -262v-58h209v-133h-209v-858h-176v858h-131z" />
<glyph unicode="g" horiz-adv-x="985" d="M72 489q0 247 113 384t268 137q167 0 245 -148h4l9 129h155q-8 -135 -8 -293v-563q0 -216 -45 -327t-147.5 -169.5t-243.5 -58.5q-164 0 -277 66l41 137q109 -61 240 -62q258 0 258 320v102h-4q-76 -141 -250 -141q-157 0 -257.5 136.5t-100.5 350.5zM250 498 q0 -165 62 -261t167 -96q92 0 148.5 72.5t56.5 179.5v232q0 92 -55.5 166.5t-147.5 74.5q-104 0 -167.5 -100t-63.5 -268z" />
<glyph unicode="h" horiz-adv-x="989" d="M129 0v1436h176v-574h4q97 147 264 148q127 0 208 -100.5t81 -288.5v-621h-176v602q0 260 -178 260q-86 0 -144.5 -71.5t-58.5 -172.5v-618h-176z" />
<glyph unicode="i" horiz-adv-x="434" d="M104 1282q0 50 32 83.5t79 33.5q50 0 81.5 -33t31.5 -84q0 -52 -31 -84.5t-82 -32.5q-48 0 -79.5 33t-31.5 84zM129 0v991h176v-991h-176z" />
<glyph unicode="j" horiz-adv-x="448" d="M-76 -283q81 9 132.5 44t71 110.5t19.5 261.5v858h177v-915q0 -225 -56 -322t-146.5 -135.5t-176.5 -40.5zM123 1282q0 51 31.5 84t81.5 33q49 0 79.5 -33t30.5 -84t-31 -84t-82 -33q-48 0 -79 33.5t-31 83.5z" />
<glyph unicode="k" horiz-adv-x="851" d="M127 0v1436h176v-899h4q37 66 57 93l250 361h203l-319 -411l358 -580h-207l-272 467l-74 -96v-371h-176z" />
<glyph unicode="l" horiz-adv-x="434" d="M129 0v1436h176v-1436h-176z" />
<glyph unicode="m" horiz-adv-x="1495" d="M121 991h153l11 -139h4q93 158 266 158q180 0 244 -172h4q102 172 282 172q127 0 205 -100.5t78 -291.5v-618h-174v588q0 276 -172 276q-73 0 -129.5 -63t-56.5 -176v-625h-174v621q0 117 -43.5 180t-124.5 63q-79 0 -135 -70.5t-56 -181.5v-612h-174v727q0 105 -8 264z " />
<glyph unicode="n" horiz-adv-x="989" d="M121 991h155l9 -141h4q92 160 278 160q131 0 213 -99t82 -284v-627h-176v602q0 260 -180 260q-85 0 -143 -70.5t-58 -183.5v-608h-176v727q0 105 -8 264z" />
<glyph unicode="o" horiz-adv-x="960" d="M72 492q0 249 118 383.5t297 134.5q180 0 290 -137t110 -371q0 -163 -53 -280.5t-149 -178.5t-210 -61q-180 0 -291.5 136.5t-111.5 373.5zM248 496q0 -162 63 -270.5t166 -108.5t166.5 110t63.5 271q0 159 -60 267.5t-168 108.5q-110 0 -170.5 -107t-60.5 -271z" />
<glyph unicode="p" horiz-adv-x="997" d="M119 991h157l9 -147h4q94 166 280 166q157 0 256 -138.5t99 -367.5q0 -245 -107.5 -383.5t-271.5 -138.5q-159 0 -238 133h-4v-514h-176v1075q0 156 -8 315zM303 385q0 -115 60 -187.5t149 -72.5q110 0 171.5 101t61.5 272q0 165 -61 265.5t-168 100.5q-85 0 -149 -77 t-64 -191v-211z" />
<glyph unicode="q" horiz-adv-x="989" d="M72 481q0 244 110.5 386.5t270.5 142.5q169 0 245 -150h4l7 131h163q-8 -147 -8 -293v-1097h-176v526h-6q-81 -145 -256 -145q-153 0 -253.5 137t-100.5 362zM250 492q0 -167 61 -267t168 -100q93 0 151 77.5t58 182.5v219q0 116 -61 188t-144 72q-108 0 -170.5 -101.5 t-62.5 -270.5z" />
<glyph unicode="r" horiz-adv-x="595" d="M119 991h155l9 -174h6q31 89 97.5 141t141.5 52l43 -2v-174q-11 4 -47 4q-91 0 -156 -76t-65 -225v-537h-176v707q0 119 -8 284z" />
<glyph unicode="s" horiz-adv-x="706" d="M61 45l41 133q100 -61 201 -61q80 0 124 38t44 103q0 60 -34.5 101.5t-119.5 82.5q-233 116 -233 283q0 124 87 204.5t226 80.5q116 0 211 -56l-45 -129q-78 51 -168 52q-66 0 -104.5 -36.5t-38.5 -92.5q0 -51 31.5 -85.5t124.5 -80.5q231 -113 231 -301 q0 -139 -91.5 -218t-246.5 -79q-141 0 -240 61z" />
<glyph unicode="t" horiz-adv-x="606" d="M31 858v133h137v176l174 62v-238h223v-133h-223v-553q0 -176 119 -176q47 0 84 10l8 -135q-55 -20 -143 -20q-114 0 -178 69t-64 254v551h-137z" />
<glyph unicode="u" horiz-adv-x="976" d="M123 389v602h176v-573q0 -289 174 -289q81 0 140 64t59 169v629h176v-719q0 -124 8 -272h-156l-10 133h-4q-98 -152 -270 -151q-140 0 -216.5 103.5t-76.5 303.5z" />
<glyph unicode="v" horiz-adv-x="856" d="M25 991h186q206 -714 219 -798h4q17 96 217 798h180l-323 -991h-166z" />
<glyph unicode="w" horiz-adv-x="1337" d="M31 991h182q170 -749 174 -805h6q13 98 209 805h143q182 -669 203 -805h6q5 84 179 805h176l-285 -991h-154q-139 506 -159 584.5t-41 195.5h-4q-26 -150 -70 -302l-139 -478h-156z" />
<glyph unicode="x" horiz-adv-x="829" d="M18 0l293 502l-280 489h192q138 -249 197 -375h4q31 74 192 375h187l-285 -483l289 -508h-197q-164 309 -200 391h-7q-26 -63 -196 -391h-189z" />
<glyph unicode="y" horiz-adv-x="843" d="M23 991h190q138 -455 173.5 -588.5t47.5 -185.5h4l205 774h182l-232 -723q-85 -262 -157 -402t-155 -211t-168 -97l-54 149q123 52 202 167t79 163q0 10 -10 41z" />
<glyph unicode="z" horiz-adv-x="763" d="M35 0v106l269 420q118 185 159.5 244t50.5 74v4h-440v143h647v-112q-431 -671 -475 -732v-4h479v-143h-690z" />
<glyph unicode="{" horiz-adv-x="552" d="M57 537v106q152 0 152 148q0 72 -14 172q-14 103 -15 176q0 129 74 197.5t207 68.5h35v-113h-35q-139 0 -139 -164q0 -66 14 -151q12 -74 12 -152q0 -194 -145 -233v-4q145 -34 145 -234q0 -39 -14 -153q-12 -77 -12 -152q0 -166 141 -166h33v-112h-37q-133 0 -206 69.5 t-73 202.5q0 74 15 174q14 100 14 172q0 148 -152 148z" />
<glyph unicode="|" horiz-adv-x="454" d="M158 -512v2048h137v-2048h-137z" />
<glyph unicode="}" horiz-adv-x="552" d="M55 -117h33q141 0 141 166q0 49 -12 152q-12 98 -12 153q0 200 145 234v4q-145 40 -145 233q0 53 12 152q12 98 12 151q0 164 -139 164h-35v113h35q133 0 207 -68.5t74 -197.5q0 -87 -13 -176q-14 -134 -14 -172q0 -147 152 -148v-106q-152 0 -152 -148q0 -86 12 -172 q14 -100 15 -174q0 -141 -77 -206.5t-202 -65.5h-37v112z" />
<glyph unicode="~" horiz-adv-x="1220" d="M123 438q0 156 67.5 226.5t169.5 70.5q51 0 109 -17.5t168 -72.5q165 -84 237 -84q102 0 103 166h121q0 -174 -65.5 -236.5t-160.5 -62.5q-60 0 -120.5 19.5t-159.5 68.5q-118 60 -162 74t-76 14q-108 0 -110 -166h-121z" />
<glyph unicode="&#xa1;" horiz-adv-x="448" d="M111 883q0 54 32.5 89.5t81.5 35.5q51 0 83 -35t32 -90q0 -53 -30.5 -87t-84.5 -34q-50 0 -82 34.5t-32 86.5zM129 -393l25 983h143l25 -983h-193z" />
<glyph unicode="&#xa2;" d="M131 670q0 187 92.5 321.5t255.5 165.5v199h125v-191q104 -4 178 -43l-34 -137q-72 43 -177 43q-120 0 -192 -103.5t-72 -256.5q0 -161 74 -256t192 -95q96 0 191 41l24 -129q-77 -43 -184 -49v-200h-125v202q-165 24 -256.5 149.5t-91.5 338.5z" />
<glyph unicode="&#xa3;" d="M88 0v106q93 45 153 145.5t60 207.5q0 92 -10 151h-187v127h168q-25 135 -24 226q0 174 101 280.5t257 106.5q117 0 193 -45l-37 -138q-62 37 -154 37t-142 -62.5t-50 -168.5q0 -98 24 -236h254v-127h-237q6 -58 6 -106q0 -216 -148 -350v-4h533v-150h-760z" />
<glyph unicode="&#xa4;" d="M27 1067l88 92l135 -153q87 84 213 84q127 0 215 -82l137 151l88 -90l-155 -149q59 -104 59 -240q0 -140 -59 -248l149 -151l-86 -91l-135 156q-86 -86 -217 -86q-127 0 -213 82l-129 -152l-88 91l147 147q-63 102 -63 244q0 139 65 248zM262 672q0 -127 59 -205t140 -78 q87 0 144 77.5t57 209.5q0 125 -54.5 205t-144.5 80q-91 0 -146 -79t-55 -210z" />
<glyph unicode="&#xa5;" d="M29 1331h184q219 -508 248 -600h4q39 123 71 194l181 406h178l-313 -612h243v-101h-290v-149h290v-100h-290v-369h-166v369h-287v100h287v149h-287v101h242z" />
<glyph unicode="&#xa6;" horiz-adv-x="454" d="M158 356h137v-716h-137v716zM158 664v716h137v-716h-137z" />
<glyph unicode="&#xa7;" horiz-adv-x="946" d="M90 698q0 137 148 240q-74 70 -74 170q0 134 102.5 211.5t253.5 77.5q141 0 248 -60l-41 -116q-93 57 -213 57q-86 0 -141.5 -40t-55.5 -108q0 -54 39.5 -96.5t188.5 -95.5q183 -68 247 -144t64 -182q0 -147 -129 -250q74 -70 74 -176q0 -141 -103 -223t-262 -82 q-181 0 -293 78l45 119q115 -76 250 -76q92 0 149.5 43t57.5 117q0 69 -50.5 115.5t-180.5 97.5q-197 79 -260.5 152.5t-63.5 170.5zM231 721q0 -111 189 -184q156 -61 217 -107q78 55 78 158q0 120 -160 184q-190 79 -231 107q-93 -63 -93 -158z" />
<glyph unicode="&#xa8;" horiz-adv-x="614" d="M37 1237q0 43 28 71.5t70 28.5q40 0 67 -28.5t27 -71.5q0 -41 -26.5 -69.5t-67.5 -28.5q-42 0 -70 28.5t-28 69.5zM383 1237q0 43 28 71.5t70 28.5q40 0 67 -28.5t27 -71.5q0 -41 -27 -69.5t-67 -28.5q-42 0 -70 28.5t-28 69.5z" />
<glyph unicode="&#xa9;" horiz-adv-x="1386" d="M70 696q0 262 182 446.5t444 184.5q258 0 439.5 -185t181.5 -446q0 -265 -180.5 -450t-440.5 -185q-261 0 -443.5 186t-182.5 449zM176 690q0 -227 151.5 -385t370.5 -158q216 0 366 159.5t150 389.5q0 228 -150.5 386.5t-365.5 158.5q-220 0 -371 -159.5t-151 -391.5z M354 684q0 170 115.5 275.5t275.5 105.5q148 0 226 -53l-25 -84q-91 47 -201 47q-133 0 -207.5 -77t-74.5 -208q0 -126 77 -206.5t208 -80.5q119 0 206 52l25 -80q-99 -61 -252 -62q-168 0 -270.5 104.5t-102.5 266.5z" />
<glyph unicode="&#xaa;" horiz-adv-x="636" d="M63 725q0 109 94.5 172.5t270.5 63.5v22q0 47 -31.5 85t-103.5 38q-88 0 -154 -47l-30 86q90 61 206 61q118 0 179 -68.5t61 -197.5v-242q0 -97 10 -155h-114l-11 78h-4q-69 -88 -180 -89q-85 0 -139 54t-54 139zM190 735q0 -48 30.5 -76t74.5 -28q61 0 98 43.5t37 73.5 v122q-240 0 -240 -135z" />
<glyph unicode="&#xab;" horiz-adv-x="796" d="M53 516l240 369h141l-241 -369l241 -366h-141zM371 516l239 369h142l-242 -369l242 -366h-142z" />
<glyph unicode="&#xac;" horiz-adv-x="1220" d="M82 698v121h1057v-573h-127v452h-930z" />
<glyph unicode="&#xad;" horiz-adv-x="600" d="M61 479v131h478v-131h-478z" />
<glyph unicode="&#xae;" horiz-adv-x="1044" d="M63 938q0 189 136 325t325 136q190 0 323.5 -135.5t133.5 -325.5q0 -194 -132.5 -328.5t-324.5 -134.5q-190 0 -325.5 136t-135.5 327zM154 938q0 -162 109 -276.5t263 -114.5q153 0 261 114t108 277q0 160 -108.5 274.5t-260.5 114.5q-154 0 -263 -114.5t-109 -274.5z M354 670v512q98 14 148 14q207 0 207 -147q0 -91 -101 -123v-4q71 -12 86 -125q14 -90 33 -127h-88q-19 27 -35 133q-14 88 -110 88h-56v-221h-84zM438 956h58q125 0 125 86q0 88 -123 88l-60 -2v-172z" />
<glyph unicode="&#xaf;" horiz-adv-x="1024" d="M0 1536v102h1024v-102h-1024z" />
<glyph unicode="&#xb0;" horiz-adv-x="614" d="M57 1130q0 115 77.5 194t187.5 79q114 0 188 -77.5t74 -186.5q0 -116 -79 -193.5t-186 -77.5q-113 0 -187.5 75.5t-74.5 186.5zM166 1133q0 -73 45 -122.5t111 -49.5q67 0 112 50t45 124q0 73 -43.5 124.5t-113.5 51.5q-67 0 -111.5 -52.5t-44.5 -125.5z" />
<glyph unicode="&#xb1;" horiz-adv-x="1220" d="M82 0v121h1057v-121h-1057zM82 649v121h465v395h127v-395h465v-121h-465v-407h-127v407h-465z" />
<glyph unicode="&#xb2;" horiz-adv-x="647" d="M76 543v71q243 249 294.5 334t51.5 152q0 63 -36 99t-101 36q-76 0 -154 -59l-39 96q94 78 227 78q118 0 184 -63t66 -163q0 -77 -43.5 -156t-137.5 -178l-120 -128v-5h314v-114h-506z" />
<glyph unicode="&#xb3;" horiz-adv-x="636" d="M66 584l32 100q79 -45 168 -45q73 0 116.5 38.5t43.5 98.5q0 69 -53.5 107.5t-143.5 38.5h-36v94h34q68 0 121 34t53 93q0 45 -31 72.5t-85 27.5q-76 0 -152 -47l-31 94q93 59 209 60q109 0 170.5 -53.5t61.5 -137.5q0 -124 -144 -182v-4q78 -14 125 -69.5t47 -129.5 q0 -102 -81.5 -172t-221.5 -70q-118 1 -202 52z" />
<glyph unicode="&#xb4;" horiz-adv-x="614" d="M215 1108l168 287h184l-231 -287h-121z" />
<glyph unicode="&#xb5;" horiz-adv-x="976" d="M123 -399v1390h176v-575q0 -285 178 -285q82 0 138.5 66t56.5 139v655h176v-719q0 -124 8 -272h-156l-10 135h-4q-85 -150 -242 -149q-113 0 -159 84h-6l8 -469h-164z" />
<glyph unicode="&#xb6;" horiz-adv-x="937" d="M63 947q0 130 59.5 229.5t175 152.5t280.5 53q137 0 215 -14v-1470h-119v1368h-135v-1368h-119v653h-14q-126 0 -234.5 109t-108.5 287z" />
<glyph unicode="&#xb7;" horiz-adv-x="415" d="M92 559q0 54 34 90.5t83 36.5q52 0 84.5 -35.5t32.5 -91.5q0 -55 -33 -91t-84 -36q-50 0 -83.5 36t-33.5 91z" />
<glyph unicode="&#xb8;" horiz-adv-x="614" d="M127 -373l33 88q49 -31 106 -30q80 0 80 61q0 74 -149 88l88 174h108l-63 -110q61 -8 100 -48t39 -96q0 -79 -55.5 -121.5t-147.5 -42.5q-78 0 -139 37z" />
<glyph unicode="&#xb9;" horiz-adv-x="616" d="M109 1247l194 94h121v-798h-139v674h-4l-148 -76z" />
<glyph unicode="&#xba;" horiz-adv-x="675" d="M53 866q0 154 82.5 247t206.5 93q129 0 204 -89.5t75 -244.5q0 -161 -81 -250.5t-204 -89.5q-125 0 -204 90.5t-79 243.5zM188 868q0 -97 42.5 -166t107.5 -69q70 0 110.5 67t40.5 170q0 101 -39.5 168.5t-111.5 67.5q-70 0 -110 -70t-40 -168z" />
<glyph unicode="&#xbb;" horiz-adv-x="796" d="M43 150l244 366l-244 369h139l242 -369l-238 -366h-143zM360 150l242 366l-242 369h140l241 -369l-239 -366h-142z" />
<glyph unicode="&#xbc;" horiz-adv-x="1413" d="M76 1247l194 94h121v-798h-139v674h-4l-148 -76zM256 -18l738 1368h110l-737 -1368h-111zM749 211v78l344 516h144v-494h108v-100h-108v-213h-131v213h-357zM884 315l3 -4h219v219q0 70 8 139h-6q-56 -109 -66 -121z" />
<glyph unicode="&#xbd;" horiz-adv-x="1413" d="M43 1247l194 94h121v-798h-139v674h-4l-148 -76zM211 -18l738 1368h110l-737 -1368h-111zM821 -2v71q243 249 294.5 334t51.5 152q0 63 -36 99t-101 36q-76 0 -154 -59l-39 96q94 78 227 78q118 0 184 -63t66 -163q0 -77 -43.5 -156t-137.5 -178l-120 -128v-5h314v-114 h-506z" />
<glyph unicode="&#xbe;" horiz-adv-x="1413" d="M58 584l32 100q79 -45 168 -45q73 0 116.5 38.5t43.5 98.5q0 69 -53.5 107.5t-143.5 38.5h-36v94h34q68 0 121 34t53 93q0 45 -31 72.5t-85 27.5q-76 0 -152 -47l-31 94q93 59 209 60q109 0 170.5 -53.5t61.5 -137.5q0 -124 -144 -182v-4q78 -14 125 -69.5t47 -129.5 q0 -102 -81.5 -172t-221.5 -70q-118 1 -202 52zM309 -18l738 1368h110l-737 -1368h-111zM766 211v78l344 516h144v-494h108v-100h-108v-213h-131v213h-357zM901 315l3 -4h219v219q0 70 8 139h-6q-56 -109 -66 -121z" />
<glyph unicode="&#xbf;" horiz-adv-x="737" d="M84 -125q0 66 28.5 142t137.5 225q39 55 61 105t27.5 90.5t5.5 117.5l-2 43h156q7 -66 7 -92q0 -163 -110 -320q-86 -120 -107.5 -176.5t-21.5 -109.5q0 -80 45.5 -124t128.5 -44q95 0 170 51l43 -133q-110 -68 -252 -68q-150 0 -233.5 82t-83.5 211zM307 883 q0 55 32.5 90t84.5 35q50 0 82.5 -35t32.5 -90q0 -54 -32 -89.5t-83 -35.5t-84 35.5t-33 89.5z" />
<glyph unicode="&#xc0;" horiz-adv-x="1077" d="M47 0l391 1380h205l387 -1380h-182l-117 418h-393l-115 -418h-176zM369 557h333q-104 377 -120 452l-43 199h-7q-43 -218 -61 -282zM240 1722h200l199 -235h-135z" />
<glyph unicode="&#xc1;" horiz-adv-x="1077" d="M47 0l391 1380h205l387 -1380h-182l-117 418h-393l-115 -418h-176zM369 557h333q-104 377 -120 452l-43 199h-7q-43 -218 -61 -282zM477 1485l197 237h205l-264 -237h-138z" />
<glyph unicode="&#xc2;" horiz-adv-x="1077" d="M47 0l391 1380h205l387 -1380h-182l-117 418h-393l-115 -418h-176zM369 557h333q-104 377 -120 452l-43 199h-7q-43 -218 -61 -282zM296 1485l191 237h123l194 -237h-141l-111 149h-4l-112 -149h-140z" />
<glyph unicode="&#xc3;" horiz-adv-x="1077" d="M47 0l391 1380h205l387 -1380h-182l-117 418h-393l-115 -418h-176zM369 557h333q-104 377 -120 452l-43 199h-7q-43 -218 -61 -282zM308 1499q0 103 36.5 148.5t92.5 45.5q46 0 112 -38q59 -37 90 -37q29 0 41 20t15 60h90q0 -188 -135 -189q-50 0 -113 37q-62 37 -86 37 q-42 0 -51 -84h-92z" />
<glyph unicode="&#xc4;" horiz-adv-x="1077" d="M47 0l391 1380h205l387 -1380h-182l-117 418h-393l-115 -418h-176zM369 557h333q-104 377 -120 452l-43 199h-7q-43 -218 -61 -282zM276 1610q0 42 27.5 71t68.5 29q40 0 67 -28.5t27 -71.5q0 -44 -26 -72.5t-68 -28.5q-41 0 -68.5 29t-27.5 72zM626 1610q0 42 27 71 t67 29q41 0 69 -28.5t28 -71.5q0 -44 -26.5 -72.5t-68.5 -28.5q-41 0 -68.5 29t-27.5 72z" />
<glyph unicode="&#xc5;" horiz-adv-x="1077" d="M47 0l387 1364q-98 41 -98 147q0 78 58 132.5t151 54.5q94 0 150.5 -52.5t56.5 -132.5q0 -108 -103 -151l381 -1362h-182l-117 418h-393l-115 -418h-176zM369 557h333q-104 377 -120 452l-43 199h-7q-43 -217 -61 -282zM442 1511q0 -45 28.5 -75.5t72.5 -30.5 q47 0 74.5 30t27.5 81q0 47 -27.5 76.5t-74.5 29.5t-74 -31t-27 -80z" />
<glyph unicode="&#xc6;" horiz-adv-x="1384" d="M6 0l522 1380h754v-149h-481l37 -443h432v-147h-414l45 -491h434v-150h-587l-46 465h-348l-170 -465h-178zM403 606h283l-51 649h-8q-59 -194 -82 -256z" />
<glyph unicode="&#xc7;" horiz-adv-x="978" d="M70 676q0 337 169 529t437 192q159 0 250 -47l-39 -146q-88 43 -207 43q-194 0 -310 -147t-116 -414q0 -272 114.5 -411.5t309.5 -139.5q121 0 215 43l33 -145q-99 -46 -273 -49l-47 -84q61 -11 99 -52.5t38 -95.5q0 -77 -55 -119.5t-145 -42.5q-77 0 -142 37l33 88 q49 -31 107 -30q80 0 80 63q0 72 -150 86l80 156q-230 35 -355.5 214.5t-125.5 471.5z" />
<glyph unicode="&#xc8;" horiz-adv-x="872" d="M139 0v1380h641v-149h-465v-436h439v-148h-439v-497h494v-150h-670zM181 1721h200l199 -235h-135z" />
<glyph unicode="&#xc9;" horiz-adv-x="872" d="M139 0v1380h641v-149h-465v-436h439v-148h-439v-497h494v-150h-670zM386 1485l197 237h205l-264 -237h-138z" />
<glyph unicode="&#xca;" horiz-adv-x="872" d="M139 0v1380h641v-149h-465v-436h439v-148h-439v-497h494v-150h-670zM208 1485l191 237h123l194 -237h-141l-111 149h-4l-112 -149h-140z" />
<glyph unicode="&#xcb;" horiz-adv-x="872" d="M139 0v1380h641v-149h-465v-436h439v-148h-439v-497h494v-150h-670zM196 1610q0 42 27.5 71t68.5 29q40 0 67 -28.5t27 -71.5q0 -44 -26 -72.5t-68 -28.5q-41 0 -68.5 29t-27.5 72zM546 1610q0 42 27 71t67 29q41 0 69 -28.5t28 -71.5q0 -44 -26.5 -72.5t-68.5 -28.5 q-41 0 -68.5 29t-27.5 72z" />
<glyph unicode="&#xcc;" horiz-adv-x="454" d="M139 0v1380h176v-1380h-176zM-71 1722h200l199 -235h-135z" />
<glyph unicode="&#xcd;" horiz-adv-x="454" d="M139 0v1380h176v-1380h-176zM149 1485l197 237h205l-264 -237h-138z" />
<glyph unicode="&#xce;" horiz-adv-x="454" d="M141 0v1380h176v-1380h-176zM-23 1485l191 237h123l194 -237h-141l-111 149h-4l-112 -149h-140z" />
<glyph unicode="&#xcf;" horiz-adv-x="454" d="M139 0v1380h176v-1380h-176zM-41 1610q0 42 27.5 71t68.5 29q40 0 67 -28.5t27 -71.5q0 -44 -26 -72.5t-68 -28.5q-41 0 -68.5 29t-27.5 72zM309 1610q0 42 27 71t67 29q41 0 69 -28.5t28 -71.5q0 -44 -26.5 -72.5t-68.5 -28.5q-41 0 -68.5 29t-27.5 72z" />
<glyph unicode="&#xd0;" horiz-adv-x="1157" d="M-2 643v135h154v584q135 29 299 29q330 0 483 -177t153 -493q0 -735 -684 -735q-132 0 -251 14v643h-154zM328 135q31 -6 116 -6q225 0 342 149.5t117 442.5q0 258 -111.5 393t-324.5 135q-74 0 -139 -12v-459h284v-135h-284v-508z" />
<glyph unicode="&#xd1;" horiz-adv-x="1155" d="M139 0v1380h180l343 -663q117 -224 210 -463h5q-20 278 -21 602v524h162v-1380h-172l-344 672q-139 270 -211 465h-4q14 -243 14 -615v-522h-162zM353 1489q0 103 36.5 148.5t92.5 45.5q46 0 112 -38q59 -37 90 -37q29 0 41 20t15 60h90q0 -188 -135 -189q-50 0 -113 37 q-62 37 -86 37q-42 0 -51 -84h-92z" />
<glyph unicode="&#xd2;" horiz-adv-x="1165" d="M70 684q0 327 144.5 521t379.5 194q229 0 365.5 -188.5t136.5 -508.5q0 -344 -141.5 -532t-379.5 -188q-229 0 -367 189t-138 513zM252 688q0 -241 89 -400t239 -159q154 0 241.5 157.5t87.5 409.5q0 239 -87.5 397t-239.5 158q-154 0 -242 -158.5t-88 -404.5zM284 1722 h200l199 -235h-135z" />
<glyph unicode="&#xd3;" horiz-adv-x="1165" d="M70 684q0 327 144.5 521t379.5 194q229 0 365.5 -188.5t136.5 -508.5q0 -344 -141.5 -532t-379.5 -188q-229 0 -367 189t-138 513zM252 688q0 -241 89 -400t239 -159q154 0 241.5 157.5t87.5 409.5q0 239 -87.5 397t-239.5 158q-154 0 -242 -158.5t-88 -404.5zM524 1485 l197 237h205l-264 -237h-138z" />
<glyph unicode="&#xd4;" horiz-adv-x="1165" d="M70 684q0 327 144.5 521t379.5 194q229 0 365.5 -188.5t136.5 -508.5q0 -344 -141.5 -532t-379.5 -188q-229 0 -367 189t-138 513zM252 688q0 -241 89 -400t239 -159q154 0 241.5 157.5t87.5 409.5q0 239 -87.5 397t-239.5 158q-154 0 -242 -158.5t-88 -404.5zM328 1485 l191 237h123l194 -237h-141l-111 149h-4l-112 -149h-140z" />
<glyph unicode="&#xd5;" horiz-adv-x="1165" d="M70 684q0 327 144.5 521t379.5 194q229 0 365.5 -188.5t136.5 -508.5q0 -344 -141.5 -532t-379.5 -188q-229 0 -367 189t-138 513zM252 688q0 -241 89 -400t239 -159q154 0 241.5 157.5t87.5 409.5q0 239 -87.5 397t-239.5 158q-154 0 -242 -158.5t-88 -404.5zM345 1498 q0 103 36.5 148.5t92.5 45.5q46 0 112 -38q59 -37 90 -37q29 0 41 20t15 60h90q0 -188 -135 -189q-50 0 -113 37q-62 37 -86 37q-42 0 -51 -84h-92z" />
<glyph unicode="&#xd6;" horiz-adv-x="1165" d="M70 684q0 327 144.5 521t379.5 194q229 0 365.5 -188.5t136.5 -508.5q0 -344 -141.5 -532t-379.5 -188q-229 0 -367 189t-138 513zM252 688q0 -241 89 -400t239 -159q154 0 241.5 157.5t87.5 409.5q0 239 -87.5 397t-239.5 158q-154 0 -242 -158.5t-88 -404.5zM312 1610 q0 42 27.5 71t68.5 29q40 0 67 -28.5t27 -71.5q0 -44 -26 -72.5t-68 -28.5q-41 0 -68.5 29t-27.5 72zM662 1610q0 42 27 71t67 29q41 0 69 -28.5t28 -71.5q0 -44 -26.5 -72.5t-68.5 -28.5q-41 0 -68.5 29t-27.5 72z" />
<glyph unicode="&#xd7;" horiz-adv-x="1220" d="M82 90l440 449l-440 448l86 90l442 -450l443 450l86 -90l-443 -448l441 -449l-86 -90l-441 451l-442 -451z" />
<glyph unicode="&#xd8;" horiz-adv-x="1165" d="M70 686q0 328 144 520.5t374 192.5q157 0 272 -94l92 153l105 -59l-105 -180q143 -196 144 -517q0 -354 -145 -537t-367 -183q-163 0 -279 100l-98 -164l-96 64l104 186q-145 192 -145 518zM246 690q0 -188 65 -346h4l467 817q-87 90 -196 90q-157 0 -248.5 -158 t-91.5 -403zM383 227q77 -98 201 -98q155 0 245.5 158t90.5 407q0 195 -64 342h-6z" />
<glyph unicode="&#xd9;" horiz-adv-x="1136" d="M137 518v862h176v-868q0 -187 65.5 -284t186.5 -97q258 0 258 381v868h176v-850q0 -269 -114 -408.5t-326 -139.5q-207 0 -314.5 135.5t-107.5 400.5zM291 1691h200l199 -235h-135z" />
<glyph unicode="&#xda;" horiz-adv-x="1136" d="M137 518v862h176v-868q0 -187 65.5 -284t186.5 -97q258 0 258 381v868h176v-850q0 -269 -114 -408.5t-326 -139.5q-207 0 -314.5 135.5t-107.5 400.5zM494 1516l197 237h205l-264 -237h-138z" />
<glyph unicode="&#xdb;" horiz-adv-x="1136" d="M137 518v862h176v-868q0 -187 65.5 -284t186.5 -97q258 0 258 381v868h176v-850q0 -269 -114 -408.5t-326 -139.5q-207 0 -314.5 135.5t-107.5 400.5zM324 1516l191 237h123l194 -237h-141l-111 149h-4l-112 -149h-140z" />
<glyph unicode="&#xdc;" horiz-adv-x="1136" d="M137 518v862h176v-868q0 -187 65.5 -284t186.5 -97q258 0 258 381v868h176v-850q0 -269 -114 -408.5t-326 -139.5q-207 0 -314.5 135.5t-107.5 400.5zM300 1610q0 42 27.5 71t68.5 29q40 0 67 -28.5t27 -71.5q0 -44 -26 -72.5t-68 -28.5q-41 0 -68.5 29t-27.5 72z M650 1610q0 42 27 71t67 29q41 0 69 -28.5t28 -71.5q0 -44 -26.5 -72.5t-68.5 -28.5q-41 0 -68.5 29t-27.5 72z" />
<glyph unicode="&#xdd;" horiz-adv-x="962" d="M20 1380h195q239 -549 272 -657h5q35 115 272 657h192l-389 -792v-588h-176v582zM429 1485l197 237h205l-264 -237h-138z" />
<glyph unicode="&#xde;" horiz-adv-x="956" d="M139 0v1380h174v-268q69 10 148 10q211 0 320.5 -104t109.5 -275q0 -202 -126 -315t-335 -113q-54 0 -117 9v-324h-174zM313 469q41 -10 111 -10q137 0 214 71.5t77 198.5q0 119 -68.5 185.5t-202.5 66.5q-90 0 -131 -12v-500z" />
<glyph unicode="&#xdf;" horiz-adv-x="1009" d="M129 0v920q0 283 111 408.5t301 125.5q147 0 242.5 -90t95.5 -244q0 -91 -48 -168q-139 -57 -139 -164q0 -35 16 -70.5t83 -107.5q92 -99 120.5 -167.5t28.5 -141.5q0 -144 -95.5 -231.5t-250.5 -87.5q-111 0 -191 36l31 136q70 -33 152 -33q83 0 132.5 46t49.5 118 q0 60 -27 108t-82 103q-91 95 -115 153t-24 113q0 165 172 250q16 38 17 92q0 103 -54 156t-133 53q-217 0 -217 -391v-922h-176z" />
<glyph unicode="&#xe0;" horiz-adv-x="874" d="M61 266q0 179 138 272t372 93v24q0 221 -190 222q-118 0 -213 -64l-39 121q120 76 285 76q334 0 334 -381v-398q0 -154 12 -231h-158l-14 115h-4q-90 -133 -252 -133q-121 0 -196 80.5t-75 203.5zM236 285q0 -85 41 -127.5t102 -42.5q84 0 140 61.5t56 147.5v184 q-339 0 -339 -223zM158 1395h185l168 -287h-121z" />
<glyph unicode="&#xe1;" horiz-adv-x="874" d="M61 266q0 179 138 272t372 93v24q0 221 -190 222q-118 0 -213 -64l-39 121q120 76 285 76q334 0 334 -381v-398q0 -154 12 -231h-158l-14 115h-4q-90 -133 -252 -133q-121 0 -196 80.5t-75 203.5zM236 285q0 -85 41 -127.5t102 -42.5q84 0 140 61.5t56 147.5v184 q-339 0 -339 -223zM343 1108l168 287h184l-231 -287h-121z" />
<glyph unicode="&#xe2;" horiz-adv-x="874" d="M61 266q0 179 138 272t372 93v24q0 221 -190 222q-118 0 -213 -64l-39 121q120 76 285 76q334 0 334 -381v-398q0 -154 12 -231h-158l-14 115h-4q-90 -133 -252 -133q-121 0 -196 80.5t-75 203.5zM236 285q0 -85 41 -127.5t102 -42.5q84 0 140 61.5t56 147.5v184 q-339 0 -339 -223zM199 1108l176 287h106l181 -287h-127l-105 184h-4l-104 -184h-123z" />
<glyph unicode="&#xe3;" horiz-adv-x="874" d="M61 266q0 179 138 272t372 93v24q0 221 -190 222q-118 0 -213 -64l-39 121q120 76 285 76q334 0 334 -381v-398q0 -154 12 -231h-158l-14 115h-4q-90 -133 -252 -133q-121 0 -196 80.5t-75 203.5zM236 285q0 -85 41 -127.5t102 -42.5q84 0 140 61.5t56 147.5v184 q-339 0 -339 -223zM198 1143q0 94 35.5 144t93.5 50q43 0 116 -41q66 -35 86 -34q48 0 54 81h86q0 -188 -131 -188q-45 0 -115 41q-59 35 -84 35q-45 0 -51 -88h-90z" />
<glyph unicode="&#xe4;" horiz-adv-x="874" d="M61 266q0 179 138 272t372 93v24q0 221 -190 222q-118 0 -213 -64l-39 121q120 76 285 76q334 0 334 -381v-398q0 -154 12 -231h-158l-14 115h-4q-90 -133 -252 -133q-121 0 -196 80.5t-75 203.5zM236 285q0 -85 41 -127.5t102 -42.5q84 0 140 61.5t56 147.5v184 q-339 0 -339 -223zM166 1237q0 43 28 71.5t70 28.5q40 0 67 -28.5t27 -71.5q0 -41 -26.5 -69.5t-67.5 -28.5q-42 0 -70 28.5t-28 69.5zM512 1237q0 43 28 71.5t70 28.5q40 0 67 -28.5t27 -71.5q0 -41 -27 -69.5t-67 -28.5q-42 0 -70 28.5t-28 69.5z" />
<glyph unicode="&#xe5;" horiz-adv-x="874" d="M61 266q0 179 138 272t372 93v24q0 221 -190 222q-118 0 -213 -64l-39 121q120 76 285 76q334 0 334 -381v-398q0 -154 12 -231h-158l-14 115h-4q-90 -133 -252 -133q-121 0 -196 80.5t-75 203.5zM236 285q0 -85 41 -127.5t102 -42.5q84 0 140 61.5t56 147.5v184 q-339 0 -339 -223zM235 1274q0 81 55 134.5t146 53.5q88 0 142 -52t54 -134q0 -77 -56 -129.5t-140 -52.5q-88 0 -144.5 51.5t-56.5 128.5zM337 1276q0 -42 28 -74.5t69 -32.5q45 0 72.5 31.5t27.5 77.5q0 47 -27 77.5t-73 30.5q-44 0 -70.5 -31.5t-26.5 -78.5z" />
<glyph unicode="&#xe6;" horiz-adv-x="1372" d="M61 268q0 171 138 262t374 91v47q0 90 -50.5 149.5t-145.5 59.5q-112 0 -209 -64l-39 119q125 78 270 78q218 0 275 -191h6q43 91 121 141t174 50q157 0 244.5 -129t87.5 -320q0 -35 -4 -80h-564q0 -184 72.5 -273t202.5 -89q123 0 219 49l31 -125q-110 -61 -279 -61 q-111 0 -201 53t-127 149h-4q-91 -203 -313 -202q-125 0 -202 80.5t-77 205.5zM231 281q0 -80 43 -123t105 -43q87 0 141.5 63.5t54.5 155.5v168q-344 0 -344 -221zM741 606h398q0 120 -47.5 197.5t-137.5 77.5q-89 0 -148 -78t-65 -197z" />
<glyph unicode="&#xe7;" horiz-adv-x="770" d="M72 487q0 230 128.5 376.5t338.5 146.5q108 0 194 -41l-37 -140q-74 37 -159 37q-131 0 -209 -105.5t-78 -268.5q0 -169 79 -267t208 -98q84 0 165 37l29 -133q-83 -43 -211 -47l-49 -86q62 -9 100.5 -49t38.5 -95q0 -79 -55 -121.5t-147 -42.5q-80 0 -140 37l31 88 q49 -31 109 -30q80 0 79 63q0 73 -151 86l80 158q-163 30 -253.5 161.5t-90.5 333.5z" />
<glyph unicode="&#xe8;" horiz-adv-x="890" d="M72 483q0 234 111.5 380.5t291.5 146.5q167 0 257.5 -127t90.5 -326q0 -55 -6 -88h-573q1 -171 74.5 -258.5t207.5 -87.5q127 0 219 43l31 -127q-114 -55 -276 -55q-199 0 -313.5 134t-114.5 365zM246 596h407q0 135 -51.5 209t-140.5 74q-88 0 -146 -78t-69 -205z M208 1395h185l168 -287h-121z" />
<glyph unicode="&#xe9;" horiz-adv-x="890" d="M72 483q0 234 111.5 380.5t291.5 146.5q167 0 257.5 -127t90.5 -326q0 -55 -6 -88h-573q1 -171 74.5 -258.5t207.5 -87.5q127 0 219 43l31 -127q-114 -55 -276 -55q-199 0 -313.5 134t-114.5 365zM246 596h407q0 135 -51.5 209t-140.5 74q-88 0 -146 -78t-69 -205z M389 1108l168 287h184l-231 -287h-121z" />
<glyph unicode="&#xea;" horiz-adv-x="890" d="M72 483q0 234 111.5 380.5t291.5 146.5q167 0 257.5 -127t90.5 -326q0 -55 -6 -88h-573q1 -171 74.5 -258.5t207.5 -87.5q127 0 219 43l31 -127q-114 -55 -276 -55q-199 0 -313.5 134t-114.5 365zM246 596h407q0 135 -51.5 209t-140.5 74q-88 0 -146 -78t-69 -205z M240 1108l176 287h106l181 -287h-127l-105 184h-4l-104 -184h-123z" />
<glyph unicode="&#xeb;" horiz-adv-x="890" d="M72 483q0 234 111.5 380.5t291.5 146.5q167 0 257.5 -127t90.5 -326q0 -55 -6 -88h-573q1 -171 74.5 -258.5t207.5 -87.5q127 0 219 43l31 -127q-114 -55 -276 -55q-199 0 -313.5 134t-114.5 365zM246 596h407q0 135 -51.5 209t-140.5 74q-88 0 -146 -78t-69 -205z M210 1237q0 43 28 71.5t70 28.5q40 0 67 -28.5t27 -71.5q0 -41 -26.5 -69.5t-67.5 -28.5q-42 0 -70 28.5t-28 69.5zM556 1237q0 43 28 71.5t70 28.5q40 0 67 -28.5t27 -71.5q0 -41 -27 -69.5t-67 -28.5q-42 0 -70 28.5t-28 69.5z" />
<glyph unicode="&#xec;" horiz-adv-x="434" d="M130 0v991h176v-991h-176zM-56 1395h185l168 -287h-121z" />
<glyph unicode="&#xed;" horiz-adv-x="434" d="M129 0v991h176v-991h-176zM131 1108l168 287h184l-231 -287h-121z" />
<glyph unicode="&#xee;" horiz-adv-x="434" d="M129 0v991h176v-991h-176zM-14 1108l176 287h106l181 -287h-127l-105 184h-4l-104 -184h-123z" />
<glyph unicode="&#xef;" horiz-adv-x="434" d="M129 0v991h176v-991h-176zM-53 1237q0 43 28 71.5t70 28.5q40 0 67 -28.5t27 -71.5q0 -41 -26.5 -69.5t-67.5 -28.5q-42 0 -70 28.5t-28 69.5zM293 1237q0 43 28 71.5t70 28.5q40 0 67 -28.5t27 -71.5q0 -41 -27 -69.5t-67 -28.5q-42 0 -70 28.5t-28 69.5z" />
<glyph unicode="&#xf0;" horiz-adv-x="950" d="M74 489q0 227 111.5 364.5t276.5 137.5q90 0 156 -55l5 4q-68 120 -181 217l-241 -121l-41 80l205 107q-63 55 -181 131l90 100q143 -87 232 -162l225 111l45 -78l-194 -98q153 -151 225 -320t72 -393q0 -254 -116 -393t-292 -139q-178 0 -287.5 135.5t-109.5 371.5z M250 492q0 -158 61 -266.5t160 -108.5q104 0 164.5 105.5t60.5 269.5q0 223 -60.5 300.5t-160.5 77.5q-108 0 -166.5 -110t-58.5 -268z" />
<glyph unicode="&#xf1;" horiz-adv-x="989" d="M121 991h155l9 -141h4q92 160 278 160q131 0 213 -99t82 -284v-627h-176v602q0 260 -180 260q-85 0 -143 -70.5t-58 -183.5v-608h-176v727q0 105 -8 264zM265 1143q0 94 35.5 144t93.5 50q43 0 116 -41q66 -35 86 -34q48 0 54 81h86q0 -188 -131 -188q-45 0 -115 41 q-59 35 -84 35q-45 0 -51 -88h-90z" />
<glyph unicode="&#xf2;" horiz-adv-x="960" d="M72 492q0 249 118 383.5t297 134.5q180 0 290 -137t110 -371q0 -163 -53 -280.5t-149 -178.5t-210 -61q-180 0 -291.5 136.5t-111.5 373.5zM248 496q0 -162 63 -270.5t166 -108.5t166.5 110t63.5 271q0 159 -60 267.5t-168 108.5q-110 0 -170.5 -107t-60.5 -271z M217 1395h185l168 -287h-121z" />
<glyph unicode="&#xf3;" horiz-adv-x="960" d="M72 492q0 249 118 383.5t297 134.5q180 0 290 -137t110 -371q0 -163 -53 -280.5t-149 -178.5t-210 -61q-180 0 -291.5 136.5t-111.5 373.5zM248 496q0 -162 63 -270.5t166 -108.5t166.5 110t63.5 271q0 159 -60 267.5t-168 108.5q-110 0 -170.5 -107t-60.5 -271z M392 1108l168 287h184l-231 -287h-121z" />
<glyph unicode="&#xf4;" horiz-adv-x="960" d="M72 492q0 249 118 383.5t297 134.5q180 0 290 -137t110 -371q0 -163 -53 -280.5t-149 -178.5t-210 -61q-180 0 -291.5 136.5t-111.5 373.5zM248 496q0 -162 63 -270.5t166 -108.5t166.5 110t63.5 271q0 159 -60 267.5t-168 108.5q-110 0 -170.5 -107t-60.5 -271z M249 1108l176 287h106l181 -287h-127l-105 184h-4l-104 -184h-123z" />
<glyph unicode="&#xf5;" horiz-adv-x="960" d="M72 492q0 249 118 383.5t297 134.5q180 0 290 -137t110 -371q0 -163 -53 -280.5t-149 -178.5t-210 -61q-180 0 -291.5 136.5t-111.5 373.5zM248 496q0 -162 63 -270.5t166 -108.5t166.5 110t63.5 271q0 159 -60 267.5t-168 108.5q-110 0 -170.5 -107t-60.5 -271z M245 1143q0 94 35.5 144t93.5 50q43 0 116 -41q66 -35 86 -34q48 0 54 81h86q0 -188 -131 -188q-45 0 -115 41q-59 35 -84 35q-45 0 -51 -88h-90z" />
<glyph unicode="&#xf6;" horiz-adv-x="960" d="M72 492q0 249 118 383.5t297 134.5q180 0 290 -137t110 -371q0 -163 -53 -280.5t-149 -178.5t-210 -61q-180 0 -291.5 136.5t-111.5 373.5zM248 496q0 -162 63 -270.5t166 -108.5t166.5 110t63.5 271q0 159 -60 267.5t-168 108.5q-110 0 -170.5 -107t-60.5 -271z M210 1237q0 43 28 71.5t70 28.5q40 0 67 -28.5t27 -71.5q0 -41 -26.5 -69.5t-67.5 -28.5q-42 0 -70 28.5t-28 69.5zM556 1237q0 43 28 71.5t70 28.5q40 0 67 -28.5t27 -71.5q0 -41 -27 -69.5t-67 -28.5q-42 0 -70 28.5t-28 69.5z" />
<glyph unicode="&#xf7;" horiz-adv-x="1220" d="M80 485v121h1057v-121h-1057zM506 186q0 47 28.5 77t73.5 30q46 0 74.5 -30t28.5 -77t-28.5 -76.5t-74.5 -29.5q-45 0 -73.5 29.5t-28.5 76.5zM508 905q0 46 28 76.5t74 30.5t74.5 -30t28.5 -77t-28 -76.5t-75 -29.5q-45 0 -73.5 29.5t-28.5 76.5z" />
<glyph unicode="&#xf8;" horiz-adv-x="960" d="M72 492q0 240 115.5 379t293.5 139q118 0 209 -64l72 115l84 -51l-78 -136q119 -136 119 -374q0 -245 -118 -381.5t-290 -136.5q-118 0 -209 63l-71 -119l-80 58l76 127q-123 141 -123 381zM244 496q0 -128 47 -232l4 -2l323 551q-49 61 -137 61q-114 0 -175.5 -107.5 t-61.5 -270.5zM348 176q50 -59 131 -59q110 0 175 107t65 268q0 126 -45 227h-6z" />
<glyph unicode="&#xf9;" horiz-adv-x="976" d="M123 389v602h176v-573q0 -289 174 -289q81 0 140 64t59 169v629h176v-719q0 -124 8 -272h-156l-10 133h-4q-98 -152 -270 -151q-140 0 -216.5 103.5t-76.5 303.5zM235 1395h185l168 -287h-121z" />
<glyph unicode="&#xfa;" horiz-adv-x="976" d="M123 389v602h176v-573q0 -289 174 -289q81 0 140 64t59 169v629h176v-719q0 -124 8 -272h-156l-10 133h-4q-98 -152 -270 -151q-140 0 -216.5 103.5t-76.5 303.5zM412 1108l168 287h184l-231 -287h-121z" />
<glyph unicode="&#xfb;" horiz-adv-x="976" d="M123 389v602h176v-573q0 -289 174 -289q81 0 140 64t59 169v629h176v-719q0 -124 8 -272h-156l-10 133h-4q-98 -152 -270 -151q-140 0 -216.5 103.5t-76.5 303.5zM257 1108l176 287h106l181 -287h-127l-105 184h-4l-104 -184h-123z" />
<glyph unicode="&#xfc;" horiz-adv-x="976" d="M123 389v602h176v-573q0 -289 174 -289q81 0 140 64t59 169v629h176v-719q0 -124 8 -272h-156l-10 133h-4q-98 -152 -270 -151q-140 0 -216.5 103.5t-76.5 303.5zM224 1237q0 43 28 71.5t70 28.5q40 0 67 -28.5t27 -71.5q0 -41 -26.5 -69.5t-67.5 -28.5q-42 0 -70 28.5 t-28 69.5zM570 1237q0 43 28 71.5t70 28.5q40 0 67 -28.5t27 -71.5q0 -41 -27 -69.5t-67 -28.5q-42 0 -70 28.5t-28 69.5z" />
<glyph unicode="&#xfd;" horiz-adv-x="843" d="M23 991h190q138 -455 173.5 -588.5t47.5 -185.5h4l205 774h182l-232 -723q-85 -262 -157 -402t-155 -211t-168 -97l-54 149q123 52 202 167t79 163q0 10 -10 41zM356 1108l168 287h184l-231 -287h-121z" />
<glyph unicode="&#xfe;" horiz-adv-x="997" d="M127 -399v1765h176v-514h4q84 158 268 158q153 0 251 -138.5t98 -367.5q0 -256 -111.5 -389t-263.5 -133q-161 0 -242 135h-4v-516h-176zM303 377q0 -90 55.5 -171t157.5 -81q105 0 167 102t62 273q0 157 -59.5 260.5t-167.5 103.5q-66 0 -121 -48.5t-74.5 -115.5 t-19.5 -104v-219z" />
<glyph unicode="&#xff;" horiz-adv-x="843" d="M23 991h190q138 -455 173.5 -588.5t47.5 -185.5h4l205 774h182l-232 -723q-85 -262 -157 -402t-155 -211t-168 -97l-54 149q123 52 202 167t79 163q0 10 -10 41zM168 1237q0 43 28 71.5t70 28.5q40 0 67 -28.5t27 -71.5q0 -41 -26.5 -69.5t-67.5 -28.5q-42 0 -70 28.5 t-28 69.5zM514 1237q0 43 28 71.5t70 28.5q40 0 67 -28.5t27 -71.5q0 -41 -27 -69.5t-67 -28.5q-42 0 -70 28.5t-28 69.5z" />
<glyph unicode="&#x131;" horiz-adv-x="434" d="M129 0v991h176v-991h-176z" />
<glyph unicode="&#x152;" horiz-adv-x="1546" d="M70 682q0 340 162 528.5t423 188.5q59 0 140.5 -9.5t91.5 -9.5h565v-149h-465v-436h438v-148h-438v-497h494v-150h-609q-16 0 -97 -9t-132 -9q-271 0 -422 191.5t-151 508.5zM254 690q0 -270 108.5 -415.5t301.5 -145.5q90 0 147 23v1073q-62 27 -162 26 q-177 0 -286 -148.5t-109 -412.5z" />
<glyph unicode="&#x153;" horiz-adv-x="1511" d="M72 492q0 238 115 378t292 140q108 0 192 -56t122 -159h4q97 215 309 215q162 0 251 -128t89 -325q0 -48 -4 -86h-565q1 -173 72.5 -262.5t203.5 -89.5q101 0 219 47l33 -123q-109 -61 -281 -61q-237 0 -331 217h-5q-42 -105 -128.5 -161t-192.5 -56q-175 0 -285 138 t-110 372zM250 494q0 -160 63 -268.5t168 -108.5q108 0 169 106t61 275q0 166 -60 271t-170 105q-112 0 -171.5 -107.5t-59.5 -272.5zM874 596h400q0 142 -51.5 212.5t-135.5 70.5q-88 0 -146 -78.5t-67 -204.5z" />
<glyph unicode="&#x178;" horiz-adv-x="962" d="M20 1380h195q239 -549 272 -657h5q35 115 272 657h192l-389 -792v-588h-176v582zM218 1610q0 42 27.5 71t68.5 29q40 0 67 -28.5t27 -71.5q0 -44 -26 -72.5t-68 -28.5q-41 0 -68.5 29t-27.5 72zM568 1610q0 42 27 71t67 29q41 0 69 -28.5t28 -71.5q0 -44 -26.5 -72.5 t-68.5 -28.5q-41 0 -68.5 29t-27.5 72z" />
<glyph unicode="&#x2c6;" horiz-adv-x="614" d="M76 1108l176 287h106l181 -287h-127l-105 184h-4l-104 -184h-123z" />
<glyph unicode="&#x2da;" horiz-adv-x="819" d="M211 1274q0 81 55 134.5t146 53.5q88 0 142 -52t54 -134q0 -77 -56 -129.5t-140 -52.5q-88 0 -144.5 51.5t-56.5 128.5zM313 1276q0 -42 28 -74.5t69 -32.5q45 0 72.5 31.5t27.5 77.5q0 47 -27 77.5t-73 30.5q-44 0 -70.5 -31.5t-26.5 -78.5z" />
<glyph unicode="&#x2dc;" horiz-adv-x="614" d="M72 1143q0 94 35.5 144t93.5 50q43 0 116 -41q66 -35 86 -34q48 0 54 81h86q0 -188 -131 -188q-45 0 -115 41q-59 35 -84 35q-45 0 -51 -88h-90z" />
<glyph unicode="&#x2000;" horiz-adv-x="876" />
<glyph unicode="&#x2001;" horiz-adv-x="1753" />
<glyph unicode="&#x2002;" horiz-adv-x="876" />
<glyph unicode="&#x2003;" horiz-adv-x="1753" />
<glyph unicode="&#x2004;" horiz-adv-x="583" />
<glyph unicode="&#x2005;" horiz-adv-x="438" />
<glyph unicode="&#x2006;" horiz-adv-x="291" />
<glyph unicode="&#x2007;" horiz-adv-x="291" />
<glyph unicode="&#x2008;" horiz-adv-x="219" />
<glyph unicode="&#x2009;" horiz-adv-x="350" />
<glyph unicode="&#x200a;" horiz-adv-x="97" />
<glyph unicode="&#x2010;" horiz-adv-x="600" d="M61 479v131h478v-131h-478z" />
<glyph unicode="&#x2011;" horiz-adv-x="600" d="M61 479v131h478v-131h-478z" />
<glyph unicode="&#x2012;" horiz-adv-x="600" d="M61 479v131h478v-131h-478z" />
<glyph unicode="&#x2013;" horiz-adv-x="1024" d="M61 465v123h902v-123h-902z" />
<glyph unicode="&#x2014;" horiz-adv-x="2048" d="M61 465v123h1926v-123h-1926z" />
<glyph unicode="&#x2018;" horiz-adv-x="397" d="M57 913q81 281 191 482l108 14q-80 -225 -120 -475z" />
<glyph unicode="&#x2019;" horiz-adv-x="397" d="M53 913q80 225 121 476l178 20q-80 -276 -190 -483z" />
<glyph unicode="&#x201a;" horiz-adv-x="397" d="M41 -242q80 225 121 475l178 21q-81 -281 -190 -481z" />
<glyph unicode="&#x201c;" horiz-adv-x="686" d="M53 913q83 288 193 482l106 14q-83 -245 -121 -475zM346 913q85 295 191 482l108 14q-80 -225 -121 -475z" />
<glyph unicode="&#x201d;" horiz-adv-x="686" d="M51 913q80 225 121 476l178 20q-84 -291 -190 -483zM344 913q83 245 121 476l178 20q-82 -284 -192 -483z" />
<glyph unicode="&#x201e;" horiz-adv-x="688" d="M39 -242q80 225 121 475l178 21q-85 -295 -191 -481zM332 -242q83 245 121 475l178 21q-83 -288 -193 -481z" />
<glyph unicode="&#x2022;" horiz-adv-x="557" d="M72 702q0 88 60.5 148.5t146.5 60.5q88 0 148 -60t60 -149q0 -88 -60 -148t-148 -60q-87 0 -147 59.5t-60 148.5z" />
<glyph unicode="&#x2026;" horiz-adv-x="2048" d="M225 109q0 56 34 92.5t83 36.5q52 0 84.5 -35.5t32.5 -93.5q0 -56 -32.5 -91.5t-84.5 -35.5q-50 0 -83.5 36t-33.5 91zM905 109q0 56 34 92.5t83 36.5q52 0 84.5 -35.5t32.5 -93.5q0 -56 -32.5 -91.5t-84.5 -35.5q-50 0 -83.5 36t-33.5 91zM1585 109q0 56 33.5 92.5 t83.5 36.5q52 0 84.5 -35.5t32.5 -93.5q0 -56 -32.5 -91.5t-84.5 -35.5q-50 0 -83.5 36t-33.5 91z" />
<glyph unicode="&#x202f;" horiz-adv-x="350" />
<glyph unicode="&#x2039;" horiz-adv-x="479" d="M53 516l240 369h141l-241 -369l241 -366h-141z" />
<glyph unicode="&#x203a;" horiz-adv-x="479" d="M43 150l242 366l-242 369h139l242 -369l-240 -366h-141z" />
<glyph unicode="&#x2044;" horiz-adv-x="784" d="M-31 -18l738 1368h110l-737 -1368h-111z" />
<glyph unicode="&#x205f;" horiz-adv-x="438" />
<glyph unicode="&#x2122;" horiz-adv-x="1501" d="M33 1278v102h540v-102h-211v-713h-118v713h-211zM608 565l60 815h157l148 -466q8 -28 45 -175h4q9 59 195 641h149l64 -815h-119q-34 518 -34 569l-1 132h-4q-26 -111 -219 -693h-86l-128 411q-28 87 -77 282h-6l-33 -701h-115z" />
<glyph unicode="&#xe000;" horiz-adv-x="990" d="M0 990h990v-990h-990v990z" />
<glyph unicode="&#xf001;" horiz-adv-x="972" d="M25 858v133h131v60q0 183 105.5 293t295.5 110q135 0 225 -55l-43 -135q-84 47 -186 47q-221 0 -221 -271v-49h512v-991h-176v858h-336v-858h-176v858h-131z" />
<glyph unicode="&#xf002;" horiz-adv-x="972" d="M25 858v133h131v47q0 184 105.5 300t311.5 116q154 0 273 -59v-1395h-176v1290q-50 25 -127 25q-103 0 -157 -70t-54 -198v-56h198v-133h-198v-858h-176v858h-131z" />
<glyph unicode="&#xf003;" horiz-adv-x="616" d="M12 756v78l344 516h144v-494h108v-100h-108v-213h-131v213h-357zM147 860l3 -4h219v219q0 70 8 139h-6q-56 -109 -66 -121z" />
<glyph unicode="&#xf100;" horiz-adv-x="614" d="M106 1485l197 237h205l-264 -237h-138z" />
<glyph unicode="&#xf101;" horiz-adv-x="614" d="M37 1610q0 42 27.5 71t68.5 29q40 0 67 -28.5t27 -71.5q0 -44 -26 -72.5t-68 -28.5q-41 0 -68.5 29t-27.5 72zM387 1610q0 42 27 71t67 29q41 0 69 -28.5t28 -71.5q0 -44 -26.5 -72.5t-68.5 -28.5q-41 0 -68.5 29t-27.5 72z" />
<glyph unicode="&#xf102;" horiz-adv-x="614" d="M53 1485l191 237h123l194 -237h-141l-111 149h-4l-112 -149h-140z" />
<glyph unicode="&#xf103;" horiz-adv-x="614" d="M70 1489q0 103 36.5 148.5t92.5 45.5q46 0 112 -38q59 -37 90 -37q29 0 41 20t15 60h90q0 -188 -135 -189q-50 0 -113 37q-62 37 -86 37q-42 0 -51 -84h-92z" />
<glyph unicode="&#xf112;" horiz-adv-x="615" d="M109 1722h200l199 -235h-135z" />
<glyph unicode="&#xfb01;" horiz-adv-x="972" d="M25 858v133h131v60q0 183 105.5 293t295.5 110q135 0 225 -55l-43 -135q-84 47 -186 47q-221 0 -221 -271v-49h512v-991h-176v858h-336v-858h-176v858h-131z" />
<glyph unicode="&#xfb02;" horiz-adv-x="972" d="M25 858v133h131v47q0 184 105.5 300t311.5 116q154 0 273 -59v-1395h-176v1290q-50 25 -127 25q-103 0 -157 -70t-54 -198v-56h198v-133h-198v-858h-176v858h-131z" />
<glyph unicode="&#xfb03;" horiz-adv-x="1515" d="M1185 1282q0 50 32 83.5t79 33.5q50 0 81.5 -33t31.5 -84q0 -52 -31 -84.5t-82 -32.5q-48 0 -79.5 33t-31.5 84zM1210 0v991h176v-991h-176zM566 858v133h131v53q0 139 41.5 230.5t116 135.5t165.5 44q80 0 142 -27l-25 -135q-44 18 -100 19q-164 0 -164 -262v-58h209 v-133h-209v-858h-176v858h-131zM25 858v133h131v53q0 139 41.5 230.5t116 135.5t165.5 44q80 0 142 -27l-25 -135q-44 18 -100 19q-164 0 -164 -262v-58h209v-133h-209v-858h-176v858h-131z" />
<glyph unicode="&#xfb04;" horiz-adv-x="1515" d="M1210 0v1436h176v-1436h-176zM566 858v133h131v53q0 139 41.5 230.5t116 135.5t165.5 44q80 0 142 -27l-25 -135q-44 18 -100 19q-164 0 -164 -262v-58h209v-133h-209v-858h-176v858h-131zM25 858v133h131v53q0 139 41.5 230.5t116 135.5t165.5 44q80 0 142 -27l-25 -135 q-44 18 -100 19q-164 0 -164 -262v-58h209v-133h-209v-858h-176v858h-131z" />
</font>
</defs>
</svg>
