<?xml version="1.0" standalone="no"?>
<!DOCTYPE svg PUBLIC "-//W3C//DTD SVG 1.1//EN" "http://www.w3.org/Graphics/SVG/1.1/DTD/svg11.dtd" >
<svg xmlns="http://www.w3.org/2000/svg">
<metadata>
<json>
<![CDATA[
{
	"fontFamily": "festo_icons-24",
	"majorVersion": 1,
	"minorVersion": 0,
	"designer": "Goldschnitt Interaktion",
	"copyright": "c 2020 Festo AG & Co. KG",
	"description": "Festo Icon Font 24 px | Version 3\nFont generated by IcoMoon.",
	"designerURL": "https://www.goldschnitt.net",
	"fontURL": "https://www.festo.com",
	"version": "Version 1.0",
	"fontId": "festo_icons-24",
	"psName": "festo_icons-24",
	"subFamily": "Regular",
	"fullName": "festo_icons-24"
}
]]>
</json>
</metadata>
<defs>
<font id="festo_icons-24" horiz-adv-x="512">
<font-face units-per-em="512" ascent="496" descent="-16" />
<missing-glyph horiz-adv-x="512" />
<glyph unicode="&#x20;" horiz-adv-x="256" d="" />
<glyph unicode="&#xe900;" glyph-name="arrows-collapse" data-tags="arrows-collapse" d="M120.234 294.997l135.766-135.765 135.765 135.765-15.082 15.104-120.683-120.683-120.683 120.683-15.082-15.104z" />
<glyph unicode="&#xe901;" glyph-name="arrows-down" data-tags="arrows-down" d="M234.667 362.667v-203.424l-79.843 79.841-15.086-15.082 105.595-105.594 105.595 105.594-15.086 15.082-79.843-79.84v203.424z" />
<glyph unicode="&#xe902;" glyph-name="arrows-exchanged_energy" data-tags="arrows-exchanged_energy" d="M469.334 426.667h-128v-128l52.823 52.823c26.851-31.37 43.193-72.43 43.193-117.306 0-87.272-61.802-160.108-144.028-177.132l-1.171-0.203c-10.656-2.192-22.901-3.447-35.441-3.447-15.395 0-30.35 1.892-44.642 5.455l1.266-0.267v-32.836c12.963-2.807 27.855-4.414 43.122-4.414 108.537 0 198.1 81.237 211.202 186.225l0.106 1.041c1.014 7.789 1.594 16.798 1.594 25.942 0 53.6-19.897 102.553-52.709 139.875l0.204-0.237zM298.666 443.578c-12.964 2.806-27.856 4.414-43.124 4.414-108.537 0-198.1-81.237-211.202-186.225l-0.106-1.041c-1.014-7.79-1.594-16.799-1.594-25.942 0-53.6 19.898-102.553 52.709-139.875l-0.204 0.237-52.48-52.48h128v128l-52.823-52.823c-26.85 31.37-43.192 72.429-43.192 117.305 0 87.271 61.802 160.107 144.028 177.131l1.172 0.202c10.655 2.192 22.902 3.447 35.441 3.447 15.395 0 30.35-1.891 44.641-5.455l-1.267 0.267zM320 256h-48l32 74.688-112-117.354h48l-32-74.666 112 117.333z" />
<glyph unicode="&#xe903;" glyph-name="arrows-expand" data-tags="arrows-expand" d="M391.765 217.003l-135.766 135.765-135.766-135.765 15.083-15.104 120.683 120.683 120.683-120.683 15.082 15.104z" />
<glyph unicode="&#xe904;" glyph-name="arrows-left_2" data-tags="arrows-left_2" d="M316.33 370.432l-135.766-135.765 135.766-135.765 15.104 15.082-120.683 120.683 120.683 120.682-15.104 15.083z" />
<glyph unicode="&#xe905;" glyph-name="arrows-left" data-tags="arrows-left" d="M384 256h-203.424l79.84 79.843-15.083 15.086-105.594-105.595 105.594-105.595 15.083 15.086-79.841 79.842h203.425z" />
<glyph unicode="&#xe906;" glyph-name="arrows-refresh" data-tags="arrows-refresh" d="M256 448c53.555-0.024 102.461-19.908 139.758-52.685l-0.238 0.205 52.48 52.48v-128h-128l52.823 52.823c-31.315 26.577-72.197 42.739-116.853 42.739-100.026 0-181.114-81.088-181.114-181.114s81.088-181.114 181.114-181.114c50.075 0 95.404 20.322 128.189 53.169l0.003 0.003 22.687-22.687c-38.606-38.606-91.94-62.486-150.851-62.486-117.82 0-213.333 95.512-213.333 213.333s95.513 213.334 213.333 213.334c0.001 0 0.002 0 0.003 0v0z" />
<glyph unicode="&#xe907;" glyph-name="arrows-reinitialize" data-tags="arrows-reinitialize" d="M211.507 91.107l-39.816-40.83c-70.999 28.744-121.546 94.223-128.317 172.234l-0.053 0.767h-43.319l67.077 67.077 67.078-67.077h-39.446c7.517-64.771 54.365-116.805 115.742-131.95l1.055-0.22zM444.923 178.978l-67.078 67.077h39.445c-7.517 64.771-54.365 116.806-115.743 131.95l-1.055 0.22 40.372 40.623c70.712-28.87 121.013-94.216 127.764-172.026l0.053-0.767h43.319zM244.611 490.667l67.077-67.078-67.077-67.078v39.445c-64.771-7.517-116.805-54.365-131.95-115.743l-0.22-1.055-40.779 39.954c28.775 70.928 94.221 121.414 172.182 128.181l0.768 0.054v43.32zM399.526 190.071l40.551-40.551c-28.935-70.566-94.212-120.74-171.921-127.48l-0.767-0.053v-43.32l-67.077 67.078 67.077 67.078v-39.445c64.731 7.515 116.74 54.314 131.916 115.638l0.221 1.055z" />
<glyph unicode="&#xe908;" glyph-name="arrows-reset" data-tags="arrows-reset" d="M256 448c-53.554-0.024-102.461-19.908-139.758-52.685l0.238 0.205-52.48 52.48v-128h128l-52.823 52.823c31.316 26.577 72.197 42.739 116.853 42.739 100.026 0 181.114-81.088 181.114-181.114s-81.087-181.114-181.114-181.114c-50.076 0-95.404 20.322-128.189 53.169l-0.003 0.003-22.686-22.687c38.606-38.606 91.94-62.486 150.851-62.486 117.82 0 213.334 95.512 213.334 213.333s-95.512 213.334-213.333 213.334c-0.001 0-0.002 0-0.003 0v0z" />
<glyph unicode="&#xe909;" glyph-name="arrows-restart" data-tags="arrows-restart" d="M256 448v-32c0.466 0.004 1.017 0.006 1.568 0.006 101.017 0 182.909-81.891 182.909-182.909s-81.891-182.909-182.909-182.909c-101.017 0-182.909 81.891-182.909 182.909 0 55.818 25.004 105.797 64.421 139.347l0.258 0.215 52.66-52.66v128h-128l52.286-52.286c-45.036-39.297-73.332-96.796-73.332-160.903 0-117.742 95.448-213.19 213.19-213.19s213.19 95.448 213.19 213.19c0 117.741-95.448 213.19-213.19 213.19-0.050 0-0.101 0-0.151 0h0.008z" />
<glyph unicode="&#xe90a;" glyph-name="arrows-right_2" data-tags="arrows-right_2" d="M195.669 98.901l135.766 135.765-135.766 135.766-15.104-15.083 120.683-120.683-120.683-120.683 15.104-15.082z" />
<glyph unicode="&#xe90b;" glyph-name="arrows-right" data-tags="arrows-right" d="M128 234.667h203.424l-79.841-79.842 15.082-15.086 105.594 105.595-105.594 105.595-15.083-15.086 79.84-79.843h-203.424z" />
<glyph unicode="&#xe90c;" glyph-name="arrows-scale_down" data-tags="arrows-scale_down" d="M458.346 376.683l-60.331 60.33-76.182-76.181-44.502 44.501v-149.333h149.334l-44.502 44.501 76.181 76.182zM129.834 168.832l-76.416-75.648 60.053-60.651 76.694 75.968 44.501-44.502v149.334h-149.333l44.501-44.502z" />
<glyph unicode="&#xe90d;" glyph-name="arrows-scale_up" data-tags="arrows-scale_up" d="M266.986 305.984l60.331-60.33 76.182 76.181 44.502-44.501v149.334h-149.334l44.502-44.502-76.181-76.182zM168.832 87.168l76.416 75.648-60.053 60.651-76.694-75.968-44.502 44.502v-149.334h149.333l-44.501 44.502z" />
<glyph unicode="&#xe90e;" glyph-name="arrows-up" data-tags="arrows-up" d="M277.334 128v203.424l79.843-79.84 15.086 15.083-105.595 105.594-105.595-105.594 15.086-15.083 79.843 79.84v-203.424z" />
<glyph unicode="&#xe90f;" glyph-name="arrows-update" data-tags="arrows-update" d="M469.334 426.667h-128v-128l52.823 52.823c26.851-31.37 43.193-72.43 43.193-117.306 0-87.272-61.802-160.108-144.028-177.132l-1.171-0.203c-10.656-2.192-22.901-3.447-35.441-3.447-15.395 0-30.35 1.892-44.642 5.455l1.266-0.267v-32.836c12.963-2.807 27.855-4.414 43.122-4.414 108.537 0 198.1 81.237 211.202 186.225l0.106 1.041c1.014 7.789 1.594 16.798 1.594 25.942 0 53.6-19.897 102.553-52.709 139.875l0.204-0.237zM298.666 443.578c-12.964 2.806-27.856 4.414-43.124 4.414-108.537 0-198.1-81.237-211.202-186.225l-0.106-1.041c-1.014-7.79-1.594-16.799-1.594-25.942 0-53.6 19.898-102.553 52.709-139.875l-0.204 0.237-52.48-52.48h128v128l-52.823-52.823c-26.85 31.37-43.192 72.429-43.192 117.305 0 87.271 61.802 160.107 144.028 177.131l1.172 0.202c10.655 2.192 22.902 3.447 35.441 3.447 15.395 0 30.35-1.891 44.641-5.455l-1.267 0.267z" />
<glyph unicode="&#xe910;" glyph-name="cable-adaptor" data-tags="cable-adaptor" d="M106.666 405.333h149.334v-42.667h-149.333v42.667zM362.666 256v-106.666c0-47.128-38.205-85.334-85.334-85.334s-85.334 38.205-85.334 85.334v0 42.666h21.334v21.334h64v128h-192v-128h64v-21.334h21.334v-42.666c0-58.911 47.757-106.666 106.666-106.666s106.666 47.757 106.666 106.666v0 106.666c0.055 47.106 38.228 85.278 85.328 85.334h0.005v21.333c-58.882-0.072-106.596-47.785-106.666-106.66v-0.007z" />
<glyph unicode="&#xe911;" glyph-name="cable-connector" data-tags="cable-connector" d="M279.786 405.333l-104.192-149.333h-132.928v-42.666h132.928l104.192-149.333h125.546v341.334h-125.546zM426.666 362.667h42.666v-256h-42.666v256z" />
<glyph unicode="&#xe912;" glyph-name="cable-monitor_adaptor" data-tags="cable-monitor_adaptor" d="M85.334 405.333h149.333v-42.667h-149.333v42.667zM341.334 256v-106.666c0-47.128-38.205-85.334-85.334-85.334s-85.334 38.205-85.334 85.334v0 42.666h21.334v21.334h21.334v-42.666h21.334v42.666h21.334v128h-192v-128h21.334v-42.666h21.334v42.666h21.333v-21.334h21.334v-42.666c0-58.911 47.757-106.666 106.666-106.666s106.666 47.757 106.666 106.666v0 106.666c0.055 47.106 38.228 85.278 85.328 85.334h0.005v21.333c-58.882-0.072-106.596-47.785-106.666-106.66v-0.007zM106.666 320h106.666v-21.334h-106.666zM106.666 256v21.334h106.666v-21.334z" />
<glyph unicode="&#xe913;" glyph-name="cable-plug" data-tags="cable-plug" d="M256 298.667v-85.333c0-11.782 9.551-21.334 21.334-21.334v0h21.334v-42.666h21.334c-0.024-23.555-19.113-42.642-42.664-42.666h-21.336c-23.554 0.024-42.642 19.113-42.666 42.664v192.002c0 35.346-28.654 64-64 64s-64-28.654-64-64v0-256h21.334v256c0 23.564 19.103 42.666 42.666 42.666s42.666-19.103 42.666-42.666v0-192c0.040-35.33 28.669-63.96 63.996-64h21.337c35.33 0.040 63.96 28.67 64 63.996v0.004h21.334v42.666h21.334c11.782 0 21.334 9.551 21.334 21.334v0 85.333zM277.334 384h21.334v-64h-21.334v64zM362.666 384h21.334v-64h-21.334v64z" />
<glyph unicode="&#xe914;" glyph-name="cable-usb_adaptor" data-tags="cable-usb_adaptor" d="M149.333 426.667h64v-64h-64v64zM320 341.333h64v-21.333h-64v21.333zM320 298.667v-85.333h21.334v-85.334c0-41.238-33.43-74.666-74.666-74.666s-74.666 33.43-74.666 74.666v0 42.666h21.334v42.666h21.334v128h-106.666v-128h21.334v-42.666h21.334v-42.666c0-53.019 42.981-96 96-96s96 42.981 96 96v0 85.334h21.334v85.333zM149.333 256h64v-21.333h-64z" />
<glyph unicode="&#xe915;" glyph-name="cable-usb_plug" data-tags="cable-usb_plug" d="M256 298.667v-85.333c0-11.782 9.551-21.334 21.334-21.334v0h21.334v-42.666h21.334c-0.024-23.555-19.113-42.642-42.664-42.666h-21.336c-23.554 0.024-42.642 19.113-42.666 42.664v192.002c0 35.346-28.654 64-64 64s-64-28.654-64-64v0-256h21.334v256c0 23.564 19.103 42.666 42.666 42.666s42.666-19.103 42.666-42.666v0-192c0.040-35.33 28.669-63.96 63.996-64h21.337c35.33 0.040 63.96 28.67 64 63.996v0.004h21.334v42.666h21.334c11.782 0 21.334 9.551 21.334 21.334v0 85.333zM384 320v106.666h-106.666v-106.666zM341.334 384h21.334v-21.334h-21.334zM298.666 384h21.334v-21.334h-21.334z" />
<glyph unicode="&#xe916;" glyph-name="cable-wiring_2" data-tags="cable-wiring_2" d="M42.666 320v-106.666h42.666v-85.334h21.334v-106.666h42.666v106.666h21.333v85.334h42.666v106.666h-170.667zM42.666 384h42.666v-42.667h-42.666v42.667zM106.666 384h42.666v-42.667h-42.666v42.667zM42.666 448h170.667v-42.667h-170.667v42.667zM170.667 384h42.667v-42.667h-42.666v42.667zM341.32 85.333h64v-64h-64v64zM469.32 352c0.002 0.203 0.002 0.444 0.002 0.684 0 53.020-42.981 96.002-96.002 96.002s-96.002-42.982-96.002-96.002c0-22.95 8.053-44.019 21.488-60.536l-0.139 0.176-0.013 0.015v-79.006h42.666v-106.666h64v106.666h42.666v79.006l-0.013-0.015c13.217 16.137 21.258 36.958 21.346 59.656v0.019zM373.334 277.333c-41.238 0-74.666 33.429-74.666 74.667s33.43 74.666 74.666 74.666c41.238 0 74.666-33.43 74.666-74.666v0c0-41.238-33.43-74.667-74.666-74.667v0zM426.666 352c0-29.455-23.878-53.334-53.334-53.334s-53.334 23.878-53.334 53.334c0 29.455 23.878 53.333 53.334 53.333s53.334-23.878 53.334-53.333z" />
<glyph unicode="&#xe917;" glyph-name="cable-wiring" data-tags="cable-wiring" d="M213.321 85.333h64v-64h-64v64zM341.32 352c0.002 0.203 0.002 0.444 0.002 0.684 0 53.020-42.981 96.002-96.002 96.002s-96.002-42.982-96.002-96.002c0-22.95 8.053-44.019 21.488-60.536l-0.138 0.176-0.013 0.015v-79.006h42.666v-106.666h64v106.666h42.666v79.006l-0.013-0.015c13.217 16.137 21.258 36.958 21.346 59.656v0.019zM245.333 277.333c-41.237 0-74.667 33.429-74.667 74.667s33.429 74.666 74.666 74.666c41.238 0 74.666-33.43 74.666-74.666v0c0-41.238-33.43-74.667-74.666-74.667v0zM298.666 352c0-29.455-23.878-53.334-53.334-53.334s-53.334 23.878-53.334 53.334c0 29.455 23.878 53.333 53.334 53.333s53.334-23.878 53.334-53.333z" />
<glyph unicode="&#xe918;" glyph-name="communication-communication" data-tags="communication-communication" d="M213.333 298.667v-192h170.667l64-64v64h64v192h-298.666zM192 320h106.666v106.666h-298.666v-192h64v-64l64 64h64v85.334z" />
<glyph unicode="&#xe919;" glyph-name="communication-emergency_hotline" data-tags="communication-emergency_hotline" d="M405.979 385.85c-38.491 38.404-91.619 62.151-150.293 62.151s-111.803-23.748-150.298-62.155l0.004 0.004 22.626-22.625c32.673 32.673 77.81 52.882 127.668 52.882 99.715 0 180.55-80.835 180.55-180.55 0-49.858-20.209-94.995-52.882-127.668v0l22.625-22.625c38.407 38.489 62.156 91.618 62.156 150.293s-23.75 111.803-62.16 150.296l0.003-0.003zM251.477 84.053l-144.81 145.28 48 48-64 64-48-48v-96l176-176h96l48 48-64 64-47.19-49.28zM341.334 277.333h-21.334v42.667h-21.334v-64h42.666v-42.666h21.334v106.666h-21.334v-42.667zM213.333 234.667h-21.333v-21.334h85.334v21.334h-42.666v21.334h-21.334v-21.334zM234.667 277.333h21.333v-21.333h-21.334v21.333zM256 298.667h21.334v-21.333h-21.334v21.333zM192 320h64v-21.334h-64v21.334z" />
<glyph unicode="&#xe91a;" glyph-name="communication-headset" data-tags="communication-headset" d="M245.333 128h42.667c17.673 0 32-14.327 32-32s-14.327-32-32-32h-42.666c-17.673 0-32 14.327-32 32s14.327 32 32 32zM384 298.667h-0.541c-5.639 71.841-65.324 128.001-138.125 128.001s-132.486-56.16-138.095-127.521l-0.031-0.48h-0.541c-29.455 0-53.334-23.878-53.334-53.333s23.878-53.333 53.334-53.333v0h0.927c4.304-52.745 37.461-96.816 83.505-116.713l0.901-0.346v23.633c-38.203 19.741-63.892 58.905-64 104.079v85.349c0 64.801 52.532 117.333 117.334 117.333s117.334-52.532 117.334-117.333v0-96h21.334c29.455 0 53.334 23.878 53.334 53.333s-23.878 53.334-53.334 53.334v0z" />
<glyph unicode="&#xe91b;" glyph-name="communication-infoportal" data-tags="communication-infoportal" d="M469.334 106.667v320h-426.666v-320h170.667v-21.334h-42.667v-42.666h170.667v42.666h-42.666v21.334zM234.667 320.001v42.665h42.667v-42.666h-42.666zM234.667 298.667h42.667v-128h-42.666z" />
<glyph unicode="&#xe91c;" glyph-name="communication-message_number" data-tags="communication-message_number" d="M42.666 405.333v-277.334h64v-85.334l85.334 85.334h277.334v277.334zM149.333 277.333h128v-21.333h-128zM106.666 192h-21.334v21.334h21.334zM106.666 256h-21.334v21.334h21.334zM106.666 320h-21.334v21.334h21.334zM384 192h-234.667v21.334h234.667zM426.666 320h-277.334v21.334h277.334z" />
<glyph unicode="&#xe91d;" glyph-name="communication-message" data-tags="communication-message" d="M64 362.667l192-117.333 192 117.333h-384zM278.25 208.917l-22.25-13.589-213.333 130.368v-240.362h426.666v240.362l-191.082-116.778z" />
<glyph unicode="&#xe91e;" glyph-name="communication-notification" data-tags="communication-notification" d="M245.333 26.127c24.512 0.051 45.364 15.662 53.21 37.478l0.124 0.395h-106.666c7.969-22.212 28.822-37.822 53.327-37.873h0.006zM106.666 192l-42.666-85.334h362.666l-42.666 85.334v106.666c-0.021 62.529-41.428 115.383-98.316 132.657l-0.983 0.256c-0.92 21.031-18.193 37.733-39.368 37.733s-38.447-16.701-39.364-37.65l-0.003-0.083c-57.871-17.529-99.28-70.382-99.3-132.91v-0.003z" />
<glyph unicode="&#xe91f;" glyph-name="communication-tooltip" data-tags="communication-tooltip" d="M42.666 405.333v-298.666h149.334l64-64 64 64h149.333v298.666zM234.667 341.333h42.667v-106.666h-42.666zM234.667 213.335h42.667v-42.668h-42.666z" />
<glyph unicode="&#xe920;" glyph-name="documents-add_bookmark" data-tags="documents-add_bookmark" d="M405.334 128v64h-21.334v-64h-64v-21.334h64v-64h21.334v64h64v21.334h-64zM85.334 341.333v-298.666l96 85.334 96-85.334v298.666h-192zM85.334 426.667h192v-64h-192v64z" />
<glyph unicode="&#xe921;" glyph-name="documents-bill_of_material" data-tags="documents-bill_of_material" d="M341.334 405.333v-85.334h85.334l-85.334 85.334zM320 405.333h-170.667v-384h277.334v277.333h-106.666zM213.333 85.333h-21.333v21.334h21.334zM213.333 149.333h-21.333v21.334h21.334zM384 85.333h-149.333v21.334h149.333zM384 149.333h-149.333v21.334h149.333zM384 213.333h-149.333v21.334h149.333zM213.333 234.667v-21.334h-21.333v21.334zM320 448h-21.334l-21.334 21.333h-64l-21.334-21.333h-85.334v-384h21.334v362.666h192v21.334z" />
<glyph unicode="&#xe922;" glyph-name="documents-bookmark" data-tags="documents-bookmark" d="M149.333 341.333v-298.666l96 85.334 96-85.334v298.666h-192zM149.333 426.667h192v-64h-192v64z" />
<glyph unicode="&#xe923;" glyph-name="documents-CAD" data-tags="documents-CAD" d="M320 64h-234.667v234.666h21.334v-213.333h213.334v-21.334zM320 320h-234.667l85.333 85.334h234.666l-85.334-85.334zM426.666 149.333v234.666l-85.334-85.334v-234.666l85.334 85.334z" />
<glyph unicode="&#xe924;" glyph-name="documents-certificate" data-tags="documents-certificate" d="M384 224c0-29.455-23.878-53.334-53.334-53.334s-53.334 23.878-53.334 53.334c0 29.455 23.878 53.333 53.334 53.333s53.334-23.878 53.334-53.333zM330.666 149.333c-0.006 0-0.012 0-0.019 0-20.31 0-38.718 8.144-52.137 21.343l0.010-0.010h-1.188v-106.666l53.334 64 53.334-64v106.666h-1.188c-13.409-13.19-31.817-21.334-52.127-21.334-0.007 0-0.014 0-0.021 0h0.001zM42.666 426.667v-256h235.854c-13.901 13.573-22.521 32.5-22.521 53.441 0 41.238 33.43 74.666 74.666 74.666s74.666-33.43 74.666-74.666c0-20.94-8.62-39.868-22.506-53.426l-0.014-0.014h65.188v256zM234.667 234.667h-149.333v21.334h149.333zM234.667 277.333h-149.333v21.333h149.333zM298.666 362.667h-213.333v21.334h213.333z" />
<glyph unicode="&#xe925;" glyph-name="documents-datasheet" data-tags="documents-datasheet" d="M298.666 426.667v-85.334h85.334l-85.334 85.333zM277.334 426.667h-170.667v-384h277.333v277.334h-106.666zM192 106.667h-64v21.334h64zM192 170.667h-64v21.334h64zM277.334 106.667h-64v21.334h64zM277.334 170.667h-64v21.334h64zM362.666 106.667h-64v21.334h64zM362.666 170.667h-64v21.334h64zM362.666 256v-21.333h-234.667v21.334z" />
<glyph unicode="&#xe926;" glyph-name="documents-delete_bookmark" data-tags="documents-delete_bookmark" d="M409.75 117.333l45.248 45.248-15.082 15.082-45.248-45.248-45.248 45.248-15.082-15.082 45.248-45.248-45.248-45.248 15.082-15.082 45.248 45.248 45.248-45.248 15.082 15.082-45.248 45.248zM85.334 341.333v-298.666l96 85.334 96-85.334v298.666h-192zM85.334 426.667h192v-64h-192v64z" />
<glyph unicode="&#xe927;" glyph-name="documents-doc_bmp" data-tags="documents-doc_bmp" d="M362.666 341.333v128h-192v-256h320v128h-128zM384 469.333v-106.667h106.666l-106.666 106.667zM128 128h42.666v-21.334h-42.666v21.334zM128 85.333h42.666v-21.334h-42.666v21.334zM362.666 128h21.334v-21.334h-21.334v21.334zM21.334 192v-192h469.334v192zM192 106.667h-21.334v-21.334h21.334v-21.334h-21.334v-21.334h-64v106.666h64v-21.334h21.334zM320 42.667h-21.334v85.334h-21.334v-42.666h-21.334v42.666h-21.334v-85.334h-21.334v106.666h42.666v-21.334h21.334v21.334h42.666zM405.334 106.667h-21.334v-21.334h-21.334v-42.666h-21.334v106.666h42.666v-21.334h21.334z" />
<glyph unicode="&#xe928;" glyph-name="documents-doc_csv" data-tags="documents-doc_csv" d="M21.334 192v-192h469.334v192zM213.333 106.667h-21.333v21.334h-42.666v-64h42.666v21.334h21.334v-21.334h-21.334v-21.334h-42.666v21.334h-21.334v64h21.334v21.334h42.666v-21.334h21.334zM298.666 128h-42.666v-21.334h21.334v-21.334h21.334v-21.334h-21.334v-21.334h-42.666v21.334h42.666v21.334h-21.334v21.334h-21.334v21.334h21.334v21.334h42.666zM384 64h-21.334v-21.334h-21.334v21.334h-21.334v85.334h21.334v-85.334h21.334v85.334h21.334zM362.666 341.333v128h-192v-256h320v128h-128zM384 469.333v-106.667h106.666l-106.666 106.667z" />
<glyph unicode="&#xe929;" glyph-name="documents-doc_doc" data-tags="documents-doc_doc" d="M234.667 128h42.667v-64h-42.666v64zM128 128h42.666v-64h-42.666v64zM21.334 192v-192h469.334v192zM192 64h-21.334v-21.334h-64v106.666h64v-21.334h21.334zM298.666 64h-21.334v-21.334h-42.666v21.334h-21.334v64h21.334v21.334h42.666v-21.334h21.334zM405.334 106.667h-21.334v21.334h-42.666v-64h42.666v21.334h21.334v-21.334h-21.334v-21.334h-42.666v21.334h-21.334v64h21.334v21.334h42.666v-21.334h21.334zM362.666 341.333v128h-192v-256h320v128h-128zM384 469.333v-106.667h106.666l-106.666 106.667z" />
<glyph unicode="&#xe92a;" glyph-name="documents-doc_docx" data-tags="documents-doc_docx" d="M192 128h42.666v-64h-42.666v64zM85.334 128h42.666v-64h-42.666v64zM21.334 192v-192h469.334v192zM149.333 64h-21.334v-21.334h-64v106.666h64v-21.334h21.334zM256 64h-21.334v-21.334h-42.666v21.334h-21.334v64h21.334v21.334h42.666v-21.334h21.334zM362.666 106.667h-21.334v21.334h-42.666v-64h42.666v21.334h21.334v-21.334h-21.334v-21.334h-42.666v21.334h-21.334v64h21.334v21.334h42.666v-21.334h21.334zM448 106.667h-21.334v-21.334h21.334v-42.666h-21.334v21.334h-21.334v-21.334h-21.334v42.666h21.334v21.334h-21.334v42.666h21.334v-21.334h21.334v21.334h21.334zM362.666 341.333v128h-192v-256h320v128h-128zM384 469.333v-106.667h106.666l-106.666 106.667z" />
<glyph unicode="&#xe92b;" glyph-name="documents-doc_eps" data-tags="documents-doc_eps" d="M362.666 341.333v128h-192v-256h320v128h-128zM384 469.333v-106.667h106.666l-106.666 106.667zM256 128h21.334v-21.334h-21.334v21.334zM21.334 192v-192h469.334v192zM213.333 128h-42.667v-21.334h21.334v-21.334h-21.334v-21.334h42.666v-21.334h-64v106.666h64zM298.666 106.667h-21.334v-21.334h-21.334v-42.666h-21.334v106.666h42.666v-21.334h21.334zM384 128h-42.666v-21.334h21.334v-21.334h21.334v-21.334h-21.334v-21.334h-42.666v21.334h42.666v21.334h-21.334v21.334h-21.334v21.334h21.334v21.334h42.666z" />
<glyph unicode="&#xe92c;" glyph-name="documents-doc_fa" data-tags="documents-doc_fa" d="M362.666 341.333v128h-192v-256h320v128h-128zM384 469.333v-106.667h106.666l-106.666 106.667zM277.334 128h21.334v-42.666h-21.334v42.666zM21.334 192v-192h469.334v192zM234.667 128h-42.667v-21.334h21.334v-21.334h-21.334v-42.666h-21.334v106.666h64zM320 42.667h-21.334v21.334h-21.334v-21.334h-21.334v85.334h21.334v21.334h21.334v-21.334h21.334z" />
<glyph unicode="&#xe92d;" glyph-name="documents-doc_gif" data-tags="documents-doc_gif" d="M362.666 341.333v128h-192v-256h320v128h-128zM384 469.333v-106.667h106.666l-106.666 106.667zM21.334 192v-192h469.334v192zM234.667 64h-21.333v-21.334h-42.666v21.334h-21.334v64h21.334v21.334h42.666v-21.334h-42.666v-64h42.666v21.334h-21.334v21.334h42.666zM277.334 42.667h-21.334v106.666h21.334zM362.666 128h-42.666v-21.334h21.334v-21.334h-21.334v-42.666h-21.334v106.666h64z" />
<glyph unicode="&#xe92e;" glyph-name="documents-doc_jpg" data-tags="documents-doc_jpg" d="M362.666 341.333v128h-192v-256h320v128h-128zM384 469.333v-106.667h106.666l-106.666 106.667zM234.667 128h21.333v-21.334h-21.334v21.334zM21.334 192v-192h469.334v192zM192 64h-21.334v-21.334h-42.666v21.334h42.666v85.334h21.334zM277.334 106.667h-21.334v-21.334h-21.334v-42.666h-21.334v106.666h42.666v-21.334h21.334zM384 64h-21.334v-21.334h-42.666v21.334h-21.334v64h21.334v21.334h42.666v-21.334h-42.666v-64h42.666v21.334h-21.334v21.334h42.666z" />
<glyph unicode="&#xe92f;" glyph-name="documents-doc_odb" data-tags="documents-doc_odb" d="M234.667 128h42.667v-64h-42.666v64zM362.666 341.333v128h-192v-256h320v128h-128zM384 469.333v-106.667h106.666l-106.666 106.667zM128 128h42.666v-64h-42.666v64zM341.334 128h42.666v-21.334h-42.666v21.334zM341.334 85.333h42.666v-21.334h-42.666v21.334zM21.334 192v-192h469.334v192zM192 64h-21.334v-21.334h-42.666v21.334h-21.334v64h21.334v21.334h42.666v-21.334h21.334zM298.666 64h-21.334v-21.334h-64v106.666h64v-21.334h21.334zM405.334 106.667h-21.334v-21.334h21.334v-21.334h-21.334v-21.334h-64v106.666h64v-21.334h21.334z" />
<glyph unicode="&#xe930;" glyph-name="documents-doc_odc" data-tags="documents-doc_odc" d="M234.667 128h42.667v-64h-42.666v64zM21.334 192v-192h469.334v192zM192 64h-21.334v-21.334h-42.666v21.334h-21.334v64h21.334v21.334h42.666v-21.334h21.334zM298.666 64h-21.334v-21.334h-64v106.666h64v-21.334h21.334zM405.334 106.667h-21.334v21.334h-42.666v-64h42.666v21.334h21.334v-21.334h-21.334v-21.334h-42.666v21.334h-21.334v64h21.334v21.334h42.666v-21.334h21.334zM362.666 341.333v128h-192v-256h320v128h-128zM384 469.333v-106.667h106.666l-106.666 106.667zM128 128h42.666v-64h-42.666v64z" />
<glyph unicode="&#xe931;" glyph-name="documents-doc_odf" data-tags="documents-doc_odf" d="M362.666 341.333v128h-192v-256h320v128h-128zM384 469.333v-106.667h106.666l-106.666 106.667zM128 128h42.666v-64h-42.666v64zM234.667 128h42.667v-64h-42.666v64zM21.334 192v-192h469.334v192zM192 64h-21.334v-21.334h-42.666v21.334h-21.334v64h21.334v21.334h42.666v-21.334h21.334zM298.666 64h-21.334v-21.334h-64v106.666h64v-21.334h21.334zM384 128h-42.666v-21.334h21.334v-21.334h-21.334v-42.666h-21.334v106.666h64z" />
<glyph unicode="&#xe932;" glyph-name="documents-doc_odg" data-tags="documents-doc_odg" d="M362.666 341.333v128h-192v-256h320v128h-128zM384 469.333v-106.667h106.666l-106.666 106.667zM128 128h42.666v-64h-42.666v64zM234.667 128h42.667v-64h-42.666v64zM21.334 192v-192h469.334v192zM192 64h-21.334v-21.334h-42.666v21.334h-21.334v64h21.334v21.334h42.666v-21.334h21.334zM298.666 64h-21.334v-21.334h-64v106.666h64v-21.334h21.334zM405.334 64h-21.334v-21.334h-42.666v21.334h-21.334v64h21.334v21.334h42.666v-21.334h-42.666v-64h42.666v21.334h-21.334v21.334h42.666z" />
<glyph unicode="&#xe933;" glyph-name="documents-doc_odm" data-tags="documents-doc_odm" d="M362.666 341.333v128h-192v-256h320v128h-128zM384 469.333v-106.667h106.666l-106.666 106.667zM128 128h42.666v-64h-42.666v64zM234.667 128h42.667v-64h-42.666v64zM21.334 192v-192h469.334v192zM192 64h-21.334v-21.334h-42.666v21.334h-21.334v64h21.334v21.334h42.666v-21.334h21.334zM298.666 64h-21.334v-21.334h-64v106.666h64v-21.334h21.334zM426.666 42.667h-21.334v85.334h-21.334v-42.666h-21.334v42.666h-21.334v-85.334h-21.334v106.666h42.666v-21.334h21.334v21.334h42.666z" />
<glyph unicode="&#xe934;" glyph-name="documents-doc_odp" data-tags="documents-doc_odp" d="M362.666 341.333v128h-192v-256h320v128h-128zM384 469.333v-106.667h106.666l-106.666 106.667zM149.333 128h42.667v-64h-42.666v64zM256 128h42.666v-64h-42.666v64zM21.334 192v-192h469.334v192zM213.333 64h-21.333v-21.334h-42.666v21.334h-21.334v64h21.334v21.334h42.666v-21.334h21.334zM320 64h-21.334v-21.334h-64v106.666h64v-21.334h21.334zM405.334 106.667h-21.334v-21.334h-21.334v-42.666h-21.334v106.666h42.666v-21.334h21.334zM362.666 128h21.334v-21.334h-21.334v21.334z" />
<glyph unicode="&#xe935;" glyph-name="documents-doc_ods" data-tags="documents-doc_ods" d="M362.666 341.333v128h-192v-256h320v128h-128zM384 469.333v-106.667h106.666l-106.666 106.667zM149.333 128h42.667v-64h-42.666v64zM256 128h42.666v-64h-42.666v64zM21.334 192v-192h469.334v192zM213.333 64h-21.333v-21.334h-42.666v21.334h-21.334v64h21.334v21.334h42.666v-21.334h21.334zM320 64h-21.334v-21.334h-64v106.666h64v-21.334h21.334zM405.334 128h-42.666v-21.334h21.334v-21.334h21.334v-21.334h-21.334v-21.334h-42.666v21.334h42.666v21.334h-21.334v21.334h-21.334v21.334h21.334v21.334h42.666z" />
<glyph unicode="&#xe936;" glyph-name="documents-doc_odt" data-tags="documents-doc_odt" d="M362.666 341.333v128h-192v-256h320v128h-128zM384 469.333v-106.667h106.666l-106.666 106.667zM149.333 128h42.667v-64h-42.666v64zM256 128h42.666v-64h-42.666v64zM21.334 192v-192h469.334v192zM213.333 64h-21.333v-21.334h-42.666v21.334h-21.334v64h21.334v21.334h42.666v-21.334h21.334zM320 64h-21.334v-21.334h-64v106.666h64v-21.334h21.334zM405.334 128h-21.334v-85.334h-21.334v85.334h-21.334v21.334h64z" />
<glyph unicode="&#xe937;" glyph-name="documents-doc_otg" data-tags="documents-doc_otg" d="M362.666 341.333v128h-192v-256h320v128h-128zM384 469.333v-106.667h106.666l-106.666 106.667zM149.333 128h42.667v-64h-42.666v64zM21.334 192v-192h469.334v192zM213.333 64h-21.333v-21.334h-42.666v21.334h-21.334v64h21.334v21.334h42.666v-21.334h21.334zM298.666 128h-21.334v-85.334h-21.334v85.334h-21.334v21.334h64zM405.334 85.333v-21.334h-21.334v-21.334h-42.666v21.334h-21.334v64h21.334v21.334h42.666v-21.334h-42.666v-64h42.666v21.334h-21.334v21.334h42.666z" />
<glyph unicode="&#xe938;" glyph-name="documents-doc_otp" data-tags="documents-doc_otp" d="M362.666 341.333v128h-192v-256h320v128h-128zM384 469.333v-106.667h106.666l-106.666 106.667zM149.333 128h42.667v-64h-42.666v64zM21.334 192v-192h469.334v192zM213.333 64h-21.333v-21.334h-42.666v21.334h-21.334v64h21.334v21.334h42.666v-21.334h21.334zM298.666 128h-21.334v-85.334h-21.334v85.334h-21.334v21.334h64zM384 106.667h-21.334v-21.334h-21.334v-42.666h-21.334v106.666h42.666v-21.334h21.334zM341.334 128h21.334v-21.334h-21.334v21.334z" />
<glyph unicode="&#xe939;" glyph-name="documents-doc_ots" data-tags="documents-doc_ots" d="M362.666 341.333v128h-192v-256h320v128h-128zM384 469.333v-106.667h106.666l-106.666 106.667zM149.333 128h42.667v-64h-42.666v64zM21.334 192v-192h469.334v192zM213.333 64h-21.333v-21.334h-42.666v21.334h-21.334v64h21.334v21.334h42.666v-21.334h21.334zM298.666 128h-21.334v-85.334h-21.334v85.334h-21.334v21.334h64zM384 128h-42.666v-21.334h21.334v-21.334h21.334v-21.334h-21.334v-21.334h-42.666v21.334h42.666v21.334h-21.334v21.334h-21.334v21.334h21.334v21.334h42.666z" />
<glyph unicode="&#xe93a;" glyph-name="documents-doc_ott" data-tags="documents-doc_ott" d="M362.666 341.333v128h-192v-256h320v128h-128zM384 469.333v-106.667h106.666l-106.666 106.667zM149.333 128h42.667v-64h-42.666v64zM21.334 192v-192h469.334v192zM213.333 64h-21.333v-21.334h-42.666v21.334h-21.334v64h21.334v21.334h42.666v-21.334h21.334zM298.666 128h-21.334v-85.334h-21.334v85.334h-21.334v21.334h64zM384 128h-21.334v-85.334h-21.334v85.334h-21.334v21.334h64z" />
<glyph unicode="&#xe93b;" glyph-name="documents-doc_pa" data-tags="documents-doc_pa" d="M362.666 341.333v128h-192v-256h320v128h-128zM384 469.333v-106.667h106.666l-106.666 106.667zM277.334 128h21.334v-42.666h-21.334v42.666zM192 128h21.334v-21.334h-21.334v21.334zM21.334 192v-192h469.334v192zM234.667 106.667h-21.333v-21.334h-21.334v-42.666h-21.334v106.666h42.666v-21.334h21.334zM320 42.667h-21.334v21.334h-21.334v-21.334h-21.334v85.334h21.334v21.334h21.334v-21.334h21.334z" />
<glyph unicode="&#xe93c;" glyph-name="documents-doc_pdf" data-tags="documents-doc_pdf" d="M362.666 341.333v128h-192v-256h320v128h-128zM384 469.333v-106.667h106.666l-106.666 106.667zM234.667 128h42.667v-64h-42.666v64zM149.333 128h21.333v-21.334h-21.334v21.334zM21.334 192v-192h469.334v192zM192 106.667h-21.334v-21.334h-21.334v-42.666h-21.334v106.666h42.666v-21.334h21.333zM298.666 64h-21.334v-21.334h-64v106.666h64v-21.334h21.334zM384 128h-42.666v-21.334h21.334v-21.334h-21.334v-42.666h-21.334v106.666h64z" />
<glyph unicode="&#xe93d;" glyph-name="documents-doc_png" data-tags="documents-doc_png" d="M362.666 341.333v128h-192v-256h320v128h-128zM384 469.333v-106.667h106.666l-106.666 106.667zM149.333 128h21.333v-21.334h-21.334v21.334zM21.334 192v-192h469.334v192zM192 106.667h-21.334v-21.334h-21.334v-42.666h-21.334v106.666h42.666v-21.334h21.333zM298.666 42.667h-21.334v42.666h-21.334v21.334h-21.334v-64h-21.334v106.666h21.334v-21.334h21.334v-21.334h21.334v42.666h21.334zM405.334 64h-21.334v-21.334h-42.666v21.334h-21.334v64h21.334v21.334h42.666v-21.334h-42.666v-64h42.666v21.334h-21.334v21.334h42.666z" />
<glyph unicode="&#xe93e;" glyph-name="documents-doc_ppt" data-tags="documents-doc_ppt" d="M362.666 341.333v128h-192v-256h320v128h-128zM384 469.333v-106.667h106.666l-106.666 106.667zM170.667 128h21.333v-21.334h-21.334v21.334zM256 128h21.334v-21.334h-21.334v21.334zM21.334 192v-192h469.334v192zM213.333 85.333h-42.667v-42.666h-21.334v106.666h64zM298.666 85.333h-42.666v-42.666h-21.334v106.666h64zM384 128h-21.334v-85.334h-21.334v85.334h-21.334v21.334h64z" />
<glyph unicode="&#xe93f;" glyph-name="documents-doc_pptx" data-tags="documents-doc_pptx" d="M362.666 341.333v128h-192v-256h320v128h-128zM384 469.333v-106.667h106.666l-106.666 106.667zM128 128h21.334v-21.334h-21.334v21.334zM213.333 128h21.333v-21.334h-21.334v21.334zM21.334 192v-192h469.334v192zM170.667 85.333h-42.667v-42.666h-21.334v106.666h64zM256 85.333h-42.666v-42.666h-21.334v106.666h64zM341.334 128h-21.334v-85.334h-21.334v85.334h-21.334v21.334h64zM426.666 106.667h-21.334v-21.334h21.334v-42.666h-21.334v42.666h-21.334v-42.666h-21.334v42.666h21.334v21.334h-21.334v42.666h21.334v-42.666h21.334v42.666h21.334z" />
<glyph unicode="&#xe940;" glyph-name="documents-doc_psd" data-tags="documents-doc_psd" d="M362.666 341.333v128h-192v-256h320v128h-128zM384 469.333v-106.667h106.666l-106.666 106.667zM320 128h42.666v-64h-42.666v64zM149.333 128h21.333v-21.334h-21.334v21.334zM21.334 192v-192h469.334v192zM192 106.667h-21.334v-21.334h-21.334v-42.666h-21.334v106.666h42.666v-21.334h21.333zM277.334 128h-42.666v-21.334h21.334v-21.334h21.334v-21.334h-21.334v-21.334h-42.666v21.334h42.666v21.334h-21.334v21.334h-21.334v21.334h21.334v21.334h42.666zM384 64h-21.334v-21.334h-64v106.666h64v-21.334h21.334z" />
<glyph unicode="&#xe941;" glyph-name="documents-doc_stack" data-tags="documents-doc_stack" d="M320 405.333v-85.334h85.334l-85.334 85.334zM298.666 405.333h-170.667v-384h277.333v277.333h-106.666zM85.334 448v-384h21.334v362.666h213.333v21.334h-234.667z" />
<glyph unicode="&#xe942;" glyph-name="documents-doc_svg" data-tags="documents-doc_svg" d="M362.666 341.333v128h-192v-256h320v128h-128zM384 469.333v-106.667h106.666l-106.666 106.667zM21.334 192v-192h469.334v192zM192 128h-42.666v-21.334h21.334v-21.334h21.334v-21.334h-21.334v-21.334h-42.666v21.334h42.666v21.334h-21.334v21.334h-21.334v21.334h21.334v21.334h42.666zM277.334 64h-21.334v-21.334h-21.334v21.334h-21.334v85.334h21.334v-85.334h21.334v85.334h21.334zM384 64h-21.334v-21.334h-42.666v21.334h-21.334v64h21.334v21.334h42.666v-21.334h-42.666v-64h42.666v21.334h-21.334v21.334h42.666z" />
<glyph unicode="&#xe943;" glyph-name="documents-doc_swf" data-tags="documents-doc_swf" d="M362.666 341.333v128h-192v-256h320v128h-128zM384 469.333v-106.667h106.666l-106.666 106.667zM21.334 192v-192h469.334v192zM192 128h-42.666v-21.334h21.334v-21.334h21.334v-21.334h-21.334v-21.334h-42.666v21.334h42.666v21.334h-21.334v21.334h-21.334v21.334h21.334v21.334h42.666zM320 64h-21.334v-21.334h-21.334v21.334h-21.334v-21.334h-21.334v21.334h-21.334v85.334h21.334v-64h21.334v21.334h21.334v-21.334h21.334v64h21.334zM405.334 128h-42.666v-21.334h21.334v-21.334h-21.334v-42.666h-21.334v106.666h64z" />
<glyph unicode="&#xe944;" glyph-name="documents-doc_tif" data-tags="documents-doc_tif" d="M362.666 341.333v128h-192v-256h320v128h-128zM384 469.333v-106.667h106.666l-106.666 106.667zM21.334 192v-192h469.334v192zM234.667 128h-21.333v-85.334h-21.334v85.334h-21.334v21.334h64zM277.334 42.667h-21.334v106.666h21.334zM362.666 128h-42.666v-21.334h21.334v-21.334h-21.334v-42.666h-21.334v106.666h64z" />
<glyph unicode="&#xe945;" glyph-name="documents-doc_txt" data-tags="documents-doc_txt" d="M362.666 341.333v128h-192v-256h320v128h-128zM384 469.333v-106.667h106.666l-106.666 106.667zM21.334 192v-192h469.334v192zM213.333 128h-21.333v-85.334h-21.334v85.334h-21.334v21.334h64zM298.666 106.667h-21.334v-21.334h21.334v-42.666h-21.334v42.666h-21.334v-42.666h-21.334v42.666h21.334v21.334h-21.334v42.666h21.334v-42.666h21.334v42.666h21.334zM384 128h-21.334v-85.334h-21.334v85.334h-21.334v21.334h64z" />
<glyph unicode="&#xe946;" glyph-name="documents-doc_wmf" data-tags="documents-doc_wmf" d="M362.666 341.333v128h-192v-256h320v128h-128zM384 469.333v-106.667h106.666l-106.666 106.667zM21.334 192v-192h469.334v192zM213.333 64h-21.333v-21.334h-21.334v21.334h-21.334v-21.334h-21.334v21.334h-21.334v85.334h21.334v-64h21.334v21.334h21.334v-21.334h21.334v64h21.334zM341.334 42.667h-21.334v85.334h-21.334v-42.666h-21.334v42.666h-21.334v-85.334h-21.334v106.666h42.666v-21.334h21.334v21.334h42.666zM426.666 128h-42.666v-21.334h21.334v-21.334h-21.334v-42.666h-21.334v106.666h64z" />
<glyph unicode="&#xe947;" glyph-name="documents-doc_xls" data-tags="documents-doc_xls" d="M362.666 341.333v128h-192v-256h320v128h-128zM384 469.333v-106.667h106.666l-106.666 106.667zM21.334 192v-192h469.334v192zM213.333 106.667h-21.333v-21.334h21.334v-42.666h-21.334v42.666h-21.334v-42.666h-21.334v42.666h21.334v21.334h-21.334v42.666h21.334v-42.666h21.334v42.666h21.334zM277.334 42.667h-42.666v106.666h21.334v-85.334h21.334zM362.666 128h-42.666v-21.334h21.334v-21.334h21.334v-21.334h-21.334v-21.334h-42.666v21.334h42.666v21.334h-21.334v21.334h-21.334v21.334h21.334v21.334h42.666z" />
<glyph unicode="&#xe948;" glyph-name="documents-doc_xlsx" data-tags="documents-doc_xlsx" d="M362.666 341.333v128h-192v-256h320v128h-128zM384 469.333v-106.667h106.666l-106.666 106.667zM21.334 192v-192h469.334v192zM170.667 106.667h-21.333v-21.334h21.334v-42.666h-21.334v42.666h-21.334v-42.666h-21.334v42.666h21.334v21.334h-21.334v42.666h21.334v-42.666h21.334v42.666h21.334zM234.667 42.667h-42.667v106.666h21.334v-85.334h21.334zM320 128h-42.666v-21.334h21.334v-21.334h21.334v-21.334h-21.334v-21.334h-42.666v21.334h42.666v21.334h-21.334v21.334h-21.334v21.334h21.334v21.334h42.666zM405.334 106.667h-21.334v-21.334h21.334v-42.666h-21.334v42.666h-21.334v-42.666h-21.334v42.666h21.334v21.334h-21.334v42.666h21.334v-42.666h21.334v42.666h21.334z" />
<glyph unicode="&#xe949;" glyph-name="documents-doc_xml" data-tags="documents-doc_xml" d="M362.666 341.333v128h-192v-256h320v128h-128zM384 469.333v-106.667h106.666l-106.666 106.667zM21.334 192v-192h469.334v192zM192 106.667h-21.334v-21.334h21.334v-42.666h-21.334v42.666h-21.334v-42.666h-21.334v42.666h21.334v21.334h-21.334v42.666h21.334v-42.666h21.334v42.666h21.334zM384 42.667h-42.666v106.666h21.334v-85.334h21.334zM320 42.667h-21.334v85.334h-21.334v-42.666h-21.334v42.666h-21.334v-85.334h-21.334v106.666h42.666v-21.334h21.334v21.334h42.666z" />
<glyph unicode="&#xe94a;" glyph-name="documents-document" data-tags="documents-document" d="M320 426.667v-85.334h85.334l-85.334 85.333zM298.666 320v106.666h-170.667v-384h277.333v277.334h-106.666z" />
<glyph unicode="&#xe94b;" glyph-name="documents-documentation" data-tags="documents-documentation" d="M320 426.667v-85.334h85.334l-85.334 85.333zM298.666 426.667h-170.667v-384h277.333v277.334h-106.666zM362.666 149.333h-192v21.334h192zM362.666 106.667h-192v21.334h192zM362.666 192h-192v21.334h192zM298.666 256v-21.333h-128v21.334z" />
<glyph unicode="&#xe94c;" glyph-name="documents-manual" data-tags="documents-manual" d="M266.666 17.728l-100.053 88.938h-123.947v213.333h21.334v-192h110.72l91.946-81.728 91.947 81.728h110.699l-0.256 192h21.334l0.298-213.333h-123.968l-100.053-88.938zM85.334 149.333h97.508l73.159-65.036v257.036c0 23.564-19.102 42.666-42.666 42.666v0h-128zM320 384c-23.564 0-42.666-19.103-42.666-42.667v0-257.036l73.159 65.036h97.508v234.666zM405.334 192h-85.334v21.334h85.334zM405.334 256h-85.334v21.334h85.334zM405.334 320h-85.334v21.334h85.334z" />
<glyph unicode="&#xe94d;" glyph-name="documents-movie" data-tags="documents-movie" d="M42.666 405.333h128v-64h-128v64zM192 405.333h128v-64h-128v64zM341.334 405.333h128v-64h-128v64zM42.666 320v-256h426.666v256zM192 128v128l128-64z" />
<glyph unicode="&#xe94e;" glyph-name="documents-no_data" data-tags="documents-no_data" d="M320 426.667v-85.334h85.334l-85.334 85.333zM298.666 320v106.666h-170.667v-384h277.333v277.334zM334.552 129.294l-22.63-22.627-45.255 45.255-45.255-45.255-22.63 22.627 45.261 45.254-45.261 45.255 22.63 22.628 45.255-45.255 45.255 45.255 22.63-22.627-45.255-45.255z" />
<glyph unicode="&#xe94f;" glyph-name="documents-note" data-tags="documents-note" d="M42.666 426.667v-384h170.667v65.673l213.334 213.334v104.992zM85.334 384h106.666v-21.334h-106.666zM234.667 234.667h-149.333v21.334h149.333zM320 298.667h-234.667v21.334h234.667zM256 90.667v-48h48l148.693 148.693-48 48-148.694-148.693zM427.313 261.979l20.688 20.688 48-48-20.688-20.688-48 48z" />
<glyph unicode="&#xe950;" glyph-name="documents-order" data-tags="documents-order" d="M298.666 405.333v21.334h-64v-21.334h-21.334v-21.334h106.666v21.334h-21.334zM341.334 405.333v-42.667h-149.333v42.667h-64v-384h277.334v384zM170.667 298.667h149.333v-21.333h-149.333zM362.666 149.333h-192v21.334h192zM362.666 192h-192v21.334h192z" />
<glyph unicode="&#xe951;" glyph-name="documents-product_generic_template" data-tags="documents-product_generic_template" d="M426.666 341.333v-277.334h-277.334v-21.334h298.666v298.666h-21.334zM64 426.667v-341.334h341.334v341.334zM106.666 234.667v149.333h149.334v-66.15c-41.918-8.803-74.38-41.265-83.061-82.487l-0.123-0.696zM277.334 128c-47.129 0-85.334 38.205-85.334 85.334s38.205 85.334 85.334 85.334c47.128 0 85.334-38.205 85.334-85.334v0c0-47.129-38.205-85.334-85.334-85.334v0z" />
<glyph unicode="&#xe952;" glyph-name="documents-restore_default" data-tags="documents-restore_default" d="M149.333 405.333h277.334v-277.334h21.334v298.666h-298.666v-21.334zM85.334 384v-320h320v320zM170.667 204.19v-76.19h-21.333v64h-42.666v42.666h42.666v64h21.334zM384 128h-192v21.334h192zM384 170.667h-192v85.334h192zM384 277.333h-192v21.333h106.666v21.334h64v-21.334h21.334z" />
<glyph unicode="&#xe953;" glyph-name="documents-task_done" data-tags="documents-task_done" d="M298.666 405.333v21.334h-64v-21.334h-21.334v-21.334h106.666v21.334h-21.334zM341.334 405.333v-42.667h-149.333v42.667h-64v-384h277.334v384zM240 132.042l-59.313 59.313 22.625 22.625 36.688-36.688 84.688 84.687 22.625-22.625z" />
<glyph unicode="&#xe954;" glyph-name="documents-terms_of_use" data-tags="documents-terms_of_use" d="M42.666 426.667v-85.334h426.666v85.333zM42.666 320v-277.333h426.666v277.334zM85.334 277.333h341.334v-21.333h-341.334zM256 170.667h-170.667v21.334h170.667zM320 213.333h-234.667v21.334h234.667zM332.268 70.4l-49.601 48 22.399 22.4 27.203-27.2 78.399 78.4 22.399-20.8z" />
<glyph unicode="&#xe955;" glyph-name="documents-worksheet" data-tags="documents-worksheet" d="M106.666 234.667h298.666v-21.334h-298.666v21.334zM106.666 85.333h298.666v-21.334h-298.666v21.334zM106.666 384h298.666v-21.334h-298.666v21.334zM106.666 341.333h85.334v-85.333h-85.334v85.333zM213.333 341.333h85.333v-85.333h-85.334v85.333zM320 341.333h85.334v-85.333h-85.334v85.333zM213.333 192h85.333v-85.334h-85.334v85.334zM106.666 192h85.334v-85.334h-85.334v85.334zM320 192h85.334v-85.334h-85.334v85.334z" />
<glyph unicode="&#xe956;" glyph-name="ecommerce-add_to_basket" data-tags="ecommerce-add_to_basket" d="M234.667 64c0-23.564-19.102-42.666-42.667-42.666s-42.666 19.103-42.666 42.666c0 23.564 19.102 42.666 42.666 42.666s42.666-19.103 42.666-42.666zM448 64c0-23.564-19.103-42.666-42.666-42.666s-42.666 19.103-42.666 42.666c0 23.564 19.103 42.666 42.666 42.666s42.666-19.103 42.666-42.666zM512 362.667h-42.666v42.667h-21.334v-42.667h-42.666v-21.333h42.666v-42.667h21.334v42.667h42.666v21.333zM441.469 257.734c-41.361 7.81-72.971 41.413-77.686 83.163l-0.040 0.437h-235.743l-21.334 64h-106.666v-42.667h79.013l79.013-234.666h268.64v42.666h-238.933l-9.6 42.666h248.532z" />
<glyph unicode="&#xe957;" glyph-name="ecommerce-basket" data-tags="ecommerce-basket" d="M256 64c0-23.564-19.102-42.666-42.666-42.666s-42.666 19.103-42.666 42.666c0 23.564 19.102 42.666 42.666 42.666s42.666-19.103 42.666-42.666zM469.334 64c0-23.564-19.103-42.666-42.666-42.666s-42.666 19.103-42.666 42.666c0 23.564 19.103 42.666 42.666 42.666s42.666-19.103 42.666-42.666zM448 128v42.666h-238.934l-9.6 42.666h248.534l42.666 128h-341.334l-21.334 64h-106.666v-42.667h79.019l78.998-234.666h268.651z" />
<glyph unicode="&#xe958;" glyph-name="ecommerce-client" data-tags="ecommerce-client" d="M298.666 373.333c0-29.455-23.878-53.334-53.334-53.334s-53.334 23.878-53.334 53.334c0 29.455 23.878 53.334 53.334 53.334s53.334-23.878 53.334-53.334zM170.667 138.667c0-29.455-23.878-53.334-53.334-53.334s-53.334 23.878-53.334 53.334c0 29.455 23.878 53.334 53.334 53.334s53.334-23.878 53.334-53.334zM426.666 138.667c0-29.455-23.878-53.334-53.334-53.334s-53.334 23.878-53.334 53.334c0 29.455 23.878 53.334 53.334 53.334s53.334-23.878 53.334-53.334zM319.589 377.429c0.075-1.385 0.411-2.694 0.411-4.096-0.087-6.655-1.039-13.051-2.748-19.13l0.125 0.521c46.384-25.932 77.24-74.719 77.289-130.717v-0.007c0-4.697-0.279-9.328-0.704-13.916 7.716-2.167 14.465-5.264 20.591-9.238l-0.289 0.175c1.106 7.253 1.738 15.621 1.738 24.137 0 66.861-38.955 124.624-95.407 151.831l-1.008 0.438zM315.334 92.175c-20.263-11.026-44.375-17.508-70-17.508s-49.737 6.483-70.784 17.897l0.784-0.389c-4.612-5.879-9.915-10.927-15.857-15.13l-0.234-0.157c24.62-14.8 54.333-23.553 86.091-23.553s61.471 8.753 86.858 23.98l-0.767-0.426c-6.176 4.361-11.479 9.409-15.967 15.126l-0.123 0.162zM96.704 210.085c-0.424 4.587-0.704 9.219-0.704 13.916 0.049 56.005 30.905 104.793 76.534 130.336l0.755 0.388c-1.583 5.558-2.535 11.954-2.622 18.559l-0 0.050c0 1.402 0.336 2.711 0.411 4.096-57.46-27.644-96.415-85.408-96.415-152.269 0-8.516 0.632-16.885 1.852-25.061l-0.113 0.923c5.838 3.799 12.587 6.896 19.779 8.935l0.523 0.127z" />
<glyph unicode="&#xe959;" glyph-name="ecommerce-core_range_product_outline" data-tags="ecommerce-core_range_product_outline" d="M254.136 325.603l22.615-69.603h73.185l-59.209-43.018 22.617-69.603-59.209 43.017-59.209-43.017 22.617 69.604-59.208 43.016h73.185l22.615 69.604zM254.136 463.677l-53.615-165.010h-173.5l140.364-101.981-53.614-165.009 140.365 101.981 140.367-101.981-53.618 165.009 140.365 101.981h-173.5l-53.614 165.010z" />
<glyph unicode="&#xe95a;" glyph-name="ecommerce-core_range_product" data-tags="ecommerce-core_range_product" d="M254.135 463.676l-53.613-165.010h-173.501l140.365-101.981-53.614-165.010 140.365 101.981 140.367-101.981-53.615 165.010 140.364 101.981h-173.501l-53.615 165.010z" />
<glyph unicode="&#xe95b;" glyph-name="ecommerce-costs" data-tags="ecommerce-costs" d="M469.334 298.667h-341.334c-23.564 0-42.666-19.102-42.666-42.666v0-192c0-23.564 19.103-42.666 42.666-42.666v0h341.334c23.564 0 42.666 19.103 42.666 42.666v0 192c0 23.564-19.103 42.666-42.666 42.666v0zM192 85.333h-64v21.334h64zM277.334 85.333h-64v21.334h64zM362.666 85.333h-64v21.334h64zM384 234.667h64v-42.666h-64zM448 85.333h-64v21.334h64zM0 426.667v-192c0-23.564 19.102-42.666 42.666-42.666v0h21.334v42.666h-21.334v106.666h341.334v-21.334h42.666v106.667c0 23.564-19.103 42.666-42.666 42.666v0h-341.334c-23.564 0-42.666-19.103-42.666-42.666v0zM42.666 405.333v21.334h341.334v-21.334z" />
<glyph unicode="&#xe95c;" glyph-name="ecommerce-delivery_time" data-tags="ecommerce-delivery_time" d="M405.334 53.333c0-17.673-14.327-32-32-32s-32 14.327-32 32c0 17.673 14.327 32 32 32s32-14.327 32-32zM149.333 53.333c0-17.673-14.327-32-32-32s-32 14.327-32 32c0 17.673 14.327 32 32 32s32-14.327 32-32zM138.667 426.667c-53.019 0-96-42.981-96-96s42.981-96 96-96c53.019 0 96 42.98 96 96v0c0 53.020-42.981 96-96 96v0zM192 320h-64v85.334h21.334v-64h42.666zM384 192l-28.444 85.333h-112.468c-19.804-38.284-59.106-64-104.414-64-39.563 0-74.546 19.607-95.762 49.634l-0.246 0.368v-199.334h22.409c5.137 24.518 26.578 42.666 52.257 42.666s47.121-18.149 52.196-42.32l0.061-0.348h151.484c5.137 24.518 26.578 42.666 52.257 42.666s47.121-18.149 52.197-42.32l0.061-0.348h43.743v99.556z" />
<glyph unicode="&#xe95d;" glyph-name="ecommerce-delivery" data-tags="ecommerce-delivery" d="M234.667 192h149.333v-85.334h-149.333v85.334zM234.667 277.333h106.667v-64h-106.666v64zM213.333 85.333v362.666h-106.666v-42.666h64v-298.666h-10.666c-29.453-0.002-53.328-23.88-53.328-53.334 0-29.455 23.878-53.334 53.333-53.334 25.679 0 47.12 18.149 52.195 42.32l0.061 0.348h193.073v42.666z" />
<glyph unicode="&#xe95e;" glyph-name="ecommerce-express_delivery" data-tags="ecommerce-express_delivery" d="M352 363.392l60.992 22.87-60.992 24.406-60.992-24.406 60.992-22.87zM440.64 375.211l0.448-1.195-58.709-22.016 65.622-24.598v-135.402l-21.334-8.534v129.13l-74.666 28.011-74.666-28.011v-129.13l-21.334 8.534v135.402l65.621 24.597-58.709 22.016 0.448 1.195-71.36-28.544v-224l160-64 160 64v224l-71.36 28.544zM0 341.333h170.667v-42.667h-170.667v42.667zM64 277.333h106.666v-42.666h-106.666v42.666zM128 213.333h42.666v-42.666h-42.666v42.666z" />
<glyph unicode="&#xe95f;" glyph-name="ecommerce-favorit" data-tags="ecommerce-favorit" d="M439.877 375.289c-18.041 18.541-43.233 30.044-71.113 30.044s-53.072-11.503-71.091-30.022l-0.022-0.022-41.651-42.485-41.651 42.482c-18.041 18.541-43.233 30.044-71.113 30.044s-53.072-11.503-71.091-30.022l-0.022-0.022c-18.22-18.718-29.456-44.313-29.456-72.532s11.236-53.815 29.478-72.556l-0.022 0.023 183.882-187.555 183.872 187.557c18.22 18.717 29.457 44.313 29.457 72.532s-11.236 53.815-29.478 72.555l0.022-0.023z" />
<glyph unicode="&#xe960;" glyph-name="ecommerce-local_currency" data-tags="ecommerce-local_currency" d="M266.666 469.333c-88.365 0-160-71.635-160-160v0c0-112 160-309.334 160-309.334s160 197.333 160 309.334c0 88.365-71.635 160-160 160v0zM266.666 181.333c-70.692 0-128 57.308-128 128s57.308 128 128 128c70.692 0 128-57.308 128-128v0c0-70.692-57.308-128-128-128v0zM266.666 293.659c-1.363-0.123-2.947-0.194-4.548-0.194-27.566 0-50.263 20.844-53.192 47.63l-0.021 0.239c1.791 23.148 19.107 41.769 41.468 45.54l0.294 0.041v18.419h32v-18.419c22.654-3.812 39.971-22.433 41.751-45.41l0.010-0.171h-31.348c0 7.722-10.848 16.325-26.414 16.325s-26.412-8.602-26.412-16.325 10.845-16.325 26.412-16.325c1.363 0.124 2.947 0.194 4.548 0.194 27.566 0 50.264-20.844 53.192-47.63l0.021-0.238c-1.791-23.148-19.107-41.769-41.468-45.54l-0.294-0.041v-18.419h-32v18.419c-22.654 3.812-39.971 22.433-41.751 45.41l-0.011 0.171h31.35c0-7.722 10.845-16.325 26.412-16.325s26.414 8.603 26.414 16.325-10.848 16.325-26.414 16.325z" />
<glyph unicode="&#xe961;" glyph-name="ecommerce-offer" data-tags="ecommerce-offer" d="M277.334 426.667v42.666h-42.666v-42.666h-42.666v-42.666h128v42.666h-42.666zM341.334 426.667v-64h-170.667v64h-64v-405.334h298.666v405.334zM192 277.333h21.334v-21.333h-21.334zM320 149.333h-21.334v21.334h21.334zM320 256h-21.334v-21.333h-21.334v-21.334h-21.334v-21.334h-21.334v-21.334h-21.334v-21.334h-21.334v21.334h21.334v21.334h21.334v21.334h21.334v21.334h21.334v21.334h21.334v21.333h21.334z" />
<glyph unicode="&#xe962;" glyph-name="ecommerce-order_tracking" data-tags="ecommerce-order_tracking" d="M341.334 393.080v-21.7c59.495-9.589 105.858-55.904 115.412-114.579l0.108-0.8h21.552c-9.981 71.328-65.745 127.094-136.226 136.983l-0.846 0.097zM341.334 327.971v-21.959c23.969-7.474 42.454-26.012 49.713-49.482l0.142-0.531h22.229c-8.501 35.839-36.224 63.526-71.432 71.841l-0.652 0.13zM192 192h149.333v-85.334h-149.333v85.334zM192 256h149.333v-42.666h-149.333v42.666zM170.667 85.333v362.666h-106.666v-42.666h64v-298.666h-8.119c-0.397 0.010-0.865 0.016-1.335 0.016-25.076 0-46.234-16.779-52.857-39.723l-0.096-0.389c-1.053-3.962-1.657-8.51-1.657-13.199 0-29.476 23.895-53.372 53.371-53.372 25.687 0 47.135 18.145 52.225 42.317l0.061 0.348h193.073v42.666z" />
<glyph unicode="&#xe963;" glyph-name="ecommerce-qr_code_scan" data-tags="ecommerce-qr_code_scan" d="M192 384h-85.334v-85.334h85.334zM170.667 320h-42.667v42.666h42.666zM320 384v-85.334h85.334v85.334zM384 320h-42.666v42.666h42.666zM106.666 64h85.334v85.334h-85.334zM128 128h42.666v-42.666h-42.666zM256 320h42.666v21.334h-42.666v21.333h42.666v21.334h-64v-21.334h-21.334v-21.333h21.334v-21.334h-21.334v-21.333h42.666v21.333zM192 277.333h42.666v-21.333h-42.666v21.333zM106.666 277.333h64v-21.333h-64v21.333zM149.333 213.333h-42.666v-42.666h64v64h-21.334v-21.334zM170.667 256h21.333v-21.333h-21.334v21.334zM192 213.333h42.666v-21.334h-42.666v21.334zM320 192h21.334v-21.334h-21.334v21.334zM384 277.333h-21.334v-21.333h-21.334v-21.333h-21.334v42.666h-21.334v-21.334h-64v-42.666h106.666v-21.334h42.666v42.666h21.334v21.333h-21.334v21.334zM362.666 170.667h21.334v-21.334h-21.334v21.334zM384 64h21.334v85.334h-21.334v-21.334h-21.334v-21.334h21.334v-42.666zM341.056 106.667l0.256 0.256 0.022 21.077h-21.334v-21.334h-42.666v21.334h42.666v21.334h-42.666v42.666h-42.666v-21.334h-21.334v-21.334h42.666v-21.334h-42.666v-64h42.666v21.334h106.666v21.334h-21.611z" />
<glyph unicode="&#xe964;" glyph-name="ecommerce-secure_shopping" data-tags="ecommerce-secure_shopping" d="M170.667 426.667v-64h21.333v42.667h128v-42.667h21.334v64h-170.667zM384 320h-256l-42.666-298.666h341.334zM341.334 64h-170.667v106.666h21.333v42.666c0 35.346 28.654 64 64 64s64-28.654 64-64v0-42.666h21.334zM256 256c-23.564 0-42.666-19.102-42.666-42.666v0-42.666h85.334v42.666c0 23.564-19.103 42.666-42.666 42.666v0z" />
<glyph unicode="&#xe965;" glyph-name="ecommerce-shopping" data-tags="ecommerce-shopping" d="M170.667 426.667v-64h21.333v42.667h128v-42.667h21.334v64h-170.667zM384 320h-256l-42.666-298.666h341.334zM192 256h-42.666v42.666h42.666zM362.666 256h-42.666v42.666h42.666z" />
<glyph unicode="&#xe966;" glyph-name="energy-eco" data-tags="energy-eco" d="M451.062 293.792c-39.979 49.321-90.51 88.496-148.293 114.382l-2.538 1.016c-87.483 39.831-188.965 68.56-295.419 81.018l-4.811 0.458c0-0.031 29.258-467.909 395.257-453.196 7.169 0.368 13.897 1.325 20.413 2.834l-0.781-0.152c-8.181 29.905-18.97 55.981-32.531 80.302l0.925-1.807c-21.339 37.365-44.865 69.677-71.498 99.125l0.428-0.48c-55.18 62.206-116.171 117.132-182.767 164.714l-3.295 2.237c79.324-42.695 147.79-90.63 210.011-145.481l-1.203 1.041c32.952-28.52 62.138-59.798 87.753-93.91l1.106-1.539c16.166-22.142 30.76-47.313 42.604-73.976l1.041-2.623c8.339 7.926 15.255 17.253 20.389 27.62l0.256 0.572c20.851 43.647 29.832 112.105-37.047 197.847zM512-21.333h-57.877l-17.75 37.206 44.864 17.067 30.762-54.272z" />
<glyph unicode="&#xe967;" glyph-name="energy-savings" data-tags="energy-savings" d="M170.667 106.667h170.667v-42.666h-170.667v42.666zM192 42.667h128v-42.666h-128v42.666zM256 490.667c-0.032 0-0.070 0-0.107 0-88.306 0-159.893-71.587-159.893-159.894 0-56.703 29.516-106.512 74.022-134.901l0.645-0.385v-67.487h170.667v67.487c45.151 28.774 74.668 78.584 74.668 135.286 0 88.306-71.587 159.893-159.893 159.893-0.038 0-0.075 0-0.113 0h0.006zM362.666 330.667c-0.068 58.883-47.784 106.598-106.66 106.667h-0.006v21.334c70.693 0 128-57.308 128-128v0z" />
<glyph unicode="&#xe968;" glyph-name="fa-axis" data-tags="fa-axis" d="M277.334 256h234.666v-170.666h-234.667v170.666zM277.334 341.333h234.666v-64h-234.667v64zM0 341.333v-256h256v256zM21.334 320h21.334v-21.334h-21.334zM42.666 106.667h-21.334v21.334h21.334zM128 149.333c-35.346 0-64 28.654-64 64s28.654 64 64 64c35.346 0 64-28.654 64-64v0c0-35.346-28.654-64-64-64v0zM234.667 106.667h-21.333v21.334h21.334zM234.667 298.667h-21.333v21.334h21.334z" />
<glyph unicode="&#xe969;" glyph-name="fa-compressed_air" data-tags="fa-compressed_air" d="M448 298.667h21.334v-64h-21.334v64zM320 426.667h85.334v-21.334h-85.334v21.334zM42.666 320h85.334v-85.333h-85.334v85.334zM405.334 320v64h-85.334v-21.334h-64v21.334h-85.334v-64h-21.334v-85.334h21.334v-21.334h106.666v-192h106.666v192h42.666v106.666h-21.334zM170.667 192h64v-64h-64v64zM170.667 448h85.333v-42.667h-85.334v42.667z" />
<glyph unicode="&#xe96a;" glyph-name="fa-connection_accessories_2" data-tags="fa-connection_accessories_2" d="M42.666 405.333v-64h42.666v-42.667h192v42.667h42.666v64h-277.334zM64 277.333h234.667v-42.666l-234.667 21.334v21.333zM64 234.667l234.667-21.334v-21.334l-234.667 21.334v21.334zM64 192l234.667-21.334-21.334-21.334h-192l-21.334 42.666zM341.334 256c-7.552-0.001-14.921-0.784-22.030-2.272l0.697 0.122v-22.2c6.464 1.759 13.887 2.769 21.544 2.769 47.060 0 85.209-38.149 85.209-85.209s-38.149-85.209-85.209-85.209c-39.524 0-72.762 26.909-82.394 63.406l-0.134 0.594h-22.201c10.271-49.038 53.153-85.338 104.514-85.338 58.911 0 106.669 47.757 106.669 106.669s-47.756 106.667-106.666 106.669v0z" />
<glyph unicode="&#xe96b;" glyph-name="fa-connection_accessories" data-tags="fa-connection_accessories" d="M256 426.669c-106.038-0.001-191.999-85.962-191.999-192s85.962-192 192-192c106.038 0 191.999 85.96 192 191.998v0c-0 106.039-85.962 192.001-192.001 192.002v0zM305.8 149.333h-98.536l-49.266 85.334 49.266 85.334h98.536l49.268-85.334zM256 458.667c123.712 0 224-100.288 224-224s-100.288-224-224-224c-123.712 0-224 100.288-224 224v0c0 123.712 100.288 224 224 224v0zM256 490.667c-141.385 0-256-114.615-256-256s114.615-256 256-256c141.385 0 256 114.615 256 256v0c0 141.385-114.615 256-256 256v0z" />
<glyph unicode="&#xe96c;" glyph-name="fa-control" data-tags="fa-control" d="M213.333 405.333v-85.334h-128v85.334h128zM234.667 426.667h-170.667v-128h170.667v128zM384 426.667h64v-384h-64v384zM256 426.667v-384h106.666v384zM298.666 64h-21.334v21.334h21.334zM298.666 106.667h-21.334v21.334h21.334zM341.334 64h-21.334v21.334h21.334zM341.334 106.667h-21.334v21.334h21.334zM341.334 341.333h-64v21.334h64zM341.334 384h-64v21.333h64zM64 277.333v-234.666h170.667v234.666zM149.333 85.333h-42.666v106.666h42.666z" />
<glyph unicode="&#xe96d;" glyph-name="fa-controller" data-tags="fa-controller" d="M192 426.667h149.333v-64h-149.333v64zM128 490.667v-512h277.334v512zM234.667 21.333h-64v64h64zM234.667 128h-64v64h64zM234.667 234.667h-64v64h64zM362.666 128h-64v170.666h64zM362.666 341.333h-192v106.667h192z" />
<glyph unicode="&#xe96e;" glyph-name="fa-cylinder-mountings" data-tags="fa-cylinder-mountings" d="M42.666 277.333h85.334v-42.666h-85.334v42.666zM256 384h255.998v-277.334h-255.998v277.334zM234.667 384h-64v-213.334h-170.667v-64h234.667v277.334z" />
<glyph unicode="&#xe96f;" glyph-name="fa-fa_positioner" data-tags="fa-fa_positioner" d="M192 128h-128l85.334 128h42.666v-128zM123.691 256h-123.691v-128h38.358l85.334 128zM85.334 320h106.666v-42.666h-106.666v42.666zM213.333 362.667h42.667v-234.666h-42.666v234.666zM277.334 362.667h234.666v-234.666h-234.667v234.666z" />
<glyph unicode="&#xe970;" glyph-name="fa-factory_automation" data-tags="fa-factory_automation" d="M351.761 281.746l-28.904 28.904c1.385 4.968 2.18 10.673 2.18 16.564 0 35.346-28.654 64-64 64s-64-28.654-64-64c0-35.346 28.654-64 64-64 5.891 0 11.596 0.796 17.014 2.286l-0.45-0.106 28.904-28.904zM220.154 240.649c-20.194 9.22-36.035 25.060-45.024 44.693l-0.231 0.561-78.314-78.314c-4.969 1.385-10.674 2.181-16.567 2.181-35.347 0-64.001-28.654-64.001-64.002s28.654-64.001 64.001-64.001c35.347 0 64.001 28.654 64.001 64.001 0 5.892-0.796 11.597-2.286 17.014l0.106-0.45zM102.859 123.355c-5.791-5.791-13.791-9.373-22.627-9.373-17.673 0-32 14.327-32 32s14.327 32 32 32c8.837 0 16.837-3.582 22.627-9.373v0c5.791-5.791 9.373-13.791 9.373-22.627s-3.582-16.837-9.373-22.627v0zM487.531 145.984l22.613 22.635-45.248 90.517-22.635 22.613-22.613-22.613-22.635 22.613-90.517-90.517 22.635-22.613-22.635-22.635 22.635-22.635 90.517-45.248 22.613 22.635-90.496 90.496 45.248 45.248 90.517-90.496z" />
<glyph unicode="&#xe971;" glyph-name="fa-fitting" data-tags="fa-fitting" d="M85.334 405.333h64v-128h-64v128zM320 106.667h128v-64h-128v64zM213.333 405.333h-42.667v-128h42.666c58.911 0 106.666-47.757 106.666-106.666v0-42.666h128v42.666c0 129.603-105.064 234.666-234.667 234.666v0z" />
<glyph unicode="&#xe972;" glyph-name="fa-function_fitting" data-tags="fa-function_fitting" d="M256 448h128v-42.667h-128v42.667zM85.334 298.667h42.666v-128h-42.666v128zM256 64h128v-42.666h-128v42.666zM256 341.333c0-23.564-19.102-42.667-42.666-42.667v0h-64v-128h64c23.564 0 42.666-19.103 42.666-42.666v0-42.666h128v298.666h-128z" />
<glyph unicode="&#xe973;" glyph-name="fa-gripper" data-tags="fa-gripper" d="M234.667 384h-64v106.666h-64v-170.667h128v64zM341.334 490.667v-106.666h-64v-64h128v170.666h-64zM106.666-21.333h298.666v298.667h-298.666zM277.334 149.333h42.666v-42.666h-42.666zM192 149.333h42.666v-42.666h-42.666z" />
<glyph unicode="&#xe974;" glyph-name="fa-handlingsystems" data-tags="fa-handlingsystems" d="M405.334 277.333h-128v85.334h-64v-85.334h-64v-64h256v-106.666h-362.666v-64h426.666v298.666h-64v-64zM405.334 426.667h64v-64h-64v64zM149.333 149.333h213.333v21.334h-213.333c-35.346 0-64 28.654-64 64s28.654 64 64 64v0h42.667v21.334h-42.666c-47.129 0-85.334-38.205-85.334-85.334s38.205-85.334 85.334-85.334v0z" />
<glyph unicode="&#xe975;" glyph-name="fa-linear_drive" data-tags="fa-linear_drive" d="M149.333 341.333h64v-256h-64v256zM298.666 362.667h213.334v-64h-213.333v64zM298.666 128.003h213.334v-64.003h-213.333v64.003zM234.667 362.667h42.667v-298.66h-42.666v298.66zM0 234.667h128v-42.663h-128v42.663zM298.666 277.333h213.334v-128h-213.333v128z" />
<glyph unicode="&#xe976;" glyph-name="fa-montage_accessories" data-tags="fa-montage_accessories" d="M234.667 277.333h106.667v-106.666h-106.666v106.666zM405.334 384v-149.334h-42.666v-21.334h64v170.666h-21.334zM256 298.667v85.334h-170.667v-85.334h10.666c41.237 0 74.666-33.429 74.666-74.666s-33.429-74.666-74.666-74.666v0h-10.666v-85.334h170.667v85.334h-42.666v149.333zM234.667 128v-42.666h-42.667v42.666zM192 320v42.666h42.666v-42.666z" />
<glyph unicode="&#xe977;" glyph-name="fa-motor" data-tags="fa-motor" d="M128 298.667h341.334v-149.333h-341.334v149.333zM320 405.333h85.334v-42.667h-85.334v42.667zM85.334 341.333v-85.333h-64v-64h64v-85.334h21.334v234.666h-21.334zM128 341.333h341.334v-21.333h-341.334v21.333zM128 128h341.334v-21.334h-341.334v21.334z" />
<glyph unicode="&#xe978;" glyph-name="fa-mount_cylinder" data-tags="fa-mount_cylinder" d="M405.334 277.333l-64 106.667h-64v-21.334h21.334v-42.666h-85.334v42.666h21.334v21.334h-64l-53.334-106.667h288zM448 213.333v21.334l-42.666 21.334h-51.672c5.69-12.628 9.005-27.375 9.005-42.896 0-58.911-47.757-106.666-106.666-106.666s-106.666 47.757-106.666 106.666c0 15.521 3.315 30.268 9.276 43.571l-0.27-0.676h-45.406c-3.984-12.818-6.279-27.553-6.279-42.826 0-82.387 66.788-149.174 149.174-149.174 32.661 0 62.871 10.497 87.44 28.3l-0.433-0.299-0.051-0.248 105.217 78.913v21.334h-44.363c1.021 6.37 1.636 13.754 1.696 21.271l0 0.063z" />
<glyph unicode="&#xe979;" glyph-name="fa-mounting_kit" data-tags="fa-mounting_kit" d="M256 320c-47.128-0-85.332-38.205-85.332-85.333s38.205-85.334 85.334-85.334c47.128 0 85.334 38.205 85.334 85.334s-38.204 85.333-85.332 85.334v0zM256 192c-23.564 0-42.666 19.103-42.666 42.666s19.102 42.666 42.666 42.666c23.564 0 42.666-19.103 42.666-42.666v0c0-23.564-19.103-42.666-42.666-42.666v0zM85.334 405.333v-341.334h341.334v341.334zM106.666 384h42.666v-42.667h-42.666zM149.333 85.333h-42.666v42.666h42.666zM256 128c-58.911 0-106.666 47.757-106.666 106.666s47.757 106.666 106.666 106.666c58.911 0 106.666-47.757 106.666-106.666v0c0-58.911-47.757-106.666-106.666-106.666v0zM405.334 85.333h-42.666v42.666h42.666zM405.334 341.333h-42.666v42.667h42.666z" />
<glyph unicode="&#xe97a;" glyph-name="fa-pilot_valves" data-tags="fa-pilot_valves" d="M341.334 362.667l-42.666 21.334h-64l-42.666-21.334h-21.334v-42.666h192v42.666h-21.334zM384 149.333h-21.334v21.334h-21.334v-21.334h-149.333v21.334h-21.333v-21.334h-21.334v-42.666h64v-42.666h106.666v42.666h64v42.666zM170.667 298.667h192v-106.666h-192v106.666zM469.334 298.667h-85.334v-106.666h64v85.333h21.334v21.334zM64 298.667h85.334v-106.666h-64v85.333h-21.334v21.334z" />
<glyph unicode="&#xe97b;" glyph-name="fa-piston_rod_attachements" data-tags="fa-piston_rod_attachements" d="M341.334 405.333h128v-341.334h-128v341.334zM298.666 256l-49.039 12.261c-14.014 36.763-48.978 62.406-89.93 62.406-53.019 0-96-42.981-96-96s42.981-96 96-96c40.952 0 75.916 25.643 89.709 61.748l0.221 0.658 49.039 12.26zM160 192c-23.564 0-42.666 19.103-42.666 42.666s19.103 42.666 42.666 42.666c23.564 0 42.666-19.103 42.666-42.666v0c-0-23.564-19.103-42.666-42.666-42.666v0z" />
<glyph unicode="&#xe97c;" glyph-name="fa-pneumatic_actuator" data-tags="fa-pneumatic_actuator" d="M256 341.333h-64v-213.333h64v-42.666h64v298.666h-64v-42.667zM341.334 384h128v-298.666h-128v298.666zM106.666 298.667h-21.334v-21.333h-42.666v-64h42.666v-21.334h21.334v21.334h64v64h-64v21.333z" />
<glyph unicode="&#xe97d;" glyph-name="fa-pneumatic_equipment" data-tags="fa-pneumatic_equipment" d="M448 362.667h21.334v-234.666h-21.334v234.666zM64 362.667v-64h-21.334v-106.666h21.334v-64h362.666v234.666zM234.667 149.333h-149.333v21.334h149.333zM234.667 213.333h-149.333v64h149.333zM234.667 320h-149.333v21.334h149.333zM405.334 149.333h-149.334v21.334h149.333zM405.334 213.333h-149.334v64h149.333zM405.334 320h-149.334v21.334h149.333z" />
<glyph unicode="&#xe97e;" glyph-name="fa-process_automation" data-tags="fa-process_automation" d="M128 277.333h64v-85.333h-64v85.333zM298.666 277.333h64v-85.333h-64v85.333zM405.334 320v21.334h-42.666v85.333h-64v-85.333h-42.666v-21.334h-21.334v-42.666l21.334-64h21.334v106.666h106.666v-106.666h21.334l21.334 64v42.666h-21.334zM426.666 170.667h-341.334c-35.346 0-64-28.654-64-64s28.654-64 64-64v0h341.334c35.346 0 64 28.654 64 64s-28.654 64-64 64v0zM426.666 64h-341.334c-23.564 0-42.666 19.103-42.666 42.666s19.102 42.666 42.666 42.666v0h341.334c23.564 0 42.666-19.103 42.666-42.666s-19.103-42.666-42.666-42.666v0zM149.333 128h-42.666v-42.666h42.666v42.666zM277.334 128h-42.666v-42.666h42.666v42.666zM405.334 128h-42.666v-42.666h42.666v42.666z" />
<glyph unicode="&#xe97f;" glyph-name="fa-quarter_turn_actuator" data-tags="fa-quarter_turn_actuator" d="M42.666 298.667h63.998v-213.333h-63.998v213.333zM128 320h341.332v-256h-341.332v256zM298.666 341.333h128v85.334h-42.666v-42.666h-42.666v42.666h-42.666v-85.334z" />
<glyph unicode="&#xe980;" glyph-name="fa-ready_to_install_solutions" data-tags="fa-ready_to_install_solutions" d="M341.334 128h106.666v-106.666h-106.666v106.666zM149.333 192h42.667v42.666h192v192h-106.666v42.666h-192v-106.667h192v42.667h85.334v-149.333h-170.667v42.666h-106.666v-106.666h42.666v-64h-42.666v-106.666h106.666v106.666h-42.667v64zM21.334 170.667h85.334v-21.334h-85.334v21.334zM170.667 170.667h320v-21.334h-320v21.334zM405.334 341.333h85.334v-21.333h-85.334v21.333zM21.334 341.333h320v-21.333h-320v21.333z" />
<glyph unicode="&#xe981;" glyph-name="fa-reboot_device" data-tags="fa-reboot_device" d="M256 448c53.555-0.024 102.461-19.908 139.758-52.685l-0.238 0.205 52.48 52.48v-128h-128l52.823 52.823c-31.315 26.577-72.197 42.739-116.853 42.739-100.026 0-181.114-81.088-181.114-181.114s81.088-181.114 181.114-181.114c50.075 0 95.404 20.322 128.189 53.169l0.003 0.003 22.687-22.687c-38.606-38.606-91.94-62.486-150.851-62.486-117.82 0-213.333 95.512-213.333 213.333s95.513 213.334 213.333 213.334c0.001 0 0.002 0 0.003 0v0zM170.667 341.333v-213.333h106.667v213.333zM213.333 149.333h-21.333v21.334h21.334zM213.333 192h-21.333v21.334h21.334zM213.333 234.667h-21.333v21.334h21.334zM256 192h-21.334v64h21.334zM256 277.333h-64v42.667h64z" />
<glyph unicode="&#xe982;" glyph-name="fa-referencing" data-tags="fa-referencing" d="M277.334 149.334h213.333v-85.334h-213.332v85.334zM277.334 234.668h85.334v-64.001h-85.334v64.001zM21.334 298.667v-234.666h234.666v234.666zM42.666 277.333h21.334v-21.333h-21.334zM64 85.333h-21.334v21.334h21.334zM138.667 128c-29.455 0-53.334 23.878-53.334 53.334s23.878 53.334 53.334 53.334c29.455 0 53.333-23.878 53.333-53.334v0c0-29.455-23.878-53.334-53.334-53.334v0zM234.667 85.333h-21.333v21.334h21.334zM234.667 256h-21.333v21.334h21.334zM277.334 405.334h21.332v-149.334h-21.332v149.334zM426.666 341.333h-64v42.667l-64-53.334 64-53.333v42.666h64v21.334z" />
<glyph unicode="&#xe983;" glyph-name="fa-save_device" data-tags="fa-save_device" d="M320 405.333v-341.334h170.667v341.334zM384 85.333h-42.666v42.666h42.666zM384 149.333h-42.666v42.666h42.666zM384 213.333h-42.666v42.666h42.666zM469.334 149.333h-42.666v106.666h42.666zM469.334 277.333h-128v106.667h128zM362.666 362.667h85.334v-64h-85.334v64zM170.667 277.333h-128v-170.666h106.667v-21.334h-42.666v-21.334h106.666v21.334h-42.666v21.334h106.666v64l-21.334 21.226v-63.894h-192v128h127.894l-21.226 21.334zM254.698 220.757l22.634-22.613v79.189h-79.19l22.613-22.634-56.554-56.554 33.941-33.942 56.554 56.555z" />
<glyph unicode="&#xe984;" glyph-name="fa-sensor_box" data-tags="fa-sensor_box" d="M343.699 405.333c-25.468 13.442-55.662 21.334-87.699 21.334s-62.231-7.891-88.745-21.834l1.046 0.501h-125.634v-341.334h125.634c25.468-13.442 55.662-21.334 87.699-21.334s62.231 7.89 88.745 21.834l-1.046-0.501h125.634v341.334zM64 384h42.666v-42.667h-42.666zM106.666 114.111v-28.777h-42.666v42.666h42.666zM256 85.333c-82.475 0-149.333 66.859-149.333 149.334s66.859 149.333 149.333 149.333c82.475 0 149.333-66.859 149.333-149.333v0c0-82.475-66.859-149.333-149.333-149.333v0zM448 85.333h-42.666v42.666h42.666zM448 341.333h-42.666v42.667h42.666zM223.223 298.667l32.853-64 56.805 110.685c-15.967 10.845-35.67 17.315-56.882 17.315-21.165 0-40.826-6.44-57.129-17.469l0.36 0.229zM288.916 170.667l-32.839 64-56.847-110.76c15.943-10.798 35.603-17.239 56.768-17.239 21.213 0 40.915 6.47 57.24 17.544l-0.358-0.229z" />
<glyph unicode="&#xe985;" glyph-name="fa-sensors" data-tags="fa-sensors" d="M298.666 320v-170.664h-106.666v170.664h106.666zM298.666 128h-106.666v-21.334h42.666v-106.666h21.334v106.666h42.666v21.334zM140.661 411.82c25.614 28.796 62.768 46.846 104.137 46.846s78.524-18.051 104.014-46.706l0.123-0.141-21.25-18.888c-20.387 22.922-49.959 37.291-82.888 37.291s-62.501-14.369-82.79-37.179l-0.098-0.112zM287.728 353.89c-10.175 12.595-25.62 20.583-42.93 20.583s-32.755-7.988-42.849-20.478l-0.082-0.104-22.111 17.916c15.439 19.041 38.831 31.111 65.041 31.111s49.601-12.070 64.918-30.955l0.122-0.156z" />
<glyph unicode="&#xe986;" glyph-name="fa-servo_pneumatic_2" data-tags="fa-servo_pneumatic_2" d="M149.333 362.667h64v-234.666h-64v234.666zM234.667 384h277.333v-64h-277.334v64zM234.667 298.669h277.333v-106.669h-277.334v106.669zM234.667 170.667h277.333v-64h-277.334v64zM0 277.333h128v-64h-128v64z" />
<glyph unicode="&#xe987;" glyph-name="fa-servo_pneumatic" data-tags="fa-servo_pneumatic" d="M128 277.333h-21.334v-128h21.334v-42.666h21.334v213.333h-21.334v-42.667zM170.667 320h320v-42.666h-320v42.666zM170.667 256h320v-85.333h-320v85.334zM170.667 149.333h320v-42.666h-320v42.666zM21.334 234.667h64v-42.666h-64v42.666zM170.667 362.667h320v-21.333h-320v21.333z" />
<glyph unicode="&#xe988;" glyph-name="fa-solenoid_actuated_media" data-tags="fa-solenoid_actuated_media" d="M341.334 469.333v-64h-192v-234.666h192v149.333h85.334v149.334h-85.334zM149.333 149.333v-21.334h-42.666v-85.334h42.666v-21.334h192v128h-192z" />
<glyph unicode="&#xe989;" glyph-name="fa-solenoid_valves" data-tags="fa-solenoid_valves" d="M362.666 277.333v21.333h-42.666v-21.333h-128v21.333h-42.666v-21.333h-21.334v-149.334h256v149.333h-21.334zM149.333 341.333h42.667v-21.333h-42.666v21.333zM320 341.333h42.666v-21.333h-42.666v21.333zM490.666 277.333h-85.334v-149.333h64v106.666h21.334v42.666zM21.334 277.333h85.334v-149.333h-64v106.666h-21.334v42.666z" />
<glyph unicode="&#xe98a;" glyph-name="fa-transmission" data-tags="fa-transmission" d="M362.666 384h106.666v-298.666h-106.666v298.666zM128 341.333h85.334v-213.333h-85.334v213.333zM21.334 277.333h85.334v-85.333h-85.334v85.333zM234.667 341.333h106.667v-21.333h-106.666v21.333zM234.667 277.333h106.667v-21.333h-106.666v21.333zM234.667 213.333h106.667v-21.334h-106.666v21.334zM234.667 149.333h106.667v-21.334h-106.666v21.334z" />
<glyph unicode="&#xe98b;" glyph-name="fa-tubing" data-tags="fa-tubing" d="M474.12 359.198c0 0.070 0 0.153 0 0.236 0 27.362-22.182 49.543-49.543 49.543-11.478 0-22.044-3.903-30.444-10.454l0.111 0.083-0.098 0.124-346.882-275.819c-11.57-9.037-18.939-22.989-18.939-38.662 0-0.046 0-0.093 0-0.139v0.006c0-0.015 0-0.034 0-0.052 0-27.462 22.263-49.726 49.725-49.726 0.019 0 0.037 0 0.056 0h-0.003c11.717 0.045 22.462 4.17 30.896 11.027l-0.091-0.072 0.133-0.168 347.021 275.646-0.172 0.216c11.127 9.11 18.185 22.832 18.229 38.204v0.007zM78.103 48.56c-0.001 0-0.001 0-0.001 0-19.637 0-35.556 15.919-35.556 35.556s15.919 35.556 35.556 35.556c19.637 0 35.556-15.919 35.556-35.556 0 0 0 0 0 0v0c-0.023-19.627-15.927-35.532-35.553-35.556h-0.002z" />
<glyph unicode="&#xe98c;" glyph-name="fa-vacuum_technology" data-tags="fa-vacuum_technology" d="M362.666 42.667v42.666h-170.667v-42.666h-64v-21.334h298.666v21.334h-64zM85.334 128v106.666h64v-106.666h-64zM341.334 384v64h-128v-64h21.334v-42.667h-21.334v-64h21.334v-64h-64v-64h64v-42.666h85.334v170.666h21.334v64h-21.334v42.666h21.334z" />
<glyph unicode="&#xe98d;" glyph-name="fa-valve_manifolds" data-tags="fa-valve_manifolds" d="M64 426.667v-42.666h-21.334v-64h21.334v-85.334h-21.334v-64h21.334v-42.666h64v298.666h-64zM149.333 106.667h85.333v-64h-85.334v64zM256 106.667h85.334v-64h-85.334v64zM362.666 106.667h85.334v-64h-85.334v64zM149.333 426.667v-298.666h85.333v298.666zM213.333 149.333h-42.667v42.666h42.666zM213.333 362.667h-42.667v42.667h42.666zM256 426.667v-298.666h85.334v298.666zM320 149.333h-42.666v42.666h42.666zM320 362.667h-42.666v42.667h42.666zM362.666 426.667v-298.666h85.334v298.666zM426.666 149.333h-42.666v42.666h42.666zM426.666 362.667h-42.666v42.667h42.666z" />
<glyph unicode="&#xe98e;" glyph-name="fa-write_all" data-tags="fa-write_all" d="M106.666 277.333h-106.666v-85.333h106.666v-64l106.666 106.666-106.666 106.666v-64zM298.666 426.667h149.334v-64h-149.333v64zM234.667 490.667v-512h277.333v512zM341.334 21.333h-64v64h64zM341.334 128h-64v64h64zM341.334 234.667h-64v64h64zM469.334 128h-64v170.666h64zM469.334 341.333h-192v106.667h192z" />
<glyph unicode="&#xe98f;" glyph-name="file-delete" data-tags="file-delete" d="M128 341.333h277.334v42.667h-85.334v21.333h-106.666v-21.333h-85.334v-42.667zM149.333 320v-277.333h234.667v277.334z" />
<glyph unicode="&#xe990;" glyph-name="file-download" data-tags="file-download" d="M85.334 106.667h341.334v-64h-341.334v64zM362.666 256h-64v149.334h-85.334v-149.334h-64l106.666-106.666 106.666 106.666z" />
<glyph unicode="&#xe991;" glyph-name="file-edit" data-tags="file-edit" d="M85.334 132.309v-68.31h68.309l221.482 225.834-64.406 64.405-225.387-221.93zM326.853 370.337l32.199 32.199 64.398-64.398-32.199-32.199-64.398 64.398z" />
<glyph unicode="&#xe992;" glyph-name="file-export" data-tags="file-export" d="M362.666 170.667v-42.666h-213.333v213.333h42.667v64h-106.666v-341.334h341.334v106.666h-64zM277.334 405.333l43.733-45.248-105.579-105.6 60.33-60.33 105.6 105.578 45.248-43.733v149.333h-149.334z" />
<glyph unicode="&#xe993;" glyph-name="file-folder" data-tags="file-folder" d="M64 384h192v-42.667h-192v42.667zM64 320h384v-234.666h-384v234.666z" />
<glyph unicode="&#xe994;" glyph-name="file-import" data-tags="file-import" d="M362.666 170.667v-42.666h-213.333v213.333h42.667v64h-106.666v-341.334h341.334v106.666h-64zM405.334 234.667l-43.733 45.248 105.579 105.6-60.33 60.331-105.6-105.579-45.248 43.733v-149.333h149.334z" />
<glyph unicode="&#xe995;" glyph-name="file-link" data-tags="file-link" d="M308.797 267.961l-22.627 22.627-15.085-15.085 22.627-22.627c7.711-7.726 12.479-18.391 12.479-30.17s-4.768-22.444-12.48-30.171l-90.509-90.509c-7.718-7.699-18.369-12.46-30.133-12.46-23.564 0-42.667 19.103-42.667 42.666 0 11.764 4.761 22.416 12.46 30.134l22.626 22.627-15.085 15.085-22.627-22.628c-11.567-11.579-18.719-27.569-18.719-45.229 0-35.346 28.654-64 64-64 17.661 0 33.65 7.153 45.23 18.72l90.509 90.509c11.565 11.589 18.716 27.587 18.716 45.255s-7.151 33.666-18.717 45.256l0.001-0.001zM225.83 200.079l15.085 15.085-22.627 22.627c-7.711 7.726-12.479 18.391-12.479 30.17s4.768 22.444 12.48 30.171l90.509 90.509c7.717 7.699 18.369 12.46 30.133 12.46 23.564 0 42.666-19.102 42.666-42.666 0-11.764-4.76-22.416-12.461-30.134l-22.627-22.626 15.085-15.085 22.627 22.628c11.567 11.579 18.719 27.569 18.719 45.229 0 35.346-28.654 64-64 64-17.661 0-33.65-7.153-45.23-18.72l-90.509-90.509c-11.565-11.59-18.716-27.587-18.716-45.255s7.151-33.666 18.718-45.256l-0.001 0.001z" />
<glyph unicode="&#xe996;" glyph-name="file-order_config" data-tags="file-order_config" d="M64 362.667h256v-21.333h-256v21.333zM64 298.667h149.333v-21.333h-149.333v21.333zM64 234.667h192v-21.334h-192v21.334zM362.666 291.556l-170.667-170.666v-56.889h56.889l170.667 170.667zM398.354 326.961l28.36 28.359 56.921-56.92-28.36-28.36-56.921 56.921z" />
<glyph unicode="&#xe997;" glyph-name="file-paperclip" data-tags="file-paperclip" d="M245.333 426.667c-41.216-0.052-74.615-33.45-74.667-74.661v-224.005h21.334v224c0 29.455 23.878 53.333 53.334 53.333s53.334-23.878 53.334-53.333v0-256c0-17.673-14.327-32-32-32s-32 14.327-32 32v0 234.666c0 5.891 4.775 10.666 10.666 10.666s10.666-4.775 10.666-10.666v0-181.334h21.334v181.333c0 17.673-14.327 32-32 32s-32-14.327-32-32v0-234.666c0-29.455 23.878-53.334 53.334-53.334s53.334 23.878 53.334 53.334v0 256c-0.051 41.216-33.45 74.615-74.661 74.666h-0.005z" />
<glyph unicode="&#xe998;" glyph-name="file-printer" data-tags="file-printer" d="M128 405.333h234.667v-106.667h-234.667v106.667zM64 277.333v-149.333h64v-64h234.667v64h64v149.333zM341.334 85.333h-192v85.334h192zM384 213.333h-42.666v21.334h42.666z" />
<glyph unicode="&#xe999;" glyph-name="file-project_structure" data-tags="file-project_structure" d="M405.334 106.667v-64h-64v64h64zM405.334 213.333v-64h-64v64h64zM320 170.667v21.334h-85.334v64h-21.334v-192h106.666v21.334h-85.334v85.334h85.334zM234.667 405.333l-21.333 21.334h-85.334v-149.334h192v128z" />
<glyph unicode="&#xe99a;" glyph-name="file-ready_for_occupancy" data-tags="file-ready_for_occupancy" d="M342.358 435.392l-33.942 33.942-103.296-103.317-43.178 43.178-33.941-33.941 77.12-77.099 137.238 137.238zM384 384l-151.623-140.957c-12.003 4.786-25.914 7.561-40.472 7.561-61.909 0-112.097-50.188-112.097-112.096s50.187-112.096 112.097-112.096c61.909 0 112.097 50.188 112.097 112.096 0 18.848-4.651 36.608-12.869 52.198l0.294-0.612 28.575 23.239h42.666v42.666h42.666v42.666h42.666v85.334zM160 74.667c-17.673 0-32 14.327-32 32s14.327 32 32 32c17.673 0 32-14.327 32-32v0c0-17.673-14.327-32-32-32v0z" />
<glyph unicode="&#xe99b;" glyph-name="file-save" data-tags="file-save" d="M341.334 405.333h-21.334v-85.334h-149.333v85.334h-85.334v-341.334h341.334v256zM256 170.667c-23.564 0-42.666 19.103-42.666 42.666s19.102 42.666 42.666 42.666c23.564 0 42.666-19.102 42.666-42.666v0c0-23.564-19.103-42.666-42.666-42.666v0zM256 405.333h42.666v-64h-42.666v64z" />
<glyph unicode="&#xe99c;" glyph-name="file-search" data-tags="file-search" d="M320 170.729c-70.619 0.051-127.847 57.311-127.847 127.937 0 70.658 57.28 127.938 127.938 127.938s127.938-57.28 127.938-127.938c0-35.351-14.338-67.354-37.516-90.509l-0.001-0.001c-23.094-23.123-55.014-37.427-90.274-37.427-0.083 0-0.166 0-0.25 0h0.013zM320 405.281c-58.848-0.044-106.536-47.76-106.536-106.615 0-58.881 47.733-106.614 106.615-106.614s106.615 47.733 106.615 106.614c0 29.46-11.949 56.13-31.265 75.426l-0.001 0.001c-19.249 19.269-45.851 31.188-75.238 31.188-0.067 0-0.133 0-0.2 0h0.010zM214.405 193.072c-4.879 4.954-9.431 10.267-13.6 15.882l-0.285 0.402-106.794-106.795c-3.88-3.864-6.282-9.211-6.282-15.118 0-11.782 9.552-21.334 21.334-21.334 5.908 0 11.255 2.401 15.118 6.281l106.796 106.796c-6.018 4.454-11.331 9.005-16.304 13.903l0.018-0.019z" />
<glyph unicode="&#xe99d;" glyph-name="file-secure" data-tags="file-secure" d="M85.334 234.667h341.334v-213.333h-341.334v213.333zM272.034 447.024c-4.801 0.638-10.353 1.002-15.99 1.002-70.71 0-128.034-57.317-128.044-128.025v-42.668h42.667v38.16c-0.006 0.39-0.011 0.851-0.011 1.313 0 36.732 23.831 67.899 56.874 78.883l0.587 0.169c8.464 3.106 18.238 4.903 28.431 4.903 45.43 0 82.524-35.689 84.777-80.559l0.008-0.202v-42.666h42.666v37.809c0.010 0.613 0.016 1.336 0.016 2.060 0 65.687-48.257 120.103-111.252 129.73l-0.73 0.091z" />
<glyph unicode="&#xe99e;" glyph-name="file-share" data-tags="file-share" d="M352 149.333c-16.934-0.046-31.995-8.022-41.672-20.409l-0.088-0.118-144.853 72.427c3.369 6.844 5.341 14.897 5.341 23.411 0 29.813-24.168 53.982-53.982 53.982s-53.982-24.168-53.982-53.982c0-29.813 24.168-53.982 53.982-53.982 13.612 0 26.047 5.038 35.542 13.351l-0.063-0.053 148.452-74.226c-1.125-4.084-1.771-8.774-1.771-13.614 0-29.389 23.825-53.214 53.214-53.214s53.214 23.825 53.214 53.214c0 29.389-23.825 53.214-53.214 53.214-0.042 0-0.084 0-0.126 0h0.007zM352 405.333c-0.205 0.003-0.449 0.005-0.692 0.005-29.076 0-52.647-23.571-52.647-52.647 0-5.138 0.736-10.103 2.108-14.798l-0.093 0.372-128.325-64.163c4.694-5.139 8.713-11.010 11.845-17.394l0.195-0.439 125.847 62.923c9.836-12.432 24.923-20.337 41.855-20.337 29.403 0 53.239 23.836 53.239 53.239s-23.836 53.239-53.239 53.239c-0.033 0-0.066 0-0.099 0h0.005z" />
<glyph unicode="&#xe99f;" glyph-name="file-upload" data-tags="file-upload" d="M85.334 405.333h341.334v-64h-341.334v64zM149.333 192h64v-149.334h85.333v149.333h64l-106.666 106.666-106.666-106.666z" />
<glyph unicode="&#xe9a0;" glyph-name="file-visible" data-tags="file-visible" d="M256 362.667c-144 0-234.667-149.333-234.667-149.333s90.666-149.333 234.667-149.333 234.667 149.333 234.667 149.333-90.666 149.333-234.667 149.333zM256 128c-47.129 0-85.334 38.205-85.334 85.334s38.205 85.334 85.334 85.334c47.129 0 85.334-38.205 85.334-85.334v0c0-47.129-38.205-85.334-85.334-85.334v0zM298.666 213.333c0-23.564-19.103-42.666-42.666-42.666s-42.666 19.103-42.666 42.666c0 23.564 19.102 42.666 42.666 42.666s42.666-19.102 42.666-42.666z" />
<glyph unicode="&#xe9a1;" glyph-name="image-attached_images" data-tags="image-attached_images" d="M64 384v-362.666h448v362.666zM469.334 64h-362.666v277.333h362.666zM213.333 277.333c0-23.564-19.102-42.666-42.667-42.666s-42.666 19.102-42.666 42.666c0 23.564 19.102 42.666 42.666 42.666s42.666-19.102 42.666-42.666zM341.334 256l-106.666-128-42.666 42.666-64-85.334h320l-106.666 170.666zM448 405.333v42.666h-448v-362.666h42.666v320h405.334z" />
<glyph unicode="&#xe9a2;" glyph-name="image-camera" data-tags="image-camera" d="M0 341.333h362.666v-213.333h-362.666v213.333zM512 128l-128 64v85.333l128 64v-213.333z" />
<glyph unicode="&#xe9a3;" glyph-name="image-focus" data-tags="image-focus" d="M42.666 106.667h-42.666v-128h128v42.667h-85.334v85.334zM0 362.667h42.666v85.334h85.334v42.666h-128v-128zM384 490.667v-42.666h85.334v-85.334h42.666v128h-128zM469.334 21.333h-85.334v-42.667h128v128h-42.666v-85.334zM277.334 341.333h-42.666v-85.333h-85.334v-42.666h85.334v-85.334h42.666v85.334h85.334v42.666h-85.334v85.333z" />
<glyph unicode="&#xe9a4;" glyph-name="image-image" data-tags="image-image" d="M448 384v-298.666h-384v298.666h384zM21.334 426.667v-384h469.334v384zM170.667 320c0-23.564-19.102-42.666-42.667-42.666s-42.666 19.102-42.666 42.666c0 23.564 19.103 42.667 42.666 42.667s42.666-19.103 42.666-42.667zM298.666 277.333l-85.334-128-42.666 42.666-85.334-85.334h341.334l-128 170.666z" />
<glyph unicode="&#xe9a5;" glyph-name="it-different_devices" data-tags="it-different_devices" d="M384 277.333v-213.333h128v213.333zM469.334 85.333h-42.666v21.334h42.666zM426.666 405.333h-426.666v-277.334h192v-42.666h-42.666v-21.334h128v21.334h-42.666v42.666h106.666v192h85.334v85.334z" />
<glyph unicode="&#xe9a6;" glyph-name="it-fax" data-tags="it-fax" d="M170.667 320v-234.666h277.333v234.666zM277.334 149.333h-21.334v21.334h21.334zM277.334 192h-21.334v21.334h21.334zM277.334 234.667h-21.334v21.334h21.334zM320 149.333h-21.334v21.334h21.334zM320 192h-21.334v21.334h21.334zM320 234.667h-21.334v21.334h21.334zM362.666 149.333h-21.334v21.334h21.334zM362.666 192h-21.334v21.334h21.334zM362.666 234.667h-21.334v21.334h21.334zM192 405.333h234.667v-64h-234.667v64zM85.334 362.667h64v-277.333h-64v277.333z" />
<glyph unicode="&#xe9a7;" glyph-name="it-firmware" data-tags="it-firmware" d="M149.333 448h21.333v-42.667h-21.334v42.667zM213.333 448h21.333v-42.667h-21.334v42.667zM277.334 448h21.334v-42.667h-21.334v42.667zM341.334 448h21.334v-42.667h-21.334v42.667zM149.333 64h21.333v-42.666h-21.334v42.666zM213.333 64h21.333v-42.666h-21.334v42.666zM277.334 64h21.334v-42.666h-21.334v42.666zM341.334 64h21.334v-42.666h-21.334v42.666zM85.334 341.333v-21.333h-42.666v21.333h42.666zM85.334 277.333v-21.333h-42.666v21.333h42.666zM85.334 213.333v-21.334h-42.666v21.334h42.666zM85.334 149.333v-21.334h-42.666v21.334h42.666zM469.334 341.333v-21.333h-42.666v21.333h42.666zM469.334 277.333v-21.333h-42.666v21.333h42.666zM469.334 213.333v-21.334h-42.666v21.334h42.666zM469.334 149.333v-21.334h-42.666v21.334h42.666zM362.666 384h-213.333c-16.661-16.663-26.004-26.004-42.666-42.667v-213.333c16.663-16.663 26.005-26.004 42.666-42.666h213.333c16.663 16.663 26.005 26.004 42.666 42.666v213.333c-16.661 16.663-26.004 26.004-42.666 42.667zM181.333 128c-17.673 0-32 14.327-32 32s14.327 32 32 32c17.673 0 32-14.327 32-32v0c0-17.673-14.327-32-32-32v0z" />
<glyph unicode="&#xe9a8;" glyph-name="it-harddrive" data-tags="it-harddrive" d="M469.334 234.667l-64 128h-298.666l-64-128zM42.666 213.333v-128h426.666v128zM298.666 128h-42.666v42.666h42.666zM362.666 128h-42.666v42.666h42.666zM426.666 128h-42.666v42.666h42.666z" />
<glyph unicode="&#xe9a9;" glyph-name="it-keyboard" data-tags="it-keyboard" d="M0 362.667v-256h512v256zM341.334 320h42.666v-42.666h-42.666zM277.334 320h42.666v-42.666h-42.666zM298.666 256v-42.666h-42.666v42.666zM213.333 320h42.667v-42.666h-42.666zM234.667 256v-42.666h-42.667v42.666zM149.333 320h42.667v-42.666h-42.666zM64 320h64v-42.666h-64zM106.666 213.333h-42.666v42.666h42.666zM128 256h42.666v-42.666h-42.666zM362.666 149.333h-192v42.666h192zM362.666 213.333h-42.666v42.666h42.666zM448 213.333h-64v42.666h64zM448 277.333h-42.666v42.667h42.666z" />
<glyph unicode="&#xe9aa;" glyph-name="it-laptop" data-tags="it-laptop" d="M85.334 362.667h341.334v-192h-341.334v192zM512 42.667h-512v42.666h192v-21.334h106.666v21.334h213.334v-42.666zM448 384v-234.667h-384v234.666zM448 426.667h-384c-23.564 0-42.666-19.103-42.666-42.666v0-277.334h469.334v277.334c0 23.564-19.103 42.666-42.666 42.666v0z" />
<glyph unicode="&#xe9ab;" glyph-name="it-memorystick" data-tags="it-memorystick" d="M149.333 320v-298.666c0-23.564 19.103-42.666 42.667-42.666h128c23.564 0 42.666 19.103 42.666 42.666v0 298.666zM298.666 42.667h-85.334v21.334h85.334zM170.667 490.667v-128h170.667v128zM234.667 405.333h-21.333v21.334h21.334zM298.666 405.333h-21.334v21.334h21.334z" />
<glyph unicode="&#xe9ac;" glyph-name="it-monitor" data-tags="it-monitor" d="M85.334 362.667h341.334v-213.333h-341.334v213.333zM490.666 85.333v341.334h-469.334v-341.334h192v-21.334h-42.666v-42.666h170.666v42.666h-42.666v21.334zM64 128v256h384v-256z" />
<glyph unicode="&#xe9ad;" glyph-name="it-mouse" data-tags="it-mouse" d="M277.334 339.477v-126.144h-42.666v126.144c-48.227-7.668-85.334-23.248-85.334-78.841v-175.304c0-58.911 47.757-106.667 106.666-106.667v0 0c58.911 0 106.666 47.757 106.666 106.667v0 175.304c0 55.592-37.106 71.172-85.334 78.84zM277.334 362.667h-42.666v21.334c0.040 35.33 28.669 63.96 63.996 64h21.337c11.776 0.016 21.317 9.557 21.334 21.332v21.335h42.666v-21.334c-0.040-35.33-28.669-63.96-63.996-64h-21.337c-11.776-0.016-21.317-9.558-21.334-21.332v-0.001z" />
<glyph unicode="&#xe9ae;" glyph-name="it-projector" data-tags="it-projector" d="M256 256c0-35.346-28.654-64-64-64s-64 28.654-64 64c0 35.346 28.654 64 64 64s64-28.654 64-64zM255.414 341.333c-17.403 13.313-39.472 21.333-63.414 21.333s-46.011-8.019-63.667-21.519l0.253 0.186h-128.586v-170.666h128.586c17.403-13.313 39.472-21.333 63.414-21.333s46.011 8.019 63.667 21.519l-0.253-0.185h256.586v170.666zM192 170.667c-47.129 0-85.334 38.205-85.334 85.334s38.205 85.333 85.334 85.333c47.129 0 85.334-38.205 85.334-85.333v0c0-47.128-38.205-85.334-85.334-85.334v0zM469.334 213.333h-85.334v21.334h85.334zM469.334 277.333h-85.334v21.333h85.334zM0 149.333h106.666v-21.334h-106.666v21.334zM405.334 149.333h106.666v-21.334h-106.666v21.334z" />
<glyph unicode="&#xe9af;" glyph-name="it-repository" data-tags="it-repository" d="M64 170.667v-85.334h384v85.334zM128 106.667h-42.666v42.666h42.666zM64 277.333v-85.333h384v85.333zM128 213.333h-42.666v42.666h42.666zM64 384v-85.334h384v85.334zM128 320h-42.666v42.666h42.666zM192 320h-42.666v42.666h42.666zM256 320h-42.666v42.666h42.666z" />
<glyph unicode="&#xe9b0;" glyph-name="it-save_permanently" data-tags="it-save_permanently" d="M106.666 448h21.334v-64h-21.334v64zM170.667 448h21.333v-64h-21.334v64zM234.667 448h21.333v-64h-21.334v64zM320 384h-21.334v64h21.334v-64zM362.666 448h21.334v-64h-21.334v64zM106.666 85.333h21.334v-64h-21.334v64zM170.667 85.333h21.333v-64h-21.334v64zM234.667 85.333h21.333v-64h-21.334v64zM298.666 85.333h21.334v-64h-21.334v64zM362.666 85.333h21.334v-64h-21.334v64zM64 362.667v-256h362.666v256zM219.898 155.008l11.046 65.436h-33.384l66.663 99.581-11.052-71.135h33.385z" />
<glyph unicode="&#xe9b1;" glyph-name="it-smartphone" data-tags="it-smartphone" d="M192 362.667h128v-213.333h-128v213.333zM384 426.667h-256v-384h256zM277.334 64h-42.666v42.666h42.666zM341.334 128h-170.667v256h170.667z" />
<glyph unicode="&#xe9b2;" glyph-name="it-smartwatch" data-tags="it-smartwatch" d="M362.666 298.667v42.667c0 11.782-9.551 21.333-21.334 21.333v0h-192c-11.782 0-21.334-9.551-21.334-21.333v0-213.334c0-11.782 9.551-21.334 21.334-21.334v0h192c11.782 0 21.334 9.551 21.334 21.334v0 106.666h21.334v64zM320 149.333h-149.333v170.666h149.333zM192 85.333h106.666v-85.334c0-11.782-9.551-21.334-21.334-21.334v0h-64c-11.782 0-21.334 9.552-21.334 21.334v0 85.334zM213.333 490.667h64c11.782 0 21.334-9.552 21.334-21.334v0-85.334h-106.666v85.334c0 11.782 9.552 21.334 21.334 21.334v0zM192 298.667h106.666v-128h-106.666v128z" />
<glyph unicode="&#xe9b3;" glyph-name="it-software" data-tags="it-software" d="M213.333 448v-88.323c9.714 1.849 20.887 2.906 32.308 2.906 99.978 0 181.026-81.048 181.026-181.026 0-27.147-5.976-52.898-16.683-76.010l0.466 1.12h80.217v341.334zM245.333 341.333c-88.365 0-160-71.635-160-160s71.635-160 160-160c88.365 0 160 71.635 160 160v0c0 88.365-71.635 160-160 160v0zM195.389 199.512l-80.36 29.248c17.14 46.151 56.862 80.2 105.378 89.005l0.846 0.127 14.839-84.157c-18.928-3.44-34.151-16.513-40.584-33.856l-0.119-0.368zM245.333 149.333c-17.673 0-32 14.327-32 32s14.327 32 32 32c17.673 0 32-14.327 32-32v0c0-17.673-14.327-32-32-32v0z" />
<glyph unicode="&#xe9b4;" glyph-name="it-tablet" data-tags="it-tablet" d="M0 42.667h512v384h-512zM448 256h42.666v-42.666h-42.666zM42.666 384h384v-298.666h-384zM384 128h-298.666v213.333h298.666v-213.333z" />
<glyph unicode="&#xe9b5;" glyph-name="it-update_inclusive" data-tags="it-update_inclusive" d="M490.666 106.667v320h-448v-320h192v-42.666h-42.666v-42.666h170.667v42.666h-42.666v42.666zM85.334 149.333v234.666h362.666v-234.666zM199.317 277.333c7.427 32.287 35.92 56 69.952 56 20.333 0 38.688-8.465 51.736-22.063l0.024-0.025 22.507 22.512c-18.842 19.481-45.217 31.575-74.416 31.575-51.687 0-94.524-37.894-102.242-87.417l-0.075-0.582h-42.438l56.969-56.968 56.969 56.968zM297.242 256h38.984c-7.427-32.287-35.92-56-69.952-56-20.333 0-38.689 8.465-51.736 22.063l-0.024 0.025-22.516-22.515c18.843-19.479 45.218-31.572 74.417-31.572 51.69 0 94.528 37.894 102.25 87.418l0.075 0.582h42.438l-56.969 56.969z" />
<glyph unicode="&#xe9b6;" glyph-name="it-usb" data-tags="it-usb" d="M320 320v-64h21.334v-35.396l-64-33.185v153.914h64l-74.666 128-74.666-128h64v-175.248l-64 33.185v16.022c12.535 4.526 21.334 16.32 21.334 30.17 0 17.673-14.327 32-32 32s-32-14.327-32-32c0-13.849 8.798-25.644 21.111-30.099l0.223-0.070v-28.979l85.334-44.252v-36.469c-24.518-5.136-42.666-26.577-42.666-52.256 0-29.455 23.878-53.334 53.334-53.334s53.334 23.878 53.334 53.334c0 25.68-18.149 47.12-42.32 52.195l-0.347 0.061v57.802l85.334 44.252v48.354h21.334v64z" />
<glyph unicode="&#xe9b7;" glyph-name="it-workplace" data-tags="it-workplace" d="M448 64h-405.334l64 64h277.334l64-64zM64 426.667v-256h128v-21.334h106.666v21.334h128v256zM384 213.333h-277.334v170.666h277.334zM128 362.667h234.667v-128h-234.667v128z" />
<glyph unicode="&#xe9b8;" glyph-name="it-workstation" data-tags="it-workstation" d="M362.666 341.333v-277.334h149.334v277.334zM469.334 234.667h-64v21.334h64zM469.334 277.333h-64v21.333h64zM64 341.333h277.334v-192h-277.334v192zM42.666 362.667h341.334v42.667h-384v-320h128v-21.334h85.334v21.334h128v42.666h-298.666v234.666z" />
<glyph unicode="&#xe9b9;" glyph-name="language-country" data-tags="language-country" d="M240 458.667c-88.365 0-160-71.635-160-160s71.635-160 160-160c88.365 0 160 71.635 160 160v0c0 88.366-71.635 160-160 160v0zM112 298.667c0 0.004 0 0.008 0 0.012 0 13.356 2.052 26.231 5.859 38.33l-0.245-0.904 67.134-83.92 15.971-47.91 3.726 3.726 30.221 35.555v53.333l-65.778 17.778 35.556 17.778 30.221 35.556v37.334h-42.667v9.543c12.772 7.457 28.117 11.86 44.49 11.86 1.234 0 2.463-0.025 3.685-0.075l-0.175 0.005c17.262-0.007 33.717-3.453 48.721-9.689l-0.842 0.31-12.324-49.288 63.156 12.067c8.421-11.209 16.438-23.886 23.422-37.19l0.738-1.543h-53.538l-32-24.889v-35.555l49.778-17.779-17.777-53.333 18.826-3.676c-22.91-21.933-54.046-35.435-88.336-35.435-70.596 0-127.825 57.229-127.825 127.825 0 0.062 0 0.124 0 0.185v-0.010zM464 298.667c0 0.009 0 0.018 0 0.028 0 65.806-28.482 124.96-73.791 165.805l-0.199 0.177-22.69-22.69c39.755-35.294 64.681-86.533 64.681-143.593 0-105.889-85.84-191.729-191.729-191.729-57.060 0-108.299 24.926-143.421 64.484l-0.172 0.197-22.689-22.69c35.076-39.357 83.57-66.098 138.244-73.010l1.099-0.113v-32.866h-64v-42.666h170.667v42.666h-64v32.808c116.585 8.525 207.949 105.181 208 223.187v0.005z" />
<glyph unicode="&#xe9ba;" glyph-name="language-exchange_local_currency" data-tags="language-exchange_local_currency" d="M0 256h234.667v234.667h-234.667zM121.76 357.659c-1.362-0.123-2.947-0.194-4.548-0.194-27.566 0-50.263 20.844-53.192 47.63l-0.021 0.239c1.79 23.148 19.106 41.768 41.467 45.54l0.294 0.041v18.419h32v-18.419c22.655-3.812 39.972-22.433 41.752-45.409l0.011-0.172h-31.346c0 7.723-10.849 16.326-26.416 16.326s-26.412-8.603-26.412-16.326 10.847-16.325 26.41-16.325c1.363 0.123 2.948 0.194 4.55 0.194 27.566 0 50.264-20.844 53.193-47.63l0.021-0.239c-1.791-23.149-19.108-41.769-41.469-45.54l-0.293-0.041v-18.419h-32v18.419c-22.654 3.813-39.97 22.433-41.75 45.41l-0.010 0.171h31.349c0-7.723 10.847-16.325 26.41-16.325s26.418 8.603 26.418 16.325-10.849 16.325-26.416 16.325zM384 341.333h106.666v64h-106.666v64l-106.666-96 106.666-96v64zM128 128h-106.666v-64h106.666v-64l106.666 96-106.666 96v-64zM277.334 213.333v-234.667h234.666v234.667zM426.666 128v-21.334h-55.349l-0.344-2.143-0.050-1.252-0.094-2-0.065-1.404c0-2.402 0.146-5.034 0.458-8.274l0.297-3.072 0.776-3.19h54.37v-21.334h-47.493c5.327-13.154 17.289-22.598 31.623-24.233l0.178-0.017c8.253 0.322 15.636 3.805 21.020 9.264l0.003 0.003 32-11.823c-11.835-17.341-31.249-28.753-53.365-29.443l-0.103-0.002c-32.409 2.543-58.846 25.395-66.724 55.73l-0.115 0.52h-23.693v21.334h18.729l-0.563 3.19c-0.36 3.729-0.604 7.501-0.604 11.351 0 1.569 0.125 3.099 0.183 4.649l0.252 2.143h-17.998v21.334h21.524c5.869 34.409 33.933 60.768 68.705 63.978l0.303 0.022c22.219-0.692 41.634-12.105 53.32-29.215l0.149-0.231-32-11.823c-5.387 5.463-12.769 8.946-20.964 9.267l-0.059 0.002c-17.159-2.74-30.772-15.334-34.969-31.702l-0.065-0.298z" />
<glyph unicode="&#xe9bb;" glyph-name="language-language" data-tags="language-language" d="M128 320h42.666v-42.666h-42.666v42.666zM0 448v-341.334h85.334v-85.334l85.334 85.334h341.333v341.334zM213.333 192h-42.667v42.666h-42.666v-42.666h-42.666v170.666h128zM448 277.333h-55.254l48.853-48.853-30.080-30.080-48.853 48.853-48.853-48.853-30.080 30.080 48.853 48.853h-55.254v42.666h64v42.667h42.666v-42.667h64z" />
<glyph unicode="&#xe9bc;" glyph-name="language-maps" data-tags="language-maps" d="M320 341.333l-106.666 42.667v-42.667l106.666-42.667v-192l-106.666 42.666v-42.666l106.666-42.666 106.666 42.666v277.334l-106.666-42.667zM192 384l-106.666-42.667v-277.334l106.666 42.666v277.334z" />
<glyph unicode="&#xe9bd;" glyph-name="list-acknowledge_all" data-tags="list-acknowledge_all" d="M0 384h64v-64h-64v64zM128 384h170.667v-64h-170.667v64zM0 256h64v-64h-64v64zM128 256h149.333v-64h-149.333v64zM0 128h64v-64h-64v64zM128 128h234.667v-64h-234.667v64zM390.4 309.867l-49.6 48 22.4 22.4 27.2-27.2 78.4 78.4 22.4-20.8zM390.4 181.867l-49.6 48 22.4 22.4 27.2-27.2 78.4 78.4 22.4-20.8z" />
<glyph unicode="&#xe9be;" glyph-name="list-add_line" data-tags="list-add_line" d="M42.666 277.333h426.666v-42.666h-426.666v42.666zM42.666 362.667h426.666v-42.666h-426.666v42.666zM42.666 448h426.666v-42.667h-426.666v42.667zM277.334 192h192v-42.666h-192v42.666zM149.333 191.979h-42.666v-63.957h-64v-42.666h64v-64.022h42.666v64.022h64v42.666h-64v63.957z" />
<glyph unicode="&#xe9bf;" glyph-name="list-filter" data-tags="list-filter" d="M64 448v-64l149.333-149.334v-192l64 42.666v149.334l149.333 149.333v64h-362.666z" />
<glyph unicode="&#xe9c0;" glyph-name="list-grid_view" data-tags="list-grid_view" d="M64 426.667h106.666v-106.666h-106.666v106.666zM192 426.667h106.666v-106.666h-106.666v106.666zM320 426.667h106.666v-106.666h-106.666v106.666zM64 298.667h106.666v-106.666h-106.666v106.666zM192 298.667h106.666v-106.666h-106.666v106.666zM320 298.667h106.666v-106.666h-106.666v106.666zM64 170.667h106.666v-106.666h-106.666v106.666zM192 170.667h106.666v-106.666h-106.666v106.666zM320 170.667h106.666v-106.666h-106.666v106.666z" />
<glyph unicode="&#xe9c1;" glyph-name="list-list_view" data-tags="list-list_view" d="M42.666 384h64v-64h-64v64zM149.333 384h320v-64h-320v64zM42.666 256h64v-64h-64v64zM149.333 256h320v-64h-320v64zM42.666 128h64v-64h-64v64zM149.333 128h320v-64h-320v64z" />
<glyph unicode="&#xe9c2;" glyph-name="list-variable_list" data-tags="list-variable_list" d="M256 362.667h234.667v-42.666h-234.667v42.666zM256 256h234.667v-42.666h-234.667v42.666zM256 149.333h234.667v-42.666h-234.667v42.666zM128 213.333c-47.129 0-85.334-38.205-85.334-85.334s38.205-85.334 85.334-85.334c47.129 0 85.334 38.205 85.334 85.334v0c-0.056 47.106-38.227 85.276-85.328 85.334h-0.006zM128 76.8c-0.001 0-0.001 0-0.002 0-28.277 0-51.2 22.923-51.2 51.2s22.923 51.2 51.2 51.2c28.277 0 51.2-22.923 51.2-51.2v0c-0.030-28.264-22.934-51.168-51.195-51.2h-0.003zM213.333 402.283l-24.384 24.384-60.95-60.95-60.95 60.95-24.384-24.384 60.95-60.95-60.95-60.95 24.384-24.384 60.95 60.95 60.95-60.95 24.384 24.384-60.95 60.95 60.95 60.95z" />
<glyph unicode="&#xe9c3;" glyph-name="measure-actual_position" data-tags="measure-actual_position" d="M170.667 384v21.333h-42.667v-362.666h42.666v21.334h-21.334v64h21.334v21.334h-21.334v64h21.334v21.334h-21.334v64h21.334v21.333h-21.334v64h21.334zM298.666 341.333v64l-106.666-96 106.666-96v64h106.666v64h-106.666z" />
<glyph unicode="&#xe9c4;" glyph-name="measure-axis_speed" data-tags="measure-axis_speed" d="M210.746 247.922c-11.582-11.582-18.746-27.582-18.746-45.255 0-35.346 28.654-64 64-64s64 28.654 64 64c0 17.673-7.164 33.674-18.746 45.255v0c-11.582 11.581-27.582 18.744-45.254 18.744s-33.673-7.163-45.254-18.744v0zM482.274 428.942c-2.896 2.896-6.896 4.686-11.313 4.686s-8.418-1.791-11.313-4.686v0l-159.322-141.619c17.661-8.709 31.622-22.668 40.103-39.821l0.228-0.51 141.619 159.321c2.896 2.895 4.687 6.896 4.687 11.314s-1.791 8.419-4.687 11.315v0zM32 202.667c0.017 50.947 17.151 97.888 45.963 135.39l-0.388-0.526-24.203 21.175c-33.281-42.409-53.372-96.546-53.372-155.376 0-23.546 3.219-46.341 9.24-67.969l-0.422 1.778 30.398 10.134c-4.508 16.6-7.136 35.673-7.215 55.346v0.048zM18.837 106.745c13.873-33.783 33.438-62.589 57.768-86.573l0.031-0.030 21.011 24.245c-20.207 20.226-36.581 44.286-47.936 70.995l-0.556 1.471zM372.051 393.894l25.063 22.278c-39.713 26.626-88.585 42.494-141.164 42.494-71.034 0-135.302-28.963-181.642-75.723l-0.019-0.019 24.219-21.192c40.288 40.126 95.859 64.933 157.224 64.933 43.029 0 83.208-12.197 117.27-33.322l-0.951 0.549z" />
<glyph unicode="&#xe9c5;" glyph-name="measure-consumption" data-tags="measure-consumption" d="M42.666 362.667v-234.666h128v234.666zM128 170.667h-21.334v106.666h-21.334v21.333h21.334v21.334h21.334zM448 362.667v-106.666h-21.334v64h-64v42.666h-21.334v-234.666h85.334v21.334h-21.334v21.334h21.334v21.334h-64v21.334h85.334v-85.334h21.334v234.666h-21.334zM384 362.667h42.666v-21.333h-42.666v21.333zM192 362.667v-234.666h128v234.666zM298.666 256h-21.334v-21.333h-21.334v-21.334h-21.334v-21.334h64v-21.334h-85.334v42.666h21.334v21.334h21.334v21.333h21.334v42.667h-42.666v-21.334h-21.334v21.334h21.334v21.333h42.666v-21.333h21.334z" />
<glyph unicode="&#xe9c6;" glyph-name="measure-current_position" data-tags="measure-current_position" d="M469.334 256h-85.873c-5.405 68.11-59.351 122.056-126.976 127.43l-0.484 0.031v85.873h-21.334v-85.873c-68.11-5.405-122.056-59.351-127.43-126.977l-0.031-0.484h-85.873v-21.333h85.873c5.405-68.11 59.351-122.056 126.976-127.43l0.484-0.031v-85.873h21.333v85.873c68.11 5.405 122.056 59.351 127.43 126.976l0.031 0.484h85.873zM245.333 128c-64.802 0-117.334 52.532-117.334 117.333s52.532 117.334 117.334 117.334c64.802 0 117.333-52.532 117.333-117.334v0c0-64.802-52.532-117.333-117.334-117.333v0zM298.666 245.333c0-29.455-23.878-53.333-53.334-53.333s-53.334 23.878-53.334 53.333c0 29.455 23.878 53.334 53.334 53.334s53.334-23.878 53.334-53.334z" />
</font>
</defs>
</svg>
