<?xml version="1.0" standalone="no"?>
<!DOCTYPE svg PUBLIC "-//W3C//DTD SVG 1.1//EN" "http://www.w3.org/Graphics/SVG/1.1/DTD/svg11.dtd" >
<svg xmlns="http://www.w3.org/2000/svg">
<metadata>Generated by IcoMoon</metadata>
<defs>
<font id="icomoon" horiz-adv-x="1024">
<font-face units-per-em="1024" ascent="960" descent="-64" />
<missing-glyph horiz-adv-x="1024" />
<glyph unicode="&#x20;" horiz-adv-x="512" d="" />
<glyph unicode="&#xe900;" glyph-name="youtube" d="M567.164 304.168c-0.022 3.836-1.135 7.831-2.536 11.419-1.869 4.717-5.873 7.064-10.901 7.56-5.895 0.587-10.611-1.828-14.883-5.664-1.713-1.512-2.492-3.769-2.492-3.769l0.089-121.797v-3.001c0 0 1.023-1.399 1.179-1.58 3.47-3.814 7.519-6.838 12.702-7.921 8.542-1.783 14.571 1.828 16.24 9.862 0.423 2.009 0.667 4.085 0.667 6.138 0.044 36.266 0.111 72.509-0.067 108.753zM567.164 304.168c-0.022 3.836-1.135 7.831-2.536 11.419-1.869 4.717-5.873 7.064-10.901 7.56-5.895 0.587-10.611-1.828-14.883-5.664-1.713-1.512-2.492-3.769-2.492-3.769l0.089-121.797v-3.001c0 0 1.023-1.399 1.179-1.58 3.47-3.814 7.519-6.838 12.702-7.921 8.542-1.783 14.571 1.828 16.24 9.862 0.423 2.009 0.667 4.085 0.667 6.138 0.044 36.266 0.111 72.509-0.067 108.753zM701.597 487.845c-142.085 3.092-284.237 3.092-426.344 0-49.297-1.061-88.717-41.953-88.717-91.985v-225.133c0-50.055 39.42-90.947 88.717-92.008 142.107-3.092 284.259-3.092 426.344 0 49.319 1.061 88.739 41.953 88.739 92.008v225.133c0 50.030-39.42 90.924-88.739 91.985zM316.986 150.211h-40.977v234.995h-42.423v39.313h125.912v-39.222h-42.512v-235.086zM463.632 247.75v-97.559h-36.283v22.297c-1.313-1.422-2.047-2.189-2.736-2.979-7.808-8.937-16.662-16.384-27.963-20.333-5.517-1.918-11.19-2.573-16.996-1.557-7.92 1.331-13.236 5.958-16.44 13.27-2.981 6.748-3.737 13.969-3.76 21.236-0.089 26.855-0.044 168.985-0.044 170.362h36.194c0.067-1.241 0.2-103.269 0.222-153.030 0-2.708 0.022-5.484 0.556-8.124 1.335-6.68 6.385-9.546 12.725-7.199 7.297 2.708 12.858 7.808 17.53 13.924 0.69 0.88 0.69 2.46 0.69 3.724v150.931l36.305 0.090c0-0.002 0-71.246 0-105.052zM601.668 169.689c-4.85-14.804-15.528-22.342-30.877-22.184-12.48 0.113-22.602 5.145-30.944 14.33-0.934 1.016-3.515 3.791-3.515 3.791v-15.391h-36.35v274.308h36.35c0-29.202 0-90.293 0-90.293s2.047 4.152 3.915 6.296c5.628 6.387 12.48 11.329 20.933 13.495 13.948 3.543 30.032-0.835 37.685-17.377 4.516-9.772 5.784-20.198 5.784-30.805 0.067-38.342 0.067-76.684 0.022-115.027-0.022-7.176-0.756-14.265-3.003-21.146zM735.923 177.404c-6.296-18.708-19.31-29.089-38.397-31.933-11.835-1.76-23.559-1.512-34.659 3.588-15.194 6.951-23.803 19.521-27.496 35.521-1.713 7.447-2.558 15.256-2.647 22.906-0.289 30.037-0.156 60.097-0.089 90.135 0.022 15.707 3.715 30.195 14.326 42.224 12.102 13.744 27.585 18.866 45.271 17.715 5.317-0.339 10.745-1.219 15.795-2.911 17.196-5.732 26.384-18.799 29.988-36.131 1.379-6.68 1.891-13.608 2.002-20.446 0.289-16.023-0.111-51.341-0.111-51.341h-69.608v-50.619c0-9.095 7.252-16.452 16.217-16.452 8.943 0 16.195 7.357 16.195 16.452v26.020h37.396c0 0.002 0.556-30.714-4.182-44.729zM702.709 306.536c0 9.072-7.252 16.452-16.195 16.452-8.965 0-16.217-7.38-16.217-16.452v-28.412h32.412v28.412zM564.628 315.585c-1.869 4.717-5.873 7.064-10.901 7.56-5.895 0.587-10.611-1.828-14.883-5.664-1.713-1.512-2.492-3.769-2.492-3.769l0.089-121.797v-3.001c0 0 1.023-1.399 1.179-1.58 3.47-3.814 7.519-6.838 12.702-7.921 8.542-1.783 14.571 1.828 16.24 9.862 0.423 2.009 0.667 4.085 0.667 6.138 0.044 36.266 0.111 72.509-0.067 108.753-0.022 3.839-1.135 7.833-2.536 11.419zM657.545 748.17l-0.011-203.658h-37.2l0.044 21.879c-4.113-4.11-7.624-7.948-11.481-11.397-6.838-6.111-14.584-10.668-23.645-12.466-13.91-2.76-25.759 1.702-30.194 16.316-1.477 4.868-2.369 10.115-2.407 15.197v174.129h36.919v-155.312c0-2.058 0.162-4.139 0.518-6.156 1.121-6.4 5.784-9.413 11.859-7.276 7.406 2.6 13.056 7.802 17.85 13.931 0.681 0.876 0.558 2.51 0.558 3.794v151.019h37.189zM349.863 712.78c-8.075 34.531-24.993 107.426-24.993 107.426h-42.332c0 0 32.524-109.423 47.068-158.223 0.523-1.765 0.763-3.681 0.763-5.529l-0.016-111.899h39.035l-0.016 111.899c0 1.848 0.24 3.764 0.763 5.529 14.544 48.8 47.068 158.223 47.068 158.223h-42.332c0 0-16.92-72.895-24.993-107.426h-0.016zM468.154 753.268v0c-29.418 0-53.266-24.192-53.266-54.036v-105.749c0-29.843 23.848-54.036 53.266-54.036v0c29.418 0 53.266 24.192 53.266 54.036v105.749c0.002 29.843-23.848 54.036-53.266 54.036zM483.526 591.349c0-8.598-6.896-15.592-15.37-15.592s-15.37 6.994-15.37 15.592v110.021c0 8.598 6.896 15.592 15.37 15.592s15.37-6.996 15.37-15.592v-110.021z" />
<glyph unicode="&#xe901;" glyph-name="time" d="M512-44.617c-277.114 0-501.76 224.646-501.76 501.76s224.646 501.76 501.76 501.76c277.114 0 501.76-224.646 501.76-501.76s-224.646-501.76-501.76-501.76zM512-24.137c265.804 0 481.28 215.476 481.28 481.28s-215.476 481.28-481.28 481.28c-265.804 0-481.28-215.476-481.28-481.28s215.476-481.28 481.28-481.28zM510.137 441.637v355.631h-20.48v-376.111h237.332v20.48z" />
<glyph unicode="&#xe902;" glyph-name="sun" horiz-adv-x="1056" d="M520 145.143c-176.731 0-320 143.269-320 320s143.269 320 320 320c176.731 0 320-143.269 320-320s-143.269-320-320-320zM520 161.143c167.895 0 304 136.105 304 304s-136.105 304-304 304c-167.895 0-304-136.105-304-304s136.105-304 304-304zM512-46.857v120h-16v-120zM1048.25 489.143h-128.25v-16h128.25zM136.25 489.143h-128.25v-16h128.25zM512 849.143v120h-16v-120zM141.476 125.246l84.853 84.853-11.314 11.314-84.853-84.853zM902.5 127.898l-90.686 90.686-11.314-11.314 90.686-90.686zM257.618 772.78l-90.686 90.686-11.314-11.314 90.686-90.686zM775.044 758.814l84.853 84.853-11.314 11.314-84.853-84.853z" />
<glyph unicode="&#xe903;" glyph-name="phone" d="M663.366 389.953c25.373 25.277 56.269 39.221 88.93 39.221 32.903 0 63.806-14.159 88.185-39.407l112.005-111.582c52.472-52.274 52.617-124.595 0.85-178.345-8.088-8.407-16.754-16.95-27.090-26.808-4.821-4.658-4.821-4.658-9.446-9.149-10.967-10.692-18.146-18.219-26.018-27.633-36.502-39.488-82.323-59.107-137.554-59.107-3.836 0.028-3.836 0.028-7.398 0.134-3.435 0.127-3.435 0.127-7.332 0.304-63.153 4.070-119.828 22.598-189.462 55.474-126.166 60.923-236.504 146.986-327.97 255.91-75.294 90.126-126.404 175.128-160.348 266.913-22.754 61.045-31.768 112.763-27.807 162.387 3.616 42.999 21.252 80.721 51.98 111.334l70.249 69.971c25.648 24.357 56.135 37.574 88.382 37.574 32.497 0 62.967-13.284 87.304-37.077 11.514-10.627 22.946-21.974 39.039-38.492 3.155-3.235 3.155-3.235 6.262-6.416 1.549-1.583 1.549-1.583 3.094-3.158 4.632-4.705 4.632-4.705 9.327-9.405l55.432-55.223c26.054-25.717 40.457-56.924 40.457-89.612 0-32.541-14.445-63.699-40.352-89.508-8.541-8.509-12.281-12.265-16.883-17.002-13.453-13.717-23.854-24.127-33.504-33.382 10.422-19.397 24.176-39.656 42.686-63.002 50.758-62.001 103.397-109.77 161.033-146.229 3.837-2.433 8.228-4.811 15.826-8.619l50.125 49.936zM270.128 330.059c85.616-101.957 188.742-182.395 306.483-239.251 62.718-29.61 112.607-45.919 165.329-49.324 3.159-0.138 3.159-0.138 6.014-0.243 2.728-0.080 2.728-0.080 5.274-0.098 37.562 0 66.293 12.302 89.429 37.263 8.458 10.193 17.024 19.173 29.464 31.302 4.839 4.699 4.839 4.699 9.789 9.48 9.888 9.432 17.941 17.369 25.315 25.035 27.716 28.778 27.651 61.166 0.091 88.622l-112.437 112.021c-13.172 13.637-27.734 20.309-42.584 20.309-14.934 0-29.903-6.756-43.761-20.562l-84.029-83.712-21.196 12.157c-4.384 2.515-8.22 4.497-16.796 8.769-10.586 5.273-16.864 8.634-23.34 12.739-63.65 40.263-121.37 92.642-176.626 160.144-28.502 35.94-47.711 66.406-61.311 97.749l-9.16 21.111 17.098 15.402c14.348 12.926 27.372 25.717 48.224 46.979 4.822 4.964 8.724 8.882 17.514 17.64 14.441 14.386 21.521 29.658 21.521 44.168 0 14.661-7.005 29.838-21.521 44.168l-55.537 55.327c-4.996 5.001-4.996 5.001-9.822 9.904-1.597 1.628-1.597 1.628-3.185 3.251-3.167 3.241-3.167 3.241-6.337 6.493-15.373 15.779-26.128 26.454-37.273 36.758-13.412 13.102-28.046 19.482-43.239 19.482-15.128 0-30.108-6.494-43.761-19.448l-69.7-69.437c-20.015-19.939-31.033-43.506-33.364-71.221-3.139-39.332 4.289-81.951 24.019-134.884 31.305-84.649 78.655-163.398 149.414-248.095z" />
<glyph unicode="&#xe904;" glyph-name="arrow" horiz-adv-x="1638" d="M313.645 936.72c-59.855 60.114-157.109 60.323-217.223 0.468s-60.323-157.109-0.468-217.223l611.757-614.4c59.856-60.114 157.11-60.323 217.224-0.467l617.043 614.4c60.113 59.856 60.322 157.11 0.466 217.223s-157.11 60.322-217.223 0.466l-508.197-506.021-503.379 505.554z" />
<glyph unicode="&#xe905;" glyph-name="crown" horiz-adv-x="1707" d="M1455.604 9.143l251.062 1001.45-521.444-551.361-331.844 573.911-331.844-585.186-521.534 562.636 251.062-1001.45c0 0 270.472 147.379 601.957 147.379 332.204 0 602.586-147.379 602.586-147.379z" />
<glyph unicode="&#xe906;" glyph-name="ornament" horiz-adv-x="2941" d="M1593.482 622.326c-7.288 43.456 4.114 87.861 36.324 106.146 32.445 18.641 84.756-17.454 95.924-82.637 6.936-30.276 0.94-141.409-60.423-227.489-58.894-87.624-151.409-132.623-194.669-160.406 48.785 36.925 115.555 116.119 131.778 196.619 18.926 80.025-5.29 146.158-8.934 167.767zM1817.716 503.768c17.694 36.732 35.754 65.397 54.791 65.025 19.891 0 31.117-47.9 8.176-95.304-9.64-24.198-59.306-90.34-128.74-132.407-68.092-44.177-148.021-68.251-189.389-83.142 47.225 20.475 119.832 63.039 170.23 116.275 52.35 52.243 77.244 111.312 84.932 129.553zM1197.437 645.91c11.156 65.176 63.411 101.267 95.821 82.509 32.293-18.164 43.566-62.564 36.285-106.015-3.64-21.369-31.588-91.176-11.038-175.109 17.966-84.171 89.48-162.406 133.75-189.355-54.017 26.593-146.55 76.455-201.506 165.137-57.422 87.139-59.888 192.561-53.312 222.834zM1060.51 473.404c-22.825 47.385-11.596 95.39 8.178 95.39 19.042 0.248 37.229-28.406 54.805-65.123 7.568-18.235 33.079-81.125 87.396-134.836 52.486-54.456 126.455-96.259 167.834-110.896-49.191 14.265-129.507 39.942-195.42 84.846-67.134 42.919-113.029 106.678-122.793 130.619zM1402.957 832.954c0.717 69.094 32.621 125.691 70.618 124.129 37.4-1.442 66.675-56.717 65.958-125.691-1.195-68.373-70.618-432.107-70.379-565.608-13.024 155.011-67.273 497.596-66.197 567.171zM1949.142 466.52c-15.313 12.633-23.291 29.274-16.471 40.206 6.691 11.054 29.854 9.596 48.384-5.709 8.879-7.41 34.486-36.319 47.355-73.367 14.67-37.534 6.177-77.983-1.287-96.568 6.691 23.565-0.901 62.314-23.034 87.458-20.718 25.873-47.483 41.542-54.947 47.98zM2129.429 73.027c-2.574-22.21-18.53-37.523-31.398-34.017-12.739 3.507-18.916 20.223-16.857 38.576 0.772 9.118 10.552 38.108 6.563 70.371-2.188 32.614-27.409 64.409-47.226 73.41 23.163-8.3 58.164-34.25 72.962-69.319 15.956-34.133 17.115-68.267 15.956-79.021zM2114.043 339.271c0 0 468.355-81.416 496.122 269.189 2.334 48.562-13.884-31.895-57.992-65.229-47.18-35.612-99.274 6.595-123.969-67.267-17.692 46.404-69.909 26.979-69.909 26.979s41.774-66.308-64.503-119.426c-66.592-33.334-113.403-40.288-179.749-44.245zM2242.45 50.94c-4.457-73.339-55.718-116.038-76.768-100.78-21.297 14.151-18.697 58.327-16.468 106.686 0.743 12.182 4.334 37.654-0.371 71.863-4.705 34.455-17.706 71.617-55.842 94.504-35.66 23.626-91.502 21.165-120.352-14.397-8.172-8.491-12.877-16.489-11.515-26.087 1.238-9.229 9.534-16.612 18.201-20.304 18.078-8.245 37.765 1.723 44.699 14.274-6.934-15.382-29.84-27.564-52.499-18.089-10.648 4.307-22.535 14.766-22.906 30.148-0.619 15.628 7.924 26.948 14.487 37.777 30.088 46.637 102.893 62.511 157.745 38.762 56.957-20.55 93.359-78.261 105.865-118.253 15.106-42.207 16.839-78.507 15.725-96.104zM1979.867 518.769c-34.364 33.499-66.017 63.649-59.859 87.697 5.173 24.766 71.929 27.278 124.645-22.851 12.686-11.964 36.457-40.917 53.454-82.911 17.736-39.601 26.727-107.318-6.035-157.567-15.026-25.125-37.812-46.181-64.416-57.547-26.727-11.366-56.41-11.964-80.428-4.068-26.481 6.221-41.877 34.696-32.762 54.197 7.267 20.937 30.053 25.125 43.232 20.219-16.628 5.264-38.428-6.82-38.059-26.56-1.232-19.501 17.859-32.901 38.798-32.064 44.463-3.111 82.152 33.141 90.774 71.067 9.853 39.84-4.311 72.263-23.402 99.661-18.475 26.68-37.196 42.473-45.941 50.728zM2095.66 331.082c0 0 96.343 129.894 28.040 232.516 0 0 49.729-17.75 69.861 37.499 0 0 69.382-4.467 66.865 59.128 0 0 7.909-67.122-30.197-134.126 0 0 116.595 35.030-134.569-195.017zM2095.66 312.796c0 0 155.325-44.831 164.559-164.571 0 0 28.058 42.987 77.662 11.87 0 0 51.617 44.024 88.672-6.915 0 0-34.806 56.816-105.839 86.55 0 0 112.823 41.028-225.055 73.066zM2885.723 255.867c49.266-49.493 55.271-112.030 33.089-119.223-21.324-7.558-54.659 23.893-92.405 61.684-17.157 19.383-77.699 85.455-175.006 113.737-95.346 31.086-209.689 24.015-266.798 11.093 65.811 18.286 176.477 45.227 283.098 30.72 107.602-10.971 196.085-72.655 218.022-98.011zM2769.344 226.114c39.448-33.507 53.545-76.96 35.491-91.050-17.931-13.853-56.142 1.658-91.138 31.139-17.436 14.563-66.035 69.619-135.408 109.402-34.378 19.536-73.825 34.928-111.665 39.782-37.84 5.446-72.712 0.71-95.219-6.986 25.474 10.656 61.459 20.602 102.762 22.496 41.055 1.421 86.562-5.446 127.618-18.47 82.853-25.574 148.145-69.974 167.56-86.314zM2596.093 224c20.562-26.516 18.114-60.308-2.081-71.16-20.072-10.976-46.631-1.603-63.399 19.979-8.445 10.606-26.559 51.798-60.339 85.96-31.822 36.135-88.49 51.675-117.252 40.945 15.789 6.536 37.942 12.949 64.134 13.073 25.947-0.123 54.832-7.153 80.045-18.499 51.16-22.569 88.734-57.471 98.893-70.297zM957.761 501.017c18.53 15.305 41.564 16.763 48.255 5.709 6.82-10.932-1.029-27.573-16.342-40.206-7.463-6.438-36.288-22.229-57.649-49.316-22.905-26.116-28.181-66.565-20.46-86.121-10.809 21.136-16.986 63.407-1.415 99.604 13.898 36.198 38.733 62.799 47.612 70.33zM857.371 77.611c2.059-18.364-4.246-35.091-16.986-38.6-12.868-3.509-28.825 11.814-31.269 33.921-1.158 10.878 0.901 47.022 18.273 81.177 16.342 35.559 51.73 58.719 70.646 67.258-21.876-12.516-44.266-44.566-46.325-75.914-3.474-31.231 4.761-58.719 5.662-67.843zM808.851 339.271c0 0-468.355-81.416-496.122 269.189-2.334 48.562 13.884-31.895 57.992-65.229 47.18-35.612 99.274 6.595 123.969-67.267 17.815 46.404 69.909 26.979 69.909 26.979s-41.896-66.308 64.503-119.426c66.592-33.334 113.403-40.288 179.749-44.245zM792.794 69.977c2.374-46.088 4.997-88.189-16.616-101.675-21.239-14.542-72.963 26.152-77.335 96.046-1.249 16.77 0.999 52.89 17.741 94.17 14.368 39.873 54.472 94.873 114.191 110.705 28.86 8.678 60.469 9.499 88.455 1.29 28.111-8.561 50.974-26.855 63.717-47.613 6.622-9.030 12.743-23.22 8.121-34.947-4.248-11.845-15.492-18.177-25.362-20.874-21.239-5.981-39.605 5.395-46.476 17.239 9.12-14.073 32.233-19.936 48.85-9.616 7.871 4.925 13.743 13.017 11.994 20.757-0.875 7.623-8.87 15.128-16.367 22.868-31.859 29.787-85.206 27.676-118.064 5.16-34.982-22.868-46.976-55.118-51.723-87.485-4.872-31.077-1.749-54.297-1.124-66.024zM897.055 583.999c51.65 49.648 116.937 47.16 122.126 22.632 6.034-23.817-25.101-53.677-58.649-86.855-8.568-8.176-27.997-24.054-47.185-51.663-19.067-27.727-34.152-62.682-21.36-103.681 10.378-39.695 52.857-73.465 97.266-66.119 20.515 1.066 36.807 20.499 31.618 39.102-3.62 19.196-25.463 26.187-38.738 21.092 14.843 7.228 41.634-0.592 45.978-25.12 7.361-23.817-16.895-50.478-43.444-53.677-52.495-15.048-115.971 20.381-140.348 72.399-28.239 51.307-16.774 116.004 0.724 152.855 16.774 39.932 39.582 67.066 52.012 79.034zM827.234 331.082c0 0-96.45 129.894-28.156 232.516 0 0-49.723-17.75-69.732 37.499 0 0-69.372-4.467-66.856 59.128 0 0-8.028-67.122 30.193-134.126 0 0-116.579 35.030 134.551-195.017zM827.234 312.796c0 0-155.38-44.831-164.618-164.571 0 0-28.068 42.987-77.69 11.87 0 0-51.636 44.024-88.586-6.915 0 0 34.818 56.816 105.758 86.55 0 0-112.864 41.028 225.136 73.066zM102.107 210.918c-36.943-37.838-69.342-69.106-90.026-61.562-21.759 7.178-15.901 69.471 32.161 118.988 21.161 25.793 113.459 88.329 220.461 96.48 106.285 11.923 212.57-16.911 268.403-29.443-65.995 11.193-176.704 15.816-266.251-15.33-91.46-28.348-147.771-90.032-164.748-109.133zM227.476 166.683c-34.994-29.872-73.203-45.587-91.009-31.551-18.053 14.156-4.081 58.303 35.365 92.254 19.414 16.555 89.154 62.742 174.351 87.215 42.413 12.356 87.918 18.595 127.858 15.836 39.94-2.039 73.203-11.997 95.831-19.674-26.956 7.318-63.805 9.957-101.519 3.599-37.962-6.598-76.171-21.954-109.433-41.748-66.897-39.229-114.008-91.174-131.444-105.93zM392.281 154.995c-16.768-21.988-43.327-31.537-63.399-20.354-20.195 11.057-22.643 45.483-2.081 72.496 10.036 13.067 51.038 49.629 103.666 71.366 53.363 24.626 113.091 16.082 139.405 5.78-34.759 8.041-87.755-10.805-118.353-46.111-32.312-33.421-50.915-72.371-59.238-83.176zM1011.064 257.939c0 0 254.425-274.781 452.393-71.145 26.396 28.808-25.174-13.296-70.266-12.713-48.148 0.583-59.268 51.784-113.037 17.844 12.709 37.205-30.306 50.151-30.306 50.151s-7.577-60.881-102.283-42.92c-59.268 11.313-92.385 29.508-136.5 58.782zM1930.213 257.939c0 0-254.461-274.781-452.335-71.145-26.522 28.808 25.055-13.296 70.154-12.713 48.277 0.583 59.399 51.784 113.053 17.844-12.711 37.205 30.31 50.151 30.31 50.151s7.578-60.881 102.298-42.92c59.277 11.313 92.398 29.508 136.519 58.782z" />
<glyph unicode="&#xe907;" glyph-name="star--round" horiz-adv-x="1117" d="M558.545 102.234l-328.305-172.6 62.701 365.573-265.604 258.9 367.056 53.336 164.152 332.609 164.152-332.609 367.056-53.336-265.604-258.9 62.701-365.573z" />
<glyph unicode="&#xe908;" glyph-name="star--straight" horiz-adv-x="1081" d="M522.934 964.649l123.464-379.066h399.501l-323.215-234.31 123.433-379.097-323.184 234.341-323.184-234.341 123.433 379.097-323.184 234.31h399.47l123.464 379.066z" />
<glyph unicode="&#xe909;" glyph-name="mail" horiz-adv-x="1463" d="M1462.857 862.363v5.671c0 21.086-9.598 45.893-26.837 63.081l-1.955 1.949c0 0-1.955 0-1.955 1.949-3.91 3.898-7.643 5.671-11.551 9.569-1.955 0-1.955 1.949-3.91 1.949-3.91 1.949-9.598 3.898-13.508 5.671-1.955 0-1.955 1.949-3.91 1.949-5.688 1.949-11.551 3.898-17.239 3.898-1.955 0-1.955 0-3.91 0-5.688 0-13.506 1.949-21.149 1.949h-1253.142c-7.643 0-15.284 0-23.104-1.949-1.955 0-3.91 0-5.688-1.949-5.688-1.949-11.553-1.949-15.284-3.898-1.955 0-1.955-1.949-3.91-1.949-3.91-1.949-9.598-3.898-13.508-5.671l-1.955-1.949c-3.91-1.949-7.643-5.671-11.553-7.62-1.955-1.949-3.91-3.898-5.688-5.671-13.501-15.241-21.144-32.604-23.099-51.741 0-1.949 0-1.949 0-3.898v-851.588c0-1.949 0-1.949 0-3.898 3.91-26.757 17.239-49.792 36.433-63.081 17.239-11.516 38.388-19.137 63.27-19.137h1261.139c0 0 0 0 1.955 0v0c5.688 0 13.506 0 19.194 1.949 1.955 0 1.955 0 3.91 0 5.688 1.949 11.553 1.949 15.284 3.898h1.955c42.298 15.238 59.537 51.741 59.537 86.116v828.729c0 1.949 0 1.949 0 3.898 0.179-0.176 0.179-0.176 0.179 1.773zM1340.049 889.118l-604.622-587.393-138.271 133.958-474.169 453.613 1217.062-0.179zM71.267 45.151v796.125l447.157-428.629-447.157-367.495zM716.233 5.105h-581.695l435.783 355.979 140.047-135.907c5.688-5.671 11.553-7.62 17.239-9.569h1.955c1.955 0 1.955 0 3.91 0v0c1.955 0 3.91 0 3.91 0h1.955c5.688 1.949 13.506 3.898 17.239 9.569l132.406 128.287 437.559-348.361-610.308 0.002zM1391.767 43.378l-449.11 361.65 449.11 436.25v-797.9z" />
<glyph unicode="&#xe90a;" glyph-name="play" horiz-adv-x="745" d="M734.349 448.13l-696.68 487.631c-7.375 5.145-16.937 5.681-24.816 1.512-7.904-4.218-12.853-12.508-12.853-21.578v-975.262c0-9.070 4.949-17.384 12.853-21.602 3.507-1.853 7.351-2.779 11.171-2.779 4.781 0 9.537 1.463 13.645 4.316l696.68 487.631c6.51 4.559 10.378 12.044 10.378 20.066s-3.892 15.507-10.378 20.066z" />
<glyph unicode="&#xe90b;" glyph-name="pinterest" d="M1023.785 432.989c8.357 292.175-228.144 531.192-519.408 526.956-280.332-4.077-506.507-235.592-504.362-515.947 1.539-200.888 118.779-374.217 288.364-456.685 9.81-4.769 21.166 2.647 20.756 13.549-1.236 32.942-0.171 68.158 6.421 96.467 6.488 27.874 31.944 135.667 48.68 206.479 8.146 34.474 9.129 70.271 2.57 105.082-2.153 11.423-3.712 24.843-3.712 39.757 0 75.673 43.861 132.172 98.475 132.172 46.431 0 68.86-34.861 68.86-76.661 0-46.694-29.731-116.505-45.075-181.204-12.821-54.17 27.167-98.344 80.591-98.344 96.73 0 171.082 101.993 171.082 249.218 0 130.305-93.631 221.413-227.327 221.413-154.849 0-245.742-116.148-245.742-236.181 0-46.773 18.020-96.933 40.502-124.199 4.444-5.388 5.1-10.112 3.776-15.609-4.131-17.191-13.313-54.157-15.115-61.72-2.376-9.963-7.888-12.074-18.199-7.28-67.976 31.641-110.469 131.015-110.469 210.836 0 171.678 124.733 329.335 359.59 329.335 188.792 0 335.51-134.528 335.51-314.319 0-187.563-118.263-338.512-282.41-338.512-43.377 0-84.713 17.727-109.014 41.763-7.473 7.391-20.108 4.025-22.775-6.142-8.558-32.607-22.392-85.349-26.849-102.5-8.024-30.859-24.935-66.8-41.887-98.1-4.504-8.317 0.052-18.591 9.221-20.915 41.852-10.614 85.751-16.093 131.002-15.674 268.661 2.493 499.262 228.4 506.944 496.966z" />
<glyph unicode="&#xe90c;" glyph-name="ultima" horiz-adv-x="802" d="M320.621 579.748c-41.775 43.408-99.997 70.407-164.427 70.603-86.325-0.386-156.194-71.588-156.194-159.388 0-88.039 70.243-159.405 156.894-159.405 20.248 0 39.581 3.941 57.357 11.036-22.458 13.615-37.546 38.472-37.546 66.961 0 42.713 33.81 77.363 75.712 77.937 45.872-0.742 85.964-25.626 108.501-62.7-2.82-15.033-7.139-27.439-10.92-36.519-1.014-2.444-2.467-4.695-4.34-6.729-0.473-0.518-0.98-1.067-1.504-1.647-3.945-4.378-7.898-8.756-13.055-13.141-4.443-3.759-4.933-9.591-1.53-13.837-9.205-3.125-14.825-7.209-14.825-11.679 0-4.478 5.621-8.562 14.825-11.695-3.403-4.246-2.913-10.078 1.53-13.837l11.92-10.117c2.32-1.972 3.833-4.432 4.46-7.046 0.92-3.813 0.731-6.304 0.37-9.212-1.212-9.823-6.42-21.015-13.124-34.775-6.231-12.809-13.553-23.080-19.965-30.776-11.302-10.689-27.674-17.434-45.928-17.434-33.81 0-61.235 23.049-61.742 51.628-28.86-12.6-48.128-38.781-45.911-68.614 2.578-34.759 35.108-63.486 75.957-66.928 26.823-2.259 51.42 6.095 68.643 20.698l37.626 29.562c-15.186-24.086-23.823-51.582-23.823-80.811 0-62.202 39.018-116.669 97.425-146.741 58.398 30.072 97.425 84.539 97.425 146.741 0 29.229-8.637 56.726-23.832 80.811l37.635-29.562c17.223-14.603 41.82-22.956 68.643-20.698 40.857 3.442 73.378 32.168 75.957 66.928 2.209 29.832-17.060 56.014-45.911 68.614-0.507-28.579-27.932-51.628-61.742-51.628-18.254 0-34.627 6.745-45.937 17.434-6.403 7.696-13.725 17.967-19.965 30.776-6.695 13.76-11.903 24.952-13.115 34.775-0.361 2.908-0.55 5.399 0.37 9.212 0.627 2.614 2.14 5.074 4.46 7.046l11.92 10.117c4.443 3.759 4.933 9.591 1.53 13.837 9.205 3.133 14.825 7.216 14.825 11.695 0 4.471-5.621 8.554-14.825 11.679 3.403 4.246 2.913 10.078-1.53 13.837-5.165 4.386-9.11 8.763-13.055 13.141-0.533 0.58-1.040 1.129-1.504 1.647-1.882 2.034-3.326 4.285-4.34 6.729-6.324 15.169-14.136 39.618-13.958 70.097 21.771 17.817 49.326 28.65 79.357 29.139l-0.016-0.017c41.902-0.574 75.711-35.224 75.711-77.937 0-28.49-15.088-53.346-37.545-66.961 17.775-7.095 37.1-11.036 57.355-11.036 86.649 0 156.89 71.365 156.89 159.405 0 87.799-69.868 159.002-156.191 159.388l-0.024-0.034c-44.223-0.125-85.524-12.885-120.589-34.918 9.128 31.143 13.31 60.197 14.322 67.796 7.116 53.144-8.294 98.052-10.296 105.020-0.129 0.449-0.206 0.781-0.301 1.238-1.908 9.475-28.387 123.46-116.023 179.69 0 0-75.106-47.862-117.854-187.085 0 0-12.788-65.156-4.83-98.129 5.829-24.167 14.005-69.177 30.595-104.182z" />
<glyph unicode="&#xe90d;" glyph-name="instagram" d="M718.945 960h-413.89c-168.208 0-305.055-136.847-305.055-305.055v-413.89c0-168.208 136.847-305.055 305.055-305.055h413.89c168.208 0 305.055 136.847 305.055 305.055v413.89c-0.002 168.208-136.849 305.055-305.055 305.055zM920.986 241.055c0-111.583-90.458-202.041-202.041-202.041h-413.89c-111.583 0-202.041 90.458-202.041 202.041v413.89c0 111.585 90.458 202.041 202.041 202.041h413.89c111.583 0 202.041-90.456 202.041-202.041v-413.89zM512 680.727c-128.326 0-232.727-104.402-232.727-232.726s104.401-232.728 232.727-232.728c128.326 0 232.727 104.402 232.727 232.728s-104.401 232.726-232.727 232.726zM512 308.364c-77.12 0-139.636 62.517-139.636 139.636s62.518 139.636 139.636 139.636c77.12 0 139.636-62.517 139.636-139.636s-62.518-139.636-139.636-139.636zM817.87 727.273c0-40.396-32.747-73.143-73.143-73.143s-73.143 32.747-73.143 73.143c0 40.396 32.747 73.143 73.143 73.143s73.143-32.747 73.143-73.143z" />
<glyph unicode="&#xe90e;" glyph-name="googleplus" d="M394.91 399.988h113.674c-19.953-56.402-73.994-96.841-137.261-96.375-76.766 0.567-140.242 61.966-143.222 138.663-3.195 82.213 62.775 150.115 144.306 150.115 37.279 0 71.298-14.201 96.945-37.472 6.075-5.513 15.322-5.548 21.297 0.075l41.752 39.288c6.529 6.145 6.553 16.522 0.043 22.688-40.674 38.526-95.235 62.539-155.403 63.714-128.332 2.505-236.504-102.694-237.398-231.024-0.902-129.294 103.657-234.386 232.765-234.386 124.161 0 225.59 97.198 232.384 219.637 0.181 1.535 0.3 53.415 0.3 53.415h-210.181c-8.615 0-15.598-6.982-15.598-15.595v-57.147c0-8.614 6.985-15.595 15.598-15.595zM855.088 511.815v60.912c0 8.235-6.674 14.909-14.909 14.909h-51.268c-8.235 0-14.909-6.674-14.909-14.909v-60.912h-60.912c-8.235 0-14.909-6.674-14.909-14.909v-51.268c0-8.235 6.674-14.909 14.909-14.909h60.912v-60.912c0-8.235 6.674-14.909 14.909-14.909h51.268c8.235 0 14.909 6.674 14.909 14.909v60.912h60.912c8.235 0 14.909 6.674 14.909 14.909v51.268c0 8.235-6.674 14.909-14.909 14.909h-60.912z" />
<glyph unicode="&#xe90f;" glyph-name="ultima-gstaad" horiz-adv-x="8667" d="M3997.314 416.864c0 41.65 33.598 75.438 75.239 75.997 68.461-1.086 123.966-55.269 126.881-123.070 4.068 17.044 6.28 34.815 6.28 53.105 0 126.127-102.367 228.393-228.782 228.769-85.785-0.376-155.218-69.806-155.218-155.42 0-85.848 69.804-155.437 155.913-155.437 20.121 0 39.334 3.843 56.998 10.761-22.317 13.276-37.311 37.514-37.311 65.295zM4489.357 651.665l-0.024-0.033c-126.388-0.351-228.762-102.608-228.762-228.769 0-18.298 2.212-36.010 6.32-53.054 2.844 67.759 58.371 121.975 126.862 123.070l-0.016-0.017c41.64-0.56 75.237-34.348 75.237-75.997 0-27.78-14.994-52.018-37.311-65.295 17.664-6.918 36.868-10.761 56.997-10.761 86.108 0 155.91 69.589 155.91 155.437 0 85.614-69.431 155.044-155.215 155.42zM4390.461 199.727c-18.254 0-34.627 6.745-45.937 17.434-6.403 7.696-13.725 17.967-19.965 30.776-6.695 13.76-11.903 24.952-13.115 34.775-0.361 2.908-0.55 5.399 0.37 9.212 0.627 2.614 2.14 5.074 4.46 7.046l11.92 10.117c4.443 3.759 4.933 9.591 1.53 13.837 9.205 3.133 14.825 7.216 14.825 11.695 0 4.471-5.621 8.554-14.825 11.679 3.403 4.246 2.913 10.078-1.53 13.837-5.165 4.386-9.11 8.763-13.055 13.141-0.533 0.58-1.040 1.129-1.504 1.647-1.882 2.034-3.326 4.285-4.34 6.729-7.348 17.627-16.707 47.784-13.201 85.375 3.687 39.493 19.887 68.9 30.192 84.578 26.496 42.463 36.663 112.515 38.322 124.968 7.116 53.144-8.294 98.052-10.296 105.020-2.209 10.712-28.688 124.697-116.324 180.928 0 0-75.106-47.862-117.854-187.085 0 0-12.788-65.156-4.83-98.129 7.125-29.538 17.756-90.216 42.972-125.703 10.313-15.678 26.513-45.085 30.2-84.578 3.506-37.59-5.861-67.747-13.201-85.375-1.014-2.444-2.467-4.695-4.34-6.729-0.473-0.518-0.98-1.067-1.504-1.647-3.945-4.378-7.898-8.756-13.055-13.141-4.443-3.759-4.933-9.591-1.53-13.837-9.205-3.125-14.825-7.209-14.825-11.679 0-4.478 5.621-8.562 14.825-11.695-3.403-4.246-2.913-10.078 1.53-13.837l11.92-10.117c2.32-1.972 3.833-4.432 4.46-7.046 0.92-3.813 0.731-6.304 0.37-9.212-1.212-9.823-6.42-21.015-13.124-34.775-6.231-12.809-13.553-23.080-19.965-30.776-11.302-10.689-27.674-17.434-45.928-17.434-33.81 0-61.235 23.049-61.742 51.628-28.86-12.6-48.128-38.781-45.911-68.614 2.578-34.759 35.108-63.486 75.957-66.928 26.823-2.259 51.42 6.095 68.643 20.698l37.626 29.562c-15.186-24.086-23.823-51.582-23.823-80.811 0-62.202 39.018-116.669 97.425-146.741 58.398 30.072 97.425 84.539 97.425 146.741 0 29.229-8.637 56.726-23.832 80.811l37.635-29.562c17.223-14.603 41.82-22.956 68.643-20.698 40.857 3.442 73.378 32.168 75.957 66.928 2.209 29.832-17.060 56.014-45.911 68.614-0.507-28.579-27.932-51.628-61.742-51.628zM78.481 481.397c0 140.775 0 166.042-1.804 194.919-1.804 30.682-9.021 45.12-38.79 51.437-7.217 1.805-22.552 2.707-30.671 2.707-3.608 0-7.217 1.805-7.217 5.414 0 5.414 4.503 7.219 14.433 7.219 40.594 0 95.621-2.707 103.74-2.707s62.244 2.707 89.306 2.707c9.923 0 14.433-1.805 14.433-7.219 0-3.61-3.608-5.414-7.217-5.414-6.315 0-11.727-0.902-22.552-2.707-24.356-3.61-31.573-19.853-33.377-51.437-1.804-28.877-1.804-54.144-1.804-194.919v-126.344c0-129.946 28.867-185.895 67.656-222.893 44.202-41.511 84.796-49.632 136.215-49.632 55.027 0 109.152 26.17 141.627 64.973 41.496 51.437 52.321 128.141 52.321 221.089v112.808c0 140.775 0 166.042-1.804 194.919-1.797 30.682-9.021 45.12-38.79 51.437-7.217 1.805-22.552 2.707-30.671 2.707-3.608 0-7.217 1.805-7.217 5.414 0 5.414 4.51 7.219 14.433 7.219 40.601 0 90.209-2.707 95.621-2.707 6.315 0 48.72 2.707 75.775 2.707 9.923 0 14.441-1.805 14.441-7.219 0-3.61-3.608-5.414-7.224-5.414-6.307 0-11.72-0.902-22.545-2.707-24.364-5.414-31.58-19.853-33.384-51.437-1.804-28.877-1.804-54.144-1.804-194.919v-96.557c0-97.459-10.825-205.755-82.992-269.818-64.95-57.761-132.607-66.785-185.83-66.785-30.671 0-121.782 3.602-185.83 64.071-44.202 42.42-78.481 105.581-78.481 237.332v131.758zM942.354 297.599c0-116.942 1.778-164.654 16-178.687 12.444-13.090 42.666-18.711 103.998-18.711 40.888 0 75.554 0.936 94.22 24.332 9.778 12.154 16 28.994 18.666 44.898 0.889 5.613 3.555 10.291 8 10.291 3.555 0 5.333-3.742 5.333-12.162s-5.333-56.132-11.555-79.521c-5.333-18.711-8-21.517-49.777-21.517-55.999 0-99.554 0.936-135.997 2.807-35.555 0.936-62.228 1.871-85.332 1.871-3.563 0-16.889 0-32.007-0.936-15.992-0.936-32.881-1.871-45.332-1.871-7.993 0-12.444 1.871-12.444 6.549 0 2.799 1.778 6.541 6.229 6.541 7.111 0 16.889 1.871 23.992 3.75 15.111 3.742 16.889 18.718 20.451 42.099 4.437 32.744 4.437 95.432 4.437 172.146v140.33c0 123.491 0 145.944-1.771 171.203-1.778 27.131-6.229 40.228-32.007 43.97-6.215 0.936-19.555 1.871-26.659 1.871-2.674 0-6.229 3.742-6.229 6.549 0 4.678 3.555 6.549 12.444 6.549 35.555 0 84.443-1.871 88.894-1.871 3.548 0 62.221 1.871 86.221 1.871 8 0 12.437-1.871 12.437-6.549 0-2.807-3.548-5.613-6.215-5.613-5.333 0-16.889-0.936-25.777-1.871-23.111-4.678-27.555-16.84-29.333-44.906-0.889-25.259-0.889-47.712-0.889-171.203v-142.209zM1525.224 294.079c0-75.543 0-137.274 3.918-169.518 2.939-23.024 6.857-37.771 33.306-41.456 11.755-1.85 31.347-3.693 39.184-3.693 5.878 0 6.857-3.685 6.857-6.441 0-3.685-3.918-6.449-13.714-6.449-47.020 0-101.878 2.764-106.776 2.764-3.918 0-63.673-2.764-89.143-2.764-9.796 0-13.714 1.843-13.714 6.449 0 2.756 1.959 5.52 6.857 5.52 7.837 0 17.633 1.843 25.469 3.693 17.633 3.685 22.531 19.354 25.469 42.378 3.918 32.244 3.918 93.975 3.918 169.518v328.888l-124.408-1.843c-53.878-0.921-74.449-6.449-87.184-24.874-9.796-13.819-10.776-19.346-13.714-24.874-1.959-6.449-4.898-7.37-8.816-7.37-1.959 0-5.878 1.843-5.878 6.449 0 8.291 16.653 78.307 18.612 84.755 0.98 4.606 5.878 14.74 8.816 14.74 5.878 0 14.694-6.449 38.204-9.213 24.49-2.764 57.796-3.685 67.592-3.685h325.224c28.408 0 48 1.843 61.714 3.685 12.735 1.843 20.571 3.685 24.49 3.685s3.918-4.606 3.918-9.213c0-23.953-2.939-80.149-2.939-89.362 0-6.449-3.918-10.134-7.837-10.134s-5.878 2.764-6.857 13.819l-0.98 8.291c-2.939 23.953-21.551 41.456-103.837 43.299l-107.755 1.843v-328.888zM1986.054 298.326c0-76.953 0-139.836 3.867-172.682 2.9-23.454 5.8-38.476 30.933-42.23 12.566-1.885 30.933-3.761 38.666-3.761 4.833 0 6.767-3.754 6.767-6.561 0-3.754-3.867-6.569-13.533-6.569-47.366 0-102.464 2.815-106.331 2.815-4.833 0-57.999-2.815-84.098-2.815-8.7 0-13.533 1.877-13.533 6.569 0 2.808 1.933 6.561 6.767 6.561 7.733 0 18.366 1.877 26.099 3.761 16.433 3.754 19.333 18.777 22.233 42.23 3.867 32.846 4.833 95.729 4.833 172.682v140.767c0 123.875 0 146.398-1.933 171.736-1.933 27.215-8.7 39.415-27.066 43.169-9.666 1.877-20.3 2.815-26.099 2.815-3.867 0-6.767 3.754-6.767 6.569 0 4.692 3.867 6.569 13.533 6.569 28.033 0 81.198-1.877 86.031-1.877 3.867 0 58.965 1.877 85.065 1.877 9.666 0 13.533-1.877 13.533-6.569 0-2.815-3.867-6.569-6.767-6.569-5.8 0-11.6 0-21.266-1.877-23.2-4.692-28.033-15.954-29.966-44.107-0.967-25.338-0.967-47.861-0.967-171.736v-140.767zM2949.41 167.705c2.871-27.595 8.605-69.909 43.062-80.947 23.923-7.366 45.925-7.366 54.545-7.366 3.828 0 6.698-1.84 6.698-5.512 0-4.599-7.655-7.359-17.225-7.359-19.138 0-112.925 0.92-143.538 3.679-20.095 1.84-23.923 4.599-23.923 8.271 0 2.76 1.914 5.527 5.734 6.446 4.785 0.92 5.742 12.878 3.828 27.595l-40.191 397.382h-1.914l-202.868-399.222c-17.225-34.042-22.009-41.393-29.665-41.393s-12.44 7.351-28.708 35.874c-22.009 38.641-77.511 138.897-98.563 181.21-24.88 49.679-92.822 181.218-107.175 213.412h-3.828l-32.535-353.23c-0.957-11.958-0.957-26.676-0.957-39.554 0-11.958 7.655-19.317 20.095-22.076 14.354-3.687 26.794-4.607 32.535-4.607 2.871 0 6.698-2.76 6.698-5.512 0-5.519-5.742-7.359-15.311-7.359-31.578 0-71.769 2.76-78.468 2.76-7.655 0-47.846-2.76-70.812-2.76-8.612 0-14.354 1.84-14.354 7.359 0 2.752 3.828 5.512 8.612 5.512 6.698 0 12.44 0.92 24.88 2.767 27.751 4.599 28.708 33.115 32.535 62.55l61.243 510.524c0.957 8.279 4.785 13.798 9.569 13.798 5.742 0 12.44-2.76 17.225-11.958l254.541-485.688 244.98 484.768c3.828 7.359 7.655 12.878 13.389 12.878 5.749 0 10.534-6.439 12.448-21.157l57.415-481.089zM3375.159 315.589c3.822 0 3.822 1.831 2.866 5.487l-83.12 213.357c-4.777 11.904-9.554 11.904-14.331 0l-78.343-213.357c-0.955-3.655 0-5.487 2.866-5.487h170.061zM3281.53 639.734c10.509 25.639 14.331 30.217 20.063 30.217 8.599 0 11.465-10.988 20.063-28.386 15.286-32.964 149.998-354.369 201.597-472.489 30.565-69.59 53.495-79.663 71.647-85.157 12.42-3.67 24.848-4.586 33.439-4.586 4.777 0 10.517-1.831 10.517-6.402 0-4.578-9.562-6.41-19.108-6.41-12.428 0-74.521 0-132.808 1.831-16.242 0.916-29.617 0.916-29.617 5.494 0 3.655 1.911 3.655 5.74 5.487 4.769 1.831 13.368 8.248 7.635 21.068l-75.477 178.561c-1.911 3.655-2.866 4.571-7.643 4.571h-193.946c-3.822 0-6.688-1.831-8.599-6.402l-47.77-124.537c-7.643-19.229-12.42-38.458-12.42-52.193 0-15.566 14.323-21.068 28.662-21.068h7.643c6.688 0 8.599-2.747 8.599-6.402 0-4.578-4.777-6.41-12.42-6.41-20.063 0-65.923 2.747-75.477 2.747-8.599 0-50.636-2.747-85.038-2.747-10.502 0-16.242 1.831-16.242 6.41 0 3.655 3.829 6.402 7.651 6.402 5.732 0 18.153 0.916 24.84 1.831 38.216 4.586 54.458 32.056 70.7 71.429l197.768 487.14zM5494.152 311.208c0 73.686-4.411 83.684-39.762 93.697-7.062 1.819-22.083 2.729-30.042 2.729-3.534 0-7.069 1.819-7.069 5.458 0 5.458 4.418 7.277 14.145 7.277 39.762 0 95.428-2.729 99.839-2.729 4.418 0 60.092 2.729 86.6 2.729 9.712 0 14.138-1.819 14.138-7.277 0-3.638-3.534-5.458-7.076-5.458-6.178 0-11.48-0.91-22.083-2.729-23.857-4.548-30.933-20.011-32.7-51.855-1.767-29.1-1.767-56.396-1.767-94.6v-101.876c0-40.925-0.884-42.744-11.48-49.119-56.55-30.927-136.081-40.933-187.329-40.933-67.146 0-192.624 9.096-290.703 97.328-53.899 48.217-105.148 145.545-105.148 259.247 0 145.538 68.92 248.324 147.56 299.262 79.524 50.938 167 57.306 235.044 57.306 55.667 0 118.395-11.825 135.19-15.463 18.556-4.548 49.481-8.187 71.571-9.096 8.829-0.91 10.603-4.548 10.603-8.187 0-12.735-6.192-38.204-6.192-129.165 0-14.554-1.76-19.102-7.945-19.102-4.418 0-5.309 5.458-6.192 13.644-0.884 12.735-5.294 38.204-18.556 60.034-22.090 34.565-93.661 73.679-207.645 73.679-55.667 0-121.929-5.458-189.089-60.034-51.249-41.842-87.476-124.617-87.476-231.041 0-128.255 62.742-221.043 93.661-251.97 69.804-70.033 150.211-97.328 231.509-97.328 31.809 0 77.756 5.458 100.723 19.102 11.494 6.367 17.672 16.373 17.672 31.836v154.634zM5791.383 87.329c-12.089 5.435-13.097 8.149-13.097 28.957 0 37.996 4.030 68.755 5.045 81.42 0 8.149 2.007 12.665 7.044 12.665s8.060-2.707 8.060-9.047c0-6.333 0-17.189 3.022-28.045 14.104-56.089 80.596-75.992 140.036-75.992 87.649 0 132.984 44.329 132.984 102.228 0 55.185-33.238 81.428-111.827 133.891l-40.298 27.147c-95.7 64.231-126.939 111.274-126.939 164.65 0 90.467 79.589 144.747 196.454 144.747 35.261 0 70.53-4.523 91.687-9.047 17.127-3.619 24.171-3.619 31.223-3.619 7.060 0 9.075-0.905 9.075-5.428 0-3.619-4.030-28.949-4.030-81.42 0-11.761-1.007-17.189-7.060-17.189-6.037 0-7.044 3.619-8.051 9.951-1.007 9.047-8.068 29.854-13.105 37.996-6.037 9.047-35.253 37.996-114.842 37.996-64.477 0-117.88-28.949-117.88-83.229 0-48.852 27.201-76.897 114.858-130.272l25.186-15.379c107.798-66.041 145.073-119.424 145.073-185.457 0-45.241-19.142-94.086-82.611-131.184-37.284-21.719-92.694-27.147-141.052-27.147-41.306 0-92.678 5.428-128.954 20.807zM6553.799 294.079c0-75.543 0-137.274 3.918-169.518 2.931-23.024 6.849-37.771 33.298-41.456 11.755-1.85 31.346-3.693 39.183-3.693 5.885 0 6.865-3.685 6.865-6.441 0-3.685-3.918-6.449-13.722-6.449-47.012 0-101.876 2.764-106.774 2.764-3.91 0-63.665-2.764-89.142-2.764-9.796 0-13.714 1.843-13.714 6.449 0 2.756 1.959 5.52 6.857 5.52 7.837 0 17.632 1.843 25.469 3.693 17.632 3.685 22.53 19.354 25.477 42.378 3.91 32.244 3.91 93.975 3.91 169.518v328.888l-124.406-1.843c-53.877-0.921-74.448-6.449-87.182-24.874-9.796-13.819-10.775-19.346-13.714-24.874-1.959-6.449-4.89-7.37-8.816-7.37-1.959 0-5.877 1.843-5.877 6.449 0 8.291 16.653 78.307 18.612 84.755 0.98 4.606 5.877 14.74 8.816 14.74 5.877 0 14.694-6.449 38.204-9.213 24.489-2.764 57.795-3.685 67.599-3.685h325.212c28.416 0 48.007 1.843 61.721 3.685 12.727 1.843 20.571 3.685 24.489 3.685s3.918-4.606 3.918-9.213c0-23.953-2.939-80.149-2.939-89.362 0-6.449-3.918-10.134-7.845-10.134-3.918 0-5.869 2.764-6.849 13.819l-0.98 8.291c-2.939 23.953-21.551 41.456-103.835 43.299l-107.754 1.843v-328.888zM7105.45 315.589c3.822 0 3.822 1.831 2.866 5.487l-83.121 213.357c-4.785 11.904-9.562 11.904-14.339 0l-78.344-213.357c-0.955-3.655 0-5.487 2.866-5.487h170.071zM7011.811 639.734c10.51 25.639 14.339 30.217 20.064 30.217 8.599 0 11.473-10.988 20.064-28.386 15.294-32.964 149.968-354.369 201.623-472.489 30.527-69.59 53.441-79.663 71.617-85.157 12.428-3.67 24.856-4.586 33.478-4.586 4.738 0 10.486-1.831 10.486-6.402 0-4.578-9.554-6.41-19.108-6.41-12.428 0-74.491 0-132.825 1.831-16.234 0.916-29.594 0.916-29.594 5.494 0 3.655 1.911 3.655 5.732 5.487 4.754 1.831 13.376 8.248 7.628 21.068l-75.462 178.561c-1.911 3.655-2.874 4.571-7.651 4.571h-193.941c-3.829 0-6.696-1.831-8.606-6.402l-47.763-124.537c-7.651-19.229-12.428-38.458-12.428-52.193 0-15.566 14.331-21.068 28.662-21.068h7.643c6.688 0 8.599-2.747 8.599-6.402 0-4.578-4.777-6.41-12.413-6.41-20.064 0-65.931 2.747-75.485 2.747-8.599 0-50.637-2.747-85.032-2.747-10.51 0-16.242 1.831-16.242 6.41 0 3.655 3.822 6.402 7.643 6.402 5.732 0 18.153 0.916 24.841 1.831 38.216 4.586 54.458 32.056 70.7 71.429l197.77 487.14zM7690.583 315.589c3.806 0 3.806 1.831 2.874 5.487l-83.111 213.357c-4.816 11.904-9.632 11.904-14.37 0l-78.373-213.357c-0.932-3.655 0-5.487 2.874-5.487h170.106zM7596.908 639.734c10.564 25.639 14.37 30.217 20.118 30.217 8.544 0 11.418-10.988 20.040-28.386 15.302-32.964 149.988-354.369 201.564-472.489 30.604-69.59 53.517-79.663 71.693-85.157 12.428-3.67 24.856-4.586 33.4-4.586 4.816 0 10.564-1.831 10.564-6.402 0-4.578-9.554-6.41-19.108-6.41-12.428 0-74.567 0-132.822 1.831-16.234 0.916-29.594 0.916-29.594 5.494 0 3.655 1.864 3.655 5.67 5.487 4.816 1.831 13.438 8.248 7.69 21.068l-75.499 178.561c-1.942 3.655-2.874 4.571-7.612 4.571h-193.952c-3.806 0-6.68-1.831-8.622-6.402l-47.769-124.537c-7.612-19.229-12.428-38.458-12.428-52.193 0-15.566 14.37-21.068 28.662-21.068h7.612c6.758 0 8.622-2.747 8.622-6.402 0-4.578-4.738-6.41-12.428-6.41-20.040 0-65.867 2.747-75.421 2.747-8.622 0-50.643-2.747-85.053-2.747-10.486 0-16.234 1.831-16.234 6.41 0 3.655 3.806 6.402 7.612 6.402 5.748 0 18.176 0.916 24.856 1.831 38.216 4.586 54.449 32.056 70.683 71.429l197.758 487.14zM8188.938 356.106c0-83.532 0-156.854 0.901-171.704 0.901-19.491 2.779-48.263 9.238-56.608 10.139-14.858 38.829-31.564 134.888-31.564 74.804 0 141.346 25.059 190.315 71.473 42.509 39.91 63.689 115.088 63.689 187.474 0 100.245-43.41 164.286-76.607 197.699-76.682 77.963-166.356 88.172-263.316 88.172-15.697 0-41.608-2.784-48.968-5.569s-10.139-6.497-10.139-15.778v-263.596zM8115.036 441.501c0 122.513 0 144.788-1.878 169.848-1.803 26.916-6.459 39.91-33.271 43.622-6.459 0.928-20.278 1.856-27.714 1.856-2.779 0-6.459 3.713-6.459 6.497 0 4.641 3.68 6.497 12.993 6.497 36.876 0 89.6-1.856 94.181-1.856 9.238 0 60.985 1.856 108.976 1.856 81.338 0 230.045 7.425 326.103-90.028 40.707-40.838 79.46-106.735 79.46-200.476 0-99.317-42.509-175.424-87.722-221.83-35.149-36.197-108.075-90.964-246.643-90.964-35.149 0-78.559 2.792-113.633 4.648-35.149 2.784-62.862 4.641-66.543 4.641-1.878 0-16.598-0.928-33.271-0.928-16.598-0.928-35.975-1.856-48.968-1.856-8.261 0-12.918 1.856-12.918 6.497 0 2.777 1.878 6.489 6.459 6.489 7.435 0 17.574 1.856 24.935 3.72 15.697 3.713 17.574 18.57 21.255 41.766 4.656 32.485 4.656 94.677 4.656 170.783v139.219z" />
<glyph unicode="&#xe910;" glyph-name="more" d="M512 492.052c-35.4 0-64-28.6-64-64s28.6-64 64-64c35.4 0 64 28.6 64 64s-28.6 64-64 64v0zM256.8 492.052c-35.4 0-64-28.6-64-64s28.6-64 64-64c35.4 0 64 28.6 64 64s-28.8 64-64 64v0zM768 492.052c-35.4 0-64-28.6-64-64s28.6-64 64-64 64 28.6 64 64-28.6 64-64 64v0z" />
<glyph unicode="&#xe911;" glyph-name="facebook" d="M1024 789.322c0 89.68-80.964 170.678-170.667 170.678h-682.667c-89.702 0-170.667-80.998-170.667-170.678v-682.644c0-89.68 80.964-170.678 170.678-170.678h341.322v386.844h-125.156v170.667h125.156v66.492c0 114.677 86.107 217.953 192 217.953h137.956v-170.667h-137.956c-15.098 0-32.711-18.33-32.711-45.784v-67.994h170.667v-170.667h-170.667v-386.844h182.044c89.702 0 170.667 80.998 170.667 170.678v682.644z" />
<glyph unicode="&#xe912;" glyph-name="bullet" horiz-adv-x="892" d="M514.799 27.484c-230.423 0-417.213 186.79-417.213 417.213s186.79 417.213 417.213 417.213c111.79 0 213.315-43.973 288.217-115.561 0 0 34.598-33.61 61.985-6.223 27.009 27.009-3.981 64.405-3.981 64.405-89.773 86.398-211.791 139.54-346.222 139.54-275.799 0-499.374-223.575-499.374-499.374s223.575-499.374 499.374-499.374c134.249 0 256.113 52.988 345.849 139.172 0 0 33.433 32.869 3.189 63.025-27.942 27.858-61.375-5.011-61.375-5.011-74.851-71.276-176.153-115.025-287.663-115.025zM505.537 221.215c-123.425 0-223.482 100.057-223.482 223.482s100.057 223.482 223.482 223.482c60.759 0 115.827-24.282 156.108-63.631 0 0 33.647-37.139 64.67-6.023 26.315 26.394-7.333 63.533-7.333 63.533-54.974 53.991-130.301 87.326-213.445 87.326-168.279 0-304.692-136.417-304.692-304.692s136.417-304.696 304.692-304.696c82.739 0 157.721 33.023 212.625 86.547 0 0 32.501 34.808 3.492 63.729-28.501 28.417-61.006-6.391-61.006-6.391-40.192-38.771-94.845-62.666-155.11-62.666z" />
<glyph unicode="&#xe913;" glyph-name="close" d="M512 544.707l-402.265 402.265c-22.216 22.216-58.237 22.216-80.453 0v0 0c-22.216-22.216-22.216-58.237 0-80.453l402.265-402.265-402.265-402.265c-22.216-22.216-22.216-58.237 0-80.453v0 0c22.216-22.216 58.237-22.216 80.453 0l402.265 402.265 402.265-402.265c22.216-22.216 58.237-22.216 80.453 0s22.216 58.237 0 80.453l-402.265 402.265 402.265 402.265c22.216 22.216 22.216 58.237 0 80.453s-58.237 22.216-80.453 0l-402.265-402.265z" />
<glyph unicode="&#xe914;" glyph-name="view" d="M883.235 587.053c-205.648 205.648-540.229 205.648-745.877 0l-137.358-137.341 140.765-140.765c102.815-102.815 237.872-154.24 372.947-154.24s270.115 51.408 372.947 154.24l137.358 137.358-140.783 140.748zM862.184 333.405c-192.156-192.138-504.804-192.138-696.96 0l-116.307 116.307 112.899 112.899c192.156 192.138 504.804 192.138 696.96 0l116.307-116.307-112.899-112.899zM494.218 586.897c-66.768 0-121.081-54.314-121.081-121.081 0-9.548 7.749-17.297 17.297-17.297s17.297 7.749 17.297 17.297c0 47.689 38.798 86.486 86.486 86.486 9.548 0 17.297 7.749 17.297 17.297s-7.732 17.297-17.297 17.297zM511.516 673.384c-123.987 0-224.865-100.878-224.865-224.865s100.878-224.865 224.865-224.865 224.865 100.878 224.865 224.865-100.861 224.865-224.865 224.865zM511.516 258.249c-104.908 0-190.27 85.362-190.27 190.27s85.362 190.27 190.27 190.27 190.27-85.362 190.27-190.27-85.345-190.27-190.27-190.27z" />
<glyph unicode="&#xe915;" glyph-name="circle" d="M512 960c-281.6 0-512-230.4-512-512s230.4-512 512-512 512 230.4 512 512-230.4 512-512 512zM512 38.4c-225.28 0-409.6 184.32-409.6 409.6s184.32 409.6 409.6 409.6 409.6-184.32 409.6-409.6-184.32-409.6-409.6-409.6z" />
</font>
</defs>
</svg>
