<?xml version="1.0" standalone="no"?>
<!DOCTYPE svg PUBLIC "-//W3C//DTD SVG 1.1//EN" "http://www.w3.org/Graphics/SVG/1.1/DTD/svg11.dtd" >
<svg xmlns="http://www.w3.org/2000/svg" xmlns:xlink="http://www.w3.org/1999/xlink" version="1.1">
<metadata>
Created by FontForge 20150824 at Wed Jul 27 08:54:09 2016
 By Everything Fonts
Copyright (URW)++, copyright 1999 by (URW)++ Design &#38; Development; Cyrillic glyphs added by Valek Filippov, copyright 2001-2002; Vietnamese characters were added by Han The Thanh; copyright 2006, 2008 for TeX Gyre extensions by B. Jackowski and J.M. Nowacki (on behalf of TeX users groups). This work is released under the GUST Font License --  see http://tug.org/fonts/licenses/GUST-FONT-LICENSE.txt for details.
</metadata>
<defs>
<font id="TeXGyreAdventor-Bold" horiz-adv-x="640" >
  <font-face 
    font-family="TeXGyreAdventor"
    font-weight="700"
    font-stretch="normal"
    units-per-em="1000"
    panose-1="0 0 8 0 0 0 0 0 0 0"
    ascent="815"
    descent="-185"
    x-height="554"
    cap-height="739"
    bbox="-679 -304 1661 1236"
    underline-thickness="90"
    underline-position="-93"
    stemh="122"
    stemv="133"
    unicode-range="U+0020-FB04"
  />
<missing-glyph horiz-adv-x="280" 
 />
    <glyph glyph-name="f_f" unicode="ff" horiz-adv-x="560" 
d="M550 611h-13c-52 0 -69 -17 -70 -67h75v-111h-75v-433h-133v433h-143v-433h-133v433h-48v111h48c15 146 87 195 183 195c9 0 17 0 33 -2v-126h-13c-52 0 -69 -17 -70 -67h143c15 146 87 195 183 195c9 0 17 0 33 -2v-126z" />
    <glyph glyph-name="f_f_i" unicode="ffi" horiz-adv-x="796" 
d="M550 611h-13c-52 0 -69 -17 -70 -67h75v-111h-75v-433h-133v433h-143v-433h-133v433h-48v111h48c15 146 87 195 183 195c9 0 17 0 33 -2v-126h-13c-52 0 -69 -17 -70 -67h143c15 146 87 195 183 195c9 0 17 0 33 -2v-126zM743 0h-133v554h133v-554zM744 634h-133v133h133
v-133z" />
    <glyph glyph-name="f_f_l" unicode="ffl" horiz-adv-x="796" 
d="M550 611h-13c-52 0 -69 -17 -70 -67h75v-111h-75v-433h-133v433h-143v-433h-133v433h-48v111h48c15 146 87 195 183 195c9 0 17 0 33 -2v-126h-13c-52 0 -69 -17 -70 -67h143c15 146 87 195 183 195c9 0 17 0 33 -2v-126zM743 0h-133v739h133v-739z" />
    <glyph glyph-name="f_i" unicode="fi" horiz-adv-x="520" 
d="M274 611h-13c-52 0 -69 -17 -70 -67h75v-111h-75v-433h-133v433h-48v111h48c15 146 87 195 183 195c9 0 17 0 33 -2v-126zM467 0h-133v554h133v-554zM468 634h-133v133h133v-133z" />
    <glyph glyph-name="f_l" unicode="fl" horiz-adv-x="520" 
d="M274 611h-13c-52 0 -69 -17 -70 -67h75v-111h-75v-433h-133v433h-48v111h48c15 146 87 195 183 195c9 0 17 0 33 -2v-126zM467 0h-133v739h133v-739z" />
    <glyph glyph-name="I_J" unicode="IJ" horiz-adv-x="713" 
d="M191 0h-137v739h137v-739zM659 212c0 -139 -76 -225 -200 -225c-107 0 -192 63 -205 188h137c9 -37 31 -56 65 -56c44 0 66 32 66 97v523h137v-527z" />
    <glyph glyph-name="i_j" unicode="ij" horiz-adv-x="499" 
d="M187 0h-133v554h133v-554zM188 634h-133v133h133v-133zM445 37c0 -149 -75 -222 -188 -222v129c50 9 55 18 55 96v514h133v-517zM446 634h-133v133h133v-133z" />
    <glyph glyph-name="f_k" unicode="fk" horiz-adv-x="860" 
d="M274 611h-13c-52 0 -69 -17 -70 -67h75v-111h-75v-433h-133v433h-48v111h48c15 146 87 195 183 195c9 0 17 0 33 -2v-126zM835 0h-179l-189 259v-259h-133v739h133v-446l177 261h159l-198 -271z" />
    <glyph glyph-name=".notdef" horiz-adv-x="280" 
 />
    <glyph glyph-name="acute.dup" horiz-adv-x="420" 
d="M395 724l-227 -120l-51 78l224 134z" />
    <glyph glyph-name="AE.dup" horiz-adv-x="900" 
d="M843 0h-355v191h-194l-112 -191h-165l487 739h339v-131h-218v-174h207v-131h-207v-172h218v-131zM488 322v191l-115 -191h115z" />
    <glyph glyph-name="ae.dup" horiz-adv-x="1080" 
d="M1051 288c0 -23 -2 -39 -9 -69h-428c23 -69 81 -110 156 -110c49 0 85 17 117 55h145c-33 -101 -143 -177 -256 -177c-74 0 -125 22 -169 73v-60h-122v60c-45 -53 -89 -73 -165 -73c-166 0 -290 123 -290 288s125 292 288 292c71 0 121 -20 167 -68v55h122v-55
c47 48 97 68 167 68c155 0 277 -123 277 -279zM481 276c0 96 -69 169 -158 169s-159 -73 -159 -165c0 -99 67 -171 161 -171c89 0 156 72 156 167zM911 337c-19 72 -70 108 -150 108c-77 0 -128 -35 -154 -108h304z" />
    <glyph glyph-name="cedilla.dup" horiz-adv-x="340" 
d="M270 -152c0 -59 -39 -98 -96 -98c-51 0 -92 34 -100 84h61c9 -20 21 -29 38 -29c21 0 39 20 39 45c0 24 -17 44 -39 44c-14 0 -24 -7 -38 -27l-52 26l46 112h52l-31 -63c13 5 20 7 29 7c49 0 91 -46 91 -101z" />
    <glyph glyph-name="circumflex.dup" horiz-adv-x="540" 
d="M470 631h-145l-53 64l-54 -64h-147l147 138h107z" />
    <glyph glyph-name="dieresis.dup" horiz-adv-x="500" 
d="M207 634h-133v133h133v-133zM417 634h-133v133h133v-133z" />
    <glyph glyph-name="l.script.dup" horiz-adv-x="563" 
d="M509 185c0 -107 -79 -198 -182 -198c-91 0 -142 69 -167 161c-25 -10 -51 -18 -78 -24l-28 121c30 7 59 17 85 30c-1 22 -2 45 -2 67c0 190 19 403 183 403c81 0 155 -53 155 -129c0 -160 -76 -306 -196 -399c5 -52 18 -92 48 -92c32 0 58 27 58 60h124zM350 616
c0 5 -17 5 -30 5c-39 0 -44 -122 -45 -232c48 64 75 143 75 227z" />
    <glyph glyph-name="Gcedilla" horiz-adv-x="840" 
d="M818 359c0 -201 -168 -372 -386 -372c-227 0 -402 168 -402 384c0 212 173 381 389 381c161 0 313 -97 361 -230h-161c-46 64 -117 98 -203 98c-146 0 -248 -112 -248 -251c0 -141 111 -250 256 -250c97 0 177 48 217 130h-306v128h483v-18zM477 -53l-58 -192h-104
l58 192h104z" />
    <glyph glyph-name="gcedilla" horiz-adv-x="660" 
d="M384 823l-58 -192h-104l58 192h104zM611 105c0 -238 -115 -326 -287 -326c-136 0 -240 65 -285 176h151c39 -43 77 -59 139 -59c99 0 150 58 155 177c-52 -61 -104 -86 -182 -86c-158 0 -272 123 -272 294c0 164 116 286 273 286c80 0 140 -27 181 -83v70h127v-449z
M478 275c0 101 -65 170 -160 170c-93 0 -154 -68 -154 -170c0 -101 61 -166 156 -166s158 66 158 166z" />
    <glyph glyph-name="germandbls.dup" horiz-adv-x="600" 
d="M584 216c0 -134 -97 -229 -234 -229c-81 0 -140 31 -177 92v-79h-122v487c0 166 84 265 221 265c123 0 218 -89 218 -206c0 -66 -23 -109 -75 -138c116 -27 169 -100 169 -192zM450 205c0 73 -40 110 -184 110h-11v118h11c52 0 90 44 90 103c0 57 -34 94 -85 94
c-58 0 -87 -42 -87 -127v-314h82c9 -46 49 -80 93 -80c52 0 91 41 91 96z" />
    <glyph glyph-name="hyphen.dup" horiz-adv-x="420" 
d="M351 229h-277v118h277v-118z" />
    <glyph glyph-name="Kcedilla" horiz-adv-x="620" 
d="M599 0h-165l-229 325v-325h-137v739h137v-319l229 319h165l-278 -363zM377 -53l-58 -192h-104l58 192h104z" />
    <glyph glyph-name="kcedilla" horiz-adv-x="580" 
d="M555 0h-179l-189 259v-259h-133v739h133v-446l177 261h159l-198 -271zM339 -53l-58 -192h-104l58 192h104z" />
    <glyph glyph-name="Lcedilla" horiz-adv-x="440" 
d="M431 0h-363v739h137v-608h226v-131zM307 -53l-58 -192h-104l58 192h104z" />
    <glyph glyph-name="lcedilla" horiz-adv-x="240" 
d="M187 0h-133v739h133v-739zM178 -53l-58 -192h-104l58 192h104z" />
    <glyph glyph-name="macron.dup" horiz-adv-x="420" 
d="M351 650h-277v100h277v-100z" />
    <glyph glyph-name="Ncedilla" horiz-adv-x="740" 
d="M667 0h-153l-309 537v-537h-137v739h156l306 -538v538h137v-739zM425 -53l-58 -192h-104l58 192h104z" />
    <glyph glyph-name="ncedilla" horiz-adv-x="600" 
d="M546 0h-133v271c0 148 -40 174 -106 174c-42 0 -77 -18 -98 -51c-17 -27 -22 -59 -22 -133v-261h-133v554h123v-53c49 47 93 66 156 66c77 0 137 -28 173 -80c30 -43 40 -91 40 -190v-297zM358 -53l-58 -192h-104l58 192h104z" />
    <glyph glyph-name="OE.dup" horiz-adv-x="1060" 
d="M1004 0h-357v81c-55 -61 -136 -94 -229 -94c-216 0 -380 164 -380 382c0 219 161 383 375 383c101 0 178 -31 234 -95v82h357v-131h-218v-174h207v-131h-207v-172h218v-131zM652 368c0 144 -101 252 -237 252c-141 0 -239 -114 -239 -255c0 -139 104 -246 240 -246
c137 0 236 105 236 249z" />
    <glyph glyph-name="oe.dup" horiz-adv-x="1080" 
d="M1048 284c0 -23 -1 -39 -5 -66h-429c22 -67 80 -109 153 -109c46 0 95 22 121 54h142c-39 -107 -142 -176 -262 -176c-94 0 -174 40 -225 113c-53 -77 -124 -113 -219 -113c-168 0 -294 125 -294 290c0 162 128 290 290 290c94 0 164 -36 223 -111c64 78 129 111 219 111
c169 0 286 -123 286 -283zM486 276c0 96 -70 169 -161 169c-90 0 -161 -73 -161 -164c0 -99 70 -172 165 -172c89 0 157 72 157 167zM910 335c-21 73 -71 110 -150 110c-75 0 -127 -37 -152 -110h302z" />
    <glyph glyph-name="Oslash.dup" horiz-adv-x="840" 
d="M803 370c0 -216 -167 -383 -382 -383c-60 0 -115 12 -168 36l-60 -88l-96 65l59 87c-80 72 -126 176 -126 283c0 212 172 382 386 382c57 0 110 -11 165 -35l62 92l95 -66l-61 -90c82 -75 126 -174 126 -283zM665 368c0 65 -22 123 -64 172l-272 -405
c31 -11 60 -16 91 -16c140 0 245 107 245 249zM505 605c-29 10 -57 15 -89 15c-138 0 -248 -110 -248 -250c0 -61 23 -121 65 -169z" />
    <glyph glyph-name="oslash.dup" horiz-adv-x="660" 
d="M620 277c0 -160 -132 -290 -294 -290c-44 0 -85 9 -126 28l-56 -82l-85 57l57 84c-55 52 -86 126 -86 203c0 160 133 290 296 290c39 0 74 -7 109 -21l52 77l86 -58l-50 -73c64 -59 97 -132 97 -215zM363 440c-15 4 -24 5 -38 5c-88 0 -161 -75 -161 -167
c0 -33 9 -64 27 -93zM486 276c0 39 -12 75 -36 107l-179 -264c19 -7 35 -10 54 -10c89 0 161 75 161 167z" />
    <glyph glyph-name="quoteleft.dup" horiz-adv-x="280" 
d="M205 466h-133v140c0 80 51 133 133 133v-67c-43 -8 -59 -23 -59 -57c0 -3 0 -10 1 -16h58v-133z" />
    <glyph glyph-name="quoteright.dup" horiz-adv-x="280" 
d="M205 599c0 -78 -46 -133 -133 -133v67c42 8 59 25 59 60c0 4 0 11 -1 18h-58v128h133v-140z" />
    <glyph glyph-name="Rcedilla" horiz-adv-x="580" 
d="M568 0h-169l-194 283v-283h-137v739h213c101 0 154 -14 202 -55c51 -43 78 -107 78 -182c0 -115 -60 -196 -193 -229zM423 498c0 66 -27 110 -157 110h-61v-222h67c106 0 151 34 151 112zM348 -53l-58 -192h-104l58 192h104z" />
    <glyph glyph-name="rcedilla" horiz-adv-x="320" 
d="M306 439c-80 -2 -119 -45 -119 -131v-308h-133v554h122v-54c35 51 63 67 120 67h10v-128zM178 -53l-58 -192h-104l58 192h104z" />
    <glyph glyph-name="tilde.dup" horiz-adv-x="480" 
d="M405 687c-32 -39 -59 -55 -94 -55c-24 0 -94 25 -113 25c-25 0 -32 -3 -70 -25l-54 80c35 35 61 47 103 47c24 0 80 -25 107 -25c26 0 46 10 67 34z" />
    <glyph glyph-name="A" unicode="A" horiz-adv-x="740" 
d="M733 0h-151l-79 191h-263l-82 -191h-151l308 739h108zM448 322l-79 224l-79 -224h158z" />
    <glyph glyph-name="a" unicode="a" horiz-adv-x="660" 
d="M615 0h-122v72c-53 -60 -106 -85 -184 -85c-162 0 -279 121 -279 288c0 169 118 292 282 292c80 0 135 -26 181 -87v74h122v-554zM489 273c0 101 -68 172 -163 172s-162 -72 -162 -173c0 -97 67 -163 164 -163c101 0 161 72 161 164z" />
    <glyph glyph-name="ampersand" unicode="&#x26;" horiz-adv-x="680" 
d="M664 73l-95 -86l-105 111c-63 -84 -109 -111 -188 -111c-135 0 -241 104 -241 236c0 90 42 153 138 210c-48 54 -62 83 -62 136c0 103 81 183 187 183c108 0 190 -78 190 -182c0 -80 -27 -124 -116 -181l67 -75l72 119h149l-128 -219zM361 566c0 36 -25 61 -61 61
c-35 0 -62 -26 -62 -60c0 -27 12 -48 51 -86c56 30 72 48 72 85zM372 198l-115 124c-62 -28 -89 -60 -89 -107c0 -55 42 -96 100 -96c44 0 70 19 104 79z" />
    <glyph glyph-name="asciicircum" unicode="^" horiz-adv-x="600" 
d="M543 363l-104 -50l-136 276l-136 -276l-104 50l179 376h122z" />
    <glyph glyph-name="asciitilde" unicode="~" horiz-adv-x="600" 
d="M555 347c-52 -86 -91 -117 -145 -117c-20 0 -55 9 -91 24l-54 22c-35 14 -49 19 -64 19c-18 0 -33 -7 -47 -22c-6 -6 -8 -6 -40 -59l-63 75c53 86 82 123 148 123c23 0 53 -6 77 -16l67 -27c54 -22 54 -22 71 -22c23 0 51 27 77 74z" />
    <glyph glyph-name="asterisk" unicode="*" horiz-adv-x="440" 
d="M371 554l-97 5l53 -80l-57 -38l-47 88l-43 -88l-64 31l52 89l-98 -7v71l99 -5l-53 86l63 32l44 -86l46 87l59 -36l-54 -83l97 6v-72z" />
    <glyph glyph-name="at" unicode="@" horiz-adv-x="740" 
d="M745 397c0 -145 -88 -243 -211 -243c-53 0 -86 18 -99 54c-25 -37 -60 -54 -113 -54c-100 0 -165 74 -165 191c0 132 87 232 202 232c54 0 85 -15 118 -58l7 54h96l-33 -295c-1 -5 -1 -8 -1 -15c0 -17 9 -26 27 -26c53 0 99 82 99 176c0 167 -114 281 -282 281
c-182 0 -316 -136 -316 -320c0 -169 124 -314 327 -314c59 0 105 14 149 47l46 -60c-54 -42 -112 -60 -197 -60c-227 0 -396 165 -396 390c0 221 166 389 385 389c211 0 357 -143 357 -369zM455 374c0 56 -29 91 -76 91c-56 0 -102 -49 -102 -110c0 -58 30 -95 78 -95
c58 0 100 47 100 114z" />
    <glyph glyph-name="B" unicode="B" horiz-adv-x="580" 
d="M548 220c0 -135 -93 -220 -283 -220h-197v739h152c110 0 156 -8 200 -36c53 -34 84 -92 84 -161s-23 -108 -82 -139c94 -39 126 -95 126 -183zM410 223c0 66 -45 97 -140 97h-65v-189h68c96 0 137 28 137 92zM367 530c0 51 -35 75 -106 75h-56v-151h44
c83 0 118 23 118 76z" />
    <glyph glyph-name="b" unicode="b" horiz-adv-x="660" 
d="M638 281c0 -167 -114 -294 -270 -294c-82 0 -135 23 -192 84v-71h-122v739h133v-236c51 51 100 71 172 71c159 0 279 -126 279 -293zM504 280c0 99 -69 172 -164 172c-93 0 -161 -71 -161 -171c0 -101 68 -172 164 -172c95 0 161 70 161 171z" />
    <glyph glyph-name="backslash" unicode="\" 
d="M503 0h-94l-325 739h94z" />
    <glyph glyph-name="bar" unicode="|" horiz-adv-x="600" 
d="M369 -137h-138v876h138v-876z" />
    <glyph glyph-name="braceleft" unicode="{" horiz-adv-x="340" 
d="M302 -128c-15 -1 -33 -1 -41 -1c-101 0 -143 41 -143 139v157c0 60 -25 91 -81 98v81c56 7 81 38 81 98v157c0 98 42 139 143 139c8 0 26 0 41 -1v-80c-71 -6 -79 -17 -79 -102v-123c0 -78 -23 -111 -90 -129c66 -16 90 -50 90 -128v-123c0 -85 8 -96 79 -102v-80z" />
    <glyph glyph-name="braceright" unicode="}" horiz-adv-x="340" 
d="M303 265c-56 -7 -81 -38 -81 -98v-157c0 -98 -42 -139 -143 -139c-8 0 -26 0 -41 1v80c71 6 79 17 79 102v123c0 78 23 111 90 129c-66 16 -90 50 -90 128v123c0 85 -8 96 -79 102v80c15 1 33 1 41 1c101 0 143 -41 143 -139v-157c0 -60 25 -91 81 -98v-81z" />
    <glyph glyph-name="bracketleft" unicode="[" horiz-adv-x="320" 
d="M292 -137c-136 31 -218 127 -218 324v259c0 148 57 246 218 293v-147c-73 -31 -83 -84 -83 -173v-255c0 -74 15 -129 83 -154v-147z" />
    <glyph glyph-name="bracketright" unicode="]" horiz-adv-x="320" 
d="M255 156c0 -147 -57 -246 -218 -293v147c73 30 83 84 83 173v255c0 73 -14 126 -83 154v147c137 -31 218 -128 218 -324v-259z" />
    <glyph glyph-name="C" unicode="C" horiz-adv-x="780" 
d="M760 206c-58 -135 -190 -219 -341 -219c-216 0 -389 172 -389 385c0 209 171 380 380 380c152 0 285 -82 350 -225h-153c-50 65 -108 93 -194 93c-141 0 -245 -110 -245 -249c0 -138 112 -252 248 -252c71 0 123 24 183 87h161z" />
    <glyph glyph-name="c" unicode="c" 
d="M601 182c-46 -124 -146 -195 -275 -195c-164 0 -296 129 -296 290c0 163 128 290 292 290c126 0 236 -71 279 -198h-150c-27 51 -69 76 -129 76c-92 0 -158 -70 -158 -167s69 -169 161 -169c55 0 93 22 126 73h150z" />
    <glyph glyph-name="colon" unicode=":" horiz-adv-x="280" 
d="M205 0h-133v128h133v-128zM205 369h-133v133h133v-133z" />
    <glyph glyph-name="comma" unicode="," horiz-adv-x="280" 
d="M205 -7c0 -77 -45 -133 -133 -133v67c42 8 59 24 59 56c0 4 0 11 -1 17h-58v128h133v-135z" />
    <glyph glyph-name="D" unicode="D" horiz-adv-x="700" 
d="M660 368c0 -149 -67 -271 -181 -327c-60 -30 -127 -41 -239 -41h-172v739h169c116 0 204 -18 262 -53c103 -62 161 -178 161 -318zM522 368c0 95 -43 174 -113 210c-43 22 -90 30 -177 30h-27v-477h30c82 0 139 10 180 33c66 36 107 115 107 204z" />
    <glyph glyph-name="d" unicode="d" horiz-adv-x="660" 
d="M613 0h-122v72c-53 -60 -108 -85 -183 -85c-157 0 -278 127 -278 291c0 166 122 296 277 296c70 0 134 -26 173 -69v234h133v-739zM490 280c0 97 -71 172 -164 172c-91 0 -162 -74 -162 -168c0 -98 72 -175 165 -175c90 0 161 75 161 171z" />
    <glyph glyph-name="dollar" unicode="$" horiz-adv-x="560" 
d="M494 251c0 -103 -54 -179 -147 -205v-132h-127v132c-101 28 -161 105 -161 190v13h134c3 -52 36 -86 84 -86s84 36 84 83c0 32 -11 52 -39 70c-18 11 -18 12 -105 45c-85 31 -129 92 -129 180c0 86 42 161 132 182v133h127v-133c68 -13 121 -87 124 -172h-126
c-8 40 -31 62 -65 62s-59 -27 -59 -64c0 -46 15 -63 114 -100c124 -43 159 -91 159 -198z" />
    <glyph glyph-name="E" unicode="E" horiz-adv-x="520" 
d="M465 0h-397v739h397v-131h-260v-174h249v-131h-249v-172h260v-131z" />
    <glyph glyph-name="e" unicode="e" 
d="M608 269c0 -20 -1 -32 -5 -51h-429c16 -67 74 -109 153 -109c55 0 88 15 122 55h145c-37 -114 -152 -177 -264 -177c-169 0 -300 126 -300 288c0 163 129 292 292 292c165 0 286 -126 286 -298zM477 335c-17 71 -71 110 -153 110c-79 0 -133 -39 -154 -110h307z" />
    <glyph glyph-name="eight" unicode="8" horiz-adv-x="560" 
d="M523 232c0 -140 -105 -245 -245 -245c-139 0 -247 106 -247 244c0 78 29 137 106 180c-46 49 -61 84 -61 138c0 113 90 203 203 203c116 0 202 -86 202 -201c0 -62 -20 -106 -62 -140c73 -44 104 -96 104 -179zM354 550c0 45 -33 80 -74 80c-44 0 -77 -35 -77 -81
c0 -44 34 -80 76 -80c41 0 75 36 75 81zM390 225c0 64 -50 116 -111 116c-64 0 -115 -50 -115 -115c0 -66 50 -117 115 -117c63 0 111 50 111 116z" />
    <glyph glyph-name="equal" unicode="=" horiz-adv-x="600" 
d="M546 273h-492v138h492v-138zM546 89h-492v138h492v-138z" />
    <glyph glyph-name="exclam" unicode="!" horiz-adv-x="280" 
d="M205 188h-133v551h133v-551zM205 0h-133v128h133v-128z" />
    <glyph glyph-name="F" unicode="F" horiz-adv-x="480" 
d="M444 608h-239v-174h228v-131h-228v-303h-137v739h376v-131z" />
    <glyph glyph-name="f" unicode="f" horiz-adv-x="280" 
d="M274 611h-13c-52 0 -69 -17 -70 -67h75v-111h-75v-433h-133v433h-48v111h48c15 146 87 195 183 195c9 0 17 0 33 -2v-126z" />
    <glyph glyph-name="five" unicode="5" horiz-adv-x="560" 
d="M520 247c0 -148 -108 -260 -251 -260c-131 0 -250 98 -257 234h133c13 -72 56 -112 120 -112c72 0 122 56 122 136c0 75 -52 132 -120 132c-42 0 -70 -15 -103 -56l-118 32l69 386h334v-125h-234l-24 -136c38 16 61 21 95 21c135 0 234 -107 234 -252z" />
    <glyph glyph-name="four" unicode="4" horiz-adv-x="560" 
d="M530 111h-78v-111h-133v111h-319v108l340 520h112v-509h78v-119zM319 230v285l-184 -285h184z" />
    <glyph glyph-name="G" unicode="G" horiz-adv-x="840" 
d="M818 359c0 -201 -168 -372 -386 -372c-227 0 -402 168 -402 384c0 212 173 381 389 381c161 0 313 -97 361 -230h-161c-46 64 -117 98 -203 98c-146 0 -248 -112 -248 -251c0 -141 111 -250 256 -250c97 0 177 48 217 130h-306v128h483v-18z" />
    <glyph glyph-name="g" unicode="g" horiz-adv-x="660" 
d="M611 105c0 -238 -115 -326 -287 -326c-136 0 -240 65 -285 176h151c39 -43 77 -59 139 -59c99 0 150 58 155 177c-52 -61 -104 -86 -182 -86c-158 0 -272 123 -272 294c0 164 116 286 273 286c80 0 140 -27 181 -83v70h127v-449zM478 275c0 101 -65 170 -160 170
c-93 0 -154 -68 -154 -170c0 -101 61 -166 156 -166s158 66 158 166z" />
    <glyph glyph-name="grave" unicode="`" horiz-adv-x="420" 
d="M303 682l-51 -78l-227 120l54 92z" />
    <glyph glyph-name="greater" unicode="&#x3e;" horiz-adv-x="600" 
d="M492 196l-427 -338v176l273 216l-273 216v176l427 -338v-108z" />
    <glyph glyph-name="H" unicode="H" horiz-adv-x="680" 
d="M606 0h-137v310h-264v-310h-137v739h137v-298h264v298h137v-739z" />
    <glyph glyph-name="h" unicode="h" horiz-adv-x="600" 
d="M545 0h-133v283c0 116 -30 162 -108 162c-76 0 -117 -42 -117 -164v-281h-133v739h133v-223c40 36 84 52 141 52c133 0 217 -73 217 -255v-313z" />
    <glyph glyph-name="hyphen" unicode="-" horiz-adv-x="420" 
d="M351 229h-277v118h277v-118z" />
    <glyph glyph-name="I" unicode="I" horiz-adv-x="280" 
d="M205 0h-137v739h137v-739z" />
    <glyph glyph-name="i" unicode="i" horiz-adv-x="240" 
d="M187 0h-133v554h133v-554zM188 634h-133v133h133v-133z" />
    <glyph glyph-name="J" unicode="J" horiz-adv-x="480" 
d="M414 212c0 -139 -76 -225 -200 -225c-107 0 -192 63 -205 188h137c9 -37 31 -56 65 -56c44 0 66 32 66 97v523h137v-527z" />
    <glyph glyph-name="j" unicode="j" horiz-adv-x="260" 
d="M205 37c0 -149 -75 -222 -188 -222v129c50 9 55 18 55 96v514h133v-517zM206 634h-133v133h133v-133z" />
    <glyph glyph-name="K" unicode="K" horiz-adv-x="620" 
d="M599 0h-165l-229 325v-325h-137v739h137v-319l229 319h165l-278 -363z" />
    <glyph glyph-name="k" unicode="k" horiz-adv-x="580" 
d="M555 0h-179l-189 259v-259h-133v739h133v-446l177 261h159l-198 -271z" />
    <glyph glyph-name="L" unicode="L" horiz-adv-x="440" 
d="M431 0h-363v739h137v-608h226v-131z" />
    <glyph glyph-name="l" unicode="l" horiz-adv-x="240" 
d="M187 0h-133v739h133v-739z" />
    <glyph glyph-name="less" unicode="&#x3c;" horiz-adv-x="600" 
d="M492 -142l-427 338v108l427 338v-176l-273 -216l273 -216v-176z" />
    <glyph glyph-name="M" unicode="M" horiz-adv-x="900" 
d="M840 0h-137v554l-193 -554h-112l-193 554v-554h-137v739h188l199 -560l197 560h188v-739z" />
    <glyph glyph-name="m" unicode="m" horiz-adv-x="940" 
d="M885 0h-133v304c0 111 -42 141 -104 141c-74 0 -112 -40 -112 -172v-273h-133v304c0 109 -38 141 -108 141c-77 0 -108 -41 -108 -172v-273h-133v554h122v-52c39 47 79 65 144 65c76 0 125 -26 163 -86c45 60 100 86 178 86c146 0 224 -81 224 -247v-320z" />
    <glyph glyph-name="N" unicode="N" horiz-adv-x="740" 
d="M667 0h-153l-309 537v-537h-137v739h156l306 -538v538h137v-739z" />
    <glyph glyph-name="n" unicode="n" horiz-adv-x="600" 
d="M546 0h-133v271c0 148 -40 174 -106 174c-42 0 -77 -18 -98 -51c-17 -27 -22 -59 -22 -133v-261h-133v554h123v-53c49 47 93 66 156 66c77 0 137 -28 173 -80c30 -43 40 -91 40 -190v-297z" />
    <glyph glyph-name="nine" unicode="9" horiz-adv-x="560" 
d="M532 496c0 -71 -20 -127 -73 -206l-193 -290h-159l178 263c-24 -9 -38 -12 -60 -12c-115 0 -203 102 -203 236c0 154 105 265 251 265c149 0 259 -109 259 -256zM399 500c0 76 -53 130 -126 130c-70 0 -118 -54 -118 -130s51 -131 121 -131c73 0 123 54 123 131z" />
    <glyph glyph-name="numbersign" unicode="#" horiz-adv-x="560" 
d="M526 422h-103l-12 -89h89v-100h-102l-32 -233h-90l32 233h-87l-31 -233h-91l32 233h-97v100h110l12 89h-96v99h110l29 218h90l-29 -218h87l29 218h90l-29 -218h89v-99zM333 422h-86l-13 -89h87z" />
    <glyph glyph-name="O" unicode="O" horiz-adv-x="840" 
d="M800 370c0 -216 -166 -383 -381 -383c-217 0 -389 169 -389 382c0 216 170 383 390 383c211 0 380 -171 380 -382zM662 368c0 142 -107 252 -244 252c-142 0 -250 -108 -250 -251c0 -140 110 -250 250 -250s244 107 244 249z" />
    <glyph glyph-name="o" unicode="o" 
d="M619 273c0 -156 -134 -286 -295 -286c-162 0 -294 130 -294 290c0 159 132 290 293 290c167 0 296 -129 296 -294zM485 277c0 92 -72 168 -161 168c-87 0 -160 -75 -160 -166c0 -95 71 -170 161 -170c88 0 160 75 160 168z" />
    <glyph glyph-name="one" unicode="1" horiz-adv-x="560" 
d="M379 0h-133v614h-93v125h226v-739z" />
    <glyph glyph-name="P" unicode="P" horiz-adv-x="560" 
d="M540 511c0 -85 -37 -160 -97 -197c-41 -25 -89 -33 -194 -33h-44v-281h-137v739h183c98 0 147 -9 189 -34c64 -39 100 -109 100 -194zM402 509c0 78 -46 99 -151 99h-46v-196h40c123 0 157 33 157 97z" />
    <glyph glyph-name="p" unicode="p" horiz-adv-x="660" 
d="M634 279c0 -168 -117 -292 -277 -292c-68 0 -120 20 -170 65v-237h-133v739h122v-65c43 50 107 78 182 78c160 0 276 -121 276 -288zM500 276c0 96 -69 169 -159 169c-92 0 -162 -72 -162 -167c0 -97 70 -169 164 -169c88 0 157 73 157 167z" />
    <glyph glyph-name="parenleft" unicode="(" horiz-adv-x="380" 
d="M349 -137c-165 58 -275 251 -275 437c0 196 106 369 275 439v-144c-91 -70 -140 -174 -140 -295c0 -117 58 -239 140 -292v-145z" />
    <glyph glyph-name="parenright" unicode=")" horiz-adv-x="380" 
d="M312 302c0 -196 -106 -369 -275 -439v144c91 70 140 174 140 295c0 117 -58 239 -140 292v145c165 -58 275 -252 275 -437z" />
    <glyph glyph-name="percent" unicode="%" horiz-adv-x="860" 
d="M631 739l-306 -739h-102l305 739h103zM835 168c0 -100 -81 -181 -181 -181s-181 81 -181 180c0 101 80 181 182 181c98 0 180 -82 180 -180zM728 168c0 40 -34 74 -74 74s-73 -33 -73 -74s33 -74 73 -74s74 34 74 74zM383 572c0 -100 -81 -181 -181 -181
s-181 81 -181 180c0 101 80 181 182 181c98 0 180 -82 180 -180zM276 572c0 40 -34 74 -74 74s-73 -33 -73 -74s33 -74 73 -74s74 34 74 74z" />
    <glyph glyph-name="period" unicode="." horiz-adv-x="280" 
d="M205 0h-133v128h133v-128z" />
    <glyph glyph-name="plus" unicode="+" horiz-adv-x="600" 
d="M546 181h-177v-177h-138v177h-177v138h177v177h138v-177h177v-138z" />
    <glyph glyph-name="Q" unicode="Q" horiz-adv-x="840" 
d="M828 -14c-8 -1 -22 -1 -26 -1c-64 0 -104 17 -167 60c-52 -36 -130 -58 -205 -58c-223 0 -400 170 -400 383c0 215 172 382 394 382c224 0 391 -165 391 -386c0 -98 -29 -175 -89 -237c31 -16 44 -22 68 -22c7 0 20 1 34 3v-124zM519 138c-85 68 -156 97 -237 97
c-24 0 -39 -2 -71 -8c56 -74 126 -108 219 -108c37 0 58 5 89 19zM677 364c0 147 -109 256 -255 256c-145 0 -255 -108 -255 -251c0 -9 0 -17 2 -35c34 9 70 13 114 13c118 0 244 -54 334 -143c40 41 60 93 60 160z" />
    <glyph glyph-name="q" unicode="q" horiz-adv-x="660" 
d="M611 -185h-133v238c-44 -44 -99 -66 -167 -66c-159 0 -281 127 -281 292c0 160 124 288 279 288c81 0 137 -26 180 -84v71h122v-739zM486 275c0 97 -68 170 -158 170c-94 0 -164 -72 -164 -169c0 -96 69 -167 163 -167c91 0 159 71 159 166z" />
    <glyph glyph-name="question" unicode="?" horiz-adv-x="560" 
d="M485 523c0 -67 -25 -112 -102 -179c-55 -48 -64 -70 -65 -157h-133c0 125 22 173 122 255c30 25 45 55 45 85c0 54 -40 93 -95 93c-54 0 -83 -32 -92 -100h-133c12 155 109 232 228 232c128 0 225 -98 225 -229zM318 0h-133v128h133v-128z" />
    <glyph glyph-name="quotedbl" unicode="&#x22;" horiz-adv-x="360" 
d="M283 513h-76v226h76v-226zM150 513h-76v226h76v-226z" />
    <glyph glyph-name="quotesingle" unicode="'" horiz-adv-x="220" 
d="M150 513h-76v226h76v-226z" />
    <glyph glyph-name="R" unicode="R" horiz-adv-x="580" 
d="M568 0h-169l-194 283v-283h-137v739h213c101 0 154 -14 202 -55c51 -43 78 -107 78 -182c0 -115 -60 -196 -193 -229zM423 498c0 66 -27 110 -157 110h-61v-222h67c106 0 151 34 151 112z" />
    <glyph glyph-name="r" unicode="r" horiz-adv-x="320" 
d="M306 439c-80 -2 -119 -45 -119 -131v-308h-133v554h122v-54c35 51 63 67 120 67h10v-128z" />
    <glyph glyph-name="S" unicode="S" horiz-adv-x="520" 
d="M493 224c0 -134 -103 -237 -236 -237c-130 0 -231 84 -243 224h143c6 -62 39 -92 100 -92c59 0 100 37 100 90c0 30 -12 58 -34 75s-30 20 -128 57c-99 37 -154 108 -154 201c0 117 96 210 215 210s212 -80 219 -210h-142c-4 50 -32 78 -78 78c-45 0 -76 -31 -76 -75
c0 -27 14 -50 41 -67c10 -6 12 -7 82 -33c150 -56 191 -121 191 -221z" />
    <glyph glyph-name="s" unicode="s" horiz-adv-x="440" 
d="M420 176c0 -106 -87 -189 -198 -189c-110 0 -189 60 -203 189h134c13 -47 35 -67 74 -67c34 0 60 23 60 54c0 32 -5 41 -94 71c-110 37 -154 83 -154 164c0 95 81 169 184 169c94 0 177 -62 182 -166h-130c-6 29 -24 44 -52 44c-29 0 -51 -20 -51 -47c0 -29 3 -31 94 -60
c116 -36 154 -80 154 -162z" />
    <glyph glyph-name="semicolon" unicode=";" horiz-adv-x="280" 
d="M205 -7c0 -81 -51 -133 -133 -133v67c42 8 59 24 59 56v17h-59v128h133v-135zM205 369h-133v133h133v-133z" />
    <glyph glyph-name="seven" unicode="7" horiz-adv-x="560" 
d="M500 614l-270 -614h-150l280 614h-295v125h435v-125z" />
    <glyph glyph-name="six" unicode="6" horiz-adv-x="560" 
d="M533 252c0 -154 -106 -265 -253 -265c-149 0 -259 109 -259 255c0 71 20 127 73 207l193 290h159l-177 -263c24 8 37 10 60 10c118 0 204 -99 204 -234zM400 239c0 76 -52 131 -122 131c-74 0 -124 -53 -124 -131c0 -76 53 -130 126 -130c71 0 120 53 120 130z" />
    <glyph glyph-name="slash" unicode="/" horiz-adv-x="460" 
d="M443 739l-323 -867h-94l323 867h94z" />
    <glyph glyph-name="space" unicode=" " horiz-adv-x="280" 
 />
    <glyph glyph-name="T" unicode="T" horiz-adv-x="420" 
d="M418 608h-137v-608h-137v608h-137v131h411v-131z" />
    <glyph glyph-name="t" unicode="t" horiz-adv-x="300" 
d="M287 433h-80v-433h-133v433h-65v121h65v185h133v-185h80v-121z" />
    <glyph glyph-name="three" unicode="3" horiz-adv-x="560" 
d="M518 235c0 -143 -105 -248 -248 -248c-142 0 -247 98 -255 237h134c9 -70 56 -115 120 -115c67 0 116 52 116 123c0 75 -57 124 -145 124h-22v128c84 2 114 25 114 76c0 41 -27 70 -65 70c-36 0 -56 -21 -62 -67h-135c10 125 93 189 196 189c114 0 199 -85 199 -199
c0 -57 -19 -96 -62 -127c76 -34 115 -98 115 -191z" />
    <glyph glyph-name="two" unicode="2" horiz-adv-x="560" 
d="M520 512c0 -91 -31 -149 -143 -250l-151 -137h291v-125h-478v117l263 249c60 57 85 100 85 148c0 66 -46 116 -107 116c-69 0 -115 -58 -115 -146h-131c0 170 103 268 245 268c137 0 241 -104 241 -240z" />
    <glyph glyph-name="U" unicode="U" 
d="M567 271c0 -189 -104 -284 -250 -284c-145 0 -249 96 -249 284v468h137v-468c0 -115 43 -152 113 -152c68 0 112 36 112 152v468h137v-468z" />
    <glyph glyph-name="u" unicode="u" horiz-adv-x="600" 
d="M547 0h-123v53c-50 -49 -92 -66 -159 -66c-129 0 -211 75 -211 270v297h133v-271c0 -147 41 -174 105 -174c45 0 81 19 101 51c15 25 21 59 21 133v261h133v-554z" />
    <glyph glyph-name="underscore" unicode="_" horiz-adv-x="500" 
d="M500 -138h-500v90h500v-90z" />
    <glyph glyph-name="V" unicode="V" horiz-adv-x="700" 
d="M694 739l-286 -739h-112l-288 739h144l199 -562l199 562h144z" />
    <glyph glyph-name="v" unicode="v" horiz-adv-x="560" 
d="M553 554l-223 -554h-106l-223 554h148l128 -367l126 367h150z" />
    <glyph glyph-name="W" unicode="W" horiz-adv-x="900" 
d="M898 739l-216 -739h-109l-119 489l-122 -489h-108l-217 739h140l130 -516l126 516h100l124 -516l131 516h140z" />
    <glyph glyph-name="w" unicode="w" horiz-adv-x="800" 
d="M785 554l-200 -554h-83l-105 359l-107 -359h-82l-198 554h143l99 -338l93 338h106l91 -338l101 338h142z" />
    <glyph glyph-name="X" unicode="X" horiz-adv-x="680" 
d="M676 0h-159l-177 255l-172 -255h-163l254 368l-254 371h163l172 -258l177 258h159l-256 -371z" />
    <glyph glyph-name="x" unicode="x" horiz-adv-x="560" 
d="M553 0h-160l-116 190l-116 -190h-160l196 286l-170 268h150l100 -167l98 167h150l-169 -268z" />
    <glyph glyph-name="Y" unicode="Y" horiz-adv-x="620" 
d="M626 739l-243 -466v-273h-137v273l-243 466h148l164 -340l163 340h148z" />
    <glyph glyph-name="y" unicode="y" horiz-adv-x="580" 
d="M568 554l-320 -739h-143l104 237l-203 502h152l123 -359l134 359h153z" />
    <glyph glyph-name="Z" unicode="Z" horiz-adv-x="500" 
d="M480 0h-462v116l280 492h-265v131h428v-123l-278 -485h297v-131z" />
    <glyph glyph-name="z" unicode="z" horiz-adv-x="460" 
d="M442 0h-422v119l244 316h-216v119h375v-119l-244 -316h263v-119z" />
    <glyph glyph-name="zero" unicode="0" horiz-adv-x="560" 
d="M525 247c0 -166 -96 -260 -241 -260c-152 0 -254 94 -254 260v251c0 156 96 254 248 254c150 0 247 -97 247 -247v-258zM392 248v250c0 85 -41 132 -113 132s-116 -50 -116 -132v-247c0 -92 41 -142 117 -142c71 0 112 44 112 139z" />
    <glyph glyph-name="Aacute" unicode="&#xc1;" horiz-adv-x="740" 
d="M733 0h-151l-79 191h-263l-82 -191h-151l308 739h108zM448 322l-79 224l-79 -224h158zM554 899l-227 -120l-51 78l224 134z" />
    <glyph glyph-name="aacute" unicode="&#xe1;" horiz-adv-x="660" 
d="M615 0h-122v72c-53 -60 -106 -85 -184 -85c-162 0 -279 121 -279 288c0 169 118 292 282 292c80 0 135 -26 181 -87v74h122v-554zM489 273c0 101 -68 172 -163 172s-162 -72 -162 -173c0 -97 67 -163 164 -163c101 0 161 72 161 164zM515 724l-227 -120l-51 78l224 134z
" />
    <glyph glyph-name="Abreve" unicode="&#x102;" horiz-adv-x="740" 
d="M733 0h-151l-79 191h-263l-82 -191h-151l308 739h108zM448 322l-79 224l-79 -224h158zM534 945c-3 -83 -69 -139 -164 -139c-99 0 -160 51 -166 139h98c12 -29 35 -43 68 -43c35 0 57 15 62 43h102z" />
    <glyph glyph-name="abreve" unicode="&#x103;" horiz-adv-x="660" 
d="M615 0h-122v72c-53 -60 -106 -85 -184 -85c-162 0 -279 121 -279 288c0 169 118 292 282 292c80 0 135 -26 181 -87v74h122v-554zM489 273c0 101 -68 172 -163 172s-162 -72 -162 -173c0 -97 67 -163 164 -163c101 0 161 72 161 164zM494 770c-3 -83 -69 -139 -164 -139
c-99 0 -160 51 -166 139h98c12 -29 35 -43 68 -43c35 0 57 15 62 43h102z" />
    <glyph glyph-name="Abreveacute" unicode="&#x1eae;" horiz-adv-x="740" 
d="M733 0h-151l-79 191h-263l-82 -191h-151l308 739h108zM448 322l-79 224l-79 -224h158zM574 1092l-227 -120l-51 78l224 134zM534 945c-3 -83 -69 -139 -164 -139c-99 0 -160 51 -166 139h98c12 -29 35 -43 68 -43c35 0 57 15 62 43h102z" />
    <glyph glyph-name="abreveacute" unicode="&#x1eaf;" horiz-adv-x="660" 
d="M615 0h-122v72c-53 -60 -106 -85 -184 -85c-162 0 -279 121 -279 288c0 169 118 292 282 292c80 0 135 -26 181 -87v74h122v-554zM489 273c0 101 -68 172 -163 172s-162 -72 -162 -173c0 -97 67 -163 164 -163c101 0 161 72 161 164zM535 907l-227 -120l-51 78l224 134z
M495 760c-3 -83 -69 -139 -164 -139c-99 0 -160 51 -166 139h98c12 -29 35 -43 68 -43c35 0 57 15 62 43h102z" />
    <glyph glyph-name="Abrevedotbelow" unicode="&#x1eb6;" horiz-adv-x="740" 
d="M733 0h-151l-79 191h-263l-82 -191h-151l308 739h108zM448 322l-79 224l-79 -224h158zM534 945c-3 -83 -69 -139 -164 -139c-99 0 -160 51 -166 139h98c12 -29 35 -43 68 -43c35 0 57 15 62 43h102zM437 -212h-133v133h133v-133z" />
    <glyph glyph-name="abrevedotbelow" unicode="&#x1eb7;" horiz-adv-x="660" 
d="M615 0h-122v72c-53 -60 -106 -85 -184 -85c-162 0 -279 121 -279 288c0 169 118 292 282 292c80 0 135 -26 181 -87v74h122v-554zM489 273c0 101 -68 172 -163 172s-162 -72 -162 -173c0 -97 67 -163 164 -163c101 0 161 72 161 164zM494 770c-3 -83 -69 -139 -164 -139
c-99 0 -160 51 -166 139h98c12 -29 35 -43 68 -43c35 0 57 15 62 43h102zM397 -212h-133v133h133v-133z" />
    <glyph glyph-name="Abrevegrave" unicode="&#x1eb0;" horiz-adv-x="740" 
d="M733 0h-151l-79 191h-263l-82 -191h-151l308 739h108zM448 322l-79 224l-79 -224h158zM442 1050l-51 -78l-227 120l54 92zM534 945c-3 -83 -69 -139 -164 -139c-99 0 -160 51 -166 139h98c12 -29 35 -43 68 -43c35 0 57 15 62 43h102z" />
    <glyph glyph-name="abrevegrave" unicode="&#x1eb1;" horiz-adv-x="660" 
d="M615 0h-122v72c-53 -60 -106 -85 -184 -85c-162 0 -279 121 -279 288c0 169 118 292 282 292c80 0 135 -26 181 -87v74h122v-554zM489 273c0 101 -68 172 -163 172s-162 -72 -162 -173c0 -97 67 -163 164 -163c101 0 161 72 161 164zM403 865l-51 -78l-227 120l54 92z
M495 760c-3 -83 -69 -139 -164 -139c-99 0 -160 51 -166 139h98c12 -29 35 -43 68 -43c35 0 57 15 62 43h102z" />
    <glyph glyph-name="Abrevehookabove" unicode="&#x1eb2;" horiz-adv-x="740" 
d="M733 0h-151l-79 191h-263l-82 -191h-151l308 739h108zM448 322l-79 224l-79 -224h158zM498 1114c0 -33 -15 -56 -58 -85c-28 -19 -32 -29 -32 -71h-85v15c0 54 15 76 69 113c13 9 21 19 21 30c0 18 -18 32 -45 32c-24 0 -38 -14 -43 -44h-84c4 87 64 119 129 119
c72 0 128 -47 128 -109zM534 945c-3 -83 -69 -139 -164 -139c-99 0 -160 51 -166 139h98c12 -29 35 -43 68 -43c35 0 57 15 62 43h102z" />
    <glyph glyph-name="abrevehookabove" unicode="&#x1eb3;" horiz-adv-x="660" 
d="M615 0h-122v72c-53 -60 -106 -85 -184 -85c-162 0 -279 121 -279 288c0 169 118 292 282 292c80 0 135 -26 181 -87v74h122v-554zM489 273c0 101 -68 172 -163 172s-162 -72 -162 -173c0 -97 67 -163 164 -163c101 0 161 72 161 164zM459 929c0 -33 -15 -56 -58 -85
c-28 -19 -32 -29 -32 -71h-85v15c0 54 15 76 69 113c13 9 21 19 21 30c0 18 -18 32 -45 32c-24 0 -38 -14 -43 -44h-84c4 87 64 119 129 119c72 0 128 -47 128 -109zM495 760c-3 -83 -69 -139 -164 -139c-99 0 -160 51 -166 139h98c12 -29 35 -43 68 -43c35 0 57 15 62 43
h102z" />
    <glyph glyph-name="Abrevetilde" unicode="&#x1eb4;" horiz-adv-x="740" 
d="M733 0h-151l-79 191h-263l-82 -191h-151l308 739h108zM448 322l-79 224l-79 -224h158zM534 1036c-32 -39 -59 -55 -94 -55c-24 0 -94 25 -113 25c-25 0 -32 -3 -70 -25l-54 80c35 35 61 47 103 47c24 0 80 -25 107 -25c26 0 46 10 67 34zM534 945
c-3 -83 -69 -139 -164 -139c-99 0 -160 51 -166 139h98c12 -29 35 -43 68 -43c35 0 57 15 62 43h102z" />
    <glyph glyph-name="abrevetilde" unicode="&#x1eb5;" horiz-adv-x="660" 
d="M615 0h-122v72c-53 -60 -106 -85 -184 -85c-162 0 -279 121 -279 288c0 169 118 292 282 292c80 0 135 -26 181 -87v74h122v-554zM489 273c0 101 -68 172 -163 172s-162 -72 -162 -173c0 -97 67 -163 164 -163c101 0 161 72 161 164zM495 851c-32 -39 -59 -55 -94 -55
c-24 0 -94 25 -113 25c-25 0 -32 -3 -70 -25l-54 80c35 35 61 47 103 47c24 0 80 -25 107 -25c26 0 46 10 67 34zM495 760c-3 -83 -69 -139 -164 -139c-99 0 -160 51 -166 139h98c12 -29 35 -43 68 -43c35 0 57 15 62 43h102z" />
    <glyph glyph-name="Acircumflex" unicode="&#xc2;" horiz-adv-x="740" 
d="M733 0h-151l-79 191h-263l-82 -191h-151l308 739h108zM448 322l-79 224l-79 -224h158zM569 806h-145l-53 64l-54 -64h-147l147 138h107z" />
    <glyph glyph-name="acircumflex" unicode="&#xe2;" horiz-adv-x="660" 
d="M615 0h-122v72c-53 -60 -106 -85 -184 -85c-162 0 -279 121 -279 288c0 169 118 292 282 292c80 0 135 -26 181 -87v74h122v-554zM489 273c0 101 -68 172 -163 172s-162 -72 -162 -173c0 -97 67 -163 164 -163c101 0 161 72 161 164zM530 631h-145l-53 64l-54 -64h-147
l147 138h107z" />
    <glyph glyph-name="Acircumflexacute" unicode="&#x1ea4;" horiz-adv-x="740" 
d="M733 0h-151l-79 191h-263l-82 -191h-151l308 739h108zM448 322l-79 224l-79 -224h158zM554 1084l-227 -120l-51 78l224 134zM569 806h-145l-53 64l-54 -64h-147l147 138h107z" />
    <glyph glyph-name="acircumflexacute" unicode="&#x1ea5;" horiz-adv-x="660" 
d="M615 0h-122v72c-53 -60 -106 -85 -184 -85c-162 0 -279 121 -279 288c0 169 118 292 282 292c80 0 135 -26 181 -87v74h122v-554zM489 273c0 101 -68 172 -163 172s-162 -72 -162 -173c0 -97 67 -163 164 -163c101 0 161 72 161 164zM515 899l-227 -120l-51 78l224 134z
M530 621h-145l-53 64l-54 -64h-147l147 138h107z" />
    <glyph glyph-name="Acircumflexdotbelow" unicode="&#x1eac;" horiz-adv-x="740" 
d="M733 0h-151l-79 191h-263l-82 -191h-151l308 739h108zM448 322l-79 224l-79 -224h158zM569 806h-145l-53 64l-54 -64h-147l147 138h107zM437 -212h-133v133h133v-133z" />
    <glyph glyph-name="acircumflexdotbelow" unicode="&#x1ead;" horiz-adv-x="660" 
d="M615 0h-122v72c-53 -60 -106 -85 -184 -85c-162 0 -279 121 -279 288c0 169 118 292 282 292c80 0 135 -26 181 -87v74h122v-554zM489 273c0 101 -68 172 -163 172s-162 -72 -162 -173c0 -97 67 -163 164 -163c101 0 161 72 161 164zM530 631h-145l-53 64l-54 -64h-147
l147 138h107zM397 -212h-133v133h133v-133z" />
    <glyph glyph-name="Acircumflexgrave" unicode="&#x1ea6;" horiz-adv-x="740" 
d="M733 0h-151l-79 191h-263l-82 -191h-151l308 739h108zM448 322l-79 224l-79 -224h158zM462 1042l-51 -78l-227 120l54 92zM569 806h-145l-53 64l-54 -64h-147l147 138h107z" />
    <glyph glyph-name="acircumflexgrave" unicode="&#x1ea7;" horiz-adv-x="660" 
d="M615 0h-122v72c-53 -60 -106 -85 -184 -85c-162 0 -279 121 -279 288c0 169 118 292 282 292c80 0 135 -26 181 -87v74h122v-554zM489 273c0 101 -68 172 -163 172s-162 -72 -162 -173c0 -97 67 -163 164 -163c101 0 161 72 161 164zM423 857l-51 -78l-227 120l54 92z
M530 621h-145l-53 64l-54 -64h-147l147 138h107z" />
    <glyph glyph-name="Acircumflexhookabove" unicode="&#x1ea8;" horiz-adv-x="740" 
d="M733 0h-151l-79 191h-263l-82 -191h-151l308 739h108zM448 322l-79 224l-79 -224h158zM569 1127c0 -33 -15 -56 -58 -85c-28 -19 -32 -29 -32 -71h-85v15c0 54 15 76 69 113c13 9 21 19 21 30c0 18 -18 32 -45 32c-24 0 -38 -14 -43 -44h-84c4 87 64 119 129 119
c72 0 128 -47 128 -109zM569 806h-145l-53 64l-54 -64h-147l147 138h107z" />
    <glyph glyph-name="acircumflexhookabove" unicode="&#x1ea9;" horiz-adv-x="660" 
d="M615 0h-122v72c-53 -60 -106 -85 -184 -85c-162 0 -279 121 -279 288c0 169 118 292 282 292c80 0 135 -26 181 -87v74h122v-554zM489 273c0 101 -68 172 -163 172s-162 -72 -162 -173c0 -97 67 -163 164 -163c101 0 161 72 161 164zM530 942c0 -33 -15 -56 -58 -85
c-28 -19 -32 -29 -32 -71h-85v15c0 54 15 76 69 113c13 9 21 19 21 30c0 18 -18 32 -45 32c-24 0 -38 -14 -43 -44h-84c4 87 64 119 129 119c72 0 128 -47 128 -109zM530 621h-145l-53 64l-54 -64h-147l147 138h107z" />
    <glyph glyph-name="Acircumflextilde" unicode="&#x1eaa;" horiz-adv-x="740" 
d="M733 0h-151l-79 191h-263l-82 -191h-151l308 739h108zM448 322l-79 224l-79 -224h158zM534 1029c-32 -39 -59 -55 -94 -55c-24 0 -94 25 -113 25c-25 0 -32 -3 -70 -25l-54 80c35 35 61 47 103 47c24 0 80 -25 107 -25c26 0 46 10 67 34zM569 806h-145l-53 64l-54 -64
h-147l147 138h107z" />
    <glyph glyph-name="acircumflextilde" unicode="&#x1eab;" horiz-adv-x="660" 
d="M615 0h-122v72c-53 -60 -106 -85 -184 -85c-162 0 -279 121 -279 288c0 169 118 292 282 292c80 0 135 -26 181 -87v74h122v-554zM489 273c0 101 -68 172 -163 172s-162 -72 -162 -173c0 -97 67 -163 164 -163c101 0 161 72 161 164zM495 844c-32 -39 -59 -55 -94 -55
c-24 0 -94 25 -113 25c-25 0 -32 -3 -70 -25l-54 80c35 35 61 47 103 47c24 0 80 -25 107 -25c26 0 46 10 67 34zM530 621h-145l-53 64l-54 -64h-147l147 138h107z" />
    <glyph glyph-name="acute" unicode="&#xb4;" horiz-adv-x="420" 
d="M395 724l-227 -120l-51 78l224 134z" />
    <glyph glyph-name="uni0301" unicode="&#x301;" horiz-adv-x="0" 
d="M-145 724l-227 -120l-51 78l224 134z" />
    <glyph glyph-name="Adblgrave" unicode="&#x200;" horiz-adv-x="740" 
d="M733 0h-151l-79 191h-263l-82 -191h-151l308 739h108zM448 322l-79 224l-79 -224h158zM555 848l-50 -69l-222 132l62 80zM292 848l-51 -69l-221 132l61 80z" />
    <glyph glyph-name="adblgrave" unicode="&#x201;" horiz-adv-x="660" 
d="M615 0h-122v72c-53 -60 -106 -85 -184 -85c-162 0 -279 121 -279 288c0 169 118 292 282 292c80 0 135 -26 181 -87v74h122v-554zM489 273c0 101 -68 172 -163 172s-162 -72 -162 -173c0 -97 67 -163 164 -163c101 0 161 72 161 164zM516 663l-50 -69l-222 132l62 80z
M253 663l-51 -69l-221 132l61 80z" />
    <glyph glyph-name="Adieresis" unicode="&#xc4;" horiz-adv-x="740" 
d="M733 0h-151l-79 191h-263l-82 -191h-151l308 739h108zM448 322l-79 224l-79 -224h158zM326 809h-133v133h133v-133zM536 809h-133v133h133v-133z" />
    <glyph glyph-name="adieresis" unicode="&#xe4;" horiz-adv-x="660" 
d="M615 0h-122v72c-53 -60 -106 -85 -184 -85c-162 0 -279 121 -279 288c0 169 118 292 282 292c80 0 135 -26 181 -87v74h122v-554zM489 273c0 101 -68 172 -163 172s-162 -72 -162 -173c0 -97 67 -163 164 -163c101 0 161 72 161 164zM287 634h-133v133h133v-133zM497 634
h-133v133h133v-133z" />
    <glyph glyph-name="Adotbelow" unicode="&#x1ea0;" horiz-adv-x="740" 
d="M733 0h-151l-79 191h-263l-82 -191h-151l308 739h108zM448 322l-79 224l-79 -224h158zM437 -212h-133v133h133v-133z" />
    <glyph glyph-name="adotbelow" unicode="&#x1ea1;" horiz-adv-x="660" 
d="M615 0h-122v72c-53 -60 -106 -85 -184 -85c-162 0 -279 121 -279 288c0 169 118 292 282 292c80 0 135 -26 181 -87v74h122v-554zM489 273c0 101 -68 172 -163 172s-162 -72 -162 -173c0 -97 67 -163 164 -163c101 0 161 72 161 164zM397 -212h-133v133h133v-133z" />
    <glyph glyph-name="AE" unicode="&#xc6;" horiz-adv-x="900" 
d="M843 0h-355v191h-194l-112 -191h-165l487 739h339v-131h-218v-174h207v-131h-207v-172h218v-131zM488 322v191l-115 -191h115z" />
    <glyph glyph-name="ae" unicode="&#xe6;" horiz-adv-x="1080" 
d="M1051 288c0 -23 -2 -39 -9 -69h-428c23 -69 81 -110 156 -110c49 0 85 17 117 55h145c-33 -101 -143 -177 -256 -177c-74 0 -125 22 -169 73v-60h-122v60c-45 -53 -89 -73 -165 -73c-166 0 -290 123 -290 288s125 292 288 292c71 0 121 -20 167 -68v55h122v-55
c47 48 97 68 167 68c155 0 277 -123 277 -279zM481 276c0 96 -69 169 -158 169s-159 -73 -159 -165c0 -99 67 -171 161 -171c89 0 156 72 156 167zM911 337c-19 72 -70 108 -150 108c-77 0 -128 -35 -154 -108h304z" />
    <glyph glyph-name="AEacute" unicode="&#x1fc;" horiz-adv-x="900" 
d="M843 0h-355v191h-194l-112 -191h-165l487 739h339v-131h-218v-174h207v-131h-207v-172h218v-131zM488 322v191l-115 -191h115zM742 899l-227 -120l-51 78l224 134z" />
    <glyph glyph-name="aeacute" unicode="&#x1fd;" horiz-adv-x="1080" 
d="M1051 288c0 -23 -2 -39 -9 -69h-428c23 -69 81 -110 156 -110c49 0 85 17 117 55h145c-33 -101 -143 -177 -256 -177c-74 0 -125 22 -169 73v-60h-122v60c-45 -53 -89 -73 -165 -73c-166 0 -290 123 -290 288s125 292 288 292c71 0 121 -20 167 -68v55h122v-55
c47 48 97 68 167 68c155 0 277 -123 277 -279zM481 276c0 96 -69 169 -158 169s-159 -73 -159 -165c0 -99 67 -171 161 -171c89 0 156 72 156 167zM911 337c-19 72 -70 108 -150 108c-77 0 -128 -35 -154 -108h304zM725 724l-227 -120l-51 78l224 134z" />
    <glyph glyph-name="afii10017" unicode="&#x410;" horiz-adv-x="740" 
d="M733 0h-151l-79 191h-263l-82 -191h-151l308 739h108zM448 322l-79 224l-79 -224h158z" />
    <glyph glyph-name="afii10018" unicode="&#x411;" horiz-adv-x="572" 
d="M640 262c0 -177 -109 -262 -325 -262h-247v739h508v-130h-371v-94h110c192 0 325 -73 325 -253zM504 262c0 81 -95 122 -180 122h-119v-253h116c88 0 183 43 183 131z" />
    <glyph glyph-name="afii10019" unicode="&#x412;" horiz-adv-x="580" 
d="M577 220c0 -144 -98 -220 -276 -220h-233v739h233c147 0 232 -61 232 -197c0 -69 -23 -128 -70 -148c47 -14 114 -58 114 -174zM439 222c0 66 -43 98 -138 98h-96v-189h96c96 0 138 27 138 91zM396 530c0 53 -42 75 -95 75h-96v-151h96c53 0 95 23 95 76z" />
    <glyph glyph-name="afii10020" unicode="&#x413;" horiz-adv-x="467" 
d="M515 608h-310v-608h-137v739h447v-131z" />
    <glyph glyph-name="afii10021" unicode="&#x414;" horiz-adv-x="823" 
d="M786 -130h-122v130h-505v-130h-122v261h82l235 608h112l238 -607h82v-262zM564 131l-153 431l-152 -431h305z" />
    <glyph glyph-name="afii10022" unicode="&#x415;" horiz-adv-x="519" 
d="M535 0h-467v739h467v-131h-330v-174h319v-131h-319v-172h330v-131z" />
    <glyph glyph-name="afii10023" unicode="&#x401;" horiz-adv-x="519" 
d="M263 812h-133v133h133v-133zM473 812h-133v133h133v-133zM535 0h-467v739h467v-131h-330v-174h319v-131h-319v-172h330v-131z" />
    <glyph glyph-name="afii10024" unicode="&#x416;" horiz-adv-x="939" 
d="M924 0h-157l-229 325v-325h-137v325l-229 -325h-157l270 376l-270 363h157l229 -319v319h137v-319l229 319h157l-270 -363z" />
    <glyph glyph-name="afii10025" unicode="&#x417;" horiz-adv-x="680" 
d="M678 215c0 -113 -80 -228 -311 -228c-267 0 -338 227 -338 227h136c17 -36 71 -96 197 -96c114 0 178 39 178 107c0 66 -53 94 -138 94l-113 1v141h112c63 0 96 26 96 79c0 44 -67 75 -132 75c-113 0 -149 -37 -170 -76h-137s48 213 300 213c156 0 276 -87 276 -200
c0 -69 -22 -143 -82 -164c74 -12 126 -82 126 -173z" />
    <glyph glyph-name="afii10026" unicode="&#x418;" horiz-adv-x="735" 
d="M667 0h-137v537l-309 -537h-153v739h137v-538l306 538h156v-739z" />
    <glyph glyph-name="afii10027" unicode="&#x419;" horiz-adv-x="735" 
d="M518 894c-3 -83 -69 -139 -164 -139c-99 0 -160 51 -166 139h98c12 -29 35 -43 68 -43c35 0 57 15 62 43h102zM667 0h-137v537l-309 -537h-153v739h137v-538l306 538h156v-739z" />
    <glyph glyph-name="afii10028" unicode="&#x41a;" horiz-adv-x="606" 
d="M591 0h-157l-229 325v-325h-137v739h137v-319l229 319h157l-270 -363z" />
    <glyph glyph-name="afii10029" unicode="&#x41b;" horiz-adv-x="700" 
d="M693 0h-124l-219 562l-208 -562h-135l286 739h112z" />
    <glyph glyph-name="afii10030" unicode="&#x41c;" horiz-adv-x="908" 
d="M840 0h-137v554l-193 -554h-112l-193 554v-554h-137v739h188l199 -560l197 560h188v-739z" />
    <glyph glyph-name="afii10031" unicode="&#x41d;" horiz-adv-x="684" 
d="M606 0h-137v310h-264v-310h-137v739h137v-298h264v298h137v-739z" />
    <glyph glyph-name="afii10032" unicode="&#x41e;" horiz-adv-x="850" 
d="M810 370c0 -216 -166 -383 -381 -383c-217 0 -389 169 -389 382c0 216 170 383 390 383c211 0 380 -171 380 -382zM672 368c0 142 -107 252 -244 252c-142 0 -250 -108 -250 -251c0 -140 110 -250 250 -250s244 107 244 249z" />
    <glyph glyph-name="afii10033" unicode="&#x41f;" horiz-adv-x="674" 
d="M606 0h-137v608h-264v-608h-137v739h538v-739z" />
    <glyph glyph-name="afii10034" unicode="&#x420;" horiz-adv-x="572" 
d="M540 511c0 -85 -37 -160 -97 -197c-41 -25 -89 -33 -194 -33h-44v-281h-137v739h183c98 0 147 -9 189 -34c64 -39 100 -109 100 -194zM402 509c0 46 -24 81 -64 92c-22 5 -42 7 -87 7h-46v-196h40c53 0 91 6 112 17c29 16 45 44 45 80z" />
    <glyph glyph-name="afii10035" unicode="&#x421;" horiz-adv-x="800" 
d="M770 206c-58 -135 -190 -219 -341 -219c-216 0 -389 172 -389 385c0 209 171 380 380 380c90 0 177 -30 245 -85c50 -41 76 -76 105 -140h-153c-50 65 -108 93 -194 93c-75 0 -139 -28 -184 -81c-38 -44 -61 -108 -61 -168c0 -138 112 -252 248 -252c71 0 123 24 183 87
h161z" />
    <glyph glyph-name="afii10036" unicode="&#x422;" horiz-adv-x="420" 
d="M518 608h-187v-608h-137v608h-187v131h511v-131z" />
    <glyph glyph-name="afii10037" unicode="&#x423;" horiz-adv-x="637" 
d="M630 739l-354 -739h-154l128 273l-238 466h143l164 -340l163 340h148z" />
    <glyph glyph-name="afii10038" unicode="&#x424;" horiz-adv-x="945" 
d="M945 384c0 -215 -166 -384 -380 -384v-42h-137v42c-216 0 -388 171 -388 383c0 215 169 383 388 383v28h137v-28c210 0 380 -172 380 -382zM807 382c0 141 -106 252 -242 252v-501c139 0 242 108 242 249zM428 133v501c-142 0 -250 -108 -250 -251
c0 -139 111 -250 250 -250z" />
    <glyph glyph-name="afii10039" unicode="&#x425;" horiz-adv-x="685" 
d="M678 0h-159l-177 255l-172 -255h-163l254 368l-254 371h163l172 -258l177 258h159l-256 -371z" />
    <glyph glyph-name="afii10040" unicode="&#x426;" horiz-adv-x="726" 
d="M748 -140h-122v140h-558v739h137v-608h264v608h137v-608h142v-271z" />
    <glyph glyph-name="afii10041" unicode="&#x427;" horiz-adv-x="654" 
d="M588 0h-137v254h-218c-85 0 -183 92 -183 180v305h137v-250c0 -53 45 -104 99 -104h165v354h137v-739z" />
    <glyph glyph-name="afii10042" unicode="&#x428;" horiz-adv-x="913" 
d="M845 0h-777v739h137v-608h188v608h137v-608h188v608h127v-739z" />
    <glyph glyph-name="afii10043" unicode="&#x429;" horiz-adv-x="965" 
d="M987 -140h-122l-1 140h-796v739h137v-608h188v608h137v-608h188v608h127v-608h142v-271z" />
    <glyph glyph-name="afii10044" unicode="&#x42a;" horiz-adv-x="703" 
d="M750 272c0 -177 -109 -272 -325 -272h-246v608h-172v131h308v-204h110c192 0 325 -83 325 -263zM614 272c0 81 -93 132 -180 132h-119v-273h116c90 0 183 51 183 141z" />
    <glyph glyph-name="afii10045" unicode="&#x42b;" horiz-adv-x="802" 
d="M640 272c0 -177 -109 -272 -325 -272h-247v739h137v-204h110c192 0 325 -83 325 -263zM504 272c0 81 -93 132 -180 132h-119v-273h116c90 0 183 51 183 141zM844 0h-137v739h137v-739z" />
    <glyph glyph-name="afii10046" unicode="&#x42c;" horiz-adv-x="572" 
d="M640 272c0 -177 -109 -272 -325 -272h-247v739h137v-204h110c192 0 325 -83 325 -263zM504 272c0 81 -93 132 -180 132h-119v-273h116c90 0 183 51 183 141z" />
    <glyph glyph-name="afii10047" unicode="&#x42d;" horiz-adv-x="780" 
d="M750 372c0 -213 -173 -385 -389 -385c-151 0 -283 84 -341 219h161c60 -63 112 -87 183 -87c115 0 214 82 241 191h-370v131h368c-29 104 -122 179 -236 179c-86 0 -144 -28 -194 -93h-153c29 64 55 99 105 140c68 55 155 85 245 85c209 0 380 -171 380 -380z" />
    <glyph glyph-name="afii10048" unicode="&#x42e;" horiz-adv-x="1093" 
d="M1032 370c0 -216 -166 -383 -381 -383c-197 0 -356 139 -384 323h-62v-310h-137v739h137v-298h63c34 179 190 311 384 311c211 0 380 -171 380 -382zM894 368c0 142 -107 252 -244 252c-142 0 -250 -108 -250 -251c0 -140 110 -250 250 -250s244 107 244 249z" />
    <glyph glyph-name="afii10049" unicode="&#x42f;" horiz-adv-x="598" 
d="M473 335v273h-116c-90 0 -183 -51 -183 -141c0 -81 93 -132 180 -132h119zM610 0h-137v204h-110l-169 -204h-169l196 223c-113 33 -183 113 -183 244c0 177 109 272 325 272h247v-739z" />
    <glyph glyph-name="afii10050" unicode="&#x490;" horiz-adv-x="467" 
d="M465 608h-260v-608h-137v739l264 1v110h133v-242z" />
    <glyph glyph-name="afii10051" unicode="&#x402;" horiz-adv-x="420" 
d="M682 5c0 -88 -98 -180 -183 -180h-88v130h35c54 0 99 52 99 105v190c0 53 -45 105 -99 105h-165v-355h-137v608h-137v131h411v-131h-137v-123h218c85 0 183 -92 183 -180v-300z" />
    <glyph glyph-name="afii10052" unicode="&#x403;" horiz-adv-x="467" 
d="M518 932l-227 -120l-51 78l224 134zM515 608h-310v-608h-137v739h447v-131z" />
    <glyph glyph-name="afii10053" unicode="&#x404;" horiz-adv-x="782" 
d="M760 206c-58 -135 -190 -219 -341 -219c-216 0 -389 172 -389 385c0 209 171 380 380 380c90 0 177 -30 245 -85c50 -41 76 -76 105 -140h-153c-50 65 -108 93 -194 93c-114 4 -207 -75 -236 -179h368v-131h-370c27 -109 126 -191 241 -191c71 0 123 24 183 87h161z" />
    <glyph glyph-name="afii10054" unicode="&#x405;" horiz-adv-x="520" 
d="M493 224c0 -134 -103 -237 -236 -237c-78 0 -151 33 -195 90c-30 39 -43 76 -48 134h143c6 -62 39 -92 100 -92c59 0 100 37 100 90c0 31 -12 57 -34 75c-23 17 -29 20 -128 57s-154 108 -154 201c0 117 96 210 215 210c69 0 133 -29 173 -79c30 -37 43 -75 46 -131h-142
c-4 50 -32 78 -78 78c-45 0 -76 -31 -76 -75c0 -27 14 -50 41 -67c10 -6 12 -7 82 -33c72 -27 96 -40 125 -67c43 -40 66 -93 66 -154z" />
    <glyph glyph-name="afii10055" unicode="&#x406;" horiz-adv-x="280" 
d="M205 0h-137v739h137v-739z" />
    <glyph glyph-name="afii10056" unicode="&#x407;" horiz-adv-x="280" 
d="M98 812h-133v133h133v-133zM308 812h-133v133h133v-133zM205 0h-137v739h137v-739z" />
    <glyph glyph-name="afii10057" unicode="&#x408;" horiz-adv-x="480" 
d="M414 212c0 -139 -76 -225 -200 -225c-62 0 -120 25 -158 67c-30 33 -41 63 -47 121h137c9 -37 31 -56 65 -56c44 0 66 32 66 97v523h137v-527z" />
    <glyph glyph-name="afii10058" unicode="&#x409;" horiz-adv-x="1023" 
d="M991 228c0 -85 -36 -155 -100 -194c-42 -25 -91 -34 -189 -34h-153l-199 562l-215 -562h-128l286 739h112l108 -281h187c105 0 153 -8 194 -33c60 -37 97 -112 97 -197zM853 230c0 36 -16 64 -45 80c-21 11 -59 17 -112 17h-133l76 -196h63c45 0 65 2 87 7
c40 11 64 46 64 92z" />
    <glyph glyph-name="afii10059" unicode="&#x40a;" horiz-adv-x="973" 
d="M941 228c0 -85 -36 -155 -100 -194c-42 -25 -91 -34 -189 -34h-183v310h-264v-310h-137v739h137v-298h264v298h137v-281h44c105 0 153 -8 194 -33c60 -37 97 -112 97 -197zM803 230c0 36 -16 64 -45 80c-21 11 -59 17 -112 17h-40v-196h46c45 0 65 2 87 7
c40 11 64 46 64 92z" />
    <glyph glyph-name="afii10060" unicode="&#x40b;" horiz-adv-x="420" 
d="M682 0h-137v250c0 53 -45 105 -99 105h-165v-355h-137v608h-137v131h411v-131h-137v-123h218c85 0 183 -92 183 -180v-305z" />
    <glyph glyph-name="afii10061" unicode="&#x40c;" horiz-adv-x="606" 
d="M556 932l-227 -120l-51 78l224 134zM591 0h-157l-229 325v-325h-137v739h137v-319l229 319h157l-270 -363z" />
    <glyph glyph-name="afii10062" unicode="&#x40e;" horiz-adv-x="637" 
d="M486 951c-3 -83 -69 -139 -164 -139c-99 0 -160 51 -166 139h98c12 -29 35 -43 68 -43c35 0 57 15 62 43h102zM630 739l-354 -739h-154l128 273l-238 466h143l164 -340l163 340h148z" />
    <glyph glyph-name="afii10065" unicode="&#x430;" horiz-adv-x="669" 
d="M615 0h-122v72c-53 -60 -106 -85 -184 -85c-162 0 -279 121 -279 288c0 169 118 292 282 292c80 0 135 -26 181 -87v74h122v-554zM489 273c0 101 -68 172 -163 172s-162 -72 -162 -173c0 -97 67 -163 164 -163c51 0 94 18 121 50c24 28 40 74 40 114z" />
    <glyph glyph-name="afii10066" unicode="&#x431;" horiz-adv-x="626" 
d="M479 277c0 92 -72 168 -161 168c-87 0 -160 -75 -160 -166c0 -95 71 -170 161 -170c88 0 160 75 160 168zM603 272c0 -164 -118 -285 -278 -285c-170 0 -293 123 -293 290c0 179 10 425 274 465c118 0 246 42 246 42v-108s-128 -45 -246 -45c-114 -43 -126 -97 -138 -109
c27 12 75 38 151 38c164 0 284 -121 284 -288z" />
    <glyph glyph-name="afii10067" unicode="&#x432;" horiz-adv-x="481" 
d="M322 398c0 29 -24 44 -55 44h-81v-88h81c31 0 55 15 55 44zM397 174c0 44 -35 69 -82 69h-128v-138h125c49 0 85 24 85 69zM518 168c0 -110 -89 -168 -209 -168h-255v547h225c120 0 164 -76 164 -136c0 -29 -10 -62 -34 -89c66 -26 109 -78 109 -154z" />
    <glyph glyph-name="afii10068" unicode="&#x433;" horiz-adv-x="416" 
d="M414 433h-227v-433h-133v554h360v-121z" />
    <glyph glyph-name="afii10069" unicode="&#x434;" horiz-adv-x="610" 
d="M387 131l-82 236l-83 -236h165zM604 -120h-133v120h-331v-120h-134v251h76l170 423h106l170 -423h76v-251z" />
    <glyph glyph-name="afii10070" unicode="&#x435;" horiz-adv-x="632" 
d="M608 269c0 -20 -1 -32 -5 -51h-429c16 -67 74 -109 153 -109c55 0 88 15 122 55h145c-9 -28 -23 -51 -44 -77c-58 -67 -129 -100 -220 -100c-169 0 -300 126 -300 288c0 163 129 292 292 292c165 0 286 -126 286 -298zM477 335c-17 71 -71 110 -153 110
c-79 0 -133 -39 -154 -110h307z" />
    <glyph glyph-name="afii10071" unicode="&#x451;" horiz-adv-x="632" 
d="M608 269c0 -20 -1 -32 -5 -51h-429c16 -67 74 -109 153 -109c55 0 88 15 122 55h145c-9 -28 -23 -51 -44 -77c-58 -67 -129 -100 -220 -100c-169 0 -300 126 -300 288c0 163 129 292 292 292c165 0 286 -126 286 -298zM477 335c-17 71 -71 110 -153 110
c-79 0 -133 -39 -154 -110h307zM288 630h-133v133h133v-133zM498 630h-133v133h133v-133z" />
    <glyph glyph-name="afii10072" unicode="&#x436;" horiz-adv-x="874" 
d="M872 0h-179l-189 259v-259h-133v259l-189 -259h-179l230 283l-198 271h159l177 -261v261h133v-261l177 261h159l-198 -271z" />
    <glyph glyph-name="afii10073" unicode="&#x437;" horiz-adv-x="470" 
d="M494 151c0 -92 -72 -164 -228 -164c-202 0 -242 172 -242 172h124s25 -61 117 -61c80 0 105 26 105 61c0 44 -33 67 -98 67h-88v126h87c50 0 73 17 73 57c0 30 -22 48 -79 48c-73 0 -92 -48 -92 -48h-109s26 151 202 151c136 0 184 -71 184 -143c0 -58 -33 -105 -68 -120
c63 -9 112 -70 112 -146z" />
    <glyph glyph-name="afii10074" unicode="&#x438;" horiz-adv-x="601" 
d="M547 0h-133v363l-212 -363h-148v554h133v-363l212 363h148v-554z" />
    <glyph glyph-name="afii10075" unicode="&#x439;" horiz-adv-x="601" 
d="M461 727c-3 -83 -69 -139 -164 -139c-99 0 -160 51 -166 139h98c12 -29 35 -43 68 -43c35 0 57 15 62 43h102zM547 0h-133v363l-212 -363h-148v554h133v-363l212 363h148v-554z" />
    <glyph glyph-name="afii10076" unicode="&#x43a;" horiz-adv-x="557" 
d="M541 0h-165l-189 259v-259h-133v554h133v-261l177 261h154l-193 -271z" />
    <glyph glyph-name="afii10077" unicode="&#x43b;" horiz-adv-x="557" 
d="M555 0h-134l-142 367l-138 -367h-138l223 554h106z" />
    <glyph glyph-name="afii10078" unicode="&#x43c;" horiz-adv-x="775" 
d="M721 0h-133v367l-147 -367h-106l-148 367v-367h-133v554h196l138 -367l137 367h196v-554z" />
    <glyph glyph-name="afii10079" unicode="&#x43d;" horiz-adv-x="601" 
d="M547 0h-133v213h-227v-213h-133v554h133v-210h227v210h133v-554z" />
    <glyph glyph-name="afii10080" unicode="&#x43e;" horiz-adv-x="643" 
d="M619 273c0 -156 -134 -286 -295 -286c-162 0 -294 130 -294 290c0 159 132 290 293 290c167 0 296 -129 296 -294zM485 277c0 92 -72 168 -161 168c-87 0 -160 -75 -160 -166c0 -95 71 -170 161 -170c88 0 160 75 160 168z" />
    <glyph glyph-name="afii10081" unicode="&#x43f;" horiz-adv-x="601" 
d="M547 0h-133v423h-227v-423h-133v554h493v-554z" />
    <glyph glyph-name="afii10082" unicode="&#x440;" horiz-adv-x="658" 
d="M634 279c0 -168 -117 -292 -277 -292c-68 0 -120 20 -170 65v-237h-133v739h122v-65c43 50 107 78 182 78c160 0 276 -121 276 -288zM500 276c0 96 -69 169 -159 169c-92 0 -162 -72 -162 -167c0 -97 70 -169 164 -169c88 0 157 73 157 167z" />
    <glyph glyph-name="afii10083" unicode="&#x441;" horiz-adv-x="623" 
d="M601 182c-46 -124 -146 -195 -275 -195c-164 0 -296 129 -296 290c0 163 128 290 292 290c77 0 150 -28 204 -78c38 -35 56 -64 75 -120h-150c-27 51 -69 76 -129 76c-92 0 -158 -70 -158 -167s69 -169 161 -169c55 0 93 22 126 73h150z" />
    <glyph glyph-name="afii10084" unicode="&#x442;" horiz-adv-x="369" 
d="M466 433h-165v-433h-133v433h-161v121h459v-121z" />
    <glyph glyph-name="afii10085" unicode="&#x443;" horiz-adv-x="566" 
d="M564 554l-320 -739h-143l104 237l-193 502h136l129 -359l151 359h136z" />
    <glyph glyph-name="afii10086" unicode="&#x444;" horiz-adv-x="772" 
d="M748 289c0 -155 -133 -286 -293 -286v-111h-133v111c-161 0 -292 131 -292 290c0 158 132 290 292 290v51h133v-51c166 0 293 -130 293 -294zM322 125v336c-86 0 -159 -76 -159 -166c0 -94 70 -170 159 -170zM614 293c0 91 -71 168 -159 168v-336c87 0 159 76 159 168z
" />
    <glyph glyph-name="afii10087" unicode="&#x445;" horiz-adv-x="556" 
d="M527 0h-147l-108 170l-110 -170h-160l196 286l-170 268h150l96 -159l108 159h144l-181 -268z" />
    <glyph glyph-name="afii10088" unicode="&#x446;" horiz-adv-x="676" 
d="M668 -129h-112v129h-502v554h133v-423h227v423h133v-422h121v-261z" />
    <glyph glyph-name="afii10089" unicode="&#x447;" horiz-adv-x="572" 
d="M498 0h-133v173h-105c-79 0 -159 29 -196 86c-27 41 -37 86 -37 167v118h133v-118c0 -116 59 -132 102 -132h103v250h133v-544z" />
    <glyph glyph-name="afii10090" unicode="&#x448;" horiz-adv-x="747" 
d="M693 0h-639v554h133v-423h120v423h133v-423h120v423h133v-554z" />
    <glyph glyph-name="afii10091" unicode="&#x449;" horiz-adv-x="832" 
d="M811 -129h-110v129h-647v554h133v-423h120v423h133v-423h120v423h133v-422h118v-261z" />
    <glyph glyph-name="afii10092" unicode="&#x44a;" horiz-adv-x="604" 
d="M634 187c0 -117 -91 -187 -232 -187h-208v424h-187v130h320v-177h75c141 0 232 -61 232 -190zM511 193c0 22 -14 71 -76 71h-108v-144h111c61 0 73 51 73 73z" />
    <glyph glyph-name="afii10093" unicode="&#x44b;" horiz-adv-x="679" 
d="M494 187c0 -117 -91 -187 -232 -187h-208v554h133v-177h75c141 0 232 -61 232 -190zM371 193c0 22 -14 71 -76 71h-108v-144h111c61 0 73 51 73 73zM680 0h-133v554h133v-554z" />
    <glyph glyph-name="afii10094" unicode="&#x44c;" horiz-adv-x="456" 
d="M494 187c0 -117 -91 -187 -232 -187h-208v554h133v-177h75c141 0 232 -61 232 -190zM371 193c0 22 -14 71 -76 71h-108v-144h111c61 0 73 51 73 73z" />
    <glyph glyph-name="afii10095" unicode="&#x44d;" horiz-adv-x="617" 
d="M593 277c0 -161 -132 -290 -296 -290c-129 0 -229 71 -275 195h150c33 -51 71 -73 126 -73c70 0 126 42 150 104h-235v131h235c-23 61 -78 101 -147 101c-60 0 -102 -25 -129 -76h-150c19 56 37 85 75 120c54 50 127 78 204 78c164 0 292 -127 292 -290z" />
    <glyph glyph-name="afii10096" unicode="&#x44e;" horiz-adv-x="868" 
d="M829 273c0 -156 -134 -286 -295 -286c-139 0 -256 97 -286 226h-62v-213h-133v554h133v-210h62c31 127 147 223 285 223c167 0 296 -129 296 -294zM695 277c0 92 -72 168 -161 168c-87 0 -160 -75 -160 -166c0 -95 71 -170 161 -170c88 0 160 75 160 168z" />
    <glyph glyph-name="afii10097" unicode="&#x44f;" horiz-adv-x="461" 
d="M361 290v144h-111c-61 0 -73 -51 -73 -73s14 -71 76 -71h108zM494 0h-133v177h-39l-145 -177h-138l155 187c-87 23 -140 82 -140 180c0 117 91 187 232 187h208v-554z" />
    <glyph glyph-name="afii10098" unicode="&#x491;" horiz-adv-x="416" 
d="M414 433h-227v-433h-133v554h229v104h131v-225z" />
    <glyph glyph-name="afii10099" unicode="&#x452;" horiz-adv-x="369" 
d="M640 87c0 -81 -10 -126 -37 -167c-37 -57 -101 -85 -180 -88h-24v123c78 0 108 46 108 162v95c0 116 -75 132 -118 132h-167v-347h-133v580h-76v100h76v78h133v-78h168v-100h-168v-112h179c79 0 165 -29 202 -86c27 -41 37 -86 37 -167v-125z" />
    <glyph glyph-name="afii10100" unicode="&#x453;" horiz-adv-x="416" 
d="M461 747l-227 -120l-51 78l224 134zM414 433h-227v-433h-133v554h360v-121z" />
    <glyph glyph-name="afii10101" unicode="&#x454;" horiz-adv-x="615" 
d="M601 182c-46 -124 -146 -195 -275 -195c-164 0 -296 129 -296 290c0 163 128 290 292 290c77 0 150 -28 204 -78c38 -35 56 -64 75 -120h-150c-27 51 -69 76 -129 76c-69 0 -124 -40 -147 -101h235v-131h-235c24 -62 80 -104 150 -104c55 0 93 22 126 73h150z" />
    <glyph glyph-name="afii10102" unicode="&#x455;" horiz-adv-x="440" 
d="M420 176c0 -106 -87 -189 -198 -189c-67 0 -130 29 -166 77c-22 30 -31 58 -37 112h134c13 -47 35 -67 74 -67c34 0 60 23 60 54c0 18 -9 33 -25 43c-14 9 -18 11 -69 28c-110 37 -154 83 -154 164c0 95 81 169 184 169c55 0 107 -22 142 -61c27 -30 38 -58 40 -105h-130
c-6 29 -24 44 -52 44c-29 0 -51 -20 -51 -47c0 -16 9 -29 27 -37c13 -6 13 -6 67 -23c48 -15 81 -29 102 -47c34 -27 52 -67 52 -115z" />
    <glyph glyph-name="afii10103" unicode="&#x456;" horiz-adv-x="240" 
d="M187 0h-133v554h133v-554zM187 614h-133v125h133v-125z" />
    <glyph glyph-name="afii10104" unicode="&#x457;" horiz-adv-x="240" 
d="M187 0h-133v554h133v-554zM81 627h-133v133h133v-133zM291 627h-133v133h133v-133z" />
    <glyph glyph-name="afii10105" unicode="&#x458;" horiz-adv-x="260" 
d="M205 37c0 -83 -18 -136 -59 -174c-33 -31 -78 -48 -129 -48v129c50 9 55 18 55 96v514h133v-517zM205 614h-133v125h133v-125z" />
    <glyph glyph-name="afii10106" unicode="&#x459;" horiz-adv-x="777" 
d="M755 165c0 -57 -26 -106 -72 -134c-34 -21 -69 -31 -130 -31h-148l-126 367l-128 -367h-148l223 554h106l83 -207c229 1 339 -29 340 -182zM632 178c0 22 -14 56 -76 56h-95l45 -114h53c61 0 73 36 73 58z" />
    <glyph glyph-name="afii10107" unicode="&#x45a;" horiz-adv-x="816" 
d="M794 165c0 -57 -26 -106 -72 -134c-34 -21 -99 -31 -160 -31h-148v213h-227v-213h-133v554h133v-210h227v210h133v-207c124 1 246 -29 247 -182zM671 178c0 22 -14 56 -76 56h-48v-114h51c61 0 73 36 73 58z" />
    <glyph glyph-name="afii10108" unicode="&#x45b;" horiz-adv-x="369" 
d="M640 -3h-133v215c0 116 -75 132 -118 132h-167v-347h-133v580h-76v100h76v78h133v-78h168v-100h-168v-112h179c79 0 165 -29 202 -86c27 -41 37 -86 37 -167v-215z" />
    <glyph glyph-name="afii10109" unicode="&#x45c;" horiz-adv-x="557" 
d="M513 747l-227 -120l-51 78l224 134zM541 0h-165l-189 259v-259h-133v554h133v-261l177 261h154l-193 -271z" />
    <glyph glyph-name="afii10110" unicode="&#x45e;" horiz-adv-x="566" 
d="M453 766c-3 -83 -69 -139 -164 -139c-99 0 -160 51 -166 139h98c12 -29 35 -43 68 -43c35 0 57 15 62 43h102zM564 554l-320 -739h-143l104 237l-193 502h136l129 -359l151 359h136z" />
    <glyph glyph-name="afii10145" unicode="&#x40f;" horiz-adv-x="674" 
d="M606 0h-194v-158h-144v158h-200v739h137v-608h264v608h137v-739z" />
    <glyph glyph-name="afii10193" unicode="&#x45f;" horiz-adv-x="601" 
d="M547 0h-171v-140h-146v140h-176v554h133v-423h227v423h133v-554z" />
    <glyph glyph-name="afii10846" unicode="&#x4d9;" horiz-adv-x="617" 
d="M608 279c0 -163 -129 -292 -292 -292c-165 0 -286 126 -286 298c0 20 1 32 5 51h429c-16 67 -74 109 -153 109c-55 0 -88 -15 -122 -55h-145c9 28 23 51 44 77c58 67 129 100 220 100c169 0 300 -126 300 -288zM468 219h-307c17 -71 71 -110 153 -110
c79 0 133 39 154 110z" />
    <glyph glyph-name="Agrave" unicode="&#xc0;" horiz-adv-x="740" 
d="M733 0h-151l-79 191h-263l-82 -191h-151l308 739h108zM448 322l-79 224l-79 -224h158zM462 857l-51 -78l-227 120l54 92z" />
    <glyph glyph-name="agrave" unicode="&#xe0;" horiz-adv-x="660" 
d="M615 0h-122v72c-53 -60 -106 -85 -184 -85c-162 0 -279 121 -279 288c0 169 118 292 282 292c80 0 135 -26 181 -87v74h122v-554zM489 273c0 101 -68 172 -163 172s-162 -72 -162 -173c0 -97 67 -163 164 -163c101 0 161 72 161 164zM423 682l-51 -78l-227 120l54 92z
" />
    <glyph glyph-name="Ahookabove" unicode="&#x1ea2;" horiz-adv-x="740" 
d="M733 0h-151l-79 191h-263l-82 -191h-151l308 739h108zM448 322l-79 224l-79 -224h158zM497 949c0 -33 -15 -56 -58 -85c-28 -19 -32 -29 -32 -71h-85v15c0 54 15 76 69 113c13 9 21 19 21 30c0 18 -18 32 -45 32c-24 0 -38 -14 -43 -44h-84c4 87 64 119 129 119
c72 0 128 -47 128 -109z" />
    <glyph glyph-name="ahookabove" unicode="&#x1ea3;" horiz-adv-x="660" 
d="M615 0h-122v72c-53 -60 -106 -85 -184 -85c-162 0 -279 121 -279 288c0 169 118 292 282 292c80 0 135 -26 181 -87v74h122v-554zM489 273c0 101 -68 172 -163 172s-162 -72 -162 -173c0 -97 67 -163 164 -163c101 0 161 72 161 164zM458 764c0 -33 -15 -56 -58 -85
c-28 -19 -32 -29 -32 -71h-85v15c0 54 15 76 69 113c13 9 21 19 21 30c0 18 -18 32 -45 32c-24 0 -38 -14 -43 -44h-84c4 87 64 119 129 119c72 0 128 -47 128 -109z" />
    <glyph glyph-name="Alpha" unicode="&#x391;" horiz-adv-x="740" 
d="M733 0h-151l-79 191h-263l-82 -191h-151l308 739h108zM448 322l-79 224l-79 -224h158z" />
    <glyph glyph-name="alpha" unicode="&#x3b1;" horiz-adv-x="738" 
d="M684 554c-54 -93 -55 -204 -82 -307c13 -58 30 -122 71 -122v-138c-68 0 -118 41 -154 99c-51 -60 -121 -99 -202 -99c-145 0 -263 117 -263 262c0 166 107 318 263 318c73 0 133 -34 179 -87c6 25 15 50 28 74h160zM459 252c-21 89 -59 177 -142 177
c-81 0 -125 -89 -125 -180c0 -69 56 -124 125 -124s117 59 142 127z" />
    <glyph glyph-name="Amacron" unicode="&#x100;" horiz-adv-x="740" 
d="M733 0h-151l-79 191h-263l-82 -191h-151l308 739h108zM448 322l-79 224l-79 -224h158zM510 825h-277v100h277v-100z" />
    <glyph glyph-name="amacron" unicode="&#x101;" horiz-adv-x="660" 
d="M615 0h-122v72c-53 -60 -106 -85 -184 -85c-162 0 -279 121 -279 288c0 169 118 292 282 292c80 0 135 -26 181 -87v74h122v-554zM489 273c0 101 -68 172 -163 172s-162 -72 -162 -173c0 -97 67 -163 164 -163c101 0 161 72 161 164zM471 650h-277v100h277v-100z" />
    <glyph glyph-name="anglearc" unicode="&#x2222;" horiz-adv-x="600" 
d="M516 107l-49 -98l-51 26c-29 -42 -67 -77 -111 -105l-57 93c27 17 50 38 69 61l-233 117v98l233 117c-19 23 -42 44 -69 61l57 93c44 -28 82 -63 111 -105l51 26l49 -98l-51 -25c12 -38 19 -77 19 -118s-7 -80 -19 -118zM375 250c0 23 -3 46 -9 68l-136 -68l136 -68
c6 22 9 45 9 68z" />
    <glyph glyph-name="angleleft" unicode="&#x2329;" horiz-adv-x="295" 
d="M240 -137h-138l-48 438l48 438h138l-48 -438z" />
    <glyph glyph-name="angleright" unicode="&#x232a;" horiz-adv-x="295" 
d="M240 301l-48 -438h-138l48 438l-48 438h138z" />
    <glyph glyph-name="Aogonek" unicode="&#x104;" horiz-adv-x="740" 
d="M733 -231c-32 -13 -54 -19 -76 -19c-69 0 -126 48 -126 115c0 48 34 99 80 135h-29l-79 191h-263l-82 -191h-151l308 739h108l310 -739c-66 -21 -96 -64 -96 -91c0 -36 9 -53 38 -53c12 0 28 0 58 13v-100zM448 322l-79 224l-79 -224h158z" />
    <glyph glyph-name="aogonek" unicode="&#x105;" horiz-adv-x="660" 
d="M615 -231c-32 -13 -54 -19 -76 -19c-69 0 -126 48 -126 115c0 48 34 99 80 135v72c-53 -60 -106 -85 -184 -85c-162 0 -279 121 -279 288c0 169 118 292 282 292c80 0 135 -26 181 -87v74h122v-554c-66 -21 -96 -64 -96 -91c0 -36 9 -53 38 -53c12 0 28 0 58 13v-100z
M489 273c0 101 -68 172 -163 172s-162 -72 -162 -173c0 -97 67 -163 164 -163c101 0 161 72 161 164z" />
    <glyph glyph-name="approxequal" unicode="&#x2248;" horiz-adv-x="600" 
d="M555 176c-52 -86 -91 -117 -145 -117c-20 0 -55 9 -91 24l-54 22c-35 14 -49 19 -64 19c-18 0 -33 -7 -47 -22c-6 -6 -8 -6 -40 -59l-63 75c53 86 82 123 148 123c23 0 53 -6 77 -16l67 -27c54 -22 54 -22 71 -22c23 0 51 27 77 74zM555 383c-52 -86 -91 -117 -145 -117
c-20 0 -55 9 -91 24l-54 22c-35 14 -49 19 -64 19c-18 0 -33 -7 -47 -22c-6 -6 -8 -6 -40 -59l-63 75c53 86 82 123 148 123c23 0 53 -6 77 -16l67 -27c54 -22 54 -22 71 -22c23 0 51 27 77 74z" />
    <glyph glyph-name="Aring" unicode="&#xc5;" horiz-adv-x="740" 
d="M733 0h-151l-79 191h-263l-82 -191h-151l308 739h108zM448 322l-79 224l-79 -224h158zM482 888c0 -63 -51 -113 -113 -113c-63 0 -113 50 -113 113s50 113 114 113c62 0 112 -51 112 -113zM409 888c0 22 -18 40 -40 40s-40 -18 -40 -40s18 -40 40 -40s40 18 40 40z" />
    <glyph glyph-name="aring" unicode="&#xe5;" horiz-adv-x="660" 
d="M615 0h-122v72c-53 -60 -106 -85 -184 -85c-162 0 -279 121 -279 288c0 169 118 292 282 292c80 0 135 -26 181 -87v74h122v-554zM489 273c0 101 -68 172 -163 172s-162 -72 -162 -173c0 -97 67 -163 164 -163c101 0 161 72 161 164zM443 710c0 -63 -51 -113 -113 -113
c-63 0 -113 50 -113 113s50 113 114 113c62 0 112 -51 112 -113zM370 710c0 22 -18 40 -40 40s-40 -18 -40 -40s18 -40 40 -40s40 18 40 40z" />
    <glyph glyph-name="Aringacute" unicode="&#x1fa;" horiz-adv-x="740" 
d="M733 0h-151l-79 191h-263l-82 -191h-151l308 739h108zM448 322l-79 224l-79 -224h158zM554 1141l-227 -120l-51 78l224 134zM482 888c0 -63 -51 -113 -113 -113c-63 0 -113 50 -113 113s50 113 114 113c62 0 112 -51 112 -113zM409 888c0 22 -18 40 -40 40
s-40 -18 -40 -40s18 -40 40 -40s40 18 40 40z" />
    <glyph glyph-name="aringacute" unicode="&#x1fb;" horiz-adv-x="660" 
d="M615 0h-122v72c-53 -60 -106 -85 -184 -85c-162 0 -279 121 -279 288c0 169 118 292 282 292c80 0 135 -26 181 -87v74h122v-554zM489 273c0 101 -68 172 -163 172s-162 -72 -162 -173c0 -97 67 -163 164 -163c101 0 161 72 161 164zM515 956l-227 -120l-51 78l224 134z
M443 703c0 -63 -51 -113 -113 -113c-63 0 -113 50 -113 113s50 113 114 113c62 0 112 -51 112 -113zM370 703c0 22 -18 40 -40 40s-40 -18 -40 -40s18 -40 40 -40s40 18 40 40z" />
    <glyph glyph-name="uni2193" unicode="&#x2193;" horiz-adv-x="726" 
d="M618 -12l-255 -123l-255 123l60 124l126 -60v590h138v-590l126 60z" />
    <glyph glyph-name="uni2190" unicode="&#x2190;" horiz-adv-x="1000" 
d="M892 181h-590l60 -126l-124 -60l-123 255l123 255l124 -60l-60 -126h590v-138z" />
    <glyph glyph-name="uni2192" unicode="&#x2192;" horiz-adv-x="1000" 
d="M885 250l-123 -255l-124 60l60 126h-590v138h590l-60 126l124 60z" />
    <glyph glyph-name="uni2191" unicode="&#x2191;" horiz-adv-x="726" 
d="M618 512l-60 -124l-126 60v-590h-138v590l-126 -60l-60 124l255 123z" />
    <glyph glyph-name="asterisk.math" unicode="&#x2217;" horiz-adv-x="469" 
d="M415 207l-116 6l63 -96l-68 -46l-56 106l-52 -106l-77 37l63 107l-118 -8v85l119 -6l-64 103l76 39l53 -104l55 105l71 -43l-65 -100l116 7v-86z" />
    <glyph glyph-name="Atilde" unicode="&#xc3;" horiz-adv-x="740" 
d="M733 0h-151l-79 191h-263l-82 -191h-151l308 739h108zM448 322l-79 224l-79 -224h158zM534 862c-32 -39 -59 -55 -94 -55c-24 0 -94 25 -113 25c-25 0 -32 -3 -70 -25l-54 80c35 35 61 47 103 47c24 0 80 -25 107 -25c26 0 46 10 67 34z" />
    <glyph glyph-name="atilde" unicode="&#xe3;" horiz-adv-x="660" 
d="M615 0h-122v72c-53 -60 -106 -85 -184 -85c-162 0 -279 121 -279 288c0 169 118 292 282 292c80 0 135 -26 181 -87v74h122v-554zM489 273c0 101 -68 172 -163 172s-162 -72 -162 -173c0 -97 67 -163 164 -163c101 0 161 72 161 164zM495 687c-32 -39 -59 -55 -94 -55
c-24 0 -94 25 -113 25c-25 0 -32 -3 -70 -25l-54 80c35 35 61 47 103 47c24 0 80 -25 107 -25c26 0 46 10 67 34z" />
    <glyph glyph-name="baht" unicode="&#xe3f;" horiz-adv-x="580" 
d="M548 220c0 -117 -70 -197 -213 -216v-87h-98v83h-169v739h152h17v83h98v-89c36 -5 61 -15 85 -30c53 -34 84 -92 84 -161s-23 -108 -82 -139c94 -39 126 -95 126 -183zM410 223c0 66 -45 97 -140 97h-65v-189h68c96 0 137 28 137 92zM367 530c0 51 -35 75 -106 75h-56
v-151h44c83 0 118 23 118 76z" />
    <glyph glyph-name="Beta" unicode="&#x392;" horiz-adv-x="580" 
d="M548 220c0 -135 -93 -220 -283 -220h-197v739h152c110 0 156 -8 200 -36c53 -34 84 -92 84 -161s-23 -108 -82 -139c94 -39 126 -95 126 -183zM410 223c0 66 -45 97 -140 97h-65v-189h68c96 0 137 28 137 92zM367 530c0 51 -35 75 -106 75h-56v-151h44
c83 0 118 23 118 76z" />
    <glyph glyph-name="beta" unicode="&#x3b2;" horiz-adv-x="540" 
d="M486 214c0 -125 -88 -235 -208 -235c-30 0 -58 5 -86 13c-1 -61 -7 -122 -23 -181h-144c18 62 29 125 29 189v554c0 117 103 206 224 206c113 0 195 -105 195 -224c0 -57 -22 -112 -62 -153c48 -43 75 -105 75 -169zM348 214c0 55 -35 105 -87 105v122c45 0 74 46 74 95
c0 43 -19 86 -57 86c-45 0 -86 -27 -86 -68v-429c28 -7 57 -8 86 -8c44 0 70 48 70 97z" />
    <glyph glyph-name="blanksymbol" unicode="&#x2422;" horiz-adv-x="660" 
d="M638 281c0 -167 -114 -294 -270 -294c-82 0 -135 23 -192 84v-71h-122v518l-61 -22v116l61 23v104h133v-56l143 53v-117l-143 -52v-64c51 51 100 71 172 71c159 0 279 -126 279 -293zM504 280c0 99 -69 172 -164 172c-93 0 -161 -71 -161 -171c0 -101 68 -172 164 -172
c95 0 161 70 161 171z" />
    <glyph glyph-name="breve" unicode="&#x2d8;" horiz-adv-x="480" 
d="M404 770c-3 -83 -69 -139 -164 -139c-99 0 -160 51 -166 139h98c12 -29 35 -43 68 -43c35 0 57 15 62 43h102z" />
    <glyph glyph-name="uni032E" unicode="&#x32e;" horiz-adv-x="0" 
d="M-165 -76c-3 -83 -69 -139 -164 -139c-99 0 -160 51 -166 139h98c12 -29 35 -43 68 -43c35 0 57 15 62 43h102z" />
    <glyph glyph-name="uni032F" unicode="&#x32f;" horiz-adv-x="0" 
d="M-165 -215h-98c-12 29 -35 43 -68 43c-35 0 -57 -15 -62 -43h-102c3 83 69 139 164 139c99 0 160 -51 166 -139z" />
    <glyph glyph-name="uni0306" unicode="&#x306;" horiz-adv-x="0" 
d="M-166 770c-3 -83 -69 -139 -164 -139c-99 0 -160 51 -166 139h98c12 -29 35 -43 68 -43c35 0 57 15 62 43h102z" />
    <glyph glyph-name="uni0311" unicode="&#x311;" horiz-adv-x="0" 
d="M-166 631h-98c-12 29 -35 43 -68 43c-35 0 -57 -15 -62 -43h-102c3 83 69 139 164 139c99 0 160 -51 166 -139z" />
    <glyph glyph-name="brokenbar" unicode="&#xa6;" horiz-adv-x="600" 
d="M369 389h-138v350h138v-350zM369 -137h-138v350h138v-350z" />
    <glyph glyph-name="bullet" unicode="&#x2022;" horiz-adv-x="600" 
d="M471 316c0 -94 -75 -169 -171 -169c-90 0 -166 77 -166 169s76 168 168 168c93 0 169 -75 169 -168z" />
    <glyph glyph-name="Cacute" unicode="&#x106;" horiz-adv-x="780" 
d="M760 206c-58 -135 -190 -219 -341 -219c-216 0 -389 172 -389 385c0 209 171 380 380 380c152 0 285 -82 350 -225h-153c-50 65 -108 93 -194 93c-141 0 -245 -110 -245 -249c0 -138 112 -252 248 -252c71 0 123 24 183 87h161zM595 899l-227 -120l-51 78l224 134z" />
    <glyph glyph-name="cacute" unicode="&#x107;" 
d="M601 182c-46 -124 -146 -195 -275 -195c-164 0 -296 129 -296 290c0 163 128 290 292 290c126 0 236 -71 279 -198h-150c-27 51 -69 76 -129 76c-92 0 -158 -70 -158 -167s69 -169 161 -169c55 0 93 22 126 73h150zM507 724l-227 -120l-51 78l224 134z" />
    <glyph glyph-name="caron" unicode="&#x2c7;" horiz-adv-x="540" 
d="M470 769l-147 -138h-107l-145 138h145l53 -64l54 64h147z" />
    <glyph glyph-name="uni030C" unicode="&#x30c;" horiz-adv-x="0" 
d="M-130 769l-147 -138h-107l-145 138h145l53 -64l54 64h147z" />
    <glyph glyph-name="Ccaron" unicode="&#x10c;" horiz-adv-x="780" 
d="M760 206c-58 -135 -190 -219 -341 -219c-216 0 -389 172 -389 385c0 209 171 380 380 380c152 0 285 -82 350 -225h-153c-50 65 -108 93 -194 93c-141 0 -245 -110 -245 -249c0 -138 112 -252 248 -252c71 0 123 24 183 87h161zM610 944l-147 -138h-107l-145 138h145
l53 -64l54 64h147z" />
    <glyph glyph-name="ccaron" unicode="&#x10d;" 
d="M601 182c-46 -124 -146 -195 -275 -195c-164 0 -296 129 -296 290c0 163 128 290 292 290c126 0 236 -71 279 -198h-150c-27 51 -69 76 -129 76c-92 0 -158 -70 -158 -167s69 -169 161 -169c55 0 93 22 126 73h150zM522 769l-147 -138h-107l-145 138h145l53 -64l54 64
h147z" />
    <glyph glyph-name="Ccedilla" unicode="&#xc7;" horiz-adv-x="780" 
d="M760 206c-56 -131 -182 -214 -328 -219l-22 -45c13 5 20 7 29 7c49 0 91 -46 91 -101c0 -59 -39 -98 -96 -98c-51 0 -92 34 -100 84h61c9 -20 21 -29 38 -29c21 0 39 20 39 45c0 24 -17 44 -39 44c-14 0 -24 -7 -38 -27l-52 26l39 96c-198 18 -352 182 -352 383
c0 209 171 380 380 380c152 0 285 -82 350 -225h-153c-50 65 -108 93 -194 93c-141 0 -245 -110 -245 -249c0 -138 112 -252 248 -252c71 0 123 24 183 87h161z" />
    <glyph glyph-name="ccedilla" unicode="&#xe7;" 
d="M601 182c-44 -119 -138 -189 -259 -195l-22 -45c13 5 20 7 29 7c49 0 91 -46 91 -101c0 -59 -39 -98 -96 -98c-51 0 -92 34 -100 84h61c9 -20 21 -29 38 -29c21 0 39 20 39 45c0 24 -17 44 -39 44c-14 0 -24 -7 -38 -27l-52 26l39 96c-148 16 -262 138 -262 288
c0 163 128 290 292 290c126 0 236 -71 279 -198h-150c-27 51 -69 76 -129 76c-92 0 -158 -70 -158 -167s69 -169 161 -169c55 0 93 22 126 73h150z" />
    <glyph glyph-name="Ccircumflex" unicode="&#x108;" horiz-adv-x="780" 
d="M760 206c-58 -135 -190 -219 -341 -219c-216 0 -389 172 -389 385c0 209 171 380 380 380c152 0 285 -82 350 -225h-153c-50 65 -108 93 -194 93c-141 0 -245 -110 -245 -249c0 -138 112 -252 248 -252c71 0 123 24 183 87h161zM610 806h-145l-53 64l-54 -64h-147
l147 138h107z" />
    <glyph glyph-name="ccircumflex" unicode="&#x109;" 
d="M601 182c-46 -124 -146 -195 -275 -195c-164 0 -296 129 -296 290c0 163 128 290 292 290c126 0 236 -71 279 -198h-150c-27 51 -69 76 -129 76c-92 0 -158 -70 -158 -167s69 -169 161 -169c55 0 93 22 126 73h150zM522 631h-145l-53 64l-54 -64h-147l147 138h107z" />
    <glyph glyph-name="Cdotaccent" unicode="&#x10a;" horiz-adv-x="780" 
d="M760 206c-58 -135 -190 -219 -341 -219c-216 0 -389 172 -389 385c0 209 171 380 380 380c152 0 285 -82 350 -225h-153c-50 65 -108 93 -194 93c-141 0 -245 -110 -245 -249c0 -138 112 -252 248 -252c71 0 123 24 183 87h161zM477 809h-133v133h133v-133z" />
    <glyph glyph-name="cdotaccent" unicode="&#x10b;" 
d="M601 182c-46 -124 -146 -195 -275 -195c-164 0 -296 129 -296 290c0 163 128 290 292 290c126 0 236 -71 279 -198h-150c-27 51 -69 76 -129 76c-92 0 -158 -70 -158 -167s69 -169 161 -169c55 0 93 22 126 73h150zM389 634h-133v133h133v-133z" />
    <glyph glyph-name="cedilla" unicode="&#xb8;" horiz-adv-x="340" 
d="M270 -152c0 -59 -39 -98 -96 -98c-51 0 -92 34 -100 84h61c9 -20 21 -29 38 -29c21 0 39 20 39 45c0 24 -17 44 -39 44c-14 0 -24 -7 -38 -27l-52 26l46 112h52l-31 -63c13 5 20 7 29 7c49 0 91 -46 91 -101z" />
    <glyph glyph-name="cent" unicode="&#xa2;" horiz-adv-x="560" 
d="M511 310c-35 -89 -88 -141 -168 -162v-109h-125v109c-106 24 -179 118 -179 233c0 105 64 201 179 230v104h125v-104c86 -21 150 -86 168 -168h-142c-20 28 -56 46 -93 46c-59 0 -104 -47 -104 -110s46 -109 108 -109c33 0 60 12 85 40h146z" />
    <glyph glyph-name="centigrade" unicode="&#x2103;" horiz-adv-x="1242" 
d="M350 533c0 -86 -66 -153 -150 -153s-150 68 -150 154c0 85 68 152 154 152c82 0 146 -67 146 -153zM1134 206c-58 -135 -190 -219 -341 -219c-216 0 -389 172 -389 385c0 209 171 380 380 380c152 0 285 -82 350 -225h-153c-50 65 -108 93 -194 93
c-141 0 -245 -110 -245 -249c0 -138 112 -252 248 -252c71 0 123 24 183 87h161zM293 533c0 53 -41 96 -91 96c-54 0 -96 -43 -96 -96s43 -96 94 -96c52 0 93 42 93 96z" />
    <glyph glyph-name="Chi" unicode="&#x3a7;" horiz-adv-x="680" 
d="M676 0h-159l-177 255l-172 -255h-163l254 368l-254 371h163l172 -258l177 258h159l-256 -371z" />
    <glyph glyph-name="chi" unicode="&#x3c7;" horiz-adv-x="637" 
d="M584 -174h-156l-109 213l-109 -213h-156l187 364l-187 364h156l109 -213l109 213h156l-187 -364z" />
    <glyph glyph-name="circumflex" unicode="&#x2c6;" horiz-adv-x="540" 
d="M470 631h-145l-53 64l-54 -64h-147l147 138h107z" />
    <glyph glyph-name="uni0302" unicode="&#x302;" horiz-adv-x="0" 
d="M-130 631h-145l-53 64l-54 -64h-147l147 138h107z" />
    <glyph glyph-name="colonmonetary" unicode="&#x20a1;" horiz-adv-x="780" 
d="M760 206c-55 -127 -175 -209 -315 -218v-71h-110v79c-175 38 -305 191 -305 376c0 183 132 338 305 373v77h110v-71c137 -12 255 -92 315 -224h-153c-44 57 -93 85 -162 92v-499c57 7 102 32 154 86h161zM335 133v475c-100 -32 -167 -125 -167 -237
c0 -109 70 -204 167 -238z" />
    <glyph glyph-name="uni0326" unicode="&#x326;" horiz-adv-x="0" 
d="M-272 -53l-58 -192h-104l58 192h104z" />
    <glyph glyph-name="copyright" unicode="&#xa9;" horiz-adv-x="740" 
d="M720 337c0 -193 -157 -350 -350 -350s-350 157 -350 350s157 350 350 350s350 -157 350 -350zM660 337c0 160 -130 290 -290 290s-290 -130 -290 -290s130 -290 290 -290s290 130 290 290zM587 407h-105c-27 33 -59 47 -105 47c-73 0 -128 -50 -128 -116
c0 -65 59 -118 129 -118c39 0 67 13 100 45h108c-29 -81 -111 -134 -206 -134c-127 0 -228 94 -228 208c0 111 100 204 223 204c95 0 177 -50 212 -136z" />
    <glyph glyph-name="currency" unicode="&#xa4;" horiz-adv-x="560" 
d="M534 572l-42 -43c29 -50 37 -80 37 -130s-9 -82 -38 -128l42 -43l-77 -80l-44 42c-40 -24 -87 -37 -131 -37c-45 0 -90 13 -131 37l-44 -42l-79 81l42 43c-29 55 -36 79 -36 128s7 74 36 129l-42 45l80 80l45 -44c41 25 82 36 128 36c47 0 89 -12 132 -36l45 43zM407 399
c0 69 -56 127 -123 127c-73 0 -131 -56 -131 -126c0 -69 58 -127 128 -127s126 56 126 126z" />
    <glyph glyph-name="dagger" unicode="&#x2020;" horiz-adv-x="560" 
d="M505 436h-161v-564h-133v564h-163v118h163v185h133v-185h161v-118z" />
    <glyph glyph-name="daggerdbl" unicode="&#x2021;" horiz-adv-x="560" 
d="M505 260h-162v-388h-133v388h-162v118h162v95h-162v118h162v148h133v-148h162v-118h-162v-95h162v-118z" />
    <glyph glyph-name="dblbracketleft" unicode="&#x27e6;" horiz-adv-x="660" 
d="M606 -137h-552v876h552v-130h-138v-616h138v-130zM330 -7v616h-138v-616h138z" />
    <glyph glyph-name="dblbracketright" unicode="&#x27e7;" horiz-adv-x="660" 
d="M606 -137h-552v130h138v616h-138v130h552v-876zM468 -7v616h-138v-616h138z" />
    <glyph glyph-name="uni030F" unicode="&#x30f;" horiz-adv-x="0" 
d="M-144 663l-50 -69l-222 132l62 80zM-407 663l-51 -69l-221 132l61 80z" />
    <glyph glyph-name="dblverticalbar" unicode="&#x2016;" horiz-adv-x="600" 
d="M231 -137h-138v876h138v-876zM507 -137h-138v876h138v-876z" />
    <glyph glyph-name="Dcaron" unicode="&#x10e;" horiz-adv-x="700" 
d="M660 368c0 -149 -67 -271 -181 -327c-60 -30 -127 -41 -239 -41h-172v739h169c116 0 204 -18 262 -53c103 -62 161 -178 161 -318zM522 368c0 95 -43 174 -113 210c-43 22 -90 30 -177 30h-27v-477h30c82 0 139 10 180 33c66 36 107 115 107 204zM550 944l-147 -138h-107
l-145 138h145l53 -64l54 64h147z" />
    <glyph glyph-name="dcaron" unicode="&#x10f;" horiz-adv-x="660" 
d="M613 0h-122v72c-53 -60 -108 -85 -183 -85c-157 0 -278 127 -278 291c0 166 122 296 277 296c70 0 134 -26 173 -69v234h133v-739zM490 280c0 97 -71 172 -164 172c-91 0 -162 -74 -162 -168c0 -98 72 -175 165 -175c90 0 161 75 161 171zM829 739l-58 -192h-104l58 192
h104z" />
    <glyph glyph-name="Dcroat" unicode="&#x110;" horiz-adv-x="742" 
d="M702 367c0 -149 -67 -270 -181 -326c-60 -30 -126 -41 -239 -41h-172v315h-96v107h96v317h169c116 0 204 -18 262 -53c103 -62 161 -178 161 -319zM564 368c0 94 -43 174 -113 210c-43 22 -89 30 -177 30h-27v-186h154v-107h-154v-184h30c82 0 139 10 180 33
c66 36 107 114 107 204z" />
    <glyph glyph-name="dcroat" unicode="&#x111;" horiz-adv-x="660" 
d="M660 602h-47v-602h-122v72c-54 -60 -108 -85 -183 -85c-157 0 -278 127 -278 291c0 166 122 296 278 296c69 0 133 -26 172 -70v98h-126v87h126v50h133v-50h47v-87zM490 280c0 98 -71 172 -164 172c-91 0 -162 -74 -162 -168c0 -98 72 -175 165 -175c90 0 161 75 161 171
z" />
    <glyph glyph-name="Ddotbelow" unicode="&#x1e0c;" horiz-adv-x="700" 
d="M660 368c0 -149 -67 -271 -181 -327c-60 -30 -127 -41 -239 -41h-172v739h169c116 0 204 -18 262 -53c103 -62 161 -178 161 -318zM522 368c0 95 -43 174 -113 210c-43 22 -90 30 -177 30h-27v-477h30c82 0 139 10 180 33c66 36 107 115 107 204zM417 -212h-133v133h133
v-133z" />
    <glyph glyph-name="ddotbelow" unicode="&#x1e0d;" horiz-adv-x="660" 
d="M613 0h-122v72c-53 -60 -108 -85 -183 -85c-157 0 -278 127 -278 291c0 166 122 296 277 296c70 0 134 -26 173 -69v234h133v-739zM490 280c0 97 -71 172 -164 172c-91 0 -162 -74 -162 -168c0 -98 72 -175 165 -175c90 0 161 75 161 171zM397 -212h-133v133h133v-133z
" />
    <glyph glyph-name="degree" unicode="&#xb0;" horiz-adv-x="400" 
d="M350 533c0 -86 -66 -153 -150 -153s-150 68 -150 154c0 85 68 152 154 152c82 0 146 -67 146 -153zM293 533c0 53 -41 96 -91 96c-54 0 -96 -43 -96 -96s43 -96 94 -96c52 0 93 42 93 96z" />
    <glyph glyph-name="Delta" unicode="&#x394;" horiz-adv-x="647" 
d="M652 -1h-655l271 684h114zM455 134l-130 361l-131 -361h261z" />
    <glyph glyph-name="delta" unicode="&#x3b4;" horiz-adv-x="697" 
d="M643 273c0 -156 -134 -286 -295 -286c-162 0 -294 130 -294 290c0 122 78 228 187 270l-124 86l35 113h384v-124h-183c58 -34 115 -71 170 -111c74 -53 120 -139 120 -238zM509 277c0 92 -72 168 -161 168c-87 0 -160 -75 -160 -166c0 -95 71 -170 161 -170
c88 0 160 75 160 168z" />
    <glyph glyph-name="diameter" unicode="&#x2300;" horiz-adv-x="600" 
d="M557 430l-58 -58c21 -36 34 -77 34 -122c0 -129 -104 -233 -233 -233c-45 0 -86 13 -122 34l-58 -58l-77 77l58 58c-21 36 -34 77 -34 122c0 129 104 233 233 233c45 0 86 -13 122 -34l58 58zM424 250c0 14 -2 28 -7 40l-157 -157c12 -5 26 -7 40 -7c68 0 124 56 124 124
zM340 367c-12 5 -26 7 -40 7c-68 0 -124 -56 -124 -124c0 -14 2 -28 7 -40z" />
    <glyph glyph-name="dieresis" unicode="&#xa8;" horiz-adv-x="500" 
d="M207 634h-133v133h133v-133zM417 634h-133v133h133v-133z" />
    <glyph glyph-name="uni0308" unicode="&#x308;" horiz-adv-x="0" 
d="M-373 634h-133v133h133v-133zM-163 634h-133v133h133v-133z" />
    <glyph glyph-name="discount" unicode="&#x2052;" horiz-adv-x="560" 
d="M201 598c0 -44 -36 -80 -80 -80c-45 0 -80 36 -80 80s35 80 80 80c44 0 80 -36 80 -80zM519 141c0 -44 -35 -80 -80 -80c-44 0 -80 36 -80 80s36 80 80 80c45 0 80 -36 80 -80zM487 739l-284 -739h-130l284 739h130z" />
    <glyph glyph-name="divide" unicode="&#xf7;" horiz-adv-x="600" 
d="M546 181h-492v138h492v-138zM364 435c0 -36 -29 -64 -64 -64s-64 28 -64 64c0 35 29 64 64 64s64 -29 64 -64zM364 65c0 -35 -29 -64 -64 -64s-64 29 -64 64c0 36 29 64 64 64s64 -28 64 -64z" />
    <glyph glyph-name="divorced" unicode="&#x26ae;" horiz-adv-x="560" 
d="M187 250c0 -142 -79 -277 -208 -277c-130 0 -208 135 -208 277s78 277 208 277c129 0 208 -135 208 -277zM789 250c0 -142 -78 -277 -208 -277c-129 0 -208 135 -208 277s79 277 208 277c130 0 208 -135 208 -277zM349 -304h-138v1108h138v-1108zM65 250
c0 69 -26 139 -86 139c-57 0 -70 -72 -70 -139s13 -139 70 -139c60 0 86 70 86 139zM651 250c0 67 -13 139 -70 139c-60 0 -86 -70 -86 -139s26 -139 86 -139c57 0 70 72 70 139z" />
    <glyph glyph-name="Dlinebelow" unicode="&#x1e0e;" horiz-adv-x="700" 
d="M660 368c0 -149 -67 -271 -181 -327c-60 -30 -127 -41 -239 -41h-172v739h169c116 0 204 -18 262 -53c103 -62 161 -178 161 -318zM522 368c0 95 -43 174 -113 210c-43 22 -90 30 -177 30h-27v-477h30c82 0 139 10 180 33c66 36 107 115 107 204zM491 -196h-277v100h277
v-100z" />
    <glyph glyph-name="dlinebelow" unicode="&#x1e0f;" horiz-adv-x="660" 
d="M613 0h-122v72c-53 -60 -108 -85 -183 -85c-157 0 -278 127 -278 291c0 166 122 296 277 296c70 0 134 -26 173 -69v234h133v-739zM490 280c0 97 -71 172 -164 172c-91 0 -162 -74 -162 -168c0 -98 72 -175 165 -175c90 0 161 75 161 171zM471 -196h-277v100h277v-100z
" />
    <glyph glyph-name="dong" unicode="&#x20ab;" horiz-adv-x="644" 
d="M589 623h-40v-512h-104v61c-46 -51 -91 -72 -155 -72c-134 0 -236 108 -236 247c0 141 103 252 236 252c58 0 113 -22 146 -60v84h-107v73h107v43h113v-43h40v-73zM589 -122h-535v122h535v-122zM445 349c0 83 -61 146 -140 146c-77 0 -138 -63 -138 -143
c0 -83 62 -149 141 -149c76 0 137 64 137 146z" />
    <glyph glyph-name="dotaccent" unicode="&#x2d9;" horiz-adv-x="280" 
d="M207 634h-133v133h133v-133z" />
    <glyph glyph-name="uni0307" unicode="&#x307;" horiz-adv-x="0" 
d="M-263 634h-133v133h133v-133z" />
    <glyph glyph-name="uni0323" unicode="&#x323;" horiz-adv-x="0" 
d="M-263 -212h-133v133h133v-133z" />
    <glyph glyph-name="dotlessi" unicode="&#x131;" horiz-adv-x="240" 
d="M187 0h-133v554h133v-554z" />
    <glyph glyph-name="Eacute" unicode="&#xc9;" horiz-adv-x="520" 
d="M465 0h-397v739h397v-131h-260v-174h249v-131h-249v-172h260v-131zM452 899l-227 -120l-51 78l224 134z" />
    <glyph glyph-name="eacute" unicode="&#xe9;" 
d="M608 269c0 -20 -1 -32 -5 -51h-429c16 -67 74 -109 153 -109c55 0 88 15 122 55h145c-37 -114 -152 -177 -264 -177c-169 0 -300 126 -300 288c0 163 129 292 292 292c165 0 286 -126 286 -298zM477 335c-17 71 -71 110 -153 110c-79 0 -133 -39 -154 -110h307zM507 724
l-227 -120l-51 78l224 134z" />
    <glyph glyph-name="Ebreve" unicode="&#x114;" horiz-adv-x="520" 
d="M465 0h-397v739h397v-131h-260v-174h249v-131h-249v-172h260v-131zM432 945c-3 -83 -69 -139 -164 -139c-99 0 -160 51 -166 139h98c12 -29 35 -43 68 -43c35 0 57 15 62 43h102z" />
    <glyph glyph-name="ebreve" unicode="&#x115;" 
d="M608 269c0 -20 -1 -32 -5 -51h-429c16 -67 74 -109 153 -109c55 0 88 15 122 55h145c-37 -114 -152 -177 -264 -177c-169 0 -300 126 -300 288c0 163 129 292 292 292c165 0 286 -126 286 -298zM477 335c-17 71 -71 110 -153 110c-79 0 -133 -39 -154 -110h307zM486 770
c-3 -83 -69 -139 -164 -139c-99 0 -160 51 -166 139h98c12 -29 35 -43 68 -43c35 0 57 15 62 43h102z" />
    <glyph glyph-name="Ecaron" unicode="&#x11a;" horiz-adv-x="520" 
d="M465 0h-397v739h397v-131h-260v-174h249v-131h-249v-172h260v-131zM467 944l-147 -138h-107l-145 138h145l53 -64l54 64h147z" />
    <glyph glyph-name="ecaron" unicode="&#x11b;" 
d="M608 269c0 -20 -1 -32 -5 -51h-429c16 -67 74 -109 153 -109c55 0 88 15 122 55h145c-37 -114 -152 -177 -264 -177c-169 0 -300 126 -300 288c0 163 129 292 292 292c165 0 286 -126 286 -298zM477 335c-17 71 -71 110 -153 110c-79 0 -133 -39 -154 -110h307zM522 769
l-147 -138h-107l-145 138h145l53 -64l54 64h147z" />
    <glyph glyph-name="Ecircumflex" unicode="&#xca;" horiz-adv-x="520" 
d="M465 0h-397v739h397v-131h-260v-174h249v-131h-249v-172h260v-131zM467 806h-145l-53 64l-54 -64h-147l147 138h107z" />
    <glyph glyph-name="ecircumflex" unicode="&#xea;" 
d="M608 269c0 -20 -1 -32 -5 -51h-429c16 -67 74 -109 153 -109c55 0 88 15 122 55h145c-37 -114 -152 -177 -264 -177c-169 0 -300 126 -300 288c0 163 129 292 292 292c165 0 286 -126 286 -298zM477 335c-17 71 -71 110 -153 110c-79 0 -133 -39 -154 -110h307zM522 631
h-145l-53 64l-54 -64h-147l147 138h107z" />
    <glyph glyph-name="Ecircumflexacute" unicode="&#x1ebe;" horiz-adv-x="520" 
d="M465 0h-397v739h397v-131h-260v-174h249v-131h-249v-172h260v-131zM452 1084l-227 -120l-51 78l224 134zM467 806h-145l-53 64l-54 -64h-147l147 138h107z" />
    <glyph glyph-name="ecircumflexacute" unicode="&#x1ebf;" 
d="M608 269c0 -20 -1 -32 -5 -51h-429c16 -67 74 -109 153 -109c55 0 88 15 122 55h145c-37 -114 -152 -177 -264 -177c-169 0 -300 126 -300 288c0 163 129 292 292 292c165 0 286 -126 286 -298zM477 335c-17 71 -71 110 -153 110c-79 0 -133 -39 -154 -110h307zM507 899
l-227 -120l-51 78l224 134zM522 621h-145l-53 64l-54 -64h-147l147 138h107z" />
    <glyph glyph-name="Ecircumflexdotbelow" unicode="&#x1ec6;" horiz-adv-x="520" 
d="M465 0h-397v739h397v-131h-260v-174h249v-131h-249v-172h260v-131zM467 806h-145l-53 64l-54 -64h-147l147 138h107zM327 -212h-133v133h133v-133z" />
    <glyph glyph-name="ecircumflexdotbelow" unicode="&#x1ec7;" 
d="M608 269c0 -20 -1 -32 -5 -51h-429c16 -67 74 -109 153 -109c55 0 88 15 122 55h145c-37 -114 -152 -177 -264 -177c-169 0 -300 126 -300 288c0 163 129 292 292 292c165 0 286 -126 286 -298zM477 335c-17 71 -71 110 -153 110c-79 0 -133 -39 -154 -110h307zM522 631
h-145l-53 64l-54 -64h-147l147 138h107zM389 -212h-133v133h133v-133z" />
    <glyph glyph-name="Ecircumflexgrave" unicode="&#x1ec0;" horiz-adv-x="520" 
d="M465 0h-397v739h397v-131h-260v-174h249v-131h-249v-172h260v-131zM360 1042l-51 -78l-227 120l54 92zM467 806h-145l-53 64l-54 -64h-147l147 138h107z" />
    <glyph glyph-name="ecircumflexgrave" unicode="&#x1ec1;" 
d="M608 269c0 -20 -1 -32 -5 -51h-429c16 -67 74 -109 153 -109c55 0 88 15 122 55h145c-37 -114 -152 -177 -264 -177c-169 0 -300 126 -300 288c0 163 129 292 292 292c165 0 286 -126 286 -298zM477 335c-17 71 -71 110 -153 110c-79 0 -133 -39 -154 -110h307zM415 857
l-51 -78l-227 120l54 92zM522 621h-145l-53 64l-54 -64h-147l147 138h107z" />
    <glyph glyph-name="Ecircumflexhookabove" unicode="&#x1ec2;" horiz-adv-x="520" 
d="M465 0h-397v739h397v-131h-260v-174h249v-131h-249v-172h260v-131zM467 1127c0 -33 -15 -56 -58 -85c-28 -19 -32 -29 -32 -71h-85v15c0 54 15 76 69 113c13 9 21 19 21 30c0 18 -18 32 -45 32c-24 0 -38 -14 -43 -44h-84c4 87 64 119 129 119c72 0 128 -47 128 -109z
M467 806h-145l-53 64l-54 -64h-147l147 138h107z" />
    <glyph glyph-name="ecircumflexhookabove" unicode="&#x1ec3;" 
d="M608 269c0 -20 -1 -32 -5 -51h-429c16 -67 74 -109 153 -109c55 0 88 15 122 55h145c-37 -114 -152 -177 -264 -177c-169 0 -300 126 -300 288c0 163 129 292 292 292c165 0 286 -126 286 -298zM477 335c-17 71 -71 110 -153 110c-79 0 -133 -39 -154 -110h307zM522 942
c0 -33 -15 -56 -58 -85c-28 -19 -32 -29 -32 -71h-85v15c0 54 15 76 69 113c13 9 21 19 21 30c0 18 -18 32 -45 32c-24 0 -38 -14 -43 -44h-84c4 87 64 119 129 119c72 0 128 -47 128 -109zM522 621h-145l-53 64l-54 -64h-147l147 138h107z" />
    <glyph glyph-name="Ecircumflextilde" unicode="&#x1ec4;" horiz-adv-x="520" 
d="M465 0h-397v739h397v-131h-260v-174h249v-131h-249v-172h260v-131zM432 1029c-32 -39 -59 -55 -94 -55c-24 0 -94 25 -113 25c-25 0 -32 -3 -70 -25l-54 80c35 35 61 47 103 47c24 0 80 -25 107 -25c26 0 46 10 67 34zM467 806h-145l-53 64l-54 -64h-147l147 138h107z
" />
    <glyph glyph-name="ecircumflextilde" unicode="&#x1ec5;" 
d="M608 269c0 -20 -1 -32 -5 -51h-429c16 -67 74 -109 153 -109c55 0 88 15 122 55h145c-37 -114 -152 -177 -264 -177c-169 0 -300 126 -300 288c0 163 129 292 292 292c165 0 286 -126 286 -298zM477 335c-17 71 -71 110 -153 110c-79 0 -133 -39 -154 -110h307zM487 844
c-32 -39 -59 -55 -94 -55c-24 0 -94 25 -113 25c-25 0 -32 -3 -70 -25l-54 80c35 35 61 47 103 47c24 0 80 -25 107 -25c26 0 46 10 67 34zM522 621h-145l-53 64l-54 -64h-147l147 138h107z" />
    <glyph glyph-name="Edblgrave" unicode="&#x204;" horiz-adv-x="520" 
d="M465 0h-397v739h397v-131h-260v-174h249v-131h-249v-172h260v-131zM453 848l-50 -69l-222 132l62 80zM190 848l-51 -69l-221 132l61 80z" />
    <glyph glyph-name="edblgrave" unicode="&#x205;" 
d="M608 269c0 -20 -1 -32 -5 -51h-429c16 -67 74 -109 153 -109c55 0 88 15 122 55h145c-37 -114 -152 -177 -264 -177c-169 0 -300 126 -300 288c0 163 129 292 292 292c165 0 286 -126 286 -298zM477 335c-17 71 -71 110 -153 110c-79 0 -133 -39 -154 -110h307zM508 663
l-50 -69l-222 132l62 80zM245 663l-51 -69l-221 132l61 80z" />
    <glyph glyph-name="Edieresis" unicode="&#xcb;" horiz-adv-x="520" 
d="M465 0h-397v739h397v-131h-260v-174h249v-131h-249v-172h260v-131zM224 809h-133v133h133v-133zM434 809h-133v133h133v-133z" />
    <glyph glyph-name="edieresis" unicode="&#xeb;" 
d="M608 269c0 -20 -1 -32 -5 -51h-429c16 -67 74 -109 153 -109c55 0 88 15 122 55h145c-37 -114 -152 -177 -264 -177c-169 0 -300 126 -300 288c0 163 129 292 292 292c165 0 286 -126 286 -298zM477 335c-17 71 -71 110 -153 110c-79 0 -133 -39 -154 -110h307zM279 634
h-133v133h133v-133zM489 634h-133v133h133v-133z" />
    <glyph glyph-name="Edotaccent" unicode="&#x116;" horiz-adv-x="520" 
d="M465 0h-397v739h397v-131h-260v-174h249v-131h-249v-172h260v-131zM334 809h-133v133h133v-133z" />
    <glyph glyph-name="edotaccent" unicode="&#x117;" 
d="M608 269c0 -20 -1 -32 -5 -51h-429c16 -67 74 -109 153 -109c55 0 88 15 122 55h145c-37 -114 -152 -177 -264 -177c-169 0 -300 126 -300 288c0 163 129 292 292 292c165 0 286 -126 286 -298zM477 335c-17 71 -71 110 -153 110c-79 0 -133 -39 -154 -110h307zM389 634
h-133v133h133v-133z" />
    <glyph glyph-name="Edotbelow" unicode="&#x1eb8;" horiz-adv-x="520" 
d="M465 0h-397v739h397v-131h-260v-174h249v-131h-249v-172h260v-131zM327 -212h-133v133h133v-133z" />
    <glyph glyph-name="edotbelow" unicode="&#x1eb9;" 
d="M608 269c0 -20 -1 -32 -5 -51h-429c16 -67 74 -109 153 -109c55 0 88 15 122 55h145c-37 -114 -152 -177 -264 -177c-169 0 -300 126 -300 288c0 163 129 292 292 292c165 0 286 -126 286 -298zM477 335c-17 71 -71 110 -153 110c-79 0 -133 -39 -154 -110h307zM389 -212
h-133v133h133v-133z" />
    <glyph glyph-name="Egrave" unicode="&#xc8;" horiz-adv-x="520" 
d="M465 0h-397v739h397v-131h-260v-174h249v-131h-249v-172h260v-131zM360 857l-51 -78l-227 120l54 92z" />
    <glyph glyph-name="egrave" unicode="&#xe8;" 
d="M608 269c0 -20 -1 -32 -5 -51h-429c16 -67 74 -109 153 -109c55 0 88 15 122 55h145c-37 -114 -152 -177 -264 -177c-169 0 -300 126 -300 288c0 163 129 292 292 292c165 0 286 -126 286 -298zM477 335c-17 71 -71 110 -153 110c-79 0 -133 -39 -154 -110h307zM415 682
l-51 -78l-227 120l54 92z" />
    <glyph glyph-name="Ehookabove" unicode="&#x1eba;" horiz-adv-x="520" 
d="M465 0h-397v739h397v-131h-260v-174h249v-131h-249v-172h260v-131zM395 949c0 -33 -15 -56 -58 -85c-28 -19 -32 -29 -32 -71h-85v15c0 54 15 76 69 113c13 9 21 19 21 30c0 18 -18 32 -45 32c-24 0 -38 -14 -43 -44h-84c4 87 64 119 129 119c72 0 128 -47 128 -109z" />
    <glyph glyph-name="ehookabove" unicode="&#x1ebb;" 
d="M608 269c0 -20 -1 -32 -5 -51h-429c16 -67 74 -109 153 -109c55 0 88 15 122 55h145c-37 -114 -152 -177 -264 -177c-169 0 -300 126 -300 288c0 163 129 292 292 292c165 0 286 -126 286 -298zM477 335c-17 71 -71 110 -153 110c-79 0 -133 -39 -154 -110h307zM450 764
c0 -33 -15 -56 -58 -85c-28 -19 -32 -29 -32 -71h-85v15c0 54 15 76 69 113c13 9 21 19 21 30c0 18 -18 32 -45 32c-24 0 -38 -14 -43 -44h-84c4 87 64 119 129 119c72 0 128 -47 128 -109z" />
    <glyph glyph-name="ellipsis" unicode="&#x2026;" horiz-adv-x="1000" 
d="M233 0h-133v128h133v-128zM565 0h-133v128h133v-128zM899 0h-134v128h134v-128z" />
    <glyph glyph-name="Emacron" unicode="&#x112;" horiz-adv-x="520" 
d="M465 0h-397v739h397v-131h-260v-174h249v-131h-249v-172h260v-131zM408 825h-277v100h277v-100z" />
    <glyph glyph-name="emacron" unicode="&#x113;" 
d="M608 269c0 -20 -1 -32 -5 -51h-429c16 -67 74 -109 153 -109c55 0 88 15 122 55h145c-37 -114 -152 -177 -264 -177c-169 0 -300 126 -300 288c0 163 129 292 292 292c165 0 286 -126 286 -298zM477 335c-17 71 -71 110 -153 110c-79 0 -133 -39 -154 -110h307zM463 650
h-277v100h277v-100z" />
    <glyph glyph-name="emdash" unicode="&#x2014;" horiz-adv-x="1000" 
d="M1000 229h-1000v118h1000v-118z" />
    <glyph glyph-name="endash" unicode="&#x2013;" horiz-adv-x="500" 
d="M500 229h-500v118h500v-118z" />
    <glyph glyph-name="Eng" unicode="&#x14a;" horiz-adv-x="740" 
d="M667 -25c0 -139 -76 -225 -200 -225c-107 0 -192 63 -205 188h137c9 -37 31 -56 65 -56c38 0 66 33 66 72v18l-325 565v-537h-137v739h156l306 -538v538h137v-764z" />
    <glyph glyph-name="eng" unicode="&#x14b;" horiz-adv-x="600" 
d="M546 37c0 -149 -75 -222 -188 -222v129c50 9 55 18 55 96v231c0 148 -40 174 -106 174c-42 0 -77 -18 -98 -51c-17 -27 -22 -59 -22 -133v-261h-133v554h123v-53c49 47 93 66 156 66c77 0 137 -28 173 -80c30 -43 40 -91 40 -190v-260z" />
    <glyph glyph-name="Eogonek" unicode="&#x118;" horiz-adv-x="520" 
d="M465 -231c-32 -13 -54 -19 -76 -19c-69 0 -126 48 -126 115c0 48 34 99 80 135h-275v739h397v-131h-260v-174h249v-131h-249v-172h260v-131c-66 -21 -96 -64 -96 -91c0 -36 9 -53 38 -53c12 0 28 0 58 13v-100z" />
    <glyph glyph-name="eogonek" unicode="&#x119;" 
d="M608 269c0 -20 -1 -32 -5 -51h-429c16 -67 74 -109 153 -109c55 0 88 15 122 55h145c-20 -63 -64 -110 -118 -140c-48 -26 -96 -62 -96 -115c0 -36 9 -53 38 -53c12 0 28 0 58 13v-100c-32 -13 -54 -19 -76 -19c-69 0 -126 48 -126 115c0 43 27 87 65 122h-9
c-169 0 -300 126 -300 288c0 163 129 292 292 292c165 0 286 -126 286 -298zM477 335c-17 71 -71 110 -153 110c-79 0 -133 -39 -154 -110h307z" />
    <glyph glyph-name="Epsilon" unicode="&#x395;" horiz-adv-x="520" 
d="M465 0h-397v739h397v-131h-260v-174h249v-131h-249v-172h260v-131z" />
    <glyph glyph-name="epsilon" unicode="&#x3b5;" horiz-adv-x="571" 
d="M521 -6c-71 -23 -144 -41 -219 -41c-133 0 -248 95 -248 223c0 55 27 95 69 124c-35 26 -56 62 -56 110c0 109 97 192 209 192c79 0 157 -20 232 -44l-38 -118c-63 20 -128 24 -194 24c-36 0 -71 -21 -71 -54c0 -49 98 -49 178 -49v-124c-87 0 -191 0 -191 -61
c0 -53 53 -85 110 -85c61 0 123 2 181 21z" />
    <glyph glyph-name="epsilon.alt" unicode="&#x3f5;" 
d="M582 139c-52 -97 -143 -152 -256 -152c-164 0 -296 129 -296 290c0 163 128 290 292 290c110 0 207 -54 259 -151h-167c-24 19 -55 29 -92 29c-71 0 -127 -42 -148 -106h253v-124h-252c22 -64 79 -106 150 -106c36 0 64 9 89 29z" />
    <glyph glyph-name="Ereversed" unicode="&#x18e;" horiz-adv-x="520" 
d="M465 0h-397v131h260v172h-249v131h249v174h-260v131h397v-739z" />
    <glyph glyph-name="ereversed" unicode="&#x258;" 
d="M608 275c0 -162 -131 -288 -300 -288c-112 0 -227 63 -264 177h145c34 -40 67 -55 122 -55c79 0 137 42 153 109h-429c-4 19 -5 31 -5 51c0 172 121 298 286 298c163 0 292 -129 292 -292zM468 335c-21 71 -75 110 -154 110c-82 0 -136 -39 -153 -110h307z" />
    <glyph glyph-name="estimated" unicode="&#x212e;" horiz-adv-x="847" 
d="M793 333v-10h-594c-6 0 -10 -4 -10 -10v-184c0 -2 1 -5 3 -7c59 -65 143 -103 232 -103c93 0 179 42 237 110h55c-69 -80 -176 -129 -292 -129c-198 0 -370 142 -370 333c0 190 172 332 370 332c197 0 369 -142 369 -332zM658 352v184c0 2 -1 5 -3 7
c-59 65 -143 103 -231 103c-89 0 -173 -38 -232 -103c-2 -2 -3 -5 -3 -7v-184c0 -6 4 -10 10 -10h449c6 0 10 4 10 10z" />
    <glyph glyph-name="Eta" unicode="&#x397;" horiz-adv-x="680" 
d="M606 0h-137v310h-264v-310h-137v739h137v-298h264v298h137v-739z" />
    <glyph glyph-name="eta" unicode="&#x3b7;" horiz-adv-x="550" 
d="M496 -174h-138v543c0 35 -32 60 -68 60c-51 0 -84 -42 -98 -95v-334h-138v554h138v-13c29 16 62 26 98 26c112 0 206 -87 206 -198v-543z" />
    <glyph glyph-name="Eth" unicode="&#xd0;" horiz-adv-x="742" 
d="M702 367c0 -149 -67 -270 -181 -326c-60 -30 -126 -41 -239 -41h-172v315h-96v107h96v317h169c116 0 204 -18 262 -53c103 -62 161 -178 161 -319zM564 368c0 94 -43 174 -113 210c-43 22 -89 30 -177 30h-27v-186h154v-107h-154v-184h30c82 0 139 10 180 33
c66 36 107 114 107 204z" />
    <glyph glyph-name="eth" unicode="&#xf0;" 
d="M619 284c0 -167 -129 -297 -294 -297c-162 0 -295 131 -295 291c0 147 119 278 268 278c16 0 40 -3 67 -9l-28 28c-26 26 -28 28 -49 46l-87 -40l-40 46l78 37l-70 57l103 35c9 -6 14 -10 16 -11l30 -23c3 -1 9 -6 19 -13l87 40l41 -49l-78 -35
c172 -148 232 -254 232 -381zM485 277c0 92 -72 168 -161 168c-87 0 -160 -75 -160 -166c0 -95 71 -170 161 -170c88 0 160 75 160 168z" />
    <glyph glyph-name="Etilde" unicode="&#x1ebc;" horiz-adv-x="520" 
d="M465 0h-397v739h397v-131h-260v-174h249v-131h-249v-172h260v-131zM432 862c-32 -39 -59 -55 -94 -55c-24 0 -94 25 -113 25c-25 0 -32 -3 -70 -25l-54 80c35 35 61 47 103 47c24 0 80 -25 107 -25c26 0 46 10 67 34z" />
    <glyph glyph-name="etilde" unicode="&#x1ebd;" 
d="M608 269c0 -20 -1 -32 -5 -51h-429c16 -67 74 -109 153 -109c55 0 88 15 122 55h145c-37 -114 -152 -177 -264 -177c-169 0 -300 126 -300 288c0 163 129 292 292 292c165 0 286 -126 286 -298zM477 335c-17 71 -71 110 -153 110c-79 0 -133 -39 -154 -110h307zM487 687
c-32 -39 -59 -55 -94 -55c-24 0 -94 25 -113 25c-25 0 -32 -3 -70 -25l-54 80c35 35 61 47 103 47c24 0 80 -25 107 -25c26 0 46 10 67 34z" />
    <glyph glyph-name="eturned" unicode="&#x1dd;" 
d="M608 279c0 -163 -129 -292 -292 -292c-165 0 -286 126 -286 298c0 20 1 32 5 51h429c-16 67 -74 109 -153 109c-55 0 -88 -15 -122 -55h-145c37 114 152 177 264 177c169 0 300 -126 300 -288zM468 219h-307c17 -71 71 -110 153 -110c79 0 133 39 154 110z" />
    <glyph glyph-name="Euro" unicode="&#x20ac;" horiz-adv-x="560" 
d="M595 684l-39 -103c-69 41 -125 58 -183 58c-91 0 -140 -46 -171 -158h315l-33 -88h-289v-45h272l-34 -88h-233c24 -95 86 -155 179 -155c36 0 73 10 146 40v-123c-59 -24 -101 -33 -160 -33c-57 0 -118 16 -165 46c-69 42 -104 103 -131 225h-101l24 88h69v19
c0 4 0 15 1 26h-95l24 88h79c45 193 144 269 306 269c82 0 136 -16 219 -66z" />
    <glyph glyph-name="exclamdown" unicode="&#xa1;" horiz-adv-x="280" 
d="M208 -185h-133v551h133v-551zM208 426h-133v128h133v-128z" />
    <glyph glyph-name="florin" unicode="&#x192;" horiz-adv-x="560" 
d="M494 820l-20 -117h-9c-62 0 -84 -33 -101 -118h92l-19 -115h-93l-62 -364c-20 -114 -37 -156 -75 -193c-44 -42 -97 -62 -165 -62c-23 0 -37 2 -59 7l20 116c15 -3 22 -4 33 -4c71 0 98 22 122 158l60 342h-94l19 115h94l5 26c17 78 26 100 55 136c40 49 100 76 168 76
c12 0 18 -1 29 -3z" />
    <glyph glyph-name="fraction" unicode="&#x2044;" horiz-adv-x="160" 
d="M280 739l-306 -739h-95l306 739h95z" />
    <glyph glyph-name="fraction.alt" unicode="&#x2215;" horiz-adv-x="0" 
d="M201 739l-306 -739h-95l306 739h95z" />
    <glyph glyph-name="Gacute" unicode="&#x1f4;" horiz-adv-x="840" 
d="M818 359c0 -201 -168 -372 -386 -372c-227 0 -402 168 -402 384c0 212 173 381 389 381c161 0 313 -97 361 -230h-161c-46 64 -117 98 -203 98c-146 0 -248 -112 -248 -251c0 -141 111 -250 256 -250c97 0 177 48 217 130h-306v128h483v-18zM604 899l-227 -120l-51 78
l224 134z" />
    <glyph glyph-name="gacute" unicode="&#x1f5;" horiz-adv-x="660" 
d="M611 105c0 -238 -115 -326 -287 -326c-136 0 -240 65 -285 176h151c39 -43 77 -59 139 -59c99 0 150 58 155 177c-52 -61 -104 -86 -182 -86c-158 0 -272 123 -272 294c0 164 116 286 273 286c80 0 140 -27 181 -83v70h127v-449zM478 275c0 101 -65 170 -160 170
c-93 0 -154 -68 -154 -170c0 -101 61 -166 156 -166s158 66 158 166zM488 724l-227 -120l-51 78l224 134z" />
    <glyph glyph-name="Gamma" unicode="&#x393;" horiz-adv-x="480" 
d="M444 608h-239v-608h-137v739h376v-131z" />
    <glyph glyph-name="gamma" unicode="&#x3b3;" horiz-adv-x="531" 
d="M585 554l-226 -567v-161h-138v174c0 210 -103 402 -247 554h190c77 -81 128 -179 159 -285l114 285h148z" />
    <glyph glyph-name="Gbreve" unicode="&#x11e;" horiz-adv-x="840" 
d="M818 359c0 -201 -168 -372 -386 -372c-227 0 -402 168 -402 384c0 212 173 381 389 381c161 0 313 -97 361 -230h-161c-46 64 -117 98 -203 98c-146 0 -248 -112 -248 -251c0 -141 111 -250 256 -250c97 0 177 48 217 130h-306v128h483v-18zM584 945
c-3 -83 -69 -139 -164 -139c-99 0 -160 51 -166 139h98c12 -29 35 -43 68 -43c35 0 57 15 62 43h102z" />
    <glyph glyph-name="gbreve" unicode="&#x11f;" horiz-adv-x="660" 
d="M611 105c0 -238 -115 -326 -287 -326c-136 0 -240 65 -285 176h151c39 -43 77 -59 139 -59c99 0 150 58 155 177c-52 -61 -104 -86 -182 -86c-158 0 -272 123 -272 294c0 164 116 286 273 286c80 0 140 -27 181 -83v70h127v-449zM478 275c0 101 -65 170 -160 170
c-93 0 -154 -68 -154 -170c0 -101 61 -166 156 -166s158 66 158 166zM467 770c-3 -83 -69 -139 -164 -139c-99 0 -160 51 -166 139h98c12 -29 35 -43 68 -43c35 0 57 15 62 43h102z" />
    <glyph glyph-name="Gcaron" unicode="&#x1e6;" horiz-adv-x="840" 
d="M818 359c0 -201 -168 -372 -386 -372c-227 0 -402 168 -402 384c0 212 173 381 389 381c161 0 313 -97 361 -230h-161c-46 64 -117 98 -203 98c-146 0 -248 -112 -248 -251c0 -141 111 -250 256 -250c97 0 177 48 217 130h-306v128h483v-18zM619 944l-147 -138h-107
l-145 138h145l53 -64l54 64h147z" />
    <glyph glyph-name="gcaron" unicode="&#x1e7;" horiz-adv-x="660" 
d="M611 105c0 -238 -115 -326 -287 -326c-136 0 -240 65 -285 176h151c39 -43 77 -59 139 -59c99 0 150 58 155 177c-52 -61 -104 -86 -182 -86c-158 0 -272 123 -272 294c0 164 116 286 273 286c80 0 140 -27 181 -83v70h127v-449zM478 275c0 101 -65 170 -160 170
c-93 0 -154 -68 -154 -170c0 -101 61 -166 156 -166s158 66 158 166zM503 769l-147 -138h-107l-145 138h145l53 -64l54 64h147z" />
    <glyph glyph-name="Gcircumflex" unicode="&#x11c;" horiz-adv-x="840" 
d="M818 359c0 -201 -168 -372 -386 -372c-227 0 -402 168 -402 384c0 212 173 381 389 381c161 0 313 -97 361 -230h-161c-46 64 -117 98 -203 98c-146 0 -248 -112 -248 -251c0 -141 111 -250 256 -250c97 0 177 48 217 130h-306v128h483v-18zM619 806h-145l-53 64l-54 -64
h-147l147 138h107z" />
    <glyph glyph-name="gcircumflex" unicode="&#x11d;" horiz-adv-x="660" 
d="M611 105c0 -238 -115 -326 -287 -326c-136 0 -240 65 -285 176h151c39 -43 77 -59 139 -59c99 0 150 58 155 177c-52 -61 -104 -86 -182 -86c-158 0 -272 123 -272 294c0 164 116 286 273 286c80 0 140 -27 181 -83v70h127v-449zM478 275c0 101 -65 170 -160 170
c-93 0 -154 -68 -154 -170c0 -101 61 -166 156 -166s158 66 158 166zM503 631h-145l-53 64l-54 -64h-147l147 138h107z" />
    <glyph glyph-name="Gcommaaccent" unicode="&#x122;" horiz-adv-x="840" 
d="M818 359c0 -201 -168 -372 -386 -372c-227 0 -402 168 -402 384c0 212 173 381 389 381c161 0 313 -97 361 -230h-161c-46 64 -117 98 -203 98c-146 0 -248 -112 -248 -251c0 -141 111 -250 256 -250c97 0 177 48 217 130h-306v128h483v-18zM477 -53l-58 -192h-104
l58 192h104z" />
    <glyph glyph-name="gcommaaccent" unicode="&#x123;" horiz-adv-x="660" 
d="M384 823l-58 -192h-104l58 192h104zM611 105c0 -238 -115 -326 -287 -326c-136 0 -240 65 -285 176h151c39 -43 77 -59 139 -59c99 0 150 58 155 177c-52 -61 -104 -86 -182 -86c-158 0 -272 123 -272 294c0 164 116 286 273 286c80 0 140 -27 181 -83v70h127v-449z
M478 275c0 101 -65 170 -160 170c-93 0 -154 -68 -154 -170c0 -101 61 -166 156 -166s158 66 158 166z" />
    <glyph glyph-name="Gdotaccent" unicode="&#x120;" horiz-adv-x="840" 
d="M818 359c0 -201 -168 -372 -386 -372c-227 0 -402 168 -402 384c0 212 173 381 389 381c161 0 313 -97 361 -230h-161c-46 64 -117 98 -203 98c-146 0 -248 -112 -248 -251c0 -141 111 -250 256 -250c97 0 177 48 217 130h-306v128h483v-18zM486 809h-133v133h133v-133z
" />
    <glyph glyph-name="gdotaccent" unicode="&#x121;" horiz-adv-x="660" 
d="M611 105c0 -238 -115 -326 -287 -326c-136 0 -240 65 -285 176h151c39 -43 77 -59 139 -59c99 0 150 58 155 177c-52 -61 -104 -86 -182 -86c-158 0 -272 123 -272 294c0 164 116 286 273 286c80 0 140 -27 181 -83v70h127v-449zM478 275c0 101 -65 170 -160 170
c-93 0 -154 -68 -154 -170c0 -101 61 -166 156 -166s158 66 158 166zM370 634h-133v133h133v-133z" />
    <glyph glyph-name="germandbls" unicode="&#xdf;" horiz-adv-x="600" 
d="M584 216c0 -134 -97 -229 -234 -229c-81 0 -140 31 -177 92v-79h-122v487c0 166 84 265 221 265c123 0 218 -89 218 -206c0 -66 -23 -109 -75 -138c116 -27 169 -100 169 -192zM450 205c0 73 -40 110 -184 110h-11v118h11c52 0 90 44 90 103c0 57 -34 94 -85 94
c-58 0 -87 -42 -87 -127v-314h82c9 -46 49 -80 93 -80c52 0 91 41 91 96z" />
    <glyph glyph-name="uni0300" unicode="&#x300;" horiz-adv-x="0" 
d="M-237 682l-51 -78l-227 120l54 92z" />
    <glyph glyph-name="greaterequal" unicode="&#x2265;" horiz-adv-x="600" 
d="M535 437l-427 -338v176l273 216l-273 216v176l427 -338v-108zM492 -69h-384v138h384v-138z" />
    <glyph glyph-name="greaterequal.slant" unicode="&#x2a7e;" horiz-adv-x="600" 
d="M492 437l-427 -338v176l273 216l-273 216v176l427 -338v-108zM449 70l-384 -304v176l384 304v-176z" />
    <glyph glyph-name="guillemotleft" unicode="&#xab;" horiz-adv-x="460" 
d="M388 108l-139 131v100l139 130v-123l-67 -57l67 -58v-123zM175 108l-139 131v100l139 130v-123l-67 -57l67 -58v-123z" />
    <glyph glyph-name="guillemotright" unicode="&#xbb;" horiz-adv-x="460" 
d="M212 239l-139 -131v123l67 58l-67 57v123l139 -130v-100zM425 239l-139 -131v123l67 58l-67 57v123l139 -130v-100z" />
    <glyph glyph-name="guilsinglleft" unicode="&#x2039;" horiz-adv-x="240" 
d="M175 108l-139 131v100l139 130v-123l-67 -57l67 -58v-123z" />
    <glyph glyph-name="guilsinglright" unicode="&#x203a;" horiz-adv-x="240" 
d="M212 239l-139 -131v123l67 58l-67 57v123l139 -130v-100z" />
    <glyph glyph-name="Hbar" unicode="&#x126;" horiz-adv-x="680" 
d="M672 549h-66v-549h-137v310h-264v-310h-137v549h-60v100h60v90h137v-90h264v90h137v-90h66v-100zM469 441v108h-264v-108h264z" />
    <glyph glyph-name="hbar" unicode="&#x127;" horiz-adv-x="600" 
d="M544 0h-133v283c0 116 -30 162 -108 162c-44 0 -79 -19 -98 -53c-14 -25 -19 -56 -19 -111v-281h-133v602h-70v100h70v37h133v-37h75v-100h-74l-1 -86c40 36 84 52 141 52c79 0 143 -31 180 -88c27 -41 37 -86 37 -167v-313z" />
    <glyph glyph-name="Hbrevebelow" unicode="&#x1e2a;" horiz-adv-x="680" 
d="M606 0h-137v310h-264v-310h-137v739h137v-298h264v298h137v-739zM502 -76c-3 -83 -69 -139 -164 -139c-99 0 -160 51 -166 139h98c12 -29 35 -43 68 -43c35 0 57 15 62 43h102z" />
    <glyph glyph-name="hbrevebelow" unicode="&#x1e2b;" horiz-adv-x="600" 
d="M545 0h-133v283c0 116 -30 162 -108 162c-76 0 -117 -42 -117 -164v-281h-133v739h133v-223c40 36 84 52 141 52c133 0 217 -73 217 -255v-313zM465 -76c-3 -83 -69 -139 -164 -139c-99 0 -160 51 -166 139h98c12 -29 35 -43 68 -43c35 0 57 15 62 43h102z" />
    <glyph glyph-name="Hcircumflex" unicode="&#x124;" horiz-adv-x="680" 
d="M606 0h-137v310h-264v-310h-137v739h137v-298h264v298h137v-739zM537 806h-145l-53 64l-54 -64h-147l147 138h107z" />
    <glyph glyph-name="hcircumflex" unicode="&#x125;" horiz-adv-x="600" 
d="M545 0h-133v283c0 116 -30 162 -108 162c-76 0 -117 -42 -117 -164v-281h-133v739h133v-223c40 36 84 52 141 52c133 0 217 -73 217 -255v-313zM500 806h-145l-53 64l-54 -64h-147l147 138h107z" />
    <glyph glyph-name="Hdieresis" unicode="&#x1e26;" horiz-adv-x="680" 
d="M606 0h-137v310h-264v-310h-137v739h137v-298h264v298h137v-739zM294 809h-133v133h133v-133zM504 809h-133v133h133v-133z" />
    <glyph glyph-name="hdieresis" unicode="&#x1e27;" horiz-adv-x="600" 
d="M545 0h-133v283c0 116 -30 162 -108 162c-76 0 -117 -42 -117 -164v-281h-133v739h133v-223c40 36 84 52 141 52c133 0 217 -73 217 -255v-313zM257 809h-133v133h133v-133zM467 809h-133v133h133v-133z" />
    <glyph glyph-name="Hdotbelow" unicode="&#x1e24;" horiz-adv-x="680" 
d="M606 0h-137v310h-264v-310h-137v739h137v-298h264v298h137v-739zM404 -212h-133v133h133v-133z" />
    <glyph glyph-name="hdotbelow" unicode="&#x1e25;" horiz-adv-x="600" 
d="M545 0h-133v283c0 116 -30 162 -108 162c-76 0 -117 -42 -117 -164v-281h-133v739h133v-223c40 36 84 52 141 52c133 0 217 -73 217 -255v-313zM367 -212h-133v133h133v-133z" />
    <glyph glyph-name="uni0309" unicode="&#x309;" horiz-adv-x="0" 
d="M-201 764c0 -33 -15 -56 -58 -85c-28 -19 -32 -29 -32 -71h-85v15c0 54 15 76 69 113c13 9 21 19 21 30c0 18 -18 32 -45 32c-24 0 -38 -14 -43 -44h-84c4 87 64 119 129 119c72 0 128 -47 128 -109z" />
    <glyph glyph-name="hungarumlaut" unicode="&#x2dd;" horiz-adv-x="700" 
d="M436 726l-222 -132l-50 69l210 143zM699 726l-221 -132l-51 69l211 143z" />
    <glyph glyph-name="uni030B" unicode="&#x30b;" horiz-adv-x="0" 
d="M-244 726l-222 -132l-50 69l210 143zM19 726l-221 -132l-51 69l211 143z" />
    <glyph glyph-name="Iacute" unicode="&#xcd;" horiz-adv-x="280" 
d="M205 0h-137v739h137v-739zM295 899l-227 -120l-51 78l224 134z" />
    <glyph glyph-name="iacute" unicode="&#xed;" horiz-adv-x="240" 
d="M187 0h-133v554h133v-554zM281 724l-227 -120l-51 78l224 134z" />
    <glyph glyph-name="Ibreve" unicode="&#x12c;" horiz-adv-x="280" 
d="M205 0h-137v739h137v-739zM302 945c-3 -83 -69 -139 -164 -139c-99 0 -160 51 -166 139h98c12 -29 35 -43 68 -43c35 0 57 15 62 43h102z" />
    <glyph glyph-name="ibreve" unicode="&#x12d;" horiz-adv-x="240" 
d="M187 0h-133v554h133v-554zM285 770c-3 -83 -69 -139 -164 -139c-99 0 -160 51 -166 139h98c12 -29 35 -43 68 -43c35 0 57 15 62 43h102z" />
    <glyph glyph-name="Icircumflex" unicode="&#xce;" horiz-adv-x="280" 
d="M205 0h-137v739h137v-739zM337 806h-145l-53 64l-54 -64h-147l147 138h107z" />
    <glyph glyph-name="icircumflex" unicode="&#xee;" horiz-adv-x="240" 
d="M187 0h-133v554h133v-554zM321 631h-145l-53 64l-54 -64h-147l147 138h107z" />
    <glyph glyph-name="Idblgrave" unicode="&#x208;" horiz-adv-x="280" 
d="M205 0h-137v739h137v-739zM323 848l-50 -69l-222 132l62 80zM60 848l-51 -69l-221 132l61 80z" />
    <glyph glyph-name="idblgrave" unicode="&#x209;" horiz-adv-x="240" 
d="M187 0h-133v554h133v-554zM307 663l-50 -69l-222 132l62 80zM44 663l-51 -69l-221 132l61 80z" />
    <glyph glyph-name="Idieresis" unicode="&#xcf;" horiz-adv-x="280" 
d="M205 0h-137v739h137v-739zM94 809h-133v133h133v-133zM304 809h-133v133h133v-133z" />
    <glyph glyph-name="idieresis" unicode="&#xef;" horiz-adv-x="240" 
d="M187 0h-133v554h133v-554zM78 634h-133v133h133v-133zM288 634h-133v133h133v-133z" />
    <glyph glyph-name="Idotaccent" unicode="&#x130;" horiz-adv-x="280" 
d="M205 0h-137v739h137v-739zM204 809h-133v133h133v-133z" />
    <glyph glyph-name="Idotbelow" unicode="&#x1eca;" horiz-adv-x="280" 
d="M205 0h-137v739h137v-739zM204 -212h-133v133h133v-133z" />
    <glyph glyph-name="idotbelow" unicode="&#x1ecb;" horiz-adv-x="240" 
d="M187 0h-133v554h133v-554zM188 634h-133v133h133v-133zM187 -212h-133v133h133v-133z" />
    <glyph glyph-name="Igrave" unicode="&#xcc;" horiz-adv-x="280" 
d="M205 0h-137v739h137v-739zM256 857l-51 -78l-227 120l54 92z" />
    <glyph glyph-name="igrave" unicode="&#xec;" horiz-adv-x="240" 
d="M187 0h-133v554h133v-554zM238 682l-51 -78l-227 120l54 92z" />
    <glyph glyph-name="Ihookabove" unicode="&#x1ec8;" horiz-adv-x="280" 
d="M205 0h-137v739h137v-739zM265 949c0 -33 -15 -56 -58 -85c-28 -19 -32 -29 -32 -71h-85v15c0 54 15 76 69 113c13 9 21 19 21 30c0 18 -18 32 -45 32c-24 0 -38 -14 -43 -44h-84c4 87 64 119 129 119c72 0 128 -47 128 -109z" />
    <glyph glyph-name="ihookabove" unicode="&#x1ec9;" horiz-adv-x="240" 
d="M187 0h-133v554h133v-554zM249 764c0 -33 -15 -56 -58 -85c-28 -19 -32 -29 -32 -71h-85v15c0 54 15 76 69 113c13 9 21 19 21 30c0 18 -18 32 -45 32c-24 0 -38 -14 -43 -44h-84c4 87 64 119 129 119c72 0 128 -47 128 -109z" />
    <glyph glyph-name="Imacron" unicode="&#x12a;" horiz-adv-x="280" 
d="M205 0h-137v739h137v-739zM278 825h-277v100h277v-100z" />
    <glyph glyph-name="imacron" unicode="&#x12b;" horiz-adv-x="240" 
d="M187 0h-133v554h133v-554zM262 650h-277v100h277v-100z" />
    <glyph glyph-name="infinity" unicode="&#x221e;" horiz-adv-x="746" 
d="M714 310c0 -116 -86 -202 -202 -202c-62 0 -116 56 -140 96c-22 -42 -78 -96 -140 -96c-114 0 -200 86 -200 202c0 114 90 204 202 204c54 0 102 -33 138 -86c34 49 84 86 138 86c114 0 204 -90 204 -204zM314 310c0 0 -36 76 -80 76c-46 0 -80 -32 -80 -76
c0 -42 34 -74 80 -74c44 0 80 74 80 74zM592 310c0 44 -36 76 -82 76c-44 0 -80 -76 -80 -76s36 -74 82 -74c44 0 80 32 80 74z" />
    <glyph glyph-name="interrobang" unicode="&#x203d;" horiz-adv-x="560" 
d="M485 523c0 -67 -25 -112 -102 -179c-55 -48 -64 -70 -65 -157h-133v18v378c-10 -16 -17 -37 -20 -63h-133c9 121 70 194 153 221v98h133v-94c98 -25 167 -112 167 -222zM318 0h-133v128h133v-128zM352 527c0 30 -13 56 -34 73v-148c22 23 34 49 34 75z" />
    <glyph glyph-name="Iogonek" unicode="&#x12e;" horiz-adv-x="280" 
d="M205 -231c-32 -13 -54 -19 -76 -19c-69 0 -126 48 -126 115c0 48 34 99 80 135h-15v739h137v-739c-66 -21 -96 -64 -96 -91c0 -36 9 -53 38 -53c12 0 28 0 58 13v-100z" />
    <glyph glyph-name="iogonek" unicode="&#x12f;" horiz-adv-x="240" 
d="M187 -231c-32 -13 -54 -19 -76 -19c-69 0 -126 48 -126 115c0 48 34 99 80 135h-11v554h133v-554c-66 -21 -96 -64 -96 -91c0 -36 9 -53 38 -53c12 0 28 0 58 13v-100zM187 634h-133v133h133v-133z" />
    <glyph glyph-name="Iota" unicode="&#x399;" horiz-adv-x="280" 
d="M205 0h-137v739h137v-739z" />
    <glyph glyph-name="iota" unicode="&#x3b9;" horiz-adv-x="415" 
d="M361 -20c-138 0 -253 106 -253 242v332h138v-332c0 -60 53 -104 115 -104v-138z" />
    <glyph glyph-name="Itilde" unicode="&#x128;" horiz-adv-x="280" 
d="M205 0h-137v739h137v-739zM302 862c-32 -39 -59 -55 -94 -55c-24 0 -94 25 -113 25c-25 0 -32 -3 -70 -25l-54 80c35 35 61 47 103 47c24 0 80 -25 107 -25c26 0 46 10 67 34z" />
    <glyph glyph-name="itilde" unicode="&#x129;" horiz-adv-x="240" 
d="M187 0h-133v554h133v-554zM286 687c-32 -39 -59 -55 -94 -55c-24 0 -94 25 -113 25c-25 0 -32 -3 -70 -25l-54 80c35 35 61 47 103 47c24 0 80 -25 107 -25c26 0 46 10 67 34z" />
    <glyph glyph-name="Jcircumflex" unicode="&#x134;" horiz-adv-x="480" 
d="M414 212c0 -139 -76 -225 -200 -225c-107 0 -192 63 -205 188h137c9 -37 31 -56 65 -56c44 0 66 32 66 97v523h137v-527zM546 806h-145l-53 64l-54 -64h-147l147 138h107z" />
    <glyph glyph-name="jcircumflex" unicode="&#x135;" horiz-adv-x="260" 
d="M205 37c0 -149 -75 -222 -188 -222v129c50 9 55 18 55 96v514h133v-517zM339 631h-145l-53 64l-54 -64h-147l147 138h107z" />
    <glyph glyph-name="Kappa" unicode="&#x39a;" horiz-adv-x="620" 
d="M599 0h-165l-229 325v-325h-137v739h137v-319l229 319h165l-278 -363z" />
    <glyph glyph-name="kappa" unicode="&#x3ba;" horiz-adv-x="580" 
d="M555 0h-179l-189 259v-259h-133v554h133v-261l177 261h159l-198 -271z" />
    <glyph glyph-name="Kcommaaccent" unicode="&#x136;" horiz-adv-x="620" 
d="M599 0h-165l-229 325v-325h-137v739h137v-319l229 319h165l-278 -363zM377 -53l-58 -192h-104l58 192h104z" />
    <glyph glyph-name="kcommaaccent" unicode="&#x137;" horiz-adv-x="580" 
d="M555 0h-179l-189 259v-259h-133v739h133v-446l177 261h159l-198 -271zM339 -53l-58 -192h-104l58 192h104z" />
    <glyph glyph-name="Lacute" unicode="&#x139;" horiz-adv-x="440" 
d="M431 0h-363v739h137v-608h226v-131zM295 899l-227 -120l-51 78l224 134z" />
    <glyph glyph-name="lacute" unicode="&#x13a;" horiz-adv-x="240" 
d="M187 0h-133v739h133v-739zM281 899l-227 -120l-51 78l224 134z" />
    <glyph glyph-name="Lambda" unicode="&#x39b;" horiz-adv-x="740" 
d="M733 0h-151l-213 546l-211 -546h-151l308 739h108z" />
    <glyph glyph-name="lambda" unicode="&#x3bb;" horiz-adv-x="650" 
d="M596 0h-146l-103 310l-141 -310h-152l229 502l-10 30c-16 47 -57 83 -106 83v138c109 0 202 -74 237 -177z" />
    <glyph glyph-name="Lcaron" unicode="&#x13d;" horiz-adv-x="440" 
d="M431 0h-363v739h137v-608h226v-131zM421 739l-58 -192h-104l58 192h104z" />
    <glyph glyph-name="lcaron" unicode="&#x13e;" horiz-adv-x="240" 
d="M187 0h-133v739h133v-739zM403 739l-58 -192h-104l58 192h104z" />
    <glyph glyph-name="Lcommaaccent" unicode="&#x13b;" horiz-adv-x="440" 
d="M431 0h-363v739h137v-608h226v-131zM307 -53l-58 -192h-104l58 192h104z" />
    <glyph glyph-name="lcommaaccent" unicode="&#x13c;" horiz-adv-x="240" 
d="M187 0h-133v739h133v-739zM178 -53l-58 -192h-104l58 192h104z" />
    <glyph glyph-name="Ldot" unicode="&#x13f;" horiz-adv-x="440" 
d="M431 0h-363v739h137v-608h226v-131zM423 317h-133v133h133v-133z" />
    <glyph glyph-name="ldot" unicode="&#x140;" horiz-adv-x="373" 
d="M187 0h-133v739h133v-739zM373 317h-133v133h133v-133z" />
    <glyph glyph-name="Ldotbelow" unicode="&#x1e36;" horiz-adv-x="440" 
d="M431 0h-363v739h137v-608h226v-131zM317 -212h-133v133h133v-133z" />
    <glyph glyph-name="ldotbelow" unicode="&#x1e37;" horiz-adv-x="240" 
d="M187 0h-133v739h133v-739zM188 -212h-133v133h133v-133z" />
    <glyph glyph-name="Ldotbelowmacron" unicode="&#x1e38;" horiz-adv-x="440" 
d="M431 0h-363v739h137v-608h226v-131zM317 -212h-133v133h133v-133zM278 825h-277v100h277v-100z" />
    <glyph glyph-name="ldotbelowmacron" unicode="&#x1e39;" horiz-adv-x="240" 
d="M187 0h-133v739h133v-739zM188 -212h-133v133h133v-133zM262 825h-277v100h277v-100z" />
    <glyph glyph-name="lessequal" unicode="&#x2264;" horiz-adv-x="600" 
d="M492 99l-427 338v108l427 338v-176l-273 -216l273 -216v-176zM492 -69h-384v138h384v-138z" />
    <glyph glyph-name="lessequal.slant" unicode="&#x2a7d;" horiz-adv-x="600" 
d="M492 99l-427 338v108l427 338v-176l-273 -216l273 -216v-176zM492 -234l-384 304v176l384 -304v-176z" />
    <glyph glyph-name="uni0332" unicode="&#x332;" horiz-adv-x="0" 
d="M-189 -196h-277v100h277v-100z" />
    <glyph glyph-name="lira" unicode="&#x20a4;" horiz-adv-x="560" 
d="M563 222c0 -65 -28 -127 -75 -168c-47 -40 -95 -54 -187 -54h-260v125h139c13 22 20 46 20 73c0 31 -12 56 -34 84h-166v105h90l-17 26h-73v105h41c1 131 106 234 239 234c127 0 223 -86 234 -211h-135c-15 57 -50 89 -98 89c-58 0 -104 -49 -107 -112h234v-105h-190
l21 -26h169v-105h-90c15 -30 15 -55 15 -82c0 -21 -5 -52 -13 -75c73 0 110 40 110 95c0 16 -2 28 -10 54h132c8 -21 11 -34 11 -52z" />
    <glyph glyph-name="logicalnot" unicode="&#xac;" horiz-adv-x="600" 
d="M546 158h-138v115h-354v138h492v-253z" />
    <glyph glyph-name="longs" unicode="&#x17f;" horiz-adv-x="280" 
d="M274 611h-13c-52 0 -69 -17 -70 -67v-544h-133v433h-48v111h48c7 69 17 101 44 133c34 41 82 62 139 62c9 0 17 0 33 -2v-126z" />
    <glyph glyph-name="lozenge" unicode="&#x25ca;" horiz-adv-x="494" 
d="M466 374l-197 -374h-60l-191 377l196 363h63zM373 374l-128 251l-134 -249l129 -259z" />
    <glyph glyph-name="l.script" unicode="&#x2113;" horiz-adv-x="563" 
d="M509 185c0 -107 -79 -198 -182 -198c-91 0 -142 69 -167 161c-25 -10 -51 -18 -78 -24l-28 121c30 7 59 17 85 30c-1 22 -2 45 -2 67c0 190 19 403 183 403c81 0 155 -53 155 -129c0 -160 -76 -306 -196 -399c5 -52 18 -92 48 -92c32 0 58 27 58 60h124zM350 616
c0 5 -17 5 -30 5c-39 0 -44 -122 -45 -232c48 64 75 143 75 227z" />
    <glyph glyph-name="Lslash" unicode="&#x141;" horiz-adv-x="480" 
d="M473 0h-363v273l-96 -79v124l96 79v342h137v-265l142 110v-123l-142 -111v-222h226v-128z" />
    <glyph glyph-name="lslash" unicode="&#x142;" horiz-adv-x="320" 
d="M312 446l-81 -63v-383h-133v317l-81 -62v99l81 63v322h133v-257l81 63v-99z" />
    <glyph glyph-name="macron" unicode="&#xaf;" horiz-adv-x="420" 
d="M351 650h-277v100h277v-100z" />
    <glyph glyph-name="uni0331" unicode="&#x331;" horiz-adv-x="0" 
d="M-189 -196h-277v100h277v-100z" />
    <glyph glyph-name="uni0304" unicode="&#x304;" horiz-adv-x="0" 
d="M-189 650h-277v100h277v-100z" />
    <glyph glyph-name="married" unicode="&#x26ad;" horiz-adv-x="560" 
d="M662 250c0 -153 -125 -277 -277 -277c-37 0 -73 7 -105 20c-32 -13 -68 -20 -104 -20c-153 0 -277 124 -277 277s124 277 277 277c36 0 72 -7 104 -20c32 13 68 20 105 20c152 0 277 -124 277 -277zM315 250c0 35 -14 67 -35 92c-21 -25 -34 -57 -34 -92s13 -67 34 -92
c21 25 35 57 35 92zM143 115c-23 40 -35 86 -35 135s12 95 35 135c-61 -15 -106 -70 -106 -135s45 -120 106 -135zM524 250c0 65 -46 120 -107 135c23 -40 36 -86 36 -135s-13 -95 -36 -135c61 15 107 70 107 135z" />
    <glyph glyph-name="Mdotbelow" unicode="&#x1e42;" horiz-adv-x="900" 
d="M840 0h-137v554l-193 -554h-112l-193 554v-554h-137v739h188l199 -560l197 560h188v-739zM517 -212h-133v133h133v-133z" />
    <glyph glyph-name="mdotbelow" unicode="&#x1e43;" horiz-adv-x="940" 
d="M885 0h-133v304c0 111 -42 141 -104 141c-74 0 -112 -40 -112 -172v-273h-133v304c0 109 -38 141 -108 141c-77 0 -108 -41 -108 -172v-273h-133v554h122v-52c39 47 79 65 144 65c76 0 125 -26 163 -86c45 60 100 86 178 86c146 0 224 -81 224 -247v-320zM537 -212h-133
v133h133v-133z" />
    <glyph glyph-name="uni2127" unicode="&#x2127;" horiz-adv-x="771" 
d="M752 402c0 -100 -36 -185 -107 -254c-70 -69 -156 -105 -257 -105s-187 35 -257 104c-71 69 -107 154 -107 254c0 79 26 161 75 202h-59v138h249l15 -135c-77 -34 -140 -108 -140 -205c0 -62 22 -115 66 -158c42 -41 92 -63 150 -65l-1 2c136 0 232 99 232 222
c0 98 -62 170 -140 204l15 135h253v-138h-62c50 -41 75 -121 75 -201z" />
    <glyph glyph-name="minus" unicode="&#x2212;" horiz-adv-x="600" 
d="M546 181h-492v138h492v-138z" />
    <glyph glyph-name="minusplus" unicode="&#x2213;" horiz-adv-x="600" 
d="M546 43h-177v-177h-138v177h-177v138h177v57h138v-57h177v-138zM546 362h-492v138h492v-138z" />
    <glyph glyph-name="Mu" unicode="&#x39c;" horiz-adv-x="900" 
d="M840 0h-137v554l-193 -554h-112l-193 554v-554h-137v739h188l199 -560l197 560h188v-739z" />
    <glyph glyph-name="mu" unicode="&#xb5;" horiz-adv-x="576" 
d="M523 0h-122v59c-28 -54 -70 -77 -131 -77c-33 0 -53 6 -83 19v-186h-133v739h133v-272c0 -80 12 -170 102 -170s101 91 101 170v272h133v-554z" />
    <glyph glyph-name="mu.greek" unicode="&#x3bc;" horiz-adv-x="576" 
d="M522 0h-138v22c-27 -18 -59 -28 -96 -28s-69 10 -96 28v-196h-138v728h138v-330c14 -54 42 -92 96 -92s82 38 96 92v330h138v-554z" />
    <glyph glyph-name="multiply" unicode="&#xd7;" horiz-adv-x="600" 
d="M523 125l-98 -98l-125 125l-125 -125l-98 98l125 125l-125 125l98 98l125 -125l125 125l98 -98l-125 -125z" />
    <glyph glyph-name="uni266A" unicode="&#x266a;" horiz-adv-x="672" 
d="M668 250h-130c0 59 -30 118 -64 173v-313c0 -78 -82 -123 -168 -123s-168 45 -168 123s82 123 168 123c13 0 26 -1 38 -3v509h126c0 -66 49 -144 91 -210c54 -86 107 -177 107 -279z" />
    <glyph glyph-name="Nacute" unicode="&#x143;" horiz-adv-x="740" 
d="M667 0h-153l-309 537v-537h-137v739h156l306 -538v538h137v-739zM553 899l-227 -120l-51 78l224 134z" />
    <glyph glyph-name="nacute" unicode="&#x144;" horiz-adv-x="600" 
d="M546 0h-133v271c0 148 -40 174 -106 174c-42 0 -77 -18 -98 -51c-17 -27 -22 -59 -22 -133v-261h-133v554h123v-53c49 47 93 66 156 66c77 0 137 -28 173 -80c30 -43 40 -91 40 -190v-297zM485 724l-227 -120l-51 78l224 134z" />
    <glyph glyph-name="naira" unicode="&#x20a6;" horiz-adv-x="740" 
d="M736 253h-69v-253h-153l-146 253h-163v-253h-137v253h-69v122h69v63h-69v122h69v179h156l102 -179h204v179h137v-179h69v-122h-69v-63h69v-122zM298 375l-36 63h-57v-63h93zM530 375v63h-135l36 -63h99zM530 253h-30l30 -52v52z" />
    <glyph glyph-name="uni00A0" unicode="&#xa0;" horiz-adv-x="280" 
 />
    <glyph glyph-name="Ncaron" unicode="&#x147;" horiz-adv-x="740" 
d="M667 0h-153l-309 537v-537h-137v739h156l306 -538v538h137v-739zM568 944l-147 -138h-107l-145 138h145l53 -64l54 64h147z" />
    <glyph glyph-name="ncaron" unicode="&#x148;" horiz-adv-x="600" 
d="M546 0h-133v271c0 148 -40 174 -106 174c-42 0 -77 -18 -98 -51c-17 -27 -22 -59 -22 -133v-261h-133v554h123v-53c49 47 93 66 156 66c77 0 137 -28 173 -80c30 -43 40 -91 40 -190v-297zM500 769l-147 -138h-107l-145 138h145l53 -64l54 64h147z" />
    <glyph glyph-name="Ncommaaccent" unicode="&#x145;" horiz-adv-x="740" 
d="M667 0h-153l-309 537v-537h-137v739h156l306 -538v538h137v-739zM425 -53l-58 -192h-104l58 192h104z" />
    <glyph glyph-name="ncommaaccent" unicode="&#x146;" horiz-adv-x="600" 
d="M546 0h-133v271c0 148 -40 174 -106 174c-42 0 -77 -18 -98 -51c-17 -27 -22 -59 -22 -133v-261h-133v554h123v-53c49 47 93 66 156 66c77 0 137 -28 173 -80c30 -43 40 -91 40 -190v-297zM358 -53l-58 -192h-104l58 192h104z" />
    <glyph glyph-name="Ndotaccent" unicode="&#x1e44;" horiz-adv-x="740" 
d="M667 0h-153l-309 537v-537h-137v739h156l306 -538v538h137v-739zM435 809h-133v133h133v-133z" />
    <glyph glyph-name="ndotaccent" unicode="&#x1e45;" horiz-adv-x="600" 
d="M546 0h-133v271c0 148 -40 174 -106 174c-42 0 -77 -18 -98 -51c-17 -27 -22 -59 -22 -133v-261h-133v554h123v-53c49 47 93 66 156 66c77 0 137 -28 173 -80c30 -43 40 -91 40 -190v-297zM367 634h-133v133h133v-133z" />
    <glyph glyph-name="Ndotbelow" unicode="&#x1e46;" horiz-adv-x="740" 
d="M667 0h-153l-309 537v-537h-137v739h156l306 -538v538h137v-739zM435 -212h-133v133h133v-133z" />
    <glyph glyph-name="ndotbelow" unicode="&#x1e47;" horiz-adv-x="600" 
d="M546 0h-133v271c0 148 -40 174 -106 174c-42 0 -77 -18 -98 -51c-17 -27 -22 -59 -22 -133v-261h-133v554h123v-53c49 47 93 66 156 66c77 0 137 -28 173 -80c30 -43 40 -91 40 -190v-297zM367 -212h-133v133h133v-133z" />
    <glyph glyph-name="afii61352" unicode="&#x2116;" horiz-adv-x="1092" 
d="M1108 378c0 -100 -81 -181 -181 -181s-181 81 -181 180c0 101 80 181 182 181c98 0 180 -82 180 -180zM1001 378c0 40 -34 74 -74 74s-73 -33 -73 -74s33 -74 73 -74s74 34 74 74zM889 603h-172v-603h-153l-309 537v-537h-250v147h113v592h156l306 -538v538h309v-136z
M1109 78h-363v100h363v-100z" />
    <glyph glyph-name="notequal" unicode="&#x2260;" horiz-adv-x="600" 
d="M546 89h-249l-85 -174l-124 62l55 112h-89v138h158l23 46h-181v138h249l85 174l124 -62l-55 -112h89v-138h-158l-23 -46h181v-138z" />
    <glyph glyph-name="Ntilde" unicode="&#xd1;" horiz-adv-x="740" 
d="M667 0h-153l-309 537v-537h-137v739h156l306 -538v538h137v-739zM533 862c-32 -39 -59 -55 -94 -55c-24 0 -94 25 -113 25c-25 0 -32 -3 -70 -25l-54 80c35 35 61 47 103 47c24 0 80 -25 107 -25c26 0 46 10 67 34z" />
    <glyph glyph-name="ntilde" unicode="&#xf1;" horiz-adv-x="600" 
d="M546 0h-133v271c0 148 -40 174 -106 174c-42 0 -77 -18 -98 -51c-17 -27 -22 -59 -22 -133v-261h-133v554h123v-53c49 47 93 66 156 66c77 0 137 -28 173 -80c30 -43 40 -91 40 -190v-297zM465 687c-32 -39 -59 -55 -94 -55c-24 0 -94 25 -113 25c-25 0 -32 -3 -70 -25
l-54 80c35 35 61 47 103 47c24 0 80 -25 107 -25c26 0 46 10 67 34z" />
    <glyph glyph-name="Nu" unicode="&#x39d;" horiz-adv-x="740" 
d="M667 0h-153l-309 537v-537h-137v739h156l306 -538v538h137v-739z" />
    <glyph glyph-name="nu" unicode="&#x3bd;" horiz-adv-x="512" 
d="M458 369c0 -156 -76 -302 -205 -391l-106 41l-122 535h142l87 -385c43 58 66 128 66 200c0 62 -5 124 -14 185h140c8 -61 12 -123 12 -185z" />
    <glyph glyph-name="Oacute" unicode="&#xd3;" horiz-adv-x="840" 
d="M800 370c0 -216 -166 -383 -381 -383c-217 0 -389 169 -389 382c0 216 170 383 390 383c211 0 380 -171 380 -382zM662 368c0 142 -107 252 -244 252c-142 0 -250 -108 -250 -251c0 -140 110 -250 250 -250s244 107 244 249zM605 899l-227 -120l-51 78l224 134z" />
    <glyph glyph-name="oacute" unicode="&#xf3;" 
d="M619 273c0 -156 -134 -286 -295 -286c-162 0 -294 130 -294 290c0 159 132 290 293 290c167 0 296 -129 296 -294zM485 277c0 92 -72 168 -161 168c-87 0 -160 -75 -160 -166c0 -95 71 -170 161 -170c88 0 160 75 160 168zM508 724l-227 -120l-51 78l224 134z" />
    <glyph glyph-name="Obreve" unicode="&#x14e;" horiz-adv-x="840" 
d="M800 370c0 -216 -166 -383 -381 -383c-217 0 -389 169 -389 382c0 216 170 383 390 383c211 0 380 -171 380 -382zM662 368c0 142 -107 252 -244 252c-142 0 -250 -108 -250 -251c0 -140 110 -250 250 -250s244 107 244 249zM585 945c-3 -83 -69 -139 -164 -139
c-99 0 -160 51 -166 139h98c12 -29 35 -43 68 -43c35 0 57 15 62 43h102z" />
    <glyph glyph-name="obreve" unicode="&#x14f;" 
d="M619 273c0 -156 -134 -286 -295 -286c-162 0 -294 130 -294 290c0 159 132 290 293 290c167 0 296 -129 296 -294zM485 277c0 92 -72 168 -161 168c-87 0 -160 -75 -160 -166c0 -95 71 -170 161 -170c88 0 160 75 160 168zM487 770c-3 -83 -69 -139 -164 -139
c-99 0 -160 51 -166 139h98c12 -29 35 -43 68 -43c35 0 57 15 62 43h102z" />
    <glyph glyph-name="Ocircumflex" unicode="&#xd4;" horiz-adv-x="840" 
d="M800 370c0 -216 -166 -383 -381 -383c-217 0 -389 169 -389 382c0 216 170 383 390 383c211 0 380 -171 380 -382zM662 368c0 142 -107 252 -244 252c-142 0 -250 -108 -250 -251c0 -140 110 -250 250 -250s244 107 244 249zM620 806h-145l-53 64l-54 -64h-147l147 138
h107z" />
    <glyph glyph-name="ocircumflex" unicode="&#xf4;" 
d="M619 273c0 -156 -134 -286 -295 -286c-162 0 -294 130 -294 290c0 159 132 290 293 290c167 0 296 -129 296 -294zM485 277c0 92 -72 168 -161 168c-87 0 -160 -75 -160 -166c0 -95 71 -170 161 -170c88 0 160 75 160 168zM523 631h-145l-53 64l-54 -64h-147l147 138h107
z" />
    <glyph glyph-name="Ocircumflexacute" unicode="&#x1ed0;" horiz-adv-x="840" 
d="M800 370c0 -216 -166 -383 -381 -383c-217 0 -389 169 -389 382c0 216 170 383 390 383c211 0 380 -171 380 -382zM662 368c0 142 -107 252 -244 252c-142 0 -250 -108 -250 -251c0 -140 110 -250 250 -250s244 107 244 249zM605 1084l-227 -120l-51 78l224 134zM620 806
h-145l-53 64l-54 -64h-147l147 138h107z" />
    <glyph glyph-name="ocircumflexacute" unicode="&#x1ed1;" 
d="M619 273c0 -156 -134 -286 -295 -286c-162 0 -294 130 -294 290c0 159 132 290 293 290c167 0 296 -129 296 -294zM485 277c0 92 -72 168 -161 168c-87 0 -160 -75 -160 -166c0 -95 71 -170 161 -170c88 0 160 75 160 168zM508 899l-227 -120l-51 78l224 134zM523 621
h-145l-53 64l-54 -64h-147l147 138h107z" />
    <glyph glyph-name="Ocircumflexdotbelow" unicode="&#x1ed8;" horiz-adv-x="840" 
d="M800 370c0 -216 -166 -383 -381 -383c-217 0 -389 169 -389 382c0 216 170 383 390 383c211 0 380 -171 380 -382zM662 368c0 142 -107 252 -244 252c-142 0 -250 -108 -250 -251c0 -140 110 -250 250 -250s244 107 244 249zM620 806h-145l-53 64l-54 -64h-147l147 138
h107zM487 -212h-133v133h133v-133z" />
    <glyph glyph-name="ocircumflexdotbelow" unicode="&#x1ed9;" 
d="M619 273c0 -156 -134 -286 -295 -286c-162 0 -294 130 -294 290c0 159 132 290 293 290c167 0 296 -129 296 -294zM485 277c0 92 -72 168 -161 168c-87 0 -160 -75 -160 -166c0 -95 71 -170 161 -170c88 0 160 75 160 168zM523 631h-145l-53 64l-54 -64h-147l147 138h107
zM390 -212h-133v133h133v-133z" />
    <glyph glyph-name="Ocircumflexgrave" unicode="&#x1ed2;" horiz-adv-x="840" 
d="M800 370c0 -216 -166 -383 -381 -383c-217 0 -389 169 -389 382c0 216 170 383 390 383c211 0 380 -171 380 -382zM662 368c0 142 -107 252 -244 252c-142 0 -250 -108 -250 -251c0 -140 110 -250 250 -250s244 107 244 249zM513 1042l-51 -78l-227 120l54 92zM620 806
h-145l-53 64l-54 -64h-147l147 138h107z" />
    <glyph glyph-name="ocircumflexgrave" unicode="&#x1ed3;" 
d="M619 273c0 -156 -134 -286 -295 -286c-162 0 -294 130 -294 290c0 159 132 290 293 290c167 0 296 -129 296 -294zM485 277c0 92 -72 168 -161 168c-87 0 -160 -75 -160 -166c0 -95 71 -170 161 -170c88 0 160 75 160 168zM416 857l-51 -78l-227 120l54 92zM523 621h-145
l-53 64l-54 -64h-147l147 138h107z" />
    <glyph glyph-name="Ocircumflexhookabove" unicode="&#x1ed4;" horiz-adv-x="840" 
d="M800 370c0 -216 -166 -383 -381 -383c-217 0 -389 169 -389 382c0 216 170 383 390 383c211 0 380 -171 380 -382zM662 368c0 142 -107 252 -244 252c-142 0 -250 -108 -250 -251c0 -140 110 -250 250 -250s244 107 244 249zM620 1127c0 -33 -15 -56 -58 -85
c-28 -19 -32 -29 -32 -71h-85v15c0 54 15 76 69 113c13 9 21 19 21 30c0 18 -18 32 -45 32c-24 0 -38 -14 -43 -44h-84c4 87 64 119 129 119c72 0 128 -47 128 -109zM620 806h-145l-53 64l-54 -64h-147l147 138h107z" />
    <glyph glyph-name="ocircumflexhookabove" unicode="&#x1ed5;" 
d="M619 273c0 -156 -134 -286 -295 -286c-162 0 -294 130 -294 290c0 159 132 290 293 290c167 0 296 -129 296 -294zM485 277c0 92 -72 168 -161 168c-87 0 -160 -75 -160 -166c0 -95 71 -170 161 -170c88 0 160 75 160 168zM523 942c0 -33 -15 -56 -58 -85
c-28 -19 -32 -29 -32 -71h-85v15c0 54 15 76 69 113c13 9 21 19 21 30c0 18 -18 32 -45 32c-24 0 -38 -14 -43 -44h-84c4 87 64 119 129 119c72 0 128 -47 128 -109zM523 621h-145l-53 64l-54 -64h-147l147 138h107z" />
    <glyph glyph-name="Ocircumflextilde" unicode="&#x1ed6;" horiz-adv-x="840" 
d="M800 370c0 -216 -166 -383 -381 -383c-217 0 -389 169 -389 382c0 216 170 383 390 383c211 0 380 -171 380 -382zM662 368c0 142 -107 252 -244 252c-142 0 -250 -108 -250 -251c0 -140 110 -250 250 -250s244 107 244 249zM585 1029c-32 -39 -59 -55 -94 -55
c-24 0 -94 25 -113 25c-25 0 -32 -3 -70 -25l-54 80c35 35 61 47 103 47c24 0 80 -25 107 -25c26 0 46 10 67 34zM620 806h-145l-53 64l-54 -64h-147l147 138h107z" />
    <glyph glyph-name="ocircumflextilde" unicode="&#x1ed7;" 
d="M619 273c0 -156 -134 -286 -295 -286c-162 0 -294 130 -294 290c0 159 132 290 293 290c167 0 296 -129 296 -294zM485 277c0 92 -72 168 -161 168c-87 0 -160 -75 -160 -166c0 -95 71 -170 161 -170c88 0 160 75 160 168zM488 844c-32 -39 -59 -55 -94 -55
c-24 0 -94 25 -113 25c-25 0 -32 -3 -70 -25l-54 80c35 35 61 47 103 47c24 0 80 -25 107 -25c26 0 46 10 67 34zM523 621h-145l-53 64l-54 -64h-147l147 138h107z" />
    <glyph glyph-name="Odblgrave" unicode="&#x20c;" horiz-adv-x="840" 
d="M800 370c0 -216 -166 -383 -381 -383c-217 0 -389 169 -389 382c0 216 170 383 390 383c211 0 380 -171 380 -382zM662 368c0 142 -107 252 -244 252c-142 0 -250 -108 -250 -251c0 -140 110 -250 250 -250s244 107 244 249zM606 848l-50 -69l-222 132l62 80zM343 848
l-51 -69l-221 132l61 80z" />
    <glyph glyph-name="odblgrave" unicode="&#x20d;" 
d="M619 273c0 -156 -134 -286 -295 -286c-162 0 -294 130 -294 290c0 159 132 290 293 290c167 0 296 -129 296 -294zM485 277c0 92 -72 168 -161 168c-87 0 -160 -75 -160 -166c0 -95 71 -170 161 -170c88 0 160 75 160 168zM509 663l-50 -69l-222 132l62 80zM246 663
l-51 -69l-221 132l61 80z" />
    <glyph glyph-name="Odieresis" unicode="&#xd6;" horiz-adv-x="840" 
d="M800 370c0 -216 -166 -383 -381 -383c-217 0 -389 169 -389 382c0 216 170 383 390 383c211 0 380 -171 380 -382zM662 368c0 142 -107 252 -244 252c-142 0 -250 -108 -250 -251c0 -140 110 -250 250 -250s244 107 244 249zM377 809h-133v133h133v-133zM587 809h-133
v133h133v-133z" />
    <glyph glyph-name="odieresis" unicode="&#xf6;" 
d="M619 273c0 -156 -134 -286 -295 -286c-162 0 -294 130 -294 290c0 159 132 290 293 290c167 0 296 -129 296 -294zM485 277c0 92 -72 168 -161 168c-87 0 -160 -75 -160 -166c0 -95 71 -170 161 -170c88 0 160 75 160 168zM280 634h-133v133h133v-133zM490 634h-133v133
h133v-133z" />
    <glyph glyph-name="Odotbelow" unicode="&#x1ecc;" horiz-adv-x="840" 
d="M800 370c0 -216 -166 -383 -381 -383c-217 0 -389 169 -389 382c0 216 170 383 390 383c211 0 380 -171 380 -382zM662 368c0 142 -107 252 -244 252c-142 0 -250 -108 -250 -251c0 -140 110 -250 250 -250s244 107 244 249zM487 -212h-133v133h133v-133z" />
    <glyph glyph-name="odotbelow" unicode="&#x1ecd;" 
d="M619 273c0 -156 -134 -286 -295 -286c-162 0 -294 130 -294 290c0 159 132 290 293 290c167 0 296 -129 296 -294zM485 277c0 92 -72 168 -161 168c-87 0 -160 -75 -160 -166c0 -95 71 -170 161 -170c88 0 160 75 160 168zM390 -212h-133v133h133v-133z" />
    <glyph glyph-name="OE" unicode="&#x152;" horiz-adv-x="1060" 
d="M1004 0h-357v81c-55 -61 -136 -94 -229 -94c-216 0 -380 164 -380 382c0 219 161 383 375 383c101 0 178 -31 234 -95v82h357v-131h-218v-174h207v-131h-207v-172h218v-131zM652 368c0 144 -101 252 -237 252c-141 0 -239 -114 -239 -255c0 -139 104 -246 240 -246
c137 0 236 105 236 249z" />
    <glyph glyph-name="oe" unicode="&#x153;" horiz-adv-x="1080" 
d="M1048 284c0 -23 -1 -39 -5 -66h-429c22 -67 80 -109 153 -109c46 0 95 22 121 54h142c-39 -107 -142 -176 -262 -176c-94 0 -174 40 -225 113c-53 -77 -124 -113 -219 -113c-168 0 -294 125 -294 290c0 162 128 290 290 290c94 0 164 -36 223 -111c64 78 129 111 219 111
c169 0 286 -123 286 -283zM486 276c0 96 -70 169 -161 169c-90 0 -161 -73 -161 -164c0 -99 70 -172 165 -172c89 0 157 72 157 167zM910 335c-21 73 -71 110 -150 110c-75 0 -127 -37 -152 -110h302z" />
    <glyph glyph-name="ogonek" unicode="&#x2db;" horiz-adv-x="340" 
d="M276 -231c-32 -13 -54 -19 -76 -19c-69 0 -126 48 -126 115c0 48 34 99 80 135h122c-66 -21 -96 -64 -96 -91c0 -36 9 -53 38 -53c12 0 28 0 58 13v-100z" />
    <glyph glyph-name="Ograve" unicode="&#xd2;" horiz-adv-x="840" 
d="M800 370c0 -216 -166 -383 -381 -383c-217 0 -389 169 -389 382c0 216 170 383 390 383c211 0 380 -171 380 -382zM662 368c0 142 -107 252 -244 252c-142 0 -250 -108 -250 -251c0 -140 110 -250 250 -250s244 107 244 249zM513 857l-51 -78l-227 120l54 92z" />
    <glyph glyph-name="ograve" unicode="&#xf2;" 
d="M619 273c0 -156 -134 -286 -295 -286c-162 0 -294 130 -294 290c0 159 132 290 293 290c167 0 296 -129 296 -294zM485 277c0 92 -72 168 -161 168c-87 0 -160 -75 -160 -166c0 -95 71 -170 161 -170c88 0 160 75 160 168zM416 682l-51 -78l-227 120l54 92z" />
    <glyph glyph-name="ohm" unicode="&#x2126;" horiz-adv-x="771" 
d="M748 339c0 -79 -26 -161 -75 -202h59v-138h-249l-15 135c77 34 140 108 140 205c0 62 -22 115 -66 158c-42 41 -92 63 -150 65l1 -2c-136 0 -232 -99 -232 -222c0 -98 62 -170 140 -204l-15 -135h-253v138h62c-50 41 -75 121 -75 201c0 100 36 185 107 254
c70 69 156 105 257 105s187 -35 257 -104c71 -69 107 -154 107 -254z" />
    <glyph glyph-name="Ohookabove" unicode="&#x1ece;" horiz-adv-x="840" 
d="M800 370c0 -216 -166 -383 -381 -383c-217 0 -389 169 -389 382c0 216 170 383 390 383c211 0 380 -171 380 -382zM662 368c0 142 -107 252 -244 252c-142 0 -250 -108 -250 -251c0 -140 110 -250 250 -250s244 107 244 249zM548 949c0 -33 -15 -56 -58 -85
c-28 -19 -32 -29 -32 -71h-85v15c0 54 15 76 69 113c13 9 21 19 21 30c0 18 -18 32 -45 32c-24 0 -38 -14 -43 -44h-84c4 87 64 119 129 119c72 0 128 -47 128 -109z" />
    <glyph glyph-name="ohookabove" unicode="&#x1ecf;" 
d="M619 273c0 -156 -134 -286 -295 -286c-162 0 -294 130 -294 290c0 159 132 290 293 290c167 0 296 -129 296 -294zM485 277c0 92 -72 168 -161 168c-87 0 -160 -75 -160 -166c0 -95 71 -170 161 -170c88 0 160 75 160 168zM451 764c0 -33 -15 -56 -58 -85
c-28 -19 -32 -29 -32 -71h-85v15c0 54 15 76 69 113c13 9 21 19 21 30c0 18 -18 32 -45 32c-24 0 -38 -14 -43 -44h-84c4 87 64 119 129 119c72 0 128 -47 128 -109z" />
    <glyph glyph-name="Ohorn" unicode="&#x1a0;" horiz-adv-x="859" 
d="M827 739c0 -81 -32 -143 -73 -187c29 -54 46 -116 46 -182c0 -216 -166 -383 -381 -383c-217 0 -389 169 -389 382c0 216 170 383 390 383c110 0 209 -47 278 -122c20 25 34 61 34 109h95zM662 368c0 142 -107 252 -244 252c-142 0 -250 -108 -250 -251
c0 -140 110 -250 250 -250s244 107 244 249z" />
    <glyph glyph-name="ohorn" unicode="&#x1a1;" horiz-adv-x="722" 
d="M693 554c0 -89 -38 -154 -86 -198c8 -26 12 -54 12 -83c0 -156 -134 -286 -295 -286c-162 0 -294 130 -294 290c0 159 132 290 293 290c101 0 189 -48 242 -122c19 25 33 61 33 109h95zM485 277c0 92 -72 168 -161 168c-87 0 -160 -75 -160 -166c0 -95 71 -170 161 -170
c88 0 160 75 160 168z" />
    <glyph glyph-name="Ohornacute" unicode="&#x1eda;" horiz-adv-x="859" 
d="M827 739c0 -81 -32 -143 -73 -187c29 -54 46 -116 46 -182c0 -216 -166 -383 -381 -383c-217 0 -389 169 -389 382c0 216 170 383 390 383c110 0 209 -47 278 -122c20 25 34 61 34 109h95zM662 368c0 142 -107 252 -244 252c-142 0 -250 -108 -250 -251
c0 -140 110 -250 250 -250s244 107 244 249zM605 899l-227 -120l-51 78l224 134z" />
    <glyph glyph-name="ohornacute" unicode="&#x1edb;" horiz-adv-x="722" 
d="M693 554c0 -89 -38 -154 -86 -198c8 -26 12 -54 12 -83c0 -156 -134 -286 -295 -286c-162 0 -294 130 -294 290c0 159 132 290 293 290c101 0 189 -48 242 -122c19 25 33 61 33 109h95zM485 277c0 92 -72 168 -161 168c-87 0 -160 -75 -160 -166c0 -95 71 -170 161 -170
c88 0 160 75 160 168zM508 724l-227 -120l-51 78l224 134z" />
    <glyph glyph-name="Ohorndotbelow" unicode="&#x1ee2;" horiz-adv-x="859" 
d="M827 739c0 -81 -32 -143 -73 -187c29 -54 46 -116 46 -182c0 -216 -166 -383 -381 -383c-217 0 -389 169 -389 382c0 216 170 383 390 383c110 0 209 -47 278 -122c20 25 34 61 34 109h95zM662 368c0 142 -107 252 -244 252c-142 0 -250 -108 -250 -251
c0 -140 110 -250 250 -250s244 107 244 249zM487 -212h-133v133h133v-133z" />
    <glyph glyph-name="ohorndotbelow" unicode="&#x1ee3;" horiz-adv-x="722" 
d="M693 554c0 -89 -38 -154 -86 -198c8 -26 12 -54 12 -83c0 -156 -134 -286 -295 -286c-162 0 -294 130 -294 290c0 159 132 290 293 290c101 0 189 -48 242 -122c19 25 33 61 33 109h95zM485 277c0 92 -72 168 -161 168c-87 0 -160 -75 -160 -166c0 -95 71 -170 161 -170
c88 0 160 75 160 168zM390 -212h-133v133h133v-133z" />
    <glyph glyph-name="Ohorngrave" unicode="&#x1edc;" horiz-adv-x="859" 
d="M827 739c0 -81 -32 -143 -73 -187c29 -54 46 -116 46 -182c0 -216 -166 -383 -381 -383c-217 0 -389 169 -389 382c0 216 170 383 390 383c110 0 209 -47 278 -122c20 25 34 61 34 109h95zM662 368c0 142 -107 252 -244 252c-142 0 -250 -108 -250 -251
c0 -140 110 -250 250 -250s244 107 244 249zM513 857l-51 -78l-227 120l54 92z" />
    <glyph glyph-name="ohorngrave" unicode="&#x1edd;" horiz-adv-x="722" 
d="M693 554c0 -89 -38 -154 -86 -198c8 -26 12 -54 12 -83c0 -156 -134 -286 -295 -286c-162 0 -294 130 -294 290c0 159 132 290 293 290c101 0 189 -48 242 -122c19 25 33 61 33 109h95zM485 277c0 92 -72 168 -161 168c-87 0 -160 -75 -160 -166c0 -95 71 -170 161 -170
c88 0 160 75 160 168zM416 682l-51 -78l-227 120l54 92z" />
    <glyph glyph-name="Ohornhookabove" unicode="&#x1ede;" horiz-adv-x="859" 
d="M827 739c0 -81 -32 -143 -73 -187c29 -54 46 -116 46 -182c0 -216 -166 -383 -381 -383c-217 0 -389 169 -389 382c0 216 170 383 390 383c110 0 209 -47 278 -122c20 25 34 61 34 109h95zM662 368c0 142 -107 252 -244 252c-142 0 -250 -108 -250 -251
c0 -140 110 -250 250 -250s244 107 244 249zM548 949c0 -33 -15 -56 -58 -85c-28 -19 -32 -29 -32 -71h-85v15c0 54 15 76 69 113c13 9 21 19 21 30c0 18 -18 32 -45 32c-24 0 -38 -14 -43 -44h-84c4 87 64 119 129 119c72 0 128 -47 128 -109z" />
    <glyph glyph-name="ohornhookabove" unicode="&#x1edf;" horiz-adv-x="722" 
d="M693 554c0 -89 -38 -154 -86 -198c8 -26 12 -54 12 -83c0 -156 -134 -286 -295 -286c-162 0 -294 130 -294 290c0 159 132 290 293 290c101 0 189 -48 242 -122c19 25 33 61 33 109h95zM485 277c0 92 -72 168 -161 168c-87 0 -160 -75 -160 -166c0 -95 71 -170 161 -170
c88 0 160 75 160 168zM451 764c0 -33 -15 -56 -58 -85c-28 -19 -32 -29 -32 -71h-85v15c0 54 15 76 69 113c13 9 21 19 21 30c0 18 -18 32 -45 32c-24 0 -38 -14 -43 -44h-84c4 87 64 119 129 119c72 0 128 -47 128 -109z" />
    <glyph glyph-name="Ohorntilde" unicode="&#x1ee0;" horiz-adv-x="859" 
d="M827 739c0 -81 -32 -143 -73 -187c29 -54 46 -116 46 -182c0 -216 -166 -383 -381 -383c-217 0 -389 169 -389 382c0 216 170 383 390 383c110 0 209 -47 278 -122c20 25 34 61 34 109h95zM662 368c0 142 -107 252 -244 252c-142 0 -250 -108 -250 -251
c0 -140 110 -250 250 -250s244 107 244 249zM585 862c-32 -39 -59 -55 -94 -55c-24 0 -94 25 -113 25c-25 0 -32 -3 -70 -25l-54 80c35 35 61 47 103 47c24 0 80 -25 107 -25c26 0 46 10 67 34z" />
    <glyph glyph-name="ohorntilde" unicode="&#x1ee1;" horiz-adv-x="722" 
d="M693 554c0 -89 -38 -154 -86 -198c8 -26 12 -54 12 -83c0 -156 -134 -286 -295 -286c-162 0 -294 130 -294 290c0 159 132 290 293 290c101 0 189 -48 242 -122c19 25 33 61 33 109h95zM485 277c0 92 -72 168 -161 168c-87 0 -160 -75 -160 -166c0 -95 71 -170 161 -170
c88 0 160 75 160 168zM488 687c-32 -39 -59 -55 -94 -55c-24 0 -94 25 -113 25c-25 0 -32 -3 -70 -25l-54 80c35 35 61 47 103 47c24 0 80 -25 107 -25c26 0 46 10 67 34z" />
    <glyph glyph-name="Ohungarumlaut" unicode="&#x150;" horiz-adv-x="840" 
d="M800 370c0 -216 -166 -383 -381 -383c-217 0 -389 169 -389 382c0 216 170 383 390 383c211 0 380 -171 380 -382zM662 368c0 142 -107 252 -244 252c-142 0 -250 -108 -250 -251c0 -140 110 -250 250 -250s244 107 244 249zM506 911l-222 -132l-50 69l210 143zM769 911
l-221 -132l-51 69l211 143z" />
    <glyph glyph-name="ohungarumlaut" unicode="&#x151;" 
d="M619 273c0 -156 -134 -286 -295 -286c-162 0 -294 130 -294 290c0 159 132 290 293 290c167 0 296 -129 296 -294zM485 277c0 92 -72 168 -161 168c-87 0 -160 -75 -160 -166c0 -95 71 -170 161 -170c88 0 160 75 160 168zM409 726l-222 -132l-50 69l210 143zM672 726
l-221 -132l-51 69l211 143z" />
    <glyph glyph-name="Omacron" unicode="&#x14c;" horiz-adv-x="840" 
d="M800 370c0 -216 -166 -383 -381 -383c-217 0 -389 169 -389 382c0 216 170 383 390 383c211 0 380 -171 380 -382zM662 368c0 142 -107 252 -244 252c-142 0 -250 -108 -250 -251c0 -140 110 -250 250 -250s244 107 244 249zM561 825h-277v100h277v-100z" />
    <glyph glyph-name="omacron" unicode="&#x14d;" 
d="M619 273c0 -156 -134 -286 -295 -286c-162 0 -294 130 -294 290c0 159 132 290 293 290c167 0 296 -129 296 -294zM485 277c0 92 -72 168 -161 168c-87 0 -160 -75 -160 -166c0 -95 71 -170 161 -170c88 0 160 75 160 168zM464 650h-277v100h277v-100z" />
    <glyph glyph-name="Omega" unicode="&#x3a9;" horiz-adv-x="771" 
d="M748 339c0 -79 -26 -161 -75 -202h59v-138h-249l-15 135c77 34 140 108 140 205c0 62 -22 115 -66 158c-42 41 -92 63 -150 65l1 -2c-136 0 -232 -99 -232 -222c0 -98 62 -170 140 -204l-15 -135h-253v138h62c-50 41 -75 121 -75 201c0 100 36 185 107 254
c70 69 156 105 257 105s187 -35 257 -104c71 -69 107 -154 107 -254z" />
    <glyph glyph-name="omega" unicode="&#x3c9;" horiz-adv-x="771" 
d="M717 305c0 -158 -62 -318 -200 -318c-59 0 -102 27 -132 71c-31 -43 -74 -71 -131 -71c-138 0 -200 160 -200 318c0 85 18 169 48 249h134c-31 -79 -44 -164 -44 -249c0 -82 0 -180 62 -180c55 0 66 61 69 128c-5 38 -6 77 -6 116h138c0 -108 0 -244 62 -244
s62 98 62 180c0 85 -13 170 -44 249h134c30 -80 48 -164 48 -249z" />
    <glyph glyph-name="Omicron" unicode="&#x39f;" horiz-adv-x="840" 
d="M800 370c0 -216 -166 -383 -381 -383c-217 0 -389 169 -389 382c0 216 170 383 390 383c211 0 380 -171 380 -382zM662 368c0 142 -107 252 -244 252c-142 0 -250 -108 -250 -251c0 -140 110 -250 250 -250s244 107 244 249z" />
    <glyph glyph-name="omicron" unicode="&#x3bf;" 
d="M619 273c0 -156 -134 -286 -295 -286c-162 0 -294 130 -294 290c0 159 132 290 293 290c167 0 296 -129 296 -294zM485 277c0 92 -72 168 -161 168c-87 0 -160 -75 -160 -166c0 -95 71 -170 161 -170c88 0 160 75 160 168z" />
    <glyph glyph-name="onehalf" unicode="&#xbd;" horiz-adv-x="840" 
d="M600 739l-306 -739h-95l306 739h95zM241 296h-88v363h-59v80h147v-443zM830 305c0 -52 -30 -103 -89 -150l-94 -75h181v-80h-311v74l170 148c42 36 54 58 55 85c0 37 -29 65 -68 65c-45 0 -72 -31 -73 -86h-87c0 108 66 165 159 165c90 0 157 -63 157 -146z" />
    <glyph glyph-name="onequarter" unicode="&#xbc;" horiz-adv-x="840" 
d="M621 739l-306 -739h-95l306 739h95zM836 66h-48v-66h-88v66h-194v67l208 310h74v-301h48v-76zM700 142v154l-102 -154h102zM241 296h-88v363h-59v80h147v-443z" />
    <glyph glyph-name="one.superior" unicode="&#xb9;" horiz-adv-x="336" 
d="M241 296h-88v363h-59v80h147v-443z" />
    <glyph glyph-name="Oogonek" unicode="&#x1ea;" horiz-adv-x="840" 
d="M800 370c0 -151 -81 -278 -204 -341c-56 -29 -122 -63 -122 -120c0 -36 9 -53 38 -53c12 0 28 0 58 13v-100c-32 -13 -54 -19 -76 -19c-69 0 -126 48 -126 115c0 43 27 88 65 122h-14c-217 0 -389 169 -389 382c0 216 170 383 390 383c211 0 380 -171 380 -382zM662 368
c0 142 -107 252 -244 252c-142 0 -250 -108 -250 -251c0 -140 110 -250 250 -250s244 107 244 249z" />
    <glyph glyph-name="oogonek" unicode="&#x1eb;" 
d="M619 273c0 -101 -57 -192 -140 -243c-49 -29 -101 -65 -101 -121c0 -36 9 -53 38 -53c12 0 28 0 58 13v-100c-32 -13 -54 -19 -76 -19c-69 0 -126 48 -126 115c0 43 27 88 65 122h-13c-162 0 -294 130 -294 290c0 159 132 290 293 290c167 0 296 -129 296 -294zM485 277
c0 92 -72 168 -161 168c-87 0 -160 -75 -160 -166c0 -95 71 -170 161 -170c88 0 160 75 160 168z" />
    <glyph glyph-name="openbullet" unicode="&#x25e6;" horiz-adv-x="600" 
d="M471 316c0 -94 -75 -169 -168 -169c-94 0 -169 75 -169 169c0 93 75 168 169 168c93 0 168 -75 168 -168zM333 316c0 16 -14 30 -30 30c-17 0 -31 -14 -31 -30c0 -17 14 -31 31 -31c16 0 30 14 30 31z" />
    <glyph glyph-name="ordfeminine" unicode="&#xaa;" horiz-adv-x="360" 
d="M338 441h-66v41c-25 -33 -62 -51 -102 -51c-80 0 -142 70 -142 161c0 88 65 158 147 158c39 0 71 -17 97 -50v39h66v-298zM266 591c0 48 -35 85 -81 85c-45 0 -81 -39 -81 -87c0 -46 36 -84 81 -84s81 38 81 86zM342 310h-311v70h311v-70z" />
    <glyph glyph-name="ordmasculine" unicode="&#xba;" horiz-adv-x="360" 
d="M338 596c0 -86 -68 -154 -154 -154c-84 0 -153 71 -153 157c0 82 70 151 154 151c85 0 153 -68 153 -154zM265 597c0 45 -37 83 -80 83c-44 0 -81 -37 -81 -81c0 -48 34 -83 80 -83s81 35 81 81zM338 311h-307v70h307v-70z" />
    <glyph glyph-name="Oslash" unicode="&#xd8;" horiz-adv-x="840" 
d="M803 370c0 -216 -167 -383 -382 -383c-60 0 -115 12 -168 36l-60 -88l-96 65l59 87c-80 72 -126 176 -126 283c0 212 172 382 386 382c57 0 110 -11 165 -35l62 92l95 -66l-61 -90c82 -75 126 -174 126 -283zM665 368c0 65 -22 123 -64 172l-272 -405
c31 -11 60 -16 91 -16c140 0 245 107 245 249zM505 605c-29 10 -57 15 -89 15c-138 0 -248 -110 -248 -250c0 -61 23 -121 65 -169z" />
    <glyph glyph-name="oslash" unicode="&#xf8;" horiz-adv-x="660" 
d="M620 277c0 -160 -132 -290 -294 -290c-44 0 -85 9 -126 28l-56 -82l-85 57l57 84c-55 52 -86 126 -86 203c0 160 133 290 296 290c39 0 74 -7 109 -21l52 77l86 -58l-50 -73c64 -59 97 -132 97 -215zM363 440c-15 4 -24 5 -38 5c-88 0 -161 -75 -161 -167
c0 -33 9 -64 27 -93zM486 276c0 39 -12 75 -36 107l-179 -264c19 -7 35 -10 54 -10c89 0 161 75 161 167z" />
    <glyph glyph-name="Oslashacute" unicode="&#x1fe;" horiz-adv-x="840" 
d="M803 370c0 -216 -167 -383 -382 -383c-60 0 -115 12 -168 36l-60 -88l-96 65l59 87c-80 72 -126 176 -126 283c0 212 172 382 386 382c57 0 110 -11 165 -35l62 92l95 -66l-61 -90c82 -75 126 -174 126 -283zM665 368c0 65 -22 123 -64 172l-272 -405
c31 -11 60 -16 91 -16c140 0 245 107 245 249zM505 605c-29 10 -57 15 -89 15c-138 0 -248 -110 -248 -250c0 -61 23 -121 65 -169zM605 899l-227 -120l-51 78l224 134z" />
    <glyph glyph-name="oslashacute" unicode="&#x1ff;" horiz-adv-x="660" 
d="M620 277c0 -160 -132 -290 -294 -290c-44 0 -85 9 -126 28l-56 -82l-85 57l57 84c-55 52 -86 126 -86 203c0 160 133 290 296 290c39 0 74 -7 109 -21l52 77l86 -58l-50 -73c64 -59 97 -132 97 -215zM363 440c-15 4 -24 5 -38 5c-88 0 -161 -75 -161 -167
c0 -33 9 -64 27 -93zM486 276c0 39 -12 75 -36 107l-179 -264c19 -7 35 -10 54 -10c89 0 161 75 161 167zM515 724l-227 -120l-51 78l224 134z" />
    <glyph glyph-name="Otilde" unicode="&#xd5;" horiz-adv-x="840" 
d="M800 370c0 -216 -166 -383 -381 -383c-217 0 -389 169 -389 382c0 216 170 383 390 383c211 0 380 -171 380 -382zM662 368c0 142 -107 252 -244 252c-142 0 -250 -108 -250 -251c0 -140 110 -250 250 -250s244 107 244 249zM585 862c-32 -39 -59 -55 -94 -55
c-24 0 -94 25 -113 25c-25 0 -32 -3 -70 -25l-54 80c35 35 61 47 103 47c24 0 80 -25 107 -25c26 0 46 10 67 34z" />
    <glyph glyph-name="otilde" unicode="&#xf5;" 
d="M619 273c0 -156 -134 -286 -295 -286c-162 0 -294 130 -294 290c0 159 132 290 293 290c167 0 296 -129 296 -294zM485 277c0 92 -72 168 -161 168c-87 0 -160 -75 -160 -166c0 -95 71 -170 161 -170c88 0 160 75 160 168zM488 687c-32 -39 -59 -55 -94 -55
c-24 0 -94 25 -113 25c-25 0 -32 -3 -70 -25l-54 80c35 35 61 47 103 47c24 0 80 -25 107 -25c26 0 46 10 67 34z" />
    <glyph glyph-name="paragraph" unicode="&#xb6;" horiz-adv-x="600" 
d="M527 -128h-101v760h-84v-760h-101v458c-122 2 -204 84 -204 203c0 132 78 206 272 206h218v-867z" />
    <glyph glyph-name="partialdiff" unicode="&#x2202;" horiz-adv-x="494" 
d="M471 370c0 -196 -98 -386 -273 -386c-102 0 -175 94 -175 201c0 129 80 249 201 249c37 0 74 -7 108 -21c-4 121 -31 239 -134 239c-17 0 -39 -24 -55 -41l-102 94c39 41 99 50 157 50c175 0 273 -190 273 -385zM331 296c-31 22 -69 35 -107 35c-59 0 -63 -78 -63 -146
c0 -45 0 -98 37 -98c94 0 125 99 133 209z" />
    <glyph glyph-name="periodcentered" unicode="&#xb7;" horiz-adv-x="280" 
d="M204 250c0 -35 -29 -64 -64 -64s-64 29 -64 64s29 64 64 64s64 -29 64 -64z" />
    <glyph glyph-name="permyriad" unicode="&#x2031;" horiz-adv-x="1693" 
d="M631 739l-306 -739h-102l305 739h103zM1248 168c0 -100 -81 -181 -181 -181s-181 81 -181 180c0 101 80 181 182 181c98 0 180 -82 180 -180zM1141 168c0 40 -34 74 -74 74s-73 -33 -73 -74s33 -74 73 -74s74 34 74 74zM835 168c0 -100 -81 -181 -181 -181
s-181 81 -181 180c0 101 80 181 182 181c98 0 180 -82 180 -180zM728 168c0 40 -34 74 -74 74s-73 -33 -73 -74s33 -74 73 -74s74 34 74 74zM383 572c0 -100 -81 -181 -181 -181s-181 81 -181 180c0 101 80 181 182 181c98 0 180 -82 180 -180zM276 572c0 40 -34 74 -74 74
s-73 -33 -73 -74s33 -74 73 -74s74 34 74 74zM1661 168c0 -100 -81 -181 -181 -181s-181 81 -181 180c0 101 80 181 182 181c98 0 180 -82 180 -180zM1554 168c0 40 -34 74 -74 74s-73 -33 -73 -74s33 -74 73 -74s74 34 74 74z" />
    <glyph glyph-name="perthousand" unicode="&#x2030;" horiz-adv-x="1280" 
d="M631 739l-306 -739h-102l305 739h103zM1248 168c0 -100 -81 -181 -181 -181s-181 81 -181 180c0 101 80 181 182 181c98 0 180 -82 180 -180zM1141 168c0 40 -34 74 -74 74s-73 -33 -73 -74s33 -74 73 -74s74 34 74 74zM835 168c0 -100 -81 -181 -181 -181
s-181 81 -181 180c0 101 80 181 182 181c98 0 180 -82 180 -180zM728 168c0 40 -34 74 -74 74s-73 -33 -73 -74s33 -74 73 -74s74 34 74 74zM383 572c0 -100 -81 -181 -181 -181s-181 81 -181 180c0 101 80 181 182 181c98 0 180 -82 180 -180zM276 572c0 40 -34 74 -74 74
s-73 -33 -73 -74s33 -74 73 -74s74 34 74 74z" />
    <glyph glyph-name="peso" unicode="&#x20b1;" horiz-adv-x="560" 
d="M540 511c0 -85 -37 -160 -97 -197c-41 -25 -89 -33 -194 -33h-44v-48h75v-97h-75v-136h-137v136h-69v97h69v506h183c98 0 147 -9 189 -34c64 -39 100 -109 100 -194zM402 509c0 78 -46 99 -151 99h-46v-196h40c123 0 157 33 157 97z" />
    <glyph glyph-name="Phi" unicode="&#x3a6;" horiz-adv-x="698" 
d="M644 370c0 -127 -101 -222 -227 -247l1 -123h-137v123c-126 25 -227 120 -227 247c0 126 101 221 227 246v123h137v-123c125 -25 226 -120 226 -246zM281 265l-1 209c-50 -17 -88 -53 -88 -104c0 -52 38 -88 89 -105zM506 370c0 51 -38 87 -88 104v-209
c50 17 88 53 88 105z" />
    <glyph glyph-name="phi" unicode="&#x3c6;" horiz-adv-x="797" 
d="M743 277c0 -149 -124 -258 -276 -284l1 -167h-138v167c-153 25 -277 135 -277 284c0 120 69 230 177 283l60 -124c-60 -30 -99 -91 -99 -159c0 -75 61 -125 138 -144l1 117c0 158 66 317 206 317c133 0 207 -143 207 -290zM605 277c0 72 -7 152 -69 152
c-68 0 -68 -96 -68 -179v-117c76 19 137 70 137 144z" />
    <glyph glyph-name="uni03D5" unicode="&#x3d5;" 
d="M619 273c0 -133 -97 -247 -225 -278v-169h-138v169c-129 30 -226 145 -226 282c0 136 97 252 226 282v180h138v-180c131 -31 225 -145 225 -286zM485 277c0 66 -37 124 -91 151v-303c54 27 91 85 91 152zM256 125v304c-54 -27 -92 -84 -92 -150c0 -69 37 -127 92 -154z
" />
    <glyph glyph-name="Pi" unicode="&#x3a0;" horiz-adv-x="629" 
d="M568 0h-141v549h-230v-549h-141v684h512v-684z" />
    <glyph glyph-name="pi" unicode="&#x3c0;" horiz-adv-x="708" 
d="M654 416h-78v-416h-138v416h-60v-416h-138v416h-13c-22 0 -35 -23 -35 -47h-138c0 100 75 185 173 185h427v-138z" />
    <glyph glyph-name="uni03D6" unicode="&#x3d6;" horiz-adv-x="771" 
d="M717 305c0 -158 -62 -318 -200 -318c-59 0 -102 27 -132 71c-31 -43 -74 -71 -131 -71c-138 0 -200 160 -200 318c0 85 18 169 48 249h134c-31 -79 -44 -164 -44 -249c0 -82 0 -180 62 -180c55 0 66 61 69 128c-5 38 -6 77 -6 116h138c0 -108 0 -244 62 -244
s62 98 62 180c0 165 -19 348 -160 348c-79 0 -156 -20 -223 -60l-63 107c87 51 185 78 286 78c206 0 298 -239 298 -473z" />
    <glyph glyph-name="plusminus" unicode="&#xb1;" horiz-adv-x="600" 
d="M546 319h-177v-57h-138v57h-177v138h177v177h138v-177h177v-138zM546 0h-492v138h492v-138z" />
    <glyph glyph-name="Psi" unicode="&#x3a8;" horiz-adv-x="852" 
d="M798 554c0 -173 -134 -311 -303 -340v-214h-137v214c-170 29 -304 167 -304 340v185h138v-185c0 -97 72 -174 166 -199v384h137v-384c93 25 165 102 165 199v185h138v-185z" />
    <glyph glyph-name="psi" unicode="&#x3c8;" horiz-adv-x="797" 
d="M743 185c0 -126 -131 -182 -275 -195v-164h-138v164c-144 13 -275 69 -275 195v369h138v-369c0 -46 65 -56 137 -59v613h138v-613c72 3 137 13 137 59v369h138v-369z" />
    <glyph glyph-name="published" unicode="&#x2117;" horiz-adv-x="740" 
d="M720 337c0 -193 -157 -350 -350 -350s-350 157 -350 350s157 350 350 350s350 -157 350 -350zM660 337c0 160 -130 290 -290 290s-290 -130 -290 -290s130 -290 290 -290s290 130 290 290zM543 409c0 -47 -23 -89 -60 -110c-24 -13 -52 -18 -113 -18h-15v-143h-96v399
h112c58 0 86 -6 110 -19c40 -22 62 -61 62 -109zM447 408c0 35 -25 40 -76 40h-16v-78h13c60 0 79 10 79 38z" />
    <glyph glyph-name="questiondown" unicode="&#xbf;" horiz-adv-x="560" 
d="M528 34c-12 -155 -109 -232 -228 -232c-128 0 -225 98 -225 229c0 67 25 112 102 179c55 48 64 70 65 157h133c0 -125 -22 -173 -122 -255c-30 -25 -45 -55 -45 -85c0 -54 40 -93 95 -93c54 0 83 32 92 100h133zM375 426h-133v128h133v-128z" />
    <glyph glyph-name="quillbracketleft" unicode="&#x2045;" horiz-adv-x="373" 
d="M319 -125c-134 0 -265 64 -265 184v123c0 49 25 93 63 123c-38 31 -63 75 -63 124v123c0 120 131 184 265 184v-122c-61 0 -127 -10 -127 -62v-123c0 -52 66 -62 127 -62v-122c-61 0 -127 -11 -127 -63v-123c0 -52 66 -62 127 -62v-122z" />
    <glyph glyph-name="quillbracketright" unicode="&#x2046;" horiz-adv-x="373" 
d="M319 59c0 -120 -131 -184 -265 -184v122c61 0 127 10 127 62v123c0 52 -66 63 -127 63v122c61 0 127 10 127 62v123c0 52 -66 62 -127 62v122c134 0 265 -64 265 -184v-123c0 -49 -25 -93 -63 -123c38 -31 63 -75 63 -124v-123z" />
    <glyph glyph-name="quotedblbase" unicode="&#x201e;" horiz-adv-x="480" 
d="M203 -7c0 -77 -45 -133 -133 -133v67c42 8 59 24 59 56c0 4 0 11 -1 17h-58v128h133v-135zM410 -7c0 -77 -46 -133 -133 -133v67c42 8 59 24 59 56c0 4 0 11 -1 17h-58v128h133v-135z" />
    <glyph glyph-name="quotedblleft" unicode="&#x201c;" horiz-adv-x="480" 
d="M203 466h-133v140c0 80 51 133 133 133v-67c-43 -8 -59 -23 -59 -58c0 0 0 -9 1 -15h58v-133zM410 466h-133v140c0 80 51 133 133 133v-67c-42 -8 -59 -24 -59 -56c0 -4 0 -11 1 -17h58v-133z" />
    <glyph glyph-name="quotedblright" unicode="&#x201d;" horiz-adv-x="480" 
d="M203 599c0 -77 -46 -133 -133 -133v67c41 8 59 26 59 60c0 4 0 11 -1 18h-58v128h133v-140zM410 599c0 -78 -47 -133 -133 -133v67c42 8 59 25 59 60c0 4 0 11 -1 18h-58v128h133v-140z" />
    <glyph glyph-name="quoteleft" unicode="&#x2018;" horiz-adv-x="280" 
d="M205 466h-133v140c0 80 51 133 133 133v-67c-43 -8 -59 -23 -59 -57c0 -3 0 -10 1 -16h58v-133z" />
    <glyph glyph-name="quoteright" unicode="&#x2019;" horiz-adv-x="280" 
d="M205 599c0 -78 -46 -133 -133 -133v67c42 8 59 25 59 60c0 4 0 11 -1 18h-58v128h133v-140z" />
    <glyph glyph-name="quotesinglbase" unicode="&#x201a;" horiz-adv-x="280" 
d="M203 -7c0 -77 -45 -133 -133 -133v67c42 8 59 24 59 56c0 4 0 11 -1 17h-58v128h133v-135z" />
    <glyph glyph-name="Racute" unicode="&#x154;" horiz-adv-x="580" 
d="M568 0h-169l-194 283v-283h-137v739h213c101 0 154 -14 202 -55c51 -43 78 -107 78 -182c0 -115 -60 -196 -193 -229zM423 498c0 66 -27 110 -157 110h-61v-222h67c106 0 151 34 151 112zM475 899l-227 -120l-51 78l224 134z" />
    <glyph glyph-name="racute" unicode="&#x155;" horiz-adv-x="320" 
d="M306 439c-80 -2 -119 -45 -119 -131v-308h-133v554h122v-54c35 51 63 67 120 67h10v-128zM361 724l-227 -120l-51 78l224 134z" />
    <glyph glyph-name="radical" unicode="&#x221a;" horiz-adv-x="549" 
d="M542 904l-152 -939h-56l-225 460l-95 -47l-39 83l194 94l169 -343l114 705z" />
    <glyph glyph-name="Rcaron" unicode="&#x158;" horiz-adv-x="580" 
d="M568 0h-169l-194 283v-283h-137v739h213c101 0 154 -14 202 -55c51 -43 78 -107 78 -182c0 -115 -60 -196 -193 -229zM423 498c0 66 -27 110 -157 110h-61v-222h67c106 0 151 34 151 112zM490 944l-147 -138h-107l-145 138h145l53 -64l54 64h147z" />
    <glyph glyph-name="rcaron" unicode="&#x159;" horiz-adv-x="320" 
d="M306 439c-80 -2 -119 -45 -119 -131v-308h-133v554h122v-54c35 51 63 67 120 67h10v-128zM376 769l-147 -138h-107l-145 138h145l53 -64l54 64h147z" />
    <glyph glyph-name="Rcommaaccent" unicode="&#x156;" horiz-adv-x="580" 
d="M568 0h-169l-194 283v-283h-137v739h213c101 0 154 -14 202 -55c51 -43 78 -107 78 -182c0 -115 -60 -196 -193 -229zM423 498c0 66 -27 110 -157 110h-61v-222h67c106 0 151 34 151 112zM348 -53l-58 -192h-104l58 192h104z" />
    <glyph glyph-name="rcommaaccent" unicode="&#x157;" horiz-adv-x="320" 
d="M306 439c-80 -2 -119 -45 -119 -131v-308h-133v554h122v-54c35 51 63 67 120 67h10v-128zM178 -53l-58 -192h-104l58 192h104z" />
    <glyph glyph-name="Rdblgrave" unicode="&#x210;" horiz-adv-x="580" 
d="M568 0h-169l-194 283v-283h-137v739h213c101 0 154 -14 202 -55c51 -43 78 -107 78 -182c0 -115 -60 -196 -193 -229zM423 498c0 66 -27 110 -157 110h-61v-222h67c106 0 151 34 151 112zM476 848l-50 -69l-222 132l62 80zM213 848l-51 -69l-221 132l61 80z" />
    <glyph glyph-name="rdblgrave" unicode="&#x211;" horiz-adv-x="320" 
d="M306 439c-80 -2 -119 -45 -119 -131v-308h-133v554h122v-54c35 51 63 67 120 67h10v-128zM362 663l-50 -69l-222 132l62 80zM99 663l-51 -69l-221 132l61 80z" />
    <glyph glyph-name="Rdotaccent" unicode="&#x1e58;" horiz-adv-x="580" 
d="M568 0h-169l-194 283v-283h-137v739h213c101 0 154 -14 202 -55c51 -43 78 -107 78 -182c0 -115 -60 -196 -193 -229zM423 498c0 66 -27 110 -157 110h-61v-222h67c106 0 151 34 151 112zM357 809h-133v133h133v-133z" />
    <glyph glyph-name="rdotaccent" unicode="&#x1e59;" horiz-adv-x="320" 
d="M306 439c-80 -2 -119 -45 -119 -131v-308h-133v554h122v-54c35 51 63 67 120 67h10v-128zM243 634h-133v133h133v-133z" />
    <glyph glyph-name="Rdotbelow" unicode="&#x1e5a;" horiz-adv-x="580" 
d="M568 0h-169l-194 283v-283h-137v739h213c101 0 154 -14 202 -55c51 -43 78 -107 78 -182c0 -115 -60 -196 -193 -229zM423 498c0 66 -27 110 -157 110h-61v-222h67c106 0 151 34 151 112zM357 -212h-133v133h133v-133z" />
    <glyph glyph-name="rdotbelow" unicode="&#x1e5b;" horiz-adv-x="320" 
d="M306 439c-80 -2 -119 -45 -119 -131v-308h-133v554h122v-54c35 51 63 67 120 67h10v-128zM188 -212h-133v133h133v-133z" />
    <glyph glyph-name="Rdotbelowmacron" unicode="&#x1e5c;" horiz-adv-x="580" 
d="M568 0h-169l-194 283v-283h-137v739h213c101 0 154 -14 202 -55c51 -43 78 -107 78 -182c0 -115 -60 -196 -193 -229zM423 498c0 66 -27 110 -157 110h-61v-222h67c106 0 151 34 151 112zM357 -212h-133v133h133v-133zM431 825h-277v100h277v-100z" />
    <glyph glyph-name="rdotbelowmacron" unicode="&#x1e5d;" horiz-adv-x="320" 
d="M306 439c-80 -2 -119 -45 -119 -131v-308h-133v554h122v-54c35 51 63 67 120 67h10v-128zM188 -212h-133v133h133v-133zM317 663h-277v100h277v-100z" />
    <glyph glyph-name="recipe" unicode="&#x211e;" horiz-adv-x="580" 
d="M594 181l-107 -70l81 -111h-169l-26 38l-29 -18l-52 82l26 17l-113 164v-283h-137v739h213c101 0 154 -14 202 -55c51 -43 78 -107 78 -182c0 -115 -60 -196 -193 -229l61 -83l113 73zM423 498c0 66 -27 110 -157 110h-61v-222h67c106 0 151 34 151 112z" />
    <glyph glyph-name="referencemark" unicode="&#x203b;" horiz-adv-x="600" 
d="M523 125l-98 -98l-125 125l-125 -125l-98 98l125 125l-125 125l98 98l125 -125l125 125l98 -98l-125 -125zM364 486c0 -36 -29 -64 -64 -64s-64 28 -64 64c0 35 29 64 64 64s64 -29 64 -64zM364 14c0 -35 -29 -64 -64 -64s-64 29 -64 64c0 36 29 64 64 64s64 -28 64 -64z
M128 250c0 -35 -28 -64 -64 -64c-35 0 -64 29 -64 64s29 64 64 64c36 0 64 -29 64 -64zM600 250c0 -35 -29 -64 -64 -64c-36 0 -64 29 -64 64s28 64 64 64c35 0 64 -29 64 -64z" />
    <glyph glyph-name="registered" unicode="&#xae;" horiz-adv-x="740" 
d="M720 337c0 -193 -157 -350 -350 -350s-350 157 -350 350s157 350 350 350s350 -157 350 -350zM660 337c0 160 -130 290 -290 290s-290 -130 -290 -290s130 -290 290 -290s290 130 290 290zM526 138h-121l-95 126v-126h-96v399h129c60 0 91 -8 119 -30
c31 -24 48 -60 48 -102c0 -59 -31 -103 -100 -123zM423 403c0 33 -15 56 -88 56h-34v-113h37c60 0 85 17 85 57z" />
    <glyph glyph-name="Rho" unicode="&#x3a1;" horiz-adv-x="560" 
d="M540 511c0 -85 -37 -160 -97 -197c-41 -25 -89 -33 -194 -33h-44v-281h-137v739h183c98 0 147 -9 189 -34c64 -39 100 -109 100 -194zM402 509c0 78 -46 99 -151 99h-46v-196h40c123 0 157 33 157 97z" />
    <glyph glyph-name="rho" unicode="&#x3c1;" horiz-adv-x="604" 
d="M550 277c0 -153 -103 -290 -248 -290c-39 0 -77 10 -110 29v-190h-138v451c0 153 103 290 248 290s248 -137 248 -290zM412 277c0 77 -40 152 -110 152s-110 -75 -110 -152v-113c27 -27 69 -39 110 -39c70 0 110 75 110 152z" />
    <glyph glyph-name="ring" unicode="&#x2da;" horiz-adv-x="360" 
d="M293 710c0 -63 -51 -113 -113 -113c-63 0 -113 50 -113 113s50 113 114 113c62 0 112 -51 112 -113zM220 710c0 22 -18 40 -40 40s-40 -18 -40 -40s18 -40 40 -40s40 18 40 40z" />
    <glyph glyph-name="uni030A" unicode="&#x30a;" horiz-adv-x="0" 
d="M-217 710c0 -63 -51 -113 -113 -113c-63 0 -113 50 -113 113s50 113 114 113c62 0 112 -51 112 -113zM-290 710c0 22 -18 40 -40 40s-40 -18 -40 -40s18 -40 40 -40s40 18 40 40z" />
    <glyph glyph-name="ringhalfleft" unicode="&#x2bf;" horiz-adv-x="505" 
d="M450 453c-32 -86 -101 -136 -191 -136c-113 0 -205 90 -205 202c0 113 89 201 203 201c87 0 163 -49 193 -137c2 -6 -2 -11 -7 -11h-100c-3 0 -6 2 -7 4c-17 31 -43 47 -79 47c-57 0 -98 -44 -98 -104s43 -104 100 -104c33 0 57 13 77 45c1 2 4 3 7 3h100c5 0 9 -5 7 -10
z" />
    <glyph glyph-name="ringhalfright" unicode="&#x2be;" horiz-adv-x="505" 
d="M451 518c0 -113 -89 -201 -203 -201c-87 0 -163 49 -193 137c-2 6 2 11 7 11h100c3 0 6 -2 7 -4c17 -31 43 -47 79 -47c57 0 98 44 98 104s-43 104 -100 104c-33 0 -57 -13 -77 -45c-1 -2 -4 -3 -7 -3h-100c-5 0 -9 5 -7 10c32 86 101 136 191 136
c113 0 205 -90 205 -202z" />
    <glyph glyph-name="Sacute" unicode="&#x15a;" horiz-adv-x="520" 
d="M493 224c0 -134 -103 -237 -236 -237c-130 0 -231 84 -243 224h143c6 -62 39 -92 100 -92c59 0 100 37 100 90c0 30 -12 58 -34 75s-30 20 -128 57c-99 37 -154 108 -154 201c0 117 96 210 215 210s212 -80 219 -210h-142c-4 50 -32 78 -78 78c-45 0 -76 -31 -76 -75
c0 -27 14 -50 41 -67c10 -6 12 -7 82 -33c150 -56 191 -121 191 -221zM441 899l-227 -120l-51 78l224 134z" />
    <glyph glyph-name="sacute" unicode="&#x15b;" horiz-adv-x="440" 
d="M420 176c0 -106 -87 -189 -198 -189c-110 0 -189 60 -203 189h134c13 -47 35 -67 74 -67c34 0 60 23 60 54c0 32 -5 41 -94 71c-110 37 -154 83 -154 164c0 95 81 169 184 169c94 0 177 -62 182 -166h-130c-6 29 -24 44 -52 44c-29 0 -51 -20 -51 -47c0 -29 3 -31 94 -60
c116 -36 154 -80 154 -162zM408 724l-227 -120l-51 78l224 134z" />
    <glyph glyph-name="Scaron" unicode="&#x160;" horiz-adv-x="520" 
d="M493 224c0 -134 -103 -237 -236 -237c-130 0 -231 84 -243 224h143c6 -62 39 -92 100 -92c59 0 100 37 100 90c0 30 -12 58 -34 75s-30 20 -128 57c-99 37 -154 108 -154 201c0 117 96 210 215 210s212 -80 219 -210h-142c-4 50 -32 78 -78 78c-45 0 -76 -31 -76 -75
c0 -27 14 -50 41 -67c10 -6 12 -7 82 -33c150 -56 191 -121 191 -221zM456 944l-147 -138h-107l-145 138h145l53 -64l54 64h147z" />
    <glyph glyph-name="scaron" unicode="&#x161;" horiz-adv-x="440" 
d="M420 176c0 -106 -87 -189 -198 -189c-110 0 -189 60 -203 189h134c13 -47 35 -67 74 -67c34 0 60 23 60 54c0 32 -5 41 -94 71c-110 37 -154 83 -154 164c0 95 81 169 184 169c94 0 177 -62 182 -166h-130c-6 29 -24 44 -52 44c-29 0 -51 -20 -51 -47c0 -29 3 -31 94 -60
c116 -36 154 -80 154 -162zM423 769l-147 -138h-107l-145 138h145l53 -64l54 64h147z" />
    <glyph glyph-name="Scedilla" unicode="&#x15e;" horiz-adv-x="520" 
d="M493 224c0 -132 -100 -234 -231 -237l-22 -45c13 5 20 7 29 7c49 0 91 -46 91 -101c0 -59 -39 -98 -96 -98c-51 0 -92 34 -100 84h61c9 -20 21 -29 38 -29c21 0 39 20 39 45c0 24 -17 44 -39 44c-14 0 -24 -7 -38 -27l-52 26l40 97c-108 17 -188 97 -199 221h143
c6 -62 39 -92 100 -92c59 0 100 37 100 90c0 30 -12 58 -34 75s-30 20 -128 57c-99 37 -154 108 -154 201c0 117 96 210 215 210s212 -80 219 -210h-142c-4 50 -32 78 -78 78c-45 0 -76 -31 -76 -75c0 -27 14 -50 41 -67c10 -6 12 -7 82 -33c150 -56 191 -121 191 -221z" />
    <glyph glyph-name="scedilla" unicode="&#x15f;" horiz-adv-x="440" 
d="M420 176c0 -106 -87 -189 -198 -189h-15l-22 -45c13 5 20 7 29 7c49 0 91 -46 91 -101c0 -59 -39 -98 -96 -98c-51 0 -92 34 -100 84h61c9 -20 21 -29 38 -29c21 0 39 20 39 45c0 24 -17 44 -39 44c-14 0 -24 -7 -38 -27l-52 26l42 101c-77 20 -130 79 -141 182h134
c13 -47 35 -67 74 -67c34 0 60 23 60 54c0 32 -5 41 -94 71c-110 37 -154 83 -154 164c0 95 81 169 184 169c94 0 177 -62 182 -166h-130c-6 29 -24 44 -52 44c-29 0 -51 -20 -51 -47c0 -29 3 -31 94 -60c116 -36 154 -80 154 -162z" />
    <glyph glyph-name="schwa" unicode="&#x259;" 
d="M608 279c0 -163 -129 -292 -292 -292c-165 0 -286 126 -286 298c0 20 1 32 5 51h429c-16 67 -74 109 -153 109c-55 0 -88 -15 -122 -55h-145c37 114 152 177 264 177c169 0 300 -126 300 -288zM468 219h-307c17 -71 71 -110 153 -110c79 0 133 39 154 110z" />
    <glyph glyph-name="Scircumflex" unicode="&#x15c;" horiz-adv-x="520" 
d="M493 224c0 -134 -103 -237 -236 -237c-130 0 -231 84 -243 224h143c6 -62 39 -92 100 -92c59 0 100 37 100 90c0 30 -12 58 -34 75s-30 20 -128 57c-99 37 -154 108 -154 201c0 117 96 210 215 210s212 -80 219 -210h-142c-4 50 -32 78 -78 78c-45 0 -76 -31 -76 -75
c0 -27 14 -50 41 -67c10 -6 12 -7 82 -33c150 -56 191 -121 191 -221zM456 806h-145l-53 64l-54 -64h-147l147 138h107z" />
    <glyph glyph-name="scircumflex" unicode="&#x15d;" horiz-adv-x="440" 
d="M420 176c0 -106 -87 -189 -198 -189c-110 0 -189 60 -203 189h134c13 -47 35 -67 74 -67c34 0 60 23 60 54c0 32 -5 41 -94 71c-110 37 -154 83 -154 164c0 95 81 169 184 169c94 0 177 -62 182 -166h-130c-6 29 -24 44 -52 44c-29 0 -51 -20 -51 -47c0 -29 3 -31 94 -60
c116 -36 154 -80 154 -162zM423 631h-145l-53 64l-54 -64h-147l147 138h107z" />
    <glyph glyph-name="uni0218" unicode="&#x218;" horiz-adv-x="520" 
d="M493 224c0 -134 -103 -237 -236 -237c-130 0 -231 84 -243 224h143c6 -62 39 -92 100 -92c59 0 100 37 100 90c0 30 -12 58 -34 75s-30 20 -128 57c-99 37 -154 108 -154 201c0 117 96 210 215 210s212 -80 219 -210h-142c-4 50 -32 78 -78 78c-45 0 -76 -31 -76 -75
c0 -27 14 -50 41 -67c10 -6 12 -7 82 -33c150 -56 191 -121 191 -221zM314 -53l-58 -192h-104l58 192h104z" />
    <glyph glyph-name="uni0219" unicode="&#x219;" horiz-adv-x="440" 
d="M420 176c0 -106 -87 -189 -198 -189c-110 0 -189 60 -203 189h134c13 -47 35 -67 74 -67c34 0 60 23 60 54c0 32 -5 41 -94 71c-110 37 -154 83 -154 164c0 95 81 169 184 169c94 0 177 -62 182 -166h-130c-6 29 -24 44 -52 44c-29 0 -51 -20 -51 -47c0 -29 3 -31 94 -60
c116 -36 154 -80 154 -162zM281 -53l-58 -192h-104l58 192h104z" />
    <glyph glyph-name="Sdotbelow" unicode="&#x1e62;" horiz-adv-x="520" 
d="M493 224c0 -134 -103 -237 -236 -237c-130 0 -231 84 -243 224h143c6 -62 39 -92 100 -92c59 0 100 37 100 90c0 30 -12 58 -34 75s-30 20 -128 57c-99 37 -154 108 -154 201c0 117 96 210 215 210s212 -80 219 -210h-142c-4 50 -32 78 -78 78c-45 0 -76 -31 -76 -75
c0 -27 14 -50 41 -67c10 -6 12 -7 82 -33c150 -56 191 -121 191 -221zM323 -212h-133v133h133v-133z" />
    <glyph glyph-name="sdotbelow" unicode="&#x1e63;" horiz-adv-x="440" 
d="M420 176c0 -106 -87 -189 -198 -189c-110 0 -189 60 -203 189h134c13 -47 35 -67 74 -67c34 0 60 23 60 54c0 32 -5 41 -94 71c-110 37 -154 83 -154 164c0 95 81 169 184 169c94 0 177 -62 182 -166h-130c-6 29 -24 44 -52 44c-29 0 -51 -20 -51 -47c0 -29 3 -31 94 -60
c116 -36 154 -80 154 -162zM290 -212h-133v133h133v-133z" />
    <glyph glyph-name="section" unicode="&#xa7;" horiz-adv-x="560" 
d="M529 292c0 -54 -27 -106 -75 -142c35 -36 50 -71 50 -119c0 -110 -89 -188 -215 -188c-127 0 -218 75 -229 212h134c0 -60 34 -90 96 -90c50 0 87 28 87 65c0 28 -15 43 -73 73l-163 84c-68 35 -101 86 -101 160c0 61 23 105 78 146c-19 29 -28 58 -28 93
c0 98 83 166 201 166c119 0 190 -65 206 -189h-126c-9 46 -35 67 -86 67c-42 0 -68 -19 -68 -48c0 -28 21 -51 61 -70l164 -81c53 -26 87 -80 87 -139zM405 278c0 24 -12 37 -60 61l-149 74c-28 -22 -39 -38 -39 -59c0 -23 17 -41 60 -63l151 -76c23 16 37 40 37 63z" />
    <glyph glyph-name="servicemark" unicode="&#x2120;" horiz-adv-x="1065" 
d="M395 443c0 -80 -73 -143 -168 -143c-98 0 -171 56 -173 147h117c0 -35 19 -51 56 -51c31 0 55 15 55 38c0 13 -6 25 -17 32c-13 8 -19 10 -82 30c-72 22 -111 66 -111 122c0 71 68 128 154 128c90 0 158 -54 157 -139h-117c3 28 -13 43 -40 43c-23 0 -40 -12 -40 -30
c0 -11 8 -19 21 -26c7 -4 8 -4 53 -18c107 -33 135 -74 135 -133zM1011 739v-432h-113v263l-110 -263h-88l-110 263v-263h-113v432h143l125 -293l123 293h143z" />
    <glyph glyph-name="uni00AD" unicode="&#xad;" horiz-adv-x="420" 
d="M351 229h-277v118h277v-118z" />
    <glyph glyph-name="Sigma" unicode="&#x3a3;" horiz-adv-x="462" 
d="M451 0h-441l-1 115l138 236l-126 211v122h410v-135h-240l118 -198l-129 -217h271v-134z" />
    <glyph glyph-name="sigma" unicode="&#x3c3;" horiz-adv-x="732" 
d="M705 504c-42 -19 -86 -32 -130 -41c43 -51 68 -117 68 -190c0 -156 -134 -286 -295 -286c-162 0 -294 130 -294 290c0 159 132 290 293 290c25 0 50 -3 73 -9c79 12 156 40 229 72zM509 277c0 92 -72 168 -161 168c-87 0 -160 -75 -160 -166c0 -95 71 -170 161 -170
c88 0 160 75 160 168z" />
    <glyph glyph-name="uni03C2" unicode="&#x3c2;" horiz-adv-x="541" 
d="M480 -174h-124v122c0 26 -14 52 -38 52h-33c-138 0 -231 136 -231 284c0 147 93 283 231 283c104 0 188 -84 195 -190l-124 -7c-2 35 -35 59 -71 59c-64 0 -93 -73 -93 -145c0 -73 29 -146 93 -146h33c95 0 162 -90 162 -190v-122z" />
    <glyph glyph-name="star" unicode="&#x22c6;" horiz-adv-x="560" 
d="M548 302l-207 -55l135 -166l-80 -58l-116 180l-116 -180l-80 58l135 166l-207 55l30 94l200 -77l-11 214h98l-11 -214l200 77z" />
    <glyph glyph-name="sterling" unicode="&#xa3;" horiz-adv-x="560" 
d="M563 222c0 -65 -28 -127 -75 -168c-47 -40 -95 -54 -187 -54h-260v125h139c13 22 20 46 20 73c0 41 -16 73 -58 112h-142v125h58c-12 27 -17 51 -17 81c0 132 106 236 239 236c127 0 223 -86 234 -211h-135c-15 57 -50 89 -98 89c-60 0 -107 -52 -107 -119
c0 -30 9 -54 27 -76h207v-125h-107c23 -45 32 -75 32 -110c0 -21 -5 -52 -13 -75c73 0 110 40 110 95c0 16 -2 28 -10 54h132c8 -21 11 -34 11 -52z" />
    <glyph glyph-name="summation" unicode="&#x2211;" horiz-adv-x="713" 
d="M632 -123h-551v138l157 300l-157 299v138h551v-138h-395l156 -300l-156 -299h395v-138z" />
    <glyph glyph-name="Tau" unicode="&#x3a4;" horiz-adv-x="420" 
d="M418 608h-137v-608h-137v608h-137v131h411v-131z" />
    <glyph glyph-name="tau" unicode="&#x3c4;" horiz-adv-x="390" 
d="M336 -14c-121 0 -210 110 -210 236v194h-72v138h282v-138h-72v-194c0 -50 27 -98 72 -98v-138z" />
    <glyph glyph-name="Tcaron" unicode="&#x164;" horiz-adv-x="420" 
d="M418 608h-137v-608h-137v608h-137v131h411v-131zM413 944l-147 -138h-107l-145 138h145l53 -64l54 64h147z" />
    <glyph glyph-name="tcaron" unicode="&#x165;" horiz-adv-x="300" 
d="M287 433h-80v-433h-133v433h-65v121h65v185h133v-185h80v-121zM396 773l-58 -192h-104l58 192h104z" />
    <glyph glyph-name="Tcedilla" unicode="&#x162;" horiz-adv-x="420" 
d="M418 608h-137v-608h-62l-29 -58c13 5 20 7 29 7c49 0 91 -46 91 -101c0 -59 -39 -98 -96 -98c-51 0 -92 34 -100 84h61c9 -20 21 -29 38 -29c21 0 39 20 39 45c0 24 -17 44 -39 44c-14 0 -24 -7 -38 -27l-52 26l44 107h-23v608h-137v131h411v-131z" />
    <glyph glyph-name="tcedilla" unicode="&#x163;" horiz-adv-x="300" 
d="M287 433h-80v-433h-58l-29 -58c13 5 20 7 29 7c49 0 91 -46 91 -101c0 -59 -39 -98 -96 -98c-51 0 -92 34 -100 84h61c9 -20 21 -29 38 -29c21 0 39 20 39 45c0 24 -17 44 -39 44c-14 0 -24 -7 -38 -27l-52 26l44 107h-23v433h-65v121h65v185h133v-185h80v-121z" />
    <glyph glyph-name="uni021A" unicode="&#x21a;" horiz-adv-x="420" 
d="M418 608h-137v-608h-137v608h-137v131h411v-131zM270 -53l-58 -192h-104l58 192h104z" />
    <glyph glyph-name="uni021B" unicode="&#x21b;" horiz-adv-x="300" 
d="M287 433h-80v-433h-133v433h-65v121h65v185h133v-185h80v-121zM198 -53l-58 -192h-104l58 192h104z" />
    <glyph glyph-name="tdieresis" unicode="&#x1e97;" horiz-adv-x="300" 
d="M287 433h-80v-433h-133v433h-65v121h65v185h133v-185h80v-121zM98 809h-133v133h133v-133zM308 809h-133v133h133v-133z" />
    <glyph glyph-name="Tdotbelow" unicode="&#x1e6c;" horiz-adv-x="420" 
d="M418 608h-137v-608h-137v608h-137v131h411v-131zM280 -212h-133v133h133v-133z" />
    <glyph glyph-name="tdotbelow" unicode="&#x1e6d;" horiz-adv-x="300" 
d="M287 433h-80v-433h-133v433h-65v121h65v185h133v-185h80v-121zM208 -212h-133v133h133v-133z" />
    <glyph glyph-name="Theta" unicode="&#x398;" horiz-adv-x="840" 
d="M800 370c0 -216 -166 -383 -381 -383c-217 0 -389 169 -389 382c0 216 170 383 390 383c211 0 380 -171 380 -382zM662 368c0 142 -107 252 -244 252c-142 0 -250 -108 -250 -251c0 -140 110 -250 250 -250s244 107 244 249zM555 301h-280v138h280v-138z" />
    <glyph glyph-name="theta" unicode="&#x3b8;" horiz-adv-x="554" 
d="M500 342c0 -176 -69 -355 -223 -355s-223 179 -223 355c0 198 51 410 223 410s223 -212 223 -410zM361 411c-2 104 -15 203 -84 203s-82 -99 -84 -203h168zM361 273h-168c3 -78 18 -148 84 -148s81 70 84 148z" />
    <glyph glyph-name="uni03D1" unicode="&#x3d1;" horiz-adv-x="619" 
d="M565 381l-69 1v-160c0 -128 -96 -235 -221 -235s-221 107 -221 235v147h138v-147c0 -51 34 -97 83 -97s83 46 83 97v167c-156 16 -284 63 -284 202c0 114 88 210 201 210c127 0 221 -115 221 -247v-48l69 -1v-124zM358 554c0 62 -28 123 -83 123c-44 0 -77 -40 -77 -86
c0 -50 70 -71 160 -79v42z" />
    <glyph glyph-name="Thorn" unicode="&#xde;" horiz-adv-x="560" 
d="M540 380c0 -86 -37 -161 -97 -198c-41 -25 -90 -33 -194 -33h-44v-149h-137v739h137v-131h46c98 0 147 -9 189 -34c64 -39 100 -109 100 -194zM402 377c0 79 -45 100 -151 100h-46v-197h40c124 0 157 34 157 97z" />
    <glyph glyph-name="thorn" unicode="&#xfe;" horiz-adv-x="660" 
d="M634 277c0 -169 -115 -290 -275 -290c-70 0 -129 25 -172 72v-244h-133v924h133v-244c43 47 102 72 172 72c160 0 275 -122 275 -290zM500 277c0 95 -69 168 -159 168c-92 0 -162 -72 -162 -166c0 -98 69 -170 162 -170c90 0 159 73 159 168z" />
    <glyph glyph-name="threequarters" unicode="&#xbe;" horiz-adv-x="840" 
d="M651 739l-306 -739h-95l306 739h95zM836 66h-48v-66h-88v66h-194v67l208 310h74v-301h48v-76zM700 142v154l-102 -154h102zM331 439c0 -87 -68 -151 -161 -151c-94 0 -161 60 -166 147h88c6 -42 35 -68 78 -68c42 0 74 29 74 69c0 43 -37 70 -95 70h-21v82
c61 1 83 12 83 42c0 22 -18 38 -43 38s-37 -11 -42 -40h-89c8 82 63 118 130 118c76 0 132 -51 132 -121c0 -32 -12 -57 -34 -74c42 -20 66 -60 66 -112z" />
    <glyph glyph-name="three.superior" unicode="&#xb3;" horiz-adv-x="336" 
d="M331 439c0 -87 -68 -151 -161 -151c-94 0 -161 60 -166 147h88c6 -42 35 -68 78 -68c42 0 74 29 74 69c0 43 -37 70 -95 70h-21v82c61 1 83 12 83 42c0 22 -18 38 -43 38s-37 -11 -42 -40h-89c8 82 63 118 130 118c76 0 132 -51 132 -121c0 -32 -12 -57 -34 -74
c42 -20 66 -60 66 -112z" />
    <glyph glyph-name="tilde" unicode="&#x2dc;" horiz-adv-x="480" 
d="M405 687c-32 -39 -59 -55 -94 -55c-24 0 -94 25 -113 25c-25 0 -32 -3 -70 -25l-54 80c35 35 61 47 103 47c24 0 80 -25 107 -25c26 0 46 10 67 34z" />
    <glyph glyph-name="uni0330" unicode="&#x330;" horiz-adv-x="0" 
d="M-165 -159c-32 -39 -59 -55 -94 -55c-24 0 -94 25 -113 25c-25 0 -32 -3 -70 -25l-54 80c35 35 61 47 103 47c24 0 80 -25 107 -25c26 0 46 10 67 34z" />
    <glyph glyph-name="uni0303" unicode="&#x303;" horiz-adv-x="0" 
d="M-165 687c-32 -39 -59 -55 -94 -55c-24 0 -94 25 -113 25c-25 0 -32 -3 -70 -25l-54 80c35 35 61 47 103 47c24 0 80 -25 107 -25c26 0 46 10 67 34z" />
    <glyph glyph-name="Tlinebelow" unicode="&#x1e6e;" horiz-adv-x="420" 
d="M418 608h-137v-608h-137v608h-137v131h411v-131zM354 -196h-277v100h277v-100z" />
    <glyph glyph-name="tlinebelow" unicode="&#x1e6f;" horiz-adv-x="300" 
d="M287 433h-80v-433h-133v433h-65v121h65v185h133v-185h80v-121zM282 -196h-277v100h277v-100z" />
    <glyph glyph-name="trademark" unicode="&#x2122;" horiz-adv-x="1000" 
d="M349 643h-91v-336h-113v336h-91v96h295v-96zM946 739v-432h-113v263l-110 -263h-88l-110 263v-263h-113v432h143l125 -293l123 293h143z" />
    <glyph glyph-name="two.superior" unicode="&#xb2;" horiz-adv-x="336" 
d="M326 601c0 -52 -30 -103 -89 -150l-94 -75h181v-80h-311v74l170 148c42 36 54 58 55 85c0 37 -29 65 -68 65c-45 0 -72 -31 -73 -86h-87c0 107 65 165 159 165c90 0 157 -63 157 -146z" />
    <glyph glyph-name="Uacute" unicode="&#xda;" 
d="M567 271c0 -189 -104 -284 -250 -284c-145 0 -249 96 -249 284v468h137v-468c0 -115 43 -152 113 -152c68 0 112 36 112 152v468h137v-468zM503 899l-227 -120l-51 78l224 134z" />
    <glyph glyph-name="uacute" unicode="&#xfa;" horiz-adv-x="600" 
d="M547 0h-123v53c-50 -49 -92 -66 -159 -66c-129 0 -211 75 -211 270v297h133v-271c0 -147 41 -174 105 -174c45 0 81 19 101 51c15 25 21 59 21 133v261h133v-554zM486 724l-227 -120l-51 78l224 134z" />
    <glyph glyph-name="Ubreve" unicode="&#x16c;" 
d="M567 271c0 -189 -104 -284 -250 -284c-145 0 -249 96 -249 284v468h137v-468c0 -115 43 -152 113 -152c68 0 112 36 112 152v468h137v-468zM483 945c-3 -83 -69 -139 -164 -139c-99 0 -160 51 -166 139h98c12 -29 35 -43 68 -43c35 0 57 15 62 43h102z" />
    <glyph glyph-name="ubreve" unicode="&#x16d;" horiz-adv-x="600" 
d="M547 0h-123v53c-50 -49 -92 -66 -159 -66c-129 0 -211 75 -211 270v297h133v-271c0 -147 41 -174 105 -174c45 0 81 19 101 51c15 25 21 59 21 133v261h133v-554zM465 770c-3 -83 -69 -139 -164 -139c-99 0 -160 51 -166 139h98c12 -29 35 -43 68 -43c35 0 57 15 62 43
h102z" />
    <glyph glyph-name="Ucircumflex" unicode="&#xdb;" 
d="M567 271c0 -189 -104 -284 -250 -284c-145 0 -249 96 -249 284v468h137v-468c0 -115 43 -152 113 -152c68 0 112 36 112 152v468h137v-468zM518 806h-145l-53 64l-54 -64h-147l147 138h107z" />
    <glyph glyph-name="ucircumflex" unicode="&#xfb;" horiz-adv-x="600" 
d="M547 0h-123v53c-50 -49 -92 -66 -159 -66c-129 0 -211 75 -211 270v297h133v-271c0 -147 41 -174 105 -174c45 0 81 19 101 51c15 25 21 59 21 133v261h133v-554zM501 631h-145l-53 64l-54 -64h-147l147 138h107z" />
    <glyph glyph-name="Udblgrave" unicode="&#x214;" 
d="M567 271c0 -189 -104 -284 -250 -284c-145 0 -249 96 -249 284v468h137v-468c0 -115 43 -152 113 -152c68 0 112 36 112 152v468h137v-468zM504 848l-50 -69l-222 132l62 80zM241 848l-51 -69l-221 132l61 80z" />
    <glyph glyph-name="udblgrave" unicode="&#x215;" horiz-adv-x="600" 
d="M547 0h-123v53c-50 -49 -92 -66 -159 -66c-129 0 -211 75 -211 270v297h133v-271c0 -147 41 -174 105 -174c45 0 81 19 101 51c15 25 21 59 21 133v261h133v-554zM487 663l-50 -69l-222 132l62 80zM224 663l-51 -69l-221 132l61 80z" />
    <glyph glyph-name="Udieresis" unicode="&#xdc;" 
d="M567 271c0 -189 -104 -284 -250 -284c-145 0 -249 96 -249 284v468h137v-468c0 -115 43 -152 113 -152c68 0 112 36 112 152v468h137v-468zM275 809h-133v133h133v-133zM485 809h-133v133h133v-133z" />
    <glyph glyph-name="udieresis" unicode="&#xfc;" horiz-adv-x="600" 
d="M547 0h-123v53c-50 -49 -92 -66 -159 -66c-129 0 -211 75 -211 270v297h133v-271c0 -147 41 -174 105 -174c45 0 81 19 101 51c15 25 21 59 21 133v261h133v-554zM258 634h-133v133h133v-133zM468 634h-133v133h133v-133z" />
    <glyph glyph-name="Udotbelow" unicode="&#x1ee4;" 
d="M567 271c0 -189 -104 -284 -250 -284c-145 0 -249 96 -249 284v468h137v-468c0 -115 43 -152 113 -152c68 0 112 36 112 152v468h137v-468zM385 -212h-133v133h133v-133z" />
    <glyph glyph-name="udotbelow" unicode="&#x1ee5;" horiz-adv-x="600" 
d="M547 0h-123v53c-50 -49 -92 -66 -159 -66c-129 0 -211 75 -211 270v297h133v-271c0 -147 41 -174 105 -174c45 0 81 19 101 51c15 25 21 59 21 133v261h133v-554zM368 -212h-133v133h133v-133z" />
    <glyph glyph-name="Ugrave" unicode="&#xd9;" 
d="M567 271c0 -189 -104 -284 -250 -284c-145 0 -249 96 -249 284v468h137v-468c0 -115 43 -152 113 -152c68 0 112 36 112 152v468h137v-468zM411 857l-51 -78l-227 120l54 92z" />
    <glyph glyph-name="ugrave" unicode="&#xf9;" horiz-adv-x="600" 
d="M547 0h-123v53c-50 -49 -92 -66 -159 -66c-129 0 -211 75 -211 270v297h133v-271c0 -147 41 -174 105 -174c45 0 81 19 101 51c15 25 21 59 21 133v261h133v-554zM394 682l-51 -78l-227 120l54 92z" />
    <glyph glyph-name="Uhookabove" unicode="&#x1ee6;" 
d="M567 271c0 -189 -104 -284 -250 -284c-145 0 -249 96 -249 284v468h137v-468c0 -115 43 -152 113 -152c68 0 112 36 112 152v468h137v-468zM446 949c0 -33 -15 -56 -58 -85c-28 -19 -32 -29 -32 -71h-85v15c0 54 15 76 69 113c13 9 21 19 21 30c0 18 -18 32 -45 32
c-24 0 -38 -14 -43 -44h-84c4 87 64 119 129 119c72 0 128 -47 128 -109z" />
    <glyph glyph-name="uhookabove" unicode="&#x1ee7;" horiz-adv-x="600" 
d="M547 0h-123v53c-50 -49 -92 -66 -159 -66c-129 0 -211 75 -211 270v297h133v-271c0 -147 41 -174 105 -174c45 0 81 19 101 51c15 25 21 59 21 133v261h133v-554zM429 764c0 -33 -15 -56 -58 -85c-28 -19 -32 -29 -32 -71h-85v15c0 54 15 76 69 113c13 9 21 19 21 30
c0 18 -18 32 -45 32c-24 0 -38 -14 -43 -44h-84c4 87 64 119 129 119c72 0 128 -47 128 -109z" />
    <glyph glyph-name="Uhorn" unicode="&#x1af;" horiz-adv-x="748" 
d="M724 739c0 -132 -83 -213 -157 -249v-219c0 -86 -14 -141 -50 -189c-44 -59 -120 -95 -200 -95c-86 0 -166 42 -209 110c-28 45 -40 95 -40 174v468h137v-468c0 -55 4 -78 18 -102c19 -31 55 -50 95 -50c39 0 75 19 94 50c14 24 18 47 18 102v468h137v-139
c32 26 62 69 62 139h95z" />
    <glyph glyph-name="uhorn" unicode="&#x1b0;" horiz-adv-x="729" 
d="M703 554c0 -131 -82 -212 -156 -248v-306h-123v53c-50 -49 -92 -66 -159 -66c-72 0 -132 29 -169 82c-31 46 -42 94 -42 188v297h133v-271c0 -74 8 -115 27 -139c18 -24 44 -35 78 -35c45 0 82 19 101 51c16 24 21 60 21 133v261h133v-138c32 26 61 68 61 138h95z" />
    <glyph glyph-name="Uhornacute" unicode="&#x1ee8;" horiz-adv-x="748" 
d="M724 739c0 -132 -83 -213 -157 -249v-219c0 -86 -14 -141 -50 -189c-44 -59 -120 -95 -200 -95c-86 0 -166 42 -209 110c-28 45 -40 95 -40 174v468h137v-468c0 -55 4 -78 18 -102c19 -31 55 -50 95 -50c39 0 75 19 94 50c14 24 18 47 18 102v468h137v-139
c32 26 62 69 62 139h95zM503 899l-227 -120l-51 78l224 134z" />
    <glyph glyph-name="uhornacute" unicode="&#x1ee9;" horiz-adv-x="729" 
d="M703 554c0 -131 -82 -212 -156 -248v-306h-123v53c-50 -49 -92 -66 -159 -66c-72 0 -132 29 -169 82c-31 46 -42 94 -42 188v297h133v-271c0 -74 8 -115 27 -139c18 -24 44 -35 78 -35c45 0 82 19 101 51c16 24 21 60 21 133v261h133v-138c32 26 61 68 61 138h95z
M486 724l-227 -120l-51 78l224 134z" />
    <glyph glyph-name="Uhorndotbelow" unicode="&#x1ef0;" horiz-adv-x="748" 
d="M724 739c0 -132 -83 -213 -157 -249v-219c0 -86 -14 -141 -50 -189c-44 -59 -120 -95 -200 -95c-86 0 -166 42 -209 110c-28 45 -40 95 -40 174v468h137v-468c0 -55 4 -78 18 -102c19 -31 55 -50 95 -50c39 0 75 19 94 50c14 24 18 47 18 102v468h137v-139
c32 26 62 69 62 139h95zM385 -212h-133v133h133v-133z" />
    <glyph glyph-name="uhorndotbelow" unicode="&#x1ef1;" horiz-adv-x="729" 
d="M703 554c0 -131 -82 -212 -156 -248v-306h-123v53c-50 -49 -92 -66 -159 -66c-72 0 -132 29 -169 82c-31 46 -42 94 -42 188v297h133v-271c0 -74 8 -115 27 -139c18 -24 44 -35 78 -35c45 0 82 19 101 51c16 24 21 60 21 133v261h133v-138c32 26 61 68 61 138h95z
M368 -212h-133v133h133v-133z" />
    <glyph glyph-name="Uhorngrave" unicode="&#x1eea;" horiz-adv-x="748" 
d="M724 739c0 -132 -83 -213 -157 -249v-219c0 -86 -14 -141 -50 -189c-44 -59 -120 -95 -200 -95c-86 0 -166 42 -209 110c-28 45 -40 95 -40 174v468h137v-468c0 -55 4 -78 18 -102c19 -31 55 -50 95 -50c39 0 75 19 94 50c14 24 18 47 18 102v468h137v-139
c32 26 62 69 62 139h95zM411 857l-51 -78l-227 120l54 92z" />
    <glyph glyph-name="uhorngrave" unicode="&#x1eeb;" horiz-adv-x="729" 
d="M703 554c0 -131 -82 -212 -156 -248v-306h-123v53c-50 -49 -92 -66 -159 -66c-72 0 -132 29 -169 82c-31 46 -42 94 -42 188v297h133v-271c0 -74 8 -115 27 -139c18 -24 44 -35 78 -35c45 0 82 19 101 51c16 24 21 60 21 133v261h133v-138c32 26 61 68 61 138h95z
M394 682l-51 -78l-227 120l54 92z" />
    <glyph glyph-name="Uhornhookabove" unicode="&#x1eec;" horiz-adv-x="748" 
d="M724 739c0 -132 -83 -213 -157 -249v-219c0 -86 -14 -141 -50 -189c-44 -59 -120 -95 -200 -95c-86 0 -166 42 -209 110c-28 45 -40 95 -40 174v468h137v-468c0 -55 4 -78 18 -102c19 -31 55 -50 95 -50c39 0 75 19 94 50c14 24 18 47 18 102v468h137v-139
c32 26 62 69 62 139h95zM446 949c0 -33 -15 -56 -58 -85c-28 -19 -32 -29 -32 -71h-85v15c0 54 15 76 69 113c13 9 21 19 21 30c0 18 -18 32 -45 32c-24 0 -38 -14 -43 -44h-84c4 87 64 119 129 119c72 0 128 -47 128 -109z" />
    <glyph glyph-name="uhornhookabove" unicode="&#x1eed;" horiz-adv-x="729" 
d="M703 554c0 -131 -82 -212 -156 -248v-306h-123v53c-50 -49 -92 -66 -159 -66c-72 0 -132 29 -169 82c-31 46 -42 94 -42 188v297h133v-271c0 -74 8 -115 27 -139c18 -24 44 -35 78 -35c45 0 82 19 101 51c16 24 21 60 21 133v261h133v-138c32 26 61 68 61 138h95z
M429 764c0 -33 -15 -56 -58 -85c-28 -19 -32 -29 -32 -71h-85v15c0 54 15 76 69 113c13 9 21 19 21 30c0 18 -18 32 -45 32c-24 0 -38 -14 -43 -44h-84c4 87 64 119 129 119c72 0 128 -47 128 -109z" />
    <glyph glyph-name="Uhorntilde" unicode="&#x1eee;" horiz-adv-x="748" 
d="M724 739c0 -132 -83 -213 -157 -249v-219c0 -86 -14 -141 -50 -189c-44 -59 -120 -95 -200 -95c-86 0 -166 42 -209 110c-28 45 -40 95 -40 174v468h137v-468c0 -55 4 -78 18 -102c19 -31 55 -50 95 -50c39 0 75 19 94 50c14 24 18 47 18 102v468h137v-139
c32 26 62 69 62 139h95zM483 862c-32 -39 -59 -55 -94 -55c-24 0 -94 25 -113 25c-25 0 -32 -3 -70 -25l-54 80c35 35 61 47 103 47c24 0 80 -25 107 -25c26 0 46 10 67 34z" />
    <glyph glyph-name="uhorntilde" unicode="&#x1eef;" horiz-adv-x="729" 
d="M703 554c0 -131 -82 -212 -156 -248v-306h-123v53c-50 -49 -92 -66 -159 -66c-72 0 -132 29 -169 82c-31 46 -42 94 -42 188v297h133v-271c0 -74 8 -115 27 -139c18 -24 44 -35 78 -35c45 0 82 19 101 51c16 24 21 60 21 133v261h133v-138c32 26 61 68 61 138h95z
M466 687c-32 -39 -59 -55 -94 -55c-24 0 -94 25 -113 25c-25 0 -32 -3 -70 -25l-54 80c35 35 61 47 103 47c24 0 80 -25 107 -25c26 0 46 10 67 34z" />
    <glyph glyph-name="Uhungarumlaut" unicode="&#x170;" 
d="M567 271c0 -189 -104 -284 -250 -284c-145 0 -249 96 -249 284v468h137v-468c0 -115 43 -152 113 -152c68 0 112 36 112 152v468h137v-468zM404 911l-222 -132l-50 69l210 143zM667 911l-221 -132l-51 69l211 143z" />
    <glyph glyph-name="uhungarumlaut" unicode="&#x171;" horiz-adv-x="600" 
d="M547 0h-123v53c-50 -49 -92 -66 -159 -66c-129 0 -211 75 -211 270v297h133v-271c0 -147 41 -174 105 -174c45 0 81 19 101 51c15 25 21 59 21 133v261h133v-554zM387 726l-222 -132l-50 69l210 143zM650 726l-221 -132l-51 69l211 143z" />
    <glyph glyph-name="Umacron" unicode="&#x16a;" 
d="M567 271c0 -189 -104 -284 -250 -284c-145 0 -249 96 -249 284v468h137v-468c0 -115 43 -152 113 -152c68 0 112 36 112 152v468h137v-468zM459 825h-277v100h277v-100z" />
    <glyph glyph-name="umacron" unicode="&#x16b;" horiz-adv-x="600" 
d="M547 0h-123v53c-50 -49 -92 -66 -159 -66c-129 0 -211 75 -211 270v297h133v-271c0 -147 41 -174 105 -174c45 0 81 19 101 51c15 25 21 59 21 133v261h133v-554zM442 650h-277v100h277v-100z" />
    <glyph glyph-name="uni0400" unicode="&#x400;" horiz-adv-x="519" 
d="M355 891l-53 -79l-226 124l57 88zM535 0h-467v739h467v-131h-330v-174h319v-131h-319v-172h330v-131z" />
    <glyph glyph-name="uni040D" unicode="&#x40d;" horiz-adv-x="735" 
d="M421 891l-53 -79l-226 124l57 88zM667 0h-137v537l-309 -537h-153v739h137v-538l306 538h156v-739z" />
    <glyph glyph-name="uni0450" unicode="&#x450;" horiz-adv-x="632" 
d="M375 706l-53 -79l-226 124l57 88zM608 269c0 -20 -1 -32 -5 -51h-429c16 -67 74 -109 153 -109c55 0 88 15 122 55h145c-9 -28 -23 -51 -44 -77c-58 -67 -129 -100 -220 -100c-169 0 -300 126 -300 288c0 163 129 292 292 292c165 0 286 -126 286 -298zM477 335
c-17 71 -71 110 -153 110c-79 0 -133 -39 -154 -110h307z" />
    <glyph glyph-name="uni045D" unicode="&#x45d;" horiz-adv-x="601" 
d="M353 706l-53 -79l-226 124l57 88zM547 0h-133v363l-212 -363h-148v554h133v-363l212 363h148v-554z" />
    <glyph glyph-name="uni048C" unicode="&#x48c;" horiz-adv-x="572" 
d="M402 230c0 36 -16 64 -45 80c-21 11 -59 17 -112 17h-40v-196h46c45 0 65 2 87 7c40 11 64 46 64 92zM540 228c0 -85 -36 -155 -100 -194c-42 -25 -91 -34 -189 -34h-183v559h-72v100h72v80h137v-80h68v-100h-68v-101h44c105 0 153 -8 194 -33c60 -37 97 -112 97 -197z
" />
    <glyph glyph-name="uni048D" unicode="&#x48d;" horiz-adv-x="468" 
d="M324 178c0 22 -14 56 -76 56h-48v-114h51c61 0 73 36 73 58zM447 165c0 -57 -26 -106 -72 -134c-34 -21 -99 -31 -160 -31h-148v400h-61v100h61v54h133v-54h68v-100h-68v-53c124 1 246 -29 247 -182z" />
    <glyph glyph-name="uni048E" unicode="&#x48e;" horiz-adv-x="572" 
d="M402 509c0 46 -24 81 -64 92c-22 5 -42 7 -87 7h-46v-196h40c15 0 28 0 40 1l-30 31l71 70l60 -60c10 15 16 34 16 55zM540 511c0 -61 -19 -118 -53 -158l35 -35l-71 -70l-48 48c-35 -11 -80 -15 -154 -15h-44v-281h-137v739h183c98 0 147 -9 189 -34
c64 -39 100 -109 100 -194z" />
    <glyph glyph-name="uni048F" unicode="&#x48f;" horiz-adv-x="658" 
d="M500 276c0 96 -69 169 -159 169c-92 0 -162 -72 -162 -167c0 -97 70 -169 164 -169c26 0 50 6 71 17l-46 47l70 70l45 -44c11 23 17 49 17 77zM634 47l-70 -70l-55 54c-43 -28 -95 -44 -152 -44c-68 0 -120 20 -170 65v-237h-133v739h122v-65c43 50 107 78 182 78
c160 0 276 -121 276 -288c0 -68 -19 -130 -53 -178z" />
    <glyph glyph-name="uni0492" unicode="&#x492;" horiz-adv-x="467" 
d="M465 608h-260v-99h71v-100h-71v-409h-137v409h-69v100h69v230h397v-131z" />
    <glyph glyph-name="uni0493" unicode="&#x493;" horiz-adv-x="416" 
d="M414 433h-227v-83h67v-100h-67v-250h-133v250h-62v100h62v204h360v-121z" />
    <glyph glyph-name="uni0494" unicode="&#x494;" horiz-adv-x="467" 
d="M465 608h-260v-608h-137v739h397v-131z" />
    <glyph glyph-name="uni0495" unicode="&#x495;" horiz-adv-x="416" 
d="M414 433h-227v-433h-133v554h360v-121z" />
    <glyph glyph-name="uni0496" unicode="&#x496;" horiz-adv-x="939" 
d="M932 0h-165l-229 325v-325h-137v325l-229 -325h-165l278 376l-278 363h165l229 -319v319h137v-319l229 319h165l-278 -363z" />
    <glyph glyph-name="uni0497" unicode="&#x497;" horiz-adv-x="874" 
d="M872 0h-179l-189 259v-259h-133v259l-189 -259h-179l230 283l-198 271h159l177 -261v261h133v-261l177 261h159l-198 -271z" />
    <glyph glyph-name="uni0498" unicode="&#x498;" horiz-adv-x="568" 
d="M678 215c0 -106 -70 -214 -270 -227c42 -25 64 -56 64 -93c0 -59 -47 -99 -116 -99c-22 0 -44 5 -66 14v77c20 -8 29 -10 41 -10c29 0 50 18 50 42s-12 41 -49 69c-238 19 -303 226 -303 226h136c17 -36 71 -96 197 -96c114 0 178 39 178 107c0 66 -53 94 -138 94l-113 1
v141h112c63 0 96 26 96 79c0 44 -67 75 -132 75c-113 0 -149 -37 -170 -76h-137s48 213 300 213c156 0 276 -87 276 -200c0 -69 -22 -143 -82 -164c74 -12 126 -82 126 -173z" />
    <glyph glyph-name="uni0499" unicode="&#x499;" horiz-adv-x="430" 
d="M494 151c0 -84 -60 -151 -188 -162c43 -26 65 -57 65 -94c0 -59 -47 -99 -116 -99c-22 0 -44 5 -66 14v77c20 -8 29 -10 41 -10c29 0 50 18 50 42s-12 41 -50 70c-171 19 -206 170 -206 170h124s25 -61 117 -61c80 0 105 26 105 61c0 44 -33 67 -98 67h-88v126h87
c50 0 73 17 73 57c0 30 -22 48 -79 48c-73 0 -92 -48 -92 -48h-109s26 151 202 151c136 0 184 -71 184 -143c0 -58 -33 -105 -68 -120c63 -9 112 -70 112 -146z" />
    <glyph glyph-name="uni049A" unicode="&#x49a;" horiz-adv-x="606" 
d="M599 0h-165l-229 325v-325h-137v739h137v-319l229 319h165l-278 -363z" />
    <glyph glyph-name="uni049B" unicode="&#x49b;" horiz-adv-x="557" 
d="M555 0h-179l-189 259v-259h-133v554h133v-261l177 261h159l-198 -271z" />
    <glyph glyph-name="uni049C" unicode="&#x49c;" horiz-adv-x="606" 
d="M599 0h-165l-229 325v-325h-137v739h137v-319l229 319h165l-278 -363z" />
    <glyph glyph-name="uni049D" unicode="&#x49d;" horiz-adv-x="557" 
d="M555 0h-179l-189 259v-259h-133v554h133v-261l177 261h159l-198 -271z" />
    <glyph glyph-name="uni049E" unicode="&#x49e;" horiz-adv-x="606" 
d="M599 0h-165l-229 325v-325h-137v555h-72v100h72v84h137v-84h68v-100h-68v-135l229 319h165l-278 -363z" />
    <glyph glyph-name="uni049F" unicode="&#x49f;" horiz-adv-x="557" 
d="M555 0h-179l-189 259v-259h-133v414h-62v100h62v40h133v-40h63v-100h-63v-121l177 261h159l-198 -271z" />
    <glyph glyph-name="uni04A0" unicode="&#x4a0;" horiz-adv-x="606" 
d="M599 0h-165l-229 325v-325h-137v739h137v-319l229 319h165l-278 -363z" />
    <glyph glyph-name="uni04A1" unicode="&#x4a1;" horiz-adv-x="557" 
d="M555 0h-179l-189 259v-259h-133v554h133v-261l177 261h159l-198 -271z" />
    <glyph glyph-name="uni04A2" unicode="&#x4a2;" horiz-adv-x="674" 
d="M606 0h-137v310h-264v-310h-137v739h137v-298h264v298h137v-739z" />
    <glyph glyph-name="uni04A3" unicode="&#x4a3;" horiz-adv-x="601" 
d="M547 0h-133v213h-227v-213h-133v554h133v-210h227v210h133v-554z" />
    <glyph glyph-name="uni04A4" unicode="&#x4a4;" horiz-adv-x="674" 
d="M606 0h-137v310h-264v-310h-137v739h137v-298h264v298h137v-739z" />
    <glyph glyph-name="uni04A5" unicode="&#x4a5;" horiz-adv-x="601" 
d="M547 0h-133v213h-227v-213h-133v554h133v-210h227v210h133v-554z" />
    <glyph glyph-name="uni04A6" unicode="&#x4a6;" horiz-adv-x="674" 
d="M606 0h-137v608h-264v-608h-137v739h538v-739z" />
    <glyph glyph-name="uni04A7" unicode="&#x4a7;" horiz-adv-x="601" 
d="M547 0h-133v423h-227v-423h-133v554h493v-554z" />
    <glyph glyph-name="uni04A8" unicode="&#x4a8;" horiz-adv-x="800" 
d="M770 206c-58 -135 -190 -219 -341 -219c-216 0 -389 172 -389 385c0 209 171 380 380 380c90 0 177 -30 245 -85c50 -41 76 -76 105 -140h-153c-50 65 -108 93 -194 93c-75 0 -139 -28 -184 -81c-38 -44 -61 -108 -61 -168c0 -138 112 -252 248 -252c71 0 123 24 183 87
h161z" />
    <glyph glyph-name="uni04A9" unicode="&#x4a9;" horiz-adv-x="623" 
d="M601 182c-46 -124 -146 -195 -275 -195c-164 0 -296 129 -296 290c0 163 128 290 292 290c77 0 150 -28 204 -78c38 -35 56 -64 75 -120h-150c-27 51 -69 76 -129 76c-92 0 -158 -70 -158 -167s69 -169 161 -169c55 0 93 22 126 73h150z" />
    <glyph glyph-name="uni04AA" unicode="&#x4aa;" horiz-adv-x="800" 
d="M770 206c-53 -122 -166 -203 -299 -217c43 -25 65 -57 65 -94c0 -59 -47 -99 -116 -99c-22 0 -44 5 -66 14v77c20 -8 29 -10 41 -10c29 0 50 18 50 42s-12 41 -49 69c-200 17 -356 182 -356 384c0 209 171 380 380 380c90 0 177 -30 245 -85c50 -41 76 -76 105 -140h-153
c-50 65 -108 93 -194 93c-75 0 -139 -28 -184 -81c-38 -44 -61 -108 -61 -168c0 -138 112 -252 248 -252c71 0 123 24 183 87h161z" />
    <glyph glyph-name="uni04AB" unicode="&#x4ab;" horiz-adv-x="623" 
d="M601 182c-42 -112 -127 -181 -239 -193c43 -25 65 -57 65 -94c0 -59 -47 -99 -116 -99c-22 0 -44 5 -66 14v77c20 -8 29 -10 41 -10c29 0 50 18 50 42s-12 41 -51 71c-144 19 -255 140 -255 287c0 163 128 290 292 290c77 0 150 -28 204 -78c38 -35 56 -64 75 -120h-150
c-27 51 -69 76 -129 76c-92 0 -158 -70 -158 -167s69 -169 161 -169c55 0 93 22 126 73h150z" />
    </font>
</defs>
</svg>
