<?xml version="1.0" standalone="no"?>
<!DOCTYPE svg PUBLIC "-//W3C//DTD SVG 1.1//EN" "http://www.w3.org/Graphics/SVG/1.1/DTD/svg11.dtd" >
<svg xmlns="http://www.w3.org/2000/svg" xmlns:xlink="http://www.w3.org/1999/xlink" version="1.1">
<metadata></metadata>
<defs>
<font id="nunito_sansregular" horiz-adv-x="1228" >
<font-face units-per-em="2048" ascent="1638" descent="-410" />
<missing-glyph horiz-adv-x="528" />
<glyph unicode="&#xfb01;" horiz-adv-x="1144" d="M14 866v131h195v33q0 201 100.5 303.5t306.5 112.5l76 4l10 -129l-94 -6q-123 -8 -178 -71.5t-55 -190.5v-56h614v-997h-166v866h-448v-866h-166v866h-195zM805 1241v191h205v-191h-205z" />
<glyph unicode="&#xfb02;" horiz-adv-x="1146" d="M14 866v131h195v33q0 199 99.5 301.5t305.5 114.5l82 4l13 -129l-95 -6q-125 -8 -182 -70.5t-57 -191.5v-56h282v-131h-282v-866h-166v866h-195zM826 0v1444h165v-1444h-165z" />
<glyph horiz-adv-x="0" />
<glyph unicode="&#xd;" horiz-adv-x="528" />
<glyph horiz-adv-x="0" />
<glyph horiz-adv-x="0" />
<glyph unicode=" "  horiz-adv-x="528" />
<glyph unicode="&#x09;" horiz-adv-x="528" />
<glyph unicode="&#xa0;" horiz-adv-x="528" />
<glyph unicode="!" horiz-adv-x="468" d="M129 0v209h209v-209h-209zM131 1444h207l-53 -1065h-103z" />
<glyph unicode="&#x22;" horiz-adv-x="862" d="M127 1444h197l-41 -567h-111zM537 1444h197l-41 -567h-111z" />
<glyph unicode="#" d="M72 373v121h204l93 473h-256v120h280l70 357h129l-70 -357h326l70 357h131l-70 -357h178v-120h-203l-92 -473h254v-121h-276l-74 -373h-129l72 373h-326l-72 -373h-131l74 373h-182zM408 494h325l92 473h-325z" />
<glyph unicode="$" d="M96 170l64 129q106 -90 215.5 -131t240.5 -41q162 0 252 67.5t90 192.5q0 74 -46 120t-116.5 71.5t-191.5 54.5q-156 39 -251 78t-162.5 118.5t-67.5 214.5q0 111 55 200t154.5 144.5t228.5 67.5v223h144v-223q117 -10 224 -57t183 -121l-63 -129q-180 168 -418 168 q-156 0 -246 -70.5t-90 -195.5q0 -86 50 -137.5t124 -79t203 -60.5q150 -39 239.5 -73.5t153 -109.5t63.5 -200q0 -162 -114.5 -271.5t-306.5 -131.5v-224h-144v222q-139 8 -258 54t-209 130z" />
<glyph unicode="%" horiz-adv-x="1904" d="M113 1020q0 217 92 328.5t256 111.5t256 -111.5t92 -328.5q0 -219 -92 -330.5t-256 -111.5t-256 111.5t-92 330.5zM262 1020q0 -168 49 -246t150 -78q100 0 148 78t48 246q0 166 -48 243.5t-148 77.5t-149.5 -77.5t-49.5 -243.5zM465 18l854 1477l121 -70l-854 -1476z M1096 428q0 217 92 328.5t256 111.5q166 0 257 -110.5t91 -329.5t-91 -330.5t-257 -111.5q-164 0 -256 111.5t-92 330.5zM1247 428q0 -168 48 -246t149 -78q102 0 150 77t48 247q0 166 -49 244t-149 78t-148.5 -78t-48.5 -244z" />
<glyph unicode="&#x26;" horiz-adv-x="1359" d="M106 362q0 131 79 234.5t255 210.5q-94 109 -131 182.5t-37 153.5q0 143 97.5 229t257.5 86q150 0 236.5 -79t86.5 -212q0 -106 -63.5 -191t-227.5 -190l342 -374q92 182 99 436h145q-8 -322 -143 -545l276 -303h-198l-168 182q-88 -96 -199 -146t-242 -50 q-137 0 -242.5 47t-164 133t-58.5 196zM270 367q0 -113 83 -179.5t222 -66.5q103 0 191 42t154 120l-390 426q-143 -88 -201.5 -166t-58.5 -176zM430 1143q0 -59 28.5 -113.5t110.5 -146.5q135 84 185.5 145.5t50.5 130.5q0 78 -48 125t-128 47q-90 0 -144.5 -51t-54.5 -137 z" />
<glyph unicode="'" horiz-adv-x="452" d="M127 1444h197l-41 -567h-111z" />
<glyph unicode="(" horiz-adv-x="643" d="M211 539q0 240 57.5 465t188.5 469l114 -48q-102 -242 -146 -456.5t-44 -429.5t44 -430t146 -457l-114 -47q-131 241 -188.5 467.5t-57.5 466.5z" />
<glyph unicode=")" horiz-adv-x="643" d="M72 -348q102 242 146 457t44 430t-44 430t-146 456l114 48q131 -244 188.5 -469.5t57.5 -464.5q0 -240 -57.5 -466.5t-188.5 -467.5z" />
<glyph unicode="*" horiz-adv-x="921" d="M68 1030v127l303 -10l-160 254l108 63l142 -266l141 266l109 -63l-160 -254l301 10v-127l-301 10l160 -254l-109 -63l-141 268l-144 -268l-106 63l160 254z" />
<glyph unicode="+" d="M115 518v129h436v436h127v-436h436v-129h-436v-434h-127v434h-436z" />
<glyph unicode="," horiz-adv-x="468" d="M129 0v209h209v-148q0 -86 -27.5 -156.5t-95.5 -137.5l-78 59q80 88 90 174h-98z" />
<glyph unicode="-" horiz-adv-x="870" d="M147 477v137h574v-137h-574z" />
<glyph unicode="." horiz-adv-x="468" d="M129 0v209h209v-209h-209z" />
<glyph unicode="/" horiz-adv-x="579" d="M-41 -88l522 1630l137 -45l-522 -1630z" />
<glyph unicode="0" d="M109 721q0 362 129 550.5t376 188.5q248 0 377 -187.5t129 -549.5t-129 -550.5t-377 -188.5q-247 0 -376 188t-129 549zM279 723q0 -307 81.5 -452.5t253.5 -145.5t254 145.5t82 452.5q0 309 -81 451.5t-255 142.5q-172 0 -253.5 -143.5t-81.5 -450.5z" />
<glyph unicode="1" d="M252 1204l379 240h121v-1303h317v-141h-803v141h318v1094l-254 -160z" />
<glyph unicode="2" d="M135 1282q86 82 216 130t261 48q199 0 314.5 -102.5t115.5 -276.5q0 -125 -56 -239.5t-185 -255.5l-410 -445h713v-141h-930v127l506 557q102 115 148 206t46 183q0 119 -69.5 182.5t-196.5 63.5q-209 0 -409 -166z" />
<glyph unicode="3" d="M115 164l63 129q197 -166 418 -166q154 0 233.5 68.5t79.5 201.5q0 264 -331 265h-166v141h133q160 0 246 70.5t86 203.5q0 117 -70 179.5t-199 62.5q-209 0 -409 -166l-64 129q88 84 215 131t264 47q197 0 312.5 -99t115.5 -267q0 -125 -60 -218.5t-169 -134.5 q127 -36 194.5 -125.5t67.5 -224.5q0 -188 -128 -296.5t-347 -108.5q-139 0 -268 47t-217 131z" />
<glyph unicode="4" d="M104 313v127l697 1004h137v-991h217v-140h-217v-313h-166v313h-668zM279 453h493v710z" />
<glyph unicode="5" d="M162 164l63 129q201 -166 412 -166q152 0 238 86t86 233q0 143 -85 231.5t-227 88.5q-207 0 -330 -168h-116v846h866v-139h-700v-514q57 55 136 84.5t171 29.5q137 0 238.5 -57t156.5 -160.5t55 -238.5q0 -137 -60 -242t-171 -163t-258 -58q-131 0 -259 48t-216 130z" />
<glyph unicode="6" horiz-adv-x="1226" d="M115 686q0 244 66.5 418t191.5 265t299 91q125 0 243.5 -46t208.5 -132l-63 -129q-102 86 -195.5 126t-189.5 40q-186 0 -289.5 -165t-103.5 -466v-31q47 115 151.5 182.5t241.5 67.5q131 0 233.5 -57t159.5 -161.5t57 -239.5q0 -133 -59 -240t-165.5 -166t-239.5 -59 q-262 0 -404.5 182t-142.5 520zM332 446q0 -143 89 -232t232 -89q140 0 224 88t84 233q0 143 -85 231.5t-225 88.5q-141 0 -230 -89t-89 -231z" />
<glyph unicode="7" d="M137 1303v141h955v-125l-676 -1319h-183l674 1303h-770z" />
<glyph unicode="8" d="M96 383q0 133 72 227.5t199 130.5q-109 41 -172.5 129t-63.5 207q0 176 128 279.5t355 103.5t355.5 -103.5t128.5 -279.5q0 -119 -63.5 -208t-170.5 -128q127 -39 198 -133t71 -225q0 -186 -135.5 -291.5t-383.5 -105.5t-383 105.5t-135 291.5zM262 393q0 -268 352 -268 q353 0 353 268t-353 269q-352 0 -352 -269zM297 1065q0 -127 81 -194.5t236 -67.5q156 0 237 67.5t81 194.5q0 121 -81 188.5t-237 67.5t-236.5 -67.5t-80.5 -188.5z" />
<glyph unicode="9" d="M104 995q0 133 59.5 239.5t166 166t239.5 59.5q262 0 404.5 -182t142.5 -520q0 -367 -147.5 -570.5t-411.5 -203.5q-123 0 -241.5 46t-209.5 132l64 129q102 -86 195.5 -126t189.5 -40q186 0 288.5 165t102.5 466v26q-47 -115 -152.5 -180t-238.5 -65q-131 0 -233.5 57 t-160 161.5t-57.5 239.5zM270 997q0 -145 85 -232t225 -87q141 0 230 89t89 230q0 143 -89 232.5t-232 89.5q-139 0 -223.5 -88t-84.5 -234z" />
<glyph unicode=":" horiz-adv-x="468" d="M129 0v209h209v-209h-209zM129 786v211h209v-211h-209z" />
<glyph unicode=";" horiz-adv-x="468" d="M129 0v209h209v-148q0 -86 -27.5 -156.5t-95.5 -137.5l-78 59q80 88 90 174h-98zM129 786v211h209v-211h-209z" />
<glyph unicode="&#x3c;" d="M115 518v131l999 449v-140l-842 -376l842 -375v-141z" />
<glyph unicode="=" d="M115 313v129h999v-129h-999zM115 723v129h999v-129h-999z" />
<glyph unicode="&#x3e;" d="M115 66v141l841 375l-841 376v140l999 -449v-131z" />
<glyph unicode="?" horiz-adv-x="907" d="M0 1282q88 82 215 130t252 48q174 0 282.5 -88t108.5 -231q0 -109 -47 -189t-141 -186q-88 -100 -135.5 -176t-57.5 -176l-4 -37h-98v51q0 127 45 216t131 198q70 88 103.5 149.5t33.5 136.5q0 88 -61.5 138.5t-167.5 50.5q-96 0 -196.5 -42t-196.5 -122zM322 0v209h208 v-209h-208z" />
<glyph unicode="@" horiz-adv-x="1896" d="M100 559q0 270 114 473t311.5 313.5t443.5 110.5q262 0 449.5 -107.5t282.5 -279.5t95 -364q0 -201 -60.5 -329t-153.5 -186.5t-198 -58.5q-109 0 -171 48t-70 134h-4q-51 -84 -128 -133t-180 -49q-135 0 -219 95.5t-84 262.5q0 139 54.5 262t153 197t225.5 74 q96 0 167.5 -46t94.5 -120h2l24 141h133l-96 -555q-8 -57 -8 -73q0 -70 32.5 -98.5t98.5 -28.5q57 0 116.5 46t100.5 149.5t41 267.5q0 162 -78 305t-235.5 232t-384.5 89q-209 0 -376 -93t-263.5 -268t-96.5 -411q0 -225 88.5 -394t254 -260t393.5 -91q174 0 300 49 t193 137h178q-86 -143 -261 -227t-410 -84q-264 0 -461 108.5t-302.5 306t-105.5 455.5zM659 496q0 -121 57.5 -187.5t141.5 -66.5q103 0 177.5 62.5t113.5 160.5t39 207q0 115 -56.5 175t-152.5 60q-98 0 -171 -59.5t-111 -154.5t-38 -197z" />
<glyph unicode="A" horiz-adv-x="1488" d="M37 0l635 1444h145l635 -1444h-170l-160 371h-753l-160 -371h-172zM428 510h635l-318 739z" />
<glyph unicode="B" horiz-adv-x="1380" d="M178 0v1444h580q223 0 346 -98.5t123 -278.5q0 -117 -60.5 -201t-169.5 -125q125 -32 194 -122.5t69 -225.5q0 -190 -125 -291.5t-355 -101.5h-602zM344 139h420q170 0 251 62.5t81 195.5q0 266 -332 267h-420v-525zM344 803h389q162 0 245 65.5t83 190.5q0 246 -328 246 h-389v-502z" />
<glyph unicode="C" horiz-adv-x="1386" d="M125 723q0 227 81 393t232.5 255t356.5 89q150 0 274.5 -46t216.5 -136l-63 -129q-104 88 -204.5 127t-221.5 39q-238 0 -368 -154.5t-130 -437.5q0 -285 130 -439.5t368 -154.5q121 0 221 39t205 127l63 -129q-92 -90 -217 -136t-274 -46q-205 0 -356.5 89t-232.5 256 t-81 394z" />
<glyph unicode="D" horiz-adv-x="1513" d="M178 0v1444h486q346 0 535.5 -187.5t189.5 -533.5t-189.5 -534.5t-535.5 -188.5h-486zM346 143h307q561 0 561 580q0 577 -559 577h-2h-307v-1157z" />
<glyph unicode="E" horiz-adv-x="1191" d="M178 0v1444h914v-139h-748v-502h707v-139h-707v-525h748v-139h-914z" />
<glyph unicode="F" horiz-adv-x="1140" d="M178 0v1444h893v-141h-727v-498h686v-141h-686v-664h-166z" />
<glyph unicode="G" horiz-adv-x="1482" d="M125 723q0 229 82 395t235.5 254t362.5 88q152 0 278.5 -46t216.5 -136l-63 -129q-104 90 -205.5 129t-226.5 39q-244 0 -375 -153.5t-131 -440.5q0 -293 133 -445.5t389 -152.5q186 0 346 55v441h-358v131h512v-668q-86 -45 -224.5 -72.5t-279.5 -27.5q-215 0 -370.5 88 t-238.5 254t-83 397z" />
<glyph unicode="H" horiz-adv-x="1552" d="M178 0v1444h166v-639h864v639h166v-1444h-166v662h-864v-662h-166z" />
<glyph unicode="I" horiz-adv-x="524" d="M178 0v1444h168v-1444h-168z" />
<glyph unicode="J" horiz-adv-x="667" d="M-16 127l122 8q102 8 159 72.5t57 177.5v1059h167v-1061q0 -178 -92 -278.5t-268 -110.5l-133 -8z" />
<glyph unicode="K" horiz-adv-x="1286" d="M178 0v1444h168v-664l709 664h213l-754 -703l793 -741h-217l-744 686v-686h-168z" />
<glyph unicode="L" horiz-adv-x="1105" d="M178 0v1444h168v-1301h723v-143h-891z" />
<glyph unicode="M" horiz-adv-x="1722" d="M178 0v1444h139l547 -1047l541 1047h137v-1444h-153l2 1118l-469 -889h-119l-471 881l2 -1110h-156z" />
<glyph unicode="N" horiz-adv-x="1513" d="M178 0v1444h129l871 -1161v1161h157v-1444h-129l-870 1161v-1161h-158z" />
<glyph unicode="O" horiz-adv-x="1564" d="M125 721q0 227 79 394t227.5 256t350.5 89q203 0 351.5 -89t227.5 -256t79 -392t-80 -392t-228.5 -257t-349.5 -90q-200 0 -348.5 90t-228.5 256t-80 391zM297 723q0 -285 128 -440.5t357 -155.5q230 0 358 154.5t128 441.5t-127 440.5t-359 153.5q-229 0 -357 -154.5 t-128 -439.5z" />
<glyph unicode="P" horiz-adv-x="1320" d="M178 0v1444h572q227 0 353 -110.5t126 -313.5t-127 -315.5t-352 -112.5h-404v-592h-168zM346 731h387q330 0 330 289q0 285 -330 285h-387v-574z" />
<glyph unicode="Q" horiz-adv-x="1564" d="M125 721q0 227 79 394t227.5 256t350.5 89q201 0 349.5 -89t228.5 -256t80 -392q0 -262 -105.5 -443.5t-300.5 -252.5q45 -15 80 -48.5t72 -93.5l137 -221l-141 -74l-170 277q-72 117 -230 117q-201 0 -349 90t-228 256t-80 391zM297 723q0 -285 128 -440.5t357 -155.5 t357.5 154.5t128.5 441.5t-127 440.5t-359 153.5q-229 0 -357 -154.5t-128 -439.5z" />
<glyph unicode="R" horiz-adv-x="1404" d="M178 0v1444h594q236 0 359.5 -104.5t123.5 -307.5q0 -168 -95 -271.5t-271 -129.5q55 -16 97 -55t77 -105l252 -471h-185l-245 463q-45 84 -105.5 115.5t-165.5 31.5h-270v-610h-166zM344 750h414q168 0 251 69.5t83 210.5q0 139 -82 207t-252 68h-414v-555z" />
<glyph unicode="S" horiz-adv-x="1263" d="M96 166l66 129q106 -90 218 -129t259 -39q174 0 268 67.5t94 190.5q0 72 -45 117t-118.5 71.5t-198.5 55.5q-168 39 -275.5 82t-174 122.5t-66.5 208.5q0 123 64.5 218.5t184.5 147.5t277 52q150 0 280 -47t220 -135l-64 -129q-102 88 -207.5 128t-228.5 40 q-168 0 -263 -70.5t-95 -197.5q0 -109 84 -164.5t254 -93.5q186 -45 292.5 -83t177 -114t70.5 -203q0 -123 -64.5 -215t-185 -142t-282.5 -50q-338 0 -541 182z" />
<glyph unicode="T" horiz-adv-x="1224" d="M25 1300v144h1175v-144h-504v-1300h-170v1300h-501z" />
<glyph unicode="U" horiz-adv-x="1482" d="M168 565v879h166v-893q0 -211 103.5 -317.5t303.5 -106.5q201 0 303.5 106.5t102.5 317.5v893h168v-879q0 -285 -146.5 -433t-427.5 -148q-282 0 -427.5 147.5t-145.5 433.5z" />
<glyph unicode="V" horiz-adv-x="1415" d="M4 1444h176l529 -1233l530 1233h172l-631 -1444h-145z" />
<glyph unicode="W" horiz-adv-x="2254" d="M68 1444h170l409 -1206l420 1206l127 -2l414 -1206l413 1208h164l-504 -1444h-143l-412 1182l-411 -1182h-142z" />
<glyph unicode="X" horiz-adv-x="1323" d="M16 0l549 739l-522 705h199l422 -580l421 580h197l-524 -707l549 -737h-199l-446 612l-447 -612h-199z" />
<glyph unicode="Y" horiz-adv-x="1230" d="M-37 1444h195l458 -623l459 623h191l-568 -762v-682h-168v684z" />
<glyph unicode="Z" horiz-adv-x="1208" d="M92 0v125l826 1178h-826v141h1020v-123l-827 -1180h848v-141h-1041z" />
<glyph unicode="[" horiz-adv-x="643" d="M223 -369v1813h404v-131h-240v-1551h240v-131h-404z" />
<glyph unicode="\" horiz-adv-x="577" d="M-41 1497l137 45l522 -1630l-137 -45z" />
<glyph unicode="]" horiz-adv-x="643" d="M16 -238h240v1551h-240v131h404v-1813h-404v131z" />
<glyph unicode="^" d="M98 289l451 999h131l450 -999h-139l-377 839l-376 -839h-140z" />
<glyph unicode="_" horiz-adv-x="1024" d="M16 0h992v-109h-992v109z" />
<glyph unicode="`" horiz-adv-x="614" d="M-29 1542h190l203 -414h-115z" />
<glyph unicode="a" horiz-adv-x="1085" d="M119 287q0 113 57 175t188.5 90t364.5 28h45v67q0 125 -51 181.5t-166 56.5q-172 0 -342 -107l-55 121q78 55 187.5 89t211.5 34q191 0 284 -97.5t93 -295.5v-629h-162v170q-39 -88 -119 -136t-184 -48q-96 0 -177 38.5t-128 108.5t-47 154zM289 301q0 -80 58.5 -132 t146.5 -52q122 0 201 83t79 214v59h-37q-180 0 -274 -15.5t-134 -51t-40 -105.5z" />
<glyph unicode="b" horiz-adv-x="1191" d="M154 0v1444h165v-619q45 94 132.5 145.5t203.5 51.5q131 0 231.5 -63.5t156 -180t55.5 -270.5q0 -156 -55.5 -273.5t-156 -183t-231.5 -65.5q-117 0 -203.5 51t-132.5 145v-182h-165zM319 504q0 -182 79 -281.5t225 -99.5q145 0 225 101.5t80 283.5q0 178 -80 276.5 t-225 98.5t-224.5 -98.5t-79.5 -280.5z" />
<glyph unicode="c" horiz-adv-x="980" d="M94 500q0 156 60.5 273.5t170 183t257.5 65.5q100 0 196 -36t156 -95l-55 -123q-141 115 -287 115q-154 0 -240 -100.5t-86 -282.5q0 -180 86 -278.5t240 -98.5q145 0 287 115l55 -123q-63 -59 -159.5 -94t-199.5 -35q-147 0 -255.5 63.5t-167 179t-58.5 271.5z" />
<glyph unicode="d" horiz-adv-x="1191" d="M94 508q0 154 55.5 270.5t156 180t231.5 63.5q117 0 203.5 -51t131.5 -146v619h166v-1444h-166v182q-45 -94 -132 -145t-203 -51q-131 0 -231.5 65.5t-156 183t-55.5 273.5zM262 508q0 -182 81 -283.5t226 -101.5q146 0 224.5 99.5t78.5 281.5t-78.5 280.5t-224.5 98.5 q-145 0 -226 -98.5t-81 -276.5z" />
<glyph unicode="e" horiz-adv-x="1079" d="M94 502q0 154 59.5 271.5t167 183t244.5 65.5q199 0 311.5 -130t112.5 -357v-62h-729q8 -174 94 -263t244 -89q174 0 320 119l55 -121q-66 -61 -168.5 -97t-208.5 -36q-233 0 -367.5 137t-134.5 379zM264 580h580q-4 152 -76 232.5t-201 80.5q-131 0 -209.5 -82 t-93.5 -231z" />
<glyph unicode="f" horiz-adv-x="671" d="M14 866v131h195v33q0 199 99.5 301.5t305.5 114.5l82 4l13 -129l-95 -6q-125 -8 -182 -70.5t-57 -191.5v-56h282v-131h-282v-866h-166v866h-195z" />
<glyph unicode="g" horiz-adv-x="1200" d="M94 526q0 147 56.5 260t158 174.5t232.5 61.5q119 0 207 -51t133 -146v172h166v-929q0 -223 -115 -337t-340 -114q-262 0 -440 135l55 123q100 -66 188 -94.5t197 -28.5q143 0 217 77t74 224v176q-43 -96 -132 -147t-210 -51q-131 0 -232.5 61.5t-158 174t-56.5 259.5z M262 526q0 -168 83 -263t228 -95q144 0 226 95t82 263q0 166 -81 261.5t-227 95.5q-145 0 -228 -95.5t-83 -261.5z" />
<glyph unicode="h" horiz-adv-x="1163" d="M154 0v1444h165v-606q49 90 136.5 137t199.5 47q359 0 359 -395v-627h-166v616q0 139 -54.5 203t-172.5 64q-137 0 -219.5 -84t-82.5 -228v-571h-165z" />
<glyph unicode="i" horiz-adv-x="475" d="M137 1243v187h201v-187h-201zM154 0v997h165v-997h-165z" />
<glyph unicode="j" horiz-adv-x="475" d="M-154 -248l93 6q215 14 215 230v1009h165v-987q0 -184 -90 -276t-278 -105l-92 -6zM137 1243v187h201v-187h-201z" />
<glyph unicode="k" horiz-adv-x="1024" d="M154 0v1444h165v-899l465 450h211l-495 -477l542 -518h-215l-508 477v-477h-165z" />
<glyph unicode="l" horiz-adv-x="475" d="M154 0v1444h165v-1444h-165z" />
<glyph unicode="m" horiz-adv-x="1744" d="M154 0v997h163v-157q45 88 125 135t185 47q231 0 305 -197q43 92 131 144.5t201 52.5q331 0 331 -395v-627h-165v618q0 137 -48.5 201t-154.5 64q-125 0 -197 -84t-72 -230v-569h-165v618q0 139 -49.5 202t-155.5 63q-125 0 -197 -84t-72 -230v-569h-165z" />
<glyph unicode="n" horiz-adv-x="1163" d="M154 0v997h163v-163q49 92 137.5 140t200.5 48q359 0 359 -395v-627h-166v616q0 139 -54.5 203t-172.5 64q-137 0 -219.5 -84t-82.5 -228v-571h-165z" />
<glyph unicode="o" horiz-adv-x="1136" d="M94 504q0 156 58.5 273.5t166 181t248.5 63.5t250 -63.5t167 -181.5t58 -273q0 -156 -58 -273.5t-166.5 -181t-250.5 -63.5q-141 0 -248.5 63.5t-166 181t-58.5 273.5zM262 504q0 -184 79 -282.5t226 -98.5q148 0 226.5 97t78.5 284q0 182 -79.5 281.5t-225.5 99.5 q-145 0 -225 -99.5t-80 -281.5z" />
<glyph unicode="p" horiz-adv-x="1191" d="M154 -369v1366h165v-172q45 94 132.5 145.5t203.5 51.5q131 0 231.5 -65.5t156 -183.5t55.5 -273q0 -156 -55.5 -271.5t-155 -179t-232.5 -63.5q-117 0 -203.5 51t-132.5 145v-551h-165zM319 504q0 -182 79 -281.5t225 -99.5q145 0 225 98t80 279q0 180 -80 281.5 t-225 101.5t-224.5 -98.5t-79.5 -280.5z" />
<glyph unicode="q" horiz-adv-x="1191" d="M94 500q0 156 55.5 273.5t156 183t231.5 65.5q117 0 203.5 -51t131.5 -146v172h166v-1366h-166v551q-45 -94 -132 -145t-203 -51q-133 0 -232.5 63.5t-155 179t-55.5 271.5zM262 500q0 -180 81 -278.5t226 -98.5q146 0 224.5 99.5t78.5 281.5t-78.5 280.5t-224.5 98.5 q-145 0 -226 -101.5t-81 -281.5z" />
<glyph unicode="r" horiz-adv-x="722" d="M154 0v997h161v-174q84 174 330 195l60 4l14 -143l-109 -11q-154 -14 -222.5 -96t-68.5 -203v-569h-165z" />
<glyph unicode="s" horiz-adv-x="983" d="M92 115l55 123q80 -63 163 -91t188 -28q111 0 169 38t58 109q0 59 -39 94t-129 56l-168 39q-127 29 -194.5 98.5t-67.5 171.5q0 133 104.5 215t278.5 82q104 0 198.5 -34t157.5 -97l-55 -121q-137 117 -301 117q-104 0 -162.5 -40t-58.5 -112q0 -59 35.5 -95t115.5 -54 l170 -41q139 -33 207 -99.5t68 -173.5q0 -131 -105.5 -208.5t-287.5 -77.5q-253 0 -400 129z" />
<glyph unicode="t" horiz-adv-x="696" d="M14 866v131h195v303h166v-303h282v-131h-282v-512q0 -235 215 -235h2q45 0 90 6l-8 -131q-47 -8 -103 -8q-180 0 -271 94t-91 262v524h-195z" />
<glyph unicode="u" horiz-adv-x="1148" d="M150 379v618h165v-614q0 -133 53.5 -195.5t168.5 -62.5q131 0 210.5 85t79.5 224v563h166v-997h-162v170q-47 -90 -132 -137t-191 -47q-178 0 -268 99t-90 294z" />
<glyph unicode="v" horiz-adv-x="1052" d="M20 995h177l333 -815l338 815h166l-430 -995h-155z" />
<glyph unicode="w" horiz-adv-x="1724" d="M51 997h172l283 -800l289 800h143l285 -800l284 800h166l-370 -997h-160l-281 772l-282 -772h-158z" />
<glyph unicode="x" horiz-adv-x="1060" d="M18 0l414 514l-389 483h201l286 -362l287 362h203l-391 -483l413 -514h-200l-312 389l-309 -389h-203z" />
<glyph unicode="y" horiz-adv-x="1052" d="M20 995h177l333 -815l338 815h166l-590 -1364h-170l168 381z" />
<glyph unicode="z" horiz-adv-x="1030" d="M98 0v115l623 751h-602v131h803v-120l-619 -746h641v-131h-846z" />
<glyph unicode="{" horiz-adv-x="718" d="M100 475v127l56 4q80 4 111.5 42t31.5 122v465q0 100 53.5 154.5t153.5 54.5h196v-131h-151q-88 0 -88 -92v-467q0 -90 -44 -145.5t-106 -69.5q61 -14 105.5 -69.5t44.5 -145.5v-469q0 -92 88 -93h151v-131h-196q-100 0 -153.5 54.5t-53.5 154.5v465q0 84 -31.5 123 t-111.5 43z" />
<glyph unicode="|" horiz-adv-x="534" d="M188 -369v1813h158v-1813h-158z" />
<glyph unicode="}" horiz-adv-x="718" d="M16 -238h150q90 0 90 93v469q0 90 44 145t106 70q-61 14 -105.5 69.5t-44.5 145.5v467q0 92 -90 92h-150v131h197q100 0 153.5 -54.5t53.5 -154.5v-465q0 -84 31.5 -122t111.5 -42l55 -4v-127l-55 -4q-80 -4 -111.5 -43t-31.5 -123v-465q0 -100 -53.5 -154.5 t-153.5 -54.5h-197v131z" />
<glyph unicode="~" d="M115 524q37 96 104.5 148.5t159.5 52.5q66 0 125 -23.5t149 -68.5q63 -35 106.5 -52.5t80.5 -17.5q63 0 104 35t68 98l102 -55q-39 -96 -106.5 -148.5t-157.5 -52.5q-66 0 -127 24.5t-148 70.5q-63 35 -106 52t-80 17q-63 0 -104 -36t-68 -99z" />
<glyph unicode="&#xa2;" d="M186 500q0 203 106.5 341t282.5 173v227h144v-221q90 -6 173 -41t136 -88l-55 -123q-141 115 -287 115q-152 0 -239 -101.5t-87 -281.5q0 -178 86 -277.5t238 -99.5q147 0 289 115l55 -123q-55 -53 -137 -86t-172 -41v-224h-144v230q-178 29 -283.5 165t-105.5 341z" />
<glyph unicode="&#xa3;" d="M98 0v141h201v523h-201v118h201v285q0 182 107.5 287.5t293.5 105.5q129 0 247 -47t210 -135l-65 -129q-88 82 -186.5 126t-196.5 44q-119 0 -180.5 -67.5t-61.5 -196.5v-273h369v-118h-369v-523h680v-141h-1049z" />
<glyph unicode="&#xa5;" d="M-10 1444h188l436 -617l437 617h188l-471 -656h313v-120h-383v-189h383v-121h-383v-358h-168v358h-383v121h383v189h-383v120h314z" />
<glyph unicode="&#xa7;" horiz-adv-x="1099" d="M84 680q0 74 31.5 143.5t85.5 118.5q-35 63 -35 158q0 164 109.5 260t293.5 98q100 0 194.5 -34.5t160.5 -94.5l-56 -121q-152 115 -293 115q-119 0 -182 -55.5t-63 -159.5q0 -82 42 -136t142 -106l197 -98q164 -82 234.5 -168t70.5 -205q0 -71 -32 -139t-87 -119 q37 -66 37 -162q0 -164 -107.5 -261t-289.5 -97q-246 0 -408 131l55 123q88 -63 169 -91t175 -28q115 0 178.5 56.5t63.5 158.5q0 82 -42 137.5t-142 106.5l-197 96q-166 80 -235.5 166t-69.5 207zM240 694q0 -72 49 -127t168 -118l190 -99q102 -53 168 -110q43 61 43 141 q0 72 -49 128t-166 118l-190 100q-109 57 -168 109q-45 -63 -45 -142z" />
<glyph unicode="&#xa8;" horiz-adv-x="614" d="M41 1249v174h182v-174h-182zM391 1249v174h182v-174h-182z" />
<glyph unicode="&#xa9;" horiz-adv-x="1669" d="M102 723q0 205 96.5 372t264.5 263t373 96t371.5 -96t263 -263t96.5 -372t-96.5 -372t-264.5 -264t-370 -97q-205 0 -372 97t-264.5 264t-97.5 372zM199 723q0 -180 84 -326.5t229 -230.5t324 -84q178 0 323.5 84t228 230.5t82.5 326.5t-82.5 325.5t-228 229.5t-323.5 84 t-323.5 -84t-229.5 -229.5t-84 -325.5zM436 723q0 203 111.5 321.5t304.5 118.5q86 0 168 -29.5t139 -80.5l-49 -109q-119 94 -246 94q-129 0 -198.5 -82t-69.5 -233q0 -152 69.5 -234.5t198.5 -82.5q127 0 246 94l49 -109q-57 -51 -139 -80.5t-168 -29.5 q-193 0 -304.5 119.5t-111.5 322.5z" />
<glyph unicode="&#xab;" horiz-adv-x="903" d="M125 502v84l194 325l117 -47l-157 -321l157 -322l-117 -47zM496 502v84l194 325l117 -47l-157 -321l157 -322l-117 -47z" />
<glyph unicode="&#xad;" horiz-adv-x="870" d="M147 477v137h574v-137h-574z" />
<glyph unicode="&#xae;" horiz-adv-x="1669" d="M102 723q0 205 96.5 372t264.5 263t373 96q204 0 371 -96t263.5 -263t96.5 -372t-96.5 -372t-264.5 -264t-370 -97q-205 0 -372 97t-264.5 264t-97.5 372zM199 723q0 -180 84 -326.5t229 -230.5t324 -84q178 0 323.5 84t228 230.5t82.5 326.5t-82.5 325.5t-228 229.5 t-323.5 84t-323.5 -84t-229.5 -229.5t-84 -325.5zM528 291v864h363q143 0 221 -67.5t78 -188.5q0 -100 -57.5 -165.5t-163.5 -82.5q67 -18 116 -96l158 -264h-170l-162 276q-25 39 -52.5 54.5t-72.5 15.5h-106v-346h-152zM680 754h192q86 0 127 33.5t41 105.5 q0 74 -41 107.5t-127 33.5h-192v-280z" />
<glyph unicode="&#xb0;" horiz-adv-x="747" d="M76 1157q0 84 40 151.5t107.5 106.5t151.5 39q82 0 149.5 -39t107.5 -106.5t40 -151.5t-40 -151.5t-107.5 -106.5t-149.5 -39q-84 0 -151.5 39t-107.5 106.5t-40 151.5zM193 1157q0 -82 51 -135t131 -53q78 0 129 53t51 135t-51 135.5t-129 53.5q-80 0 -131 -53.5 t-51 -135.5z" />
<glyph unicode="&#xb4;" horiz-adv-x="614" d="M249 1128l203 414h191l-279 -414h-115z" />
<glyph unicode="&#xb6;" horiz-adv-x="1191" d="M92 1040q0 117 50.5 209t143.5 143.5t216 51.5h514v-1813h-137v1688h-244v-1688h-137v1004q-121 0 -213 51t-142.5 143.5t-50.5 210.5z" />
<glyph unicode="&#xb7;" horiz-adv-x="468" d="M129 440v209h209v-209h-209z" />
<glyph unicode="&#xb8;" horiz-adv-x="614" d="M129 -356l27 88q74 -29 155 -29q55 0 84 18.5t29 53.5q0 27 -18.5 41t-53.5 14q-45 0 -92 -18l-41 32l23 197h114l-14 -129q33 4 49 4q66 0 111 -36t45 -105q0 -74 -62.5 -122t-175.5 -48q-43 0 -93 10t-87 29z" />
<glyph unicode="&#xbb;" horiz-adv-x="899" d="M94 221l160 322l-160 321l119 47l195 -325v-84l-197 -328zM465 221l160 322l-160 321l119 47l195 -325v-84l-197 -328z" />
<glyph unicode="&#xd3;" horiz-adv-x="1564" d="M125 721q0 227 79 394t227.5 256t350.5 89q203 0 351.5 -89t227.5 -256t79 -392t-80 -392t-228.5 -257t-349.5 -90q-200 0 -348.5 90t-228.5 256t-80 391zM297 723q0 -285 128 -440.5t357 -155.5q230 0 358 154.5t128 441.5t-127 440.5t-359 153.5q-229 0 -357 -154.5 t-128 -439.5zM725 1567l207 311h181l-273 -311h-115z" />
<glyph unicode="&#xf3;" horiz-adv-x="1136" d="M94 504q0 156 58.5 273.5t166 181t248.5 63.5t250 -63.5t167 -181.5t58 -273q0 -156 -58 -273.5t-166.5 -181t-250.5 -63.5q-141 0 -248.5 63.5t-166 181t-58.5 273.5zM262 504q0 -184 79 -282.5t226 -98.5q148 0 226.5 97t78.5 284q0 182 -79.5 281.5t-225.5 99.5 q-145 0 -225 -99.5t-80 -281.5zM509 1128l203 414h191l-279 -414h-115z" />
<glyph unicode="&#x104;" horiz-adv-x="1488" d="M37 0l635 1444h145l635 -1444h-39q-86 0 -132 -45t-46 -113q0 -61 36 -95t99 -34q53 0 117 35l35 -96q-80 -47 -176 -47q-106 0 -173 60.5t-67 154.5q0 74 40 134t114 97l-138 320h-753l-160 -371h-172zM428 510h635l-318 739z" />
<glyph unicode="&#x105;" horiz-adv-x="1085" d="M119 287q0 111 57 174t188.5 91t364.5 28h45v67q0 125 -51 181.5t-166 56.5q-172 0 -342 -107l-55 121q78 55 187.5 89t211.5 34q190 0 283.5 -97.5t93.5 -295.5v-629h-12q-80 0 -131.5 -44t-51.5 -114q0 -61 35 -95t98 -34q55 0 119 35l33 -96q-72 -47 -174 -47 q-106 0 -173 60.5t-67 156.5q0 76 42 135t120 94v119q-39 -88 -119 -136t-184 -48q-96 0 -177 38.5t-128 108.5t-47 154zM289 301q0 -80 58.5 -132t146.5 -52q122 0 201 83t79 214v59h-37q-178 0 -273 -15.5t-135 -52t-40 -104.5z" />
<glyph unicode="&#x106;" horiz-adv-x="1386" d="M125 723q0 227 81 393t232.5 255t356.5 89q150 0 274.5 -46t216.5 -136l-63 -129q-104 88 -204.5 127t-221.5 39q-238 0 -368 -154.5t-130 -437.5q0 -285 130 -439.5t368 -154.5q121 0 221 39t205 127l63 -129q-92 -90 -217 -136t-274 -46q-205 0 -356.5 89t-232.5 256 t-81 394zM733 1567l207 311h181l-273 -311h-115z" />
<glyph unicode="&#x107;" horiz-adv-x="980" d="M94 500q0 156 60.5 273.5t170 183t257.5 65.5q100 0 196 -36t156 -95l-55 -123q-141 115 -287 115q-154 0 -240 -100.5t-86 -282.5q0 -180 86 -278.5t240 -98.5q145 0 287 115l55 -123q-63 -59 -159.5 -94t-199.5 -35q-147 0 -255.5 63.5t-167 179t-58.5 271.5zM516 1128 l203 414h191l-279 -414h-115z" />
<glyph unicode="&#x118;" horiz-adv-x="1191" d="M178 0v1444h914v-139h-748v-502h707v-139h-707v-525h748v-139h-31q-90 0 -138.5 -44t-48.5 -114q0 -61 36 -95t100 -34q53 0 118 35l33 -96q-80 -47 -176 -47q-106 0 -173 60.5t-67 154.5q0 109 84 180h-651z" />
<glyph unicode="&#x119;" horiz-adv-x="1079" d="M94 502q0 154 59.5 271.5t167 183t244.5 65.5q199 0 311.5 -130t112.5 -357v-62h-729q8 -174 94 -263t244 -89q174 0 320 119l55 -119q-14 -14 -38 -30.5t-67 -39.5q-98 -55 -139 -102t-41 -107q0 -61 35 -95t98 -34q53 0 119 35l33 -96q-72 -47 -174 -47 q-106 0 -173 59.5t-67 155.5q0 100 72 168q-10 -2 -35 -2q-233 0 -367.5 137t-134.5 379zM264 580h580q-4 152 -76 232.5t-201 80.5q-131 0 -209.5 -82t-93.5 -231z" />
<glyph unicode="&#x141;" horiz-adv-x="1132" d="M-14 635l219 127v682h168v-586l348 201l67 -119l-415 -240v-557h725v-143h-893v604l-152 -88z" />
<glyph unicode="&#x142;" horiz-adv-x="577" d="M-14 633l221 129v682h166v-586l153 88l68 -119l-221 -129v-698h-166v602l-154 -88z" />
<glyph unicode="&#x143;" horiz-adv-x="1513" d="M178 0v1444h129l871 -1161v1161h157v-1444h-129l-870 1161v-1161h-158zM698 1567l207 311h181l-273 -311h-115z" />
<glyph unicode="&#x144;" horiz-adv-x="1163" d="M154 0v997h163v-163q49 92 137.5 140t200.5 48q359 0 359 -395v-627h-166v616q0 139 -54.5 203t-172.5 64q-137 0 -219.5 -84t-82.5 -228v-571h-165zM526 1128l203 414h191l-279 -414h-115z" />
<glyph unicode="&#x15a;" horiz-adv-x="1263" d="M96 166l66 129q106 -90 218 -129t259 -39q174 0 268 67.5t94 190.5q0 72 -45 117t-118.5 71.5t-198.5 55.5q-168 39 -275.5 82t-174 122.5t-66.5 208.5q0 123 64.5 218.5t184.5 147.5t277 52q150 0 280 -47t220 -135l-64 -129q-102 88 -207.5 128t-228.5 40 q-168 0 -263 -70.5t-95 -197.5q0 -109 84 -164.5t254 -93.5q186 -45 292.5 -83t177 -114t70.5 -203q0 -123 -64.5 -215t-185 -142t-282.5 -50q-338 0 -541 182zM575 1567l207 311h181l-273 -311h-115z" />
<glyph unicode="&#x15b;" horiz-adv-x="983" d="M92 115l55 123q80 -63 163 -91t188 -28q111 0 169 38t58 109q0 59 -39 94t-129 56l-168 39q-127 29 -194.5 98.5t-67.5 171.5q0 133 104.5 215t278.5 82q104 0 198.5 -34t157.5 -97l-55 -121q-137 117 -301 117q-104 0 -162.5 -40t-58.5 -112q0 -59 35.5 -95t115.5 -54 l170 -41q139 -33 207 -99.5t68 -173.5q0 -131 -105.5 -208.5t-287.5 -77.5q-253 0 -400 129zM452 1128l203 414h191l-279 -414h-115z" />
<glyph unicode="&#x179;" horiz-adv-x="1208" d="M92 0v125l826 1178h-826v141h1020v-123l-827 -1180h848v-141h-1041zM546 1567l207 311h181l-273 -311h-115z" />
<glyph unicode="&#x17a;" horiz-adv-x="1030" d="M98 0v115l623 751h-602v131h803v-120l-619 -746h641v-131h-846zM466 1128l203 414h191l-279 -414h-115z" />
<glyph unicode="&#x17b;" horiz-adv-x="1208" d="M92 0v125l826 1178h-826v141h1020v-123l-827 -1180h848v-141h-1041zM503 1630v187h201v-187h-201z" />
<glyph unicode="&#x17c;" horiz-adv-x="1030" d="M98 0v115l623 751h-602v131h803v-120l-619 -746h641v-131h-846zM423 1243v187h201v-187h-201z" />
<glyph unicode="&#x18f;" horiz-adv-x="1519" d="M125 719v84h1098q-18 248 -150.5 381t-359.5 133q-262 0 -455 -168l-63 129q92 86 230 134t290 48q209 0 362.5 -89t235.5 -255t82 -393q0 -223 -77 -390t-219.5 -258t-332.5 -91q-197 0 -341 88t-222 254t-78 393zM297 662q12 -256 134 -395.5t331 -139.5t328.5 139.5 t132.5 395.5h-926z" />
<glyph unicode="&#x192;" d="M84 -244h102q90 0 145.5 49.5t76.5 157.5l196 918h-250v118h277l24 119q35 168 133.5 251t249.5 83h105v-135h-103q-90 0 -144 -48t-77 -159l-22 -111h252v-118h-279l-197 -926q-37 -168 -135 -251t-250 -83h-104v135z" />
<glyph unicode="&#x1a0;" horiz-adv-x="1564" d="M125 721q0 227 80 394t229.5 256t353.5 89q55 0 150 -8q90 -8 129 -8q123 2 174 53t51 172v31h148v-55q0 -132 -72 -211.5t-199 -92.5q133 -90 202 -248.5t69 -369.5q0 -225 -80 -392t-228.5 -257t-349.5 -90t-349 90t-228 256t-80 391zM297 723q0 -285 128 -440.5 t357 -155.5t357.5 154.5t128.5 441.5t-127 440.5t-359 153.5q-229 0 -357 -154.5t-128 -439.5z" />
<glyph unicode="&#x1a1;" horiz-adv-x="1136" d="M94 504q0 156 58.5 273.5t166 181t248.5 63.5q31 0 92 -8q33 -6 56 -6q94 0 140 52t46 171v31h148v-54q0 -106 -48.5 -180t-138.5 -104q88 -66 134 -174.5t46 -245.5q0 -156 -58 -273.5t-166.5 -181t-250.5 -63.5q-141 0 -248.5 63.5t-166 181t-58.5 273.5zM262 504 q0 -184 79 -282.5t226 -98.5q148 0 226.5 97t78.5 284q0 182 -79.5 281.5t-225.5 99.5q-145 0 -225 -99.5t-80 -281.5z" />
<glyph unicode="&#x1af;" horiz-adv-x="1482" d="M168 565v879h166v-893q0 -211 103.5 -317.5t303.5 -106.5q201 0 303.5 106.5t102.5 317.5v893h49q115 2 163 53t48 172v31h147v-55q0 -121 -62 -198t-177 -99v-783q0 -285 -146.5 -433t-427.5 -148q-283 0 -428 147.5t-145 433.5z" />
<glyph unicode="&#x1b0;" horiz-adv-x="1177" d="M150 379v618h165v-614q0 -133 53.5 -195.5t168.5 -62.5q131 0 210.5 85t79.5 224v563h50q111 0 159.5 54.5t48.5 179.5v31h150v-54q0 -125 -63.5 -203.5t-178.5 -97.5v-907h-162v170q-47 -90 -132 -137t-191 -47q-178 0 -268 99t-90 294z" />
<glyph unicode="&#x1c4;" horiz-adv-x="2691" d="M178 0v1444h486q346 0 535.5 -187.5t189.5 -533.5t-189.5 -534.5t-535.5 -188.5h-486zM346 143h307q561 0 561 580q0 578 -561 577h-307v-1157zM1575 0v125l826 1178h-826v141h1020v-123l-827 -1180h848v-141h-1041zM1788 1878h149l150 -213l149 213h150l-244 -311h-110z " />
<glyph unicode="&#x1c5;" horiz-adv-x="2543" d="M178 0v1444h486q346 0 535.5 -187.5t189.5 -533.5t-189.5 -534.5t-535.5 -188.5h-486zM346 143h307q561 0 561 580q0 578 -561 577h-307v-1157zM1611 0v115l623 751h-602v131h803v-120l-619 -746h641v-131h-846zM1739 1542h151l148 -293l147 293h152l-242 -414h-115z" />
<glyph unicode="&#x1c6;" horiz-adv-x="2222" d="M94 508q0 154 55.5 270.5t156 180t231.5 63.5q117 0 203.5 -51t131.5 -146v619h166v-1444h-166v182q-45 -94 -132 -145t-203 -51q-131 0 -231.5 65.5t-156 183t-55.5 273.5zM262 508q0 -182 81 -283.5t226 -101.5q146 0 224.5 99.5t78.5 281.5t-78.5 280.5t-224.5 98.5 q-145 0 -226 -98.5t-81 -276.5zM1290 0v115l623 751h-602v131h803v-120l-619 -746h641v-131h-846zM1417 1542h151l148 -293l147 293h152l-242 -414h-115z" />
<glyph unicode="&#x1c7;" horiz-adv-x="1771" d="M178 0v1444h168v-1301h662v-143h-830zM1090 127l120 8q109 8 162 63.5t53 163.5v1082h170v-1073q0 -176 -91 -271.5t-269 -105.5l-135 -8z" />
<glyph unicode="&#x1c8;" horiz-adv-x="1581" d="M178 0v1444h168v-1301h723v-143h-891zM952 -248l93 6q215 14 215 230v1009h165v-987q0 -184 -90 -276t-278 -105l-92 -6zM1243 1243v187h201v-187h-201z" />
<glyph unicode="&#x1c9;" horiz-adv-x="950" d="M154 0v1444h165v-1444h-165zM321 -248l93 6q215 14 215 230v1009h165v-987q0 -184 -90 -276t-278 -105l-92 -6zM612 1243v187h201v-187h-201z" />
<glyph unicode="&#x1ca;" horiz-adv-x="2181" d="M178 0v1444h129l871 -1161v1161h157v-1444h-129l-870 1161v-1161h-158zM1497 127l122 8q102 8 159 72.5t57 177.5v1059h167v-1061q0 -178 -92 -278.5t-268 -110.5l-133 -8z" />
<glyph unicode="&#x1cb;" horiz-adv-x="1988" d="M178 0v1444h129l871 -1161v1161h157v-1444h-129l-870 1161v-1161h-158zM1359 -248l93 6q215 14 215 230v1009h165v-987q0 -184 -90 -276t-278 -105l-92 -6zM1650 1243v187h201v-187h-201z" />
<glyph unicode="&#x1cc;" horiz-adv-x="1638" d="M154 0v997h163v-163q49 92 137.5 140t200.5 48q359 0 359 -395v-627h-166v616q0 139 -54.5 203t-172.5 64q-137 0 -219.5 -84t-82.5 -228v-571h-165zM1009 -248l93 6q215 14 215 230v1009h165v-987q0 -184 -90 -276t-278 -105l-92 -6zM1300 1243v187h201v-187h-201z" />
<glyph unicode="&#x1ce;" horiz-adv-x="1085" d="M119 287q0 113 57 175t188.5 90t364.5 28h45v67q0 125 -51 181.5t-166 56.5q-172 0 -342 -107l-55 121q78 55 187.5 89t211.5 34q191 0 284 -97.5t93 -295.5v-629h-162v170q-39 -88 -119 -136t-184 -48q-96 0 -177 38.5t-128 108.5t-47 154zM262 1542h151l148 -293 l147 293h152l-242 -414h-115zM289 301q0 -80 58.5 -132t146.5 -52q122 0 201 83t79 214v59h-37q-180 0 -274 -15.5t-134 -51t-40 -105.5z" />
<glyph unicode="&#x1e6;" horiz-adv-x="1482" d="M125 723q0 229 82 395t235.5 254t362.5 88q152 0 278.5 -46t216.5 -136l-63 -129q-104 90 -205.5 129t-226.5 39q-244 0 -375 -153.5t-131 -440.5q0 -293 133 -445.5t389 -152.5q186 0 346 55v441h-358v131h512v-668q-86 -45 -224.5 -72.5t-279.5 -27.5q-215 0 -370.5 88 t-238.5 254t-83 397zM504 1878h149l150 -213l149 213h150l-244 -311h-110z" />
<glyph unicode="&#x1e7;" horiz-adv-x="1200" d="M94 526q0 147 56.5 260t158 174.5t232.5 61.5q119 0 207 -51t133 -146v172h166v-929q0 -223 -115 -337t-340 -114q-262 0 -440 135l55 123q100 -66 188 -94.5t197 -28.5q143 0 217 77t74 224v176q-43 -96 -132 -147t-210 -51q-131 0 -232.5 61.5t-158 174t-56.5 259.5z M262 526q0 -168 83 -263t228 -95q144 0 226 95t82 263q0 166 -81 261.5t-227 95.5q-145 0 -228 -95.5t-83 -261.5zM305 1542h151l148 -293l147 293h152l-242 -414h-115z" />
<glyph unicode="&#x1ea;" horiz-adv-x="1564" d="M125 721q0 227 79 394t227.5 256t350.5 89q201 0 349.5 -89t228.5 -256t80 -392q0 -281 -121 -466t-342 -249q-150 -43 -150 -166q0 -61 36 -95t100 -34q53 0 118 35l33 -96q-76 -47 -176 -47q-106 0 -173 60.5t-67 154.5q0 92 66 162q-195 4 -339 95t-222 257t-78 387z M297 723q0 -285 128 -440.5t357 -155.5t357.5 154.5t128.5 441.5t-127 440.5t-359 153.5q-229 0 -357 -154.5t-128 -439.5z" />
<glyph unicode="&#x1eb;" horiz-adv-x="1136" d="M94 504q0 156 58.5 273.5t166 181t248.5 63.5t250 -63.5t167 -181.5t58 -273q0 -184 -79.5 -314.5t-221.5 -175.5q-90 -26 -130 -67t-40 -105q0 -61 36 -95t100 -34q53 0 118 35l33 -96q-72 -47 -176 -47q-106 0 -172 59.5t-66 155.5q0 102 70 168q-193 18 -306.5 156.5 t-113.5 359.5zM262 504q0 -185 79 -283t226 -98t226 97t79 284q0 182 -79.5 281.5t-225.5 99.5q-145 0 -225 -99.5t-80 -281.5z" />
<glyph unicode="&#x1fa;" horiz-adv-x="1488" d="M37 0l616 1401q-51 25 -82.5 74t-31.5 108q0 86 60 144.5t146 58.5q59 0 107 -29l164 170h186l-280 -237q31 -45 30 -107q0 -59 -31.5 -108.5t-84.5 -73.5l616 -1401h-170l-160 371h-753l-160 -371h-172zM428 510h635l-318 739zM647 1583q0 -43 27.5 -72.5t70.5 -29.5 t71 29.5t28 72.5t-28 73t-71 30t-70.5 -30t-27.5 -73z" />
<glyph unicode="&#x1fb;" horiz-adv-x="1085" d="M119 287q0 113 57 175t188.5 90t364.5 28h45v67q0 125 -51 181.5t-166 56.5q-172 0 -342 -107l-55 121q78 55 187.5 89t211.5 34q191 0 284 -97.5t93 -295.5v-629h-162v170q-39 -88 -119 -136t-184 -48q-96 0 -177 38.5t-128 108.5t-47 154zM289 301q0 -80 58.5 -132 t146.5 -52q122 0 201 83t79 214v59h-37q-180 0 -274 -15.5t-134 -51t-40 -105.5zM354 1337q0 86 60.5 144.5t146.5 58.5q59 0 107 -29l153 230h183l-265 -297q29 -47 29 -107q0 -86 -60.5 -144t-146.5 -58t-146.5 58t-60.5 144zM463 1337q0 -43 27.5 -72.5t70.5 -29.5 t70.5 29.5t27.5 72.5t-27.5 73t-70.5 30t-70.5 -30t-27.5 -73z" />
<glyph unicode="&#x1fc;" horiz-adv-x="2029" d="M-4 0l878 1444h1055v-141h-878l108 -500h729v-139h-700l112 -523h629v-141h-755l-78 371h-699l-219 -371h-182zM479 510h586l-154 727zM962 1567l207 311h181l-273 -311h-115z" />
<glyph unicode="&#x1fd;" horiz-adv-x="1746" d="M119 287q0 113 57 175t189.5 90t367.5 28h47v61q0 127 -52 185.5t-165 58.5q-174 0 -348 -107l-55 121q78 55 188.5 89t212.5 34q252 0 332 -178q59 86 150.5 132t201.5 46q193 0 302.5 -132t109.5 -360v-57h-715q8 -174 92 -263t236 -89q166 0 315 119l55 -121 q-66 -59 -167 -96t-203 -37q-152 0 -258.5 65.5t-161.5 188.5q-39 -121 -133 -187.5t-230 -66.5q-102 0 -186 38.5t-133 107.5t-49 155zM289 301q0 -82 60.5 -133t154.5 -51q121 0 198.5 86t77.5 219v51h-39q-180 0 -276 -15.5t-136 -52t-40 -104.5zM804 1128l203 414h191 l-279 -414h-115zM946 580h565q-6 152 -75.5 232.5t-192.5 80.5q-127 0 -204.5 -82t-92.5 -231z" />
<glyph unicode="&#x1fe;" horiz-adv-x="1564" d="M125 721q0 227 79 394t227.5 256t350.5 89q174 0 314 -69l86 149l114 -67l-90 -154q113 -96 173.5 -247.5t60.5 -348.5q0 -225 -80 -392t-228.5 -257t-349.5 -90q-174 0 -313 69l-86 -149l-115 67l90 156q-113 96 -173 247.5t-60 346.5zM297 723q0 -150 37 -265.5 t106 -191.5l580 996q-100 55 -238 55q-229 0 -357 -154.5t-128 -439.5zM545 182q102 -55 237 -55q230 0 358 154.5t128 441.5q0 303 -142 457zM725 1567l207 311h181l-273 -311h-115z" />
<glyph unicode="&#x1ff;" horiz-adv-x="1136" d="M94 504q0 156 58.5 273.5t166 181t248.5 63.5q119 0 211 -43l70 121l100 -58l-74 -124q80 -68 124 -174.5t44 -239.5q0 -156 -58 -273.5t-166.5 -181t-250.5 -63.5q-117 0 -207 43l-71 -123l-101 59l72 125q-80 68 -123 174.5t-43 239.5zM262 504q0 -183 76 -281l369 633 q-63 29 -140 29q-145 0 -225 -99.5t-80 -281.5zM430 150q55 -27 137 -27q150 0 228.5 97t78.5 284q0 178 -77 278zM509 1128l203 414h191l-279 -414h-115z" />
<glyph unicode="&#x200;" horiz-adv-x="1488" d="M37 0l635 1444h145l635 -1444h-170l-160 371h-753l-160 -371h-172zM379 1878h144l145 -311h-90zM428 510h635l-318 739zM623 1878h145l146 -311h-90z" />
<glyph unicode="&#x201;" horiz-adv-x="1085" d="M119 287q0 113 57 175t188.5 90t364.5 28h45v67q0 125 -51 181.5t-166 56.5q-172 0 -342 -107l-55 121q78 55 187.5 89t211.5 34q191 0 284 -97.5t93 -295.5v-629h-162v170q-39 -88 -119 -136t-184 -48q-96 0 -177 38.5t-128 108.5t-47 154zM233 1542h154l92 -414h-84z M289 301q0 -80 58.5 -132t146.5 -52q122 0 201 83t79 214v59h-37q-180 0 -274 -15.5t-134 -51t-40 -105.5zM481 1542h151l95 -414h-84z" />
<glyph unicode="&#x202;" horiz-adv-x="1488" d="M37 0l635 1444h145l635 -1444h-170l-160 371h-753l-160 -371h-172zM412 1638q45 113 132 165t202 52q114 0 201.5 -52t132.5 -165l-105 -45q-45 82 -99 113t-130 31t-130.5 -31t-99.5 -113zM428 510h635l-318 739z" />
<glyph unicode="&#x203;" horiz-adv-x="1085" d="M119 287q0 113 57 175t188.5 90t364.5 28h45v67q0 125 -51 181.5t-166 56.5q-172 0 -342 -107l-55 121q78 55 187.5 89t211.5 34q191 0 284 -97.5t93 -295.5v-629h-162v170q-39 -88 -119 -136t-184 -48q-96 0 -177 38.5t-128 108.5t-47 154zM223 1231q41 133 132 196.5 t206 63.5q112 0 203.5 -63.5t134.5 -194.5l-105 -45q-84 180 -233 180q-150 0 -234 -180zM289 301q0 -80 58.5 -132t146.5 -52q122 0 201 83t79 214v59h-37q-180 0 -274 -15.5t-134 -51t-40 -105.5z" />
<glyph unicode="&#x204;" horiz-adv-x="1191" d="M178 0v1444h914v-139h-748v-502h707v-139h-707v-525h748v-139h-914zM297 1878h144l145 -311h-90zM541 1878h145l146 -311h-90z" />
<glyph unicode="&#x205;" horiz-adv-x="1079" d="M94 502q0 154 59.5 271.5t167 183t244.5 65.5q199 0 311.5 -130t112.5 -357v-62h-729q8 -174 94 -263t244 -89q174 0 320 119l55 -121q-66 -61 -168.5 -97t-208.5 -36q-233 0 -367.5 137t-134.5 379zM237 1542h154l92 -414h-84zM264 580h580q-4 152 -76 232.5t-201 80.5 q-131 0 -209.5 -82t-93.5 -231zM485 1542h151l95 -414h-84z" />
<glyph unicode="&#x206;" horiz-adv-x="1191" d="M178 0v1444h914v-139h-748v-502h707v-139h-707v-525h748v-139h-914zM330 1638q45 113 132 165t202 52q114 0 201.5 -52t132.5 -165l-105 -45q-45 82 -99 113t-130 31t-130.5 -31t-99.5 -113z" />
<glyph unicode="&#x207;" horiz-adv-x="1079" d="M94 502q0 154 59.5 271.5t167 183t244.5 65.5q199 0 311.5 -130t112.5 -357v-62h-729q8 -174 94 -263t244 -89q174 0 320 119l55 -121q-66 -61 -168.5 -97t-208.5 -36q-233 0 -367.5 137t-134.5 379zM227 1231q41 133 132 196.5t206 63.5q112 0 203.5 -63.5t134.5 -194.5 l-105 -45q-84 180 -233 180q-150 0 -234 -180zM264 580h580q-4 152 -76 232.5t-201 80.5q-131 0 -209.5 -82t-93.5 -231z" />
<glyph unicode="&#x208;" horiz-adv-x="524" d="M-105 1878h144l145 -311h-90zM139 1878h145l146 -311h-90zM178 0v1444h168v-1444h-168z" />
<glyph unicode="&#x209;" horiz-adv-x="475" d="M-90 1542h154l92 -414h-84zM154 0v997h165v-997h-165zM158 1542h151l95 -414h-84z" />
<glyph unicode="&#x20a;" horiz-adv-x="524" d="M-72 1638q45 113 132 165t202 52q114 0 201.5 -52t132.5 -165l-105 -45q-45 82 -99 113t-130 31t-130.5 -31t-99.5 -113zM178 0v1444h168v-1444h-168z" />
<glyph unicode="&#x20b;" horiz-adv-x="475" d="M-100 1231q41 133 132 196.5t206 63.5q112 0 203.5 -63.5t134.5 -194.5l-105 -45q-84 180 -233 180q-150 0 -234 -180zM154 0v997h165v-997h-165z" />
<glyph unicode="&#x20c;" horiz-adv-x="1564" d="M125 721q0 227 79 394t227.5 256t350.5 89q203 0 351.5 -89t227.5 -256t79 -392t-80 -392t-228.5 -257t-349.5 -90q-200 0 -348.5 90t-228.5 256t-80 391zM297 723q0 -285 128 -440.5t357 -155.5q230 0 358 154.5t128 441.5t-127 440.5t-359 153.5q-229 0 -357 -154.5 t-128 -439.5zM416 1878h144l145 -311h-90zM660 1878h145l146 -311h-90z" />
<glyph unicode="&#x20d;" horiz-adv-x="1136" d="M94 504q0 156 58.5 273.5t166 181t248.5 63.5t250 -63.5t167 -181.5t58 -273q0 -156 -58 -273.5t-166.5 -181t-250.5 -63.5q-141 0 -248.5 63.5t-166 181t-58.5 273.5zM239 1542h154l92 -414h-84zM262 504q0 -184 79 -282.5t226 -98.5q148 0 226.5 97t78.5 284 q0 182 -79.5 281.5t-225.5 99.5q-145 0 -225 -99.5t-80 -281.5zM487 1542h151l95 -414h-84z" />
<glyph unicode="&#x20e;" horiz-adv-x="1564" d="M125 721q0 227 79 394t227.5 256t350.5 89q203 0 351.5 -89t227.5 -256t79 -392t-80 -392t-228.5 -257t-349.5 -90q-200 0 -348.5 90t-228.5 256t-80 391zM297 723q0 -285 128 -440.5t357 -155.5q230 0 358 154.5t128 441.5t-127 440.5t-359 153.5q-229 0 -357 -154.5 t-128 -439.5zM449 1638q45 113 132 165t202 52q114 0 201.5 -52t132.5 -165l-105 -45q-45 82 -99 113t-130 31t-130.5 -31t-99.5 -113z" />
<glyph unicode="&#x20f;" horiz-adv-x="1136" d="M94 504q0 156 58.5 273.5t166 181t248.5 63.5t250 -63.5t167 -181.5t58 -273q0 -156 -58 -273.5t-166.5 -181t-250.5 -63.5q-141 0 -248.5 63.5t-166 181t-58.5 273.5zM229 1231q41 133 132 196.5t206 63.5q112 0 203.5 -63.5t134.5 -194.5l-105 -45q-84 180 -233 180 q-150 0 -234 -180zM262 504q0 -184 79 -282.5t226 -98.5q148 0 226.5 97t78.5 284q0 182 -79.5 281.5t-225.5 99.5q-145 0 -225 -99.5t-80 -281.5z" />
<glyph unicode="&#x210;" horiz-adv-x="1404" d="M178 0v1444h594q236 0 359.5 -104.5t123.5 -307.5q0 -168 -95 -271.5t-271 -129.5q55 -16 97 -55t77 -105l252 -471h-185l-245 463q-45 84 -105.5 115.5t-165.5 31.5h-270v-610h-166zM332 1878h144l145 -311h-90zM344 750h414q168 0 251 69.5t83 210.5q0 139 -82 207 t-252 68h-414v-555zM576 1878h145l146 -311h-90z" />
<glyph unicode="&#x211;" horiz-adv-x="722" d="M110 1542h154l92 -414h-84zM154 0v997h161v-174q84 174 330 195l60 4l14 -143l-109 -11q-154 -14 -222.5 -96t-68.5 -203v-569h-165zM358 1542h151l95 -414h-84z" />
<glyph unicode="&#x212;" horiz-adv-x="1404" d="M178 0v1444h594q236 0 359.5 -104.5t123.5 -307.5q0 -168 -95 -271.5t-271 -129.5q55 -16 97 -55t77 -105l252 -471h-185l-245 463q-45 84 -105.5 115.5t-165.5 31.5h-270v-610h-166zM344 750h414q168 0 251 69.5t83 210.5q0 139 -82 207t-252 68h-414v-555zM365 1638 q45 113 132 165t202 52q114 0 201.5 -52t132.5 -165l-105 -45q-45 82 -99 113t-130 31t-130.5 -31t-99.5 -113z" />
<glyph unicode="&#x213;" horiz-adv-x="722" d="M100 1231q41 133 132 196.5t206 63.5q112 0 203.5 -63.5t134.5 -194.5l-105 -45q-84 180 -233 180q-150 0 -234 -180zM154 0v997h161v-174q84 174 330 195l60 4l14 -143l-109 -11q-154 -14 -222.5 -96t-68.5 -203v-569h-165z" />
<glyph unicode="&#x214;" horiz-adv-x="1482" d="M168 565v879h166v-893q0 -211 103.5 -317.5t303.5 -106.5q201 0 303.5 106.5t102.5 317.5v893h168v-879q0 -285 -146.5 -433t-427.5 -148q-282 0 -427.5 147.5t-145.5 433.5zM375 1878h144l145 -311h-90zM619 1878h145l146 -311h-90z" />
<glyph unicode="&#x215;" horiz-adv-x="1148" d="M150 379v618h165v-614q0 -133 53.5 -195.5t168.5 -62.5q131 0 210.5 85t79.5 224v563h166v-997h-162v170q-47 -90 -132 -137t-191 -47q-178 0 -268 99t-90 294zM246 1542h154l92 -414h-84zM494 1542h151l95 -414h-84z" />
<glyph unicode="&#x216;" horiz-adv-x="1482" d="M168 565v879h166v-893q0 -211 103.5 -317.5t303.5 -106.5q201 0 303.5 106.5t102.5 317.5v893h168v-879q0 -285 -146.5 -433t-427.5 -148q-282 0 -427.5 147.5t-145.5 433.5zM408 1638q45 113 132 165t202 52q114 0 201.5 -52t132.5 -165l-105 -45q-45 82 -99 113 t-130 31t-130.5 -31t-99.5 -113z" />
<glyph unicode="&#x217;" horiz-adv-x="1148" d="M150 379v618h165v-614q0 -133 53.5 -195.5t168.5 -62.5q131 0 210.5 85t79.5 224v563h166v-997h-162v170q-47 -90 -132 -137t-191 -47q-178 0 -268 99t-90 294zM236 1231q41 133 132 196.5t206 63.5q112 0 203.5 -63.5t134.5 -194.5l-105 -45q-84 180 -233 180 q-150 0 -234 -180z" />
<glyph unicode="&#x218;" horiz-adv-x="1263" d="M96 166l66 129q106 -90 218 -129t259 -39q174 0 268 67.5t94 190.5q0 72 -45 117t-118.5 71.5t-198.5 55.5q-168 39 -275.5 82t-174 122.5t-66.5 208.5q0 123 64.5 218.5t184.5 147.5t277 52q150 0 280 -47t220 -135l-64 -129q-102 88 -207.5 128t-228.5 40 q-168 0 -263 -70.5t-95 -197.5q0 -109 84 -164.5t254 -93.5q186 -45 292.5 -83t177 -114t70.5 -203q0 -123 -64.5 -215t-185 -142t-282.5 -50q-338 0 -541 182zM538 -147h201v-119q0 -82 -23.5 -145.5t-80.5 -118.5l-76 55q39 39 55.5 77t20.5 81h-97v170z" />
<glyph unicode="&#x219;" horiz-adv-x="983" d="M92 115l55 123q80 -63 163 -91t188 -28q111 0 169 38t58 109q0 59 -39 94t-129 56l-168 39q-127 29 -194.5 98.5t-67.5 171.5q0 133 104.5 215t278.5 82q104 0 198.5 -34t157.5 -97l-55 -121q-137 117 -301 117q-104 0 -162.5 -40t-58.5 -112q0 -59 35.5 -95t115.5 -54 l170 -41q139 -33 207 -99.5t68 -173.5q0 -131 -105.5 -208.5t-287.5 -77.5q-253 0 -400 129zM389 -147h201v-119q0 -82 -23.5 -145.5t-80.5 -118.5l-76 55q39 39 55.5 77t20.5 81h-97v170z" />
<glyph unicode="&#x21a;" horiz-adv-x="1224" d="M25 1300v144h1175v-144h-504v-1300h-170v1300h-501zM512 -147h201v-119q0 -82 -23.5 -145.5t-80.5 -118.5l-76 55q39 39 55.5 77t20.5 81h-97v170z" />
<glyph unicode="&#x21b;" horiz-adv-x="696" d="M14 866v131h195v303h166v-303h282v-131h-282v-512q0 -236 217 -235q45 0 90 6l-8 -131q-47 -8 -103 -8q-180 0 -271 94t-91 262v524h-195zM348 -147h201v-119q0 -82 -23.5 -145.5t-80.5 -118.5l-76 55q39 39 55.5 77t20.5 81h-97v170z" />
<glyph unicode="&#x227;" horiz-adv-x="1085" d="M119 287q0 113 57 175t188.5 90t364.5 28h45v67q0 125 -51 181.5t-166 56.5q-172 0 -342 -107l-55 121q78 55 187.5 89t211.5 34q191 0 284 -97.5t93 -295.5v-629h-162v170q-39 -88 -119 -136t-184 -48q-96 0 -177 38.5t-128 108.5t-47 154zM289 301q0 -80 58.5 -132 t146.5 -52q122 0 201 83t79 214v59h-37q-180 0 -274 -15.5t-134 -51t-40 -105.5zM460 1243v187h201v-187h-201z" />
<glyph unicode="&#x228;" horiz-adv-x="1191" d="M178 0v1444h914v-139h-748v-502h707v-139h-707v-525h748v-139h-390l-10 -88q33 4 49 4q66 0 111 -36t45 -105q0 -74 -62.5 -122t-175.5 -48q-41 0 -92 10t-88 29l27 88q74 -29 156 -29q55 0 83.5 18.5t28.5 53.5q0 27 -18.5 41t-53.5 14q-45 0 -92 -18l-41 32l19 156 h-410z" />
<glyph unicode="&#x22a;" horiz-adv-x="1564" d="M125 721q0 227 79 394t227.5 256t350.5 89q203 0 351.5 -89t227.5 -256t79 -392t-80 -392t-228.5 -257t-349.5 -90q-200 0 -348.5 90t-228.5 256t-80 391zM297 723q0 -285 128 -440.5t357 -155.5q230 0 358 154.5t128 441.5t-127 440.5t-359 153.5q-229 0 -357 -154.5 t-128 -439.5zM476 1989v125h614v-125h-614zM517 1636v176h182v-176h-182zM867 1636v176h182v-176h-182z" />
<glyph unicode="&#x22b;" horiz-adv-x="1136" d="M94 504q0 156 58.5 273.5t166 181t248.5 63.5t250 -63.5t167 -181.5t58 -273q0 -156 -58 -273.5t-166.5 -181t-250.5 -63.5q-141 0 -248.5 63.5t-166 181t-58.5 273.5zM260 1669v125h614v-125h-614zM262 504q0 -184 79 -282.5t226 -98.5q148 0 226.5 97t78.5 284 q0 182 -79.5 281.5t-225.5 99.5q-145 0 -225 -99.5t-80 -281.5zM301 1249v174h182v-174h-182zM651 1249v174h182v-174h-182z" />
<glyph unicode="&#x22c;" horiz-adv-x="1564" d="M125 721q0 227 79 394t227.5 256t350.5 89q203 0 351.5 -89t227.5 -256t79 -392t-80 -392t-228.5 -257t-349.5 -90q-200 0 -348.5 90t-228.5 256t-80 391zM297 723q0 -285 128 -440.5t357 -155.5q230 0 358 154.5t128 441.5t-127 440.5t-359 153.5q-229 0 -357 -154.5 t-128 -439.5zM453 1610q0 110 50 172.5t132 62.5q43 0 82 -17.5t90 -49.5q43 -27 69 -39.5t50 -12.5q45 0 69.5 33t24.5 80h93q0 -111 -50.5 -173t-132.5 -62q-43 0 -82 17t-90 50q-43 27 -68.5 39t-50.5 12q-45 0 -69.5 -32.5t-24.5 -79.5h-92zM476 1989v125h614v-125h-614 z" />
<glyph unicode="&#x22d;" horiz-adv-x="1136" d="M94 504q0 156 58.5 273.5t166 181t248.5 63.5t250 -63.5t167 -181.5t58 -273q0 -156 -58 -273.5t-166.5 -181t-250.5 -63.5q-141 0 -248.5 63.5t-166 181t-58.5 273.5zM237 1225q0 110 50 171.5t132 61.5q43 0 82 -17.5t90 -49.5q47 -27 71 -38.5t48 -11.5q45 0 69.5 32 t24.5 79h93q0 -111 -50.5 -172t-132.5 -61q-43 0 -82 17t-90 50q-47 27 -70.5 38t-48.5 11q-45 0 -69.5 -31.5t-24.5 -78.5h-92zM260 1669v125h614v-125h-614zM262 504q0 -184 79 -282.5t226 -98.5q148 0 226.5 97t78.5 284q0 182 -79.5 281.5t-225.5 99.5 q-145 0 -225 -99.5t-80 -281.5z" />
<glyph unicode="&#x230;" horiz-adv-x="1564" d="M125 721q0 227 79 394t227.5 256t350.5 89q203 0 351.5 -89t227.5 -256t79 -392t-80 -392t-228.5 -257t-349.5 -90q-200 0 -348.5 90t-228.5 256t-80 391zM297 723q0 -285 128 -440.5t357 -155.5q230 0 358 154.5t128 441.5t-127 440.5t-359 153.5q-229 0 -357 -154.5 t-128 -439.5zM476 1989v125h614v-125h-614zM682 1630v187h201v-187h-201z" />
<glyph unicode="&#x2c6;" horiz-adv-x="614" d="M8 1128l241 414h115l242 -414h-152l-147 293l-148 -293h-151z" />
<glyph unicode="&#x2da;" horiz-adv-x="614" d="M100 1335q0 86 60.5 144.5t146.5 58.5t146.5 -58.5t60.5 -144.5t-60.5 -144t-146.5 -58t-146.5 58t-60.5 144zM208 1335q0 -43 28 -72.5t71 -29.5t70.5 29.5t27.5 72.5t-27.5 73t-70.5 30t-71 -30t-28 -73z" />
<glyph unicode="&#x2dc;" horiz-adv-x="614" d="M-23 1225q0 110 50 171.5t132 61.5q43 0 82 -17.5t90 -49.5q47 -27 71 -38.5t48 -11.5q45 0 69.5 32t24.5 79h93q0 -111 -50.5 -172t-132.5 -61q-43 0 -82 17t-90 50q-47 27 -70.5 38t-48.5 11q-45 0 -69.5 -31.5t-24.5 -78.5h-92z" />
<glyph unicode="&#x2000;" horiz-adv-x="1057" />
<glyph unicode="&#x2001;" horiz-adv-x="2114" />
<glyph unicode="&#x2002;" horiz-adv-x="1057" />
<glyph unicode="&#x2003;" horiz-adv-x="2114" />
<glyph unicode="&#x2004;" horiz-adv-x="704" />
<glyph unicode="&#x2005;" horiz-adv-x="528" />
<glyph unicode="&#x2006;" horiz-adv-x="352" />
<glyph unicode="&#x2007;" horiz-adv-x="352" />
<glyph unicode="&#x2008;" horiz-adv-x="264" />
<glyph unicode="&#x2009;" horiz-adv-x="422" />
<glyph unicode="&#x200a;" horiz-adv-x="117" />
<glyph unicode="&#x2010;" horiz-adv-x="870" d="M147 477v137h574v-137h-574z" />
<glyph unicode="&#x2011;" horiz-adv-x="870" d="M147 477v137h574v-137h-574z" />
<glyph unicode="&#x2012;" horiz-adv-x="870" d="M147 477v137h574v-137h-574z" />
<glyph unicode="&#x2013;" horiz-adv-x="1024" d="M0 492v106h1024v-106h-1024z" />
<glyph unicode="&#x2014;" horiz-adv-x="2048" d="M0 492v106h2048v-106h-2048z" />
<glyph unicode="&#x2018;" horiz-adv-x="468" d="M129 1012v147q0 86 28.5 158t96.5 139l78 -61q-80 -88 -90 -174h96v-209h-209z" />
<glyph unicode="&#x2019;" horiz-adv-x="468" d="M129 1235v209h209v-148q0 -86 -27.5 -157.5t-95.5 -139.5l-78 62q80 88 90 174h-98z" />
<glyph unicode="&#x201a;" horiz-adv-x="468" d="M129 0v209h209v-148q0 -86 -27.5 -156.5t-95.5 -137.5l-78 59q80 88 90 174h-98z" />
<glyph unicode="&#x201c;" horiz-adv-x="808" d="M129 1012v147q0 86 28.5 158t96.5 139l78 -61q-80 -88 -90 -174h96v-209h-209zM469 1012v147q0 86 28.5 158t96.5 139l78 -61q-80 -88 -90 -174h96v-209h-209z" />
<glyph unicode="&#x201d;" horiz-adv-x="808" d="M129 1235v209h209v-148q0 -86 -27.5 -157.5t-95.5 -139.5l-78 62q80 88 90 174h-98zM469 1235v209h209v-148q0 -86 -27.5 -157.5t-95.5 -139.5l-78 62q80 88 90 174h-98z" />
<glyph unicode="&#x201e;" horiz-adv-x="808" d="M129 0v209h209v-148q0 -86 -27.5 -156.5t-95.5 -137.5l-78 59q80 88 90 174h-98zM469 0v209h209v-148q0 -86 -27.5 -156.5t-95.5 -137.5l-78 59q80 88 90 174h-98z" />
<glyph unicode="&#x2020;" horiz-adv-x="665" d="M41 1108v106h229v246h125v-246h230v-106h-230v-770h-125v770h-229z" />
<glyph unicode="&#x2021;" horiz-adv-x="665" d="M41 584v106h229v418h-229v109h229v243h125v-243h230v-109h-230v-418h230v-106h-230v-246h-125v246h-229z" />
<glyph unicode="&#x2022;" horiz-adv-x="1073" d="M166 543q0 94 48 178t133 135t190 51q98 0 183 -48t136 -131t51 -185q0 -98 -50 -181t-135 -132.5t-185 -49.5q-99 0 -185 48t-136 131t-50 184z" />
<glyph unicode="&#x2026;" horiz-adv-x="1406" d="M129 0v209h209v-209h-209zM598 0v209h209v-209h-209zM1067 0v209h209v-209h-209z" />
<glyph unicode="&#x202f;" horiz-adv-x="422" />
<glyph unicode="&#x2039;" horiz-adv-x="532" d="M125 502v84l194 325l117 -47l-157 -321l157 -322l-117 -47z" />
<glyph unicode="&#x203a;" horiz-adv-x="528" d="M94 221l160 322l-160 321l119 47l195 -325v-84l-197 -328z" />
<glyph unicode="&#x205f;" horiz-adv-x="528" />
<glyph unicode="&#x20ac;" d="M35 508v121h201q-2 31 -3 94q0 63 3 94h-201v121h215q41 252 174 387t344 135q123 0 234.5 -47t193.5 -135l-63 -129q-82 82 -174.5 125t-186.5 43q-295 0 -356 -379h356v-121h-369q-2 -31 -2 -94t2 -94h369v-121h-356q57 -381 356 -381q94 0 186.5 43t174.5 125l63 -129 q-78 -82 -195.5 -132t-232.5 -50q-211 0 -345 136t-173 388h-215z" />
<glyph unicode="&#x2122;" horiz-adv-x="1873" d="M16 1315v129h719v-129h-282v-733h-156v733h-281zM868 582v862h123l299 -574l299 574h121v-862h-137v577l-232 -440h-102l-231 434v-571h-140z" />
<glyph unicode="&#x25ca;" d="M98 571l451 981h131l450 -981l-450 -981h-131zM238 571l376 -821l377 821l-377 822z" />
<glyph unicode="&#x25fc;" horiz-adv-x="993" d="M0 0v993h993v-993h-993z" />
<glyph unicode="&#xf8ff;" horiz-adv-x="1347" d="M35 756h483l152 458l157 -458h486l-391 -295l145 -459l-397 277l-389 -277l143 459zM469 406h57v147l95 -147h45v266h-58v-148l-94 148h-45v-266zM692 434q18 -14 45 -22.5t49 -8.5q48 0 75.5 23t27.5 59q0 37 -20.5 51.5t-59.5 24.5q-29 6 -41 12.5t-12 22.5 q0 14 11 22.5t28 8.5q33 0 69 -25l17 41q-14 14 -39 22.5t-47 8.5q-41 0 -70 -23.5t-29 -60.5t21.5 -52.5t62.5 -25.5q25 -6 37 -12t12 -21q0 -14 -11 -21t-30 -7q-39 0 -77 26z" />
</font>
</defs>
</svg>
