<?xml version="1.0" standalone="no"?>
<!DOCTYPE svg PUBLIC "-//W3C//DTD SVG 1.1//EN" "http://www.w3.org/Graphics/SVG/1.1/DTD/svg11.dtd" >
<svg xmlns="http://www.w3.org/2000/svg" xmlns:xlink="http://www.w3.org/1999/xlink" version="1.1">
<metadata></metadata>
<defs>
<font id="lobsterregular" horiz-adv-x="1034" >
<font-face units-per-em="2048" ascent="1638" descent="-410" />
<missing-glyph horiz-adv-x="444" />
<glyph unicode="IJ" horiz-adv-x="1357" d="M12 1004q0 131 107.5 254.5t275.5 200.5t336 77q29 0 82 -4l-301 -1413q63 -10 100 -45t37 -86q0 -31 -14 -68q-47 47 -100 47q-55 0 -94.5 -44t-39.5 -105t40 -100.5t106 -39.5t112 54.5t76 197.5l336 1538l307 68l-307 -1454q-49 -238 -169 -372t-343 -134 q-166 0 -248 77t-82 204q0 82 31 143h-67l296 1391q-137 -55 -211.5 -169t-74.5 -278q0 -76 14 -105.5t14 -33.5q-111 0 -165 46t-54 153z" />
<glyph unicode="ij" horiz-adv-x="1038" d="M-16 233q0 51 16 134l139 657h295l-147 -696q-8 -31 -8 -66q0 -41 19 -58.5t64 -17.5q37 0 66 13q-8 -102 -72.5 -156.5t-152.5 -54.5q-99 0 -159 61.5t-60 183.5zM133 -313q0 199 336 305l219 1032h295l-203 -950q98 33 157.5 98.5t100.5 194.5h86q-55 -182 -149 -267.5 t-213 -115.5l-31 -148q-41 -199 -141.5 -273.5t-227.5 -74.5q-98 0 -163.5 51t-65.5 148zM180 1296q0 68 47 116t115 48t116 -48t48 -116t-48 -114.5t-116 -46.5t-115 47t-47 114zM246 -285q0 -27 18.5 -47t50.5 -20q35 0 68 47t51 135l12 59q-201 -74 -200 -174zM711 1298 q0 68 47 116t114 48q68 0 116 -48t48 -116t-48 -114.5t-116 -46.5q-67 0 -114 47t-47 114z" />
<glyph horiz-adv-x="0" />
<glyph unicode="&#xd;" horiz-adv-x="1228" />
<glyph horiz-adv-x="1228" />
<glyph horiz-adv-x="1228" />
<glyph unicode=" "  horiz-adv-x="444" />
<glyph unicode="&#x09;" horiz-adv-x="444" />
<glyph unicode="&#xa0;" horiz-adv-x="444" />
<glyph unicode="!" horiz-adv-x="526" d="M66 152q0 68 48 114.5t115 46.5q68 0 115 -47t47 -114q0 -68 -47 -116t-115 -48q-67 0 -115 48t-48 116zM201 473l155 1024l316 43l-297 -1067h-174z" />
<glyph unicode="&#x22;" horiz-adv-x="722" d="M164 1065l153 475h215l-225 -475h-143zM485 1065l154 475h215l-225 -475h-144z" />
<glyph unicode="#" horiz-adv-x="1349" d="M123 440l31 158h215l51 252h-209l31 158h211l73 370h152l-76 -370h264l74 370h152l-76 -370h198l-30 -158h-199l-51 -252h192l-30 -158h-195l-78 -383h-149l78 383h-265l-77 -383h-150l78 383h-215zM520 598h262l52 252h-263z" />
<glyph unicode="$" horiz-adv-x="1122" d="M29 328q0 121 63.5 198.5t163.5 77.5q68 0 117 -38t59 -97q-86 0 -139 -50t-53 -132q0 -72 43 -119t118 -57l138 606q-37 43 -39 45q-111 131 -166 224t-55 202q0 106 58 191t160.5 134.5t229.5 49.5h4l47 204h105l-49 -215q121 -23 189.5 -96.5t68.5 -179.5 q0 -86 -43 -139.5t-113 -53.5q-78 0 -125 64q39 29 61.5 76t22.5 98q0 49 -21.5 83t-62.5 50l-115 -500l47 -51q80 -84 130.5 -148.5t84 -144.5t33.5 -172q0 -129 -69.5 -237.5t-188.5 -173t-262 -64.5l-59 -256h-103l60 262q-156 25 -248 121t-92 238zM504 111 q96 16 153.5 84.5t57.5 166.5q-1 121 -97 252zM541 1257q-1 -98 75 -204l93 407q-76 -12 -122 -67.5t-46 -135.5z" />
<glyph unicode="%" horiz-adv-x="1630" d="M102 1001q0 154 55.5 283t150.5 204t210 75q119 0 178.5 -77t59.5 -229t-56.5 -280.5t-152.5 -204.5t-211 -76q-234 0 -234 305zM291 950q0 -88 17.5 -129t56.5 -41q53 0 100 76t75.5 201t28.5 268q0 82 -14 117t-49 35q-51 0 -101.5 -77t-82 -200t-31.5 -250zM346 0 l852 1540h148l-852 -1540h-148zM956 293q0 154 55.5 283t150.5 203.5t210 74.5q119 0 178.5 -77t59.5 -228q0 -152 -56.5 -281t-152.5 -204.5t-211 -75.5q-234 0 -234 305zM1145 242q0 -88 17.5 -129t56.5 -41q53 0 100 75.5t75.5 200.5t28.5 268q0 82 -14 117t-49 35 q-51 0 -101.5 -77t-82 -199.5t-31.5 -249.5z" />
<glyph unicode="&#x26;" horiz-adv-x="1396" d="M29 328q0 113 50 222t137 189t192 111v8q-63 53 -90 112.5t-27 147.5q0 111 60.5 208t163.5 155.5t224 58.5q139 0 229.5 -80t90.5 -203q0 -84 -43 -137t-113 -53q-78 0 -125 63q37 23 60.5 70t23.5 100q0 57 -28.5 90t-77.5 33q-53 0 -102.5 -41t-79 -109.5 t-29.5 -144.5q0 -102 55 -172.5t152 -95.5v-8q-96 -18 -181.5 -89t-135.5 -172.5t-50 -205.5q0 -106 53.5 -165.5t147.5 -59.5q88 0 174 49t147.5 137t81.5 199q-45 0 -94 -13q-113 -37 -162 -108l-6 -2q-23 29 -37 74q-8 25 -8 53q0 70 49 125t123 78q57 16 158 24 q68 4 116 15q47 14 95.5 47.5t72.5 66.5h4q31 -31 46 -76q6 -24 6 -47q0 -72 -54.5 -135t-136.5 -90q-35 -10 -82 -10q-18 -174 -103 -306t-222.5 -205t-307.5 -73q-195 0 -306 98.5t-111 266.5z" />
<glyph unicode="'" horiz-adv-x="401" d="M164 1065l153 475h215l-225 -475h-143z" />
<glyph unicode="(" horiz-adv-x="894" d="M307 336q0 258 93.5 497.5t265.5 430t397 299.5l27 -82q-160 -94 -285 -284.5t-194.5 -440.5t-69.5 -514q0 -195 38.5 -366t114.5 -302l-67 -59q-154 155 -237 367t-83 454z" />
<glyph unicode=")" horiz-adv-x="845" d="M-139 -403q160 94 284.5 284.5t194.5 440t70 514.5q0 195 -39 365.5t-115 301.5l68 60q154 -156 235.5 -368t81.5 -454q0 -258 -93 -497.5t-264 -429t-397 -299.5z" />
<glyph unicode="*" horiz-adv-x="1054" d="M174 1051q0 18 2 26l260 84q-143 25 -195.5 60.5t-52.5 89.5q0 35 16.5 61.5t59.5 63.5l207 -183q-35 125 -35 185q0 129 111 129q29 0 88 -17l-51 -297q59 72 107 105t91 33q47 0 76 -33t29 -84q0 -10 -4 -27l-267 -86q141 -27 193.5 -62.5t52.5 -88.5 q0 -37 -15.5 -63.5t-58.5 -61.5l-204 182q33 -131 32 -184q0 -129 -108 -129q-31 0 -86 16l49 297q-59 -72 -104 -102.5t-91 -30.5q-45 0 -73.5 32.5t-28.5 84.5z" />
<glyph unicode="+" horiz-adv-x="905" d="M31 616l37 162h290l62 285h164l-62 -285h299l-35 -162h-301l-63 -294h-164l64 294h-291z" />
<glyph unicode="," horiz-adv-x="442" d="M49 154q0 68 47 115.5t115 47.5q66 0 102.5 -43t36.5 -112q0 -96 -72.5 -217t-193.5 -203q-18 12 -18 35q0 25 12 43t41 49t41 49.5t12 44.5q0 23 -27 41q-96 61 -96 150z" />
<glyph unicode="-" horiz-adv-x="593" d="M39 455l37 161h409l-34 -161h-412z" />
<glyph unicode="." horiz-adv-x="538" d="M63 154q0 68 47.5 115.5t114.5 47.5q68 0 116 -48t48 -115q0 -68 -48 -115t-116 -47q-67 0 -114.5 47t-47.5 115z" />
<glyph unicode="/" horiz-adv-x="636" d="M23 -512l434 2048h147l-434 -2048h-147z" />
<glyph unicode="0" horiz-adv-x="1118" d="M43 492q0 283 88 524t247 385.5t361 144.5q197 0 296.5 -131t99.5 -360q0 -227 -70 -476t-222.5 -424t-385.5 -175q-226 0 -320 137t-94 375zM348 440q0 -307 135 -307q97 0 183 147.5t138 379t52 466.5q0 129 -30.5 214t-88.5 85q-94 0 -184 -149.5t-147.5 -380.5 t-57.5 -455z" />
<glyph unicode="1" horiz-adv-x="649" d="M43 0l270 1278h-194l24 94q113 0 234 31t287 129l-326 -1532h-295z" />
<glyph unicode="2" horiz-adv-x="1007" d="M-25 94q0 86 44 169t107.5 152.5t174.5 178.5q117 113 188.5 193.5t120.5 178t49 203.5q0 117 -37.5 184.5t-115.5 67.5q-72 0 -117 -48t-45 -118t27.5 -124t70.5 -78v-9q-35 -33 -75.5 -51t-79.5 -18q-63 0 -105.5 57.5t-42.5 155.5q0 86 50.5 166t148.5 131t231 51 q178 0 288 -99.5t110 -273.5q0 -111 -56.5 -205t-138.5 -167.5t-219 -178.5q-135 -102 -215 -176t-123 -155q59 16 127 16q49 0 102.5 -8t100.5 -19q8 -2 54 -11t83 -9q55 0 102 23.5t99 80.5l6 -4q27 -76 26 -127q0 -72 -37.5 -128t-101 -88t-135.5 -32q-41 0 -85 10.5 t-107 28.5q-76 23 -125.5 33t-102.5 10q-115 0 -225 -59h-8q-12 49 -13 96z" />
<glyph unicode="3" horiz-adv-x="1052" d="M12 338q0 133 64.5 213t183.5 80q139 0 160 -105q-104 -6 -142 -71.5t-38 -149.5q0 -88 51 -137t125 -49q66 0 126 39t99 118.5t39 192.5q0 125 -68.5 232.5t-203.5 154.5q109 31 188.5 97.5t120.5 147.5t41 154q0 76 -40 122t-116 46q-74 0 -118 -44t-44 -115 q0 -49 19.5 -92.5t58.5 -53.5q-76 -70 -156 -69q-63 0 -105 46t-42 128q0 92 56.5 162.5t152.5 109.5t215 39q121 0 207 -41t130 -108.5t44 -149.5q0 -106 -71.5 -208.5t-209.5 -172.5q129 -43 193.5 -132t64.5 -206q0 -127 -72.5 -249t-204.5 -199.5t-300 -77.5 q-146 0 -277 71.5t-131 276.5z" />
<glyph unicode="4" horiz-adv-x="974" d="M-4 532v11q211 252 329.5 452.5t118.5 382.5q0 61 -16 127q43 14 102 15q92 0 143.5 -50.5t51.5 -128.5q0 -92 -81 -218t-198.5 -249.5t-230.5 -214.5l2 -6q37 14 87 25.5t95 11.5q51 0 123 -12t90 -16l166 477h131l-100 -475q72 27 129 96l6 -4q33 -57 33 -113 q0 -80 -61.5 -141.5t-157.5 -79.5l-90 -422h-285l154 440l-39 13q-82 23 -129 33t-101 10q-135 0 -221 -43h-8z" />
<glyph unicode="5" horiz-adv-x="1058" d="M31 289q0 129 73.5 207.5t192.5 78.5q125 0 145 -104q-84 -10 -134 -60.5t-50 -129.5q0 -72 43 -113t115 -41q119 0 194.5 106.5t75.5 272.5q0 141 -59.5 218t-165.5 77q-109 0 -268 -92l-27 18l158 776q231 -27 344 -26q186 0 356 57q4 -45 4 -68q0 -106 -56.5 -171.5 t-178.5 -65.5q-47 0 -113 10t-125 23q-51 10 -104 18l-82 -371q133 63 254 64q168 0 265 -114t97 -308q0 -166 -72.5 -293t-205 -197.5t-304.5 -70.5q-180 0 -276 77.5t-96 221.5z" />
<glyph unicode="6" horiz-adv-x="1024" d="M33 530q0 274 95 505t259 365t361 134q135 0 215.5 -63.5t80.5 -167.5q0 -80 -43 -134.5t-106 -54.5q-35 0 -63.5 18.5t-40.5 47.5q33 16 50 49t17 69q0 47 -27.5 81t-78.5 34q-84 0 -165 -88t-144.5 -242.5t-92.5 -345.5l6 2q37 94 121 143.5t199 49.5q141 0 227 -95.5 t86 -258.5q0 -152 -73.5 -287t-197.5 -218t-267 -83q-215 0 -316.5 128t-101.5 412zM332 449q0 -299 162 -299q57 0 111 56t89 153.5t35 211.5q0 111 -44 163t-120 52q-233 0 -233 -337z" />
<glyph unicode="7" horiz-adv-x="950" d="M117 1311q0 109 77.5 173t202.5 64q45 0 86 -7t97 -23q66 -18 110.5 -26.5t97.5 -8.5q115 0 277 43l2 -8q0 -47 -48 -132.5t-153 -246.5q-123 -190 -202.5 -326.5t-139 -289t-59.5 -281.5q0 -106 37 -211q-72 -39 -144 -39q-94 0 -149 66.5t-55 181.5q0 123 61 252 t142 238.5t208 258.5q102 123 146.5 183.5t44.5 99.5q-37 -10 -72 -18.5t-66 -8.5q-53 0 -129 23q-8 2 -52 12t-87 10q-59 0 -106 -24.5t-94 -81.5l-7 2q-27 59 -26 125z" />
<glyph unicode="8" horiz-adv-x="1021" d="M-4 383q0 143 94 250.5t295 197.5q-88 92 -136 173t-48 176q0 102 59 187t162.5 134t228.5 49q109 0 195 -36.5t134 -103.5t48 -148q0 -201 -301 -365q86 -80 138.5 -139.5t89 -136t36.5 -164.5q0 -127 -72.5 -234.5t-196.5 -171t-271 -63.5q-131 0 -234.5 50t-162 139 t-58.5 206zM266 381q0 -115 53.5 -183.5t141.5 -68.5q92 0 158.5 73.5t66.5 174.5q0 96 -55.5 180t-161.5 191q-98 -66 -150.5 -161t-52.5 -206zM492 1251q0 -74 38.5 -138t112.5 -136q76 68 121 154t45 165q0 72 -36 114t-99 42q-78 0 -130 -56.5t-52 -144.5z" />
<glyph unicode="9" horiz-adv-x="1001" d="M27 225q0 80 43 135.5t104 55.5q37 0 66.5 -18.5t38.5 -47.5q-31 -18 -48.5 -50t-17.5 -67q0 -43 25.5 -71.5t76.5 -28.5q84 0 162 88t135.5 244t81.5 346l-6 -2q-37 -94 -120 -143.5t-197 -49.5q-143 0 -229.5 95.5t-86.5 259.5q0 150 79 279.5t210 207.5t283 78 q188 0 284.5 -136t96.5 -403q0 -276 -90.5 -505.5t-248 -363.5t-345.5 -134q-136 0 -216.5 63.5t-80.5 167.5zM315 977q0 -109 39 -160t105 -51q133 0 194.5 100.5t61.5 276.5q0 260 -150 260q-68 0 -125 -62.5t-91 -161t-34 -202.5z" />
<glyph unicode=":" horiz-adv-x="546" d="M84 276q0 68 47 116t115 48t116 -48t48 -116t-48.5 -114.5t-115.5 -46.5q-68 0 -115 47t-47 114zM186 768q0 68 47.5 116t114.5 48q68 0 116 -48t48 -116t-48 -115t-116 -47q-67 0 -114.5 47t-47.5 115z" />
<glyph unicode=";" horiz-adv-x="565" d="M94 186q0 68 47 116t115 48q66 0 102.5 -43t36.5 -112q0 -96 -72.5 -217t-193.5 -203q-18 12 -18 35q0 25 12 43t41 49t41 49t12 45q0 23 -27 41q-96 61 -96 149zM193 678q0 68 47 116t114 48q68 0 116 -48.5t48 -115.5q0 -68 -48 -115t-116 -47q-67 0 -114 47t-47 115z " />
<glyph unicode="&#x3c;" horiz-adv-x="733" d="M14 487l19 84l690 349l-14 -164l-455 -238l373 -194l-45 -158z" />
<glyph unicode="=" horiz-adv-x="1054" d="M66 207l49 229h753l-47 -229h-755zM156 647l49 230h753l-47 -230h-755z" />
<glyph unicode="&#x3e;" horiz-adv-x="741" d="M14 166l15 164l454 237l-372 195l45 158l567 -322l-18 -84z" />
<glyph unicode="?" horiz-adv-x="903" d="M94 164q0 68 48 115t116 47t116 -47.5t48 -114.5q0 -68 -48 -116t-116 -48q-65 0 -114.5 48t-49.5 116zM102 1221q0 96 56.5 174t153 123t214.5 45q166 0 262.5 -76t96.5 -207q0 -80 -35 -146.5t-87 -117.5t-138 -121q-92 -78 -145.5 -131t-91.5 -126t-38 -163h-135 q0 98 29.5 177t71.5 136.5t110 133.5q88 98 132 172.5t44 175.5q0 88 -35 137t-100 49q-68 0 -114 -48t-46 -120q0 -53 26.5 -97t72.5 -65v-8q-37 -33 -77 -51t-77 -18q-66 0 -108 48t-42 124z" />
<glyph unicode="@" horiz-adv-x="1409" d="M-18 311q0 252 113.5 468t308 345t427.5 129q223 0 361.5 -121.5t138.5 -347.5q0 -152 -62.5 -289t-163.5 -219.5t-214 -82.5q-68 0 -110 33.5t-46 95.5q-111 -150 -235 -150q-78 0 -121 54.5t-43 156.5q0 119 55 238.5t141 197.5t177 78q31 0 55 -12.5t51 -42.5l35 51 l154 -16l-95 -361q-2 -10 -15 -59t-13 -82q0 -27 9 -45.5t32 -18.5q41 0 96 67.5t94 175.5t39 224q0 160 -79 244t-224 84q-174 0 -332 -111.5t-253 -293t-95 -377.5q0 -190 82 -278.5t250 -88.5q125 0 233.5 49t173.5 133q25 -12 40.5 -38.5t15.5 -67.5q0 -80 -77 -134.5 t-187.5 -81t-211.5 -26.5q-229 0 -367 121t-138 399zM532 399q0 -86 56 -86q30 0 62 18.5t46 45.5l103 387q-23 20 -43 20q-49 0 -101.5 -62.5t-87.5 -152.5t-35 -170z" />
<glyph unicode="A" horiz-adv-x="1368" d="M18 686q0 70 54.5 127t150.5 91t213 34q43 0 107 -6q168 266 355 435t357 169q98 0 162 -29l-321 -1507h-295l157 743q-76 35 -139 51.5t-135 22.5q-117 -252 -191.5 -515t-74.5 -421q0 -78 28 -114q-75 0 -132.5 12t-99.5 59t-42 146q0 137 83 368.5t218 464.5 q-102 -6 -161.5 -30.5t-78.5 -75.5q8 0 17.5 -20.5t9.5 -43.5q0 -37 -32.5 -58.5t-82.5 -21.5q-57 0 -92 31t-35 88zM727 905q147 -29 250 -71l119 557q-88 -47 -183.5 -175.5t-185.5 -310.5z" />
<glyph unicode="B" horiz-adv-x="1312" d="M25 993q0 139 104 264t276.5 202t362.5 77q143 0 241.5 -45t146.5 -119t48 -162q0 -94 -53 -182t-152 -143q123 -23 182.5 -114t59.5 -216q0 -117 -44 -254t-145.5 -236.5t-258.5 -99.5q-82 0 -142.5 34t-60.5 118q0 53 26 119q37 -41 69 -57.5t69 -16.5q102 0 152 114.5 t50 253.5q0 260 -194 261q-55 0 -94 -7l-168 -784h-295l278 1303l303 40l-96 -454h12q78 0 145.5 50t108.5 127t41 155q0 94 -66.5 157.5t-203.5 63.5q-125 0 -243.5 -56.5t-193.5 -169t-75 -272.5q0 -76 14.5 -105.5t14.5 -33.5q-109 0 -164 44t-55 144z" />
<glyph unicode="C" horiz-adv-x="1017" d="M39 471q0 215 72.5 463t233.5 425t409 177q154 0 248 -67.5t94 -206.5q0 -88 -35 -138.5t-109 -50.5t-116 53q37 18 65.5 73.5t28.5 115.5q0 55 -30 90t-95 35q-109 0 -207 -148.5t-158.5 -374t-60.5 -434.5q0 -156 53 -237.5t193 -81.5q121 0 223 53t176 152l47 -21 q-51 -129 -151.5 -215t-215 -126t-217.5 -40q-231 0 -339.5 117t-108.5 387z" />
<glyph unicode="D" horiz-adv-x="1357" d="M12 995q0 139 104.5 264t279.5 201t378 76q281 0 414 -166t133 -424q0 -233 -79 -459.5t-210 -370t-278 -143.5q-123 0 -250 109l-17 -82h-294l278 1303l303 40l-246 -1148q57 -41 117 -41q117 0 206 135t138 344t49 422q0 201 -78.5 294t-220.5 93q-154 0 -275.5 -60.5 t-191 -173t-69.5 -264.5q0 -76 14 -105.5t14 -33.5q-106 0 -162.5 45t-56.5 145z" />
<glyph unicode="E" horiz-adv-x="940" d="M14 324q0 111 46 222t132.5 195t200.5 113q-63 45 -94 109.5t-31 136.5q0 106 58.5 208.5t162 167t228.5 64.5q129 0 211 -67.5t82 -188.5q0 -90 -45 -151.5t-107 -61.5q-55 0 -96 55q37 12 63.5 67.5t26.5 111.5q0 59 -33 86.5t-80 27.5q-59 0 -107 -42t-75 -108.5 t-27 -138.5q0 -98 51.5 -172.5t155.5 -101.5q-104 -23 -188 -102.5t-131 -185t-47 -201.5q0 -92 48 -149.5t146 -57.5q102 0 214 56t165 153l47 -21q-80 -176 -245.5 -280.5t-354.5 -104.5q-186 0 -281.5 102.5t-95.5 258.5z" />
<glyph unicode="F" horiz-adv-x="940" d="M18 1004q0 145 72 265t228.5 193.5t398.5 73.5q49 0 131 -10q147 -14 209 -15q109 0 184 25q-6 -18 -22.5 -80.5t-58.5 -106.5t-113 -59q-121 0 -287 39l-86 -407h299l-33 -152h-299l-166 -770h-295l295 1368q-129 -4 -197.5 -98t-68.5 -326q0 -76 14.5 -105.5 t14.5 -33.5q-111 0 -165.5 46t-54.5 153z" />
<glyph unicode="G" horiz-adv-x="1183" d="M39 741q0 225 98.5 410.5t270.5 292t378 106.5q174 0 275.5 -75.5t101.5 -206.5q0 -88 -43 -141.5t-112 -53.5q-39 0 -73 16.5t-56 47.5q37 25 62.5 79t25.5 109q0 61 -36 95t-102 34q-119 0 -229.5 -105.5t-178 -275.5t-67.5 -356q0 -154 49.5 -235t141.5 -81 q111 0 195.5 117t136.5 340l241 -2l-149 -688q-66 -305 -185.5 -448.5t-310.5 -143.5q-149 0 -240.5 77t-91.5 202q0 78 37 143t100.5 103t139.5 38q78 0 126 -39t48 -102q0 -49 -23 -78q-18 25 -50 39t-66 14q-61 0 -100.5 -41t-39.5 -106q0 -66 38 -107t95 -41 q72 0 123.5 63.5t77.5 188.5l103 453h-9q-55 -78 -134 -119t-173 -41q-119 0 -209 63.5t-138 181.5t-48 273z" />
<glyph unicode="H" horiz-adv-x="1361" d="M25 1004q0 131 107.5 254.5t275 200.5t335.5 77q29 0 82 -4l-131 -610h301l131 610h295l-325 -1532h-295l164 770h-301l-164 -770h-295l297 1393q-137 -57 -212 -172t-75 -277q0 -76 14.5 -105.5t14.5 -33.5q-111 0 -165 46t-54 153z" />
<glyph unicode="I" horiz-adv-x="768" d="M12 1004q0 131 107.5 254.5t275.5 200.5t336 77q29 0 82 -4l-326 -1532h-294l296 1391q-137 -55 -211.5 -169t-74.5 -278q0 -76 14 -105.5t14 -33.5q-111 0 -165 46t-54 153z" />
<glyph unicode="J" horiz-adv-x="1097" d="M35 -135q0 111 67.5 192.5t182.5 81.5q88 0 144 -25.5t56 -111.5q0 -37 -12 -82q-37 31 -63.5 42t-59.5 11q-68 0 -105.5 -45t-37.5 -106q0 -72 43 -108t96 -36q49 0 83 19.5t60.5 74t51.5 158.5l321 1463q-137 -55 -213 -170t-76 -279q0 -76 14.5 -105.5t14.5 -33.5 q-111 0 -165 46t-54 153q0 131 107.5 254.5t275.5 200.5t336 77h82l-307 -1454q-53 -252 -176 -379t-363 -127q-145 0 -224 79t-79 210z" />
<glyph unicode="K" horiz-adv-x="1230" d="M12 1004q0 131 107.5 254.5t275.5 200.5t336 77q29 0 82 -4l-133 -627l211 283q252 340 254 338h215l-569 -656l71 2q139 0 196.5 -58t57.5 -161q0 -59 -14.5 -125.5t-40.5 -165.5q-16 -63 -30.5 -124.5t-14.5 -102.5q0 -47 21.5 -84t58.5 -51q-125 -35 -203 -35 q-160 0 -160 137q0 45 13.5 103.5t37.5 150.5q29 96 43.5 164t14.5 121q0 139 -123 139q-35 0 -68 -8l-164 -772h-294l296 1393q-137 -57 -211.5 -172t-74.5 -277q0 -76 14 -105.5t14 -33.5q-111 0 -165 46t-54 153z" />
<glyph unicode="L" horiz-adv-x="776" d="M12 983q0 131 107.5 255t275.5 201t336 77q29 0 82 -5l-315 -1470q57 -14 117.5 -42t146.5 -75q133 -72 227 -109.5t197 -37.5q92 0 172 33q-16 -150 -72.5 -236t-140.5 -86q-92 0 -181.5 52t-226.5 161q-102 82 -175 132t-158 85t-173 35q-31 0 -47 -2l305 1419 q-137 -55 -211.5 -169t-74.5 -277q0 -76 14 -106t14 -34q-111 0 -165 46.5t-54 152.5z" />
<glyph unicode="M" horiz-adv-x="1611" d="M137 0l520 1407q-156 -51 -240.5 -169t-84.5 -292q0 -78 14 -106.5t14 -34.5q-219 0 -219 186q0 127 97.5 255t250 209t304.5 81q76 0 155 -29l-47 -1079l451 1079h295l-215 -1507h-295l131 920l-385 -920h-281l41 924l-342 -924h-164z" />
<glyph unicode="N" horiz-adv-x="1368" d="M12 1006q0 143 84 267t227.5 197.5t311.5 73.5q47 0 82 -6t80 -22l245 -1096l230 1112h198l-333 -1532h-283l-238 1016l-233 -1016h-195l310 1403q-139 -49 -212 -154.5t-73 -255.5q0 -66 14.5 -120t40.5 -89q-131 0 -193.5 54.5t-62.5 167.5z" />
<glyph unicode="O" horiz-adv-x="1361" d="M33 977q0 141 115.5 270t307 209t402.5 80q256 0 370.5 -139.5t114.5 -384.5q0 -219 -81.5 -457t-252.5 -402.5t-421 -164.5q-172 0 -269.5 98t-97.5 313q0 182 65.5 409.5t191.5 389.5t298 162q61 0 107 -17q-90 -53 -173 -219t-134.5 -370.5t-51.5 -362.5 q0 -111 29 -174t90 -63q100 0 199.5 144t164 363.5t64.5 421.5q0 127 -21.5 204t-79 116t-161.5 39q-158 0 -293 -64.5t-216 -184.5t-81 -278q0 -55 10.5 -80.5t10.5 -29.5q-102 0 -154.5 41t-52.5 131z" />
<glyph unicode="P" horiz-adv-x="1173" d="M12 1004q0 131 107.5 254.5t275.5 200.5t336 77q162 0 270.5 -55.5t160.5 -146.5t52 -201q0 -133 -72.5 -260.5t-207.5 -208t-311 -80.5h-11l-125 -584h-294l278 1303l303 40l-145 -684q98 8 181 86t130 193t47 225q0 123 -63.5 201t-190.5 78q-250 0 -390 -131 t-140 -367q0 -76 14 -105.5t14 -33.5q-111 0 -165 46t-54 153z" />
<glyph unicode="Q" horiz-adv-x="1361" d="M33 977q0 141 115.5 270t307 209t402.5 80q256 0 370.5 -139.5t114.5 -384.5q0 -152 -43 -325t-131 -328.5t-217 -252.5q53 -80 110.5 -122.5t145.5 -42.5q12 0 45 4q-39 -100 -89 -138t-122 -38q-84 0 -135 33.5t-76.5 84t-52.5 129.5q-89 -28 -183 -28h-7 q-172 0 -269.5 98t-97.5 313q0 182 65.5 409.5t191.5 389.5t298 162q61 0 107 -17q-90 -53 -173 -219t-134.5 -370.5t-51.5 -362.5v-37q0 -35 4 -51q74 18 127 19q92 0 164 -56q104 135 178 367.5t74 449.5q0 127 -21.5 204t-79 116t-161.5 39q-158 0 -293 -64.5 t-216 -184.5t-81 -278q0 -55 10.5 -80.5t10.5 -29.5q-102 0 -154.5 41t-52.5 131zM545 238q29 -84 98 -84h4q42 0 74 22q-41 70 -117 70q-33 0 -59 -8z" />
<glyph unicode="R" horiz-adv-x="1230" d="M12 1004q0 131 107.5 254.5t275.5 200.5t336 77q154 0 258.5 -45t155.5 -120t51 -163q0 -96 -59.5 -192t-161.5 -158q78 -23 109.5 -75t31.5 -130q0 -59 -14.5 -125.5t-40.5 -165.5q-16 -63 -30.5 -124.5t-14.5 -102.5q0 -47 21.5 -84t58.5 -51q-125 -35 -203 -35 q-160 0 -160 137q0 45 13.5 103.5t37.5 150.5q29 96 43.5 164t14.5 121q0 139 -123 139q-33 0 -68 -8l-164 -772h-294l278 1303l303 40l-100 -473h16q80 0 147.5 55.5t105.5 138.5t38 163q0 94 -56.5 154.5t-168.5 60.5q-166 0 -291 -59.5t-193.5 -172t-68.5 -266.5 q0 -76 14 -105.5t14 -33.5q-111 0 -165 46t-54 153z" />
<glyph unicode="S" horiz-adv-x="1167" d="M70 322q0 90 37.5 163.5t102 116.5t142.5 43q72 0 121 -36t62 -99q-106 0 -170 -56.5t-64 -152.5q0 -88 53.5 -141.5t141.5 -53.5q109 0 179 73t70 183q0 96 -53 182.5t-160 209.5q-111 127 -167 218t-56 199q0 106 59.5 191.5t164 134.5t235.5 49q166 0 265.5 -77.5 t99.5 -208.5q0 -86 -43 -139.5t-113 -53.5q-78 0 -125 63q39 29 61.5 76t22.5 99q0 66 -39 104.5t-106 38.5q-82 0 -134.5 -58.5t-52.5 -148.5q0 -82 47 -152.5t148 -181.5q82 -88 132 -151.5t86 -146.5t36 -179q0 -131 -73 -237.5t-199 -168t-279 -61.5q-129 0 -227.5 45 t-151.5 126t-53 188z" />
<glyph unicode="T" horiz-adv-x="985" d="M12 1001q0 145 72 265t228.5 194t398.5 74q135 0 290 -25q126 -22 225 -22h9q131 0 238 43q-4 -133 -68 -196.5t-188 -63.5q-66 0 -131.5 10t-186.5 35l-283 -1315h-294l290 1356h-24q-182 0 -283.5 -91t-101.5 -323q0 -76 14 -105.5t14 -33.5q-111 0 -165 46t-54 152z " />
<glyph unicode="U" horiz-adv-x="1466" d="M-10 1020q0 133 107.5 255t285.5 195.5t377 73.5q70 0 114 -10l-249 -946q-35 -129 -35 -221q0 -195 160 -195q229 0 317 422l205 946h289l-199 -946q-66 -301 -226.5 -454.5t-408.5 -153.5q-203 0 -306.5 99t-103.5 294q0 96 29 215l209 831q-176 -47 -274.5 -166.5 t-98.5 -263.5q0 -100 54 -194q-117 0 -181.5 57t-64.5 162z" />
<glyph unicode="V" horiz-adv-x="1259" d="M12 1004q0 131 107.5 254.5t275.5 200.5t336 77q29 0 82 -4l18 -1260l431 1254h143l-569 -1526h-295l-33 1399q-145 -55 -225 -171t-80 -284q0 -76 14 -105.5t14 -33.5q-111 0 -165 46t-54 153z" />
<glyph unicode="W" horiz-adv-x="1970" d="M12 1004q0 131 107.5 254.5t275.5 200.5t336 77q29 0 82 -4l18 -1260l431 1254h260l18 -1254l430 1254h144l-570 -1526h-295l-24 1042l-389 -1042h-295l-33 1399q-145 -55 -225 -171t-80 -284q0 -76 14 -105.5t14 -33.5q-111 0 -165 46t-54 153z" />
<glyph unicode="X" horiz-adv-x="1269" d="M12 1004q0 131 107.5 254.5t275.5 200.5t336 77q29 0 82 -4l88 -426l238 420h143l-344 -596l192 -930h-325l-109 512l-297 -512h-125l385 680l-151 719q-145 -55 -225 -171t-80 -284q0 -76 14 -105.5t14 -33.5q-111 0 -165 46t-54 153z" />
<glyph unicode="Y" horiz-adv-x="1269" d="M12 1004q0 131 107.5 254.5t275.5 200.5t336 77q29 0 82 -4l178 -733l303 727h136l-398 -895l-135 -631h-328l136 631l-197 768q-145 -55 -225 -171t-80 -284q0 -76 14 -105.5t14 -33.5q-111 0 -165 46t-54 153z" />
<glyph unicode="Z" horiz-adv-x="1110" d="M23 0l716 1425q-43 0 -69 2l-115 3q-188 0 -188 -46q12 0 23 -16t11 -49q0 -61 -37.5 -89t-82.5 -28q-55 0 -80 36t-25 85q0 84 67.5 148.5t184.5 64.5h702l-706 -1403q57 0 88 -2l109 -2q86 0 140 9t73 36q-14 0 -25.5 15.5t-11.5 48.5q0 61 36.5 89.5t86.5 28.5 q53 0 78.5 -34.5t25.5 -83.5q0 -53 -33 -108.5t-93 -92.5t-136 -37h-739z" />
<glyph unicode="[" horiz-adv-x="819" d="M-14 -492l430 2032h436l-23 -117h-227l-383 -1798h227l-24 -117h-436z" />
<glyph unicode="\" horiz-adv-x="741" d="M86 1536h147l435 -2048h-148z" />
<glyph unicode="]" horiz-adv-x="819" d="M-123 -492l25 117h227l383 1798h-227l22 117h438l-430 -2032h-438z" />
<glyph unicode="^" horiz-adv-x="862" d="M102 1149l435 387h43l122 -387h-65l-123 164l-321 -164h-91z" />
<glyph unicode="_" horiz-adv-x="909" d="M74 0l37 162h716l-34 -162h-719z" />
<glyph unicode="`" horiz-adv-x="411" d="M49 1536h215l60 -387h-113z" />
<glyph unicode="a" horiz-adv-x="1077" d="M-27 317q0 152 60.5 319t180.5 282.5t286 115.5q84 0 125 -28.5t41 -75.5v-15l22 109h295l-147 -696q-8 -31 -9 -66q0 -88 84 -88q57 0 99.5 53.5t66.5 139.5h86q-76 -221 -187.5 -300t-223.5 -79q-86 0 -138.5 48t-62.5 140q-59 -84 -132 -136t-173 -52 q-117 0 -195 79.5t-78 249.5zM276 346q0 -102 30 -131t73 -29q51 0 101 48.5t69 132.5l98 462q0 27 -20.5 52.5t-63.5 25.5q-82 0 -147.5 -95t-102.5 -229t-37 -237z" />
<glyph unicode="b" horiz-adv-x="909" d="M-14 250q0 61 14 117l219 1026l303 41l-98 -461q57 35 94 46t74 11q242 0 242 -350q0 -141 -54.5 -302t-180.5 -275.5t-327 -114.5q-139 0 -212.5 68.5t-73.5 193.5zM279 281q0 -94 108 -95q64 0 119 79t88 197t33 226q0 82 -29 139.5t-80 57.5q-31 0 -68.5 -9.5 t-52.5 -27.5l-112 -520q-6 -25 -6 -47z" />
<glyph unicode="c" horiz-adv-x="786" d="M-27 313q0 141 56.5 311.5t180.5 294t314 123.5q123 0 175.5 -53t52.5 -135q0 -72 -31 -110.5t-78 -38.5q-35 0 -72 24q25 68 25 121q0 39 -14.5 61.5t-42.5 22.5q-61 0 -123 -100.5t-101 -244t-39 -257.5q0 -100 35 -136t113 -36q111 0 189.5 51t172.5 156h70 q-227 -379 -563 -379q-152 0 -236 78.5t-84 246.5z" />
<glyph unicode="d" horiz-adv-x="1075" d="M-27 317q0 152 60.5 319t180.5 282.5t286 115.5q84 0 125 -28.5t41 -75.5v-8l100 471l303 41l-235 -1106q-8 -31 -9 -66q0 -41 19.5 -58.5t64.5 -17.5q57 0 99.5 49.5t66.5 131.5h86q-125 -367 -411 -367q-84 0 -136.5 45t-64.5 131q-53 -82 -128 -135t-175 -53 q-117 0 -195 79.5t-78 249.5zM276 346q0 -102 30 -131t73 -29q49 0 99 45t69 125v11l100 469q-18 71 -82 71h-2q-82 0 -147.5 -95t-102.5 -229t-37 -237z" />
<glyph unicode="e" horiz-adv-x="786" d="M-27 313q0 141 55.5 311.5t180.5 294t317 123.5q225 0 226 -196q0 -115 -65.5 -211t-174.5 -154.5t-231 -66.5q-4 -61 -5 -82q0 -100 35 -136t113 -36q111 0 189.5 51t172.5 156h70q-227 -379 -563 -379q-152 0 -236 78.5t-84 246.5zM297 512q76 4 144.5 53t110.5 125 t42 160t-51 84q-74 0 -144.5 -129t-101.5 -293z" />
<glyph unicode="f" horiz-adv-x="546" d="M-426 -291q0 88 45 145.5t116.5 91.5t190.5 70l248 1170q41 197 144.5 272.5t228.5 75.5q96 0 168.5 -62.5t72.5 -158.5q0 -47 -6 -84h-96q4 45 4 55q0 33 -22.5 51.5t-55.5 18.5q-43 0 -84 -38t-59 -130l-35 -162h150l-15 -82h-151l-236 -1106q-41 -199 -141 -273.5 t-225 -74.5q-97 0 -169.5 62.5t-72.5 158.5zM-313 -262q0 -25 24.5 -46.5t57.5 -21.5q81 0 116 160l27 119q-109 -37 -167 -85t-58 -126z" />
<glyph unicode="g" horiz-adv-x="1038" d="M-27 317q0 152 60.5 319t180.5 282.5t286 115.5q84 0 125 -28.5t41 -75.5v-12l22 106h295l-203 -950q98 33 157.5 98.5t100.5 194.5h86q-55 -182 -149 -267.5t-213 -115.5l-31 -148q-41 -199 -141.5 -273.5t-227.5 -74.5q-98 0 -163.5 51t-65.5 148q0 117 94.5 187.5 t239.5 117.5l25 108q-103 -112 -244 -112h-2q-117 0 -195 79.5t-78 249.5zM264.5 -332q18.5 -20 50.5 -20q35 0 68 47t51 135l12 59q-200 -74 -200 -173q0 -28 18.5 -48zM276 346q0 -102 30 -131t73 -29q47 0 96 43t68 117l104 485q0 25 -20.5 50.5t-63.5 25.5 q-82 0 -147.5 -95t-102.5 -229t-37 -237z" />
<glyph unicode="h" d="M-78 0l297 1393l303 41l-110 -516q101 114 237 114h2q104 0 166 -57t62 -174q0 -59 -14.5 -132t-41.5 -177q-16 -63 -29.5 -124t-13.5 -96q0 -41 18.5 -63.5t63.5 -22.5q61 0 98 44t74 137h86q-76 -225 -175 -302t-206 -77q-125 0 -183 66.5t-58 164.5q0 43 10 97.5 t21.5 105.5t15.5 65q16 72 30.5 141.5t14.5 112.5q0 104 -74 105q-53 0 -94 -52.5t-66 -136.5l-139 -657h-295z" />
<glyph unicode="i" horiz-adv-x="546" d="M-16 233q0 51 16 134l139 657h295l-147 -696q-8 -31 -8 -66q0 -41 19 -58.5t64 -17.5q59 0 110.5 50.5t74.5 130.5h86q-76 -221 -195 -300t-235 -79q-99 0 -159 61.5t-60 183.5zM180 1296q0 68 47 116t115 48t116 -48t48 -116t-48 -114.5t-116 -46.5t-115 47t-47 114z " />
<glyph unicode="j" horiz-adv-x="491" d="M-414 -313q0 199 336 305l219 1032h295l-203 -950q98 33 158 98.5t101 194.5h86q-55 -182 -149.5 -267.5t-213.5 -115.5l-31 -148q-41 -199 -141 -273.5t-227 -74.5q-99 0 -164.5 51t-65.5 148zM-301 -285q0 -27 18.5 -47t51.5 -20q34 0 67 47t51 135l13 59 q-201 -74 -201 -174zM164 1298q0 68 47 116t115 48t115.5 -48t47.5 -116t-48 -114.5t-115 -46.5q-68 0 -115 47t-47 114z" />
<glyph unicode="k" horiz-adv-x="1060" d="M-78 0l297 1393l303 41l-153 -721l395 311h203l-410 -285q31 8 68 9q111 0 168 -68t57 -172q0 -43 -8 -78l-23 -102q-10 -37 -10 -66q0 -76 80 -76q61 0 98 44t74 137h86q-127 -379 -377 -379q-127 0 -192.5 60.5t-65.5 172.5q0 49 12 107l17 80q8 35 8 75q0 98 -74 99 q-33 0 -68.5 -18.5t-82.5 -57.5l-107 -506h-295z" />
<glyph unicode="l" horiz-adv-x="546" d="M-16 233q0 51 16 134l219 1026l303 41l-235 -1106q-8 -31 -8 -66q0 -41 19 -58.5t64 -17.5q59 0 110.5 50.5t74.5 130.5h86q-76 -221 -195 -300t-235 -79q-99 0 -159 61.5t-60 183.5z" />
<glyph unicode="m" horiz-adv-x="1540" d="M-78 0l217 1024h295l-22 -106q103 116 248 116h2q180 0 210 -176q113 174 285 174q104 0 165.5 -57t61.5 -174q0 -59 -14 -132t-41 -177q-16 -63 -29.5 -124t-13.5 -96q0 -41 18.5 -63.5t63.5 -22.5q61 0 98 44t74 137h86q-76 -225 -175 -302t-206 -77q-125 0 -183 66.5 t-58 164.5q0 43 10 97.5t21.5 105.5t15.5 65q16 72 30.5 141.5t14.5 112.5q0 104 -74 105q-53 0 -94 -52.5t-66 -136.5l-139 -657h-295l150 707q6 25 6 51q0 90 -62 90q-57 0 -99 -52.5t-67 -138.5l-139 -657h-295z" />
<glyph unicode="n" d="M-78 0l217 1024h295l-22 -106q101 114 237 114h2q104 0 166 -57t62 -174q0 -59 -14.5 -132t-41.5 -177q-16 -63 -29.5 -124t-13.5 -96q0 -41 18.5 -63.5t63.5 -22.5q61 0 98 44t74 137h86q-76 -225 -175 -302t-206 -77q-125 0 -183 66.5t-58 164.5q0 43 10 97.5 t21.5 105.5t15.5 65q16 72 30.5 141.5t14.5 112.5q0 104 -74 105q-53 0 -94 -52.5t-66 -136.5l-139 -657h-295z" />
<glyph unicode="o" horiz-adv-x="899" d="M-29 315q0 139 57.5 309.5t184.5 294t319 123.5q262 0 263 -327v-2q6 -2 22 -2q68 0 156 35.5t160 87.5l18 -56q-59 -63 -154.5 -107t-208.5 -63q-16 -186 -83.5 -325.5t-174 -215t-231.5 -75.5q-152 0 -240 77.5t-88 245.5zM276 342q0 -98 23 -132t82 -34q49 0 98 56.5 t86 153.5t53 216q-55 12 -55 86q0 84 64 111q-4 68 -20.5 93.5t-57.5 25.5q-68 0 -131.5 -98.5t-102.5 -236t-39 -241.5z" />
<glyph unicode="p" horiz-adv-x="958" d="M-186 -512l342 1612h295l-33 -154q102 88 239 88q115 0 182.5 -75.5t67.5 -247.5q0 -162 -47 -327t-159.5 -280.5t-297.5 -115.5q-131 0 -174 73l-106 -499zM262 213q16 -47 78 -47q98 0 162.5 92t94.5 220t30 239q0 170 -103 170q-37 0 -74.5 -26.5t-66.5 -74.5z" />
<glyph unicode="q" horiz-adv-x="995" d="M-27 317q0 152 60.5 319t180.5 282.5t286 115.5q84 0 125 -28.5t41 -75.5v-4l20 98h295l-311 -1462l-310 -74l129 612q-103 -112 -241 -112h-2q-117 0 -195 79.5t-78 249.5zM276 346q0 -102 30 -131t73 -29q45 0 91 39t69 107l108 506q-16 69 -82 69h-2q-82 0 -147.5 -95 t-102.5 -229t-37 -237z" />
<glyph unicode="r" horiz-adv-x="770" d="M-78 0l217 1024h295l-26 -127q70 61 126 94t121 33q66 0 104 -45t38 -109q0 -59 -39 -104t-109 -45q-45 0 -60.5 21.5t-23.5 62.5q-6 27 -12 39t-23 12q-43 0 -72.5 -17.5t-76.5 -60.5l-164 -778h-295z" />
<glyph unicode="s" horiz-adv-x="782" d="M-66 250q0 68 32 118t77 72q80 143 139.5 290t112.5 317l303 40q10 -262 35 -567q10 -123 10 -178q0 -47 -8 -78q96 55 147 103h86q-131 -152 -313 -256q-59 -63 -146 -93t-176 -30q-98 0 -165.5 37.5t-100.5 98t-33 126.5zM43 293q0 -74 29.5 -108.5t95.5 -34.5 q76 0 127 45t51 145q0 61 -12 172q-20 233 -27 313q-49 -162 -166 -387q47 -25 47 -71q0 -39 -25.5 -70t-64.5 -31q-43 0 -55 27z" />
<glyph unicode="t" horiz-adv-x="546" d="M-16 233q0 51 16 134l123 575h-68l17 82h67l62 283l303 41l-70 -324h123l-16 -82h-123l-131 -614q-8 -31 -8 -66q0 -41 19 -58.5t64 -17.5q59 0 110.5 50.5t74.5 130.5h86q-76 -221 -195 -300t-235 -79q-99 0 -159 61.5t-60 183.5z" />
<glyph unicode="u" d="M-16 233q0 51 16 134l139 657h295l-147 -696q-6 -31 -6 -58q0 -84 61 -84q57 0 98 48.5t66 132.5l139 657h295l-147 -696q-8 -31 -9 -66q0 -41 19.5 -58.5t64.5 -17.5q57 0 99.5 49.5t66.5 131.5h86q-76 -221 -187.5 -300t-223.5 -79q-88 0 -140.5 49t-62.5 145 q-70 -113 -146.5 -153.5t-156.5 -40.5q-99 0 -159 61.5t-60 183.5z" />
<glyph unicode="v" horiz-adv-x="847" d="M-18 229q0 49 10 99l147 696h295l-147 -696q-10 -51 -11 -74q0 -68 70 -68q94 0 175 119t130 283t49 282q-4 -10 -26.5 -15t-38.5 -5q-35 0 -54.5 32.5t-19.5 71.5q0 49 32 80t95 31q68 0 98.5 -50t30.5 -128q0 -184 -63.5 -394t-194.5 -357.5t-326 -147.5 q-118 0 -184.5 60.5t-66.5 180.5z" />
<glyph unicode="w" horiz-adv-x="1353" d="M-16 233q0 51 16 134l139 657h295l-147 -696q-6 -25 -6 -52q0 -90 61 -90q57 0 98 48.5t66 132.5l139 657h295l-147 -696q-10 -51 -11 -74q0 -68 70 -68q94 0 175 119t130 283t49 282q-4 -10 -26.5 -15t-38.5 -5q-35 0 -54.5 32.5t-19.5 71.5q0 49 31.5 80t95.5 31 q68 0 98.5 -50t30.5 -128q0 -184 -63.5 -394t-194.5 -357.5t-326 -147.5q-100 0 -163.5 43t-81.5 129q-115 -172 -291 -172q-99 0 -159 61.5t-60 183.5z" />
<glyph unicode="x" horiz-adv-x="1069" d="M0 367q59 279 177 473t306 194q111 0 161 -72.5t61 -170.5l18 -156q88 98 131 168.5t47 126.5q-29 -4 -35 -4q-51 0 -73.5 31.5t-22.5 82.5t40 76t99 25q53 0 84 -56.5t31 -130.5q0 -90 -61.5 -181t-223.5 -265l19 -143q12 -98 41.5 -138.5t85.5 -40.5q59 0 110.5 50.5 t73.5 130.5h86q-74 -213 -188.5 -296t-229.5 -83q-94 0 -156.5 86t-93.5 270l-282 -344h-148l414 467l-33 229q-16 100 -33.5 135t-44.5 35q-41 0 -92 -56t-99 -170t-83 -273h-86z" />
<glyph unicode="y" horiz-adv-x="995" d="M-16 233q0 51 16 134l139 657h295l-147 -696q-6 -25 -6 -52q0 -90 61 -90q53 0 94 46.5t66 121.5l143 670h295l-203 -950q98 33 157.5 98.5t100.5 194.5h86q-55 -182 -149 -267.5t-213 -115.5l-31 -148q-41 -199 -141.5 -273.5t-227.5 -74.5q-98 0 -163.5 51t-65.5 148 q0 117 94.5 187.5t239.5 117.5l25 110q-59 -66 -121 -90t-125 -24q-98 0 -158.5 61.5t-60.5 183.5zM221.5 -332q18.5 -20 50.5 -20q35 0 68 47t51 135l12 59q-200 -74 -200 -173q0 -28 18.5 -48z" />
<glyph unicode="z" horiz-adv-x="876" d="M0 0l522 913h-114q-57 0 -85 -6t-28 -26q0 -4 11 -9.5t11 -35.5q0 -53 -32.5 -81t-77.5 -28q-39 0 -66.5 23.5t-27.5 66.5t29.5 92t84 82t123.5 33h527l-502 -866q12 0 45 -4q70 -8 110 -9q88 0 97 41q-18 2 -28.5 13.5t-10.5 29.5q0 33 30.5 60.5t83.5 27.5 q45 0 68 -26.5t23 -71.5q0 -49 -31 -100t-88.5 -85t-130.5 -34h-543z" />
<glyph unicode="{" horiz-adv-x="720" d="M92 471l23 104h63q72 0 104.5 56.5t36.5 191.5q12 281 52.5 433.5t124.5 218t235 65.5h88l-16 -102q-104 0 -150.5 -42t-70 -171t-50.5 -445q-8 -104 -51 -156.5t-151 -99.5q63 -29 87.5 -64.5t24.5 -94.5q0 -45 -11 -102.5t-38 -160.5q-29 -106 -43 -182t-14 -139 q0 -88 33.5 -140.5t97.5 -60.5l-21 -92h-59q-133 0 -213 65.5t-80 178.5q0 59 18.5 137t55.5 199q37 125 55.5 198.5t18.5 130.5q0 41 -18.5 57.5t-65.5 16.5h-66z" />
<glyph unicode="|" horiz-adv-x="1089" d="M449 -512v2050h190v-2050h-190z" />
<glyph unicode="}" horiz-adv-x="720" d="M-133 -512l18 102q102 0 148.5 42t71 172t49.5 444q8 104 51 156.5t153 99.5q-63 29 -88.5 64.5t-25.5 95.5q0 47 11 103t38 159q31 117 45 187.5t14 133.5q0 88 -34.5 140.5t-98.5 60.5l21 92h59q135 0 214 -65.5t79 -178.5q0 -59 -18.5 -137t-55.5 -198 q-39 -137 -55.5 -205t-16.5 -125q0 -41 18.5 -57.5t65.5 -16.5h64l-21 -104h-65q-72 0 -104.5 -56.5t-36.5 -191.5q-12 -283 -52.5 -434.5t-124.5 -217t-235 -65.5h-88z" />
<glyph unicode="~" horiz-adv-x="882" d="M100 1192q49 98 137.5 149.5t204.5 51.5q51 0 94.5 -9.5t94.5 -27.5q88 -31 149 -31q82 0 129 47l13 -2q-10 -47 -60.5 -95t-122 -79t-147.5 -31q-47 0 -90 10.5t-99 30.5q-47 16 -82.5 25.5t-72.5 9.5q-76 0 -135 -53z" />
<glyph unicode="&#xa2;" horiz-adv-x="786" d="M16 600q0 154 67 291t180.5 229t250.5 117l53 233h105l-51 -225q112 -2 174.5 -54t62.5 -140q0 -72 -37 -120t-92 -48q-27 0 -51.5 12t-40.5 33q14 25 24.5 62.5t10.5 70.5q0 39 -18.5 57.5t-57.5 18.5l-176 -762q33 -4 49 -4q63 0 114.5 23.5t98.5 76.5q16 -41 16 -80 q0 -90 -78.5 -144t-211.5 -54h-29l-57 -248h-103l60 264q-125 35 -194 136t-69 255zM260 625q0 -152 66 -209l157 690q-96 -55 -159.5 -189.5t-63.5 -291.5z" />
<glyph unicode="&#xa3;" horiz-adv-x="931" d="M27 94q49 29 93 104.5t64 174.5l82 383h-196l28 102h191l69 322q39 178 161 280.5t286 102.5q113 0 181.5 -54.5t68.5 -152.5q0 -76 -40 -127t-108 -51q-33 0 -57.5 16t-36.5 39q16 25 28.5 63.5t12.5 71.5q0 43 -15.5 64.5t-41.5 21.5q-104 0 -164 -274l-70 -322h291 l-29 -102h-284l-64 -297q-14 -68 -47 -113t-92 -78l6 -8q29 10 53.5 13t65.5 3q66 0 155 -22q10 -2 58.5 -12.5t95.5 -10.5q61 0 108.5 25t94.5 82l6 -2q27 -59 27 -127q0 -100 -78 -160.5t-211 -60.5q-70 0 -189 30q-78 18 -124 26.5t-101 8.5q-109 0 -260 -43z" />
<glyph unicode="&#xa5;" horiz-adv-x="1142" d="M172 291l29 102h196l29 133h-203l29 103h197l-230 907h336l180 -739l307 739h136l-402 -907h268l-28 -103h-262l-29 -133h268l-28 -102h-263l-61 -291h-328l62 291h-203z" />
<glyph unicode="&#xa8;" horiz-adv-x="802" d="M115 1298q0 51 35.5 88t89.5 37q51 0 88 -36.5t37 -88.5q0 -53 -37 -88.5t-88 -35.5q-54 0 -89.5 35.5t-35.5 88.5zM483 1298q0 51 36 88t89 37q51 0 88 -36.5t37 -88.5q0 -53 -37 -88.5t-88 -35.5q-53 0 -89 35.5t-36 88.5z" />
<glyph unicode="&#xa9;" horiz-adv-x="1202" d="M104 678q0 143 67 264t180.5 190.5t248.5 69.5q133 0 247 -69.5t181.5 -189.5t67.5 -263t-67.5 -264t-181.5 -190.5t-247 -69.5t-247.5 70.5t-181.5 190.5t-67 261zM199 678q0 -121 54 -221.5t147.5 -157.5t203.5 -57q109 0 202 57t147.5 157.5t54.5 221.5t-54.5 221 t-147.5 157.5t-202 57.5q-111 0 -204 -57.5t-147 -157.5t-54 -221zM311 688q0 86 41 154.5t110.5 108.5t151.5 40q96 -4 165 -58t89 -136l-96 -37q-12 39 -25.5 62.5t-44 43t-84.5 19.5q-84 0 -139 -48.5t-55 -138.5q0 -92 56.5 -155.5t137.5 -63.5q47 0 89.5 24.5 t64.5 67.5l90 -59q-43 -66 -109.5 -102.5t-142.5 -36.5q-82 0 -150.5 43t-108.5 115.5t-40 156.5z" />
<glyph unicode="&#xaa;" horiz-adv-x="706" d="M88 1096q0 168 75 292.5t236 124.5q41 0 80 -28l6 31h170l-86 -377q-2 -8 -4 -18.5t-2 -18.5q0 -41 43 -41h12q12 0 19 4q-23 -63 -52.5 -82.5t-70.5 -19.5q-94 0 -119 81q-74 -88 -162 -88q-77 0 -111 41t-34 99zM248 1126q0 -78 69 -77q35 0 74 53l8 37l68 293 q-23 20 -59 20q-43 0 -80 -49t-58.5 -125t-21.5 -152z" />
<glyph unicode="&#xab;" horiz-adv-x="1206" d="M41 487l18 84l629 308l-20 -113l-494 -246l397 -196l-24 -117zM471 487l18 84l629 308l-20 -113l-494 -246l397 -196l-24 -117z" />
<glyph unicode="&#xac;" horiz-adv-x="909" d="M39 455l37 161h741l-104 -512h-232l72 351h-514z" />
<glyph unicode="&#xad;" horiz-adv-x="593" d="M39 455l37 161h409l-34 -161h-412z" />
<glyph unicode="&#xae;" horiz-adv-x="1132" d="M70 684q0 143 66.5 264t180 190.5t248.5 69.5q133 0 247 -69.5t181.5 -189.5t67.5 -263t-67.5 -264t-181.5 -190.5t-247 -69.5t-247.5 70.5t-181 190.5t-66.5 261zM164 684q0 -121 54 -221.5t147.5 -157.5t203.5 -57q109 0 202 57t147.5 157.5t54.5 221.5t-54.5 221.5 t-147.5 157.5t-202 57q-111 0 -204 -57t-147 -157.5t-54 -221.5zM360 393l2 596h193q113 0 179.5 -45t66.5 -127q0 -55 -33 -98t-88 -60l133 -256l-96 -14l-127 256h-135v-252h-95zM455 723h106q57 0 101.5 19.5t44.5 70.5q0 49 -45.5 70.5t-104.5 21.5h-102v-182z" />
<glyph unicode="&#xb1;" horiz-adv-x="980" d="M45 229l37 162h717l-35 -162h-719zM121 791l37 161h291l61 285h164l-62 -285h299l-34 -161h-302l-63 -295h-164l64 295h-291z" />
<glyph unicode="&#xb4;" horiz-adv-x="647" d="M246 1149l186 387h215l-289 -387h-112z" />
<glyph unicode="&#xb5;" d="M-150 -340l144 676l6 31l139 657h295l-147 -696q-6 -25 -6 -52q0 -90 61 -90q57 0 98 48.5t66 132.5l139 657h295l-147 -696q-8 -31 -9 -66q0 -41 19.5 -58.5t64.5 -17.5q57 0 99.5 49.5t66.5 131.5h86q-125 -367 -411 -367q-86 0 -138.5 46t-62.5 138 q-115 -184 -293 -184l-55 -266z" />
<glyph unicode="&#xb8;" horiz-adv-x="464" d="M10 -369l35 56q29 -29 69 -45.5t79 -16.5q45 0 73.5 23.5t28.5 60.5q0 33 -23.5 52.5t-62.5 19.5q-51 0 -100 -25l-9 8l117 295l88 -6l-76 -188q70 20 109 20q68 0 107.5 -36.5t39.5 -98.5q0 -57 -36.5 -106.5t-99 -78t-134.5 -28.5q-61 0 -115.5 24.5t-89.5 69.5z" />
<glyph unicode="&#xba;" horiz-adv-x="673" d="M86 1137q0 193 89 291t222 98q45 0 79 -13.5t34 -35.5q0 -23 -14.5 -34t-38.5 -20q-14 39 -54 39q-53 0 -88.5 -56t-53 -131t-17.5 -128q0 -47 21.5 -65.5t62.5 -18.5q51 0 81.5 66.5t39.5 154.5q-31 10 -31 45q0 29 25.5 56.5t54.5 27.5q23 0 31 -8t8 -31q25 14 43 36 t24 30l12 -23q-16 -43 -32.5 -70.5t-46.5 -46.5q-4 -109 -46 -187.5t-101.5 -118.5t-117.5 -40q-98 0 -142 42t-44 141z" />
<glyph unicode="&#xbb;" horiz-adv-x="1200" d="M31 207l28 117l492 196l-397 246l18 113l504 -308l-23 -110zM485 207l29 117l492 196l-398 246l19 113l503 -308l-22 -110z" />
<glyph unicode="&#xd3;" horiz-adv-x="1361" d="M33 977q0 141 115.5 270t307 209t402.5 80q256 0 370.5 -139.5t114.5 -384.5q0 -219 -81.5 -457t-252.5 -402.5t-421 -164.5q-172 0 -269.5 98t-97.5 313q0 182 65.5 409.5t191.5 389.5t298 162q61 0 107 -17q-90 -53 -173 -219t-134.5 -370.5t-51.5 -362.5 q0 -111 29 -174t90 -63q100 0 199.5 144t164 363.5t64.5 421.5q0 127 -21.5 204t-79 116t-161.5 39q-158 0 -293 -64.5t-216 -184.5t-81 -278q0 -55 10.5 -80.5t10.5 -29.5q-102 0 -154.5 41t-52.5 131zM813 1661l186 387h215l-247 -387h-154z" />
<glyph unicode="&#xf3;" horiz-adv-x="899" d="M-29 315q0 139 57.5 309.5t184.5 294t319 123.5q262 0 263 -327v-2q6 -2 22 -2q68 0 156 35.5t160 87.5l18 -56q-59 -63 -154.5 -107t-208.5 -63q-16 -186 -83.5 -325.5t-174 -215t-231.5 -75.5q-152 0 -240 77.5t-88 245.5zM276 342q0 -98 23 -132t82 -34q49 0 98 56.5 t86 153.5t53 216q-55 12 -55 86q0 84 64 111q-4 68 -20.5 93.5t-57.5 25.5q-68 0 -131.5 -98.5t-102.5 -236t-39 -241.5zM461 1149l186 387h215l-248 -387h-153z" />
<glyph unicode="&#xf7;" horiz-adv-x="849" d="M80 616l37 162h717l-35 -162h-719zM240 334q0 68 47 116t114 48q68 0 116 -48.5t48 -115.5q0 -68 -48 -115t-116 -47q-67 0 -114 47t-47 115zM362 1061q0 68 47.5 116t114.5 48q68 0 116 -48.5t48 -115.5q0 -68 -48 -115t-116 -47q-67 0 -114.5 47t-47.5 115z" />
<glyph unicode="&#x100;" horiz-adv-x="1368" d="M18 686q0 70 54.5 127t150.5 91t213 34q43 0 107 -6q168 266 355 435t357 169q98 0 162 -29l-321 -1507h-295l157 743q-76 35 -139 51.5t-135 22.5q-117 -252 -191.5 -515t-74.5 -421q0 -78 28 -114q-75 0 -132.5 12t-99.5 59t-42 146q0 137 83 368.5t218 464.5 q-102 -6 -161.5 -30.5t-78.5 -75.5q8 0 17.5 -20.5t9.5 -43.5q0 -37 -32.5 -58.5t-82.5 -21.5q-57 0 -92 31t-35 88zM727 905q147 -29 250 -71l119 557q-88 -47 -183.5 -175.5t-185.5 -310.5zM913 1739l33 151h656l-31 -151h-658z" />
<glyph unicode="&#x101;" horiz-adv-x="1077" d="M-27 317q0 152 60.5 319t180.5 282.5t286 115.5q84 0 125 -28.5t41 -75.5v-15l22 109h295l-147 -696q-8 -31 -9 -66q0 -88 84 -88q57 0 99.5 53.5t66.5 139.5h86q-76 -221 -187.5 -300t-223.5 -79q-86 0 -138.5 48t-62.5 140q-59 -84 -132 -136t-173 -52 q-117 0 -195 79.5t-78 249.5zM276 346q0 -102 30 -131t73 -29q51 0 101 48.5t69 132.5l98 462q0 27 -20.5 52.5t-63.5 25.5q-82 0 -147.5 -95t-102.5 -229t-37 -237zM334 1239l33 154h655l-31 -154h-657z" />
<glyph unicode="&#x102;" horiz-adv-x="1368" d="M18 686q0 70 54.5 127t150.5 91t213 34q43 0 107 -6q168 266 355 435t357 169q98 0 162 -29l-321 -1507h-295l157 743q-76 35 -139 51.5t-135 22.5q-117 -252 -191.5 -515t-74.5 -421q0 -78 28 -114q-75 0 -132.5 12t-99.5 59t-42 146q0 137 83 368.5t218 464.5 q-102 -6 -161.5 -30.5t-78.5 -75.5q8 0 17.5 -20.5t9.5 -43.5q0 -37 -32.5 -58.5t-82.5 -21.5q-57 0 -92 31t-35 88zM727 905q147 -29 250 -71l119 557q-88 -47 -183.5 -175.5t-185.5 -310.5zM944 1954h184q0 -82 42 -126t118 -44q86 0 150.5 49t74.5 121h177 q-12 -80 -73 -145.5t-156 -102.5t-204 -37q-151 0 -232 73t-81 212z" />
<glyph unicode="&#x103;" horiz-adv-x="1077" d="M-27 317q0 152 60.5 319t180.5 282.5t286 115.5q84 0 125 -28.5t41 -75.5v-15l22 109h295l-147 -696q-8 -31 -9 -66q0 -88 84 -88q57 0 99.5 53.5t66.5 139.5h86q-76 -221 -187.5 -300t-223.5 -79q-86 0 -138.5 48t-62.5 140q-59 -84 -132 -136t-173 -52 q-117 0 -195 79.5t-78 249.5zM276 346q0 -102 30 -131t73 -29q51 0 101 48.5t69 132.5l98 462q0 27 -20.5 52.5t-63.5 25.5q-82 0 -147.5 -95t-102.5 -229t-37 -237zM309 1491h183q0 -82 41.5 -126t119.5 -44q84 0 148.5 49t75.5 121h176q-10 -80 -71.5 -144.5t-157 -102.5 t-203.5 -38q-152 0 -232 73t-80 212z" />
<glyph unicode="&#x104;" horiz-adv-x="1368" d="M18 686q0 70 54.5 127t150.5 91t213 34q43 0 107 -6q168 266 355 435t357 169q98 0 162 -29l-321 -1507h-76q-45 -25 -78 -73t-33 -99q0 -41 20.5 -71.5t59.5 -30.5q27 0 52.5 13t50 30.5t36.5 25.5q-4 -49 -4 -63q-59 -59 -107 -93t-116 -34q-78 0 -120 49t-42 110 q0 55 37 117t109 119h-84l157 743q-76 35 -139 51.5t-135 22.5q-117 -252 -191.5 -515t-74.5 -421q0 -78 28 -114q-76 0 -133 12t-99 59t-42 146q0 137 83 368.5t218 464.5q-102 -6 -161.5 -30.5t-78.5 -75.5q8 0 17.5 -20.5t9.5 -43.5q0 -37 -32.5 -58.5t-82.5 -21.5 q-57 0 -92 31t-35 88zM727 905q147 -29 250 -71l119 557q-88 -47 -183.5 -175.5t-185.5 -310.5z" />
<glyph unicode="&#x105;" horiz-adv-x="1077" d="M-27 317q0 152 60.5 319t180.5 282.5t286 115.5q84 0 125 -28.5t41 -75.5v-15l22 109h295l-147 -696q-8 -31 -9 -66q0 -88 84 -88q57 0 99.5 53.5t66.5 139.5h86q-57 -156 -128.5 -238t-157.5 -119q-39 -20 -77 -72.5t-38 -109.5q0 -41 20.5 -71.5t59.5 -30.5 q27 0 52.5 13t50 30.5t36.5 25.5q-4 -49 -4 -63q-59 -59 -107.5 -93t-115.5 -34q-78 0 -120 49t-42 110q0 113 131 226q-76 8 -120 55t-52 131q-59 -84 -132 -136t-173 -52q-117 0 -195 79.5t-78 249.5zM276 346q0 -102 30 -131t73 -29q51 0 101 48.5t69 132.5l98 462 q0 27 -20.5 52.5t-63.5 25.5q-82 0 -147.5 -95t-102.5 -229t-37 -237z" />
<glyph unicode="&#x106;" horiz-adv-x="1017" d="M39 471q0 215 72.5 463t233.5 425t409 177q154 0 248 -67.5t94 -206.5q0 -88 -35 -138.5t-109 -50.5t-116 53q37 18 65.5 73.5t28.5 115.5q0 55 -30 90t-95 35q-109 0 -207 -148.5t-158.5 -374t-60.5 -434.5q0 -156 53 -237.5t193 -81.5q121 0 223 53t176 152l47 -21 q-51 -129 -151.5 -215t-215 -126t-217.5 -40q-231 0 -339.5 117t-108.5 387zM690 1661l187 387h215l-248 -387h-154z" />
<glyph unicode="&#x107;" horiz-adv-x="786" d="M-27 313q0 141 56.5 311.5t180.5 294t314 123.5q123 0 175.5 -53t52.5 -135q0 -72 -31 -110.5t-78 -38.5q-35 0 -72 24q25 68 25 121q0 39 -14.5 61.5t-42.5 22.5q-61 0 -123 -100.5t-101 -244t-39 -257.5q0 -100 35 -136t113 -36q111 0 189.5 51t172.5 156h70 q-227 -379 -563 -379q-152 0 -236 78.5t-84 246.5zM500 1149l186 387h215l-248 -387h-153z" />
<glyph unicode="&#x108;" horiz-adv-x="1017" d="M39 471q0 215 72.5 463t233.5 425t409 177q154 0 248 -67.5t94 -206.5q0 -88 -35 -138.5t-109 -50.5t-116 53q37 18 65.5 73.5t28.5 115.5q0 55 -30 90t-95 35q-109 0 -207 -148.5t-158.5 -374t-60.5 -434.5q0 -156 53 -237.5t193 -81.5q121 0 223 53t176 152l47 -21 q-51 -129 -151.5 -215t-215 -126t-217.5 -40q-231 0 -339.5 117t-108.5 387zM414 1661l434 387h43l123 -387h-66l-123 164l-321 -164h-90z" />
<glyph unicode="&#x109;" horiz-adv-x="786" d="M-27 313q0 141 56.5 311.5t180.5 294t314 123.5q123 0 175.5 -53t52.5 -135q0 -72 -31 -110.5t-78 -38.5q-35 0 -72 24q25 68 25 121q0 39 -14.5 61.5t-42.5 22.5q-61 0 -123 -100.5t-101 -244t-39 -257.5q0 -100 35 -136t113 -36q111 0 189.5 51t172.5 156h70 q-227 -379 -563 -379q-152 0 -236 78.5t-84 246.5zM219 1149l434 387h43l123 -387h-65l-123 164l-322 -164h-90z" />
<glyph unicode="&#x10a;" horiz-adv-x="1017" d="M39 471q0 215 72.5 463t233.5 425t409 177q154 0 248 -67.5t94 -206.5q0 -88 -35 -138.5t-109 -50.5t-116 53q37 18 65.5 73.5t28.5 115.5q0 55 -30 90t-95 35q-109 0 -207 -148.5t-158.5 -374t-60.5 -434.5q0 -156 53 -237.5t193 -81.5q121 0 223 53t176 152l47 -21 q-51 -129 -151.5 -215t-215 -126t-217.5 -40q-231 0 -339.5 117t-108.5 387zM750 1843q0 70 47 117t114 47q68 0 116 -47t48 -117q0 -68 -48 -114t-116 -46q-67 0 -114 46.5t-47 113.5z" />
<glyph unicode="&#x10b;" horiz-adv-x="786" d="M-27 313q0 141 56.5 311.5t180.5 294t314 123.5q123 0 175.5 -53t52.5 -135q0 -72 -31 -110.5t-78 -38.5q-35 0 -72 24q25 68 25 121q0 39 -14.5 61.5t-42.5 22.5q-61 0 -123 -100.5t-101 -244t-39 -257.5q0 -100 35 -136t113 -36q111 0 189.5 51t172.5 156h70 q-227 -379 -563 -379q-152 0 -236 78.5t-84 246.5zM444 1386q0 68 47.5 116t114.5 48q68 0 116 -48t48 -116t-48 -114.5t-116 -46.5q-67 0 -114.5 47t-47.5 114z" />
<glyph unicode="&#x10c;" horiz-adv-x="1017" d="M39 471q0 215 72.5 463t233.5 425t409 177q154 0 248 -67.5t94 -206.5q0 -88 -35 -138.5t-109 -50.5t-116 53q37 18 65.5 73.5t28.5 115.5q0 55 -30 90t-95 35q-109 0 -207 -148.5t-158.5 -374t-60.5 -434.5q0 -156 53 -237.5t193 -81.5q121 0 223 53t176 152l47 -21 q-51 -129 -151.5 -215t-215 -126t-217.5 -40q-231 0 -339.5 117t-108.5 387zM598 2048h66l122 -164l322 164h90l-434 -387h-43z" />
<glyph unicode="&#x10d;" horiz-adv-x="786" d="M-27 313q0 141 56.5 311.5t180.5 294t314 123.5q123 0 175.5 -53t52.5 -135q0 -72 -31 -110.5t-78 -38.5q-35 0 -72 24q25 68 25 121q0 39 -14.5 61.5t-42.5 22.5q-61 0 -123 -100.5t-101 -244t-39 -257.5q0 -100 35 -136t113 -36q111 0 189.5 51t172.5 156h70 q-227 -379 -563 -379q-152 0 -236 78.5t-84 246.5zM401 1536h66l123 -164l321 164h90l-434 -387h-43z" />
<glyph unicode="&#x10e;" horiz-adv-x="1357" d="M12 995q0 139 104.5 264t279.5 201t378 76q281 0 414 -166t133 -424q0 -233 -79 -459.5t-210 -370t-278 -143.5q-123 0 -250 109l-17 -82h-294l278 1303l303 40l-246 -1148q57 -41 117 -41q117 0 206 135t138 344t49 422q0 201 -78.5 294t-220.5 93q-154 0 -275.5 -60.5 t-191 -173t-69.5 -264.5q0 -76 14 -105.5t14 -33.5q-106 0 -162.5 45t-56.5 145zM612 2048h66l123 -164l321 164h90l-434 -387h-43z" />
<glyph unicode="&#x10f;" horiz-adv-x="1075" d="M-27 317q0 152 60.5 319t180.5 282.5t286 115.5q84 0 125 -28.5t41 -75.5v-8l100 471l303 41l-235 -1106q-8 -31 -9 -66q0 -41 19.5 -58.5t64.5 -17.5q57 0 99.5 49.5t66.5 131.5h86q-125 -367 -411 -367q-84 0 -136.5 45t-64.5 131q-53 -82 -128 -135t-175 -53 q-117 0 -195 79.5t-78 249.5zM276 346q0 -102 30 -131t73 -29q49 0 99 45t69 125v11l100 469q-18 72 -84 71q-82 0 -147.5 -95t-102.5 -229t-37 -237zM1147 1450q0 49 35 81t92 32q55 0 89 -36t34 -95q0 -80 -56.5 -168t-144.5 -146l-45 47q45 49 61.5 76t16.5 49 q0 18 -8.5 31.5t-28.5 36.5q-23 25 -34 45t-11 47z" />
<glyph unicode="&#x110;" horiz-adv-x="1357" d="M12 1004q0 131 107.5 254.5t275.5 200.5t336 77q590 0 590 -553q0 -260 -79 -493.5t-210 -375t-278 -141.5q-123 0 -250 109l-17 -82h-294l151 707h-80l41 151h72l94 445l303 40l-104 -485h161l-40 -151h-154l-109 -512q57 -41 117 -41q115 0 205 135t139 342t49 409 q0 139 -22.5 224.5t-84 131.5t-175.5 46q-166 0 -291 -59.5t-193.5 -172t-68.5 -266.5q0 -76 14 -105.5t14 -33.5q-111 0 -165 46t-54 153z" />
<glyph unicode="&#x111;" horiz-adv-x="1075" d="M-27 317q0 152 60.5 319t180.5 282.5t286 115.5q84 0 125 -28.5t41 -75.5v-8l47 223h-181l27 102h176l31 146l303 41l-39 -187h164l-31 -102h-155l-174 -817q-8 -31 -9 -66q0 -41 19.5 -58.5t64.5 -17.5q57 0 99.5 49.5t66.5 131.5h86q-125 -367 -411 -367 q-84 0 -136.5 45t-64.5 131q-53 -82 -128 -135t-175 -53q-117 0 -195 79.5t-78 249.5zM276 346q0 -102 30 -131t73 -29q49 0 99 45t69 125v11l100 469q-18 72 -84 71q-82 0 -147.5 -95t-102.5 -229t-37 -237z" />
<glyph unicode="&#x112;" horiz-adv-x="940" d="M14 324q0 111 46 222t132.5 195t200.5 113q-63 45 -94 109.5t-31 136.5q0 106 58.5 208.5t162 167t228.5 64.5q129 0 211 -67.5t82 -188.5q0 -90 -45 -151.5t-107 -61.5q-55 0 -96 55q37 12 63.5 67.5t26.5 111.5q0 59 -33 86.5t-80 27.5q-59 0 -107 -42t-75 -108.5 t-27 -138.5q0 -98 51.5 -172.5t155.5 -101.5q-104 -23 -188 -102.5t-131 -185t-47 -201.5q0 -92 48 -149.5t146 -57.5q102 0 214 56t165 153l47 -21q-80 -176 -245.5 -280.5t-354.5 -104.5q-186 0 -281.5 102.5t-95.5 258.5zM459 1739l33 151h655l-31 -151h-657z" />
<glyph unicode="&#x113;" horiz-adv-x="786" d="M-27 313q0 141 55.5 311.5t180.5 294t317 123.5q225 0 226 -196q0 -115 -65.5 -211t-174.5 -154.5t-231 -66.5q-4 -61 -5 -82q0 -100 35 -136t113 -36q111 0 189.5 51t172.5 156h70q-227 -379 -563 -379q-152 0 -236 78.5t-84 246.5zM164 1239l33 154h655l-31 -154h-657z M297 512q76 4 144.5 53t110.5 125t42 160t-51 84q-74 0 -144.5 -129t-101.5 -293z" />
<glyph unicode="&#x114;" horiz-adv-x="940" d="M14 324q0 111 46 222t132.5 195t200.5 113q-63 45 -94 109.5t-31 136.5q0 106 58.5 208.5t162 167t228.5 64.5q129 0 211 -67.5t82 -188.5q0 -90 -45 -151.5t-107 -61.5q-55 0 -96 55q37 12 63.5 67.5t26.5 111.5q0 59 -33 86.5t-80 27.5q-59 0 -107 -42t-75 -108.5 t-27 -138.5q0 -98 51.5 -172.5t155.5 -101.5q-104 -23 -188 -102.5t-131 -185t-47 -201.5q0 -92 48 -149.5t146 -57.5q102 0 214 56t165 153l47 -21q-80 -176 -245.5 -280.5t-354.5 -104.5q-186 0 -281.5 102.5t-95.5 258.5zM455 1954h184q0 -82 41 -126t119 -44 q84 0 149.5 49t75.5 121h174q-10 -80 -71.5 -144.5t-155.5 -102.5t-203 -38q-154 0 -233.5 73t-79.5 212z" />
<glyph unicode="&#x115;" horiz-adv-x="786" d="M-27 313q0 141 55.5 311.5t180.5 294t317 123.5q225 0 226 -196q0 -115 -65.5 -211t-174.5 -154.5t-231 -66.5q-4 -61 -5 -82q0 -100 35 -136t113 -36q111 0 189.5 51t172.5 156h70q-227 -379 -563 -379q-152 0 -236 78.5t-84 246.5zM150 1491h182q0 -82 42 -126t120 -44 q84 0 148.5 49t74.5 121h176q-10 -80 -71.5 -144.5t-157 -102.5t-203.5 -38q-152 0 -231.5 73t-79.5 212zM297 512q76 4 144.5 53t110.5 125t42 160t-51 84q-74 0 -144.5 -129t-101.5 -293z" />
<glyph unicode="&#x116;" horiz-adv-x="940" d="M14 324q0 111 46 222t132.5 195t200.5 113q-63 45 -94 109.5t-31 136.5q0 106 58.5 208.5t162 167t228.5 64.5q129 0 211 -67.5t82 -188.5q0 -90 -45 -151.5t-107 -61.5q-55 0 -96 55q37 12 63.5 67.5t26.5 111.5q0 59 -33 86.5t-80 27.5q-59 0 -107 -42t-75 -108.5 t-27 -138.5q0 -98 51.5 -172.5t155.5 -101.5q-104 -23 -188 -102.5t-131 -185t-47 -201.5q0 -92 48 -149.5t146 -57.5q102 0 214 56t165 153l47 -21q-80 -176 -245.5 -280.5t-354.5 -104.5q-186 0 -281.5 102.5t-95.5 258.5zM659 1843q0 70 47.5 117t114.5 47q68 0 116 -47 t48 -117q0 -68 -48 -114t-116 -46q-67 0 -114.5 46.5t-47.5 113.5z" />
<glyph unicode="&#x117;" horiz-adv-x="786" d="M-27 313q0 141 55.5 311.5t180.5 294t317 123.5q225 0 226 -196q0 -115 -65.5 -211t-174.5 -154.5t-231 -66.5q-4 -61 -5 -82q0 -100 35 -136t113 -36q111 0 189.5 51t172.5 156h70q-227 -379 -563 -379q-152 0 -236 78.5t-84 246.5zM297 512q76 4 144.5 53t110.5 125 t42 160t-51 84q-74 0 -144.5 -129t-101.5 -293zM434 1386q0 68 48 116t116 48q66 0 115 -48t49 -116t-48 -114.5t-116 -46.5t-116 47t-48 114z" />
<glyph unicode="&#x118;" horiz-adv-x="940" d="M23 401q0 100 43 195.5t125.5 164t201.5 93.5q-100 55 -151.5 137t-51.5 174q0 96 54.5 181.5t158 137.5t242.5 52q158 0 267.5 -68.5t109.5 -205.5q0 -88 -35 -138.5t-108 -50.5q-74 0 -117 53q35 12 62.5 68.5t27.5 99.5q0 53 -25.5 102.5t-109.5 49.5 q-109 0 -179.5 -74t-70.5 -178q0 -98 65.5 -186t204.5 -152q-184 -76 -270 -185.5t-86 -226.5q0 -74 32.5 -136t88 -99t119.5 -37q115 0 189.5 47t133.5 150l47 -21q-31 -92 -82 -149.5t-129 -116.5q-82 -63 -119.5 -114.5t-37.5 -139.5q0 -41 20.5 -71.5t58.5 -30.5 q27 0 52.5 13t50 30.5t37.5 25.5q-4 -49 -4 -63q-59 -59 -107.5 -93t-116.5 -34q-77 0 -119 49t-42 110q0 57 37.5 120t109.5 118q-72 -14 -154 -14q-135 0 -231 57t-144 152.5t-48 203.5z" />
<glyph unicode="&#x119;" horiz-adv-x="786" d="M-27 313q0 141 55.5 311.5t180.5 294t317 123.5q225 0 226 -196q0 -115 -65.5 -211t-174.5 -154.5t-231 -66.5q-4 -61 -5 -82q0 -100 35 -136t113 -36q111 0 189.5 51t172.5 156h70q-70 -119 -138.5 -185.5t-158.5 -130.5q-80 -53 -113.5 -97t-33.5 -126 q0 -41 20.5 -71.5t59.5 -30.5q27 0 52 13t49.5 30.5t37.5 25.5q-4 -49 -4 -63q-59 -59 -107.5 -93t-116.5 -34q-77 0 -119 49t-42 110q0 55 34.5 115t102.5 115q-39 -6 -86 -6q-152 0 -236 78.5t-84 246.5zM297 512q76 4 144.5 53t110.5 125t42 160t-51 84 q-74 0 -144.5 -129t-101.5 -293z" />
<glyph unicode="&#x11a;" horiz-adv-x="940" d="M14 324q0 111 46 222t132.5 195t200.5 113q-63 45 -94 109.5t-31 136.5q0 106 58.5 208.5t162 167t228.5 64.5q129 0 211 -67.5t82 -188.5q0 -90 -45 -151.5t-107 -61.5q-55 0 -96 55q37 12 63.5 67.5t26.5 111.5q0 59 -33 86.5t-80 27.5q-59 0 -107 -42t-75 -108.5 t-27 -138.5q0 -98 51.5 -172.5t155.5 -101.5q-104 -23 -188 -102.5t-131 -185t-47 -201.5q0 -92 48 -149.5t146 -57.5q102 0 214 56t165 153l47 -21q-80 -176 -245.5 -280.5t-354.5 -104.5q-186 0 -281.5 102.5t-95.5 258.5zM612 2048h66l123 -164l321 164h90l-434 -387h-43 z" />
<glyph unicode="&#x11b;" horiz-adv-x="786" d="M-27 313q0 141 55.5 311.5t180.5 294t317 123.5q225 0 226 -196q0 -115 -65.5 -211t-174.5 -154.5t-231 -66.5q-4 -61 -5 -82q0 -100 35 -136t113 -36q111 0 189.5 51t172.5 156h70q-227 -379 -563 -379q-152 0 -236 78.5t-84 246.5zM297 512q76 4 144.5 53t110.5 125 t42 160t-51 84q-74 0 -144.5 -129t-101.5 -293zM395 1536h66l123 -164l321 164h90l-434 -387h-43z" />
<glyph unicode="&#x11c;" horiz-adv-x="1183" d="M39 741q0 225 98.5 410.5t270.5 292t378 106.5q174 0 275.5 -75.5t101.5 -206.5q0 -88 -43 -141.5t-112 -53.5q-39 0 -73 16.5t-56 47.5q37 25 62.5 79t25.5 109q0 61 -36 95t-102 34q-119 0 -229.5 -105.5t-178 -275.5t-67.5 -356q0 -154 49.5 -235t141.5 -81 q111 0 195.5 117t136.5 340l241 -2l-149 -688q-66 -305 -185.5 -448.5t-310.5 -143.5q-149 0 -240.5 77t-91.5 202q0 78 37 143t100.5 103t139.5 38q78 0 126 -39t48 -102q0 -49 -23 -78q-18 25 -50 39t-66 14q-61 0 -100.5 -41t-39.5 -106q0 -66 38 -107t95 -41 q72 0 123.5 63.5t77.5 188.5l103 453h-9q-55 -78 -134 -119t-173 -41q-119 0 -209 63.5t-138 181.5t-48 273zM512 1661l432 387h43l123 -387h-63l-123 164l-324 -164h-88z" />
<glyph unicode="&#x11d;" horiz-adv-x="1038" d="M-27 317q0 152 60.5 319t180.5 282.5t286 115.5q84 0 125 -28.5t41 -75.5v-12l22 106h295l-203 -950q98 33 157.5 98.5t100.5 194.5h86q-55 -182 -149 -267.5t-213 -115.5l-31 -148q-41 -199 -141.5 -273.5t-227.5 -74.5q-98 0 -163.5 51t-65.5 148q0 117 94.5 187.5 t239.5 117.5l25 108q-104 -113 -246 -112q-117 0 -195 79.5t-78 249.5zM246 -285q0 -27 18.5 -47t50.5 -20q35 0 68 47t51 135l12 59q-201 -74 -200 -174zM276 346q0 -102 30 -131t73 -29q47 0 96 43t68 117l104 485q0 25 -20.5 50.5t-63.5 25.5q-82 0 -147.5 -95 t-102.5 -229t-37 -237zM319 1149l435 387h43l123 -387h-66l-123 164l-321 -164h-91z" />
<glyph unicode="&#x11e;" horiz-adv-x="1183" d="M39 741q0 225 98.5 410.5t270.5 292t378 106.5q174 0 275.5 -75.5t101.5 -206.5q0 -88 -43 -141.5t-112 -53.5q-39 0 -73 16.5t-56 47.5q37 25 62.5 79t25.5 109q0 61 -36 95t-102 34q-119 0 -229.5 -105.5t-178 -275.5t-67.5 -356q0 -154 49.5 -235t141.5 -81 q111 0 195.5 117t136.5 340l241 -2l-149 -688q-66 -305 -185.5 -448.5t-310.5 -143.5q-149 0 -240.5 77t-91.5 202q0 78 37 143t100.5 103t139.5 38q78 0 126 -39t48 -102q0 -49 -23 -78q-18 25 -50 39t-66 14q-61 0 -100.5 -41t-39.5 -106q0 -66 38 -107t95 -41 q72 0 123.5 63.5t77.5 188.5l103 453h-9q-55 -78 -134 -119t-173 -41q-119 0 -209 63.5t-138 181.5t-48 273zM573 1954h185q0 -82 41 -126t119 -44q84 0 149.5 49t75.5 121h176q-12 -80 -72.5 -145.5t-156 -102.5t-203.5 -37q-154 0 -234 73t-80 212z" />
<glyph unicode="&#x11f;" horiz-adv-x="1038" d="M-27 317q0 152 60.5 319t180.5 282.5t286 115.5q84 0 125 -28.5t41 -75.5v-12l22 106h295l-203 -950q98 33 157.5 98.5t100.5 194.5h86q-55 -182 -149 -267.5t-213 -115.5l-31 -148q-41 -199 -141.5 -273.5t-227.5 -74.5q-98 0 -163.5 51t-65.5 148q0 117 94.5 187.5 t239.5 117.5l25 108q-104 -113 -246 -112q-117 0 -195 79.5t-78 249.5zM246 -285q0 -27 18.5 -47t50.5 -20q35 0 68 47t51 135l12 59q-201 -74 -200 -174zM276 346q0 -102 30 -131t73 -29q47 0 96 43t68 117l104 485q0 25 -20.5 50.5t-63.5 25.5q-82 0 -147.5 -95 t-102.5 -229t-37 -237zM309 1491h183q0 -82 41.5 -126t119.5 -44q84 0 148.5 49t75.5 121h176q-10 -80 -71.5 -144.5t-157 -102.5t-203.5 -38q-152 0 -232 73t-80 212z" />
<glyph unicode="&#x120;" horiz-adv-x="1183" d="M39 741q0 225 98.5 410.5t270.5 292t378 106.5q174 0 275.5 -75.5t101.5 -206.5q0 -88 -43 -141.5t-112 -53.5q-39 0 -73 16.5t-56 47.5q37 25 62.5 79t25.5 109q0 61 -36 95t-102 34q-119 0 -229.5 -105.5t-178 -275.5t-67.5 -356q0 -154 49.5 -235t141.5 -81 q111 0 195.5 117t136.5 340l241 -2l-149 -688q-66 -305 -185.5 -448.5t-310.5 -143.5q-149 0 -240.5 77t-91.5 202q0 78 37 143t100.5 103t139.5 38q78 0 126 -39t48 -102q0 -49 -23 -78q-18 25 -50 39t-66 14q-61 0 -100.5 -41t-39.5 -106q0 -66 38 -107t95 -41 q72 0 123.5 63.5t77.5 188.5l103 453h-9q-55 -78 -134 -119t-173 -41q-119 0 -209 63.5t-138 181.5t-48 273zM690 1843q0 70 47 117t115 47t116 -47t48 -117q0 -68 -48 -114t-116 -46t-115 46.5t-47 113.5z" />
<glyph unicode="&#x121;" horiz-adv-x="1038" d="M-27 317q0 152 60.5 319t180.5 282.5t286 115.5q84 0 125 -28.5t41 -75.5v-12l22 106h295l-203 -950q98 33 157.5 98.5t100.5 194.5h86q-55 -182 -149 -267.5t-213 -115.5l-31 -148q-41 -199 -141.5 -273.5t-227.5 -74.5q-98 0 -163.5 51t-65.5 148q0 117 94.5 187.5 t239.5 117.5l25 108q-104 -113 -246 -112q-117 0 -195 79.5t-78 249.5zM246 -285q0 -27 18.5 -47t50.5 -20q35 0 68 47t51 135l12 59q-201 -74 -200 -174zM276 346q0 -102 30 -131t73 -29q47 0 96 43t68 117l104 485q0 25 -20.5 50.5t-63.5 25.5q-82 0 -147.5 -95 t-102.5 -229t-37 -237zM535 1386q0 68 47 116t114 48q68 0 116 -48t48 -116t-48 -114.5t-116 -46.5q-67 0 -114 47t-47 114z" />
<glyph unicode="&#x122;" horiz-adv-x="1183" d="M12 535q0 266 102.5 499.5t273.5 374.5t364 141q145 0 236 -77.5t91 -202.5q0 -86 -43 -139.5t-112 -53.5q-78 0 -125 64q37 27 60.5 79t23.5 107q0 57 -27 92t-74 35q-98 0 -198.5 -139t-166 -354.5t-65.5 -423.5q0 -172 43 -271.5t119 -99.5q66 0 135.5 79t124.5 215 t82 298h242l-168 -758h-264l28 139h-8q-63 -80 -130 -115.5t-153 -35.5q-186 0 -288.5 144t-102.5 403zM412 -227q0 41 31.5 68.5t82.5 27.5q49 0 79 -31t30 -82q0 -68 -50 -142.5t-128 -123.5l-41 41q39 43 54 65.5t15 41.5q0 14 -10 29.5t-22 27.5q-20 20 -30.5 37.5 t-10.5 40.5z" />
<glyph unicode="&#x123;" horiz-adv-x="1038" d="M-27 317q0 152 60.5 319t180.5 282.5t286 115.5q84 0 125 -28.5t41 -75.5v-12l22 106h295l-203 -950q98 33 157.5 98.5t100.5 194.5h86q-55 -182 -149 -267.5t-213 -115.5l-31 -148q-41 -199 -141.5 -273.5t-227.5 -74.5q-98 0 -163.5 51t-65.5 148q0 117 94.5 187.5 t239.5 117.5l25 108q-104 -113 -246 -112q-117 0 -195 79.5t-78 249.5zM246 -285q0 -27 18.5 -47t50.5 -20q35 0 68 47t51 135l12 59q-201 -74 -200 -174zM276 346q0 -102 30 -131t73 -29q47 0 96 43t68 117l104 485q0 25 -20.5 50.5t-63.5 25.5q-82 0 -147.5 -95 t-102.5 -229t-37 -237zM541 1303q0 68 50 142.5t128 123.5l41 -41q-39 -43 -54.5 -65.5t-15.5 -41.5q0 -14 10.5 -29.5t22.5 -27.5q20 -20 30.5 -37.5t10.5 -40.5q0 -41 -32 -68.5t-83 -27.5q-49 0 -78.5 30.5t-29.5 82.5z" />
<glyph unicode="&#x124;" horiz-adv-x="1361" d="M25 1004q0 131 107.5 254.5t275 200.5t335.5 77q29 0 82 -4l-131 -610h301l131 610h295l-325 -1532h-295l164 770h-301l-164 -770h-295l297 1393q-137 -57 -212 -172t-75 -277q0 -76 14.5 -105.5t14.5 -33.5q-111 0 -165 46t-54 153zM690 1661l434 387h43l123 -387h-63 l-123 164l-324 -164h-90z" />
<glyph unicode="&#x125;" d="M-78 0l297 1393l303 41l-110 -516q102 115 239 114q104 0 166 -57t62 -174q0 -59 -14.5 -132t-41.5 -177q-16 -63 -29.5 -124t-13.5 -96q0 -41 18.5 -63.5t63.5 -22.5q61 0 98 44t74 137h86q-76 -225 -175 -302t-206 -77q-125 0 -183 66.5t-58 164.5q0 43 10 97.5 t21.5 105.5t15.5 65q16 72 30.5 141.5t14.5 112.5q0 104 -74 105q-53 0 -94 -52.5t-66 -136.5l-139 -657h-295zM119 1493l434 385h43l123 -385h-66l-123 164l-321 -164h-90z" />
<glyph unicode="&#x126;" horiz-adv-x="1361" d="M25 1004q0 131 107.5 254.5t275 200.5t335.5 77q29 0 82 -4l-80 -373h302l79 373h295l-80 -373h179l-29 -102h-170l-225 -1057h-295l164 770h-301l-164 -770h-295l225 1057h-96l28 102h91l49 234q-137 -57 -212 -172t-75 -277q0 -76 14.5 -105.5t14.5 -33.5 q-111 0 -165 46t-54 153zM694 922h301l29 135h-301z" />
<glyph unicode="&#x127;" d="M-78 0l244 1145h-146l29 102h139l31 146l303 41l-39 -187h199l-29 -102h-192l-49 -227q102 115 239 114q104 0 166 -57t62 -174q0 -59 -14.5 -132t-41.5 -177q-16 -63 -29.5 -124t-13.5 -96q0 -41 18.5 -63.5t63.5 -22.5q61 0 98 44t74 137h86q-76 -225 -175 -302 t-206 -77q-125 0 -183 66.5t-58 164.5q0 43 10 97.5t21.5 105.5t15.5 65q16 72 30.5 141.5t14.5 112.5q0 104 -74 105q-53 0 -94 -52.5t-66 -136.5l-139 -657h-295z" />
<glyph unicode="&#x128;" horiz-adv-x="768" d="M12 1004q0 131 107.5 254.5t275.5 200.5t336 77q29 0 82 -4l-326 -1532h-294l296 1391q-137 -55 -211.5 -169t-74.5 -278q0 -76 14 -105.5t14 -33.5q-111 0 -165 46t-54 153zM270 1704q49 98 137.5 149.5t204.5 51.5q53 0 95.5 -9.5t93.5 -27.5q88 -31 149 -31 q82 0 129 47l13 -2q-10 -47 -60.5 -95t-122 -79t-147.5 -31q-47 0 -90 10.5t-99 30.5q-47 16 -82.5 25.5t-72.5 9.5q-76 0 -135 -53z" />
<glyph unicode="&#x129;" horiz-adv-x="546" d="M-16 233q0 51 16 134l139 657h295l-147 -696q-8 -31 -8 -66q0 -41 19 -58.5t64 -17.5q59 0 110.5 50.5t74.5 130.5h86q-76 -221 -195 -300t-235 -79q-99 0 -159 61.5t-60 183.5zM27 1192q35 98 97 149.5t146 51.5q39 0 69 -9.5t69 -27.5q61 -31 104 -31q59 0 94 47l8 -2 q-6 -47 -41.5 -95t-88 -79t-105.5 -31q-35 0 -65.5 10.5t-69.5 30.5q-70 35 -113 35q-57 0 -94 -53z" />
<glyph unicode="&#x12a;" horiz-adv-x="768" d="M12 1004q0 131 107.5 254.5t275.5 200.5t336 77q29 0 82 -4l-326 -1532h-294l296 1391q-137 -55 -211.5 -169t-74.5 -278q0 -76 14 -105.5t14 -33.5q-111 0 -165 46t-54 153zM313 1739l33 151h655l-30 -151h-658z" />
<glyph unicode="&#x12b;" horiz-adv-x="546" d="M-16 233q0 51 16 134l139 657h295l-147 -696q-8 -31 -8 -66q0 -41 19 -58.5t64 -17.5q59 0 110.5 50.5t74.5 130.5h86q-76 -221 -195 -300t-235 -79q-99 0 -159 61.5t-60 183.5zM43 1239l33 154h534l-28 -154h-539z" />
<glyph unicode="&#x12c;" horiz-adv-x="768" d="M12 1004q0 131 107.5 254.5t275.5 200.5t336 77q29 0 82 -4l-326 -1532h-294l296 1391q-137 -55 -211.5 -169t-74.5 -278q0 -76 14 -105.5t14 -33.5q-111 0 -165 46t-54 153zM354 1954h185q0 -82 42 -126t117 -44q84 0 149.5 49t76.5 121h176q-12 -80 -72.5 -145.5 t-156 -102.5t-203.5 -37q-152 0 -233 73t-81 212z" />
<glyph unicode="&#x12d;" horiz-adv-x="546" d="M-16 233q0 51 16 134l139 657h295l-147 -696q-8 -31 -8 -66q0 -41 19 -58.5t64 -17.5q59 0 110.5 50.5t74.5 130.5h86q-76 -221 -195 -300t-235 -79q-99 0 -159 61.5t-60 183.5zM70 1491h147q0 -82 34 -126t95 -44q70 0 123 49t61 121h144q-8 -80 -58.5 -144.5 t-127 -102.5t-164.5 -38q-125 0 -189.5 73t-64.5 212z" />
<glyph unicode="&#x12e;" horiz-adv-x="768" d="M12 1004q0 131 107.5 254.5t275.5 200.5t336 77q29 0 82 -4l-326 -1532h-110q-41 -31 -63.5 -78t-22.5 -102q0 -57 30.5 -91t81.5 -34q78 0 148 80l35 -47q-33 -70 -109 -118t-153 -48q-88 0 -145.5 54t-57.5 136q0 139 151 248h-79l296 1391q-137 -55 -211.5 -169 t-74.5 -278q0 -76 14 -105.5t14 -33.5q-111 0 -165 46t-54 153zM350 2048h215l60 -387h-154z" />
<glyph unicode="&#x12f;" horiz-adv-x="546" d="M-88 -248q0 150 174 264q-102 57 -102 217q0 51 16 134l139 657h295l-147 -696q-8 -31 -8 -66q0 -41 19 -58.5t64 -17.5q59 0 110.5 50.5t74.5 130.5h86q-76 -221 -195 -300t-235 -79q-16 0 -45 4q-35 -31 -55.5 -76t-20.5 -96q0 -57 30.5 -91t82.5 -34q78 0 147 80 l35 -47q-33 -70 -108.5 -118t-153.5 -48q-88 0 -145.5 54t-57.5 136zM180 1296q0 68 47 116t115 48t116 -48t48 -116t-48 -114.5t-116 -46.5t-115 47t-47 114z" />
<glyph unicode="&#x130;" horiz-adv-x="768" d="M12 1004q0 131 107.5 254.5t275.5 200.5t336 77q29 0 82 -4l-326 -1532h-294l296 1391q-137 -55 -211.5 -169t-74.5 -278q0 -76 14 -105.5t14 -33.5q-111 0 -165 46t-54 153zM569 1843q0 70 47.5 117t114.5 47q68 0 116 -47t48 -117q0 -68 -48 -114t-116 -46 q-67 0 -114.5 46.5t-47.5 113.5z" />
<glyph unicode="&#x131;" horiz-adv-x="546" d="M-16 233q0 51 16 134l139 657h295l-147 -696q-8 -31 -8 -66q0 -41 19 -58.5t64 -17.5q59 0 110.5 50.5t74.5 130.5h86q-76 -221 -195 -300t-235 -79q-99 0 -159 61.5t-60 183.5z" />
<glyph unicode="&#x134;" horiz-adv-x="1097" d="M35 -135q0 111 67.5 192.5t182.5 81.5q88 0 144 -25.5t56 -111.5q0 -37 -12 -82q-37 31 -63.5 42t-59.5 11q-68 0 -105.5 -45t-37.5 -106q0 -72 43 -108t96 -36q49 0 83 19.5t60.5 74t51.5 158.5l321 1463q-137 -55 -213 -170t-76 -279q0 -76 14.5 -105.5t14.5 -33.5 q-111 0 -165 46t-54 153q0 131 107.5 254.5t275.5 200.5t336 77h82l-307 -1454q-53 -252 -176 -379t-363 -127q-145 0 -224 79t-79 210zM711 1661l434 387h43l123 -387h-66l-123 164l-321 -164h-90z" />
<glyph unicode="&#x135;" horiz-adv-x="491" d="M-414 -313q0 199 336 305l219 1032h295l-203 -950q98 33 158 98.5t101 194.5h86q-55 -182 -149.5 -267.5t-213.5 -115.5l-31 -148q-41 -199 -141 -273.5t-227 -74.5q-99 0 -164.5 51t-65.5 148zM-301 -285q0 -27 18.5 -47t51.5 -20q34 0 67 47t51 135l13 59 q-201 -74 -201 -174zM-20 1149l434 387h43l123 -387h-66l-123 164l-321 -164h-90z" />
<glyph unicode="&#x136;" horiz-adv-x="1230" d="M12 1004q0 131 107.5 254.5t275.5 200.5t336 77q29 0 82 -4l-133 -627l211 283q252 340 254 338h215l-569 -656l71 2q139 0 196.5 -58t57.5 -161q0 -59 -14.5 -125.5t-40.5 -165.5q-16 -63 -30.5 -124.5t-14.5 -102.5q0 -47 21.5 -84t58.5 -51q-125 -35 -203 -35 q-160 0 -160 137q0 45 13.5 103.5t37.5 150.5q29 96 43.5 164t14.5 121q0 139 -123 139q-35 0 -68 -8l-164 -772h-294l296 1393q-137 -57 -211.5 -172t-74.5 -277q0 -76 14 -105.5t14 -33.5q-111 0 -165 46t-54 153zM512 -227q0 43 31.5 69.5t83.5 26.5q47 0 76.5 -31 t29.5 -82q0 -68 -49 -142.5t-129 -123.5l-41 41q41 43 56.5 65.5t15.5 41.5q0 14 -10.5 29.5t-22.5 27.5q-20 20 -30.5 37.5t-10.5 40.5z" />
<glyph unicode="&#x137;" horiz-adv-x="1060" d="M-78 0l297 1393l303 41l-153 -721l395 311h203l-410 -285q31 8 68 9q111 0 168 -68t57 -172q0 -43 -8 -78l-23 -102q-10 -37 -10 -66q0 -76 80 -76q61 0 98 44t74 137h86q-127 -379 -377 -379q-127 0 -192.5 60.5t-65.5 172.5q0 49 12 107l17 80q8 35 8 75q0 98 -74 99 q-33 0 -68.5 -18.5t-82.5 -57.5l-107 -506h-295zM281 -227q0 41 31.5 68.5t82.5 27.5q49 0 79 -31t30 -82q0 -68 -50.5 -142.5t-127.5 -123.5l-41 41q39 43 54 65.5t15 41.5q0 14 -10 29.5t-22 27.5q-20 20 -30.5 37.5t-10.5 40.5z" />
<glyph unicode="&#x138;" horiz-adv-x="1060" d="M-78 0l217 1024h297l-67 -311l395 311h203l-410 -285q31 8 68 9q111 0 168 -68t57 -172q0 -43 -8 -78l-23 -102q-10 -37 -10 -66q0 -76 80 -76q61 0 98 44t74 137h86q-127 -379 -377 -379q-127 0 -192.5 60.5t-65.5 172.5q0 49 12 107l17 80q8 35 8 75q0 98 -74 99 q-33 0 -68.5 -18.5t-82.5 -57.5l-107 -506h-295z" />
<glyph unicode="&#x139;" horiz-adv-x="776" d="M12 983q0 131 107.5 255t275.5 201t336 77q29 0 82 -5l-315 -1470q57 -14 117.5 -42t146.5 -75q133 -72 227 -109.5t197 -37.5q92 0 172 33q-16 -150 -72.5 -236t-140.5 -86q-92 0 -181.5 52t-226.5 161q-102 82 -175 132t-158 85t-173 35q-31 0 -47 -2l305 1419 q-137 -55 -211.5 -169t-74.5 -277q0 -76 14 -106t14 -34q-111 0 -165 46.5t-54 152.5zM625 1661l186 387h215l-248 -387h-153z" />
<glyph unicode="&#x13a;" horiz-adv-x="546" d="M-16 233q0 51 16 134l219 1026l303 41l-235 -1106q-8 -31 -8 -66q0 -41 19 -58.5t64 -17.5q59 0 110.5 50.5t74.5 130.5h86q-76 -221 -195 -300t-235 -79q-99 0 -159 61.5t-60 183.5zM328 1532l184 387h215l-248 -387h-151z" />
<glyph unicode="&#x13b;" horiz-adv-x="776" d="M12 983q0 131 107.5 255t275.5 201t336 77q29 0 82 -5l-315 -1470q57 -14 117.5 -42t146.5 -75q133 -72 227 -109.5t197 -37.5q92 0 172 33q-16 -150 -72.5 -236t-140.5 -86q-92 0 -181.5 52t-226.5 161q-102 82 -175 132t-158 85t-173 35q-31 0 -47 -2l305 1419 q-137 -55 -211.5 -169t-74.5 -277q0 -76 14 -106t14 -34q-111 0 -165 46.5t-54 152.5zM162 -227q0 41 31.5 68.5t82.5 27.5q49 0 79 -31t30 -82q0 -68 -50 -142.5t-128 -123.5l-41 41q39 45 54.5 66.5t15.5 40.5q0 14 -10.5 29.5t-22.5 27.5q-20 20 -30.5 37.5t-10.5 40.5z " />
<glyph unicode="&#x13c;" horiz-adv-x="546" d="M-16 233q0 51 16 134l219 1026l303 41l-235 -1106q-8 -31 -8 -66q0 -41 19 -58.5t64 -17.5q59 0 110.5 50.5t74.5 130.5h86q-76 -221 -195 -300t-235 -79q-99 0 -159 61.5t-60 183.5zM0 -227q0 41 33 68.5t84 27.5q47 0 76.5 -31t29.5 -82q0 -68 -49 -142.5t-129 -123.5 l-41 41q41 43 56.5 65.5t15.5 41.5q0 14 -8.5 26t-26.5 31q-20 23 -30.5 39t-10.5 39z" />
<glyph unicode="&#x13d;" horiz-adv-x="776" d="M12 983q0 131 107.5 255t275.5 201t336 77q29 0 82 -5l-315 -1470q57 -14 117.5 -42t146.5 -75q133 -72 227 -109.5t197 -37.5q92 0 172 33q-16 -150 -72.5 -236t-140.5 -86q-92 0 -181.5 52t-226.5 161q-102 82 -175 132t-158 85t-173 35q-31 0 -47 -2l305 1419 q-137 -55 -211.5 -169t-74.5 -277q0 -76 14 -106t14 -34q-111 0 -165 46.5t-54 152.5zM584 2048h63l123 -164l324 164h90l-434 -387h-43z" />
<glyph unicode="&#x13e;" horiz-adv-x="546" d="M-16 233q0 51 16 134l219 1026l303 41l-235 -1106q-8 -31 -8 -66q0 -41 19 -58.5t64 -17.5q59 0 110.5 50.5t74.5 130.5h86q-76 -221 -195 -300t-235 -79q-99 0 -159 61.5t-60 183.5zM575 1450q0 49 36 81t91 32t89 -36t34 -95q0 -80 -55 -168t-143 -146l-47 47 q45 47 61 75t16 50q0 18 -8 31.5t-28 36.5q-23 25 -34.5 45t-11.5 47z" />
<glyph unicode="&#x13f;" horiz-adv-x="1239" d="M12 983q0 131 107.5 255t275.5 201t336 77q29 0 82 -5l-315 -1470q57 -14 117.5 -42t146.5 -75q133 -72 227 -109.5t197 -37.5q92 0 172 33q-16 -150 -72.5 -236t-140.5 -86q-92 0 -181.5 52t-226.5 161q-102 82 -175 132t-158 85t-173 35q-31 0 -47 -2l305 1419 q-137 -55 -211.5 -169t-74.5 -277q0 -76 14 -106t14 -34q-111 0 -165 46.5t-54 152.5zM821 512q0 70 48.5 118t113.5 48q68 0 117 -48t49 -118q0 -66 -49 -113t-117 -47q-65 0 -113.5 47t-48.5 113z" />
<glyph unicode="&#x140;" horiz-adv-x="722" d="M-16 238q0 51 16 133l219 1026l303 41l-235 -1106q-8 -31 -8 -60q0 -82 83 -82q37 0 66 13q-8 -102 -72.5 -158.5t-152.5 -56.5q-99 0 -159 62.5t-60 187.5zM451 686q0 59 35.5 99t91.5 40q55 0 92 -40t37 -99q0 -55 -37 -95t-92 -40q-56 0 -91.5 39t-35.5 96z" />
<glyph unicode="&#x141;" horiz-adv-x="802" d="M12 983q0 131 107.5 255t275.5 201t336 77q29 0 82 -5l-113 -538l238 141l-8 -125l-260 -160l-172 -788q57 -14 117.5 -42t146.5 -75q133 -74 227 -110.5t197 -36.5q92 0 172 33q-16 -150 -72.5 -236t-140.5 -86q-92 0 -181.5 52t-226.5 161q-102 82 -175 132t-158 85 t-173 35q-31 0 -47 -2l144 653l-133 -80l4 109l155 100l135 637q-137 -55 -211.5 -169t-74.5 -277q0 -76 14 -106t14 -34q-111 0 -165 46.5t-54 152.5z" />
<glyph unicode="&#x142;" horiz-adv-x="585" d="M-70 510v119l146 88l143 676l303 41l-102 -486l242 146l-9 -125q-141 -80 -264 -160l-102 -481q-8 -31 -8 -66q0 -41 19 -58.5t64 -17.5q59 0 110.5 50.5t74.5 130.5h86q-76 -221 -195 -300t-235 -79q-99 0 -159 61.5t-60 186.5q0 49 16 131l47 219z" />
<glyph unicode="&#x143;" horiz-adv-x="1437" d="M12 1006q0 143 84 267t227.5 197.5t311.5 73.5q47 0 82 -6t80 -22l245 -1096l230 1112h198l-333 -1532h-283l-238 1016l-233 -1016h-195l310 1403q-139 -49 -212 -154.5t-73 -255.5q0 -66 14.5 -120t40.5 -89q-131 0 -193.5 54.5t-62.5 167.5zM1016 1661l186 387h215 l-248 -387h-153z" />
<glyph unicode="&#x144;" d="M-78 0l217 1024h295l-22 -106q102 115 239 114q104 0 166 -57t62 -174q0 -59 -14.5 -132t-41.5 -177q-16 -63 -29.5 -124t-13.5 -96q0 -41 18.5 -63.5t63.5 -22.5q61 0 98 44t74 137h86q-76 -225 -175 -302t-206 -77q-125 0 -183 66.5t-58 164.5q0 43 10 97.5t21.5 105.5 t15.5 65q16 72 30.5 141.5t14.5 112.5q0 104 -74 105q-53 0 -94 -52.5t-66 -136.5l-139 -657h-295zM541 1149l186 387h215l-248 -387h-153z" />
<glyph unicode="&#x145;" horiz-adv-x="1368" d="M12 1006q0 143 84 267t227.5 197.5t311.5 73.5q47 0 82 -6t80 -22l245 -1096l230 1112h198l-333 -1532h-283l-238 1016l-233 -1016h-195l310 1403q-139 -49 -212 -154.5t-73 -255.5q0 -66 14.5 -120t40.5 -89q-131 0 -193.5 54.5t-62.5 167.5zM502 -227q0 41 31.5 68.5 t82.5 27.5q49 0 79 -31t30 -82q0 -68 -50 -142.5t-128 -123.5l-41 41q39 45 54 66.5t15 40.5q0 14 -10 29.5t-22 27.5q-20 20 -30.5 37.5t-10.5 40.5z" />
<glyph unicode="&#x146;" d="M-78 0l217 1024h295l-22 -106q102 115 239 114q104 0 166 -57t62 -174q0 -59 -14.5 -132t-41.5 -177q-16 -63 -29.5 -124t-13.5 -96q0 -41 18.5 -63.5t63.5 -22.5q61 0 98 44t74 137h86q-76 -225 -175 -302t-206 -77q-125 0 -183 66.5t-58 164.5q0 43 10 97.5t21.5 105.5 t15.5 65q16 72 30.5 141.5t14.5 112.5q0 104 -74 105q-53 0 -94 -52.5t-66 -136.5l-139 -657h-295zM221 -227q0 41 32 68.5t83 27.5q49 0 78.5 -31t29.5 -82q0 -68 -50 -142.5t-128 -123.5l-41 41q39 43 54.5 65.5t15.5 41.5q0 14 -10.5 29.5t-22.5 27.5q-20 20 -30.5 37.5 t-10.5 40.5z" />
<glyph unicode="&#x147;" horiz-adv-x="1368" d="M12 1006q0 143 84 267t227.5 197.5t311.5 73.5q47 0 82 -6t80 -22l245 -1096l230 1112h198l-333 -1532h-283l-238 1016l-233 -1016h-195l310 1403q-139 -49 -212 -154.5t-73 -255.5q0 -66 14.5 -120t40.5 -89q-131 0 -193.5 54.5t-62.5 167.5zM903 2048h66l123 -164 l321 164h90l-434 -387h-43z" />
<glyph unicode="&#x148;" d="M-78 0l217 1024h295l-22 -106q102 115 239 114q104 0 166 -57t62 -174q0 -59 -14.5 -132t-41.5 -177q-16 -63 -29.5 -124t-13.5 -96q0 -41 18.5 -63.5t63.5 -22.5q61 0 98 44t74 137h86q-76 -225 -175 -302t-206 -77q-125 0 -183 66.5t-58 164.5q0 43 10 97.5t21.5 105.5 t15.5 65q16 72 30.5 141.5t14.5 112.5q0 104 -74 105q-53 0 -94 -52.5t-66 -136.5l-139 -657h-295zM365 1536h65l123 -164l321 164h91l-435 -387h-43z" />
<glyph unicode="&#x149;" d="M-78 0l217 1024h295l-22 -106q102 115 239 114q104 0 166 -57t62 -174q0 -59 -14.5 -132t-41.5 -177q-16 -63 -29.5 -124t-13.5 -96q0 -41 18.5 -63.5t63.5 -22.5q61 0 98 44t74 137h86q-76 -225 -175 -302t-206 -77q-125 0 -183 66.5t-58 164.5q0 43 10 97.5t21.5 105.5 t15.5 65q16 72 30.5 141.5t14.5 112.5q0 104 -74 105q-53 0 -94 -52.5t-66 -136.5l-139 -657h-295zM76 1450q0 49 35.5 81t91.5 32q55 0 89 -36t34 -95q0 -80 -55.5 -168t-143.5 -146l-47 47q45 49 61.5 76t16.5 49q0 18 -8.5 31.5t-28.5 36.5q-23 25 -34 45t-11 47z" />
<glyph unicode="&#x14a;" horiz-adv-x="1480" d="M104 1008q0 143 86 266t231.5 196.5t313.5 73.5q43 0 78 -6t84 -22l238 -1096l245 1120h199l-307 -1370q-133 -592 -498 -592q-131 0 -210 65.5t-79 174.5q0 74 36 116.5t97 42.5q45 0 76 -22.5t39 -58.5q-33 0 -54.5 -31t-21.5 -74q0 -49 31 -79.5t78 -30.5 q66 0 119 67.5t80 183.5l16 68l-272 1016l-234 -1016h-194l317 1403q-141 -49 -217 -154.5t-76 -255.5q0 -66 14.5 -120t40.5 -89q-133 0 -194.5 54.5t-61.5 169.5z" />
<glyph unicode="&#x14b;" d="M-80 0l217 1024h289l-25 -106h9q53 59 112.5 86.5t134.5 27.5q106 0 155.5 -57t49.5 -184q0 -135 -49 -355l-127 -600q-35 -166 -127 -257t-227 -91q-109 0 -171.5 53t-62.5 144q0 100 86 181t252 134l107 485q39 186 39 265q0 53 -14.5 74.5t-49.5 21.5 q-57 0 -101 -51.5t-63 -137.5l-139 -657h-295zM168 -303q0 -35 19.5 -55.5t56.5 -20.5q53 0 90 50t61 159l23 92q-113 -33 -181.5 -95.5t-68.5 -129.5z" />
<glyph unicode="&#x14c;" horiz-adv-x="1361" d="M33 977q0 141 115.5 270t307 209t402.5 80q256 0 370.5 -139.5t114.5 -384.5q0 -219 -81.5 -457t-252.5 -402.5t-421 -164.5q-172 0 -269.5 98t-97.5 313q0 182 65.5 409.5t191.5 389.5t298 162q61 0 107 -17q-90 -53 -173 -219t-134.5 -370.5t-51.5 -362.5 q0 -111 29 -174t90 -63q100 0 199.5 144t164 363.5t64.5 421.5q0 127 -21.5 204t-79 116t-161.5 39q-158 0 -293 -64.5t-216 -184.5t-81 -278q0 -55 10.5 -80.5t10.5 -29.5q-102 0 -154.5 41t-52.5 131zM553 1739l33 151h653l-29 -151h-657z" />
<glyph unicode="&#x14d;" horiz-adv-x="886" d="M-41 315q0 139 57.5 309.5t184.5 294t319 123.5q262 0 262 -327v-2q6 -2 23 -2q68 0 156 35.5t159 87.5l19 -56q-59 -63 -154.5 -107t-208.5 -63q-16 -186 -83.5 -325.5t-174 -215t-231.5 -75.5q-152 0 -240 77.5t-88 245.5zM195 1239l32 154h656l-31 -154h-657zM264 342 q0 -98 22.5 -132t82.5 -34q49 0 98 56.5t86 153.5t53 216q-55 12 -55 86q0 84 63 111q-4 68 -20 93.5t-57 25.5q-68 0 -131.5 -98.5t-102.5 -236t-39 -241.5z" />
<glyph unicode="&#x14e;" horiz-adv-x="1361" d="M33 977q0 141 115.5 270t307 209t402.5 80q256 0 370.5 -139.5t114.5 -384.5q0 -219 -81.5 -457t-252.5 -402.5t-421 -164.5q-172 0 -269.5 98t-97.5 313q0 182 65.5 409.5t191.5 389.5t298 162q61 0 107 -17q-90 -53 -173 -219t-134.5 -370.5t-51.5 -362.5 q0 -111 29 -174t90 -63q100 0 199.5 144t164 363.5t64.5 421.5q0 127 -21.5 204t-79 116t-161.5 39q-158 0 -293 -64.5t-216 -184.5t-81 -278q0 -55 10.5 -80.5t10.5 -29.5q-102 0 -154.5 41t-52.5 131zM625 1954h184q0 -82 41 -126t119 -44q84 0 149.5 49t75.5 121h174 q-10 -80 -71.5 -144.5t-155.5 -102.5t-203 -38q-154 0 -233.5 73t-79.5 212z" />
<glyph unicode="&#x14f;" horiz-adv-x="886" d="M-41 315q0 139 57.5 309.5t184.5 294t319 123.5q262 0 262 -327v-2q6 -2 23 -2q68 0 156 35.5t159 87.5l19 -56q-59 -63 -154.5 -107t-208.5 -63q-16 -186 -83.5 -325.5t-174 -215t-231.5 -75.5q-152 0 -240 77.5t-88 245.5zM217 1491h182q0 -82 42 -126t120 -44 q84 0 148.5 49t74.5 121h177q-10 -80 -72 -144.5t-157 -102.5t-204 -38q-151 0 -231 73t-80 212zM264 342q0 -98 22.5 -132t82.5 -34q49 0 98 56.5t86 153.5t53 216q-55 12 -55 86q0 84 63 111q-4 68 -20 93.5t-57 25.5q-68 0 -131.5 -98.5t-102.5 -236t-39 -241.5z" />
<glyph unicode="&#x150;" horiz-adv-x="1361" d="M33 977q0 141 115.5 270t307 209t402.5 80q256 0 370.5 -139.5t114.5 -384.5q0 -219 -81.5 -457t-252.5 -402.5t-421 -164.5q-172 0 -269.5 98t-97.5 313q0 182 65.5 409.5t191.5 389.5t298 162q61 0 107 -17q-90 -53 -173 -219t-134.5 -370.5t-51.5 -362.5 q0 -111 29 -174t90 -63q100 0 199.5 144t164 363.5t64.5 421.5q0 127 -21.5 204t-79 116t-161.5 39q-158 0 -293 -64.5t-216 -184.5t-81 -278q0 -55 10.5 -80.5t10.5 -29.5q-102 0 -154.5 41t-52.5 131zM760 1659l186 387h215l-289 -387h-112zM1092 1659l186 387h215 l-289 -387h-112z" />
<glyph unicode="&#x151;" horiz-adv-x="886" d="M-41 315q0 139 57.5 309.5t184.5 294t319 123.5q262 0 262 -327v-2q6 -2 23 -2q68 0 156 35.5t159 87.5l19 -56q-59 -63 -154.5 -107t-208.5 -63q-16 -186 -83.5 -325.5t-174 -215t-231.5 -75.5q-152 0 -240 77.5t-88 245.5zM264 342q0 -98 22.5 -132t82.5 -34 q49 0 98 56.5t86 153.5t53 216q-55 12 -55 86q0 84 63 111q-4 68 -20 93.5t-57 25.5q-68 0 -131.5 -98.5t-102.5 -236t-39 -241.5zM291 1153l186 387h215l-289 -387h-112zM623 1153l186 387h215l-289 -387h-112z" />
<glyph unicode="&#x152;" horiz-adv-x="1732" d="M33 977q0 141 115.5 270t307 209t402.5 80q129 0 225 -39q111 39 265 39q49 0 131 -10q147 -14 209 -15q109 0 184 25q-6 -18 -22.5 -80.5t-58.5 -106.5t-114 -59q-63 0 -120.5 10.5t-139.5 30.5q-98 25 -164 33q90 -127 90 -352q0 -66 -10 -154h273l-41 -151h-260 q-33 -139 -92.5 -266.5t-143.5 -223.5h500l-43 -217h-793l2 4q-76 -16 -147 -16q-172 0 -269.5 98t-97.5 313q0 182 65.5 409.5t191.5 389.5t298 162q61 0 107 -17q-90 -53 -173 -219t-134.5 -370.5t-51.5 -362.5q0 -111 29 -174t90 -63q100 0 199.5 144t164 363.5 t64.5 421.5q0 127 -21.5 204t-79 116t-161.5 39q-158 0 -293 -64.5t-216 -184.5t-81 -278q0 -55 10.5 -80.5t10.5 -29.5q-102 0 -154.5 41t-52.5 131z" />
<glyph unicode="&#x153;" horiz-adv-x="1357" d="M-14 324q0 240 72.5 402.5t195.5 240t270 77.5q182 0 230 -174q125 172 327 172q262 0 262 -213q0 -117 -71.5 -208t-179 -144t-211.5 -65q-6 -49 -7 -88q0 -94 49.5 -135.5t118.5 -41.5q51 0 119 36t129.5 98.5t95.5 136.5h93q-96 -178 -246 -298t-332 -120 q-100 0 -172 48t-104 130q-66 -94 -152 -142t-174 -48q-166 0 -239.5 77.5t-73.5 258.5zM258 342q0 -86 36 -121t101 -35q88 0 142.5 113t76.5 283q-43 0 -64.5 26.5t-21.5 65.5q0 45 25 86t65 57q-4 53 -24.5 80t-61.5 27q-88 0 -150.5 -103.5t-93 -243t-30.5 -235.5z M897 510q90 0 164 46t117 119t43 144q0 43 -16.5 79t-55.5 36q-78 0 -145.5 -127t-106.5 -297z" />
<glyph unicode="&#x154;" horiz-adv-x="1230" d="M12 1004q0 131 107.5 254.5t275.5 200.5t336 77q154 0 258.5 -45t155.5 -120t51 -163q0 -96 -59.5 -192t-161.5 -158q78 -23 109.5 -75t31.5 -130q0 -59 -14.5 -125.5t-40.5 -165.5q-16 -63 -30.5 -124.5t-14.5 -102.5q0 -47 21.5 -84t58.5 -51q-125 -35 -203 -35 q-160 0 -160 137q0 45 13.5 103.5t37.5 150.5q29 96 43.5 164t14.5 121q0 139 -123 139q-33 0 -68 -8l-164 -772h-294l278 1303l303 40l-100 -473h16q80 0 147.5 55.5t105.5 138.5t38 163q0 94 -56.5 154.5t-168.5 60.5q-166 0 -291 -59.5t-193.5 -172t-68.5 -266.5 q0 -76 14 -105.5t14 -33.5q-111 0 -165 46t-54 153zM756 1661l186 387h215l-248 -387h-153z" />
<glyph unicode="&#x155;" horiz-adv-x="770" d="M-78 0l217 1024h295l-26 -127q70 61 126 94t121 33q66 0 104 -45t38 -109q0 -59 -39 -104t-109 -45q-45 0 -60.5 21.5t-23.5 62.5q-6 27 -12 39t-23 12q-43 0 -72.5 -17.5t-76.5 -60.5l-164 -778h-295zM420 1149l184 387h215l-248 -387h-151z" />
<glyph unicode="&#x156;" horiz-adv-x="1230" d="M12 1004q0 131 107.5 254.5t275.5 200.5t336 77q154 0 258.5 -45t155.5 -120t51 -163q0 -96 -59.5 -192t-161.5 -158q78 -23 109.5 -75t31.5 -130q0 -59 -14.5 -125.5t-40.5 -165.5q-16 -63 -30.5 -124.5t-14.5 -102.5q0 -47 21.5 -84t58.5 -51q-125 -35 -203 -35 q-160 0 -160 137q0 45 13.5 103.5t37.5 150.5q29 96 43.5 164t14.5 121q0 139 -123 139q-33 0 -68 -8l-164 -772h-294l278 1303l303 40l-100 -473h16q80 0 147.5 55.5t105.5 138.5t38 163q0 94 -56.5 154.5t-168.5 60.5q-166 0 -291 -59.5t-193.5 -172t-68.5 -266.5 q0 -76 14 -105.5t14 -33.5q-111 0 -165 46t-54 153zM471 -227q0 41 32 68.5t83 27.5q49 0 78.5 -31t29.5 -82q0 -68 -50 -142.5t-128 -123.5l-41 41q39 43 54.5 65.5t15.5 41.5q0 14 -10.5 29.5t-22.5 27.5q-20 20 -30.5 37.5t-10.5 40.5z" />
<glyph unicode="&#x157;" horiz-adv-x="770" d="M-78 0l217 1024h295l-26 -127q70 61 126 94t121 33q66 0 104 -45t38 -109q0 -59 -39 -104t-109 -45q-45 0 -60.5 21.5t-23.5 62.5q-6 27 -12 39t-23 12q-43 0 -72.5 -17.5t-76.5 -60.5l-164 -778h-295zM90 -227q0 41 33 68.5t84 27.5q47 0 76.5 -31t29.5 -82 q0 -68 -49 -142.5t-129 -123.5l-41 41q41 43 56.5 65.5t15.5 41.5q0 14 -8 26t-27 31q-20 23 -30.5 39t-10.5 39z" />
<glyph unicode="&#x158;" horiz-adv-x="1230" d="M12 1004q0 131 107.5 254.5t275.5 200.5t336 77q154 0 258.5 -45t155.5 -120t51 -163q0 -96 -59.5 -192t-161.5 -158q78 -23 109.5 -75t31.5 -130q0 -59 -14.5 -125.5t-40.5 -165.5q-16 -63 -30.5 -124.5t-14.5 -102.5q0 -47 21.5 -84t58.5 -51q-125 -35 -203 -35 q-160 0 -160 137q0 45 13.5 103.5t37.5 150.5q29 96 43.5 164t14.5 121q0 139 -123 139q-33 0 -68 -8l-164 -772h-294l278 1303l303 40l-100 -473h16q80 0 147.5 55.5t105.5 138.5t38 163q0 94 -56.5 154.5t-168.5 60.5q-166 0 -291 -59.5t-193.5 -172t-68.5 -266.5 q0 -76 14 -105.5t14 -33.5q-111 0 -165 46t-54 153zM702 2048h66l123 -164l321 164h91l-435 -387h-43z" />
<glyph unicode="&#x159;" horiz-adv-x="770" d="M-78 0l217 1024h295l-26 -127q70 61 126 94t121 33q66 0 104 -45t38 -109q0 -59 -39 -104t-109 -45q-45 0 -60.5 21.5t-23.5 62.5q-6 27 -12 39t-23 12q-43 0 -72.5 -17.5t-76.5 -60.5l-164 -778h-295zM256 1536h63l123 -164l324 164h88l-432 -387h-43z" />
<glyph unicode="&#x15a;" horiz-adv-x="1167" d="M70 322q0 90 37.5 163.5t102 116.5t142.5 43q72 0 121 -36t62 -99q-106 0 -170 -56.5t-64 -152.5q0 -88 53.5 -141.5t141.5 -53.5q109 0 179 73t70 183q0 96 -53 182.5t-160 209.5q-111 127 -167 218t-56 199q0 106 59.5 191.5t164 134.5t235.5 49q166 0 265.5 -77.5 t99.5 -208.5q0 -86 -43 -139.5t-113 -53.5q-78 0 -125 63q39 29 61.5 76t22.5 99q0 66 -39 104.5t-106 38.5q-82 0 -134.5 -58.5t-52.5 -148.5q0 -82 47 -152.5t148 -181.5q82 -88 132 -151.5t86 -146.5t36 -179q0 -131 -73 -237.5t-199 -168t-279 -61.5q-129 0 -227.5 45 t-151.5 126t-53 188zM733 1661l187 387h215l-248 -387h-154z" />
<glyph unicode="&#x15b;" horiz-adv-x="782" d="M-66 250q0 68 32 118t77 72q80 143 139.5 290t112.5 317l303 40q10 -262 35 -567q10 -123 10 -178q0 -47 -8 -78q96 55 147 103h86q-131 -152 -313 -256q-59 -63 -146 -93t-176 -30q-98 0 -165.5 37.5t-100.5 98t-33 126.5zM43 293q0 -74 29.5 -108.5t95.5 -34.5 q76 0 127 45t51 145q0 61 -12 172q-20 233 -27 313q-49 -162 -166 -387q47 -25 47 -71q0 -39 -25.5 -70t-64.5 -31q-43 0 -55 27zM436 1149l187 387h215l-248 -387h-154z" />
<glyph unicode="&#x15c;" horiz-adv-x="1167" d="M70 322q0 90 37.5 163.5t102 116.5t142.5 43q72 0 121 -36t62 -99q-106 0 -170 -56.5t-64 -152.5q0 -88 53.5 -141.5t141.5 -53.5q109 0 179 73t70 183q0 96 -53 182.5t-160 209.5q-111 127 -167 218t-56 199q0 106 59.5 191.5t164 134.5t235.5 49q166 0 265.5 -77.5 t99.5 -208.5q0 -86 -43 -139.5t-113 -53.5q-78 0 -125 63q39 29 61.5 76t22.5 99q0 66 -39 104.5t-106 38.5q-82 0 -134.5 -58.5t-52.5 -148.5q0 -82 47 -152.5t148 -181.5q82 -88 132 -151.5t86 -146.5t36 -179q0 -131 -73 -237.5t-199 -168t-279 -61.5q-129 0 -227.5 45 t-151.5 126t-53 188zM512 1661l432 387h43l123 -387h-63l-123 164l-324 -164h-88z" />
<glyph unicode="&#x15d;" horiz-adv-x="782" d="M-66 250q0 68 32 118t77 72q80 143 139.5 290t112.5 317l303 40q10 -262 35 -567q10 -123 10 -178q0 -47 -8 -78q96 55 147 103h86q-131 -152 -313 -256q-59 -63 -146 -93t-176 -30q-98 0 -165.5 37.5t-100.5 98t-33 126.5zM43 293q0 -74 29.5 -108.5t95.5 -34.5 q76 0 127 45t51 145q0 61 -12 172q-20 233 -27 313q-49 -162 -166 -387q47 -25 47 -71q0 -39 -25.5 -70t-64.5 -31q-43 0 -55 27zM139 1149l434 387h43l123 -387h-65l-123 164l-322 -164h-90z" />
<glyph unicode="&#x15e;" horiz-adv-x="1167" d="M70 322q0 90 37.5 163.5t102 116.5t142.5 43q72 0 121 -36t62 -99q-106 0 -170 -56.5t-64 -152.5q0 -88 53.5 -141.5t141.5 -53.5q109 0 179 73t70 183q0 96 -53 182.5t-160 209.5q-111 127 -167 218t-56 199q0 106 59.5 191.5t164 134.5t235.5 49q166 0 265.5 -77.5 t99.5 -208.5q0 -86 -43 -139.5t-113 -53.5q-78 0 -125 63q39 29 61.5 76t22.5 99q0 66 -39 104.5t-106 38.5q-82 0 -134.5 -58.5t-52.5 -148.5q0 -82 47 -152.5t148 -181.5q82 -88 132 -151.5t86 -146.5t36 -179q0 -125 -65.5 -227.5t-180.5 -166t-256 -71.5l-41 -100 q70 20 108 20q68 0 108 -36.5t40 -98.5q0 -57 -37 -106.5t-99.5 -78t-133.5 -28.5q-61 0 -115.5 24.5t-89.5 69.5l35 56q29 -29 68.5 -45.5t78.5 -16.5q45 0 73.5 23.5t28.5 60.5q0 33 -23.5 52.5t-62.5 19.5q-51 0 -100 -25l-8 8l80 201q-178 10 -284.5 107.5t-106.5 249.5 z" />
<glyph unicode="&#x15f;" horiz-adv-x="782" d="M-66 250q0 68 32 118t77 72q80 143 139.5 290t112.5 317l303 40q10 -262 35 -567q10 -123 10 -178q0 -47 -8 -78q96 55 147 103h86q-131 -152 -313 -256q-57 -59 -139 -89t-168 -34l-49 -123q72 20 108 20q68 0 108 -36.5t40 -98.5q0 -57 -37 -106.5t-99.5 -78 t-134.5 -28.5q-61 0 -115.5 24.5t-88.5 69.5l34 56q29 -29 70 -45.5t80 -16.5q43 0 71.5 23.5t28.5 60.5q0 33 -23.5 52.5t-62.5 19.5q-51 0 -98 -25l-10 8l90 230q-111 20 -168.5 94t-57.5 162zM43 293q0 -74 29.5 -108.5t95.5 -34.5q76 0 127 45t51 145q0 61 -12 172 q-20 233 -27 313q-49 -162 -166 -387q47 -25 47 -71q0 -39 -25.5 -70t-64.5 -31q-43 0 -55 27z" />
<glyph unicode="&#x160;" horiz-adv-x="1167" d="M70 322q0 90 37.5 163.5t102 116.5t142.5 43q72 0 121 -36t62 -99q-106 0 -170 -56.5t-64 -152.5q0 -88 53.5 -141.5t141.5 -53.5q109 0 179 73t70 183q0 96 -53 182.5t-160 209.5q-111 127 -167 218t-56 199q0 106 59.5 191.5t164 134.5t235.5 49q166 0 265.5 -77.5 t99.5 -208.5q0 -86 -43 -139.5t-113 -53.5q-78 0 -125 63q39 29 61.5 76t22.5 99q0 66 -39 104.5t-106 38.5q-82 0 -134.5 -58.5t-52.5 -148.5q0 -82 47 -152.5t148 -181.5q82 -88 132 -151.5t86 -146.5t36 -179q0 -131 -73 -237.5t-199 -168t-279 -61.5q-129 0 -227.5 45 t-151.5 126t-53 188zM711 2048h65l123 -164l322 164h90l-434 -387h-43z" />
<glyph unicode="&#x161;" horiz-adv-x="755" d="M-66 250q0 68 32 118t77 72q80 143 139.5 290t112.5 317l303 40q10 -262 35 -567q10 -123 10 -178q0 -47 -8 -78q96 55 147 103h86q-131 -152 -313 -256q-59 -63 -146 -93t-176 -30q-98 0 -165.5 37.5t-100.5 98t-33 126.5zM43 293q0 -74 29.5 -108.5t95.5 -34.5 q76 0 127 45t51 145q0 61 -12 172q-20 233 -27 313q-49 -162 -166 -387q47 -25 47 -71q0 -39 -25.5 -70t-64.5 -31q-43 0 -55 27zM283 1536h65l123 -164l322 164h90l-434 -387h-43z" />
<glyph unicode="&#x162;" horiz-adv-x="985" d="M12 1001q0 145 72 265t228.5 194t398.5 74q135 0 290 -25q131 -23 234 -22q132 0 238 43q-4 -133 -68 -196.5t-188 -63.5q-66 0 -131.5 10t-186.5 35l-283 -1315h-81l-56 -135q70 20 109 20q68 0 107.5 -36.5t39.5 -98.5q0 -57 -36.5 -106.5t-99 -78t-134.5 -28.5 q-61 0 -115.5 24.5t-89.5 69.5l35 56q29 -29 68.5 -45.5t78.5 -16.5q45 0 74 23.5t29 60.5q0 33 -23.5 52.5t-62.5 19.5q-51 0 -101 -25l-8 8l94 236h-122l290 1356h-24q-182 0 -283.5 -91t-101.5 -323q0 -76 14 -105.5t14 -33.5q-111 0 -165 46t-54 152z" />
<glyph unicode="&#x163;" horiz-adv-x="546" d="M-80 -369l35 56q29 -29 68.5 -45.5t78.5 -16.5q45 0 74 23.5t29 60.5q0 33 -23.5 52.5t-62.5 19.5q-51 0 -101 -25l-8 8l96 242q-57 25 -89.5 82t-32.5 145q0 51 16 134l123 575h-68l17 82h67l62 283l303 41l-70 -324h123l-16 -82h-123l-131 -614q-8 -31 -8 -66 q0 -41 19 -58.5t64 -17.5q59 0 110.5 50.5t74.5 130.5h86q-76 -221 -195 -300t-235 -79h-15l-49 -123q70 20 109 20q68 0 107.5 -36.5t39.5 -98.5q0 -57 -36.5 -106.5t-99 -78t-134.5 -28.5q-61 0 -115.5 24.5t-89.5 69.5z" />
<glyph unicode="&#x164;" horiz-adv-x="985" d="M12 1001q0 145 72 265t228.5 194t398.5 74q135 0 290 -25q131 -23 234 -22q131 0 238 43q-4 -133 -68 -196.5t-188 -63.5q-66 0 -131.5 10t-186.5 35l-283 -1315h-294l290 1356h-24q-182 0 -283.5 -91t-101.5 -323q0 -76 14 -105.5t14 -33.5q-111 0 -165 46t-54 152z M653 2048h66l123 -164l321 164h90l-434 -387h-43z" />
<glyph unicode="&#x165;" horiz-adv-x="546" d="M-16 233q0 51 16 134l123 575h-68l17 82h67l62 283l303 41l-70 -324h123l-16 -82h-123l-131 -614q-8 -31 -8 -66q0 -41 19 -58.5t64 -17.5q59 0 110.5 50.5t74.5 130.5h86q-76 -221 -195 -300t-235 -79q-99 0 -159 61.5t-60 183.5zM596 1450q0 49 36 81t91 32t89 -36 t34 -95q0 -80 -55.5 -168t-143.5 -146l-47 47q45 49 61.5 76t16.5 49q0 18 -8 31.5t-29 36.5q-23 25 -34 45t-11 47z" />
<glyph unicode="&#x166;" horiz-adv-x="985" d="M12 1001q0 145 72 265t228.5 194t398.5 74q135 0 290 -25q131 -23 234 -22q132 0 238 43q-4 -133 -68 -196.5t-188 -63.5q-66 0 -131.5 10t-186.5 35l-141 -660h334l-27 -102h-330l-119 -553h-294l118 553h-278l28 102h273l149 701h-24q-182 0 -283.5 -91t-101.5 -323 q0 -76 14 -105.5t14 -33.5q-111 0 -165 46t-54 152z" />
<glyph unicode="&#x167;" horiz-adv-x="546" d="M-39 715l31 96h102l29 131h-68l17 82h67l62 283l303 41l-70 -324h123l-16 -82h-123l-29 -131h156l-31 -96h-145l-82 -387q-8 -31 -8 -66q0 -41 19 -58.5t64 -17.5q59 0 110.5 50.5t74.5 130.5h86q-76 -221 -195 -300t-235 -79q-98 0 -158.5 61.5t-60.5 183.5q0 51 16 134 l74 348h-113z" />
<glyph unicode="&#x168;" horiz-adv-x="1466" d="M-10 993q0 141 109.5 266t288.5 201t376 76q45 0 98 -10l-90 -330q-113 -414 -149.5 -571.5t-36.5 -253.5q0 -92 32.5 -138.5t108.5 -46.5q100 0 156.5 42t111 191.5t127.5 479.5l138 633h288l-135 -639q-72 -344 -147.5 -531.5t-206.5 -281.5t-357 -94q-213 0 -304 82 t-91 243q0 119 32 272.5t101 424.5l35 139l68 270q-170 -45 -266.5 -167t-96.5 -304q0 -78 14.5 -106.5t14.5 -34.5q-109 0 -164 44t-55 144zM690 1704q49 98 137 149.5t205 51.5q53 0 95 -9.5t94 -27.5q88 -31 149 -31q82 0 129 47l12 -2q-10 -47 -60 -95t-122 -79 t-147 -31q-47 0 -90 10.5t-99 30.5q-47 16 -83 25.5t-72 9.5q-76 0 -136 -53z" />
<glyph unicode="&#x169;" d="M-16 233q0 51 16 134l139 657h295l-147 -696q-6 -31 -6 -58q0 -84 61 -84q57 0 98 48.5t66 132.5l139 657h295l-147 -696q-8 -31 -9 -66q0 -41 19.5 -58.5t64.5 -17.5q57 0 99.5 49.5t66.5 131.5h86q-76 -221 -187.5 -300t-223.5 -79q-88 0 -140.5 49t-62.5 145 q-70 -113 -146.5 -153.5t-156.5 -40.5q-99 0 -159 61.5t-60 183.5zM180 1192q49 98 137.5 149.5t204.5 51.5q51 0 94 -9.5t95 -27.5q88 -31 149 -31q82 0 129 47l12 -2q-10 -47 -60 -95t-121.5 -79t-147.5 -31q-47 0 -90 10.5t-99 30.5q-47 16 -82.5 25.5t-72.5 9.5 q-76 0 -135 -53z" />
<glyph unicode="&#x16a;" horiz-adv-x="1466" d="M-10 993q0 141 109.5 266t288.5 201t376 76q45 0 98 -10l-90 -330q-113 -414 -149.5 -571.5t-36.5 -253.5q0 -92 32.5 -138.5t108.5 -46.5q100 0 156.5 42t111 191.5t127.5 479.5l138 633h288l-135 -639q-72 -344 -147.5 -531.5t-206.5 -281.5t-357 -94q-213 0 -304 82 t-91 243q0 119 32 272.5t101 424.5l35 139l68 270q-170 -45 -266.5 -167t-96.5 -304q0 -78 14.5 -106.5t14.5 -34.5q-109 0 -164 44t-55 144zM754 1739l32 151h656l-31 -151h-657z" />
<glyph unicode="&#x16b;" d="M-16 233q0 51 16 134l139 657h295l-147 -696q-6 -31 -6 -58q0 -84 61 -84q57 0 98 48.5t66 132.5l139 657h295l-147 -696q-8 -31 -9 -66q0 -41 19.5 -58.5t64.5 -17.5q57 0 99.5 49.5t66.5 131.5h86q-76 -221 -187.5 -300t-223.5 -79q-88 0 -140.5 49t-62.5 145 q-70 -113 -146.5 -153.5t-156.5 -40.5q-99 0 -159 61.5t-60 183.5zM233 1239l33 154h656l-31 -154h-658z" />
<glyph unicode="&#x16c;" horiz-adv-x="1466" d="M-10 993q0 141 109.5 266t288.5 201t376 76q45 0 98 -10l-90 -330q-113 -414 -149.5 -571.5t-36.5 -253.5q0 -92 32.5 -138.5t108.5 -46.5q100 0 156.5 42t111 191.5t127.5 479.5l138 633h288l-135 -639q-72 -344 -147.5 -531.5t-206.5 -281.5t-357 -94q-213 0 -304 82 t-91 243q0 119 32 272.5t101 424.5l35 139l68 270q-170 -45 -266.5 -167t-96.5 -304q0 -78 14.5 -106.5t14.5 -34.5q-109 0 -164 44t-55 144zM766 1954h182q0 -82 42 -126t120 -44q84 0 148.5 49t74.5 121h176q-10 -80 -71.5 -144.5t-156.5 -102.5t-204 -38q-151 0 -231 73 t-80 212z" />
<glyph unicode="&#x16d;" d="M-16 233q0 51 16 134l139 657h295l-147 -696q-6 -31 -6 -58q0 -84 61 -84q57 0 98 48.5t66 132.5l139 657h295l-147 -696q-8 -31 -9 -66q0 -41 19.5 -58.5t64.5 -17.5q57 0 99.5 49.5t66.5 131.5h86q-76 -221 -187.5 -300t-223.5 -79q-88 0 -140.5 49t-62.5 145 q-70 -113 -146.5 -153.5t-156.5 -40.5q-99 0 -159 61.5t-60 183.5zM240 1491h182q0 -82 42 -126t120 -44q84 0 148.5 49t74.5 121h176q-10 -80 -71.5 -144.5t-157 -102.5t-203.5 -38q-152 0 -231.5 73t-79.5 212z" />
<glyph unicode="&#x16e;" horiz-adv-x="1466" d="M-10 993q0 141 109.5 266t288.5 201t376 76q45 0 98 -10l-90 -330q-113 -414 -149.5 -571.5t-36.5 -253.5q0 -92 32.5 -138.5t108.5 -46.5q100 0 156.5 42t111 191.5t127.5 479.5l138 633h288l-135 -639q-72 -344 -147.5 -531.5t-206.5 -281.5t-357 -94q-213 0 -304 82 t-91 243q0 119 32 272.5t101 424.5l35 139l68 270q-170 -45 -266.5 -167t-96.5 -304q0 -78 14.5 -106.5t14.5 -34.5q-109 0 -164 44t-55 144zM924 1796q0 66 45 126t129 60q72 0 109.5 -44t37.5 -113q0 -74 -44 -123t-134 -49q-66 0 -104.5 41t-38.5 102zM1006 1800 q0 -76 69 -76q47 0 70.5 25t23.5 70q0 43 -12 69.5t-55 26.5q-49 0 -72.5 -35t-23.5 -80z" />
<glyph unicode="&#x16f;" d="M-16 233q0 51 16 134l139 657h295l-147 -696q-6 -31 -6 -58q0 -84 61 -84q57 0 98 48.5t66 132.5l139 657h295l-147 -696q-8 -31 -9 -66q0 -41 19.5 -58.5t64.5 -17.5q57 0 99.5 49.5t66.5 131.5h86q-76 -221 -187.5 -300t-223.5 -79q-88 0 -140.5 49t-62.5 145 q-70 -113 -146.5 -153.5t-156.5 -40.5q-99 0 -159 61.5t-60 183.5zM410 1274q0 66 45 126t129 60q72 0 109.5 -44t37.5 -113q0 -74 -44 -123.5t-134 -49.5q-66 0 -104.5 41t-38.5 103zM492 1278q0 -76 69 -76q47 0 70.5 24.5t23.5 69.5q0 43 -12 70t-55 27q-49 0 -72.5 -35 t-23.5 -80z" />
<glyph unicode="&#x170;" horiz-adv-x="1466" d="M-10 993q0 141 109.5 266t288.5 201t376 76q45 0 98 -10l-90 -330q-113 -414 -149.5 -571.5t-36.5 -253.5q0 -92 32.5 -138.5t108.5 -46.5q100 0 156.5 42t111 191.5t127.5 479.5l138 633h288l-135 -639q-72 -344 -147.5 -531.5t-206.5 -281.5t-357 -94q-213 0 -304 82 t-91 243q0 119 32 272.5t101 424.5l35 139l68 270q-170 -45 -266.5 -167t-96.5 -304q0 -78 14.5 -106.5t14.5 -34.5q-109 0 -164 44t-55 144zM860 1659l187 387h215l-289 -387h-113zM1192 1659l186 387h215l-288 -387h-113z" />
<glyph unicode="&#x171;" d="M-16 233q0 51 16 134l139 657h295l-147 -696q-6 -31 -6 -58q0 -84 61 -84q57 0 98 48.5t66 132.5l139 657h295l-147 -696q-8 -31 -9 -66q0 -41 19.5 -58.5t64.5 -17.5q57 0 99.5 49.5t66.5 131.5h86q-76 -221 -187.5 -300t-223.5 -79q-88 0 -140.5 49t-62.5 145 q-70 -113 -146.5 -153.5t-156.5 -40.5q-99 0 -159 61.5t-60 183.5zM299 1153l188 387h215l-288 -387h-115zM633 1153l184 387h215l-287 -387h-112z" />
<glyph unicode="&#x172;" horiz-adv-x="1466" d="M-10 993q0 141 109.5 266t288.5 201t376 76q45 0 98 -10l-90 -330q-113 -414 -149.5 -571.5t-36.5 -253.5q0 -92 32.5 -138.5t108.5 -46.5q100 0 156.5 42t111 191.5t127.5 479.5l138 633h288l-135 -639q-70 -334 -142.5 -519.5t-196.5 -282.5t-333 -105q-33 -31 -51 -74 t-18 -92q0 -57 30.5 -91t81.5 -34q78 0 148 80l35 -47q-33 -70 -109 -118t-153 -48q-88 0 -145.5 54t-57.5 136q0 133 135 236q-176 12 -253 93t-77 230q0 119 32 272.5t101 424.5l35 139l68 270q-170 -45 -266.5 -167t-96.5 -304q0 -78 14.5 -106.5t14.5 -34.5 q-109 0 -164 44t-55 144zM829 2048h215l60 -387h-154z" />
<glyph unicode="&#x173;" d="M-16 233q0 51 16 134l139 657h295l-147 -696q-6 -31 -6 -58q0 -84 61 -84q57 0 98 48.5t66 132.5l139 657h295l-147 -696q-8 -31 -9 -66q0 -41 19.5 -58.5t64.5 -17.5q57 0 99.5 49.5t66.5 131.5h86q-70 -201 -169 -284t-206 -93q-35 -31 -54 -76t-19 -94q0 -57 30.5 -91 t81.5 -34q78 0 148 80l35 -47q-33 -70 -109 -118t-153 -48q-88 0 -145.5 54t-57.5 136q0 135 143 244q-121 33 -139 186q-70 -113 -146.5 -153.5t-156.5 -40.5q-98 0 -158.5 61.5t-60.5 183.5z" />
<glyph unicode="&#x174;" horiz-adv-x="1970" d="M12 1004q0 131 107.5 254.5t275.5 200.5t336 77q29 0 82 -4l18 -1260l431 1254h260l18 -1254l430 1254h144l-570 -1526h-295l-24 1042l-389 -1042h-295l-33 1399q-145 -55 -225 -171t-80 -284q0 -76 14 -105.5t14 -33.5q-111 0 -165 46t-54 153zM1094 1661l434 387h43 l123 -387h-66l-123 164l-321 -164h-90z" />
<glyph unicode="&#x175;" horiz-adv-x="1353" d="M-16 233q0 51 16 134l139 657h295l-147 -696q-6 -25 -6 -52q0 -90 61 -90q57 0 98 48.5t66 132.5l139 657h295l-147 -696q-10 -51 -11 -74q0 -68 70 -68q94 0 175 119t130 283t49 282q-4 -10 -26.5 -15t-38.5 -5q-35 0 -54.5 32.5t-19.5 71.5q0 49 31.5 80t95.5 31 q68 0 98.5 -50t30.5 -128q0 -184 -63.5 -394t-194.5 -357.5t-326 -147.5q-100 0 -163.5 43t-81.5 129q-115 -172 -291 -172q-99 0 -159 61.5t-60 183.5zM438 1149l434 387h43l123 -387h-63l-123 164l-324 -164h-90z" />
<glyph unicode="&#x176;" horiz-adv-x="1269" d="M12 1004q0 131 107.5 254.5t275.5 200.5t336 77q29 0 82 -4l178 -733l303 727h136l-398 -895l-135 -631h-328l136 631l-197 768q-145 -55 -225 -171t-80 -284q0 -76 14 -105.5t14 -33.5q-111 0 -165 46t-54 153zM705 1661l434 387h43l123 -387h-68l-123 164l-319 -164 h-90z" />
<glyph unicode="&#x177;" d="M-16 233q0 51 16 134l139 657h295l-147 -696q-6 -25 -6 -52q0 -90 61 -90q53 0 94 46.5t66 121.5l143 670h295l-203 -950q98 33 157.5 98.5t100.5 194.5h86q-55 -182 -149 -267.5t-213 -115.5l-31 -148q-41 -199 -141.5 -273.5t-227.5 -74.5q-98 0 -163.5 51t-65.5 148 q0 117 94.5 187.5t239.5 117.5l25 110q-59 -66 -121 -90t-125 -24q-98 0 -158.5 61.5t-60.5 183.5zM203 -285q0 -27 18.5 -47t50.5 -20q35 0 68 47t51 135l12 59q-201 -74 -200 -174zM250 1149l432 387h43l125 -387h-66l-122 164l-322 -164h-90z" />
<glyph unicode="&#x178;" horiz-adv-x="1269" d="M12 1004q0 131 107.5 254.5t275.5 200.5t336 77q29 0 82 -4l178 -733l303 727h136l-398 -895l-135 -631h-328l136 631l-197 768q-145 -55 -225 -171t-80 -284q0 -76 14 -105.5t14 -33.5q-111 0 -165 46t-54 153zM776 1810q0 51 36 88t89 37q51 0 88 -36.5t37 -88.5 q0 -53 -37 -88.5t-88 -35.5q-53 0 -89 35.5t-36 88.5zM1145 1810q0 51 36 88t89 37q51 0 88 -36.5t37 -88.5q0 -53 -37 -88.5t-88 -35.5q-53 0 -89 35.5t-36 88.5z" />
<glyph unicode="&#x179;" horiz-adv-x="1110" d="M23 0l716 1425q-43 0 -69 2l-115 3q-188 0 -188 -46q12 0 23 -16t11 -49q0 -61 -37.5 -89t-82.5 -28q-55 0 -80 36t-25 85q0 84 67.5 148.5t184.5 64.5h702l-706 -1403q57 0 88 -2l109 -2q86 0 140 9t73 36q-14 0 -25.5 15.5t-11.5 48.5q0 61 36.5 89.5t86.5 28.5 q53 0 78.5 -34.5t25.5 -83.5q0 -53 -33 -108.5t-93 -92.5t-136 -37h-739zM743 1661l187 387h215l-248 -387h-154z" />
<glyph unicode="&#x17a;" horiz-adv-x="876" d="M0 0l522 913h-114q-57 0 -85 -6t-28 -26q0 -4 11 -9.5t11 -35.5q0 -53 -32.5 -81t-77.5 -28q-39 0 -66.5 23.5t-27.5 66.5t29.5 92t84 82t123.5 33h527l-502 -866q12 0 45 -4q70 -8 110 -9q88 0 97 41q-18 2 -28.5 13.5t-10.5 29.5q0 33 30.5 60.5t83.5 27.5 q45 0 68 -26.5t23 -71.5q0 -49 -31 -100t-88.5 -85t-130.5 -34h-543zM477 1149l187 387h215l-248 -387h-154z" />
<glyph unicode="&#x17b;" horiz-adv-x="1085" d="M23 0l716 1425q-43 0 -69 2l-115 3q-188 0 -188 -46q12 0 23 -16t11 -49q0 -61 -37.5 -89t-82.5 -28q-55 0 -80 36t-25 85q0 84 67.5 148.5t184.5 64.5h702l-706 -1403q57 0 88 -2l109 -2q86 0 140 9t73 36q-14 0 -25.5 15.5t-11.5 48.5q0 61 36.5 89.5t86.5 28.5 q53 0 78.5 -34.5t25.5 -83.5q0 -53 -33 -108.5t-93 -92.5t-136 -37h-739zM612 1810q0 51 36 88t89 37q51 0 88 -36.5t37 -88.5q0 -53 -37 -88.5t-88 -35.5q-53 0 -89 35.5t-36 88.5z" />
<glyph unicode="&#x17c;" horiz-adv-x="876" d="M0 0l522 913h-114q-57 0 -85 -6t-28 -26q0 -4 11 -9.5t11 -35.5q0 -53 -32.5 -81t-77.5 -28q-39 0 -66.5 23.5t-27.5 66.5t29.5 92t84 82t123.5 33h527l-502 -866q12 0 45 -4q70 -8 110 -9q88 0 97 41q-18 2 -28.5 13.5t-10.5 29.5q0 33 30.5 60.5t83.5 27.5 q45 0 68 -26.5t23 -71.5q0 -49 -31 -100t-88.5 -85t-130.5 -34h-543zM449 1298q0 51 35.5 88t88.5 37q51 0 88 -36.5t37 -88.5q0 -53 -36.5 -88.5t-88.5 -35.5q-53 0 -88.5 35.5t-35.5 88.5z" />
<glyph unicode="&#x17d;" horiz-adv-x="1110" d="M23 0l716 1425q-43 0 -69 2l-115 3q-188 0 -188 -46q12 0 23 -16t11 -49q0 -61 -37.5 -89t-82.5 -28q-55 0 -80 36t-25 85q0 84 67.5 148.5t184.5 64.5h702l-706 -1403q57 0 88 -2l109 -2q86 0 140 9t73 36q-14 0 -25.5 15.5t-11.5 48.5q0 61 36.5 89.5t86.5 28.5 q53 0 78.5 -34.5t25.5 -83.5q0 -53 -33 -108.5t-93 -92.5t-136 -37h-739zM623 2048h65l123 -164l322 164h90l-435 -387h-43z" />
<glyph unicode="&#x17e;" horiz-adv-x="876" d="M0 0l522 913h-114q-57 0 -85 -6t-28 -26q0 -4 11 -9.5t11 -35.5q0 -53 -32.5 -81t-77.5 -28q-39 0 -66.5 23.5t-27.5 66.5t29.5 92t84 82t123.5 33h527l-502 -866q12 0 45 -4q70 -8 110 -9q88 0 97 41q-18 2 -28.5 13.5t-10.5 29.5q0 33 30.5 60.5t83.5 27.5 q45 0 68 -26.5t23 -71.5q0 -49 -31 -100t-88.5 -85t-130.5 -34h-543zM383 1536h66l122 -164l322 164h90l-434 -387h-43z" />
<glyph unicode="&#x17f;" horiz-adv-x="546" d="M-426 -291q0 88 45 145.5t116.5 91.5t190.5 70l197 926h-109l17 82h108l35 162q41 197 144.5 272.5t228.5 75.5q96 0 168.5 -62.5t72.5 -158.5q0 -47 -6 -84h-96q4 45 4 55q0 33 -22.5 51.5t-55.5 18.5q-43 0 -84 -38t-59 -130l-287 -1350q-41 -199 -141 -273.5 t-225 -74.5q-96 0 -169 62.5t-73 158.5zM-313 -262q0 -25 24.5 -46.5t57.5 -21.5q82 0 116 160l27 119q-109 -37 -167 -85t-58 -126z" />
<glyph unicode="&#x192;" horiz-adv-x="546" d="M-514 -332q0 76 42 129t99 53q29 0 54.5 -12t33.5 -33q-20 -27 -34.5 -68.5t-14.5 -76.5q0 -29 11.5 -46t29.5 -17q41 0 89 100t108 315l260 930h-144l21 82h147q88 272 206 399t280 127q106 0 164.5 -47t58.5 -133q0 -76 -42 -129t-99 -53q-29 0 -54.5 12t-33.5 33 q20 25 34.5 67.5t14.5 79.5q0 61 -41 62q-41 0 -81 -79t-91 -259l-23 -80h232l-21 -82h-233l-219 -780q-100 -354 -226.5 -514t-304.5 -160q-106 0 -164.5 47t-58.5 133z" />
<glyph unicode="&#x2c6;" horiz-adv-x="600" d="M0 1149l434 387h43l123 -387h-65l-123 164l-322 -164h-90z" />
<glyph unicode="&#x2da;" horiz-adv-x="319" d="M0 1274q0 78 51 132t123 54q68 0 108 -43t40 -114q0 -78 -46.5 -125.5t-123.5 -47.5q-70 0 -111 39t-41 105zM106 1282q0 -23 13.5 -37t38.5 -14q63 0 63 74q0 27 -13 42t-36 15q-29 0 -47.5 -21.5t-18.5 -58.5z" />
<glyph unicode="&#x2dc;" horiz-adv-x="825" d="M78 1192q49 98 137 149.5t205 51.5q51 0 94 -9.5t94 -27.5q88 -31 150 -31q82 0 129 47l12 -2q-10 -47 -60.5 -95t-122 -79t-147.5 -31q-47 0 -90 10.5t-98 30.5q-47 16 -83 25.5t-73 9.5q-76 0 -135 -53z" />
<glyph unicode="&#x3a9;" horiz-adv-x="1525" d="M57 0l37 162h314v8q-109 94 -166.5 228t-57.5 292q0 223 113 426t299 327t391 124q211 0 330 -138.5t119 -384.5q0 -262 -131 -502.5t-351 -379.5h381l-35 -162h-534l37 162q209 143 329.5 368.5t120.5 468.5q0 193 -79.5 292.5t-235.5 99.5t-288 -97.5t-210 -262.5 t-78 -361q0 -162 55.5 -293t157.5 -215l-34 -162h-484z" />
<glyph unicode="&#x3c0;" horiz-adv-x="1085" d="M-31 862l37 162h1081l-34 -162h-203l-143 -676q-6 -31 -7 -41q0 -45 39 -45q29 0 56 31q12 -18 12 -33q0 -39 -45 -68.5t-100 -29.5q-59 0 -92 38t-33 107q0 29 8 64l141 653h-348l-184 -862h-164l184 862h-205z" />
<glyph unicode="&#x2000;" horiz-adv-x="1024" />
<glyph unicode="&#x2001;" horiz-adv-x="2048" />
<glyph unicode="&#x2002;" horiz-adv-x="1024" />
<glyph unicode="&#x2003;" horiz-adv-x="2048" />
<glyph unicode="&#x2004;" horiz-adv-x="682" />
<glyph unicode="&#x2005;" horiz-adv-x="512" />
<glyph unicode="&#x2006;" horiz-adv-x="341" />
<glyph unicode="&#x2007;" horiz-adv-x="341" />
<glyph unicode="&#x2008;" horiz-adv-x="256" />
<glyph unicode="&#x2009;" horiz-adv-x="409" />
<glyph unicode="&#x200a;" horiz-adv-x="113" />
<glyph unicode="&#x2010;" horiz-adv-x="593" d="M39 455l37 161h409l-34 -161h-412z" />
<glyph unicode="&#x2011;" horiz-adv-x="593" d="M39 455l37 161h409l-34 -161h-412z" />
<glyph unicode="&#x2012;" horiz-adv-x="593" d="M39 455l37 161h409l-34 -161h-412z" />
<glyph unicode="&#x2013;" horiz-adv-x="720" d="M39 455l37 161h532l-35 -161h-534z" />
<glyph unicode="&#x2014;" horiz-adv-x="909" d="M39 455l37 161h717l-35 -161h-719z" />
<glyph unicode="&#x2018;" horiz-adv-x="428" d="M190 1196q0 80 67 175t177 169l31 -31q-43 -45 -67.5 -84t-24.5 -63q0 -14 9 -26.5t28 -26.5q29 -23 45 -47.5t16 -65.5q0 -63 -39 -103t-98 -40q-64 0 -104 40t-40 103z" />
<glyph unicode="&#x2019;" horiz-adv-x="487" d="M190 1397q0 63 39 103t99 40q63 0 103 -40t40 -103q0 -80 -66.5 -175.5t-177.5 -168.5l-30 30q43 45 67.5 84t24.5 64q0 14 -9.5 26.5t-27.5 26.5q-29 23 -45.5 47.5t-16.5 65.5z" />
<glyph unicode="&#x201a;" horiz-adv-x="450" d="M-20 156q0 63 38.5 103t98.5 40q63 0 103 -40t40 -103q0 -80 -66.5 -175.5t-177.5 -168.5l-30 30q43 45 67.5 84t24.5 64q0 14 -9.5 26.5t-27.5 26.5q-29 23 -45 47.5t-16 65.5z" />
<glyph unicode="&#x201c;" horiz-adv-x="878" d="M190 1196q0 80 67 175t177 169l31 -31q-43 -45 -67.5 -84t-24.5 -63q0 -14 9 -26.5t28 -26.5q29 -23 45 -47.5t16 -65.5q0 -63 -39 -103t-98 -40q-64 0 -104 40t-40 103zM588 1196q0 80 66.5 175t176.5 169l31 -31q-43 -45 -67.5 -84t-24.5 -63q0 -14 9 -26.5t28 -26.5 q29 -23 45 -47.5t16 -65.5q0 -63 -38.5 -103t-98.5 -40q-63 0 -103 40t-40 103z" />
<glyph unicode="&#x201d;" horiz-adv-x="872" d="M223 1397q0 63 39 103t98 40q63 0 103.5 -40t40.5 -103q0 -80 -66.5 -175.5t-177.5 -168.5l-31 30q43 45 68 84t25 64q0 14 -9.5 26.5t-27.5 26.5q-29 23 -45.5 47.5t-16.5 65.5zM621 1397q0 63 38.5 103t98.5 40q63 0 103 -40t40 -103q0 -80 -66.5 -175.5t-177.5 -168.5 l-30 30q43 45 67.5 84t24.5 64q0 14 -9.5 26.5t-27.5 26.5q-29 23 -45 47.5t-16 65.5z" />
<glyph unicode="&#x201e;" horiz-adv-x="901" d="M-20 156q0 63 38.5 103t98.5 40q63 0 103 -40t40 -103q0 -80 -66.5 -175.5t-177.5 -168.5l-30 30q43 45 67.5 84t24.5 64q0 14 -9.5 26.5t-27.5 26.5q-29 23 -45 47.5t-16 65.5zM377 156q0 63 39 103t98 40q63 0 103 -40t40 -103q0 -80 -66.5 -175.5t-176.5 -168.5 l-31 30q43 45 67.5 84t24.5 64q0 14 -9 26.5t-28 26.5q-29 23 -45 47.5t-16 65.5z" />
<glyph unicode="&#x2026;" horiz-adv-x="1437" d="M63 154q0 68 47.5 115.5t114.5 47.5q68 0 116 -48t48 -115q0 -68 -48 -115t-116 -47q-67 0 -114.5 47t-47.5 115zM545 154q0 68 47 115.5t115 47.5t115.5 -48t47.5 -115q0 -68 -48 -115t-115 -47q-68 0 -115 47t-47 115zM1047 154q0 68 47 115.5t114 47.5q68 0 116 -48 t48 -115q0 -68 -48 -115t-116 -47q-67 0 -114 47t-47 115z" />
<glyph unicode="&#x202f;" horiz-adv-x="409" />
<glyph unicode="&#x2030;" horiz-adv-x="2406" d="M102 1001q0 154 55.5 283t150.5 204t210 75q119 0 178.5 -77t59.5 -229t-56.5 -280.5t-152.5 -204.5t-211 -76q-234 0 -234 305zM291 950q0 -88 17.5 -129t56.5 -41q53 0 100 76t75.5 201t28.5 268q0 82 -14 117t-49 35q-51 0 -101.5 -77t-82 -200t-31.5 -250zM346 0 l852 1540h148l-852 -1540h-148zM956 293q0 154 55.5 283t150.5 203.5t210 74.5q119 0 178.5 -77t59.5 -228q0 -152 -56.5 -281t-152.5 -204.5t-211 -75.5q-234 0 -234 305zM1145 242q0 -88 17.5 -129t56.5 -41q53 0 100 75.5t75.5 200.5t28.5 268q0 82 -14 117t-49 35 q-51 0 -101.5 -77t-82 -199.5t-31.5 -249.5zM1732 293q0 154 55.5 283t150.5 203.5t210 74.5q119 0 178.5 -77t59.5 -228q0 -152 -56.5 -281t-152.5 -204.5t-211 -75.5q-234 0 -234 305zM1921 242q0 -88 17.5 -129t56.5 -41q53 0 100 75.5t75.5 200.5t28.5 268q0 82 -14 117 t-49 35q-51 0 -101.5 -77t-82 -199.5t-31.5 -249.5z" />
<glyph unicode="&#x2039;" horiz-adv-x="735" d="M41 487l18 84l629 349l-20 -113l-494 -287l397 -237l-24 -117z" />
<glyph unicode="&#x203a;" horiz-adv-x="704" d="M31 166l28 117l492 237l-397 287l18 113l504 -349l-23 -110z" />
<glyph unicode="&#x2044;" horiz-adv-x="507" d="M-205 0l852 1540h148l-852 -1540h-148z" />
<glyph unicode="&#x205f;" horiz-adv-x="512" />
<glyph unicode="&#x20ac;" horiz-adv-x="1038" d="M39 580l29 102h131q6 68 18 135h-127l29 103h125q53 180 155.5 326.5t237.5 229.5t281 83q139 0 220 -75t81 -208q0 -94 -45.5 -165t-131.5 -71q-35 0 -68.5 28t-51.5 81q27 14 50 62.5t23 86.5q0 55 -23.5 77t-64.5 22q-115 0 -206 -132t-138 -345h430l-28 -103h-420 q-8 -41 -17 -135h414l-29 -102h-391v-45q0 -324 228 -324q74 0 151.5 31.5t136.5 81.5q-6 -168 -128 -252t-287 -84q-236 0 -332 174t-96 418h-156z" />
<glyph unicode="&#x2122;" horiz-adv-x="776" d="M-47 1188q0 68 51 114t158 46l47 -5q92 -6 106 -6q53 0 76 11q-12 -80 -51 -80q-16 0 -66 8q-37 8 -55 10l-86 -399h-88l88 407q-59 -2 -91 -29.5t-32 -95.5q0 -25 4 -32t4 -9q-66 0 -65 60zM305 887l139 430l84 12v-346l136 356h96l-78 -452h-88l55 319l-129 -319h-84 v268l-82 -268h-49z" />
<glyph unicode="&#x2202;" horiz-adv-x="1222" d="M84 340q0 156 85 287t229.5 207.5t314.5 76.5q88 0 158.5 -25.5t148.5 -86.5q29 131 29 260q0 164 -65.5 252t-188.5 88q-74 0 -143.5 -30t-112.5 -79l-74 115q76 76 175 117t204 41q178 0 277.5 -124t99.5 -347q0 -279 -111 -535t-290 -412.5t-376 -156.5 q-168 0 -264 94t-96 258zM254 393q0 -113 64.5 -177t173.5 -64q96 0 191 66.5t173 183t127 264.5q-129 82 -297 82q-125 0 -223 -45.5t-153.5 -126t-55.5 -183.5z" />
<glyph unicode="&#x2206;" horiz-adv-x="1267" d="M31 0v162l792 1378h215l209 -1378v-162h-1216zM217 162h811l-160 1151z" />
<glyph unicode="&#x220f;" horiz-adv-x="1353" d="M31 -2l297 1380h-246l37 162h1204l-35 -162h-244l-296 -1380h-164l297 1380h-389l-297 -1380h-164z" />
<glyph unicode="&#x2211;" horiz-adv-x="1239" d="M51 0l33 162l565 614l-330 602l33 162h920l-33 -162h-713l330 -602l-561 -614h706l-32 -162h-918z" />
<glyph unicode="&#x221a;" horiz-adv-x="1351" d="M51 453l19 161h239l68 -391l477 1317h446l-22 -162h-311l-527 -1378h-174l-96 453h-119z" />
<glyph unicode="&#x221e;" horiz-adv-x="1705" d="M86 512q0 113 59.5 207t154.5 149.5t198 55.5q106 0 183 -61.5t142 -174.5q150 135 240 185.5t186 50.5q115 0 181.5 -66.5t66.5 -181.5q0 -102 -54 -200.5t-147.5 -161t-201.5 -62.5q-94 0 -170 55t-152 185q-121 -117 -220 -178.5t-214 -61.5q-111 0 -181.5 71.5 t-70.5 188.5zM252 543q0 -57 38 -95t101 -38q64 0 125.5 33.5t188.5 136.5q-74 113 -123.5 151.5t-124.5 38.5q-82 0 -143.5 -68.5t-61.5 -158.5zM885 592q76 -102 126 -142t122 -40q57 0 102 36.5t68.5 90t23.5 102.5q0 59 -32.5 95t-90.5 36q-68 0 -131 -38t-149 -107z " />
<glyph unicode="&#x222b;" horiz-adv-x="624" d="M-211 -305l21 98q10 -12 24 -15t41 -3q61 0 105.5 37.5t58.5 105.5l313 1491q27 121 106 189.5t189 68.5q84 0 129 -35l-20 -98q-25 18 -66 18q-63 0 -107 -37.5t-59 -105.5l-313 -1491q-27 -121 -105.5 -189.5t-187.5 -68.5q-84 0 -129 35z" />
<glyph unicode="&#x2248;" horiz-adv-x="903" d="M53 258l31 154q39 31 97.5 47t121.5 16q47 0 107.5 -11t117.5 -24q51 -10 101.5 -19t85.5 -9q80 0 125 45l6 -6l-31 -156q-20 -20 -56 -32.5t-77 -12.5q-35 0 -85 9t-101 20q-57 12 -118 23t-108 11q-129 0 -211 -63zM139 672l31 153q39 31 97.5 47.5t121.5 16.5 q47 0 107.5 -11.5t117.5 -23.5q51 -10 101.5 -19.5t85.5 -9.5q80 0 125 45l6 -6l-31 -155q-20 -20 -56 -32.5t-77 -12.5q-35 0 -85 9t-101 19q-57 12 -118 23.5t-108 11.5q-129 0 -211 -63z" />
<glyph unicode="&#x2260;" horiz-adv-x="1024" d="M66 207l49 229h293l49 211h-301l49 230h303l55 241h105l-56 -241h346l-47 -230h-352l-49 -211h358l-47 -229h-362l-37 -158h-103l37 158h-290z" />
<glyph unicode="&#x2264;" horiz-adv-x="829" d="M0 229l37 162h717l-35 -162h-719zM109 815l18 84l690 348l-14 -164l-455 -237l373 -195l-45 -157z" />
<glyph unicode="&#x2265;" horiz-adv-x="829" d="M12 229l37 162h717l-35 -162h-719zM121 494l14 163l455 238l-373 195l45 157l567 -321l-18 -84z" />
<glyph unicode="&#x25fc;" horiz-adv-x="1136" d="M0 0v1137h1137v-1137h-1137z" />
</font>
</defs>
</svg>
