<?xml version="1.0" standalone="no"?>
<!DOCTYPE svg PUBLIC "-//W3C//DTD SVG 1.1//EN" "http://www.w3.org/Graphics/SVG/1.1/DTD/svg11.dtd" >
<svg xmlns="http://www.w3.org/2000/svg" xmlns:xlink="http://www.w3.org/1999/xlink" version="1.1">
<metadata></metadata>
<defs>
<font id="bond_4fsemibold" horiz-adv-x="1058" >
<font-face units-per-em="2048" ascent="1536" descent="-512" />
<missing-glyph horiz-adv-x="356" />
<glyph horiz-adv-x="0" />
<glyph horiz-adv-x="682" />
<glyph unicode=" "  horiz-adv-x="356" />
<glyph unicode="&#x09;" horiz-adv-x="356" />
<glyph unicode="&#xa0;" horiz-adv-x="356" />
<glyph unicode="!" horiz-adv-x="528" d="M137 1434h256l-31 -1024h-194zM147 0v197h236v-197h-236z" />
<glyph unicode="&#x22;" horiz-adv-x="880" d="M82 1434h262l-31 -410h-200zM537 1434h262l-31 -410h-201z" />
<glyph unicode="#" horiz-adv-x="1155" d="M63 381l27 178h186l31 232h-186l26 178h185l55 383h176l-53 -383h231l56 383h176l-53 -383h170l-27 -178h-168l-33 -232h172l-28 -178h-168l-56 -381h-176l53 381h-231l-55 -381h-176l53 381h-187zM453 559h233l31 232h-232z" />
<glyph unicode="$" horiz-adv-x="980" d="M94 410v20h236v-20q0 -139 112 -164v375q-59 14 -102 29.5t-92.5 45t-80.5 68t-52 100t-21 140.5q0 169 91 280.5t257 126.5v125h99v-125q113 -10 195 -66.5t121.5 -139t39.5 -181.5v-20h-235v20q0 146 -121 164v-375q54 -14 92 -27t82.5 -34t74 -48.5t56 -65t39 -89.5 t12.5 -117q0 -173 -93.5 -286t-262.5 -126v-122h-99v125q-167 18 -257.5 126.5t-90.5 260.5zM330 1020q0 -140 112 -178v344q-112 -24 -112 -166zM541 244q121 25 121 172q-2 142 -121 178v-350z" />
<glyph unicode="%" horiz-adv-x="1384" d="M102 1151v20q0 120 76 201.5t211 81.5t211 -81.5t76 -201.5v-20q0 -120 -76.5 -201.5t-210.5 -81.5t-210.5 81.5t-76.5 201.5zM158 0l854 1434h215l-854 -1434h-215zM287 1151q0 -55 26.5 -90t75.5 -35t76 35.5t27 89.5v20q0 53 -27 88t-76 35t-75.5 -34.5t-26.5 -88.5 v-20zM709 262v21q0 120 76 201t210 81t210.5 -81t76.5 -201v-21q0 -120 -76 -201t-211 -81t-210.5 81t-75.5 201zM893 262q0 -54 26.5 -89.5t75.5 -35.5t76 35t27 90v21q0 53 -27 88t-76 35t-75.5 -34.5t-26.5 -88.5v-21z" />
<glyph unicode="&#x26;" horiz-adv-x="1214" d="M117 371q0 58 13.5 110t34 90.5t54 77t62.5 64t71 57.5q-131 193 -131 367q0 142 82 229.5t238 87.5t237.5 -87.5t81.5 -227.5q0 -65 -17.5 -123.5t-52.5 -108.5t-69.5 -87.5t-85.5 -82.5l121 -200l37 79q66 103 223 103h51v-221h-10q-57 0 -90 -42t-66 -151 q84 -84 197 -84h20v-221h-61q-135 0 -254 100q-92 -120 -281 -120q-196 0 -300.5 111t-104.5 280zM352 356q0 -67 36 -111t116 -44q99 0 153 73l-30 52l-158 270q-117 -117 -117 -240zM446 1141q0 -65 20 -119.5t58 -118.5q107 99 107 236q0 21 -2.5 34.5t-10.5 29t-28 23 t-51 7.5q-52 0 -72.5 -23.5t-20.5 -68.5z" />
<glyph unicode="'" horiz-adv-x="536" d="M137 1434h262l-30 -410h-201z" />
<glyph unicode="(" horiz-adv-x="575" d="M117 88v1053q0 80 26.5 151t76 125.5t126.5 86.5t172 32v-221q-73 0 -119.5 -51t-46.5 -123v-1053q0 -72 46.5 -123t119.5 -51v-221q-126 0 -218.5 55t-137.5 143t-45 197z" />
<glyph unicode=")" horiz-adv-x="575" d="M55 -86q74 0 120 50.5t46 123.5v1053q0 73 -46 123.5t-120 50.5v221q188 0 295 -114t107 -281v-1053q0 -109 -45 -197t-137.5 -143t-219.5 -55v221z" />
<glyph unicode="*" horiz-adv-x="903" d="M90 1112q9 28 30 81.5t30 80.5l212 -68v228h177v-232q41 15 115 39.5t98 32.5q9 -28 29.5 -81.5t29.5 -80.5l-221 -72l139 -180l-135 -106q-21 27 -68.5 92t-74.5 98l-144 -192l-135 108q83 112 135 180z" />
<glyph unicode="+" horiz-adv-x="1167" d="M123 606v221h344v351h235v-351h342v-221h-342v-350h-235v350h-344z" />
<glyph unicode="," horiz-adv-x="557" d="M125 0v295h305v-295q0 -148 -75 -241t-212 -93h-18v164h18q56 0 80.5 48t24.5 122h-123z" />
<glyph unicode="-" horiz-adv-x="645" d="M133 406v212h379v-212h-379z" />
<glyph unicode="." horiz-adv-x="557" d="M125 0v295h305v-295h-305z" />
<glyph unicode="/" horiz-adv-x="1181" d="M133 -307l678 1843h236l-678 -1843h-236z" />
<glyph unicode="0" horiz-adv-x="995" d="M115 375v684q0 108 42 196t131 143.5t210 55.5q119 0 206.5 -55.5t130 -143.5t42.5 -196v-684q0 -168 -101 -281.5t-278 -113.5q-120 0 -208.5 55t-131.5 143.5t-43 196.5zM350 375q0 -73 39.5 -123.5t108.5 -50.5q67 0 105 50.5t38 123.5v684q0 73 -38 123.5t-105 50.5 q-69 0 -108.5 -50.5t-39.5 -123.5v-684z" />
<glyph unicode="1" horiz-adv-x="737" d="M53 1047v163q158 0 228.5 52.5t70.5 171.5h189v-1434h-236v1047h-252z" />
<glyph unicode="2" horiz-adv-x="962" d="M94 0q0 80 9.5 146.5t33.5 126.5t51 109t75.5 108t93.5 108.5t117 125.5l7 7q70 82 99.5 147t29.5 164q0 88 -31 139.5t-110 51.5q-139 0 -139 -174v-62h-236v62q0 107 41 194.5t129 144t209 56.5q176 0 274.5 -113.5t98.5 -308.5q0 -54 -6 -100t-23.5 -90t-30 -71.5 t-45.5 -71.5t-48.5 -62.5t-59.5 -69.5q-8 -9 -36.5 -41t-36.5 -41t-31.5 -36t-32 -38.5t-27.5 -35t-28 -38t-23 -35.5t-24 -40.5t-19 -40.5h491v-221h-772z" />
<glyph unicode="3" horiz-adv-x="970" d="M98 375v61h236v-61q0 -73 45 -123.5t121 -50.5q63 0 99 50.5t36 123.5v51q0 176 -186 176h-31v227h31q165 0 165 179v51q0 73 -36 123.5t-99 50.5q-68 0 -106.5 -50.5t-38.5 -123.5v-62h-236v62q0 167 101.5 281t279.5 114q117 0 202.5 -55.5t127 -143.5t41.5 -196v-51 q0 -86 -37.5 -159.5t-105.5 -123.5q76 -52 119.5 -130t43.5 -169v-51q0 -168 -98 -281.5t-272 -113.5q-186 0 -294 114t-108 281z" />
<glyph unicode="4" horiz-adv-x="1036" d="M78 350v221l287 863h237l-289 -863h291v418l236 37v-455h135v-221h-135v-350h-236v350h-526z" />
<glyph unicode="5" horiz-adv-x="950" d="M88 375v61h236v-61q0 -74 40.5 -124t110.5 -50t110 50.5t40 123.5v131q0 74 -40.5 129t-105.5 55q-45 0 -87 -22.5t-48 -53.5h-231l32 820h684v-222h-469l-8 -186q-3 -68 -16 -156q70 31 156 31q167 0 267.5 -115t100.5 -280v-131q0 -108 -42 -196t-131 -143.5 t-210 -55.5q-180 0 -284.5 113.5t-104.5 281.5z" />
<glyph unicode="6" horiz-adv-x="960" d="M98 375v684q0 108 42 196t130 143.5t209 55.5q178 0 279.5 -114t101.5 -281v-62h-235v62q0 73 -39 123.5t-107 50.5t-106.5 -50.5t-38.5 -123.5q0 -24 -3 -57t-7.5 -77t-6.5 -71q77 47 179 47q159 0 261.5 -118.5t102.5 -282.5v-125q0 -109 -42.5 -197t-130.5 -143 t-208 -55t-208 55t-130.5 143t-42.5 197zM334 375q0 -73 38.5 -123.5t106.5 -50.5t107 50.5t39 123.5v125q0 72 -41 126t-105 54q-62 0 -103.5 -51t-41.5 -117v-137z" />
<glyph unicode="7" horiz-adv-x="933" d="M82 1212v222h768v-222q-352 -535 -352 -1212h-236q0 322 88 633t268 579h-536z" />
<glyph unicode="8" horiz-adv-x="954" d="M86 375v51q0 93 55.5 171t151.5 126q-90 47 -138.5 121.5t-48.5 163.5v51q0 105 40.5 193t127 145t203.5 57q114 0 200 -56.5t127.5 -145t41.5 -193.5v-51q0 -88 -47.5 -162t-134.5 -121q96 -50 149 -128t53 -171v-51q0 -108 -43.5 -196.5t-133.5 -143.5t-212 -55 q-183 0 -287 113.5t-104 281.5zM322 375q0 -71 44 -122.5t111 -51.5q66 0 110 51.5t44 122.5v51q0 77 -37 130.5t-117 53.5t-117.5 -53.5t-37.5 -130.5v-51zM342 1008q0 -79 32 -130t103 -51q69 0 101 51.5t32 129.5v51q0 72 -35.5 123t-97.5 51q-63 0 -99 -51t-36 -123v-51 z" />
<glyph unicode="9" horiz-adv-x="960" d="M98 375v61h236v-61q0 -73 38.5 -123.5t106.5 -50.5t107 50.5t39 123.5q0 26 14 203q-81 -46 -174 -46q-159 0 -263 119t-104 283v125q0 167 101.5 281t279.5 114t279.5 -114t101.5 -281v-684q0 -168 -100.5 -281.5t-280.5 -113.5q-120 0 -208 55t-130.5 143t-42.5 197z M334 934q0 -72 40.5 -126t104.5 -54q63 0 104.5 51t41.5 117v137q0 73 -39 123.5t-107 50.5t-106.5 -50.5t-38.5 -123.5v-125z" />
<glyph unicode=":" horiz-adv-x="557" d="M125 111h305v-295h-305v295zM125 799v295h305v-295h-305z" />
<glyph unicode=";" horiz-adv-x="557" d="M125 0v295h305v-295q0 -148 -75 -241t-212 -93h-18v164h18q56 0 80.5 48t24.5 122h-123zM125 614v295h305v-295h-305z" />
<glyph unicode="&#x3c;" horiz-adv-x="1021" d="M137 627v178l750 356v-235l-205 -97q-33 -16 -133 -57t-133 -53v-4q34 -12 134 -53t132 -56l205 -96v-236z" />
<glyph unicode="=" horiz-adv-x="978" d="M193 446v213h593v-213h-593zM193 774v213h593v-213h-593z" />
<glyph unicode="&#x3e;" horiz-adv-x="1026" d="M137 274v236l205 96q32 15 132 56t134 53v4q-33 12 -133 53t-133 57l-205 97v235l750 -356v-178z" />
<glyph unicode="?" horiz-adv-x="923" d="M88 997v62q0 169 99.5 282t281.5 113q174 0 272.5 -111.5t98.5 -308.5q0 -31 -3.5 -58t-6.5 -46.5t-14.5 -45t-17 -38t-25 -41.5t-27.5 -39.5t-36.5 -47.5t-39.5 -52q-64 -85 -85.5 -135t-21.5 -121h-198q0 59 7 108.5t15 81t28 69t31.5 55t40.5 56t41 56.5 q48 66 62 107.5t14 94.5q0 94 -35.5 144.5t-101.5 50.5q-69 0 -106 -50t-37 -124v-62h-236zM344 0v197h236v-197h-236z" />
<glyph unicode="@" horiz-adv-x="1613" d="M137 328v368q0 337 171 511.5t499 174.5q326 0 497 -174.5t171 -511.5v-307q0 -147 -61 -237.5t-187 -90.5q-154 0 -209 127q-67 -127 -225 -127q-136 0 -222 89t-86 219v286q0 129 87 218.5t225 89.5q147 0 213 -115l28 94h101v-635q0 -21 19 -36t50 -15q14 0 21.5 2.5 t17 14t13.5 40t4 76.5v307q0 246 -116 369t-341 123t-341 -123t-116 -369v-368q0 -246 116 -369t341 -123v-194q-328 0 -499 174.5t-171 511.5zM684 369q0 -64 30.5 -102t96.5 -38q129 0 129 140v286q0 63 -30.5 101.5t-98.5 38.5q-66 0 -96.5 -39t-30.5 -101v-286z" />
<glyph unicode="A" horiz-adv-x="1077" d="M41 0l362 1434h273l360 -1434h-237l-78 317h-365l-77 -317h-238zM410 539h256l-60 247q-19 79 -39.5 230t-25.5 182h-4q-4 -26 -25.5 -179t-40.5 -233z" />
<glyph unicode="B" horiz-adv-x="1024" d="M133 0v1434h361q125 0 218 -55.5t138 -144t45 -196.5v-30q0 -87 -37.5 -161.5t-105.5 -121.5q80 -50 121.5 -128t41.5 -171v-31q0 -109 -45 -197t-137.5 -143t-218.5 -55h-381zM369 221h145q166 0 166 174v31q0 180 -160 180h-151v-385zM369 827h131q159 0 159 181v30 q0 174 -165 174h-125v-385z" />
<glyph unicode="C" horiz-adv-x="1011" d="M117 375v684q0 80 26.5 151t76 125.5t126.5 86.5t172 32q187 0 294.5 -114.5t107.5 -280.5v-62h-236v62q0 72 -46.5 123t-119.5 51t-119.5 -51t-46.5 -123v-684q0 -72 46.5 -123t119.5 -51t119.5 51t46.5 123v61h236v-61q0 -108 -45 -196.5t-138 -143.5t-219 -55 t-218.5 55t-137.5 143t-45 197z" />
<glyph unicode="D" horiz-adv-x="1040" d="M133 0v1434h391q187 0 294.5 -112.5t107.5 -277.5v-655q0 -107 -45 -194t-138 -141t-219 -54h-391zM369 221h155q166 0 166 168v655q0 168 -166 168h-155v-991z" />
<glyph unicode="E" horiz-adv-x="905" d="M133 0v1434h688v-222h-452v-385h350v-221h-350v-385h452v-221h-688z" />
<glyph unicode="F" horiz-adv-x="888" d="M133 0v1434h688v-222h-452v-385h350v-221h-350v-606h-236z" />
<glyph unicode="G" d="M117 375v684q0 80 27.5 151t78 125.5t129.5 86.5t176 32t176 -32t130 -86.5t78.5 -125.5t27.5 -151v-62h-235v62q0 72 -49.5 123t-125.5 51q-80 0 -129 -50.5t-49 -123.5v-684q0 -73 49 -123.5t129 -50.5q76 0 125.5 51t49.5 123v231h-177v221h412v-827h-115l-16 131 q-44 -71 -115.5 -111t-161.5 -40q-131 0 -227 55t-142 143t-46 197z" />
<glyph unicode="H" horiz-adv-x="1089" d="M133 0v1434h236v-607h352v607h235v-1434h-235v606h-352v-606h-236z" />
<glyph unicode="I" horiz-adv-x="505" d="M133 0v1434h236v-1434h-236z" />
<glyph unicode="J" horiz-adv-x="913" d="M33 365v73h235v-73q0 -68 39 -116t107 -48q67 0 106 48t39 116v1069h236v-1069q0 -163 -102 -274t-279 -111q-120 0 -208 53.5t-130.5 139.5t-42.5 192z" />
<glyph unicode="K" horiz-adv-x="1036" d="M133 0v1434h236v-590l348 590h258l-369 -627l387 -807h-245l-287 590l-92 -125v-465h-236z" />
<glyph unicode="L" horiz-adv-x="847" d="M133 0v1434h236v-1213h452v-221h-688z" />
<glyph unicode="M" horiz-adv-x="1380" d="M133 0v1434h350l156 -619q5 -22 49 -258h4l12 81t15 96.5t16 80.5l162 619h350v-1434h-235v565q0 95 10 565h-4q-4 -18 -33 -161.5t-47 -218.5l-137 -549h-219l-138 549q-19 72 -45.5 203.5t-36.5 176.5h-4q11 -517 11 -565v-565h-236z" />
<glyph unicode="N" horiz-adv-x="1112" d="M133 0v1434h356l187 -750q16 -56 29.5 -118.5t28.5 -142.5t24 -120h4q-1 47 -11 251t-10 314v566h236v-1434h-356l-187 750q-16 56 -29.5 118.5t-29 142t-23.5 119.5h-4q1 -47 11 -251t10 -314v-565h-236z" />
<glyph unicode="O" d="M117 375v684q0 80 27.5 151t78 125.5t129.5 86.5t176 32t176 -32t130 -86.5t78.5 -125.5t27.5 -151v-684q0 -108 -46.5 -196.5t-141.5 -143.5t-224 -55t-224 55t-141 143.5t-46 196.5zM352 375q0 -73 46.5 -123.5t129.5 -50.5q81 0 129 50.5t48 123.5v684q0 73 -48 123.5 t-129 50.5q-83 0 -129.5 -50.5t-46.5 -123.5v-684z" />
<glyph unicode="P" horiz-adv-x="970" d="M133 0v1434h361q187 0 294 -112.5t107 -277.5v-165q0 -165 -107 -277.5t-294 -112.5h-125v-489h-236zM369 711h125q165 0 165 168v165q0 168 -165 168h-125v-501z" />
<glyph unicode="Q" d="M117 375v684q0 80 27.5 151t78 125.5t129.5 86.5t176 32t176 -32t130 -86.5t78.5 -125.5t27.5 -151v-684q0 -140 -80 -247t-223 -138q2 -72 36.5 -118t114.5 -46h76v-201h-76q-179 0 -276 102t-100 265q-141 34 -218 139.5t-77 243.5zM352 375q0 -73 46.5 -123.5 t129.5 -50.5q81 0 129 50.5t48 123.5v684q0 73 -48 123.5t-129 50.5q-83 0 -129.5 -50.5t-46.5 -123.5v-684z" />
<glyph unicode="R" horiz-adv-x="1019" d="M133 0v1434h375q187 0 294 -112.5t107 -277.5v-165q0 -110 -50 -201t-144 -141l219 -537h-248l-205 489h-112v-489h-236zM369 711h139q166 0 166 168v165q0 168 -166 168h-139v-501z" />
<glyph unicode="S" horiz-adv-x="980" d="M86 375v61h236v-61q0 -79 45 -126.5t125 -47.5q83 0 126.5 48t43.5 136q0 43 -11 75.5t-27 54t-49 41t-63 31.5t-84 31q-38 13 -67 24.5t-66 31t-64 41t-55 54t-46 70t-29 88.5t-11 111q0 190 104 303t293 113q97 0 176 -32t129 -87t76.5 -126t26.5 -150v-62h-238v62 q0 79 -44.5 126.5t-123.5 47.5t-121 -48t-42 -134q0 -45 14 -81.5t31.5 -58t51 -41t54.5 -27.5t60 -22q47 -16 79.5 -28.5t73 -33t68 -41.5t56 -53t45.5 -68.5t27.5 -86t10.5 -107.5q0 -194 -104.5 -308.5t-294.5 -114.5q-130 0 -225.5 55.5t-141 143.5t-45.5 196z" />
<glyph unicode="T" horiz-adv-x="862" d="M43 1212v222h776v-222h-270v-1212h-236v1212h-270z" />
<glyph unicode="U" d="M117 375v1059h235v-1059q0 -73 46.5 -123.5t129.5 -50.5q81 0 129 50.5t48 123.5v1059h235v-1059q0 -108 -46.5 -196.5t-141.5 -143.5t-224 -55t-224 55t-141 143.5t-46 196.5z" />
<glyph unicode="V" horiz-adv-x="1081" d="M43 1434h238l192 -787q21 -80 41.5 -234.5t24.5 -176.5h4q5 30 25.5 181t39.5 230l193 787h237l-360 -1434h-272z" />
<glyph unicode="W" horiz-adv-x="1652" d="M43 1434h240l161 -818q6 -72 21 -206.5t20 -188.5h4q4 48 18.5 184.5t20.5 210.5l164 818h273l163 -818q6 -74 20.5 -210.5t18.5 -184.5h4q4 48 18.5 184.5t20.5 210.5l164 818h240l-307 -1434h-275l-162 817q-3 40 -41 395h-4q-4 -48 -18.5 -184.5t-20.5 -210.5 l-163 -817h-273z" />
<glyph unicode="X" horiz-adv-x="1013" d="M43 0l346 737l-326 697h236l78 -170q22 -46 67 -160.5t60 -161.5h4q80 218 129 322l78 170h235l-325 -697l346 -737h-236l-78 168q-95 219 -149 364h-4q-20 -57 -70.5 -181t-77.5 -183l-77 -168h-236z" />
<glyph unicode="Y" horiz-adv-x="1019" d="M43 1434h233l152 -375q15 -35 28 -76.5t28 -91.5t24 -78h4q3 10 31.5 104t48.5 142l151 375h234l-350 -871v-563h-236v563z" />
<glyph unicode="Z" horiz-adv-x="866" d="M51 0v199l512 1013h-512v222h762v-201l-510 -1012h510v-221h-762z" />
<glyph unicode="[" horiz-adv-x="761" d="M133 -512v2048h496v-227h-260v-1594h260v-227h-496z" />
<glyph unicode="\" horiz-adv-x="1177" d="M133 1536h234l677 -1843h-233z" />
<glyph unicode="]" horiz-adv-x="761" d="M133 -285h260v1594h-260v227h496v-2048h-496v227z" />
<glyph unicode="^" horiz-adv-x="956" d="M35 786l356 750h178l353 -750h-236l-96 205q-53 120 -109 273h-4q-51 -140 -110 -273l-97 -205h-235z" />
<glyph unicode="_" horiz-adv-x="1028" d="M-8 -217h1044v-148h-1044v148z" />
<glyph unicode="`" horiz-adv-x="503" d="M35 1434h250l184 -277h-188z" />
<glyph unicode="a" horiz-adv-x="942" d="M84 291q0 254 360 305l156 22v66q0 62 -34 104.5t-97 42.5q-61 0 -95 -40.5t-34 -100.5h-225q0 151 94 252.5t260 101.5q170 0 263 -103t93 -257v-684h-104l-59 106q-69 -126 -246 -126q-147 0 -239.5 87.5t-92.5 223.5zM309 283q0 -40 33.5 -66.5t95.5 -26.5 q69 0 115.5 33t46.5 84v105l-123 -19q-168 -24 -168 -110z" />
<glyph unicode="b" horiz-adv-x="993" d="M125 0v1501l225 35v-307q0 -100 -18 -240q88 55 194 55q160 0 260.5 -113.5t100.5 -275.5v-288q0 -79 -25 -148t-71.5 -123t-120.5 -85t-166 -31q-141 0 -219 118l-54 -98h-106zM350 367q0 -73 43 -123.5t113 -50.5t113 50.5t43 123.5v288q0 74 -43 125t-113 51t-113 -51 t-43 -125v-288z" />
<glyph unicode="c" horiz-adv-x="925" d="M109 381v262q0 110 40.5 199.5t127 145.5t206.5 56q170 0 268.5 -102.5t98.5 -251.5h-225q0 61 -38 101t-104 40q-71 0 -110 -54t-39 -134v-262q0 -81 38.5 -134.5t110.5 -53.5q66 0 104 40t38 101h225q0 -151 -98 -252.5t-269 -101.5q-120 0 -206.5 56t-127 145.5 t-40.5 199.5z" />
<glyph unicode="d" horiz-adv-x="997" d="M109 354v316q0 101 43.5 185.5t128 136.5t192.5 52q115 0 189 -53q-17 166 -17 238v272l225 35v-1536h-104l-51 92q-82 -112 -242 -112q-163 0 -263.5 108.5t-100.5 265.5zM334 367q0 -73 44 -123.5t114 -50.5t111.5 50.5t41.5 123.5v288q0 75 -41.5 125.5t-111.5 50.5 t-114 -51t-44 -125v-288z" />
<glyph unicode="e" horiz-adv-x="950" d="M109 381v262q0 110 40.5 199.5t127 145.5t206.5 56q170 0 268.5 -102.5t98.5 -251.5v-266h-516v-43q0 -81 38.5 -134.5t110.5 -53.5q66 0 104 40t38 101h225q0 -151 -98 -252.5t-269 -101.5q-120 0 -206.5 56t-127 145.5t-40.5 199.5zM334 627h291v63q0 61 -38 101 t-104 40q-71 0 -110 -54t-39 -134v-16z" />
<glyph unicode="f" horiz-adv-x="708" d="M27 809v205h163v123q0 164 97 266t278 102h76v-215h-76q-149 0 -149 -153v-123h266v-205h-266v-809h-226v809h-163z" />
<glyph unicode="g" horiz-adv-x="987" d="M84 -180q0 134 125 239q-70 80 -70 201q0 99 49 164q-84 104 -84 248q0 159 100.5 265.5t280.5 106.5q112 0 201 -47q64 31 64 156h198q0 -181 -149 -254q67 -98 67 -227q0 -102 -42 -184.5t-130 -134.5t-209 -52q-76 0 -120 12q-27 -18 -27 -51q0 -83 65 -90 q156 -15 216 -29q276 -62 287 -286q1 -10 1 -21q0 -156 -107.5 -262t-301.5 -106q-98 0 -178.5 30t-131 80t-77.5 112.5t-27 129.5zM309 -180q0 -56 50.5 -97.5t136.5 -41.5q88 0 137 43.5t49 107.5q0 36 -23.5 62t-69.5 40.5t-90 22t-106 12.5q-84 -84 -84 -149zM330 672 q0 -68 41 -113t114 -45q74 0 115 45t41 113q0 69 -41 114t-115 45t-114.5 -45t-40.5 -114z" />
<glyph unicode="h" horiz-adv-x="978" d="M125 0v1501l225 35v-307q0 -90 -18 -238q74 53 180 53q157 0 254.5 -113.5t97.5 -275.5v-655h-225v655q0 75 -40 125.5t-107 50.5q-64 0 -103 -51t-39 -125v-655h-225z" />
<glyph unicode="i" horiz-adv-x="475" d="M125 0v1024h225v-1024h-225zM125 1196v197h225v-197h-225z" />
<glyph unicode="j" horiz-adv-x="528" d="M20 -311h64q94 0 94 133v1001h-158v201h383v-1202q0 -152 -77 -243t-242 -91h-64v201zM178 1237v197h225v-197h-225z" />
<glyph unicode="k" horiz-adv-x="937" d="M125 0v1505l225 31v-889l277 377h245l-331 -453l362 -571h-235l-256 406l-62 -76v-330h-225z" />
<glyph unicode="l" horiz-adv-x="475" d="M125 0v1501l225 35v-1536h-225z" />
<glyph unicode="m" horiz-adv-x="1425" d="M125 0v1024h106l50 -92q72 112 213 112q76 0 142.5 -34.5t111.5 -94.5q80 129 223 129q148 0 242 -116t94 -279v-649h-226v649q0 76 -36 129t-93 53q-56 0 -89.5 -52.5t-33.5 -129.5v-649h-225v649q0 76 -36.5 129t-94.5 53q-56 0 -89.5 -52.5t-33.5 -129.5v-649h-225z " />
<glyph unicode="n" horiz-adv-x="983" d="M125 0v1024h106l52 -94q80 114 227 114q159 0 257.5 -115.5t98.5 -279.5v-649h-225v649q0 76 -40 129t-107 53q-66 0 -105 -50.5t-39 -125.5v-655h-225z" />
<glyph unicode="o" horiz-adv-x="980" d="M109 371v282q0 107 42 194t129.5 142t208.5 55t209.5 -55t130 -142t41.5 -194v-282q0 -107 -41.5 -194t-130 -142t-209.5 -55t-208.5 55t-129.5 142t-42 194zM334 371q0 -76 41 -127t114 -51q75 0 115.5 51t40.5 127v282q0 75 -41 126.5t-115 51.5q-73 0 -114 -51.5 t-41 -126.5v-282z" />
<glyph unicode="p" horiz-adv-x="993" d="M125 -512v1536h106l52 -94q83 114 243 114t260.5 -113.5t100.5 -275.5v-288q0 -79 -25 -148t-71.5 -123t-120.5 -85t-166 -31q-99 0 -172 55q18 -140 18 -240v-307h-225zM350 367q0 -73 43 -123.5t113 -50.5t113 50.5t43 123.5v288q0 74 -43 125t-113 51t-113 -51 t-43 -125v-288z" />
<glyph unicode="q" horiz-adv-x="995" d="M109 354v316q0 155 101 264.5t263 109.5q156 0 242 -114l51 94h104v-1536h-225v307q0 75 17 236q-76 -51 -189 -51q-163 0 -263.5 108.5t-100.5 265.5zM334 367q0 -73 44 -123.5t114 -50.5t111.5 50.5t41.5 123.5v288q0 75 -41.5 125.5t-111.5 50.5t-114 -51t-44 -125 v-288z" />
<glyph unicode="r" horiz-adv-x="616" d="M125 0v1024h106l54 -94q84 104 235 104h45v-219h-57q-84 0 -121 -38t-37 -101v-676h-225z" />
<glyph unicode="s" horiz-adv-x="909" d="M78 334h225q0 -66 39 -103.5t119 -37.5q68 0 106.5 25t38.5 75q0 47 -41 69.5t-162 57.5q-43 12 -70 20t-65 23t-61 29.5t-49.5 37.5t-41 49.5t-24.5 63t-10 80.5q0 148 98.5 234.5t268.5 86.5q95 0 169 -29t118.5 -78.5t67.5 -112t23 -134.5h-225q0 66 -38 103.5 t-115 37.5q-64 0 -103 -25.5t-39 -70.5q0 -40 43 -63.5t158 -55.5q48 -14 74 -23t66 -25t62 -30.5t48.5 -38t40 -50t23 -63.5t9.5 -81q0 -155 -99 -240t-269 -85q-97 0 -172 28.5t-120.5 78t-69 112.5t-23.5 135z" />
<glyph unicode="t" horiz-adv-x="737" d="M27 809v170q112 0 163.5 50t51.5 159v41l153 20v-235h267v-205h-267v-440q0 -72 34.5 -118t115.5 -46h76v-205h-76q-181 0 -278 102.5t-97 266.5v440h-143z" />
<glyph unicode="u" horiz-adv-x="983" d="M117 373v651h225v-651q0 -75 40 -127.5t107 -52.5q65 0 104.5 50.5t39.5 123.5v657h225v-1024h-106l-52 96q-79 -116 -227 -116q-159 0 -257.5 115t-98.5 278z" />
<glyph unicode="v" horiz-adv-x="894" d="M25 1024h231l104 -377q21 -75 52 -223.5t34 -163.5h5q3 15 34 163.5t52 223.5l104 377h229l-311 -1024h-223z" />
<glyph unicode="w" horiz-adv-x="1267" d="M33 1024h219l74 -358q13 -61 22.5 -125t21 -160.5t15.5 -126.5h4q7 46 17 130t20 153t23 129l73 358h223l74 -358q13 -60 23 -129t20 -153t17 -130h4q4 30 15.5 126.5t21 160.5t22.5 125l74 358h219l-244 -1024h-223l-72 358q-13 60 -23 128.5t-21 154t-17 129.5h-4 q-4 -33 -12.5 -100.5t-13.5 -108.5t-14.5 -98.5t-19.5 -104.5l-71 -358h-224z" />
<glyph unicode="x" horiz-adv-x="923" d="M31 0l311 539l-283 485h238l102 -182q12 -21 22.5 -46.5t23.5 -63t18 -50.5q6 13 26.5 71.5t38.5 88.5l101 182h237l-282 -487l309 -537h-234l-102 180q-17 28 -33 63t-33.5 80t-27.5 68q-10 -23 -28 -68t-34 -80t-32 -63l-103 -180h-235z" />
<glyph unicode="y" horiz-adv-x="888" d="M27 1024h237l119 -502q10 -66 32.5 -187t30.5 -171h11q7 42 29 166t32 192l113 502h239l-346 -1270q-60 -266 -323 -266h-51v186h6q44 0 73 9t46.5 29.5t25.5 42.5t16 59l25 106z" />
<glyph unicode="z" horiz-adv-x="821" d="M59 0v190l441 621h-441v213h701v-190l-438 -621h438v-213h-701z" />
<glyph unicode="{" horiz-adv-x="696" d="M86 627v192h10q96 0 140.5 57.5t44.5 147.5v184q0 149 75 238.5t236 89.5h16v-209h-16q-41 0 -58.5 -34.5t-17.5 -84.5v-184q0 -91 -39.5 -170t-111.5 -131q72 -52 111.5 -131t39.5 -170v-184q0 -50 17.5 -84.5t58.5 -34.5h16v-209h-16q-161 0 -236 89.5t-75 238.5v184 q0 90 -44.5 147.5t-140.5 57.5h-10z" />
<glyph unicode="|" horiz-adv-x="454" d="M133 -512v2048h189v-2048h-189z" />
<glyph unicode="}" horiz-adv-x="696" d="M86 -90v209h18q74 0 74 119v184q0 90 41 169t115 132q-74 53 -115 132t-41 169v184q0 119 -74 119h-18v209h18q108 0 179.5 -44.5t101 -116t29.5 -167.5v-184q0 -90 44 -147.5t140 -57.5h10v-192h-10q-96 0 -140 -57.5t-44 -147.5v-184q0 -96 -29.5 -167.5t-101 -116 t-179.5 -44.5h-18z" />
<glyph unicode="&#xa1;" horiz-adv-x="528" d="M137 -410l31 1024h194l31 -1024h-256zM147 827v197h236v-197h-236z" />
<glyph unicode="&#xa8;" horiz-adv-x="835" d="M152 1157v184h210v-184h-210zM471 1157v184h213v-184h-213z" />
<glyph unicode="&#xa9;" horiz-adv-x="1263" d="M117 477v479q0 80 21 153.5t63.5 136.5t103 109.5t144.5 72.5t182 26q121 0 220 -40.5t162.5 -109t97.5 -158t34 -190.5v-479q0 -136 -58 -247.5t-177 -180.5t-279 -69q-122 0 -221 40t-162.5 108.5t-97 157.5t-33.5 191zM227 477q0 -168 107 -281.5t297 -113.5 q127 0 220.5 55t139 143.5t45.5 196.5v479q0 108 -45.5 197t-139 144t-220.5 55q-190 0 -297 -114t-107 -282v-479zM342 602v217q0 136 76 227t217 91q132 0 208.5 -82t76.5 -203h-179q0 56 -26.5 90.5t-79.5 34.5q-113 0 -113 -158v-217q0 -158 113 -158q53 0 79.5 34.5 t26.5 90.5h179q0 -122 -76.5 -203t-208.5 -81q-141 0 -217 90t-76 227z" />
<glyph unicode="&#xad;" horiz-adv-x="645" d="M133 406v212h379v-212h-379z" />
<glyph unicode="&#xae;" horiz-adv-x="1263" d="M117 477v479q0 80 21 153.5t63.5 136.5t103 109.5t144.5 72.5t182 26q121 0 220 -40.5t162.5 -109t97.5 -158t34 -190.5v-479q0 -136 -58 -247.5t-177 -180.5t-279 -69q-122 0 -221 40t-162.5 108.5t-97 157.5t-33.5 191zM227 477q0 -168 107 -281.5t297 -113.5 q127 0 220.5 55t139 143.5t45.5 196.5v479q0 108 -45.5 197t-139 144t-220.5 55q-190 0 -297 -114t-107 -282v-479zM362 307v819h287q135 0 214 -69.5t79 -188.5q0 -188 -160 -245l181 -316h-187l-168 295h-67v-295h-179zM541 748h102q63 0 91 22.5t28 89.5q0 59 -22 83 t-87 24h-112v-219z" />
<glyph unicode="&#xaf;" horiz-adv-x="679" d="M27 1182v135h624v-135h-624z" />
<glyph unicode="&#xb1;" horiz-adv-x="1167" d="M123 0v221h921v-221h-921zM123 713v223h344v348h235v-348h342v-223h-342v-351h-235v351h-344z" />
<glyph unicode="&#xb4;" horiz-adv-x="503" d="M35 1157l184 277h250l-246 -277h-188z" />
<glyph unicode="&#xb7;" horiz-adv-x="491" d="M133 406v212h225v-212h-225z" />
<glyph unicode="&#xb8;" horiz-adv-x="649" d="M133 -360q6 15 18.5 49.5t20.5 52.5q25 -14 50 -21t36 -7.5t39 -0.5q32 0 51 16.5t19 41.5q0 55 -68 55q-19 0 -23 -2q-10 9 -29.5 20t-27.5 17l66 207q39 -2 110 -2l-49 -144q87 -11 128.5 -58t41.5 -102q0 -66 -48.5 -113.5t-145.5 -47.5q-112 0 -189 39z" />
<glyph unicode="&#xbf;" horiz-adv-x="923" d="M86 -10q0 31 3.5 58t6.5 46.5t14.5 45t17 38t25 41.5t27.5 39.5t36.5 47.5t39.5 52q63 81 84.5 132t21.5 124h199q0 -59 -7 -108.5t-15.5 -81.5t-28 -69t-32 -55t-40.5 -56t-41 -56q-47 -65 -61 -107t-14 -95q0 -94 35.5 -144.5t101.5 -50.5q69 0 106 50t37 124v62h236 v-62q0 -169 -99.5 -282t-281.5 -113q-174 0 -272.5 111.5t-98.5 308.5zM346 827v197h236v-197h-236z" />
<glyph unicode="&#xc0;" horiz-adv-x="1077" d="M41 0l362 1434h273l360 -1434h-237l-78 317h-365l-77 -317h-238zM240 1843h249l185 -276h-189zM410 539h256l-60 247q-19 79 -39.5 230t-25.5 182h-4q-4 -26 -25.5 -179t-40.5 -233z" />
<glyph unicode="&#xc1;" horiz-adv-x="1077" d="M41 0l362 1434h273l360 -1434h-237l-78 317h-365l-77 -317h-238zM403 1567l185 276h250l-246 -276h-189zM410 539h256l-60 247q-19 79 -39.5 230t-25.5 182h-4q-4 -26 -25.5 -179t-40.5 -233z" />
<glyph unicode="&#xc2;" horiz-adv-x="1077" d="M41 0l362 1434h273l360 -1434h-237l-78 317h-365l-77 -317h-238zM248 1567l223 276h135l221 -276h-161l-127 129l-129 -129h-162zM410 539h256l-60 247q-19 79 -39.5 230t-25.5 182h-4q-4 -26 -25.5 -179t-40.5 -233z" />
<glyph unicode="&#xc3;" horiz-adv-x="1077" d="M41 0l362 1434h273l360 -1434h-237l-78 317h-365l-77 -317h-238zM195 1659q131 125 219 125q45 0 121 -43q74 -41 122 -41q43 0 113 67l111 -108q-129 -123 -222 -123q-47 0 -118 41q-65 43 -125 43q-40 0 -111 -68zM410 539h256l-60 247q-19 79 -39.5 230t-25.5 182h-4 q-4 -26 -25.5 -179t-40.5 -233z" />
<glyph unicode="&#xc4;" horiz-adv-x="1077" d="M41 0l362 1434h273l360 -1434h-237l-78 317h-365l-77 -317h-238zM274 1567v184h211v-184h-211zM410 539h256l-60 247q-19 79 -39.5 230t-25.5 182h-4q-4 -26 -25.5 -179t-40.5 -233zM594 1567v184h213v-184h-213z" />
<glyph unicode="&#xc5;" horiz-adv-x="1077" d="M41 0l362 1434h273l360 -1434h-237l-78 317h-365l-77 -317h-238zM354 1659q0 76 54 130t131 54t130.5 -53.5t53.5 -130.5t-53.5 -130.5t-130.5 -53.5t-131 54t-54 130zM410 539h256l-60 247q-19 79 -39.5 230t-25.5 182h-4q-4 -26 -25.5 -179t-40.5 -233zM463 1659 q0 -31 22.5 -53.5t53.5 -22.5t53 22.5t22 53.5t-22 53.5t-53 22.5t-53.5 -22.5t-22.5 -53.5z" />
<glyph unicode="&#xc6;" horiz-adv-x="1286" d="M41 0l362 1434h807v-222h-350v-385h248v-221h-248v-385h350v-221h-585v317h-269l-77 -317h-238zM410 539h215v659h-88q-4 -26 -25.5 -179t-40.5 -233z" />
<glyph unicode="&#xc7;" horiz-adv-x="1011" d="M117 375v684q0 80 26.5 151t76 125.5t126.5 86.5t172 32q187 0 294.5 -114.5t107.5 -280.5v-62h-236v62q0 72 -46.5 123t-119.5 51t-119.5 -51t-46.5 -123v-684q0 -72 46.5 -123t119.5 -51t119.5 51t46.5 123v61h236v-61q0 -152 -89.5 -261.5t-248.5 -129.5l-21 -62 q87 -11 128.5 -58t41.5 -102q0 -66 -48.5 -113.5t-145.5 -47.5q-112 0 -189 39q6 15 18.5 49.5t20.5 52.5q25 -14 50 -21t36 -7.5t39 -0.5q32 0 51 16.5t19 41.5q0 55 -68 55q-18 0 -22 -2q-10 9 -30 20t-28 17l37 121q-166 15 -260 125.5t-94 267.5z" />
<glyph unicode="&#xc8;" horiz-adv-x="905" d="M133 0v1434h688v-222h-452v-385h350v-221h-350v-385h452v-221h-688zM154 1843h249l185 -276h-189z" />
<glyph unicode="&#xc9;" horiz-adv-x="905" d="M133 0v1434h688v-222h-452v-385h350v-221h-350v-385h452v-221h-688zM317 1567l185 276h250l-246 -276h-189z" />
<glyph unicode="&#xca;" horiz-adv-x="905" d="M133 0v1434h688v-222h-452v-385h350v-221h-350v-385h452v-221h-688zM162 1567l223 276h135l221 -276h-161l-127 129l-129 -129h-162z" />
<glyph unicode="&#xcb;" horiz-adv-x="905" d="M133 0v1434h688v-222h-452v-385h350v-221h-350v-385h452v-221h-688zM209 1567v184h211v-184h-211zM528 1567v184h213v-184h-213z" />
<glyph unicode="&#xcc;" horiz-adv-x="505" d="M-45 1843h250l184 -276h-188zM133 0v1434h236v-1434h-236z" />
<glyph unicode="&#xcd;" horiz-adv-x="505" d="M113 1567l184 276h250l-246 -276h-188zM133 0v1434h236v-1434h-236z" />
<glyph unicode="&#xce;" horiz-adv-x="505" d="M-37 1567l223 276h136l221 -276h-162l-127 129l-129 -129h-162zM133 0v1434h236v-1434h-236z" />
<glyph unicode="&#xcf;" horiz-adv-x="505" d="M-14 1567v184h211v-184h-211zM133 0v1434h236v-1434h-236zM305 1567v184h213v-184h-213z" />
<glyph unicode="&#xd0;" horiz-adv-x="1081" d="M49 604v223h125v607h391q187 0 294.5 -112.5t107.5 -277.5v-655q0 -107 -45 -194t-138 -141t-219 -54h-391v604h-125zM410 221h155q166 0 166 168v655q0 168 -166 168h-155v-385h145v-223h-145v-383z" />
<glyph unicode="&#xd1;" horiz-adv-x="1112" d="M133 0v1434h356l187 -750q16 -56 29.5 -118.5t28.5 -142.5t24 -120h4q-1 47 -11 251t-10 314v566h236v-1434h-356l-187 750q-16 56 -29.5 118.5t-29 142t-23.5 119.5h-4q1 -47 11 -251t10 -314v-565h-236zM213 1659q131 125 219 125q45 0 121 -43q74 -41 123 -41 q42 0 112 67l111 -108q-129 -123 -221 -123q-48 0 -119 41q-65 43 -125 43q-39 0 -110 -68z" />
<glyph unicode="&#xd2;" d="M117 375v684q0 80 27.5 151t78 125.5t129.5 86.5t176 32t176 -32t130 -86.5t78.5 -125.5t27.5 -151v-684q0 -108 -46.5 -196.5t-141.5 -143.5t-224 -55t-224 55t-141 143.5t-46 196.5zM229 1843h250l185 -276h-189zM352 375q0 -73 46.5 -123.5t129.5 -50.5q81 0 129 50.5 t48 123.5v684q0 73 -48 123.5t-129 50.5q-83 0 -129.5 -50.5t-46.5 -123.5v-684z" />
<glyph unicode="&#xd3;" d="M117 375v684q0 80 27.5 151t78 125.5t129.5 86.5t176 32t176 -32t130 -86.5t78.5 -125.5t27.5 -151v-684q0 -108 -46.5 -196.5t-141.5 -143.5t-224 -55t-224 55t-141 143.5t-46 196.5zM352 375q0 -73 46.5 -123.5t129.5 -50.5q81 0 129 50.5t48 123.5v684q0 73 -48 123.5 t-129 50.5q-83 0 -129.5 -50.5t-46.5 -123.5v-684zM393 1567l185 276h249l-245 -276h-189z" />
<glyph unicode="&#xd4;" d="M117 375v684q0 80 27.5 151t78 125.5t129.5 86.5t176 32t176 -32t130 -86.5t78.5 -125.5t27.5 -151v-684q0 -108 -46.5 -196.5t-141.5 -143.5t-224 -55t-224 55t-141 143.5t-46 196.5zM238 1567l223 276h135l221 -276h-162l-127 129l-129 -129h-161zM352 375 q0 -73 46.5 -123.5t129.5 -50.5q81 0 129 50.5t48 123.5v684q0 73 -48 123.5t-129 50.5q-83 0 -129.5 -50.5t-46.5 -123.5v-684z" />
<glyph unicode="&#xd5;" d="M117 375v684q0 80 27.5 151t78 125.5t129.5 86.5t176 32t176 -32t130 -86.5t78.5 -125.5t27.5 -151v-684q0 -108 -46.5 -196.5t-141.5 -143.5t-224 -55t-224 55t-141 143.5t-46 196.5zM184 1659q131 125 219 125q45 0 121 -43q74 -41 123 -41q43 0 113 67l110 -108 q-129 -123 -221 -123q-48 0 -119 41q-65 43 -124 43q-40 0 -111 -68zM352 375q0 -73 46.5 -123.5t129.5 -50.5q81 0 129 50.5t48 123.5v684q0 73 -48 123.5t-129 50.5q-83 0 -129.5 -50.5t-46.5 -123.5v-684z" />
<glyph unicode="&#xd6;" d="M117 375v684q0 80 27.5 151t78 125.5t129.5 86.5t176 32t176 -32t130 -86.5t78.5 -125.5t27.5 -151v-684q0 -108 -46.5 -196.5t-141.5 -143.5t-224 -55t-224 55t-141 143.5t-46 196.5zM264 1567v184h211v-184h-211zM352 375q0 -73 46.5 -123.5t129.5 -50.5q81 0 129 50.5 t48 123.5v684q0 73 -48 123.5t-129 50.5q-83 0 -129.5 -50.5t-46.5 -123.5v-684zM584 1567v184h213v-184h-213z" />
<glyph unicode="&#xd7;" horiz-adv-x="794" d="M-10 961l164 163l247 -247l244 243l156 -155l-244 -244l248 -248l-164 -164l-248 248l-243 -244l-156 156l244 244z" />
<glyph unicode="&#xd8;" d="M117 346v713q0 80 27.5 151t78 125.5t129.5 86.5t176 32q169 0 279 -92l61 123l74 -47l-72 -144q70 -102 70 -209v-710q0 -108 -46.5 -196.5t-141.5 -143.5t-224 -55q-164 0 -276 88l-55 -117l-74 47l65 137q-71 93 -71 211zM352 457l338 673q-18 46 -61 74.5t-101 28.5 q-83 0 -129.5 -50.5t-46.5 -123.5v-477v-125zM369 297q47 -96 159 -96q81 0 129 50.5t48 123.5v465q0 86 2 127z" />
<glyph unicode="&#xd9;" d="M117 375v1059h235v-1059q0 -73 46.5 -123.5t129.5 -50.5q81 0 129 50.5t48 123.5v1059h235v-1059q0 -108 -46.5 -196.5t-141.5 -143.5t-224 -55t-224 55t-141 143.5t-46 196.5zM229 1843h250l185 -276h-189z" />
<glyph unicode="&#xda;" d="M117 375v1059h235v-1059q0 -73 46.5 -123.5t129.5 -50.5q81 0 129 50.5t48 123.5v1059h235v-1059q0 -108 -46.5 -196.5t-141.5 -143.5t-224 -55t-224 55t-141 143.5t-46 196.5zM393 1567l185 276h249l-245 -276h-189z" />
<glyph unicode="&#xdb;" d="M117 375v1059h235v-1059q0 -73 46.5 -123.5t129.5 -50.5q81 0 129 50.5t48 123.5v1059h235v-1059q0 -108 -46.5 -196.5t-141.5 -143.5t-224 -55t-224 55t-141 143.5t-46 196.5zM238 1567l223 276h135l221 -276h-162l-127 129l-129 -129h-161z" />
<glyph unicode="&#xdc;" d="M117 375v1059h235v-1059q0 -73 46.5 -123.5t129.5 -50.5q81 0 129 50.5t48 123.5v1059h235v-1059q0 -108 -46.5 -196.5t-141.5 -143.5t-224 -55t-224 55t-141 143.5t-46 196.5zM264 1567v184h211v-184h-211zM584 1567v184h213v-184h-213z" />
<glyph unicode="&#xdd;" horiz-adv-x="1019" d="M43 1434h233l152 -375q15 -35 28 -76.5t28 -91.5t24 -78h4q3 10 31.5 104t48.5 142l151 375h234l-350 -871v-563h-236v563zM375 1567l184 276h250l-246 -276h-188z" />
<glyph unicode="&#xde;" horiz-adv-x="970" d="M133 0v1434h236v-234h125q187 0 294 -112t107 -277v-186q0 -165 -107 -277t-294 -112h-125v-236h-236zM369 457h125q165 0 165 168v186q0 168 -165 168h-125v-522z" />
<glyph unicode="&#xdf;" horiz-adv-x="997" d="M47 823v201h78v55q0 103 42.5 186.5t130.5 136t208 52.5q174 0 272.5 -108t98.5 -267v-10q0 -85 -38 -159t-106 -124q76 -52 120 -130t44 -169v-92q0 -168 -98.5 -281.5t-272.5 -113.5h-55v227h55q63 -4 99.5 45.5t36.5 122.5v92q0 177 -187 177h-4v227h4q166 0 166 178 v10q0 65 -36 109.5t-99 44.5q-68 0 -107 -44.5t-39 -109.5v-1079h-235v823h-78z" />
<glyph unicode="&#xe0;" horiz-adv-x="942" d="M84 291q0 254 360 305l156 22v66q0 62 -34 104.5t-97 42.5q-61 0 -95 -40.5t-34 -100.5h-225q0 151 94 252.5t260 101.5q170 0 263 -103t93 -257v-684h-104l-59 106q-69 -126 -246 -126q-147 0 -239.5 87.5t-92.5 223.5zM172 1434h250l184 -277h-188zM309 283 q0 -40 33.5 -66.5t95.5 -26.5q69 0 115.5 33t46.5 84v105l-123 -19q-168 -24 -168 -110z" />
<glyph unicode="&#xe1;" horiz-adv-x="942" d="M84 291q0 254 360 305l156 22v66q0 62 -34 104.5t-97 42.5q-61 0 -95 -40.5t-34 -100.5h-225q0 151 94 252.5t260 101.5q170 0 263 -103t93 -257v-684h-104l-59 106q-69 -126 -246 -126q-147 0 -239.5 87.5t-92.5 223.5zM309 283q0 -40 33.5 -66.5t95.5 -26.5 q69 0 115.5 33t46.5 84v105l-123 -19q-168 -24 -168 -110zM336 1157l184 277h250l-246 -277h-188z" />
<glyph unicode="&#xe2;" horiz-adv-x="942" d="M84 291q0 254 360 305l156 22v66q0 62 -34 104.5t-97 42.5q-61 0 -95 -40.5t-34 -100.5h-225q0 151 94 252.5t260 101.5q170 0 263 -103t93 -257v-684h-104l-59 106q-69 -126 -246 -126q-147 0 -239.5 87.5t-92.5 223.5zM180 1157l223 277h136l221 -277h-162l-127 129 l-129 -129h-162zM309 283q0 -40 33.5 -66.5t95.5 -26.5q69 0 115.5 33t46.5 84v105l-123 -19q-168 -24 -168 -110z" />
<glyph unicode="&#xe3;" horiz-adv-x="942" d="M84 291q0 254 360 305l156 22v66q0 62 -34 104.5t-97 42.5q-61 0 -95 -40.5t-34 -100.5h-225q0 151 94 252.5t260 101.5q170 0 263 -103t93 -257v-684h-104l-59 106q-69 -126 -246 -126q-147 0 -239.5 87.5t-92.5 223.5zM127 1249q131 125 219 125q45 0 121 -43 q74 -41 123 -41q41 0 112 68l111 -109q-129 -123 -221 -123q-48 0 -119 41q-65 43 -125 43q-40 0 -110 -67zM309 283q0 -40 33.5 -66.5t95.5 -26.5q69 0 115.5 33t46.5 84v105l-123 -19q-168 -24 -168 -110z" />
<glyph unicode="&#xe4;" horiz-adv-x="942" d="M84 291q0 254 360 305l156 22v66q0 62 -34 104.5t-97 42.5q-61 0 -95 -40.5t-34 -100.5h-225q0 151 94 252.5t260 101.5q170 0 263 -103t93 -257v-684h-104l-59 106q-69 -126 -246 -126q-147 0 -239.5 87.5t-92.5 223.5zM207 1157v184h211v-184h-211zM309 283 q0 -40 33.5 -66.5t95.5 -26.5q69 0 115.5 33t46.5 84v105l-123 -19q-168 -24 -168 -110zM526 1157v184h213v-184h-213z" />
<glyph unicode="&#xe5;" horiz-adv-x="942" d="M84 291q0 254 360 305l156 22v66q0 62 -34 104.5t-97 42.5q-61 0 -95 -40.5t-34 -100.5h-225q0 151 94 252.5t260 101.5q170 0 263 -103t93 -257v-684h-104l-59 106q-69 -126 -246 -126q-147 0 -239.5 87.5t-92.5 223.5zM287 1249q0 77 54 131t130 54t130 -54t54 -131 t-53.5 -130.5t-130.5 -53.5t-130.5 53.5t-53.5 130.5zM309 283q0 -40 33.5 -66.5t95.5 -26.5q69 0 115.5 33t46.5 84v105l-123 -19q-168 -24 -168 -110zM395 1249q0 -31 22.5 -53t53.5 -22t53.5 22t22.5 53t-22.5 53.5t-53.5 22.5t-53.5 -22.5t-22.5 -53.5z" />
<glyph unicode="&#xe6;" horiz-adv-x="1441" d="M84 291q0 254 360 305l156 22v66q0 62 -34 104.5t-97 42.5q-61 0 -95 -40.5t-34 -100.5h-225q0 150 93.5 252t250.5 102q173 0 260 -131q90 131 268 131q158 0 256 -103.5t98 -250.5v-266h-516v-43q0 -81 39 -134.5t111 -53.5q65 0 103 40t38 101h225 q0 -149 -97.5 -251.5t-256.5 -102.5q-185 0 -276 143q-81 -143 -295 -143q-147 0 -239.5 87.5t-92.5 223.5zM309 283q0 -40 33.5 -66.5t95.5 -26.5q69 0 115.5 33t46.5 84v105l-123 -19q-168 -24 -168 -110zM825 627h291v63q0 61 -38 101t-103 40q-72 0 -111 -54t-39 -134 v-16z" />
<glyph unicode="&#xe7;" horiz-adv-x="925" d="M109 381v262q0 110 40.5 199.5t127 145.5t206.5 56q170 0 268.5 -102.5t98.5 -251.5h-225q0 61 -38 101t-104 40q-71 0 -110 -54t-39 -134v-262q0 -81 38.5 -134.5t110.5 -53.5q66 0 104 40t38 101h225q0 -141 -87 -240t-239 -112l-20 -60q87 -11 128.5 -58t41.5 -102 q0 -66 -49 -113.5t-146 -47.5q-111 0 -188 39q6 15 18.5 49.5t20.5 52.5q25 -14 50 -21t36 -7.5t39 -0.5q32 0 50.5 16.5t18.5 41.5q0 55 -67 55q-19 0 -23 -2q-10 9 -29.5 20t-27.5 17l39 125q-148 21 -227.5 131t-79.5 264z" />
<glyph unicode="&#xe8;" horiz-adv-x="950" d="M109 381v262q0 110 40.5 199.5t127 145.5t206.5 56q170 0 268.5 -102.5t98.5 -251.5v-266h-516v-43q0 -81 38.5 -134.5t110.5 -53.5q66 0 104 40t38 101h225q0 -151 -98 -252.5t-269 -101.5q-120 0 -206.5 56t-127 145.5t-40.5 199.5zM201 1434h250l184 -277h-189z M334 627h291v63q0 61 -38 101t-104 40q-71 0 -110 -54t-39 -134v-16z" />
<glyph unicode="&#xe9;" horiz-adv-x="950" d="M109 381v262q0 110 40.5 199.5t127 145.5t206.5 56q170 0 268.5 -102.5t98.5 -251.5v-266h-516v-43q0 -81 38.5 -134.5t110.5 -53.5q66 0 104 40t38 101h225q0 -151 -98 -252.5t-269 -101.5q-120 0 -206.5 56t-127 145.5t-40.5 199.5zM334 627h291v63q0 61 -38 101 t-104 40q-71 0 -110 -54t-39 -134v-16zM340 1157l184 277h250l-246 -277h-188z" />
<glyph unicode="&#xea;" horiz-adv-x="950" d="M109 381v262q0 110 40.5 199.5t127 145.5t206.5 56q170 0 268.5 -102.5t98.5 -251.5v-266h-516v-43q0 -81 38.5 -134.5t110.5 -53.5q66 0 104 40t38 101h225q0 -151 -98 -252.5t-269 -101.5q-120 0 -206.5 56t-127 145.5t-40.5 199.5zM184 1157l224 277h135l221 -277 h-162l-127 129l-129 -129h-162zM334 627h291v63q0 61 -38 101t-104 40q-71 0 -110 -54t-39 -134v-16z" />
<glyph unicode="&#xeb;" horiz-adv-x="950" d="M109 381v262q0 110 40.5 199.5t127 145.5t206.5 56q170 0 268.5 -102.5t98.5 -251.5v-266h-516v-43q0 -81 38.5 -134.5t110.5 -53.5q66 0 104 40t38 101h225q0 -151 -98 -252.5t-269 -101.5q-120 0 -206.5 56t-127 145.5t-40.5 199.5zM211 1157v184h211v-184h-211z M334 627h291v63q0 61 -38 101t-104 40q-71 0 -110 -54t-39 -134v-16zM530 1157v184h213v-184h-213z" />
<glyph unicode="&#xec;" horiz-adv-x="475" d="M-53 1434h250l184 -277h-188zM168 0v1024h225v-1024h-225z" />
<glyph unicode="&#xed;" horiz-adv-x="475" d="M119 0v1024h225v-1024h-225zM121 1157l184 277h250l-246 -277h-188z" />
<glyph unicode="&#xee;" horiz-adv-x="475" d="M-51 1157l223 277h135l221 -277h-161l-127 129l-129 -129h-162zM125 0v1024h225v-1024h-225z" />
<glyph unicode="&#xef;" horiz-adv-x="475" d="M-53 1157v184h211v-184h-211zM150 0v1024h225v-1024h-225zM266 1157v184h213v-184h-213z" />
<glyph unicode="&#xf0;" horiz-adv-x="985" d="M109 348v305q0 161 101.5 276t252.5 115q107 0 182 -65q3 71 -37.5 119.5t-150.5 113.5l-80 -125l-129 62l84 133l-178 96l94 158l180 -98l61 100l129 -61l-65 -107q46 -23 82.5 -44.5t83 -59t77.5 -78t52.5 -98.5t21.5 -123v-621q0 -50 -10 -84q-31 -126 -126.5 -204 t-244.5 -78q-148 0 -242.5 78t-125.5 204q-12 40 -12 86zM334 371q0 -76 41 -127t114 -51q75 0 115.5 51t40.5 127v282q0 75 -41 125.5t-115 50.5q-73 0 -114 -50.5t-41 -125.5v-282z" />
<glyph unicode="&#xf1;" horiz-adv-x="983" d="M125 0v1024h106l52 -94q80 114 227 114q159 0 257.5 -115.5t98.5 -279.5v-649h-225v649q0 76 -40 129t-107 53q-66 0 -105 -50.5t-39 -125.5v-655h-225zM147 1249q131 125 220 125q44 0 120 -43q74 -41 123 -41q42 0 113 68l111 -109q-129 -123 -222 -123q-47 0 -118 41 q-65 43 -125 43q-41 0 -111 -67z" />
<glyph unicode="&#xf2;" horiz-adv-x="980" d="M109 371v282q0 107 42 194t129.5 142t208.5 55t209.5 -55t130 -142t41.5 -194v-282q0 -107 -41.5 -194t-130 -142t-209.5 -55t-208.5 55t-129.5 142t-42 194zM190 1434h250l185 -277h-189zM334 371q0 -76 41 -127t114 -51q75 0 115.5 51t40.5 127v282q0 75 -41 126.5 t-115 51.5q-73 0 -114 -51.5t-41 -126.5v-282z" />
<glyph unicode="&#xf3;" horiz-adv-x="980" d="M109 371v282q0 107 42 194t129.5 142t208.5 55t209.5 -55t130 -142t41.5 -194v-282q0 -107 -41.5 -194t-130 -142t-209.5 -55t-208.5 55t-129.5 142t-42 194zM334 371q0 -76 41 -127t114 -51q75 0 115.5 51t40.5 127v282q0 75 -41 126.5t-115 51.5q-73 0 -114 -51.5 t-41 -126.5v-282zM354 1157l185 277h249l-245 -277h-189z" />
<glyph unicode="&#xf4;" horiz-adv-x="980" d="M109 371v282q0 107 42 194t129.5 142t208.5 55t209.5 -55t130 -142t41.5 -194v-282q0 -107 -41.5 -194t-130 -142t-209.5 -55t-208.5 55t-129.5 142t-42 194zM199 1157l223 277h135l221 -277h-162l-127 129l-129 -129h-161zM334 371q0 -76 41 -127t114 -51q75 0 115.5 51 t40.5 127v282q0 75 -41 126.5t-115 51.5q-73 0 -114 -51.5t-41 -126.5v-282z" />
<glyph unicode="&#xf5;" horiz-adv-x="980" d="M109 371v282q0 107 42 194t129.5 142t208.5 55t209.5 -55t130 -142t41.5 -194v-282q0 -107 -41.5 -194t-130 -142t-209.5 -55t-208.5 55t-129.5 142t-42 194zM145 1249q131 125 220 125q44 0 120 -43q74 -41 123 -41q42 0 113 68l110 -109q-129 -123 -221 -123 q-47 0 -118 41q-65 43 -125 43q-41 0 -111 -67zM334 371q0 -76 41 -127t114 -51q75 0 115.5 51t40.5 127v282q0 75 -41 126.5t-115 51.5q-73 0 -114 -51.5t-41 -126.5v-282z" />
<glyph unicode="&#xf6;" horiz-adv-x="980" d="M109 371v282q0 107 42 194t129.5 142t208.5 55t209.5 -55t130 -142t41.5 -194v-282q0 -107 -41.5 -194t-130 -142t-209.5 -55t-208.5 55t-129.5 142t-42 194zM225 1157v184h211v-184h-211zM334 371q0 -76 41 -127t114 -51q75 0 115.5 51t40.5 127v282q0 75 -41 126.5 t-115 51.5q-73 0 -114 -51.5t-41 -126.5v-282zM545 1157v184h213v-184h-213z" />
<glyph unicode="&#xf8;" horiz-adv-x="980" d="M80 -2l94 135q-65 103 -65 238v282q0 107 42 194t129.5 142t208.5 55q153 0 256 -90l86 121l68 -47l-94 -137q65 -103 65 -238v-282q0 -107 -41.5 -194t-130 -142t-209.5 -55q-160 0 -256 90l-83 -119zM334 360l282 404q-44 67 -127 67q-73 0 -114 -51.5t-41 -126.5v-282 v-11zM365 258q45 -65 124 -65q75 0 115.5 51t40.5 127v282v11z" />
<glyph unicode="&#xf9;" horiz-adv-x="983" d="M117 373v651h225v-651q0 -75 40 -127.5t107 -52.5q65 0 104.5 50.5t39.5 123.5v657h225v-1024h-106l-52 96q-79 -116 -227 -116q-159 0 -257.5 115t-98.5 278zM193 1434h249l185 -277h-189z" />
<glyph unicode="&#xfa;" horiz-adv-x="983" d="M117 373v651h225v-651q0 -75 40 -127.5t107 -52.5q65 0 104.5 50.5t39.5 123.5v657h225v-1024h-106l-52 96q-79 -116 -227 -116q-159 0 -257.5 115t-98.5 278zM356 1157l185 277h250l-246 -277h-189z" />
<glyph unicode="&#xfb;" horiz-adv-x="983" d="M117 373v651h225v-651q0 -75 40 -127.5t107 -52.5q65 0 104.5 50.5t39.5 123.5v657h225v-1024h-106l-52 96q-79 -116 -227 -116q-159 0 -257.5 115t-98.5 278zM201 1157l223 277h135l221 -277h-162l-126 129l-130 -129h-161z" />
<glyph unicode="&#xfc;" horiz-adv-x="983" d="M117 373v651h225v-651q0 -75 40 -127.5t107 -52.5q65 0 104.5 50.5t39.5 123.5v657h225v-1024h-106l-52 96q-79 -116 -227 -116q-159 0 -257.5 115t-98.5 278zM227 1157v184h211v-184h-211zM547 1157v184h213v-184h-213z" />
<glyph unicode="&#xfd;" horiz-adv-x="888" d="M27 1024h237l119 -502q10 -66 32.5 -187t30.5 -171h11q7 42 29 166t32 192l113 502h239l-346 -1270q-60 -266 -323 -266h-51v186h6q44 0 73 9t46.5 29.5t25.5 42.5t16 59l25 106zM309 1157l185 277h249l-245 -277h-189z" />
<glyph unicode="&#xfe;" horiz-adv-x="993" d="M125 -512v2013l225 35v-307q0 -100 -18 -240q88 55 194 55q160 0 260.5 -113.5t100.5 -275.5v-288q0 -160 -100.5 -273.5t-260.5 -113.5q-115 0 -194 55q18 -140 18 -240v-307h-225zM350 367q0 -73 43 -123.5t113 -50.5t113 50.5t43 123.5v288q0 74 -43 125t-113 51 t-113 -51t-43 -125v-288z" />
<glyph unicode="&#xff;" horiz-adv-x="888" d="M27 1024h237l119 -502q10 -66 32.5 -187t30.5 -171h11q7 42 29 166t32 192l113 502h239l-346 -1270q-60 -266 -323 -266h-51v186h6q44 0 73 9t46.5 29.5t25.5 42.5t16 59l25 106zM178 1157v184h211v-184h-211zM498 1157v184h213v-184h-213z" />
<glyph unicode="&#x152;" horiz-adv-x="1325" d="M117 381v672q0 81 26 153.5t74 127.5t123 87.5t168 32.5q88 0 156 -35v15h585v-222h-350v-385h248v-221h-248v-385h350v-221h-585v12q-72 -32 -156 -32q-122 0 -212.5 56t-134.5 146t-44 199zM352 381q0 -75 41.5 -127.5t114.5 -52.5q68 0 109.5 45t46.5 114v689 q2 76 -40.5 130t-115.5 54q-72 0 -114 -53t-42 -127v-672z" />
<glyph unicode="&#x153;" horiz-adv-x="1466" d="M109 334v356q0 148 98.5 251t257.5 103q182 0 272 -141q90 141 275 141q159 0 256.5 -103t97.5 -251v-266h-516v-43q0 -81 38.5 -134.5t110.5 -53.5q66 0 104 40t38 101h225q0 -149 -97 -251.5t-257 -102.5q-186 0 -275 139q-89 -139 -272 -139q-160 0 -258 102.5 t-98 251.5zM334 334q0 -60 38.5 -100.5t104.5 -40.5q72 0 110 53.5t38 134.5v262q0 80 -38.5 134t-109.5 54q-67 0 -105 -40t-38 -101v-356zM850 627h291v63q0 61 -38 101t-104 40q-71 0 -110 -54t-39 -134v-16z" />
<glyph unicode="&#x178;" horiz-adv-x="1019" d="M43 1434h233l152 -375q15 -35 28 -76.5t28 -91.5t24 -78h4q3 10 31.5 104t48.5 142l151 375h234l-350 -871v-563h-236v563zM244 1567v184h211v-184h-211zM563 1567v184h213v-184h-213z" />
<glyph unicode="&#x2c6;" horiz-adv-x="792" d="M106 1157l224 277h135l221 -277h-162l-127 129l-129 -129h-162z" />
<glyph unicode="&#x2dc;" horiz-adv-x="911" d="M113 1249q131 125 219 125q45 0 121 -43q74 -41 122 -41q42 0 113 68l111 -109q-129 -123 -221 -123q-48 0 -119 41q-65 43 -125 43q-41 0 -111 -67z" />
<glyph unicode="&#x2000;" horiz-adv-x="921" />
<glyph unicode="&#x2001;" horiz-adv-x="1843" />
<glyph unicode="&#x2002;" horiz-adv-x="921" />
<glyph unicode="&#x2003;" horiz-adv-x="1843" />
<glyph unicode="&#x2004;" horiz-adv-x="614" />
<glyph unicode="&#x2005;" horiz-adv-x="460" />
<glyph unicode="&#x2006;" horiz-adv-x="307" />
<glyph unicode="&#x2007;" horiz-adv-x="307" />
<glyph unicode="&#x2008;" horiz-adv-x="230" />
<glyph unicode="&#x2009;" horiz-adv-x="368" />
<glyph unicode="&#x200a;" horiz-adv-x="102" />
<glyph unicode="&#x2010;" horiz-adv-x="645" d="M133 406v212h379v-212h-379z" />
<glyph unicode="&#x2011;" horiz-adv-x="645" d="M133 406v212h379v-212h-379z" />
<glyph unicode="&#x2012;" horiz-adv-x="645" d="M133 406v212h379v-212h-379z" />
<glyph unicode="&#x2013;" horiz-adv-x="952" d="M133 406v212h686v-212h-686z" />
<glyph unicode="&#x2014;" horiz-adv-x="1259" d="M133 406v212h993v-212h-993z" />
<glyph unicode="&#x2018;" horiz-adv-x="444" d="M102 938v231q0 117 59 191t169 74h14v-127h-14q-46 0 -67 -39.5t-21 -98.5h102v-231h-242z" />
<glyph unicode="&#x2019;" horiz-adv-x="444" d="M102 938v129h17q43 0 64.5 38t21.5 93h-103v236h242v-236q0 -114 -59 -187t-166 -73h-17z" />
<glyph unicode="&#x201a;" horiz-adv-x="444" d="M102 0v231h242v-231q0 -117 -59 -190.5t-166 -73.5h-17v129h17q43 0 64.5 39t21.5 96h-103z" />
<glyph unicode="&#x201c;" horiz-adv-x="808" d="M102 938v231q0 117 58.5 191t167.5 74h16v-127h-16q-44 0 -65 -39.5t-21 -98.5h102v-231h-242zM467 938v231q0 117 58 191t167 74h17v-127h-17q-44 0 -65 -39.5t-21 -98.5h103v-231h-242z" />
<glyph unicode="&#x201d;" horiz-adv-x="808" d="M102 938v129h17q43 0 64.5 39t21.5 96h-103v232h242v-232q0 -117 -59 -190.5t-166 -73.5h-17zM467 938v129h16q43 0 64.5 39t21.5 96h-102v232h242v-232q0 -117 -59.5 -190.5t-166.5 -73.5h-16z" />
<glyph unicode="&#x201e;" horiz-adv-x="808" d="M102 0v231h242v-231q0 -117 -59 -190.5t-166 -73.5h-17v129h17q43 0 64.5 39t21.5 96h-103zM467 0v231h242v-231q0 -117 -59.5 -190.5t-166.5 -73.5h-16v129h16q43 0 64.5 39t21.5 96h-102z" />
<glyph unicode="&#x2022;" horiz-adv-x="626" d="M106 676q0 88 59.5 147.5t147.5 59.5t147.5 -59.5t59.5 -147.5t-59.5 -147.5t-147.5 -59.5t-147.5 59.5t-59.5 147.5z" />
<glyph unicode="&#x202f;" horiz-adv-x="368" />
<glyph unicode="&#x205f;" horiz-adv-x="460" />
<glyph unicode="&#x20ac;" horiz-adv-x="1105" d="M90 543v90h152v168h-152v90h152v168q0 167 106.5 281t294.5 114q95 0 172 -32t126.5 -86.5t76 -125.5t26.5 -151v-62h-235v62q0 72 -46.5 123t-119.5 51t-119.5 -51t-46.5 -123v-168h299v-90h-299v-168h299v-90h-299v-168q0 -72 46.5 -123t119.5 -51t119.5 51t46.5 123 v61h235v-61q0 -109 -45 -197t-137.5 -143t-218.5 -55q-127 0 -219.5 55t-137 143t-44.5 197v168h-152z" />
<glyph unicode="&#x2122;" horiz-adv-x="1103" d="M41 1323v111h387v-111h-133v-504h-117v504h-137zM508 819v615h174l49 -193q5 -22 25 -129h2q5 21 13 64t13 65l47 193h177v-615h-119v180q0 95 4 283h-2q-5 -24 -17.5 -89.5t-21.5 -100.5l-39 -158h-111l-38 158q-9 37 -23 105t-18 85h-2q4 -188 4 -283v-180h-117z" />
<glyph unicode="&#x25fc;" horiz-adv-x="1024" d="M0 0v1024h1024v-1024h-1024z" />
</font>
</defs>
</svg>
