<?xml version="1.0" standalone="no"?>
<!DOCTYPE svg PUBLIC "-//W3C//DTD SVG 1.1//EN" "http://www.w3.org/Graphics/SVG/1.1/DTD/svg11.dtd" >
<svg xmlns="http://www.w3.org/2000/svg" xmlns:xlink="http://www.w3.org/1999/xlink" version="1.1">
<metadata></metadata>
<defs>
<font id="bond_4fmedium" horiz-adv-x="1040" >
<font-face units-per-em="2048" ascent="1536" descent="-512" />
<missing-glyph horiz-adv-x="368" />
<glyph horiz-adv-x="0" />
<glyph horiz-adv-x="682" />
<glyph unicode=" "  horiz-adv-x="368" />
<glyph unicode="&#x09;" horiz-adv-x="368" />
<glyph unicode="&#xa0;" horiz-adv-x="368" />
<glyph unicode="!" horiz-adv-x="499" d="M137 1434h225l-30 -1024h-164zM147 0v197h205v-197h-205z" />
<glyph unicode="&#x22;" horiz-adv-x="806" d="M137 1434h225l-30 -410h-164zM444 1434h226l-31 -410h-164z" />
<glyph unicode="#" horiz-adv-x="1165" d="M70 391l24 158h193l35 252h-195l25 157h192l55 394h158l-55 -394h252l55 394h158l-56 -394h183l-25 -157h-180l-35 -252h182l-24 -158h-181l-55 -391h-158l56 391h-252l-55 -391h-158l55 391h-194zM444 549h252l35 252h-252z" />
<glyph unicode="$" horiz-adv-x="964" d="M96 410v20h205v-20q0 -75 32 -127t101 -66v416q-57 14 -99 29t-90 44t-78 66.5t-50.5 98t-20.5 137.5q0 167 88.5 277.5t249.5 125.5v125h94v-125q163 -14 254.5 -124.5t91.5 -262.5v-20h-204v20q0 74 -34.5 128t-107.5 65v-416q64 -16 107 -31.5t92 -44.5t78.5 -65.5 t49 -95.5t19.5 -134q0 -172 -90.5 -284.5t-255.5 -125.5v-122h-94v125q-161 18 -249.5 126.5t-88.5 260.5zM301 1020q0 -87 35 -130t98 -63v387q-133 -27 -133 -194zM528 215q74 13 108 67t34 132q0 91 -38.5 133.5t-103.5 60.5v-393z" />
<glyph unicode="%" horiz-adv-x="1335" d="M109 1151v20q0 120 72.5 201.5t201.5 81.5t201.5 -81.5t72.5 -201.5v-20q0 -120 -73 -201.5t-201 -81.5t-201 81.5t-73 201.5zM158 0l829 1434h191l-830 -1434h-190zM272 1151q0 -61 29 -100t82 -39t82 39.5t29 99.5v20q0 60 -29 100t-82 40t-82 -39.5t-29 -100.5v-20z M678 262v21q0 120 73 201t201 81t201.5 -81t73.5 -201v-21q0 -120 -72.5 -201t-202.5 -81q-129 0 -201.5 81t-72.5 201zM842 262q0 -60 28.5 -99.5t81.5 -39.5t82 39t29 100v21q0 61 -29 100t-82 39t-81.5 -39.5t-28.5 -99.5v-21z" />
<glyph unicode="&#x26;" horiz-adv-x="1200" d="M121 369q0 72 18.5 132.5t55 109.5t72.5 82.5t89 74.5q-131 193 -131 369q0 142 78.5 229.5t228.5 87.5q149 0 228.5 -87.5t79.5 -225.5q0 -67 -18.5 -126t-55.5 -109.5t-72.5 -87t-89.5 -81.5l148 -241q90 221 256 221h45v-193h-11q-54 0 -80 -32t-57 -123 q-4 -15 -13.5 -40.5t-12.5 -35.5q84 -100 204 -100h21v-193h-55q-130 0 -256 113q-92 -133 -281 -133q-190 0 -290.5 110.5t-100.5 278.5zM326 356q0 -77 40 -130.5t130 -53.5q111 0 170 94l-207 348q-133 -123 -133 -258zM426 1137q0 -75 21.5 -132t60.5 -120 q131 114 131 256q0 55 -23 88t-86 33q-60 0 -82 -31.5t-22 -93.5z" />
<glyph unicode="'" horiz-adv-x="499" d="M137 1434h225l-30 -410h-164z" />
<glyph unicode="(" horiz-adv-x="569" d="M121 82v1065q0 107 43 193.5t133 141t213 54.5v-193q-87 0 -135.5 -56.5t-48.5 -139.5v-1065q0 -83 48.5 -140t135.5 -57v-192q-123 0 -213 54.5t-133 141t-43 193.5z" />
<glyph unicode=")" horiz-adv-x="569" d="M59 -115q87 0 136 57t49 140v1065q0 82 -49 139t-136 57v193q93 0 168 -31.5t123 -85t73.5 -123.5t25.5 -149v-1065q0 -79 -25.5 -149t-73.5 -123.5t-123 -85t-168 -31.5v192z" />
<glyph unicode="*" horiz-adv-x="894" d="M90 1122q8 25 25.5 72.5t25.5 71.5l228 -74v242h155v-244q38 14 114 38t114 38q8 -24 25.5 -71.5t25.5 -72.5l-234 -75l148 -193l-119 -94q-110 146 -152 201l-151 -203l-119 96q7 10 143 193z" />
<glyph unicode="+" horiz-adv-x="1175" d="M127 621v192h358v365h205v-365h359v-192h-359v-365h-205v365h-358z" />
<glyph unicode="," horiz-adv-x="526" d="M129 0v256h266v-256q0 -131 -65.5 -213t-184.5 -82h-16v139h16q50 0 72.5 44t22.5 112h-111z" />
<glyph unicode="-" horiz-adv-x="653" d="M137 420v184h379v-184h-379z" />
<glyph unicode="." horiz-adv-x="526" d="M129 0v256h266v-256h-266z" />
<glyph unicode="/" horiz-adv-x="1159" d="M137 -307l678 1843h205l-678 -1843h-205z" />
<glyph unicode="0" horiz-adv-x="976" d="M119 369v696q0 165 97 277t271 112q87 0 158.5 -31.5t116.5 -85t69.5 -123.5t24.5 -149v-696q0 -79 -24.5 -149t-69.5 -123.5t-116.5 -85t-158.5 -31.5q-116 0 -201 54.5t-126 141t-41 193.5zM324 369q0 -82 43.5 -139.5t119.5 -57.5t120 57.5t44 139.5v696 q0 82 -44 139.5t-120 57.5t-119.5 -57.5t-43.5 -139.5v-696z" />
<glyph unicode="1" horiz-adv-x="724" d="M66 1065v143q151 0 218.5 53.5t67.5 172.5h164v-1434h-205v1065h-245z" />
<glyph unicode="2" horiz-adv-x="946" d="M98 0q0 59 5 110t19 99t27.5 86t42 83t51 77t66 81.5t75 83t89.5 93.5q80 91 114 161t34 175q0 213 -160 213q-158 0 -158 -197v-61h-205v61q0 79 23.5 148.5t68 123.5t115.5 85.5t160 31.5q169 0 264.5 -110.5t95.5 -303.5q0 -64 -12 -121t-28 -97.5t-49.5 -89.5 t-58.5 -78t-73 -83q-117 -125 -174.5 -203.5t-91.5 -174.5h508v-193h-748z" />
<glyph unicode="3" horiz-adv-x="954" d="M102 369v61h205v-61q0 -82 49.5 -139.5t135.5 -57.5q72 0 112.5 57t40.5 140v51q0 88 -48.5 143t-156.5 55h-30v197h30q96 0 140.5 55.5t44.5 143.5v51q0 82 -41 139.5t-113 57.5q-76 0 -120 -57.5t-44 -139.5v-61h-205v61q0 79 24.5 149t69.5 123.5t116.5 85t158.5 31.5 q113 0 195.5 -54t122.5 -141t40 -194v-51q0 -93 -41.5 -169.5t-119.5 -121.5q88 -45 135 -125.5t47 -177.5v-51q0 -107 -40 -194t-122.5 -141t-195.5 -54q-122 0 -212 54t-134 141.5t-44 193.5z" />
<glyph unicode="4" horiz-adv-x="1009" d="M72 365v192l290 877h205l-291 -877h328v434l205 33v-467h141v-192h-141v-365h-205v365h-532z" />
<glyph unicode="5" horiz-adv-x="933" d="M92 369v61h205v-61q0 -83 45.5 -140t124.5 -57t123.5 57t44.5 140v143q0 87 -44 146t-122 59q-55 0 -100 -29.5t-52 -73.5h-200l33 820h659v-193h-475l-8 -215q-2 -68 -17 -176q70 51 174 51q107 0 189.5 -54t125 -142t42.5 -193v-143q0 -164 -98 -276.5t-273 -112.5 t-276 112t-101 277z" />
<glyph unicode="6" horiz-adv-x="944" d="M102 369v696q0 165 97.5 277t271.5 112q87 0 158.5 -31.5t116.5 -85t69.5 -123.5t24.5 -149v-61h-205v61q0 82 -44 139.5t-120 57.5t-120 -57.5t-44 -139.5q0 -50 -14 -227q75 63 192 63q159 0 257 -113.5t98 -275.5v-143q0 -79 -24.5 -149t-69.5 -123.5t-116.5 -85 t-158.5 -31.5t-158.5 31.5t-116.5 85t-69.5 123.5t-24.5 149zM307 369q0 -82 44 -139.5t120 -57.5t120 57.5t44 139.5v143q0 82 -44 139.5t-120 57.5t-120 -57.5t-44 -139.5v-143z" />
<glyph unicode="7" horiz-adv-x="909" d="M86 1241v193h737v-193q-352 -542 -352 -1241h-205q0 699 352 1241h-532z" />
<glyph unicode="8" horiz-adv-x="937" d="M90 369v51q0 97 53 177.5t150 125.5q-89 45 -135.5 121.5t-46.5 169.5v51q0 77 23 146.5t67 124t113 86.5t155 32q111 0 194 -55.5t123.5 -142.5t40.5 -191v-51q0 -92 -47 -169t-135 -122q97 -45 150 -125.5t53 -177.5v-51q0 -165 -101 -277t-278 -112t-278 112t-101 277 zM295 369q0 -82 46.5 -139.5t127.5 -57.5t127.5 57.5t46.5 139.5v51q0 85 -42.5 145t-131.5 60q-47 0 -82 -17.5t-54.5 -48t-28.5 -65t-9 -74.5v-51zM315 1014q0 -87 37 -144t117 -57q79 0 116.5 57t37.5 144v51q0 81 -42 139t-112 58q-72 0 -113 -58t-41 -139v-51z" />
<glyph unicode="9" horiz-adv-x="944" d="M102 369v61h205v-61q0 -82 44 -139.5t120 -57.5t120 57.5t44 139.5q0 73 12 225q-78 -62 -190 -62q-159 0 -257 114t-98 276v143q0 79 24.5 149t69.5 123.5t116.5 85t158.5 31.5t158.5 -31.5t116.5 -85t69.5 -123.5t24.5 -149v-696q0 -165 -97.5 -277t-271.5 -112 q-87 0 -158.5 31.5t-116.5 85t-69.5 123.5t-24.5 149zM307 922q0 -82 44 -139.5t120 -57.5t120 57.5t44 139.5v143q0 82 -44 139.5t-120 57.5t-120 -57.5t-44 -139.5v-143z" />
<glyph unicode=":" horiz-adv-x="526" d="M129 0v256h266v-256h-266zM129 614v256h266v-256h-266z" />
<glyph unicode=";" horiz-adv-x="526" d="M129 0v256h266v-256q0 -131 -65.5 -213t-184.5 -82h-16v139h16q50 0 72.5 44t22.5 112h-111zM129 614v256h266v-256h-266z" />
<glyph unicode="&#x3c;" horiz-adv-x="1021" d="M137 639v154l750 356v-205l-205 -96q-113 -53 -315 -129v-4q223 -84 315 -127l205 -96v-205z" />
<glyph unicode="=" horiz-adv-x="987" d="M197 461v184h594v-184h-594zM197 788v185h594v-185h-594z" />
<glyph unicode="&#x3e;" horiz-adv-x="1026" d="M137 287v205l205 96q92 43 315 127v4q-202 76 -315 129l-205 96v205l750 -356v-154z" />
<glyph unicode="?" horiz-adv-x="915" d="M94 1004v61q0 166 96.5 277.5t272.5 111.5q168 0 263 -109t95 -301q0 -36 -2.5 -64.5t-12 -57t-16 -46t-26 -47.5t-29.5 -43.5t-40 -53t-44 -58.5q-63 -85 -83.5 -136.5t-20.5 -127.5h-176q0 46 2.5 83t12.5 71.5t15.5 54.5t24.5 52.5t26 43.5t34.5 49.5t35.5 50.5 q55 78 74.5 125t19.5 109q0 101 -40.5 157t-114.5 56q-78 0 -120 -57t-42 -140v-61h-205zM354 0v197h205v-197h-205z" />
<glyph unicode="@" horiz-adv-x="1613" d="M141 328v368q0 338 170 512t496 174q325 0 495.5 -174.5t170.5 -511.5v-307q0 -148 -60.5 -238t-185.5 -90q-152 0 -207 127q-67 -127 -223 -127q-135 0 -218 88.5t-83 219.5v286q0 130 83.5 219t219.5 89q146 0 215 -117l28 96h88v-635q0 -33 21.5 -54.5t62.5 -21.5 q39 0 56.5 32.5t17.5 125.5v307q0 258 -122 387t-359 129t-359 -129t-122 -387v-368q0 -258 122 -387t359 -129v-170q-326 0 -496 174t-170 512zM670 369q0 -71 33.5 -114.5t107.5 -43.5q77 0 111 43.5t34 114.5v286q0 71 -34 114.5t-111 43.5q-74 0 -107.5 -43.5 t-33.5 -114.5v-286z" />
<glyph unicode="A" horiz-adv-x="1060" d="M45 0l369 1434h233l369 -1434h-207l-84 332h-389l-84 -332h-207zM383 524h293l-78 312q-19 76 -40.5 222.5t-25.5 172.5h-4q-5 -30 -25.5 -174.5t-39.5 -220.5z" />
<glyph unicode="B" horiz-adv-x="1007" d="M137 0v1434h348q92 0 166.5 -31.5t122.5 -85.5t74 -124t26 -149v-30q0 -92 -42 -169t-119 -122q88 -45 135 -125.5t47 -177.5v-31q0 -79 -26 -149t-74 -123.5t-122.5 -85t-166.5 -31.5h-369zM342 193h164q96 0 140 55t44 141v31q0 88 -44 144.5t-140 56.5h-164v-428z M342 813h143q96 0 140.5 56.5t44.5 144.5v30q0 86 -44.5 141.5t-140.5 55.5h-143v-428z" />
<glyph unicode="C" horiz-adv-x="993" d="M121 369v696q0 107 43 193.5t133 141t213 54.5q92 0 166.5 -31.5t122.5 -85t74 -123.5t26 -149v-61h-205v61q0 82 -49 139.5t-135 57.5q-87 0 -135.5 -57t-48.5 -140v-696q0 -83 48.5 -140t135.5 -57q86 0 135 57.5t49 139.5v61h205v-61q0 -79 -26 -149t-74 -123.5 t-122.5 -85t-166.5 -31.5q-123 0 -213 54.5t-133 141t-43 193.5z" />
<glyph unicode="D" horiz-adv-x="1024" d="M137 0v1434h379q92 0 166.5 -31.5t122.5 -85.5t74 -124t26 -149v-655q0 -107 -43 -193.5t-133 -141t-213 -54.5h-379zM342 193h174q96 0 140 55t44 141v655q0 87 -43.5 142t-140.5 55h-174v-1048z" />
<glyph unicode="E" horiz-adv-x="901" d="M137 0v1434h676v-193h-471v-428h369v-192h-369v-428h471v-193h-676z" />
<glyph unicode="F" horiz-adv-x="884" d="M137 0v1434h676v-193h-471v-428h369v-192h-369v-621h-205z" />
<glyph unicode="G" d="M121 369v696q0 165 106 277t293 112q186 0 293 -112.5t107 -276.5v-61h-205v61q0 82 -52.5 139.5t-142.5 57.5q-91 0 -142.5 -57t-51.5 -140v-696q0 -83 51.5 -140t142.5 -57q90 0 142.5 57.5t52.5 139.5v252h-195v192h400v-813h-103l-22 129q-43 -70 -113.5 -109.5 t-161.5 -39.5q-187 0 -293 112t-106 277z" />
<glyph unicode="H" horiz-adv-x="1073" d="M137 0v1434h205v-621h389v621h205v-1434h-205v621h-389v-621h-205z" />
<glyph unicode="I" horiz-adv-x="481" d="M137 0v1434h205v-1434h-205z" />
<glyph unicode="J" horiz-adv-x="894" d="M37 358v74h205v-74q0 -78 44 -132t120 -54t119.5 54t43.5 132v1076h205v-1076q0 -103 -41.5 -188t-126.5 -137.5t-200 -52.5q-173 0 -271 109t-98 269z" />
<glyph unicode="K" horiz-adv-x="1017" d="M137 0v1434h205v-654l385 654h225l-368 -627l389 -807h-215l-299 616l-117 -165v-451h-205z" />
<glyph unicode="L" horiz-adv-x="843" d="M137 0v1434h205v-1241h471v-193h-676z" />
<glyph unicode="M" horiz-adv-x="1339" d="M137 0v1434h307l164 -635q11 -43 21 -91.5t21 -109t18 -92.5h4q6 30 16 92t19 110t20 91l168 635h307v-1434h-205v614q0 49 11 566h-4q-9 -38 -37 -173t-47 -208l-154 -598h-193l-153 598q-19 73 -47 208t-37 173h-4q10 -470 10 -566v-614h-205z" />
<glyph unicode="N" horiz-adv-x="1095" d="M137 0v1434h307l230 -799q17 -56 32.5 -118.5t33.5 -142.5t28 -120h4q-1 37 -10.5 245.5t-9.5 319.5v615h204v-1434h-307l-229 799q-17 56 -32.5 118.5t-33.5 142.5t-28 120h-4q1 -37 10.5 -246t9.5 -320v-614h-205z" />
<glyph unicode="O" d="M121 369v696q0 165 106 277t293 112q186 0 293 -112.5t107 -276.5v-696q0 -164 -107 -276.5t-293 -112.5q-187 0 -293 112t-106 277zM326 369q0 -83 51.5 -140t142.5 -57q90 0 142.5 57.5t52.5 139.5v696q0 82 -52.5 139.5t-142.5 57.5q-91 0 -142.5 -57t-51.5 -140v-696 z" />
<glyph unicode="P" horiz-adv-x="954" d="M137 0v1434h348q92 0 166.5 -31.5t122.5 -85.5t74 -124t26 -149v-153q0 -79 -26 -149t-74 -123.5t-122.5 -85t-166.5 -31.5h-143v-502h-205zM342 694h143q96 0 140.5 55.5t44.5 141.5v153q0 86 -44.5 141.5t-140.5 55.5h-143v-547z" />
<glyph unicode="Q" d="M121 369v696q0 165 106 277t293 112q186 0 293 -112.5t107 -276.5v-696q0 -142 -81.5 -248t-226.5 -133q2 -80 41 -131.5t127 -51.5h76v-174h-76q-172 0 -265.5 100t-96.5 259q-142 30 -219.5 134.5t-77.5 244.5zM326 369q0 -83 51.5 -140t142.5 -57q90 0 142.5 57.5 t52.5 139.5v696q0 82 -52.5 139.5t-142.5 57.5q-91 0 -142.5 -57t-51.5 -140v-696z" />
<glyph unicode="R" horiz-adv-x="995" d="M137 0v1434h359q92 0 166.5 -31.5t122.5 -85.5t74 -124t26 -149v-153q0 -113 -51 -205t-146 -141l217 -545h-215l-207 502h-141v-502h-205zM342 694h154q96 0 140 55.5t44 141.5v153q0 86 -44 141.5t-140 55.5h-154v-547z" />
<glyph unicode="S" horiz-adv-x="964" d="M90 369v61h205v-61q0 -88 49.5 -142.5t138.5 -54.5q91 0 140 56.5t49 154.5q0 40 -7.5 71t-25 55t-35 40t-51 32t-58 25.5t-69.5 24.5t-78 29t-75 37.5t-71 53.5t-55 70.5t-39.5 96.5t-13.5 124q0 186 101 299t284 113q185 0 289 -112.5t104 -276.5v-61h-204v61 q0 88 -49.5 142.5t-137.5 54.5q-87 0 -134.5 -56.5t-47.5 -152.5q0 -36 7.5 -66t18 -51.5t31 -40.5t35.5 -30t43.5 -24t43.5 -18t46 -16q52 -17 88.5 -32t81 -39t74.5 -54t56.5 -70t39.5 -94.5t13 -120.5q0 -189 -102.5 -303t-287.5 -114q-125 0 -217 54.5t-136 141.5 t-44 193z" />
<glyph unicode="T" horiz-adv-x="851" d="M47 1241v193h758v-193h-277v-1241h-204v1241h-277z" />
<glyph unicode="U" d="M121 369v1065h205v-1065q0 -83 51.5 -140t142.5 -57q90 0 142.5 57.5t52.5 139.5v1065h205v-1065q0 -164 -107 -276.5t-293 -112.5q-187 0 -293 112t-106 277z" />
<glyph unicode="V" horiz-adv-x="1064" d="M47 1434h207l211 -836q19 -76 39.5 -220.5t25.5 -174.5h5q5 30 25.5 174.5t39.5 220.5l211 836h207l-369 -1434h-233z" />
<glyph unicode="W" horiz-adv-x="1607" d="M47 1434h207l170 -836l45 -395h4l45 395l170 836h234l170 -836l45 -395h4l45 395l170 836h207l-308 -1434h-233l-170 836l-45 395h-4l-45 -395l-170 -836h-234z" />
<glyph unicode="X" horiz-adv-x="997" d="M47 0l348 737l-327 697h204l97 -205q42 -88 127 -316h4q78 207 129 316l96 205h205l-330 -697l350 -737h-205l-96 205q-67 144 -149 358h-4q-87 -226 -148 -358l-96 -205h-205z" />
<glyph unicode="Y" horiz-adv-x="997" d="M47 1434h205l164 -410q15 -35 28 -76.5t28 -91.5t24 -78h4q3 10 31.5 104t48.5 142l165 410h205l-350 -871v-563h-205v563z" />
<glyph unicode="Z" horiz-adv-x="847" d="M55 0v172l518 1069h-518v193h738v-172l-519 -1069h519v-193h-738z" />
<glyph unicode="[" horiz-adv-x="745" d="M137 -512v2048h471v-197h-266v-1654h266v-197h-471z" />
<glyph unicode="\" horiz-adv-x="1157" d="M137 1536h205l678 -1843h-205z" />
<glyph unicode="]" horiz-adv-x="745" d="M137 -315h266v1654h-266v197h471v-2048h-471v197z" />
<glyph unicode="^" horiz-adv-x="956" d="M47 786l356 750h154l352 -750h-204l-97 205q-42 88 -127 316h-4q-78 -207 -129 -316l-96 -205h-205z" />
<glyph unicode="_" horiz-adv-x="1036" d="M-4 -225h1044v-133h-1044v133z" />
<glyph unicode="`" horiz-adv-x="503" d="M47 1434h225l185 -277h-164z" />
<glyph unicode="a" horiz-adv-x="925" d="M88 285q0 254 348 305l174 26v80q0 70 -39.5 117t-109.5 47q-69 0 -108.5 -47.5t-39.5 -116.5h-194q0 148 90.5 248t251.5 100q162 0 253 -100t91 -248v-696h-92l-54 111q-70 -131 -247 -131q-145 0 -234.5 85.5t-89.5 219.5zM283 279q0 -51 38 -83t109 -32 q81 0 130.5 40.5t49.5 102.5v129l-145 -22q-182 -28 -182 -135z" />
<glyph unicode="b" horiz-adv-x="976" d="M129 0v1505l195 31v-307q0 -99 -19 -262q84 77 209 77q158 0 255 -110t97 -268v-308q0 -104 -40.5 -188t-125.5 -137t-202 -53q-149 0 -228 122l-49 -102h-92zM324 358q0 -83 45.5 -138.5t128.5 -55.5t128.5 55.5t45.5 138.5v308q0 83 -45.5 138.5t-128.5 55.5 t-128.5 -55.5t-45.5 -138.5v-308z" />
<glyph unicode="c" horiz-adv-x="909" d="M113 369v286q0 166 94.5 277.5t267.5 111.5q164 0 259 -100.5t95 -247.5h-194q0 70 -43 117t-117 47q-81 0 -124.5 -58.5t-43.5 -146.5v-286q0 -88 43.5 -146.5t124.5 -58.5q74 0 117 47t43 117h194q0 -147 -95 -247.5t-259 -100.5q-173 0 -267.5 111.5t-94.5 277.5z" />
<glyph unicode="d" horiz-adv-x="978" d="M113 348v328q0 153 97.5 260.5t256.5 107.5q127 0 205 -75q-17 183 -17 260v276l195 31v-1536h-92l-47 98q-81 -118 -244 -118q-160 0 -257 107t-97 261zM307 358q0 -83 45.5 -138.5t128.5 -55.5t128.5 55.5t45.5 138.5v308q0 83 -45.5 138.5t-128.5 55.5t-128.5 -55.5 t-45.5 -138.5v-308z" />
<glyph unicode="e" horiz-adv-x="933" d="M113 369v286q0 166 94.5 277.5t267.5 111.5q164 0 259 -100.5t95 -247.5v-258h-522v-69q0 -88 43.5 -146.5t124.5 -58.5q74 0 117 47t43 117h194q0 -147 -95 -247.5t-259 -100.5q-173 0 -267.5 111.5t-94.5 277.5zM307 614h328v82q0 70 -43 117t-117 47 q-81 0 -124.5 -58.5t-43.5 -146.5v-41z" />
<glyph unicode="f" horiz-adv-x="704" d="M31 838v176h164v123q0 164 93.5 266t268.5 102h76v-184h-76q-47 0 -81 -15t-52.5 -42t-26.5 -58t-8 -69v-123h285v-176h-285v-838h-194v838h-164z" />
<glyph unicode="g" horiz-adv-x="966" d="M88 -184q0 138 123 252q-74 74 -74 192q0 100 56 166q-84 104 -84 250q0 157 97 262.5t271 105.5q113 0 197 -49q80 34 80 158h174q0 -175 -152 -248q70 -98 70 -229q0 -157 -97.5 -263t-271.5 -106q-74 0 -133 21q-33 -21 -33 -66q0 -90 84 -98q10 -1 31 -3 q39 -4 60.5 -6t64 -8.5t69.5 -14t66 -21t64 -30t53.5 -41t45 -54t27.5 -69.5t11 -87q0 -154 -105 -258t-293 -104q-96 0 -173.5 29.5t-126.5 78.5t-75 111t-26 129zM283 -184q0 -67 54.5 -115.5t149.5 -48.5q97 0 151 50.5t54 123.5q0 19 -3.5 34.5t-12.5 28.5t-17 23 t-26.5 19t-30 15t-37.5 12.5t-40 9.5t-46.5 8t-48 7t-53.5 7h-4q-90 -98 -90 -174zM303 676q0 -79 45.5 -131.5t128.5 -52.5t128.5 52.5t45.5 131.5t-45.5 131.5t-128.5 52.5t-128.5 -52.5t-45.5 -131.5z" />
<glyph unicode="h" horiz-adv-x="966" d="M129 0v1505l195 31v-307q0 -93 -19 -260q78 75 199 75q102 0 181.5 -52.5t120 -138t40.5 -187.5v-666h-195v666q0 83 -43 138.5t-121 55.5t-120.5 -55.5t-42.5 -138.5v-666h-195z" />
<glyph unicode="i" horiz-adv-x="452" d="M129 0v1024h195v-1024h-195zM129 1208v185h195v-185h-195z" />
<glyph unicode="j" horiz-adv-x="505" d="M18 -338h58q106 0 106 154v1034h-164v174h359v-1208q0 -71 -16.5 -129t-51.5 -103.5t-94 -70.5t-139 -25h-58v174zM182 1249v185h195v-185h-195z" />
<glyph unicode="k" horiz-adv-x="915" d="M129 0v1505l195 31v-930l307 418h215l-332 -451l363 -573h-205l-271 428l-77 -96v-332h-195z" />
<glyph unicode="l" horiz-adv-x="452" d="M129 0v1505l195 31v-1536h-195z" />
<glyph unicode="m" horiz-adv-x="1409" d="M129 0v1024h92l45 -96q72 116 217 116q79 0 144 -36.5t108 -100.5q75 137 230 137q145 0 233 -110t88 -268v-666h-194v666q0 82 -38 138t-106 56q-65 0 -102.5 -51t-40.5 -129v-14v-666h-195v666q0 82 -37.5 138t-105.5 56t-105.5 -56t-37.5 -138v-666h-195z" />
<glyph unicode="n" horiz-adv-x="966" d="M129 0v1024h92l47 -100q79 120 236 120q102 0 181.5 -52.5t120 -138t40.5 -187.5v-666h-195v666q0 83 -43 138.5t-121 55.5t-120.5 -55.5t-42.5 -138.5v-666h-195z" />
<glyph unicode="o" horiz-adv-x="962" d="M113 358v308q0 104 40.5 188t125.5 137t202 53q88 0 159 -30.5t116.5 -82.5t69.5 -120t24 -145v-308q0 -77 -24 -145t-69.5 -120t-116.5 -82.5t-159 -30.5q-117 0 -202 53t-125.5 137t-40.5 188zM307 358q0 -83 45.5 -138.5t128.5 -55.5t128.5 55.5t45.5 138.5v308 q0 83 -45.5 138.5t-128.5 55.5t-128.5 -55.5t-45.5 -138.5v-308z" />
<glyph unicode="p" horiz-adv-x="976" d="M129 -512v1536h92l47 -100q83 120 246 120q158 0 255 -110t97 -268v-308q0 -104 -40.5 -188t-125.5 -137t-202 -53q-116 0 -193 77q19 -163 19 -262v-307h-195zM324 358q0 -83 45.5 -138.5t128.5 -55.5t128.5 55.5t45.5 138.5v308q0 83 -45.5 138.5t-128.5 55.5 t-128.5 -55.5t-45.5 -138.5v-308z" />
<glyph unicode="q" horiz-adv-x="978" d="M113 348v328q0 153 97.5 260.5t256.5 107.5q161 0 244 -120l47 100h92v-1536h-195v307q0 79 17 258q-79 -73 -205 -73q-160 0 -257 107t-97 261zM307 358q0 -83 45.5 -138.5t128.5 -55.5t128.5 55.5t45.5 138.5v308q0 83 -45.5 138.5t-128.5 55.5t-128.5 -55.5 t-45.5 -138.5v-308z" />
<glyph unicode="r" horiz-adv-x="600" d="M129 0v1024h92l49 -102q81 112 242 112h41v-188h-55q-91 0 -132.5 -47t-41.5 -123v-676h-195z" />
<glyph unicode="s" horiz-adv-x="888" d="M82 328h194q0 -74 44 -119t131 -45q75 0 118 33t43 94q0 55 -44 80.5t-169 60.5q-44 12 -67 19t-61.5 22t-60 28.5t-49 36.5t-41.5 48.5t-24 62t-10 80.5q0 144 94.5 229.5t257.5 85.5q91 0 162.5 -28t115 -77t65.5 -110.5t22 -132.5h-195q0 74 -43 119t-127 45 q-72 0 -114.5 -33t-42.5 -88q0 -52 44 -77.5t160 -57.5q57 -16 89 -27t75 -29.5t67 -38.5t47.5 -49.5t33.5 -69t10 -89.5q0 -152 -95.5 -236.5t-258.5 -84.5q-93 0 -165.5 28t-116.5 77t-66.5 110.5t-22.5 132.5z" />
<glyph unicode="t" horiz-adv-x="724" d="M31 838v145q107 0 156 49t49 156v43l133 18v-235h284v-176h-284v-469q0 -84 38.5 -137.5t129.5 -53.5h75v-178h-75q-175 0 -269 102.5t-94 266.5v469h-143z" />
<glyph unicode="u" horiz-adv-x="966" d="M121 358v666h194v-666q0 -83 43 -138.5t121 -55.5t121 55.5t43 138.5v666h195v-1024h-93l-47 100q-79 -120 -235 -120q-102 0 -181.5 52.5t-120 138t-40.5 187.5z" />
<glyph unicode="v" horiz-adv-x="880" d="M31 1024h198l123 -426q21 -73 52 -216.5t34 -158.5h4q3 15 34 158.5t52 216.5l123 426h199l-313 -1024h-193z" />
<glyph unicode="w" horiz-adv-x="1249" d="M39 1024h190l93 -426q12 -55 21 -117t18.5 -140t15.5 -118h4q6 40 15.5 118t18.5 140t21 117l92 426h193l92 -426q12 -55 21 -117t18.5 -140t15.5 -118h4q5 37 15 117.5t19.5 141.5t21.5 116l92 426h190l-243 -1024h-193l-92 426q-12 55 -21 117t-18.5 140t-15.5 118h-4 q-5 -37 -15 -117.5t-19.5 -141.5t-21.5 -116l-92 -426h-192z" />
<glyph unicode="x" horiz-adv-x="897" d="M31 0l313 539l-283 485h207l117 -205q12 -21 22 -44.5t24 -61t18 -47.5q6 14 27 69.5t38 83.5l117 205h207l-283 -487l311 -537h-204l-119 205q-16 28 -32 62t-34 77.5t-28 65.5q-9 -21 -28 -65.5t-34.5 -78t-32.5 -61.5l-116 -205h-207z" />
<glyph unicode="y" horiz-adv-x="880" d="M31 1024h205l135 -539l69 -364h9l67 364l129 539h205l-346 -1270q-10 -39 -21.5 -71t-35.5 -70t-55 -64t-81 -43.5t-112 -17.5h-45v164h10q42 0 71 11t46.5 34.5t26.5 46.5t18 61l24 103z" />
<glyph unicode="z" horiz-adv-x="804" d="M63 0v164l451 676h-451v184h676v-164l-450 -676h450v-184h-676z" />
<glyph unicode="{" horiz-adv-x="702" d="M90 637v172h10q96 0 140.5 57.5t44.5 147.5v194q0 149 75 238.5t236 89.5h16v-184h-16q-57 0 -82 -40.5t-25 -103.5v-194q0 -93 -41.5 -169.5t-119.5 -121.5q78 -45 119.5 -121.5t41.5 -169.5v-194q0 -63 25 -103.5t82 -40.5h16v-184h-16q-161 0 -236 89.5t-75 238.5v194 q0 90 -44.5 147.5t-140.5 57.5h-10z" />
<glyph unicode="|" horiz-adv-x="438" d="M137 -512v2048h164v-2048h-164z" />
<glyph unicode="}" horiz-adv-x="702" d="M90 -90v184h16q57 0 82 40.5t25 103.5v194q0 92 42 169t120 122q-78 45 -120 122t-42 169v194q0 63 -25 103.5t-82 40.5h-16v184h16q161 0 236.5 -89.5t75.5 -238.5v-194q0 -90 44 -147.5t140 -57.5h10v-172h-10q-96 0 -140 -57.5t-44 -147.5v-194q0 -149 -75.5 -238.5 t-236.5 -89.5h-16z" />
<glyph unicode="&#xa1;" horiz-adv-x="499" d="M137 -410l31 1024h164l30 -1024h-225zM147 827v197h205v-197h-205z" />
<glyph unicode="&#xa8;" horiz-adv-x="768" d="M133 1157v184h184v-184h-184zM451 1157v184h184v-184h-184z" />
<glyph unicode="&#xa9;" horiz-adv-x="1245" d="M121 471v492q0 100 33 188t94.5 156t158 107.5t216.5 39.5q157 0 272.5 -68.5t172 -178.5t56.5 -244v-492q0 -134 -56.5 -244t-172 -178.5t-272.5 -68.5q-120 0 -216.5 39.5t-158 107.5t-94.5 156t-33 188zM223 471q0 -168 106.5 -281.5t293.5 -113.5q186 0 292.5 113.5 t106.5 281.5v492q0 168 -106.5 281.5t-292.5 113.5q-187 0 -293.5 -113.5t-106.5 -281.5v-492zM346 596v229q0 134 73 223t208 89q126 0 199 -80t73 -199h-156q0 62 -28.5 100.5t-87.5 38.5q-125 0 -125 -172v-229q0 -172 125 -172q59 0 87.5 38.5t28.5 100.5h156 q0 -119 -73 -198.5t-199 -79.5q-135 0 -208 88.5t-73 222.5z" />
<glyph unicode="&#xad;" horiz-adv-x="653" d="M137 420v184h379v-184h-379z" />
<glyph unicode="&#xae;" horiz-adv-x="1245" d="M121 471v492q0 100 33 188t94.5 156t158 107.5t216.5 39.5q157 0 272.5 -68.5t172 -178.5t56.5 -244v-492q0 -134 -56.5 -244t-172 -178.5t-272.5 -68.5q-120 0 -216.5 39.5t-158 107.5t-94.5 156t-33 188zM223 471q0 -168 106.5 -281.5t293.5 -113.5q186 0 292.5 113.5 t106.5 281.5v492q0 168 -106.5 281.5t-292.5 113.5q-187 0 -293.5 -113.5t-106.5 -281.5v-492zM365 307v819h276q129 0 205 -70t76 -188q0 -193 -160 -247l180 -314h-162l-170 295h-90v-295h-155zM520 733h115q68 0 99.5 29t31.5 100q0 64 -28 94.5t-95 30.5h-123v-254z" />
<glyph unicode="&#xaf;" horiz-adv-x="718" d="M47 1188v123h625v-123h-625z" />
<glyph unicode="&#xb1;" horiz-adv-x="1175" d="M127 0v193h922v-193h-922zM127 725v193h358v364h205v-364h359v-193h-359v-365h-205v365h-358z" />
<glyph unicode="&#xb4;" horiz-adv-x="503" d="M47 1157l184 277h226l-246 -277h-164z" />
<glyph unicode="&#xb7;" horiz-adv-x="468" d="M137 420v184h195v-184h-195z" />
<glyph unicode="&#xb8;" horiz-adv-x="632" d="M133 -356q32 84 35 90q51 -27 123 -27q32 0 53 17t21 45q0 30 -20.5 45.5t-55.5 15.5q-17 0 -21 -2q-9 8 -27 19.5t-24 15.5l62 196q35 -2 100 -2l-47 -139q87 -10 127.5 -56t40.5 -100q0 -63 -47 -109t-140 -46q-110 0 -180 37z" />
<glyph unicode="&#xbf;" horiz-adv-x="915" d="M94 -20q0 36 2.5 64.5t12 57t16 46t26 47.5t29.5 43.5t40 53t44 58.5q64 86 84.5 137t20.5 127h176q0 -46 -3 -83.5t-12.5 -71.5t-15.5 -54.5t-24.5 -52t-26 -44t-34.5 -49.5t-36 -50q-55 -78 -74.5 -125t-19.5 -109q0 -101 41 -157t115 -56q78 0 119.5 56.5t41.5 140.5 v61h205v-61q0 -166 -96 -277.5t-272 -111.5q-169 0 -264 109t-95 301zM356 827v197h205v-197h-205z" />
<glyph unicode="&#xc0;" horiz-adv-x="1060" d="M45 0l369 1434h233l369 -1434h-207l-84 332h-389l-84 -332h-207zM244 1843h225l184 -276h-164zM383 524h293l-78 312q-19 76 -40.5 222.5t-25.5 172.5h-4q-5 -30 -25.5 -174.5t-39.5 -220.5z" />
<glyph unicode="&#xc1;" horiz-adv-x="1060" d="M45 0l369 1434h233l369 -1434h-207l-84 332h-389l-84 -332h-207zM383 524h293l-78 312q-19 76 -40.5 222.5t-25.5 172.5h-4q-5 -30 -25.5 -174.5t-39.5 -220.5zM408 1567l184 276h225l-246 -276h-163z" />
<glyph unicode="&#xc2;" horiz-adv-x="1060" d="M45 0l369 1434h233l369 -1434h-207l-84 332h-389l-84 -332h-207zM246 1567l223 276h123l221 -276h-147l-136 141l-137 -141h-147zM383 524h293l-78 312q-19 76 -40.5 222.5t-25.5 172.5h-4q-5 -30 -25.5 -174.5t-39.5 -220.5z" />
<glyph unicode="&#xc3;" horiz-adv-x="1060" d="M45 0l369 1434h233l369 -1434h-207l-84 332h-389l-84 -332h-207zM195 1657q120 117 208 117q48 0 125 -45q79 -43 125 -43q45 0 115 67l96 -94q-121 -115 -209 -115q-49 0 -125 43q-74 45 -124 45q-45 0 -115 -67zM383 524h293l-78 312q-19 76 -40.5 222.5t-25.5 172.5 h-4q-5 -30 -25.5 -174.5t-39.5 -220.5z" />
<glyph unicode="&#xc4;" horiz-adv-x="1060" d="M45 0l369 1434h233l369 -1434h-207l-84 332h-389l-84 -332h-207zM281 1567v184h184v-184h-184zM383 524h293l-78 312q-19 76 -40.5 222.5t-25.5 172.5h-4q-5 -30 -25.5 -174.5t-39.5 -220.5zM598 1567v184h184v-184h-184z" />
<glyph unicode="&#xc5;" horiz-adv-x="1060" d="M45 0l369 1434h233l369 -1434h-207l-84 332h-389l-84 -332h-207zM346 1659q0 77 54 130.5t130 53.5q77 0 131 -54t54 -130t-54 -130t-131 -54q-76 0 -130 53.5t-54 130.5zM383 524h293l-78 312q-19 76 -40.5 222.5t-25.5 172.5h-4q-5 -30 -25.5 -174.5t-39.5 -220.5z M449 1659q0 -34 23.5 -58t57.5 -24t58 24t24 58t-24 58t-58 24t-57.5 -24t-23.5 -58z" />
<glyph unicode="&#xc6;" horiz-adv-x="1280" d="M45 0l369 1434h784v-193h-369v-428h267v-192h-267v-428h369v-193h-573v332h-289l-84 -332h-207zM383 524h242v707h-97q-5 -30 -25.5 -174.5t-39.5 -220.5z" />
<glyph unicode="&#xc7;" horiz-adv-x="993" d="M121 369v696q0 107 43 193.5t133 141t213 54.5q92 0 166.5 -31.5t122.5 -85t74 -123.5t26 -149v-61h-205v61q0 82 -49 139.5t-135 57.5q-87 0 -135.5 -57t-48.5 -140v-696q0 -83 48.5 -140t135.5 -57q86 0 135 57.5t49 139.5v61h205v-61q0 -152 -90.5 -261t-249.5 -124 l-20 -66q87 -10 127.5 -56t40.5 -100q0 -63 -47 -109t-140 -46q-110 0 -180 37q33 84 35 90q51 -27 123 -27q32 0 52.5 17t20.5 45q0 30 -20 45.5t-55 15.5q-17 0 -21 -2q-9 8 -27 19.5t-24 15.5l37 119q-108 10 -186.5 66t-116 139t-37.5 182z" />
<glyph unicode="&#xc8;" horiz-adv-x="901" d="M137 0v1434h676v-193h-471v-428h369v-192h-369v-428h471v-193h-676zM164 1843h225l184 -276h-163z" />
<glyph unicode="&#xc9;" horiz-adv-x="901" d="M137 0v1434h676v-193h-471v-428h369v-192h-369v-428h471v-193h-676zM328 1567l184 276h225l-245 -276h-164z" />
<glyph unicode="&#xca;" horiz-adv-x="901" d="M137 0v1434h676v-193h-471v-428h369v-192h-369v-428h471v-193h-676zM166 1567l223 276h123l221 -276h-147l-135 141l-138 -141h-147z" />
<glyph unicode="&#xcb;" horiz-adv-x="901" d="M137 0v1434h676v-193h-471v-428h369v-192h-369v-428h471v-193h-676zM221 1567v184h185v-184h-185zM539 1567v184h184v-184h-184z" />
<glyph unicode="&#xcc;" horiz-adv-x="481" d="M-45 1843h225l185 -276h-164zM137 0v1434h205v-1434h-205z" />
<glyph unicode="&#xcd;" horiz-adv-x="481" d="M119 1567l184 276h225l-245 -276h-164zM137 0v1434h205v-1434h-205z" />
<glyph unicode="&#xce;" horiz-adv-x="481" d="M-43 1567l223 276h123l221 -276h-147l-135 141l-138 -141h-147zM137 0v1434h205v-1434h-205z" />
<glyph unicode="&#xcf;" horiz-adv-x="481" d="M-10 1567v184h184v-184h-184zM137 0v1434h205v-1434h-205zM307 1567v184h185v-184h-185z" />
<glyph unicode="&#xd0;" horiz-adv-x="1054" d="M41 621v192h127v621h379q92 0 166.5 -31.5t122.5 -85.5t74 -124t26 -149v-655q0 -107 -43 -193.5t-133 -141t-213 -54.5h-379v621h-127zM373 193h174q96 0 140 55t44 141v655q0 87 -43.5 142t-140.5 55h-174v-428h159v-192h-159v-428z" />
<glyph unicode="&#xd1;" horiz-adv-x="1095" d="M137 0v1434h307l230 -799q17 -56 32.5 -118.5t33.5 -142.5t28 -120h4q-1 37 -10.5 245.5t-9.5 319.5v615h204v-1434h-307l-229 799q-17 56 -32.5 118.5t-33.5 142.5t-28 120h-4q1 -37 10.5 -246t9.5 -320v-614h-205zM213 1657q120 117 209 117q48 0 125 -45 q79 -43 125 -43q44 0 114 67l97 -94q-121 -115 -209 -115q-49 0 -125 43q-74 45 -125 45q-45 0 -115 -67z" />
<glyph unicode="&#xd2;" d="M121 369v696q0 165 106 277t293 112q186 0 293 -112.5t107 -276.5v-696q0 -164 -107 -276.5t-293 -112.5q-187 0 -293 112t-106 277zM233 1843h226l184 -276h-164zM326 369q0 -83 51.5 -140t142.5 -57q90 0 142.5 57.5t52.5 139.5v696q0 82 -52.5 139.5t-142.5 57.5 q-91 0 -142.5 -57t-51.5 -140v-696z" />
<glyph unicode="&#xd3;" d="M121 369v696q0 165 106 277t293 112q186 0 293 -112.5t107 -276.5v-696q0 -164 -107 -276.5t-293 -112.5q-187 0 -293 112t-106 277zM326 369q0 -83 51.5 -140t142.5 -57q90 0 142.5 57.5t52.5 139.5v696q0 82 -52.5 139.5t-142.5 57.5q-91 0 -142.5 -57t-51.5 -140v-696 zM397 1567l185 276h225l-246 -276h-164z" />
<glyph unicode="&#xd4;" d="M121 369v696q0 165 106 277t293 112q186 0 293 -112.5t107 -276.5v-696q0 -164 -107 -276.5t-293 -112.5q-187 0 -293 112t-106 277zM236 1567l223 276h123l221 -276h-148l-135 141l-137 -141h-147zM326 369q0 -83 51.5 -140t142.5 -57q90 0 142.5 57.5t52.5 139.5v696 q0 82 -52.5 139.5t-142.5 57.5q-91 0 -142.5 -57t-51.5 -140v-696z" />
<glyph unicode="&#xd5;" d="M121 369v696q0 165 106 277t293 112q186 0 293 -112.5t107 -276.5v-696q0 -164 -107 -276.5t-293 -112.5q-187 0 -293 112t-106 277zM184 1657q120 117 209 117q48 0 125 -45q79 -43 125 -43q45 0 115 67l96 -94q-121 -115 -209 -115q-49 0 -125 43q-74 45 -125 45 q-44 0 -114 -67zM326 369q0 -83 51.5 -140t142.5 -57q90 0 142.5 57.5t52.5 139.5v696q0 82 -52.5 139.5t-142.5 57.5q-91 0 -142.5 -57t-51.5 -140v-696z" />
<glyph unicode="&#xd6;" d="M121 369v696q0 165 106 277t293 112q186 0 293 -112.5t107 -276.5v-696q0 -164 -107 -276.5t-293 -112.5q-187 0 -293 112t-106 277zM270 1567v184h185v-184h-185zM326 369q0 -83 51.5 -140t142.5 -57q90 0 142.5 57.5t52.5 139.5v696q0 82 -52.5 139.5t-142.5 57.5 q-91 0 -142.5 -57t-51.5 -140v-696zM588 1567v184h184v-184h-184z" />
<glyph unicode="&#xd7;" horiz-adv-x="888" d="M47 971l143 143l259 -258l253 254l136 -135l-254 -254l258 -258l-144 -144l-258 259l-254 -254l-135 135l254 254z" />
<glyph unicode="&#xd8;" d="M113 -2l71 145q-63 92 -63 226v696q0 165 106 277t293 112q168 0 275 -96l63 127l74 -47l-76 -152q64 -98 64 -221v-696q0 -164 -107 -276.5t-293 -112.5q-164 0 -274 92l-60 -121zM326 422l368 735q-23 48 -68 76.5t-106 28.5q-91 0 -142.5 -57t-51.5 -140v-643z M346 272q53 -100 174 -100q90 0 142.5 57.5t52.5 139.5v635z" />
<glyph unicode="&#xd9;" d="M121 369v1065h205v-1065q0 -83 51.5 -140t142.5 -57q90 0 142.5 57.5t52.5 139.5v1065h205v-1065q0 -164 -107 -276.5t-293 -112.5q-187 0 -293 112t-106 277zM233 1843h226l184 -276h-164z" />
<glyph unicode="&#xda;" d="M121 369v1065h205v-1065q0 -83 51.5 -140t142.5 -57q90 0 142.5 57.5t52.5 139.5v1065h205v-1065q0 -164 -107 -276.5t-293 -112.5q-187 0 -293 112t-106 277zM397 1567l185 276h225l-246 -276h-164z" />
<glyph unicode="&#xdb;" d="M121 369v1065h205v-1065q0 -83 51.5 -140t142.5 -57q90 0 142.5 57.5t52.5 139.5v1065h205v-1065q0 -164 -107 -276.5t-293 -112.5q-187 0 -293 112t-106 277zM236 1567l223 276h123l221 -276h-148l-135 141l-137 -141h-147z" />
<glyph unicode="&#xdc;" d="M121 369v1065h205v-1065q0 -83 51.5 -140t142.5 -57q90 0 142.5 57.5t52.5 139.5v1065h205v-1065q0 -164 -107 -276.5t-293 -112.5q-187 0 -293 112t-106 277zM270 1567v184h185v-184h-185zM588 1567v184h184v-184h-184z" />
<glyph unicode="&#xdd;" horiz-adv-x="997" d="M47 1434h205l164 -410q15 -35 28 -76.5t28 -91.5t24 -78h4q3 10 31.5 104t48.5 142l165 410h205l-350 -871v-563h-205v563zM375 1567l184 276h225l-245 -276h-164z" />
<glyph unicode="&#xde;" horiz-adv-x="954" d="M137 0v1434h205v-240h143q92 0 166.5 -31.5t122.5 -85t74 -123.5t26 -149v-174q0 -79 -26 -149t-74 -123.5t-122.5 -85t-166.5 -31.5h-143v-242h-205zM342 434h143q96 0 140.5 55.5t44.5 141.5v174q0 86 -44.5 141t-140.5 55h-143v-567z" />
<glyph unicode="&#xdf;" horiz-adv-x="980" d="M45 850v174h84v61q0 157 98 263t271 106q168 0 263 -106t95 -263v-10q0 -92 -42 -169t-120 -122q88 -45 135.5 -125.5t47.5 -177.5v-92q0 -79 -23.5 -149t-68 -123.5t-113.5 -85t-154 -31.5h-61v197h61q72 -3 113 53t41 139v92q0 88 -48.5 143.5t-156.5 55.5h-10v197h10 q96 0 140 55t44 143v10q0 75 -40.5 126t-112.5 51q-76 0 -120 -51.5t-44 -125.5v-1085h-205v850h-84z" />
<glyph unicode="&#xe0;" horiz-adv-x="925" d="M88 285q0 254 348 305l174 26v80q0 70 -39.5 117t-109.5 47q-69 0 -108.5 -47.5t-39.5 -116.5h-194q0 148 90.5 248t251.5 100q162 0 253 -100t91 -248v-696h-92l-54 111q-70 -131 -247 -131q-145 0 -234.5 85.5t-89.5 219.5zM176 1434h225l185 -277h-164zM283 279 q0 -51 38 -83t109 -32q81 0 130.5 40.5t49.5 102.5v129l-145 -22q-182 -28 -182 -135z" />
<glyph unicode="&#xe1;" horiz-adv-x="925" d="M88 285q0 254 348 305l174 26v80q0 70 -39.5 117t-109.5 47q-69 0 -108.5 -47.5t-39.5 -116.5h-194q0 148 90.5 248t251.5 100q162 0 253 -100t91 -248v-696h-92l-54 111q-70 -131 -247 -131q-145 0 -234.5 85.5t-89.5 219.5zM283 279q0 -51 38 -83t109 -32 q81 0 130.5 40.5t49.5 102.5v129l-145 -22q-182 -28 -182 -135zM340 1157l184 277h226l-246 -277h-164z" />
<glyph unicode="&#xe2;" horiz-adv-x="925" d="M88 285q0 254 348 305l174 26v80q0 70 -39.5 117t-109.5 47q-69 0 -108.5 -47.5t-39.5 -116.5h-194q0 148 90.5 248t251.5 100q162 0 253 -100t91 -248v-696h-92l-54 111q-70 -131 -247 -131q-145 0 -234.5 85.5t-89.5 219.5zM178 1157l223 277h123l221 -277h-147 l-135 141l-137 -141h-148zM283 279q0 -51 38 -83t109 -32q81 0 130.5 40.5t49.5 102.5v129l-145 -22q-182 -28 -182 -135z" />
<glyph unicode="&#xe3;" horiz-adv-x="925" d="M88 285q0 254 348 305l174 26v80q0 70 -39.5 117t-109.5 47q-69 0 -108.5 -47.5t-39.5 -116.5h-194q0 148 90.5 248t251.5 100q162 0 253 -100t91 -248v-696h-92l-54 111q-70 -131 -247 -131q-145 0 -234.5 85.5t-89.5 219.5zM127 1247q120 117 209 117q48 0 125 -45 q79 -43 125 -43q44 0 114 67l97 -94q-120 -114 -209 -114q-49 0 -125 43q-74 45 -125 45q-44 0 -115 -68zM283 279q0 -51 38 -83t109 -32q81 0 130.5 40.5t49.5 102.5v129l-145 -22q-182 -28 -182 -135z" />
<glyph unicode="&#xe4;" horiz-adv-x="925" d="M88 285q0 254 348 305l174 26v80q0 70 -39.5 117t-109.5 47q-69 0 -108.5 -47.5t-39.5 -116.5h-194q0 148 90.5 248t251.5 100q162 0 253 -100t91 -248v-696h-92l-54 111q-70 -131 -247 -131q-145 0 -234.5 85.5t-89.5 219.5zM213 1157v184h184v-184h-184zM283 279 q0 -51 38 -83t109 -32q81 0 130.5 40.5t49.5 102.5v129l-145 -22q-182 -28 -182 -135zM530 1157v184h185v-184h-185z" />
<glyph unicode="&#xe5;" horiz-adv-x="925" d="M88 285q0 254 348 305l174 26v80q0 70 -39.5 117t-109.5 47q-69 0 -108.5 -47.5t-39.5 -116.5h-194q0 148 90.5 248t251.5 100q162 0 253 -100t91 -248v-696h-92l-54 111q-70 -131 -247 -131q-145 0 -234.5 85.5t-89.5 219.5zM279 1249q0 77 54 131t130 54t130 -54 t54 -131t-53.5 -130.5t-130.5 -53.5t-130.5 53.5t-53.5 130.5zM283 279q0 -51 38 -83t109 -32q81 0 130.5 40.5t49.5 102.5v129l-145 -22q-182 -28 -182 -135zM381 1249q0 -34 24 -58t58 -24t58 24t24 58t-24 58t-58 24t-58 -24t-24 -58z" />
<glyph unicode="&#xe6;" horiz-adv-x="1431" d="M88 285q0 254 348 305l174 26v80q0 70 -39.5 117t-109.5 47q-69 0 -108.5 -47.5t-39.5 -116.5h-194q0 147 90.5 247.5t243.5 100.5q89 0 155.5 -38t104.5 -105q88 143 270 143q155 0 249.5 -101t94.5 -247v-258h-522v-69q0 -88 43.5 -146.5t124.5 -58.5q74 0 117 47 t43 117h194q0 -146 -94.5 -247t-249.5 -101q-191 0 -276 153q-78 -153 -295 -153q-145 0 -234.5 85.5t-89.5 219.5zM283 279q0 -51 38 -83t109 -32q81 0 130.5 40.5t49.5 102.5v129l-145 -22q-182 -28 -182 -135zM805 614h328v82q0 70 -43 117t-117 47q-81 0 -124.5 -58.5 t-43.5 -146.5v-41z" />
<glyph unicode="&#xe7;" horiz-adv-x="909" d="M113 369v286q0 166 94.5 277.5t267.5 111.5q164 0 259 -100.5t95 -247.5h-194q0 70 -43 117t-117 47q-81 0 -124.5 -58.5t-43.5 -146.5v-286q0 -88 43.5 -146.5t124.5 -58.5q74 0 117 47t43 117h194q0 -139 -85 -237.5t-234 -108.5l-21 -64q87 -10 127.5 -56t40.5 -100 q0 -63 -47 -109t-139 -46q-110 0 -180 37q32 84 35 90q51 -27 123 -27q32 0 52.5 17t20.5 45q0 30 -20.5 45.5t-55.5 15.5q-16 0 -20 -2q-9 8 -27 19.5t-24 15.5l37 121q-144 21 -221.5 128.5t-77.5 256.5z" />
<glyph unicode="&#xe8;" horiz-adv-x="933" d="M113 369v286q0 166 94.5 277.5t267.5 111.5q164 0 259 -100.5t95 -247.5v-258h-522v-69q0 -88 43.5 -146.5t124.5 -58.5q74 0 117 47t43 117h194q0 -147 -95 -247.5t-259 -100.5q-173 0 -267.5 111.5t-94.5 277.5zM180 1434h226l184 -277h-164zM307 614h328v82 q0 70 -43 117t-117 47q-81 0 -124.5 -58.5t-43.5 -146.5v-41z" />
<glyph unicode="&#xe9;" horiz-adv-x="933" d="M113 369v286q0 166 94.5 277.5t267.5 111.5q164 0 259 -100.5t95 -247.5v-258h-522v-69q0 -88 43.5 -146.5t124.5 -58.5q74 0 117 47t43 117h194q0 -147 -95 -247.5t-259 -100.5q-173 0 -267.5 111.5t-94.5 277.5zM307 614h328v82q0 70 -43 117t-117 47 q-81 0 -124.5 -58.5t-43.5 -146.5v-41zM344 1157l184 277h226l-246 -277h-164z" />
<glyph unicode="&#xea;" horiz-adv-x="933" d="M113 369v286q0 166 94.5 277.5t267.5 111.5q164 0 259 -100.5t95 -247.5v-258h-522v-69q0 -88 43.5 -146.5t124.5 -58.5q74 0 117 47t43 117h194q0 -147 -95 -247.5t-259 -100.5q-173 0 -267.5 111.5t-94.5 277.5zM182 1157l224 277h122l222 -277h-148l-135 141 l-137 -141h-148zM307 614h328v82q0 70 -43 117t-117 47q-81 0 -124.5 -58.5t-43.5 -146.5v-41z" />
<glyph unicode="&#xeb;" horiz-adv-x="933" d="M113 369v286q0 166 94.5 277.5t267.5 111.5q164 0 259 -100.5t95 -247.5v-258h-522v-69q0 -88 43.5 -146.5t124.5 -58.5q74 0 117 47t43 117h194q0 -147 -95 -247.5t-259 -100.5q-173 0 -267.5 111.5t-94.5 277.5zM217 1157v184h184v-184h-184zM307 614h328v82 q0 70 -43 117t-117 47q-81 0 -124.5 -58.5t-43.5 -146.5v-41zM535 1157v184h184v-184h-184z" />
<glyph unicode="&#xec;" horiz-adv-x="452" d="M-59 1434h225l184 -277h-164zM129 0v1024h195v-1024h-195z" />
<glyph unicode="&#xed;" horiz-adv-x="452" d="M113 1157l184 277h225l-246 -277h-163zM129 0v1024h195v-1024h-195z" />
<glyph unicode="&#xee;" horiz-adv-x="452" d="M-57 1157l223 277h123l221 -277h-148l-135 141l-137 -141h-147zM129 0v1024h195v-1024h-195z" />
<glyph unicode="&#xef;" horiz-adv-x="452" d="M-25 1157v184h185v-184h-185zM129 0v1024h195v-1024h-195zM293 1157v184h184v-184h-184z" />
<glyph unicode="&#xf0;" horiz-adv-x="962" d="M113 358v308q0 157 97.5 267.5t248.5 110.5q120 0 196 -79q0 78 -41 141t-153 129l-80 -129l-117 57l82 135l-182 99l82 139l184 -100l64 102l116 -57l-65 -107q44 -23 79 -44.5t80 -59.5t74.5 -79t50.5 -99.5t21 -124.5v-609q0 -77 -24 -145t-69.5 -120t-116.5 -82.5 t-159 -30.5q-117 0 -202 53t-125.5 137t-40.5 188zM307 358q0 -83 45.5 -138.5t128.5 -55.5t128.5 55.5t45.5 138.5v308q0 83 -45.5 138.5t-128.5 55.5t-128.5 -55.5t-45.5 -138.5v-308z" />
<glyph unicode="&#xf1;" horiz-adv-x="966" d="M129 0v1024h92l47 -100q79 120 236 120q102 0 181.5 -52.5t120 -138t40.5 -187.5v-666h-195v666q0 83 -43 138.5t-121 55.5t-120.5 -55.5t-42.5 -138.5v-666h-195zM147 1247q120 117 209 117q48 0 125 -45q79 -43 125 -43q45 0 115 67l96 -94q-120 -114 -209 -114 q-49 0 -125 43q-74 45 -125 45q-43 0 -114 -68z" />
<glyph unicode="&#xf2;" horiz-adv-x="962" d="M113 358v308q0 104 40.5 188t125.5 137t202 53q88 0 159 -30.5t116.5 -82.5t69.5 -120t24 -145v-308q0 -77 -24 -145t-69.5 -120t-116.5 -82.5t-159 -30.5q-117 0 -202 53t-125.5 137t-40.5 188zM195 1434h225l184 -277h-164zM307 358q0 -83 45.5 -138.5t128.5 -55.5 t128.5 55.5t45.5 138.5v308q0 83 -45.5 138.5t-128.5 55.5t-128.5 -55.5t-45.5 -138.5v-308z" />
<glyph unicode="&#xf3;" horiz-adv-x="962" d="M113 358v308q0 104 40.5 188t125.5 137t202 53q88 0 159 -30.5t116.5 -82.5t69.5 -120t24 -145v-308q0 -77 -24 -145t-69.5 -120t-116.5 -82.5t-159 -30.5q-117 0 -202 53t-125.5 137t-40.5 188zM307 358q0 -83 45.5 -138.5t128.5 -55.5t128.5 55.5t45.5 138.5v308 q0 83 -45.5 138.5t-128.5 55.5t-128.5 -55.5t-45.5 -138.5v-308zM358 1157l185 277h225l-246 -277h-164z" />
<glyph unicode="&#xf4;" horiz-adv-x="962" d="M113 358v308q0 104 40.5 188t125.5 137t202 53q88 0 159 -30.5t116.5 -82.5t69.5 -120t24 -145v-308q0 -77 -24 -145t-69.5 -120t-116.5 -82.5t-159 -30.5q-117 0 -202 53t-125.5 137t-40.5 188zM197 1157l223 277h123l221 -277h-148l-135 141l-137 -141h-147zM307 358 q0 -83 45.5 -138.5t128.5 -55.5t128.5 55.5t45.5 138.5v308q0 83 -45.5 138.5t-128.5 55.5t-128.5 -55.5t-45.5 -138.5v-308z" />
<glyph unicode="&#xf5;" horiz-adv-x="962" d="M113 358v308q0 104 40.5 188t125.5 137t202 53q88 0 159 -30.5t116.5 -82.5t69.5 -120t24 -145v-308q0 -77 -24 -145t-69.5 -120t-116.5 -82.5t-159 -30.5q-117 0 -202 53t-125.5 137t-40.5 188zM145 1247q120 117 209 117q48 0 125 -45q79 -43 125 -43q45 0 115 67 l96 -94q-120 -114 -209 -114q-49 0 -125 43q-74 45 -125 45q-43 0 -114 -68zM307 358q0 -83 45.5 -138.5t128.5 -55.5t128.5 55.5t45.5 138.5v308q0 83 -45.5 138.5t-128.5 55.5t-128.5 -55.5t-45.5 -138.5v-308z" />
<glyph unicode="&#xf6;" horiz-adv-x="962" d="M113 358v308q0 104 40.5 188t125.5 137t202 53q88 0 159 -30.5t116.5 -82.5t69.5 -120t24 -145v-308q0 -77 -24 -145t-69.5 -120t-116.5 -82.5t-159 -30.5q-117 0 -202 53t-125.5 137t-40.5 188zM231 1157v184h185v-184h-185zM307 358q0 -83 45.5 -138.5t128.5 -55.5 t128.5 55.5t45.5 138.5v308q0 83 -45.5 138.5t-128.5 55.5t-128.5 -55.5t-45.5 -138.5v-308zM549 1157v184h184v-184h-184z" />
<glyph unicode="&#xf8;" horiz-adv-x="962" d="M72 -2l98 141q-57 92 -57 219v308q0 104 40.5 188t125.5 137t202 53q153 0 254 -94l88 125l68 -47l-100 -143q59 -95 59 -219v-308q0 -77 -24 -145t-69.5 -120t-116.5 -82.5t-159 -30.5q-159 0 -256 94l-86 -123zM307 336l316 450q-48 74 -142 74q-83 0 -128.5 -55.5 t-45.5 -138.5v-308v-22zM340 238q48 -74 141 -74q83 0 128.5 55.5t45.5 138.5v308q0 16 -2 22z" />
<glyph unicode="&#xf9;" horiz-adv-x="966" d="M121 358v666h194v-666q0 -83 43 -138.5t121 -55.5t121 55.5t43 138.5v666h195v-1024h-93l-47 100q-79 -120 -235 -120q-102 0 -181.5 52.5t-120 138t-40.5 187.5zM197 1434h225l184 -277h-164z" />
<glyph unicode="&#xfa;" horiz-adv-x="966" d="M121 358v666h194v-666q0 -83 43 -138.5t121 -55.5t121 55.5t43 138.5v666h195v-1024h-93l-47 100q-79 -120 -235 -120q-102 0 -181.5 52.5t-120 138t-40.5 187.5zM360 1157l185 277h225l-246 -277h-164z" />
<glyph unicode="&#xfb;" horiz-adv-x="966" d="M121 358v666h194v-666q0 -83 43 -138.5t121 -55.5t121 55.5t43 138.5v666h195v-1024h-93l-47 100q-79 -120 -235 -120q-102 0 -181.5 52.5t-120 138t-40.5 187.5zM199 1157l223 277h123l221 -277h-148l-135 141l-137 -141h-147z" />
<glyph unicode="&#xfc;" horiz-adv-x="966" d="M121 358v666h194v-666q0 -83 43 -138.5t121 -55.5t121 55.5t43 138.5v666h195v-1024h-93l-47 100q-79 -120 -235 -120q-102 0 -181.5 52.5t-120 138t-40.5 187.5zM233 1157v184h185v-184h-185zM551 1157v184h184v-184h-184z" />
<glyph unicode="&#xfd;" horiz-adv-x="880" d="M31 1024h205l135 -539l69 -364h9l67 364l129 539h205l-346 -1270q-10 -39 -21.5 -71t-35.5 -70t-55 -64t-81 -43.5t-112 -17.5h-45v164h10q42 0 71 11t46.5 34.5t26.5 46.5t18 61l24 103zM317 1157l185 277h225l-246 -277h-164z" />
<glyph unicode="&#xfe;" horiz-adv-x="976" d="M129 -512v2017l195 31v-307q0 -99 -19 -262q84 77 209 77q158 0 255 -110t97 -268v-308q0 -158 -97 -268t-255 -110q-129 0 -209 77q19 -163 19 -262v-307h-195zM324 358q0 -83 45.5 -138.5t128.5 -55.5t128.5 55.5t45.5 138.5v308q0 83 -45.5 138.5t-128.5 55.5 t-128.5 -55.5t-45.5 -138.5v-308z" />
<glyph unicode="&#xff;" horiz-adv-x="880" d="M31 1024h205l135 -539l69 -364h9l67 364l129 539h205l-346 -1270q-10 -39 -21.5 -71t-35.5 -70t-55 -64t-81 -43.5t-112 -17.5h-45v164h10q42 0 71 11t46.5 34.5t26.5 46.5t18 61l24 103zM188 1157v184h185v-184h-185zM506 1157v184h184v-184h-184z" />
<glyph unicode="&#x152;" horiz-adv-x="1329" d="M121 369v696q0 165 100.5 277t278.5 112q100 0 174 -55v35h573v-193h-368v-428h266v-192h-266v-428h368v-193h-573v33q-75 -53 -174 -53q-177 0 -278 112t-101 277zM326 369q0 -83 46 -140t128 -57q77 0 123 51.5t51 128.5v713q0 82 -46.5 139.5t-127.5 57.5 t-127.5 -57.5t-46.5 -139.5v-696z" />
<glyph unicode="&#x153;" horiz-adv-x="1456" d="M113 328v368q0 146 94.5 247t249.5 101q189 0 274 -153q88 153 277 153q155 0 249.5 -101t94.5 -247v-258h-523v-69q0 -88 43.5 -146.5t124.5 -58.5q74 0 117 47t43 117h195q0 -146 -94.5 -247t-249.5 -101q-190 0 -277 151q-84 -151 -274 -151q-155 0 -249.5 101 t-94.5 247zM307 328q0 -70 43 -117t117 -47q81 0 124.5 58.5t43.5 146.5v286q0 88 -43.5 146.5t-124.5 58.5q-74 0 -117 -47t-43 -117v-368zM829 614h328v82q0 70 -43 117t-117 47q-81 0 -124.5 -58.5t-43.5 -146.5v-41z" />
<glyph unicode="&#x178;" horiz-adv-x="997" d="M47 1434h205l164 -410q15 -35 28 -76.5t28 -91.5t24 -78h4q3 10 31.5 104t48.5 142l165 410h205l-350 -871v-563h-205v563zM248 1567v184h184v-184h-184zM565 1567v184h185v-184h-185z" />
<glyph unicode="&#x2c6;" horiz-adv-x="792" d="M113 1157l223 277h123l221 -277h-148l-135 141l-137 -141h-147z" />
<glyph unicode="&#x2dc;" horiz-adv-x="894" d="M113 1247q120 117 209 117q47 0 124 -45q79 -43 125 -43q45 0 115 67l96 -94q-120 -114 -209 -114q-48 0 -124 43q-74 45 -125 45q-44 0 -115 -68z" />
<glyph unicode="&#x2000;" horiz-adv-x="921" />
<glyph unicode="&#x2001;" horiz-adv-x="1843" />
<glyph unicode="&#x2002;" horiz-adv-x="921" />
<glyph unicode="&#x2003;" horiz-adv-x="1843" />
<glyph unicode="&#x2004;" horiz-adv-x="614" />
<glyph unicode="&#x2005;" horiz-adv-x="460" />
<glyph unicode="&#x2006;" horiz-adv-x="307" />
<glyph unicode="&#x2007;" horiz-adv-x="307" />
<glyph unicode="&#x2008;" horiz-adv-x="230" />
<glyph unicode="&#x2009;" horiz-adv-x="368" />
<glyph unicode="&#x200a;" horiz-adv-x="102" />
<glyph unicode="&#x2010;" horiz-adv-x="653" d="M137 420v184h379v-184h-379z" />
<glyph unicode="&#x2011;" horiz-adv-x="653" d="M137 420v184h379v-184h-379z" />
<glyph unicode="&#x2012;" horiz-adv-x="653" d="M137 420v184h379v-184h-379z" />
<glyph unicode="&#x2013;" horiz-adv-x="960" d="M137 420v184h686v-184h-686z" />
<glyph unicode="&#x2014;" horiz-adv-x="1267" d="M137 420v184h993v-184h-993z" />
<glyph unicode="&#x2018;" horiz-adv-x="421" d="M104 991v205q0 105 52.5 171.5t148.5 66.5h12v-111h-12q-41 0 -60.5 -36t-19.5 -91h92v-205h-213z" />
<glyph unicode="&#x2019;" horiz-adv-x="421" d="M104 991v111h15q40 0 59 36t19 89h-93v207h213v-207q0 -105 -51.5 -170.5t-146.5 -65.5h-15z" />
<glyph unicode="&#x201a;" horiz-adv-x="421" d="M104 0v205h213v-205q0 -105 -51.5 -171.5t-146.5 -66.5h-15v111h15q40 0 59 36t19 91h-93z" />
<glyph unicode="&#x201c;" horiz-adv-x="749" d="M104 991v205q0 105 52 171.5t147 66.5h14v-111h-14q-40 0 -59 -36t-19 -91h92v-205h-213zM432 991v205q0 105 52 171.5t147 66.5h14v-111h-14q-40 0 -59 -36t-19 -91h92v-205h-213z" />
<glyph unicode="&#x201d;" horiz-adv-x="749" d="M104 991v111h15q40 0 59 36t19 91h-93v205h213v-205q0 -105 -51.5 -171.5t-146.5 -66.5h-15zM432 991v111h14q40 0 59 36t19 91h-92v205h213v-205q0 -105 -52 -171.5t-147 -66.5h-14z" />
<glyph unicode="&#x201e;" horiz-adv-x="749" d="M104 0v205h213v-205q0 -105 -51.5 -171.5t-146.5 -66.5h-15v111h15q40 0 59 36t19 91h-93zM432 0v205h213v-205q0 -105 -52 -171.5t-147 -66.5h-14v111h14q40 0 59 36t19 91h-92z" />
<glyph unicode="&#x2022;" horiz-adv-x="626" d="M117 676q0 83 56.5 139.5t139.5 56.5t140 -56.5t57 -139.5t-57 -140t-140 -57t-139.5 57t-56.5 140z" />
<glyph unicode="&#x202f;" horiz-adv-x="368" />
<glyph unicode="&#x205f;" horiz-adv-x="460" />
<glyph unicode="&#x20ac;" horiz-adv-x="1093" d="M80 543v90h164v168h-164v90h164v174q0 107 43 193.5t133 141t213 54.5q92 0 166.5 -31.5t122.5 -85t74 -123.5t26 -149v-61h-205v61q0 82 -49 139.5t-135 57.5q-87 0 -135.5 -57t-48.5 -140v-174h317v-90h-317v-168h317v-90h-317v-174q0 -83 48.5 -140t135.5 -57 q86 0 135 57.5t49 139.5v61h205v-61q0 -79 -26 -149t-74 -123.5t-122.5 -85t-166.5 -31.5q-123 0 -213 54.5t-133 141t-43 193.5v174h-164z" />
<glyph unicode="&#x2122;" horiz-adv-x="1071" d="M41 1337v97h379v-97h-137v-518h-103v518h-139zM502 819v615h153l52 -201q5 -22 10 -47t11 -54.5t9 -46.5h2q26 129 31 148l51 201h154v-615h-103v205q0 48 5 283h-3q-5 -22 -18 -88.5t-22 -102.5l-48 -182h-96l-47 182q-9 36 -23 104.5t-18 86.5h-2q4 -188 4 -283v-205 h-102z" />
<glyph unicode="&#x25fc;" horiz-adv-x="1024" d="M0 0v1024h1024v-1024h-1024z" />
</font>
</defs>
</svg>
