<?xml version="1.0" standalone="no"?>
<!DOCTYPE svg PUBLIC "-//W3C//DTD SVG 1.1//EN" "http://www.w3.org/Graphics/SVG/1.1/DTD/svg11.dtd" >
<svg xmlns="http://www.w3.org/2000/svg" xmlns:xlink="http://www.w3.org/1999/xlink" version="1.1">
<metadata></metadata>
<defs>
<font id="bond_4fregular" horiz-adv-x="1021" >
<font-face units-per-em="2048" ascent="1536" descent="-512" />
<missing-glyph horiz-adv-x="380" />
<glyph horiz-adv-x="0" />
<glyph horiz-adv-x="682" />
<glyph unicode=" "  horiz-adv-x="380" />
<glyph unicode="&#x09;" horiz-adv-x="380" />
<glyph unicode="&#xa0;" horiz-adv-x="380" />
<glyph unicode="!" horiz-adv-x="471" d="M137 1434h195l-31 -1024h-133zM147 0v197h175v-197h-175z" />
<glyph unicode="&#x22;" horiz-adv-x="733" d="M137 1434h189l-31 -410h-127zM408 1434h188l-31 -410h-127z" />
<glyph unicode="#" horiz-adv-x="1173" d="M76 401l20 138h201l39 272h-203l21 137h202l56 404h139l-57 -404h272l55 404h140l-58 -404h193l-21 -137h-192l-37 -272h192l-20 -138h-193l-55 -401h-139l57 401h-272l-56 -401h-139l58 401h-203zM436 539h271l38 272h-272z" />
<glyph unicode="$" horiz-adv-x="948" d="M98 410v20h174v-20q0 -86 38.5 -147t115.5 -75v457q-46 12 -80.5 24t-75 31.5t-69 46t-53.5 63t-37.5 87t-12.5 113.5q0 165 85.5 275.5t242.5 125.5v125h90v-125q159 -14 247.5 -124.5t88.5 -262.5v-20h-174v20q0 85 -40.5 146.5t-121.5 74.5v-457q62 -16 104 -30.5 t90 -42.5t76 -63.5t47 -92.5t19 -131q0 -171 -88 -283t-248 -125v-122h-90v125q-155 18 -241.5 127t-86.5 260zM272 1020q0 -95 40 -140t114 -67v430q-78 -14 -116 -75t-38 -148zM516 186q82 11 122 73t40 153q1 100 -42 145t-120 66v-437z" />
<glyph unicode="%" horiz-adv-x="1286" d="M115 1151v20q0 120 69 201.5t193 81.5t193 -81.5t69 -201.5v-20q0 -120 -70 -201.5t-192 -81.5t-192 81.5t-70 201.5zM158 0l805 1434h165l-804 -1434h-166zM258 1151q0 -68 30.5 -112t88.5 -44q57 0 88 44.5t31 111.5v20q0 67 -31 110.5t-88 43.5q-58 0 -88.5 -43 t-30.5 -111v-20zM647 262v21q0 120 69.5 201t192.5 81t192.5 -81t69.5 -201v-21q0 -120 -69 -201t-193 -81t-193 81t-69 201zM791 262q0 -67 30.5 -111.5t87.5 -44.5q58 0 88.5 44t30.5 112v21q0 68 -30.5 110.5t-88.5 42.5q-57 0 -87.5 -43t-30.5 -110v-21z" />
<glyph unicode="&#x26;" horiz-adv-x="1183" d="M123 365q0 73 18.5 134t55 109.5t72.5 82.5t89 73q-131 193 -131 373q0 141 75.5 229t219.5 88q143 0 219 -87.5t76 -225.5q0 -56 -14.5 -107t-35 -89t-56 -78.5t-65 -67t-73.5 -62.5l172 -284q97 260 252 260h39v-162h-10q-55 0 -77.5 -31t-55.5 -128q-5 -15 -8 -23 l-31 -90q58 -64 114.5 -90.5t98.5 -26.5h20v-162h-49q-131 0 -258 123q-45 -70 -112 -106.5t-168 -36.5q-94 0 -167.5 31t-118.5 84.5t-68 122t-23 147.5zM297 356q0 -39 9.5 -74.5t30 -67.5t58.5 -51.5t90 -19.5q126 0 189 113l-27 41l-176 297q-2 3 -10.5 17.5t-14.5 21.5 q-72 -65 -110.5 -130t-38.5 -147zM399 1126q0 -54 16.5 -108t31.5 -82t42 -72q74 59 115 124.5t41 152.5q0 149 -125 149q-68 0 -94.5 -42.5t-26.5 -121.5z" />
<glyph unicode="'" horiz-adv-x="462" d="M137 1434h189l-31 -410h-127z" />
<glyph unicode="(" horiz-adv-x="563" d="M123 76v1077q0 162 100.5 272.5t278.5 110.5v-164q-100 0 -151.5 -63t-51.5 -156v-1077q0 -93 51.5 -156t151.5 -63v-164q-178 0 -278.5 110.5t-100.5 272.5z" />
<glyph unicode=")" horiz-adv-x="563" d="M61 -143q100 0 151.5 63t51.5 156v1077q0 93 -51.5 156t-151.5 63v164q178 0 278.5 -110.5t100.5 -272.5v-1077q0 -162 -100.5 -272.5t-278.5 -110.5v164z" />
<glyph unicode="*" horiz-adv-x="886" d="M90 1133q5 17 21.5 61.5t21.5 62.5l242 -79v256h135v-256q15 5 113 36t129 43q5 -18 21.5 -62.5t21.5 -61.5l-246 -80l156 -205l-103 -82q-20 25 -82 108t-78 103l-159 -213l-103 84q43 58 152 205z" />
<glyph unicode="+" horiz-adv-x="1183" d="M131 635v164h373v379h174v-379h375v-164h-375v-379h-174v379h-373z" />
<glyph unicode="," horiz-adv-x="495" d="M133 0v217h227v-217q0 -114 -56 -185t-157 -71h-14v115h14q44 0 64 40t20 101h-98z" />
<glyph unicode="-" horiz-adv-x="661" d="M141 434v156h379v-156h-379z" />
<glyph unicode="." horiz-adv-x="495" d="M133 0v217h225v-217h-225z" />
<glyph unicode="/" horiz-adv-x="1136" d="M141 -307l678 1843h174l-678 -1843h-174z" />
<glyph unicode="0" horiz-adv-x="958" d="M121 362v709q0 105 40 190.5t123 139t195 53.5q166 0 261.5 -110.5t95.5 -272.5v-709q0 -104 -40 -189.5t-122.5 -139t-194.5 -53.5t-195 53.5t-123 138.5t-40 190zM297 362q0 -93 48 -156t134 -63q84 0 132 63.5t48 155.5v709q0 92 -48 155.5t-132 63.5q-86 0 -134 -63 t-48 -156v-709z" />
<glyph unicode="1" horiz-adv-x="712" d="M78 1083v123q142 0 208 54.5t66 173.5h140v-1434h-175v1083h-239z" />
<glyph unicode="2" horiz-adv-x="929" d="M100 0q0 51 4.5 97.5t11.5 84.5t23.5 79t30 70.5t42 70t48 67t60 71t66.5 72.5t77 82q87 93 126.5 172t39.5 189q0 111 -43 173t-133 62t-134.5 -61t-44.5 -158v-61h-174v61q0 78 23 147t66.5 122t112 83.5t153.5 30.5q164 0 256 -107t92 -298q0 -79 -15.5 -144 t-51.5 -125t-68.5 -100.5t-92.5 -106.5q-135 -147 -174 -200q-74 -101 -100 -211h522v-162h-723z" />
<glyph unicode="3" horiz-adv-x="937" d="M106 362v62h175v-62q0 -92 54 -155.5t148 -63.5q80 0 126 63.5t46 155.5v52q0 44 -12 81.5t-37 69t-69.5 50t-104.5 18.5h-31v166h31q104 0 153.5 63.5t49.5 157.5v51q0 92 -46 155.5t-126 63.5q-86 0 -134 -63t-48 -156v-61h-175v61q0 162 95.5 272.5t261.5 110.5 q109 0 189 -53.5t118.5 -139t38.5 -190.5v-51q0 -99 -45.5 -178.5t-134.5 -120.5q99 -40 149.5 -122t50.5 -185v-52q0 -162 -92 -272t-254 -110q-177 0 -277 110t-100 272z" />
<glyph unicode="4" horiz-adv-x="983" d="M66 379v164l294 891h172l-292 -891h364v450l174 29v-479h148v-164h-148v-379h-174v379h-538z" />
<glyph unicode="5" horiz-adv-x="917" d="M94 362v62h174v-62q0 -93 51.5 -157t139.5 -64q87 0 135.5 64t48.5 157v156q0 98 -47 161.5t-137 63.5q-64 0 -111.5 -36.5t-56.5 -92.5h-172l33 820h634v-164h-479q-8 -295 -26 -441q75 72 192 72q103 0 182.5 -53.5t120.5 -140t41 -189.5v-156q0 -105 -39.5 -190 t-122 -138.5t-196.5 -53.5q-169 0 -267 109.5t-98 272.5z" />
<glyph unicode="6" horiz-adv-x="927" d="M106 362v709q0 78 23.5 146.5t67.5 121.5t112.5 84t153.5 31q166 0 261 -110.5t95 -272.5v-61h-174v61q0 92 -49 155.5t-133 63.5q-86 0 -134 -63t-48 -156q0 -85 -13 -250q74 80 207 80q160 0 252 -108t92 -269v-162q0 -162 -95 -272t-261 -110q-112 0 -194.5 53.5 t-122.5 139t-40 189.5zM281 362q0 -93 48 -156t134 -63q84 0 133 63.5t49 155.5v162q0 93 -47 153t-135 60q-91 0 -136.5 -62.5t-45.5 -162.5v-150z" />
<glyph unicode="7" horiz-adv-x="884" d="M88 1270v164h709v-164q-353 -551 -353 -1270h-176q0 712 350 1270h-530z" />
<glyph unicode="8" horiz-adv-x="921" d="M92 362v52q0 100 51.5 183t149.5 126q-88 43 -134 121.5t-46 175.5v51q0 102 38.5 187.5t119.5 140.5t190 55q161 0 254.5 -112.5t93.5 -270.5v-51q0 -97 -47 -176.5t-135 -122.5q98 -41 150 -124t52 -183v-52q0 -104 -41.5 -189.5t-126.5 -139t-200 -53.5 q-172 0 -270.5 110.5t-98.5 271.5zM268 362q0 -94 49 -156.5t144 -62.5q96 0 145 62t49 157v52q0 94 -47.5 159.5t-146.5 65.5q-53 0 -92 -19t-60 -52t-31 -71.5t-10 -82.5v-52zM289 1020q0 -96 41.5 -158.5t130.5 -62.5t131.5 63t42.5 158v51q0 91 -47 155t-127 64 q-81 0 -126.5 -63.5t-45.5 -155.5v-51z" />
<glyph unicode="9" horiz-adv-x="927" d="M106 362v62h175v-62q0 -93 48 -156t134 -63t134 63t48 156q0 121 10 248q-78 -78 -206 -78q-160 0 -251.5 108t-91.5 269v162q0 162 95.5 272.5t261.5 110.5t261 -110.5t95 -272.5v-709q0 -105 -39.5 -190t-122 -138.5t-194.5 -53.5t-194.5 53.5t-122.5 139t-40 189.5z M281 909q0 -93 46.5 -153t135.5 -60q90 0 136 63t46 163v149q0 93 -48 156t-134 63t-134 -63t-48 -156v-162z" />
<glyph unicode=":" horiz-adv-x="495" d="M133 0v217h225v-217h-225zM133 614v217h225v-217h-225z" />
<glyph unicode=";" horiz-adv-x="495" d="M133 0v217h227v-217q0 -114 -56 -185t-157 -71h-14v115h14q44 0 64 40t20 101h-98zM133 614v217h225v-217h-225z" />
<glyph unicode="&#x3c;" d="M137 651v129l750 357v-174l-205 -97q-101 -47 -365 -147v-4q275 -104 365 -146l205 -96v-174z" />
<glyph unicode="=" horiz-adv-x="995" d="M201 475v156h594v-156h-594zM201 803v155h594v-155h-594z" />
<glyph unicode="&#x3e;" horiz-adv-x="1026" d="M137 299v174l205 96q90 42 365 146v4q-264 100 -365 147l-205 97v174l750 -357v-129z" />
<glyph unicode="?" horiz-adv-x="907" d="M100 1010v61q0 163 93.5 273t263.5 110q163 0 254.5 -106t91.5 -295q0 -42 -6 -77.5t-12 -58.5t-26.5 -57.5t-31 -50t-45 -61t-49.5 -66.5q-64 -88 -83.5 -140.5t-19.5 -131.5h-153q0 90 15.5 153.5t37 101.5t71.5 109l15 21q48 70 65.5 98.5t32.5 72.5t15 93 q0 109 -46 170t-128 61q-87 0 -134 -63t-47 -156v-61h-174zM365 0v197h174v-197h-174z" />
<glyph unicode="@" horiz-adv-x="1613" d="M143 328v368q0 337 169.5 511.5t494.5 174.5q324 0 493.5 -174.5t169.5 -511.5v-307q0 -148 -59 -238t-184 -90q-150 0 -205 127q-67 -127 -223 -127q-133 0 -214 88.5t-81 219.5v286q0 130 81.5 219t215.5 89q147 0 215 -119l28 98h78v-635q0 -45 24 -72.5t75 -27.5 q52 0 72 41.5t20 140.5v307q0 270 -128.5 405.5t-377.5 135.5t-377.5 -135.5t-128.5 -405.5v-368q0 -270 128.5 -405.5t377.5 -135.5v-145q-325 0 -494.5 174.5t-169.5 511.5zM653 369q0 -78 37.5 -127t120.5 -49q85 0 122.5 49t37.5 127v286q0 78 -37.5 127t-122.5 49 q-83 0 -120.5 -49t-37.5 -127v-286z" />
<glyph unicode="A" horiz-adv-x="1044" d="M49 0l375 1434h194l377 -1434h-176l-90 346h-414l-90 -346h-176zM356 510h330l-96 375q-19 72 -40 212.5t-26 166.5h-4q-5 -29 -25.5 -168t-39.5 -211z" />
<glyph unicode="B" horiz-adv-x="991" d="M141 0v1434h336q118 0 205 -53.5t129.5 -139.5t42.5 -190v-31q0 -97 -47 -176t-133 -123q96 -40 148 -122.5t52 -184.5v-31q0 -78 -25 -146.5t-71 -121.5t-118.5 -84t-161.5 -31h-357zM315 164h183q101 0 151.5 62t50.5 157v31q0 96 -52 158.5t-156 62.5h-177v-471z M315 799h156q104 0 156.5 62.5t52.5 158.5v31q0 95 -51 157t-152 62h-162v-471z" />
<glyph unicode="C" horiz-adv-x="974" d="M123 362v709q0 162 100.5 272.5t278.5 110.5q118 0 205 -53.5t129.5 -139.5t42.5 -190v-61h-177v61q0 92 -52 155.5t-148 63.5q-100 0 -151.5 -63t-51.5 -156v-709q0 -93 51.5 -156t151.5 -63q96 0 148 63.5t52 155.5v62h177v-62q0 -104 -42.5 -189.5t-129.5 -139 t-205 -53.5q-178 0 -278.5 110t-100.5 272z" />
<glyph unicode="D" horiz-adv-x="1007" d="M141 0v1434h367q118 0 205 -54.5t129.5 -141.5t42.5 -194v-655q0 -165 -100 -277t-277 -112h-367zM315 164h193q101 0 152 63.5t51 161.5v655q0 99 -50 162.5t-153 63.5h-193v-1106z" />
<glyph unicode="E" horiz-adv-x="897" d="M141 0v1434h664v-164h-490v-471h387v-164h-387v-471h490v-164h-664z" />
<glyph unicode="F" horiz-adv-x="880" d="M141 0v1434h664v-164h-490v-471h387v-164h-387v-635h-174z" />
<glyph unicode="G" d="M123 362v709q0 78 25.5 146.5t73.5 121.5t122.5 84t167.5 31q180 0 283.5 -110.5t103.5 -272.5v-61h-176v61q0 93 -55 156t-158 63t-157 -63t-54 -156v-709q0 -93 54 -156t157 -63t158 63t55 156v273h-211v164h387v-799h-90l-29 127q-89 -147 -272 -147 q-179 0 -282 110.5t-103 271.5z" />
<glyph unicode="H" horiz-adv-x="1056" d="M141 0v1434h174v-635h426v635h174v-1434h-174v635h-426v-635h-174z" />
<glyph unicode="I" horiz-adv-x="456" d="M141 0v1434h174v-1434h-174z" />
<glyph unicode="J" horiz-adv-x="876" d="M41 352v74h174v-74q0 -88 48.5 -148.5t133.5 -60.5q84 0 133.5 61t49.5 148v1082h174v-1082q0 -157 -96 -264.5t-261 -107.5q-166 0 -261 107.5t-95 264.5z" />
<glyph unicode="K" horiz-adv-x="999" d="M141 0v1434h174v-717l422 717h193l-369 -627l391 -807h-184l-311 643l-142 -209v-434h-174z" />
<glyph unicode="L" horiz-adv-x="839" d="M141 0v1434h174v-1270h490v-164h-664z" />
<glyph unicode="M" horiz-adv-x="1298" d="M141 0v1434h265l172 -652q17 -61 39 -175.5t30 -151.5h4q8 37 20.5 104.5t23.5 121.5t24 101l174 652h264v-1434h-174v664q0 95 10 565h-4q-11 -45 -39.5 -177t-48.5 -204l-170 -647h-166l-170 647q-19 75 -50 217.5t-36 163.5h-4q10 -470 10 -565v-664h-174z" />
<glyph unicode="N" horiz-adv-x="1079" d="M141 0v1434h258l273 -848q71 -246 106 -381h4q-1 37 -10.5 245.5t-9.5 319.5v664h174v-1434h-258l-272 848q-76 243 -107 381h-4q1 -37 10 -245.5t10 -319.5v-664h-174z" />
<glyph unicode="O" d="M123 362v709q0 78 25.5 146.5t73.5 121.5t122.5 84t167.5 31q180 0 283.5 -110.5t103.5 -272.5v-709q0 -161 -103.5 -271.5t-283.5 -110.5q-93 0 -167.5 30.5t-122.5 83.5t-73.5 121.5t-25.5 146.5zM299 362q0 -93 56.5 -156t156.5 -63q97 0 154 63.5t57 155.5v709 q0 92 -57 155.5t-154 63.5q-100 0 -156.5 -63t-56.5 -156v-709z" />
<glyph unicode="P" horiz-adv-x="937" d="M141 0v1434h336q118 0 205 -54.5t129.5 -141.5t42.5 -194v-141q0 -106 -42.5 -193.5t-129.5 -141.5t-205 -54h-162v-514h-174zM315 678h162q101 0 152 63.5t51 161.5v141q0 98 -51 162t-152 64h-162v-592z" />
<glyph unicode="Q" d="M123 362v709q0 78 25.5 146.5t73.5 121.5t122.5 84t167.5 31q180 0 283.5 -110.5t103.5 -272.5v-709q0 -143 -82.5 -248t-228.5 -128q2 -88 44.5 -144.5t139.5 -56.5h76v-147h-76q-164 0 -254.5 97t-93.5 253q-143 25 -222 128.5t-79 245.5zM299 362q0 -93 56.5 -156 t156.5 -63q97 0 154 63.5t57 155.5v709q0 92 -57 155.5t-154 63.5q-100 0 -156.5 -63t-56.5 -156v-709z" />
<glyph unicode="R" horiz-adv-x="970" d="M139 0v1434h344q118 0 205 -54.5t129.5 -141.5t42.5 -194v-141q0 -116 -52.5 -211t-148.5 -141l215 -551h-182l-209 514h-170v-514h-174zM313 676h170q101 0 152 64.5t51 162.5v141q0 97 -51 161.5t-152 64.5h-170v-594z" />
<glyph unicode="S" horiz-adv-x="948" d="M92 362v62h174v-62q0 -98 55.5 -159.5t151.5 -61.5q99 0 153 65.5t54 172.5q0 60 -20 104.5t-54 71.5t-77.5 47t-92 37t-97 36t-92 48t-77.5 69t-54 104t-20 148q0 183 98 296.5t275 113.5q179 0 280 -111t101 -272v-61h-174v61q0 96 -55.5 157.5t-149.5 61.5 q-96 0 -148.5 -65t-52.5 -172q0 -24 9 -39q5 -53 24.5 -90.5t54.5 -61.5t64.5 -36.5t76.5 -28.5q9 -3 13 -4q59 -19 101 -37.5t91 -51.5t79 -72.5t50.5 -101.5t20.5 -139q0 -184 -99.5 -297.5t-277.5 -113.5q-181 0 -283 110t-102 272z" />
<glyph unicode="T" horiz-adv-x="841" d="M51 1270v164h740v-164h-283v-1270h-174v1270h-283z" />
<glyph unicode="U" d="M123 362v1072h176v-1072q0 -93 56.5 -156t156.5 -63q97 0 154 63.5t57 155.5v1072h176v-1072q0 -161 -103.5 -271.5t-283.5 -110.5q-93 0 -167.5 30.5t-122.5 83.5t-73.5 121.5t-25.5 146.5z" />
<glyph unicode="V" horiz-adv-x="1048" d="M51 1434h176l230 -885q19 -72 39.5 -211t25.5 -168h4q5 26 26 166.5t40 212.5l229 885h176l-376 -1434h-195z" />
<glyph unicode="W" horiz-adv-x="1562" d="M51 1434h174l178 -854q5 -22 26.5 -203t23.5 -193h4q2 11 24 192t27 204l176 854h195l176 -854q6 -23 28 -207t23 -189h4q2 11 24 192t27 204l176 854h174l-307 -1434h-192l-178 854q-5 22 -26.5 202.5t-23.5 192.5h-4q-2 -11 -24 -191.5t-27 -203.5l-176 -854h-195z" />
<glyph unicode="X" horiz-adv-x="980" d="M51 0l350 737l-329 697h174l114 -240q16 -35 39.5 -91.5t50.5 -124.5t37 -93h5q78 202 129 309l114 240h174l-334 -697l355 -737h-174l-115 242q-53 109 -149 352h-5q-138 -334 -147 -352l-115 -242h-174z" />
<glyph unicode="Y" horiz-adv-x="974" d="M51 1434h176l176 -445q15 -35 28 -76.5t28 -91.5t24 -78h4q3 10 31.5 104t48.5 142l181 445h176l-351 -871v-563h-174v563z" />
<glyph unicode="Z" horiz-adv-x="829" d="M57 0v145l527 1125h-527v164h715v-146l-526 -1124h526v-164h-715z" />
<glyph unicode="[" horiz-adv-x="729" d="M141 -512v2048h447v-166h-273v-1716h273v-166h-447z" />
<glyph unicode="\" horiz-adv-x="1136" d="M141 1536h176l678 -1843h-176z" />
<glyph unicode="]" horiz-adv-x="729" d="M141 -346h273v1716h-273v166h447v-2048h-447v166z" />
<glyph unicode="^" horiz-adv-x="956" d="M59 786l357 750h129l352 -750h-174l-96 205q-31 61 -146 359h-4q-112 -289 -147 -359l-97 -205h-174z" />
<glyph unicode="_" horiz-adv-x="1044" d="M0 -233h1044v-119h-1044v119z" />
<glyph unicode="`" horiz-adv-x="503" d="M59 1434h201l184 -277h-139z" />
<glyph unicode="a" horiz-adv-x="909" d="M92 279q0 253 336 305l193 30v95q0 77 -44.5 128.5t-123.5 51.5q-78 0 -122 -54t-44 -133h-164q0 146 87 244t243 98q155 0 243 -96t88 -239v-709h-79l-48 115q-71 -135 -249 -135q-143 0 -229.5 83.5t-86.5 215.5zM256 274q0 -62 42.5 -99.5t123.5 -37.5q92 0 145.5 48 t53.5 122v154l-168 -27q-197 -32 -197 -160z" />
<glyph unicode="b" horiz-adv-x="960" d="M131 0v1509q78 11 164 27v-307q0 -110 -19 -285q86 100 226 100q155 0 248.5 -107.5t93.5 -262.5v-326q0 -101 -39.5 -183.5t-121.5 -133.5t-194 -51q-156 0 -235 126l-43 -106h-80zM295 348q0 -92 49.5 -153.5t144.5 -61.5q94 0 142.5 61t48.5 154v326q0 93 -48.5 154 t-142.5 61q-95 0 -144.5 -61.5t-49.5 -153.5v-326z" />
<glyph unicode="c" horiz-adv-x="892" d="M115 356v312q0 161 92.5 268.5t259.5 107.5q158 0 250 -99t92 -243h-166q0 80 -47 133.5t-129 53.5q-89 0 -137.5 -63t-48.5 -158v-312q0 -95 48.5 -158t137.5 -63q82 0 129 53.5t47 133.5h166q0 -144 -92 -243t-250 -99q-167 0 -259.5 107.5t-92.5 268.5z" />
<glyph unicode="d" horiz-adv-x="960" d="M115 342v340q0 151 95 256.5t251 105.5q141 0 219 -98q-16 245 -16 283v280l165 27v-1536h-79l-43 104q-78 -124 -246 -124q-156 0 -251 105t-95 257zM281 350q0 -93 48 -154t142 -61q95 0 144 61t49 154v324q0 93 -49 154t-144 61q-94 0 -142 -61t-48 -154v-324z" />
<glyph unicode="e" horiz-adv-x="917" d="M115 356v312q0 161 91.5 268.5t258.5 107.5q158 0 250 -99t92 -243v-251h-528v-95q0 -96 48 -159.5t138 -63.5q20 0 37 10q66 9 103.5 59t37.5 120h164q0 -146 -91.5 -244t-250.5 -98q-167 0 -258.5 107.5t-91.5 268.5zM279 600h364v102q0 80 -47.5 133.5t-130.5 53.5 q-96 0 -141 -69t-45 -173v-47z" />
<glyph unicode="f" horiz-adv-x="700" d="M35 866v148h164v123q0 163 90.5 265.5t259.5 102.5h76v-153h-76q-100 0 -143.5 -60.5t-43.5 -154.5v-123h304v-148h-304v-866h-163v866h-164z" />
<glyph unicode="g" horiz-adv-x="946" d="M92 -186q0 145 121 260q-78 71 -78 186q0 104 62 166q-84 104 -84 252q0 101 39.5 182.5t122 132.5t194.5 51q106 0 193 -51q44 16 70 56.5t26 103.5h149q0 -84 -41.5 -147t-111.5 -95q71 -104 71 -233q0 -155 -94.5 -260t-261.5 -105q-83 0 -147 27q-37 -22 -37 -78 q0 -96 102 -108q139 -15 161 -19q264 -46 308 -227q10 -39 10 -84q0 -150 -102 -253t-283 -103q-93 0 -168.5 29t-122.5 77.5t-72.5 110t-25.5 129.5zM256 -188q0 -78 59.5 -133.5t163.5 -55.5q105 0 164 57t59 140q0 31 -10 55.5t-24 42t-42 31.5t-50 22t-63 15.5 t-67.5 10.5t-74.5 9h-9q-4 2 -10 2q-96 -100 -96 -196zM276 678q0 -91 50.5 -151t142.5 -60q90 0 141.5 60.5t51.5 150.5t-51.5 150.5t-141.5 60.5q-92 0 -142.5 -60t-50.5 -151z" />
<glyph unicode="h" horiz-adv-x="954" d="M133 0v1509l164 27v-307q0 -114 -18 -283q81 98 217 98q150 0 240.5 -107.5t90.5 -262.5v-674h-163v674q0 93 -46 154t-135 61q-92 0 -139 -61t-47 -154v-674h-164z" />
<glyph unicode="i" horiz-adv-x="430" d="M133 0v1024h164v-1024h-164zM133 1221v172h164v-172h-164z" />
<glyph unicode="j" horiz-adv-x="483" d="M14 -362h52q118 0 118 172v1064h-170v150h334v-1214q0 -95 -26.5 -164.5t-91 -113.5t-164.5 -44h-52v150zM184 1262v172h164v-172h-164z" />
<glyph unicode="k" horiz-adv-x="892" d="M133 0v1505l164 31v-971l338 459h184l-332 -449l363 -575h-174l-285 449l-94 -115v-334h-164z" />
<glyph unicode="l" horiz-adv-x="430" d="M133 0v1509l164 27v-1536h-164z" />
<glyph unicode="m" horiz-adv-x="1392" d="M131 0v1024h80q5 -16 12 -32.5t15.5 -37t13.5 -32.5q72 122 221 122q82 0 146 -39t104 -106q73 145 233 145q141 0 224.5 -105.5t83.5 -258.5v-680h-164v680q0 90 -39 145.5t-123 55.5q-77 0 -117.5 -55.5t-40.5 -145.5v-680h-164v680q0 91 -39 150t-118 59t-121.5 -60 t-42.5 -149v-680h-164z" />
<glyph unicode="n" horiz-adv-x="950" d="M133 0v1024h78l43 -106q79 126 244 126q148 0 237.5 -105.5t89.5 -258.5v-680h-163v680q0 91 -46 150t-135 59q-90 0 -137 -61t-47 -154v-674h-164z" />
<glyph unicode="o" horiz-adv-x="944" d="M115 346v332q0 155 95 260.5t263 105.5q112 0 194 -51t122 -133t40 -182v-332q0 -100 -40 -182t-122 -133t-194 -51q-168 0 -263 105.5t-95 260.5zM281 346q0 -90 50.5 -150.5t141.5 -60.5q90 0 140.5 61t50.5 150v332q0 89 -50.5 150t-140.5 61q-91 0 -141.5 -60.5 t-50.5 -150.5v-332z" />
<glyph unicode="p" horiz-adv-x="960" d="M133 -512v1536h78l43 -106q82 126 248 126q156 0 250 -107.5t94 -262.5v-324q0 -157 -94 -263.5t-260 -106.5q-135 0 -213 100q18 -169 18 -285v-307h-164zM297 350q0 -93 48.5 -154t143.5 -61t144 61t49 154v324q0 93 -49 154t-144 61t-143.5 -61t-48.5 -154v-324z" />
<glyph unicode="q" horiz-adv-x="962" d="M115 342v340q0 151 94 256.5t250 105.5q165 0 246 -126q9 20 24 56.5t21 49.5h77v-1536h-163v307q0 101 16 281q-80 -96 -221 -96q-156 0 -250 104.5t-94 257.5zM279 348q0 -92 49 -153.5t143 -61.5t143.5 62t49.5 153v326q0 93 -49 154t-144 61t-143.5 -61t-48.5 -154 v-326z" />
<glyph unicode="r" horiz-adv-x="583" d="M133 0v1024h78l45 -111q80 121 248 121h37v-157h-54q-98 0 -144 -56.5t-46 -144.5v-676h-164z" />
<glyph unicode="s" horiz-adv-x="868" d="M84 322h166q0 -83 48 -135t142 -52q82 0 130 41t48 113q0 27 -9.5 47.5t-23.5 34.5t-46 27.5t-60.5 22t-83.5 23.5q-33 9 -48.5 13.5t-47.5 15t-48 18t-42.5 22t-40.5 28.5t-31.5 34.5t-26.5 43t-15.5 52.5t-6.5 64q0 139 91.5 224t248.5 85q88 0 156.5 -27.5t110 -75.5 t62.5 -108.5t21 -130.5h-164q0 82 -47.5 134.5t-138.5 52.5q-81 0 -127.5 -40.5t-46.5 -105.5q0 -23 5.5 -41t22 -32.5t29 -24t44 -20.5t48.5 -16t60 -17q49 -13 79 -22.5t68 -24t60.5 -29t46.5 -36.5t36.5 -47t20.5 -59.5t8 -76.5q0 -149 -91.5 -233t-248.5 -84 q-89 0 -159 28t-112.5 76t-64.5 108.5t-22 129.5z" />
<glyph unicode="t" horiz-adv-x="712" d="M35 866v119q102 0 148 48.5t46 154.5v45l113 16v-235h303v-148h-303v-497q0 -45 9 -82t29.5 -68.5t58 -49t89.5 -17.5h76v-152h-76q-169 0 -259.5 102.5t-90.5 266.5v497h-143z" />
<glyph unicode="u" horiz-adv-x="950" d="M125 342v682h164v-682q0 -90 45.5 -148.5t134.5 -58.5q90 0 137 61t47 154v674h164v-1024h-78l-43 104q-80 -124 -243 -124q-148 0 -238 105t-90 257z" />
<glyph unicode="v" horiz-adv-x="866" d="M37 1024h166l141 -475q15 -53 29.5 -114t30.5 -134t26 -115h4q3 14 34 153t52 210l142 475h167l-315 -1024h-162z" />
<glyph unicode="w" horiz-adv-x="1230" d="M45 1024h162l110 -494q15 -66 32 -192.5t20 -144.5h4q4 29 13.5 104.5t18 129t19.5 103.5l111 494h161l111 -494q11 -50 19.5 -103.5t18 -129t13.5 -104.5h4q4 24 20 148t31 189l111 494h162l-244 -1024h-162l-112 494q-11 50 -19.5 104.5t-17 127t-13.5 105.5h-4 q-4 -24 -20 -148t-31 -189l-112 -494h-162z" />
<glyph unicode="x" horiz-adv-x="870" d="M31 0l315 539l-283 485h177l131 -227q12 -21 22.5 -45t23 -57t17.5 -46q7 14 28.5 67.5t37.5 80.5l133 227h176l-283 -487l314 -537h-176l-136 229q-16 28 -31.5 61t-34 75t-28.5 63q-10 -21 -28 -63t-34 -75t-32 -61l-131 -229h-178z" />
<glyph unicode="y" horiz-adv-x="872" d="M35 1024h172l151 -575q5 -19 38 -185.5t38 -185.5h6q2 10 19.5 100t34 172.5t20.5 98.5l145 575h170l-346 -1270q-7 -27 -14 -49.5t-19 -51.5t-27 -51t-37 -44t-48.5 -37t-62.5 -24t-78 -9h-39v141h14q40 0 69 13t46.5 40.5t26.5 51t20 63.5l24 99z" />
<glyph unicode="z" horiz-adv-x="788" d="M68 0v137l460 731h-460v156h651v-137l-463 -731h463v-156h-651z" />
<glyph unicode="{" horiz-adv-x="708" d="M92 647v150h10q96 0 140.5 57t44.5 147v207q0 149 75 238.5t236 89.5h16v-160h-16q-32 0 -56 -10.5t-38.5 -32.5t-23.5 -44t-13 -56t-5 -57.5t-1 -59.5v-67q0 -258 -170 -326q170 -72 170 -328v-67q0 -36 1 -59.5t5 -57.5t13 -56t23.5 -43t38.5 -31.5t56 -10.5h16v-160 h-16q-161 0 -236 89.5t-75 238.5v204q0 90 -44.5 147.5t-140.5 57.5h-10z" />
<glyph unicode="|" horiz-adv-x="421" d="M141 -512v2048h140v-2048h-140z" />
<glyph unicode="}" horiz-adv-x="708" d="M92 70h17q36 0 62 12.5t40.5 31.5t22.5 49t10 56.5t2 63.5v125q0 242 170 315q-170 68 -170 313v125q0 36 -2 62t-10 57t-22 50.5t-40 32.5t-63 13h-17v160h17q161 0 236 -89.5t75 -238.5v-207q0 -90 44 -147t140 -57h10v-150h-10q-96 0 -140 -57.5t-44 -147.5v-204 q0 -149 -75 -238.5t-236 -89.5h-17v160z" />
<glyph unicode="&#xa1;" horiz-adv-x="471" d="M137 -410l31 1024h133l31 -1024h-195zM147 827v197h175v-197h-175z" />
<glyph unicode="&#xa8;" horiz-adv-x="700" d="M115 1157v184h157v-184h-157zM430 1157v184h156v-184h-156z" />
<glyph unicode="&#xa9;" horiz-adv-x="1226" d="M123 465v504q0 98 32.5 185.5t93 154.5t155 106t210.5 39q115 0 209 -39t154.5 -106t93.5 -154.5t33 -185.5v-504q0 -98 -33 -185.5t-93.5 -154.5t-154.5 -106t-209 -39q-116 0 -210.5 39t-155 106t-93 154.5t-32.5 185.5zM221 465q0 -168 104.5 -281.5t288.5 -113.5 q183 0 287.5 113.5t104.5 281.5v504q0 168 -104.5 281.5t-287.5 113.5q-184 0 -288.5 -113.5t-104.5 -281.5v-504zM348 590v241q0 130 70.5 218t199.5 88q120 0 190.5 -79t70.5 -194h-134q0 69 -31.5 111.5t-95.5 42.5q-137 0 -137 -187v-241q0 -187 137 -187 q64 0 95.5 42.5t31.5 111.5h134q0 -115 -70.5 -193.5t-190.5 -78.5q-129 0 -199.5 87.5t-70.5 217.5z" />
<glyph unicode="&#xad;" horiz-adv-x="661" d="M141 434v156h379v-156h-379z" />
<glyph unicode="&#xae;" horiz-adv-x="1226" d="M123 465v504q0 99 32 186t92 154t154.5 106t210.5 39q115 0 209 -39t154.5 -106t93.5 -154.5t33 -185.5v-504q0 -99 -33 -186.5t-93.5 -154t-154.5 -105.5t-209 -39q-116 0 -210.5 39t-154.5 105.5t-92 154t-32 186.5zM219 465q0 -168 104.5 -281.5t288.5 -113.5 q183 0 288.5 114t105.5 281v504q0 166 -105.5 279.5t-288.5 113.5q-184 0 -288.5 -113t-104.5 -280v-504zM367 307v819h264q123 0 195.5 -70t72.5 -188q0 -198 -158 -252l179 -309h-138l-170 295h-114v-295h-131zM498 717h129q141 0 141 145q0 144 -135 144h-135v-289z" />
<glyph unicode="&#xaf;" horiz-adv-x="757" d="M68 1194v111h624v-111h-624z" />
<glyph unicode="&#xb1;" horiz-adv-x="1183" d="M131 0v164h922v-164h-922zM131 737v162h373v381h174v-381h375v-162h-375v-379h-174v379h-373z" />
<glyph unicode="&#xb4;" horiz-adv-x="503" d="M59 1157l185 277h200l-245 -277h-140z" />
<glyph unicode="&#xb7;" horiz-adv-x="446" d="M141 434v156h164v-156h-164z" />
<glyph unicode="&#xb8;" horiz-adv-x="616" d="M131 -352l31 80q53 -27 123 -27q33 0 55 18.5t22 49.5t-25 48t-61 17h-18q-8 7 -25 18t-20 13q13 47 59 186q58 -4 88 -4q-16 -51 -45 -133q86 -7 126 -52.5t40 -99.5q0 -59 -44.5 -104t-133.5 -45q-105 0 -172 35z" />
<glyph unicode="&#xbf;" horiz-adv-x="907" d="M102 -29q0 42 6 77.5t12 58.5t26.5 57.5t31 50t45 61t49.5 66.5q64 88 83.5 140.5t19.5 131.5h153q0 -90 -15.5 -153.5t-37 -101.5t-71.5 -109l-15 -21q-48 -70 -65.5 -98.5t-32.5 -72.5t-15 -93q0 -109 46 -170t129 -61q87 0 133.5 63t46.5 156v61h174v-61 q0 -163 -93 -273t-263 -110q-163 0 -255 106t-92 295zM365 827v197h176v-197h-176z" />
<glyph unicode="&#xc0;" horiz-adv-x="1044" d="M49 0l375 1434h194l377 -1434h-176l-90 346h-414l-90 -346h-176zM246 1843h200l185 -276h-139zM356 510h330l-96 375q-19 72 -40 212.5t-26 166.5h-4q-5 -29 -25.5 -168t-39.5 -211z" />
<glyph unicode="&#xc1;" horiz-adv-x="1044" d="M49 0l375 1434h194l377 -1434h-176l-90 346h-414l-90 -346h-176zM356 510h330l-96 375q-19 72 -40 212.5t-26 166.5h-4q-5 -29 -25.5 -168t-39.5 -211zM410 1567l184 276h201l-246 -276h-139z" />
<glyph unicode="&#xc2;" horiz-adv-x="1044" d="M49 0l375 1434h194l377 -1434h-176l-90 346h-414l-90 -346h-176zM244 1567l223 276h111l221 -276h-135q-12 13 -63.5 67.5t-78.5 85.5l-145 -153h-133zM356 510h330l-96 375q-19 72 -40 212.5t-26 166.5h-4q-5 -29 -25.5 -168t-39.5 -211z" />
<glyph unicode="&#xc3;" horiz-adv-x="1044" d="M49 0l375 1434h194l377 -1434h-176l-90 346h-414l-90 -346h-176zM195 1655q108 108 198 108q51 0 129 -47q83 -45 127 -45q46 0 117 68l82 -80q-113 -107 -197 -107q-51 0 -131 45q-88 48 -125 48q-47 0 -121 -68zM356 510h330l-96 375q-19 72 -40 212.5t-26 166.5h-4 q-5 -29 -25.5 -168t-39.5 -211z" />
<glyph unicode="&#xc4;" horiz-adv-x="1044" d="M49 0l375 1434h194l377 -1434h-176l-90 346h-414l-90 -346h-176zM287 1567v184h157v-184h-157zM356 510h330l-96 375q-19 72 -40 212.5t-26 166.5h-4q-5 -29 -25.5 -168t-39.5 -211zM602 1567v184h156v-184h-156z" />
<glyph unicode="&#xc5;" horiz-adv-x="1044" d="M49 0l375 1434h194l377 -1434h-176l-90 346h-414l-90 -346h-176zM336 1659q0 77 54 130.5t130 53.5q77 0 131 -54t54 -130t-54 -130t-131 -54q-76 0 -130 53.5t-54 130.5zM356 510h330l-96 375q-19 72 -40 212.5t-26 166.5h-4q-5 -29 -25.5 -168t-39.5 -211zM432 1659 q0 -37 25.5 -62.5t62.5 -25.5t62.5 25.5t25.5 62.5t-25.5 62.5t-62.5 25.5t-62.5 -25.5t-25.5 -62.5z" />
<glyph unicode="&#xc6;" horiz-adv-x="1273" d="M49 0l375 1434h762v-164h-387v-471h284v-164h-284v-471h387v-164h-561v346h-310l-90 -346h-176zM356 510h269v754h-105q-5 -29 -25.5 -168t-39.5 -211z" />
<glyph unicode="&#xc7;" horiz-adv-x="974" d="M123 362v709q0 162 100.5 272.5t278.5 110.5q118 0 205 -53.5t129.5 -139.5t42.5 -190v-61h-177v61q0 92 -52 155.5t-148 63.5q-100 0 -151.5 -63t-51.5 -156v-709q0 -93 51.5 -156t151.5 -63q96 0 148 63.5t52 155.5v62h177v-62q0 -154 -91.5 -262t-252.5 -118 q-2 -8 -23 -68q86 -7 126 -52.5t40 -99.5q0 -59 -44.5 -104t-133.5 -45q-105 0 -172 35l30 80q53 -27 123 -27q33 0 55.5 18.5t22.5 49.5t-25 48t-61 17h-18q-8 7 -25 18t-20 13q2 10 36 119q-154 17 -238.5 123t-84.5 255z" />
<glyph unicode="&#xc8;" horiz-adv-x="897" d="M141 0v1434h664v-164h-490v-471h387v-164h-387v-471h490v-164h-664zM172 1843h201l184 -276h-139z" />
<glyph unicode="&#xc9;" horiz-adv-x="897" d="M141 0v1434h664v-164h-490v-471h387v-164h-387v-471h490v-164h-664zM336 1567l184 276h201l-246 -276h-139z" />
<glyph unicode="&#xca;" horiz-adv-x="897" d="M141 0v1434h664v-164h-490v-471h387v-164h-387v-471h490v-164h-664zM168 1567l223 276h111l221 -276h-135q-12 13 -63.5 67.5t-78.5 85.5l-145 -153h-133z" />
<glyph unicode="&#xcb;" horiz-adv-x="897" d="M141 0v1434h664v-164h-490v-471h387v-164h-387v-471h490v-164h-664zM233 1567v184h158v-184h-158zM549 1567v184h156v-184h-156z" />
<glyph unicode="&#xcc;" horiz-adv-x="456" d="M-45 1843h201l184 -276h-139zM141 0v1434h174v-1434h-174z" />
<glyph unicode="&#xcd;" horiz-adv-x="456" d="M125 1567l184 276h201l-246 -276h-139zM141 0v1434h174v-1434h-174z" />
<glyph unicode="&#xce;" horiz-adv-x="456" d="M-47 1567l223 276h111l221 -276h-135q-12 13 -63.5 67.5t-78.5 85.5l-145 -153h-133zM141 0v1434h174v-1434h-174z" />
<glyph unicode="&#xcf;" horiz-adv-x="456" d="M-6 1567v184h158v-184h-158zM141 0v1434h174v-1434h-174zM309 1567v184h156v-184h-156z" />
<glyph unicode="&#xd0;" horiz-adv-x="1028" d="M33 637v160h129v637h366q118 0 205 -54.5t129.5 -141.5t42.5 -194v-655q0 -165 -100 -277t-277 -112h-366v637h-129zM336 164h192q103 0 153 63.5t50 161.5v655q0 99 -50 162.5t-153 63.5h-192v-473h174v-160h-174v-473z" />
<glyph unicode="&#xd1;" horiz-adv-x="1079" d="M141 0v1434h258l273 -848q71 -246 106 -381h4q-1 37 -10.5 245.5t-9.5 319.5v664h174v-1434h-258l-272 848q-76 243 -107 381h-4q1 -37 10.5 -245.5t9.5 -319.5v-664h-174zM211 1655q108 108 199 108q51 0 129 -47q83 -45 127 -45q45 0 116 68l82 -80 q-113 -107 -196 -107q-51 0 -131 45q-88 48 -125 48q-47 0 -121 -68z" />
<glyph unicode="&#xd2;" d="M123 362v709q0 78 25.5 146.5t73.5 121.5t122.5 84t167.5 31q180 0 283.5 -110.5t103.5 -272.5v-709q0 -161 -103.5 -271.5t-283.5 -110.5q-93 0 -167.5 30.5t-122.5 83.5t-73.5 121.5t-25.5 146.5zM236 1843h200l185 -276h-140zM299 362q0 -93 56.5 -156t156.5 -63 q97 0 154 63.5t57 155.5v709q0 92 -57 155.5t-154 63.5q-100 0 -156.5 -63t-56.5 -156v-709z" />
<glyph unicode="&#xd3;" d="M123 362v709q0 78 25.5 146.5t73.5 121.5t122.5 84t167.5 31q180 0 283.5 -110.5t103.5 -272.5v-709q0 -161 -103.5 -271.5t-283.5 -110.5q-93 0 -167.5 30.5t-122.5 83.5t-73.5 121.5t-25.5 146.5zM299 362q0 -93 56.5 -156t156.5 -63q97 0 154 63.5t57 155.5v709 q0 92 -57 155.5t-154 63.5q-100 0 -156.5 -63t-56.5 -156v-709zM399 1567l185 276h200l-245 -276h-140z" />
<glyph unicode="&#xd4;" d="M123 362v709q0 78 25.5 146.5t73.5 121.5t122.5 84t167.5 31q180 0 283.5 -110.5t103.5 -272.5v-709q0 -161 -103.5 -271.5t-283.5 -110.5q-93 0 -167.5 30.5t-122.5 83.5t-73.5 121.5t-25.5 146.5zM231 1567l224 276h110l221 -276h-135q-16 17 -44.5 47.5t-52 56 t-44.5 49.5l-145 -153h-134zM299 362q0 -93 56.5 -156t156.5 -63q97 0 154 63.5t57 155.5v709q0 92 -57 155.5t-154 63.5q-100 0 -156.5 -63t-56.5 -156v-709z" />
<glyph unicode="&#xd5;" d="M123 362v709q0 78 25.5 146.5t73.5 121.5t122.5 84t167.5 31q180 0 283.5 -110.5t103.5 -272.5v-709q0 -161 -103.5 -271.5t-283.5 -110.5q-93 0 -167.5 30.5t-122.5 83.5t-73.5 121.5t-25.5 146.5zM182 1655q108 108 199 108q51 0 129 -47q83 -45 127 -45q46 0 117 68 l82 -80q-113 -107 -197 -107q-51 0 -131 45q-88 48 -125 48q-47 0 -121 -68zM299 362q0 -93 56.5 -156t156.5 -63q97 0 154 63.5t57 155.5v709q0 92 -57 155.5t-154 63.5q-100 0 -156.5 -63t-56.5 -156v-709z" />
<glyph unicode="&#xd6;" d="M123 362v709q0 78 25.5 146.5t73.5 121.5t122.5 84t167.5 31q180 0 283.5 -110.5t103.5 -272.5v-709q0 -161 -103.5 -271.5t-283.5 -110.5q-93 0 -167.5 30.5t-122.5 83.5t-73.5 121.5t-25.5 146.5zM276 1567v184h158v-184h-158zM299 362q0 -93 56.5 -156t156.5 -63 q97 0 154 63.5t57 155.5v709q0 92 -57 155.5t-154 63.5q-100 0 -156.5 -63t-56.5 -156v-709zM592 1567v184h156v-184h-156z" />
<glyph unicode="&#xd7;" horiz-adv-x="983" d="M104 981l123 123l269 -268l264 264l114 -115l-264 -264l269 -268l-123 -123l-269 268l-264 -264l-114 115l264 264z" />
<glyph unicode="&#xd8;" d="M102 -2l76 154q-55 88 -55 210v709q0 162 103 272.5t284 110.5q164 0 272 -100l66 131l74 -47l-80 -160q55 -91 55 -207v-709q0 -105 -43.5 -190.5t-133 -138.5t-210.5 -53q-168 0 -272 96l-62 -125zM297 387l399 795q-26 49 -74 78.5t-112 29.5q-100 0 -156.5 -63 t-56.5 -156v-684zM324 248q59 -107 186 -107q99 0 156 63.5t57 157.5v576v102z" />
<glyph unicode="&#xd9;" d="M123 362v1072h176v-1072q0 -93 56.5 -156t156.5 -63q97 0 154 63.5t57 155.5v1072h176v-1072q0 -161 -103.5 -271.5t-283.5 -110.5q-93 0 -167.5 30.5t-122.5 83.5t-73.5 121.5t-25.5 146.5zM236 1843h200l185 -276h-140z" />
<glyph unicode="&#xda;" d="M123 362v1072h176v-1072q0 -93 56.5 -156t156.5 -63q97 0 154 63.5t57 155.5v1072h176v-1072q0 -161 -103.5 -271.5t-283.5 -110.5q-93 0 -167.5 30.5t-122.5 83.5t-73.5 121.5t-25.5 146.5zM399 1567l185 276h200l-245 -276h-140z" />
<glyph unicode="&#xdb;" d="M123 362v1072h176v-1072q0 -93 56.5 -156t156.5 -63q97 0 154 63.5t57 155.5v1072h176v-1072q0 -161 -103.5 -271.5t-283.5 -110.5q-93 0 -167.5 30.5t-122.5 83.5t-73.5 121.5t-25.5 146.5zM231 1567l224 276h110l221 -276h-135q-16 17 -44.5 47.5t-52 56t-44.5 49.5 l-145 -153h-134z" />
<glyph unicode="&#xdc;" d="M123 362v1072h176v-1072q0 -93 56.5 -156t156.5 -63q97 0 154 63.5t57 155.5v1072h176v-1072q0 -161 -103.5 -271.5t-283.5 -110.5q-93 0 -167.5 30.5t-122.5 83.5t-73.5 121.5t-25.5 146.5zM276 1567v184h158v-184h-158zM592 1567v184h156v-184h-156z" />
<glyph unicode="&#xdd;" horiz-adv-x="974" d="M51 1434h176l176 -445q15 -35 28 -76.5t28 -91.5t24 -78h4q3 10 31.5 104t48.5 142l181 445h176l-351 -871v-563h-174v563zM375 1567l184 276h201l-246 -276h-139z" />
<glyph unicode="&#xde;" horiz-adv-x="937" d="M141 0v1434h174v-246h162q118 0 205 -54t129.5 -141.5t42.5 -193.5v-162q0 -106 -42.5 -193.5t-129.5 -141.5t-205 -54h-162v-248h-174zM315 412h162q101 0 152 63.5t51 161.5v162q0 98 -51 161.5t-152 63.5h-162v-612z" />
<glyph unicode="&#xdf;" horiz-adv-x="964" d="M43 877v147h90v68q0 99 40 180t122 131.5t194 50.5q162 0 254.5 -104t92.5 -258v-11q0 -99 -46 -178.5t-135 -120.5q99 -40 150 -122t51 -185v-92q0 -105 -38.5 -190.5t-118.5 -139t-189 -53.5h-68v166h68q80 -1 126 62t46 155v92q0 44 -12 81.5t-37 69t-69.5 50 t-104.5 18.5h-17v166h17q104 0 153.5 63.5t49.5 157.5v11q0 83 -46.5 140.5t-126.5 57.5q-86 0 -134 -57t-48 -141v-1092h-174v877h-90z" />
<glyph unicode="&#xe0;" horiz-adv-x="909" d="M92 279q0 253 336 305l193 30v95q0 77 -44.5 128.5t-123.5 51.5q-78 0 -122 -54t-44 -133h-164q0 146 87 244t243 98q155 0 243 -96t88 -239v-709h-79l-48 115q-71 -135 -249 -135q-143 0 -229.5 83.5t-86.5 215.5zM178 1434h201l184 -277h-139zM256 274 q0 -62 42.5 -99.5t123.5 -37.5q92 0 145.5 48t53.5 122v154l-168 -27q-197 -32 -197 -160z" />
<glyph unicode="&#xe1;" horiz-adv-x="909" d="M92 279q0 253 336 305l193 30v95q0 77 -44.5 128.5t-123.5 51.5q-78 0 -122 -54t-44 -133h-164q0 146 87 244t243 98q155 0 243 -96t88 -239v-709h-79l-48 115q-71 -135 -249 -135q-143 0 -229.5 83.5t-86.5 215.5zM256 274q0 -62 42.5 -99.5t123.5 -37.5q92 0 145.5 48 t53.5 122v154l-168 -27q-197 -32 -197 -160zM342 1157l184 277h201l-246 -277h-139z" />
<glyph unicode="&#xe2;" horiz-adv-x="909" d="M92 279q0 253 336 305l193 30v95q0 77 -44.5 128.5t-123.5 51.5q-78 0 -122 -54t-44 -133h-164q0 146 87 244t243 98q155 0 243 -96t88 -239v-709h-79l-48 115q-71 -135 -249 -135q-143 0 -229.5 83.5t-86.5 215.5zM176 1157l223 277h111l221 -277h-135 q-118 128 -141 154l-146 -154h-133zM256 274q0 -62 42.5 -99.5t123.5 -37.5q92 0 145.5 48t53.5 122v154l-168 -27q-197 -32 -197 -160z" />
<glyph unicode="&#xe3;" horiz-adv-x="909" d="M92 279q0 253 336 305l193 30v95q0 77 -44.5 128.5t-123.5 51.5q-78 0 -122 -54t-44 -133h-164q0 146 87 244t243 98q155 0 243 -96t88 -239v-709h-79l-48 115q-71 -135 -249 -135q-143 0 -229.5 83.5t-86.5 215.5zM127 1245q109 109 199 109q51 0 129 -47 q83 -45 127 -45q46 0 116 67l82 -80q-112 -106 -196 -106q-51 0 -131 45q-86 47 -125 47q-47 0 -121 -68zM256 274q0 -62 42.5 -99.5t123.5 -37.5q92 0 145.5 48t53.5 122v154l-168 -27q-197 -32 -197 -160z" />
<glyph unicode="&#xe4;" horiz-adv-x="909" d="M92 279q0 253 336 305l193 30v95q0 77 -44.5 128.5t-123.5 51.5q-78 0 -122 -54t-44 -133h-164q0 146 87 244t243 98q155 0 243 -96t88 -239v-709h-79l-48 115q-71 -135 -249 -135q-143 0 -229.5 83.5t-86.5 215.5zM219 1157v184h158v-184h-158zM256 274 q0 -62 42.5 -99.5t123.5 -37.5q92 0 145.5 48t53.5 122v154l-168 -27q-197 -32 -197 -160zM535 1157v184h155v-184h-155z" />
<glyph unicode="&#xe5;" horiz-adv-x="909" d="M92 279q0 253 336 305l193 30v95q0 77 -44.5 128.5t-123.5 51.5q-78 0 -122 -54t-44 -133h-164q0 146 87 244t243 98q155 0 243 -96t88 -239v-709h-79l-48 115q-71 -135 -249 -135q-143 0 -229.5 83.5t-86.5 215.5zM256 274q0 -62 42.5 -99.5t123.5 -37.5q92 0 145.5 48 t53.5 122v154l-168 -27q-197 -32 -197 -160zM268 1249q0 77 54 131t131 54q76 0 130 -54t54 -131t-53.5 -130.5t-130.5 -53.5t-131 54t-54 130zM365 1249q0 -37 25.5 -62.5t62.5 -25.5t62.5 25.5t25.5 62.5t-25.5 62.5t-62.5 25.5t-62.5 -25.5t-25.5 -62.5z" />
<glyph unicode="&#xe6;" horiz-adv-x="1421" d="M90 279q0 53 13.5 95.5t36.5 72.5t59 54t74 39t88 27.5t96 20.5t103 17q13 2 20 3t18 3t20 3v95q0 76 -43.5 128t-121.5 52q-80 0 -124 -54t-44 -133h-164q0 144 87.5 243t235.5 99q92 0 159 -41.5t104 -113.5q38 72 107 113.5t163 41.5q152 0 243 -99.5t91 -242.5v-251 h-529v-95q0 -96 49 -159.5t138 -63.5q83 0 130.5 54.5t47.5 134.5h164q0 -145 -91 -243.5t-243 -98.5q-98 0 -168.5 43t-108.5 118q-75 -161 -292 -161q-145 0 -231.5 83t-86.5 216zM254 272q0 -61 43 -99t125 -38q90 0 143 49t53 123v152q-19 -3 -61 -9t-64 -9.5t-59.5 -11 t-58.5 -15.5t-47.5 -21.5t-40 -30t-23.5 -39.5t-10 -51zM782 600h365v102q0 80 -47.5 133.5t-130.5 53.5q-95 0 -141 -69.5t-46 -172.5v-47z" />
<glyph unicode="&#xe7;" horiz-adv-x="892" d="M115 356v312q0 161 92.5 268.5t259.5 107.5q158 0 250 -99t92 -243h-166q0 80 -47 133.5t-129 53.5q-89 0 -137.5 -63t-48.5 -158v-312q0 -95 48.5 -158t137.5 -63q82 0 129 53.5t47 133.5h166q0 -138 -83.5 -234.5t-229.5 -105.5q-2 -7 -23 -68q86 -7 126 -52.5 t40 -99.5q0 -59 -44.5 -104t-133.5 -45q-105 0 -172 35l30 80q53 -27 123 -27q33 0 55.5 18.5t22.5 49.5t-25 48t-61 17h-18q-8 7 -25 18t-20 13q6 24 21 69.5t16 49.5q-94 13 -161.5 67.5t-99.5 132.5t-32 172z" />
<glyph unicode="&#xe8;" horiz-adv-x="917" d="M115 356v312q0 161 91.5 268.5t258.5 107.5q158 0 250 -99t92 -243v-251h-528v-95q0 -96 48 -159.5t138 -63.5q20 0 37 10q66 9 103.5 59t37.5 120h164q0 -146 -91.5 -244t-250.5 -98q-167 0 -258.5 107.5t-91.5 268.5zM182 1434h201l184 -277h-139zM279 600h364v102 q0 80 -47.5 133.5t-130.5 53.5q-96 0 -141 -69t-45 -173v-47z" />
<glyph unicode="&#xe9;" horiz-adv-x="917" d="M115 356v312q0 161 91.5 268.5t258.5 107.5q158 0 250 -99t92 -243v-251h-528v-95q0 -96 48 -159.5t138 -63.5q20 0 37 10q66 9 103.5 59t37.5 120h164q0 -146 -91.5 -244t-250.5 -98q-167 0 -258.5 107.5t-91.5 268.5zM279 600h364v102q0 80 -47.5 133.5t-130.5 53.5 q-96 0 -141 -69t-45 -173v-47zM346 1157l184 277h201l-246 -277h-139z" />
<glyph unicode="&#xea;" horiz-adv-x="917" d="M115 356v312q0 161 91.5 268.5t258.5 107.5q158 0 250 -99t92 -243v-251h-528v-95q0 -96 48 -159.5t138 -63.5q20 0 37 10q66 9 103.5 59t37.5 120h164q0 -146 -91.5 -244t-250.5 -98q-167 0 -258.5 107.5t-91.5 268.5zM178 1157l223 277h111l221 -277h-135 q-117 128 -141 154l-146 -154h-133zM279 600h364v102q0 80 -47.5 133.5t-130.5 53.5q-96 0 -141 -69t-45 -173v-47z" />
<glyph unicode="&#xeb;" horiz-adv-x="917" d="M115 356v312q0 161 91.5 268.5t258.5 107.5q158 0 250 -99t92 -243v-251h-528v-95q0 -96 48 -159.5t138 -63.5q20 0 37 10q66 9 103.5 59t37.5 120h164q0 -146 -91.5 -244t-250.5 -98q-167 0 -258.5 107.5t-91.5 268.5zM223 1157v184h158v-184h-158zM279 600h364v102 q0 80 -47.5 133.5t-130.5 53.5q-96 0 -141 -69t-45 -173v-47zM539 1157v184h155v-184h-155z" />
<glyph unicode="&#xec;" horiz-adv-x="430" d="M-57 1434h200l185 -277h-140zM133 0v1024h164v-1024h-164z" />
<glyph unicode="&#xed;" horiz-adv-x="430" d="M111 1157l184 277h201l-246 -277h-139zM133 0v1024h164v-1024h-164z" />
<glyph unicode="&#xee;" horiz-adv-x="430" d="M-61 1157l223 277h110l222 -277h-136q-117 128 -141 154l-145 -154h-133zM133 0v1024h164v-1024h-164z" />
<glyph unicode="&#xef;" horiz-adv-x="430" d="M-20 1157v184h157v-184h-157zM133 0v1024h164v-1024h-164zM295 1157v184h156v-184h-156z" />
<glyph unicode="&#xf0;" horiz-adv-x="940" d="M115 369v309q0 152 94 259t244 107q135 0 213 -94q0 185 -203 305l-80 -131l-104 52q27 47 81 137l-188 102l70 121l190 -104q8 15 30.5 50.5t33.5 55.5q95 -49 104 -53q-10 -15 -31 -52.5t-34 -56.5q292 -155 292 -409v-621q0 -101 -39.5 -182.5t-122 -132.5t-194.5 -51 q-90 0 -160 31.5t-111.5 86.5t-63 123.5t-21.5 147.5zM279 346q0 -91 50.5 -152t141.5 -61t142 61t51 152v332q0 90 -51.5 150.5t-141.5 60.5q-91 0 -141.5 -60.5t-50.5 -150.5v-332z" />
<glyph unicode="&#xf1;" horiz-adv-x="950" d="M133 0v1024h78l43 -106q79 126 244 126q148 0 237.5 -105.5t89.5 -258.5v-680h-163v680q0 91 -46 150t-135 59q-90 0 -137 -61t-47 -154v-674h-164zM147 1245q109 109 199 109q51 0 129 -47q83 -45 127 -45q47 0 117 67l82 -80q-112 -106 -197 -106q-51 0 -131 45 q-86 47 -125 47q-47 0 -121 -68z" />
<glyph unicode="&#xf2;" horiz-adv-x="944" d="M115 346v332q0 155 95 260.5t263 105.5q112 0 194 -51t122 -133t40 -182v-332q0 -100 -40 -182t-122 -133t-194 -51q-168 0 -263 105.5t-95 260.5zM197 1434h200l185 -277h-140zM281 346q0 -90 50.5 -150.5t141.5 -60.5q90 0 140.5 61t50.5 150v332q0 89 -50.5 150 t-140.5 61q-91 0 -141.5 -60.5t-50.5 -150.5v-332z" />
<glyph unicode="&#xf3;" horiz-adv-x="944" d="M115 346v332q0 155 95 260.5t263 105.5q112 0 194 -51t122 -133t40 -182v-332q0 -100 -40 -182t-122 -133t-194 -51q-168 0 -263 105.5t-95 260.5zM281 346q0 -90 50.5 -150.5t141.5 -60.5q90 0 140.5 61t50.5 150v332q0 89 -50.5 150t-140.5 61q-91 0 -141.5 -60.5 t-50.5 -150.5v-332zM360 1157l185 277h200l-245 -277h-140z" />
<glyph unicode="&#xf4;" horiz-adv-x="944" d="M115 346v332q0 155 95 260.5t263 105.5q112 0 194 -51t122 -133t40 -182v-332q0 -100 -40 -182t-122 -133t-194 -51q-168 0 -263 105.5t-95 260.5zM193 1157l223 277h110l222 -277h-136q-117 128 -141 154l-145 -154h-133zM281 346q0 -90 50.5 -150.5t141.5 -60.5 q90 0 140.5 61t50.5 150v332q0 89 -50.5 150t-140.5 61q-91 0 -141.5 -60.5t-50.5 -150.5v-332z" />
<glyph unicode="&#xf5;" horiz-adv-x="944" d="M115 346v332q0 155 95 260.5t263 105.5q112 0 194 -51t122 -133t40 -182v-332q0 -100 -40 -182t-122 -133t-194 -51q-168 0 -263 105.5t-95 260.5zM143 1245q109 109 199 109q51 0 129 -47q83 -45 127 -45q47 0 117 67l82 -80q-112 -106 -197 -106q-51 0 -131 45 q-86 47 -125 47q-47 0 -121 -68zM281 346q0 -90 50.5 -150.5t141.5 -60.5q90 0 140.5 61t50.5 150v332q0 89 -50.5 150t-140.5 61q-91 0 -141.5 -60.5t-50.5 -150.5v-332z" />
<glyph unicode="&#xf6;" horiz-adv-x="944" d="M115 346v332q0 155 95 260.5t263 105.5q112 0 194 -51t122 -133t40 -182v-332q0 -100 -40 -182t-122 -133t-194 -51q-168 0 -263 105.5t-95 260.5zM238 1157v184h157v-184h-157zM281 346q0 -90 50.5 -150.5t141.5 -60.5q90 0 140.5 61t50.5 150v332q0 89 -50.5 150 t-140.5 61q-91 0 -141.5 -60.5t-50.5 -150.5v-332zM553 1157v184h156v-184h-156z" />
<glyph unicode="&#xf8;" horiz-adv-x="944" d="M63 -2l103 147q-51 86 -51 201v332q0 155 95 260.5t263 105.5q154 0 252 -98l90 129l68 -47l-107 -149q53 -89 53 -201v-332q0 -100 -40 -182t-122 -133t-194 -51q-158 0 -256 98l-88 -127zM281 311l348 496q-53 82 -156 82q-91 0 -141.5 -60.5t-50.5 -150.5v-332v-35z M315 217q50 -82 158 -82q90 0 140.5 61t50.5 150v332q0 25 -2 35z" />
<glyph unicode="&#xf9;" horiz-adv-x="950" d="M125 342v682h164v-682q0 -90 45.5 -148.5t134.5 -58.5q90 0 137 61t47 154v674h164v-1024h-78l-43 104q-80 -124 -243 -124q-148 0 -238 105t-90 257zM199 1434h200l185 -277h-140z" />
<glyph unicode="&#xfa;" horiz-adv-x="950" d="M125 342v682h164v-682q0 -90 45.5 -148.5t134.5 -58.5q90 0 137 61t47 154v674h164v-1024h-78l-43 104q-80 -124 -243 -124q-148 0 -238 105t-90 257zM362 1157l185 277h201l-246 -277h-140z" />
<glyph unicode="&#xfb;" horiz-adv-x="950" d="M125 342v682h164v-682q0 -90 45.5 -148.5t134.5 -58.5q90 0 137 61t47 154v674h164v-1024h-78l-43 104q-80 -124 -243 -124q-148 0 -238 105t-90 257zM197 1157l223 277h110l222 -277h-136q-117 128 -141 154l-145 -154h-133z" />
<glyph unicode="&#xfc;" horiz-adv-x="950" d="M125 342v682h164v-682q0 -90 45.5 -148.5t134.5 -58.5q90 0 137 61t47 154v674h164v-1024h-78l-43 104q-80 -124 -243 -124q-148 0 -238 105t-90 257zM240 1157v184h157v-184h-157zM555 1157v184h156v-184h-156z" />
<glyph unicode="&#xfd;" horiz-adv-x="872" d="M35 1024h172l151 -575q5 -19 38 -185.5t38 -185.5h6q2 10 19.5 100t34 172.5t20.5 98.5l145 575h170l-346 -1270q-7 -27 -14 -49.5t-19 -51.5t-27 -51t-37 -44t-48.5 -37t-62.5 -24t-78 -9h-39v141h14q40 0 69 13t46.5 40.5t26.5 51t20 63.5l24 99zM324 1157l184 277h201 l-246 -277h-139z" />
<glyph unicode="&#xfe;" horiz-adv-x="960" d="M133 -512v2021l164 27v-307q0 -116 -18 -285q80 100 223 100q156 0 250 -107.5t94 -262.5v-324q0 -155 -94 -262.5t-250 -107.5q-145 0 -223 100q18 -169 18 -285v-307h-164zM297 350q0 -93 48.5 -154t143.5 -61t144 61t49 154v324q0 93 -49 154t-144 61t-143.5 -61 t-48.5 -154v-324z" />
<glyph unicode="&#xff;" horiz-adv-x="872" d="M35 1024h172l151 -575q5 -19 38 -185.5t38 -185.5h6q2 10 19.5 100t34 172.5t20.5 98.5l145 575h170l-346 -1270q-7 -27 -14 -49.5t-19 -51.5t-27 -51t-37 -44t-48.5 -37t-62.5 -24t-78 -9h-39v141h14q40 0 69 13t46.5 40.5t26.5 51t20 63.5l24 99zM199 1157v184h157 v-184h-157zM514 1157v184h156v-184h-156z" />
<glyph unicode="&#x152;" horiz-adv-x="1331" d="M123 356v721q0 160 97.5 268.5t271.5 108.5q114 0 190 -76v56h563v-164h-387v-471h285v-164h-285v-471h387v-164h-563v53q-76 -73 -190 -73q-173 0 -271 108t-98 268zM299 356q0 -91 51 -152t142 -61q86 0 136.5 57.5t53.5 143.5v735q0 90 -50.5 150.5t-139.5 60.5 q-90 0 -141.5 -61.5t-51.5 -151.5v-721z" />
<glyph unicode="&#x153;" horiz-adv-x="1445" d="M115 322v380q0 143 91 242.5t243 99.5q98 0 168 -44t108 -121q83 165 276 165q152 0 243 -99.5t91 -242.5v-251h-528v-95q0 -96 48 -159.5t138 -63.5q83 0 130.5 54.5t47.5 134.5h164q0 -145 -91 -243.5t-243 -98.5q-195 0 -276 163q-38 -76 -108 -119.5t-168 -43.5 q-152 0 -243 98.5t-91 243.5zM279 322q0 -80 47.5 -134.5t130.5 -54.5q90 0 138 63.5t48 159.5v312q0 95 -48.5 158t-137.5 63q-83 0 -130.5 -53.5t-47.5 -133.5v-380zM807 600h364v102q0 80 -47.5 133.5t-130.5 53.5q-96 0 -141 -69t-45 -173v-47z" />
<glyph unicode="&#x178;" horiz-adv-x="974" d="M51 1434h176l176 -445q15 -35 28 -76.5t28 -91.5t24 -78h4q3 10 31.5 104t48.5 142l181 445h176l-351 -871v-563h-174v563zM250 1567v184h158v-184h-158zM565 1567v184h156v-184h-156z" />
<glyph unicode="&#x2c6;" horiz-adv-x="792" d="M119 1157l223 277h111l221 -277h-135q-16 17 -45 48t-52.5 56.5t-44.5 49.5l-145 -154h-133z" />
<glyph unicode="&#x2dc;" horiz-adv-x="878" d="M113 1245q109 109 198 109q51 0 129 -47q83 -45 127 -45q47 0 117 67l82 -80q-112 -106 -197 -106q-51 0 -131 45q-86 47 -125 47q-46 0 -120 -68z" />
<glyph unicode="&#x2000;" horiz-adv-x="921" />
<glyph unicode="&#x2001;" horiz-adv-x="1843" />
<glyph unicode="&#x2002;" horiz-adv-x="921" />
<glyph unicode="&#x2003;" horiz-adv-x="1843" />
<glyph unicode="&#x2004;" horiz-adv-x="614" />
<glyph unicode="&#x2005;" horiz-adv-x="460" />
<glyph unicode="&#x2006;" horiz-adv-x="307" />
<glyph unicode="&#x2007;" horiz-adv-x="307" />
<glyph unicode="&#x2008;" horiz-adv-x="230" />
<glyph unicode="&#x2009;" horiz-adv-x="368" />
<glyph unicode="&#x200a;" horiz-adv-x="102" />
<glyph unicode="&#x2010;" horiz-adv-x="661" d="M141 434v156h379v-156h-379z" />
<glyph unicode="&#x2011;" horiz-adv-x="661" d="M141 434v156h379v-156h-379z" />
<glyph unicode="&#x2012;" horiz-adv-x="661" d="M141 434v156h379v-156h-379z" />
<glyph unicode="&#x2013;" horiz-adv-x="968" d="M141 434v156h686v-156h-686z" />
<glyph unicode="&#x2014;" horiz-adv-x="1275" d="M141 434v156h994v-156h-994z" />
<glyph unicode="&#x2018;" horiz-adv-x="399" d="M106 1044v179q0 94 45.5 152.5t129.5 58.5h10v-95h-10q-37 0 -54.5 -33.5t-17.5 -82.5h82v-179h-185z" />
<glyph unicode="&#x2019;" horiz-adv-x="399" d="M106 1044v93h13q69 0 69 116h-82v181h185v-181q0 -94 -44 -151.5t-128 -57.5h-13z" />
<glyph unicode="&#x201a;" horiz-adv-x="399" d="M106 0v178h185v-178q0 -95 -44.5 -153t-127.5 -58h-13v92h13q69 0 69 119h-82z" />
<glyph unicode="&#x201c;" horiz-adv-x="690" d="M106 1044v179q0 94 45.5 152.5t127.5 58.5h12v-95h-12q-36 0 -53 -33.5t-17 -82.5h82v-179h-185zM397 1044v179q0 94 45 152.5t127 58.5h13v-95h-13q-36 0 -52.5 -33t-16.5 -83h82v-179h-185z" />
<glyph unicode="&#x201d;" horiz-adv-x="690" d="M106 1044v93h13q69 0 69 118h-82v179h185v-179q0 -95 -44.5 -153t-127.5 -58h-13zM397 1044v93h13q69 0 69 118h-82v179h185v-179q0 -95 -44.5 -153t-127.5 -58h-13z" />
<glyph unicode="&#x201e;" horiz-adv-x="690" d="M106 0v178h185v-178q0 -95 -44.5 -153t-127.5 -58h-13v92h13q69 0 69 119h-82zM397 0v178h185v-178q0 -95 -44.5 -153t-127.5 -58h-13v92h13q69 0 69 119h-82z" />
<glyph unicode="&#x2022;" horiz-adv-x="626" d="M127 676q0 78 54 132t132 54t132.5 -54t54.5 -132t-54.5 -132.5t-132.5 -54.5t-132 54.5t-54 132.5z" />
<glyph unicode="&#x202f;" horiz-adv-x="368" />
<glyph unicode="&#x205f;" horiz-adv-x="460" />
<glyph unicode="&#x20ac;" horiz-adv-x="1081" d="M70 543v90h176v168h-176v90h176v180q0 162 100 272.5t277 110.5q89 0 161.5 -31t118.5 -84t71 -121.5t25 -146.5v-61h-174v61q0 93 -52 156t-150 63q-100 0 -151.5 -63t-51.5 -156v-180h336v-90h-336v-168h336v-90h-336v-181q0 -93 51.5 -156t151.5 -63q98 0 150 63 t52 156v62h174v-62q0 -105 -42 -190t-129 -138.5t-205 -53.5q-177 0 -277 110t-100 272v181h-176z" />
<glyph unicode="&#x2122;" horiz-adv-x="1038" d="M41 1352v82h371v-82h-142v-533h-88v533h-141zM496 819v615h133l53 -209q5 -22 37 -166h2q18 100 35 166l55 209h131v-615h-86v230q0 94 4 282h-2q-39 -176 -43 -190l-55 -207h-82l-55 207q-31 132 -41 190h-2q4 -188 4 -282v-230h-88z" />
<glyph unicode="&#x25fc;" horiz-adv-x="1024" d="M0 0v1024h1024v-1024h-1024z" />
</font>
</defs>
</svg>
