<?xml version="1.0" standalone="no"?>
<!DOCTYPE svg PUBLIC "-//W3C//DTD SVG 1.1//EN" "http://www.w3.org/Graphics/SVG/1.1/DTD/svg11.dtd" >
<svg xmlns="http://www.w3.org/2000/svg" xmlns:xlink="http://www.w3.org/1999/xlink" version="1.1">
<metadata>
Created by FontForge 20161003 at Sun Aug 25 10:17:04 2019
 By www-data
Copyright 2016 The Muli Project Authors (contact@sansoxygen.com)
</metadata>
<defs>
<font id="MuliRegular" horiz-adv-x="600" >
  <font-face 
    font-family="MuliRegular"
    font-weight="400"
    font-stretch="normal"
    units-per-em="1000"
    panose-1="0 0 5 0 0 0 0 0 0 0"
    ascent="800"
    descent="-200"
    x-height="502"
    cap-height="712"
    bbox="-329 -273 1289 1088"
    underline-thickness="50"
    underline-position="-150"
    unicode-range="U+000D-FB02"
  />
<missing-glyph horiz-adv-x="476" 
d="M390 736v-952h-301v952h301zM317 672h-157v-31h62v-35h-63v-32h158v32h-63v35h63v31zM254 549h-95v-99h158v33h-63v66zM222 517v-34h-32v34h32zM317 425h-158v-32h63v-35h-63v-31h95v66h63v32zM317 368h-31v-63h-127v-33h158v96zM317 251h-95v-53h32v22h32v-45h-96v76
h-31v-107h158v107zM317 87h-158v-108h158v108zM286 55v-44h-96v44h96zM317 -43h-158v-31h67l-67 -45v-31h158v31h-97l67 45h30v31z" />
    <glyph glyph-name="fi" unicode="fi" horiz-adv-x="573" 
d="M186 503h309v-503h-81v439h-228v-439h-81v439h-98v64h98v67q0 61 18.5 98t60.5 54t114 17h32v-63h-25q-52 0 -76.5 -9t-33.5 -34.5t-9 -78.5v-51zM404 721h101v-94h-101v94z" />
    <glyph glyph-name="fl" unicode="fl" horiz-adv-x="575" 
d="M208.5 647.5q-22.5 -22.5 -22.5 -77.5v-67h123v-64h-123v-439h-81v439h-98v64h98v77q0 79 39.5 119.5t110.5 40.5q35 0 68 -9v-69q-28 8 -52 8q-40 0 -62.5 -22.5zM415 0v736h81v-736h-81z" />
    <glyph glyph-name=".notdef" horiz-adv-x="476" 
d="M390 736v-952h-301v952h301zM317 672h-157v-31h62v-35h-63v-32h158v32h-63v35h63v31zM254 549h-95v-99h158v33h-63v66zM222 517v-34h-32v34h32zM317 425h-158v-32h63v-35h-63v-31h95v66h63v32zM317 368h-31v-63h-127v-33h158v96zM317 251h-95v-53h32v22h32v-45h-96v76
h-31v-107h158v107zM317 87h-158v-108h158v108zM286 55v-44h-96v44h96zM317 -43h-158v-31h67l-67 -45v-31h158v31h-97l67 45h30v31z" />
    <glyph glyph-name=".null" horiz-adv-x="0" 
 />
    <glyph glyph-name="nonmarkingreturn" unicode="&#xd;" horiz-adv-x="261" 
 />
    <glyph glyph-name="NULL" horiz-adv-x="0" 
 />
    <glyph glyph-name="NULL" horiz-adv-x="0" 
 />
    <glyph glyph-name="space" unicode=" " horiz-adv-x="261" 
 />
    <glyph glyph-name="exclam" unicode="!" horiz-adv-x="231" 
d="M90 187l-25 525h101l-26 -525h-50zM64 103h103v-103h-103v103z" />
    <glyph glyph-name="quotedbl" unicode="&#x22;" horiz-adv-x="424" 
d="M85 432l-22 280h96l-20 -280h-54zM287 432l-22 280h96l-20 -280h-54z" />
    <glyph glyph-name="numbersign" unicode="#" horiz-adv-x="606" 
d="M571 477h-100l-46 -234h126v-59h-137l-36 -184h-64l36 184h-161l-36 -184h-64l36 184h-90v59h101l46 234h-127v59h139l34 176h64l-34 -176h161l34 176h64l-34 -176h88v-59zM361 243l46 234h-161l-46 -234h161z" />
    <glyph glyph-name="dollar" unicode="$" 
d="M496 59q-57 -54 -151 -65v-110h-70v109q-69 4 -127.5 27t-102.5 64l31 63q48 -41 96.5 -61t105.5 -23v254q-69 18 -114 38t-75.5 58.5t-30.5 101.5q0 55 27.5 99t76.5 71.5t113 33.5v109h70v-110q58 -5 110.5 -28t89.5 -60l-31 -63q-73 70 -172 81v-269q66 -16 109.5 -35
t72.5 -55.5t29 -95.5q0 -80 -57 -134zM177 440q35 -27 101 -45v253q-64 -6 -100 -40.5t-36 -89.5q0 -51 35 -78zM436.5 105.5q33.5 32.5 33.5 85.5q0 44 -33 68.5t-95 41.5v-236q61 8 94.5 40.5z" />
    <glyph glyph-name="percent" unicode="%" horiz-adv-x="939" 
d="M101 340q-45 55 -45 163q0 107 45 162t126 55t126.5 -55t45.5 -162q0 -108 -45.5 -163t-126.5 -55t-126 55zM303 0h-79l412 712h79zM300.5 381.5q23.5 38.5 23.5 121.5q0 82 -23.5 120.5t-73.5 38.5q-49 0 -73 -38.5t-24 -120.5q0 -83 24 -121.5t73 -38.5q50 0 73.5 38.5
zM586 48q-45 55 -45 163t45 162.5t126 54.5t126.5 -54.5t45.5 -162.5t-45.5 -163t-126.5 -55t-126 55zM786.5 89q23.5 38 23.5 122q0 82 -24 120.5t-74 38.5t-73.5 -38.5t-23.5 -120.5q0 -83 23.5 -121.5t73.5 -38.5q51 0 74.5 38z" />
    <glyph glyph-name="ampersand" unicode="&#x26;" horiz-adv-x="670" 
d="M680 47l-44 -56q-83 38 -140 95q-43 -45 -97 -69t-117 -24q-68 0 -120 23.5t-80.5 65.5t-28.5 97q0 64 39 115.5t126 103.5q-47 54 -65.5 90.5t-18.5 75.5q0 70 48 112.5t127 42.5q74 0 117 -38.5t43 -104.5q0 -53 -32 -95t-113 -94l168 -189q47 91 50 220h72
q-2 -81 -21 -150.5t-53 -123.5q52 -57 140 -97zM239 631.5q-27 -25.5 -27 -67.5q0 -29 14 -55t55 -73q66 41 91 71t25 65q0 38 -24 61.5t-63 23.5q-44 0 -71 -25.5zM451 136l-190 213q-70 -43 -99 -81.5t-29 -86.5q0 -56 41 -89t110 -33q98 0 167 77z" />
    <glyph glyph-name="quotesingle" unicode="'" horiz-adv-x="222" 
d="M85 432l-22 280h96l-20 -280h-54z" />
    <glyph glyph-name="parenleft" unicode="(" horiz-adv-x="317" 
d="M131 40.5q-27 108.5 -27 225.5q0 116 27.5 225t86.5 221h68q-54 -125 -76 -232t-22 -214q0 -106 22 -213.5t75 -234.5h-67q-60 114 -87 222.5z" />
    <glyph glyph-name="parenright" unicode=")" horiz-adv-x="317" 
d="M32 -182q53 127 75 234.5t22 213.5q0 107 -22 214t-75 232h68q59 -112 86 -221t27 -225q0 -117 -27 -225.5t-87 -222.5h-67z" />
    <glyph glyph-name="asterisk" unicode="*" horiz-adv-x="455" 
d="M138 362l-50 36l97 124l-152 45l20 59l147 -53l-5 156h62l-5 -157l149 54l19 -59l-151 -45l97 -124l-51 -36l-88 131z" />
    <glyph glyph-name="plus" unicode="+" 
d="M546 319v-63h-215v-215h-62v215h-215v63h215v215h62v-215h215z" />
    <glyph glyph-name="comma" unicode="," horiz-adv-x="231" 
d="M167 103v-73q0 -42 -14 -77t-47 -68l-38 29q39 45 44 86h-48v103h103z" />
    <glyph glyph-name="hyphen" unicode="-" horiz-adv-x="429" 
d="M73 235v67h283v-67h-283z" />
    <glyph glyph-name="period" unicode="." horiz-adv-x="231" 
d="M64 103h103v-103h-103v103z" />
    <glyph glyph-name="slash" unicode="/" horiz-adv-x="285" 
d="M51 -55h-74l257 804h75z" />
    <glyph glyph-name="zero" unicode="0" 
d="M114.5 84.5q-63.5 92.5 -63.5 271.5t63.5 271.5t185.5 92.5t185.5 -92.5t63.5 -270.5q0 -179 -63.5 -272t-185.5 -93t-185.5 92.5zM425.5 133q40.5 72 40.5 224q0 151 -40 222t-126 71q-85 0 -125.5 -71t-40.5 -222t40.5 -223.5t125.5 -72.5t125.5 72z" />
    <glyph glyph-name="one" unicode="1" 
d="M368 69h157v-69h-397v69h157v541l-146 -93v79l182 116h47v-643z" />
    <glyph glyph-name="two" unicode="2" 
d="M541 69v-69h-458v62l249 276q50 56 73 101t23 90q0 59 -34 90.5t-97 31.5q-102 0 -202 -82l-31 63q42 40 106 64t129 24q98 0 155 -50.5t57 -136.5q0 -61 -27.5 -117.5t-91.5 -126.5l-203 -220h352z" />
    <glyph glyph-name="three" unicode="3" 
d="M494 304q33 -44 33 -111q0 -93 -63 -146.5t-171 -53.5q-69 0 -132.5 23t-107.5 65l32 63q99 -82 206 -82q76 0 115.5 34t39.5 100q0 131 -164 131h-82v69h66q79 0 121 35t42 100q0 58 -34.5 89t-97.5 31q-102 0 -202 -82l-31 63q43 41 105.5 64.5t130.5 23.5
q96 0 153.5 -49t57.5 -132q0 -61 -30 -107t-83 -66q63 -18 96 -62z" />
    <glyph glyph-name="four" unicode="4" 
d="M567 223v-68h-108v-155h-82v155h-328v62l343 495h67v-489h108zM134 223h243v350z" />
    <glyph glyph-name="five" unicode="5" 
d="M447.5 418.5q50.5 -28.5 77.5 -79.5t27 -118t-29.5 -119t-84 -80.5t-127.5 -28.5q-65 0 -128 23.5t-106 64.5l31 63q99 -82 203 -82q75 0 117.5 42.5t42.5 115.5q0 71 -42 114.5t-112 43.5q-102 0 -163 -83h-57v417h427v-68h-345v-254q59 57 151 57q67 0 117.5 -28.5z
" />
    <glyph glyph-name="six" unicode="6" 
d="M445.5 418.5q50.5 -28.5 78.5 -80t28 -117.5t-29.5 -118t-81.5 -81.5t-118 -29.5q-129 0 -199 90t-70 256q0 120 32.5 206t94 131t147.5 45q62 0 120.5 -23t102.5 -65l-31 -63q-50 42 -96 62t-94 20q-92 0 -143 -82t-51 -230v-15q23 57 75 90t119 33q65 0 115.5 -28.5z
M429 104.5q42 43.5 42 115.5q0 71 -42.5 114.5t-110.5 43.5q-70 0 -114 -44t-44 -114q0 -71 44 -115t115 -44q68 0 110 43.5z" />
    <glyph glyph-name="seven" unicode="7" 
d="M65 712h470v-61l-334 -651h-88l332 643h-380v69z" />
    <glyph glyph-name="eight" unicode="8" 
d="M516.5 300.5q38.5 -46.5 38.5 -111.5q0 -91 -69 -143.5t-186 -52.5t-186 52.5t-69 143.5q0 65 39.5 112t108.5 65q-64 19 -98 62.5t-34 102.5q0 57 30 99.5t84.5 66t124.5 23.5t124.5 -23.5t84.5 -66t30 -99.5q0 -59 -34.5 -102.5t-96.5 -62.5q70 -19 108.5 -65.5z
M185.5 432.5q42.5 -35.5 114.5 -43.5q72 8 114.5 43.5t42.5 92.5q0 59 -41.5 93t-115.5 34t-115.5 -34t-41.5 -93q0 -57 42.5 -92.5zM429 95q45 34 45 99q0 59 -47.5 94.5t-126.5 43.5q-79 -8 -126.5 -43.5t-47.5 -94.5q0 -65 45 -99t129 -34t129 34z" />
    <glyph glyph-name="nine" unicode="9" 
d="M477 630q70 -90 70 -256q0 -181 -72.5 -281.5t-202.5 -100.5q-61 0 -119.5 23t-103.5 65l32 63q51 -43 97 -62.5t93 -19.5q92 0 142.5 82t50.5 230v13q-23 -56 -75 -88.5t-119 -32.5q-65 0 -115 28.5t-78 80t-28 117.5t29.5 118t81.5 81.5t118 29.5q129 0 199 -90z
M397 378q44 44 44 114q0 71 -44 115t-115 44q-68 0 -110 -43.5t-42 -115.5q0 -71 42 -114.5t111 -43.5q70 0 114 44z" />
    <glyph glyph-name="colon" unicode=":" horiz-adv-x="231" 
d="M64 492h103v-104h-103v104zM64 103h103v-103h-103v103z" />
    <glyph glyph-name="semicolon" unicode=";" horiz-adv-x="231" 
d="M64 492h103v-104h-103v104zM64 103h103v-73q0 -42 -14 -77t-47 -68l-38 29q39 45 44 86h-48v103z" />
    <glyph glyph-name="less" unicode="&#x3c;" 
d="M546 541v-68l-415 -186l415 -185v-70l-492 223v64z" />
    <glyph glyph-name="equal" unicode="=" 
d="M546 420v-63h-492v63h492zM546 218v-63h-492v63h492z" />
    <glyph glyph-name="greater" unicode="&#x3e;" 
d="M54 541l492 -222v-64l-492 -223v70l415 185l-415 186v68z" />
    <glyph glyph-name="question" unicode="?" horiz-adv-x="447" 
d="M157 710.5q37 9.5 73 9.5q86 0 139.5 -43.5t53.5 -114.5q0 -37 -12.5 -68t-30.5 -55.5t-49 -60.5q-43 -48 -66.5 -86t-28.5 -88l-3 -18h-48v25q0 63 22 106.5t65 97.5q34 43 50.5 73.5t16.5 68.5q0 43 -30 68t-83 25q-70 0 -138 -42v75q32 18 69 27.5zM158 0v103h103
v-103h-103z" />
    <glyph glyph-name="at" unicode="@" horiz-adv-x="935" 
d="M251 -99.5q-97 53.5 -149 150.5t-52 225q0 133 56 233t153.5 154.5t218.5 54.5q129 0 221.5 -53t139.5 -138t47 -180q0 -99 -29.5 -162t-75.5 -91.5t-98 -28.5q-54 0 -85 23.5t-34 66.5h-2q-25 -42 -63.5 -66t-89.5 -24q-66 0 -107 46.5t-41 129.5q0 69 26.5 129.5t75 97
t111.5 36.5q48 0 83 -23t46 -59h1l12 70h66l-48 -274q-4 -28 -4 -36q0 -34 16 -48.5t49 -14.5q29 0 58 22.5t49 73.5t20 132q0 80 -38 151t-116 115t-190 44q-103 0 -185.5 -46.5t-130 -132.5t-47.5 -202q0 -112 43.5 -195t125.5 -128.5t194 -45.5q85 0 147.5 24.5
t95.5 68.5h88q-43 -71 -129 -112t-202 -41q-130 0 -227 53.5zM511 149.5q37 30.5 56 79t19 102.5q0 57 -28 87t-76 30t-83.5 -29.5t-54.5 -76.5t-19 -98q0 -59 28.5 -92t69.5 -33q51 0 88 30.5z" />
    <glyph glyph-name="A" unicode="A" horiz-adv-x="734" 
d="M632 0l-78 183h-372l-79 -183h-85l313 712h72l313 -712h-84zM211 251h314l-157 366z" />
    <glyph glyph-name="B" unicode="B" horiz-adv-x="681" 
d="M587 304.5q34 -44.5 34 -110.5q0 -93 -62 -143.5t-175 -50.5h-296v712h286q109 0 169.5 -48.5t60.5 -137.5q0 -57 -29.5 -98.5t-82.5 -61.5q61 -17 95 -61.5zM169 396h192q80 0 121 32t41 94q0 122 -162 122h-192v-248zM500.5 99.5q39.5 31.5 39.5 96.5q0 131 -163 131
h-208v-259h208q84 0 123.5 31.5z" />
    <glyph glyph-name="C" unicode="C" horiz-adv-x="684" 
d="M216.5 36q-74.5 44 -114.5 126.5t-40 194.5t40 193.5t114.5 125.5t175.5 44q74 0 135.5 -22.5t106.5 -67.5l-31 -63q-51 44 -100.5 63t-109.5 19q-117 0 -181.5 -76t-64.5 -216q0 -141 64 -217.5t182 -76.5q60 0 109.5 19t100.5 63l31 -63q-45 -45 -106.5 -67.5
t-135.5 -22.5q-101 0 -175.5 44z" />
    <glyph glyph-name="D" unicode="D" horiz-adv-x="746" 
d="M88 712h239q171 0 264.5 -92.5t93.5 -262.5q0 -171 -93.5 -264t-264.5 -93h-239v712zM322 70q138 0 207.5 72t69.5 215q0 285 -277 285h-152v-572h152z" />
    <glyph glyph-name="E" unicode="E" horiz-adv-x="588" 
d="M88 0v712h450v-68h-369v-248h349v-69h-349v-259h369v-68h-450z" />
    <glyph glyph-name="F" unicode="F" horiz-adv-x="563" 
d="M88 0v712h440v-69h-359v-247h339v-69h-339v-327h-81z" />
    <glyph glyph-name="G" unicode="G" horiz-adv-x="731" 
d="M651 371v-330q-42 -22 -110 -35.5t-138 -13.5q-106 0 -183 43.5t-117.5 125.5t-40.5 196q0 113 40.5 194.5t116 125t178.5 43.5q75 0 137.5 -22.5t107.5 -67.5l-32 -63q-52 44 -101.5 63.5t-111.5 19.5q-121 0 -185.5 -75.5t-64.5 -217.5q0 -145 66 -220.5t192 -75.5
q89 0 171 28v217h-177v65h252z" />
    <glyph glyph-name="H" unicode="H" horiz-adv-x="766" 
d="M596 712h82v-712h-82v327h-427v-327h-81v712h81v-316h427v316z" />
    <glyph glyph-name="I" unicode="I" horiz-adv-x="258" 
d="M88 0v712h82v-712h-82z" />
    <glyph glyph-name="J" unicode="J" horiz-adv-x="329" 
d="M-5 -107q45 -8 72 -8q51 0 71.5 28.5t20.5 97.5v701h82v-702q0 -104 -37.5 -150t-123.5 -46q-34 0 -85 8v71z" />
    <glyph glyph-name="K" unicode="K" horiz-adv-x="634" 
d="M644 0h-107l-367 339v-339h-82v712h82v-327l350 327h105l-372 -347z" />
    <glyph glyph-name="L" unicode="L" horiz-adv-x="545" 
d="M88 0v712h82v-642h357v-70h-439z" />
    <glyph glyph-name="M" unicode="M" horiz-adv-x="849" 
d="M693 712h68v-712h-76v529l-231 -529h-58l-233 525l1 -525h-76v712h68l270 -614z" />
    <glyph glyph-name="N" unicode="N" horiz-adv-x="746" 
d="M581 712h78v-712h-64l-430 573v-573h-77v712h63l430 -573v573z" />
    <glyph glyph-name="O" unicode="O" horiz-adv-x="772" 
d="M214 36q-73 44 -112.5 126.5t-39.5 193.5q0 112 39 194t112 126t173 44t173 -44t112 -126t39 -193q0 -112 -39.5 -194t-112.5 -126.5t-172 -44.5t-172 44zM562 139q63 77 63 218t-62.5 217t-176.5 76t-177 -76.5t-63 -216.5q0 -141 63 -218t177 -77q113 0 176 77z" />
    <glyph glyph-name="P" unicode="P" horiz-adv-x="651" 
d="M88 712h284q110 0 171.5 -53t61.5 -146t-62 -146.5t-171 -53.5h-202v-313h-82v712zM365 381q79 0 119 34t40 98t-40 97.5t-119 33.5h-195v-263h195z" />
    <glyph glyph-name="Q" unicode="Q" horiz-adv-x="772" 
d="M635 -139l-57 -52q-42 32 -84 81.5t-73 103.5q-22 -2 -35 -2q-99 0 -172 44t-112.5 126.5t-39.5 193.5q0 112 39 194t112 126t173 44t173 -44t112 -126t39 -193q0 -131 -53.5 -220.5t-150.5 -124.5q44 -79 129 -151zM209 139q63 -77 177 -77q113 0 176 77t63 218
t-62.5 217t-176.5 76t-177 -76.5t-63 -216.5q0 -141 63 -218z" />
    <glyph glyph-name="R" unicode="R" horiz-adv-x="693" 
d="M647 0h-87l-88 237q-16 44 -44.5 59t-80.5 15h-178v-311h-81v712h283q115 0 176.5 -51t61.5 -147q0 -70 -36.5 -117.5t-105.5 -67.5q31 -5 53 -26.5t37 -61.5zM364 379q164 0 164 134q0 66 -40 98.5t-124 32.5h-195v-265h195z" />
    <glyph glyph-name="S" unicode="S" horiz-adv-x="623" 
d="M48 82l31 63q53 -45 108 -64t128 -19q86 0 132.5 33.5t46.5 94.5q0 36 -22.5 58.5t-59 35.5t-97.5 27q-82 18 -135 39t-86 60.5t-33 103.5q0 61 32 107.5t90.5 72.5t136.5 26q74 0 138 -23t108 -67l-32 -63q-50 43 -101.5 63t-112.5 20q-83 0 -130 -35.5t-47 -97.5
q0 -54 41 -81t126 -47q92 -22 144.5 -40.5t87.5 -56t35 -99.5q0 -60 -32 -105.5t-91.5 -70.5t-139.5 -25q-167 0 -266 90z" />
    <glyph glyph-name="T" unicode="T" horiz-adv-x="603" 
d="M260 0v642h-248v70h579v-70h-248v-642h-83z" />
    <glyph glyph-name="U" unicode="U" horiz-adv-x="731" 
d="M154.5 64.5q-71.5 72.5 -71.5 214.5v433h81v-440q0 -104 51 -157t151 -53q99 0 149.5 53t50.5 157v440h82v-433q0 -141 -72 -214t-210 -73q-140 0 -211.5 72.5z" />
    <glyph glyph-name="V" unicode="V" horiz-adv-x="697" 
d="M611 712h85l-311 -712h-72l-311 712h87l261 -608z" />
    <glyph glyph-name="W" unicode="W" horiz-adv-x="1112" 
d="M997 712h81l-249 -712h-70l-203 583l-204 -583h-69l-250 712h84l202 -595l207 595l63 -1l204 -596z" />
    <glyph glyph-name="X" unicode="X" horiz-adv-x="652" 
d="M373 364l271 -364h-97l-221 302l-220 -302h-98l271 365l-258 347h98l208 -286l208 286h97z" />
    <glyph glyph-name="Y" unicode="Y" horiz-adv-x="607" 
d="M624 712l-280 -424v-288h-82v289l-280 423h96l226 -350l226 350h94z" />
    <glyph glyph-name="Z" unicode="Z" horiz-adv-x="596" 
d="M140 69h418v-69h-513v61l408 582h-408v69h503v-60z" />
    <glyph glyph-name="bracketleft" unicode="[" horiz-adv-x="317" 
d="M110 -182v894h199v-64h-118v-765h118v-65h-199z" />
    <glyph glyph-name="backslash" unicode="\" horiz-adv-x="285" 
d="M233 -55l-256 804h74l257 -804h-75z" />
    <glyph glyph-name="bracketright" unicode="]" horiz-adv-x="317" 
d="M207 -182h-199v65h118v765h-118v64h199v-894z" />
    <glyph glyph-name="asciicircum" unicode="^" 
d="M555 142h-69l-186 415l-186 -415h-68l222 493h64z" />
    <glyph glyph-name="underscore" unicode="_" horiz-adv-x="505" 
d="M8 -53v53h489v-53h-489z" />
    <glyph glyph-name="grave" unicode="`" horiz-adv-x="300" 
d="M123 557l-137 204h94l100 -204h-57z" />
    <glyph glyph-name="a" unicode="a" 
d="M521 503v-503h-80v91q-22 -47 -66.5 -72.5t-103.5 -25.5q-67 0 -117.5 32t-78 90.5t-27.5 136.5t28 137.5t78.5 92.5t116.5 33q59 0 103 -26t67 -73v87h80zM401 110.5q40 50.5 40 143.5t-40 143t-114 50t-115.5 -51.5t-41.5 -143.5t41 -142t116 -50q74 0 114 50.5z" />
    <glyph glyph-name="b" unicode="b" 
d="M446 483q51 -32 79 -90.5t28 -136.5t-28 -137.5t-79 -92.5t-117 -33q-59 0 -103 26t-67 74v-93h-81v736h81v-322q22 49 66.5 75t103.5 26q66 0 117 -32zM428 111.5q41 51.5 41 144.5q0 91 -40.5 141t-114.5 50q-75 0 -115 -50t-40 -143t40 -143.5t115 -50.5
q73 0 114 51.5z" />
    <glyph glyph-name="c" unicode="c" horiz-adv-x="495" 
d="M161.5 25q-54.5 32 -84 90.5t-29.5 136.5t30 137.5t85.5 92.5t129.5 33q51 0 98.5 -17.5t78.5 -48.5l-27 -60q-38 30 -73.5 44t-72.5 14q-77 0 -121 -51.5t-44 -143.5q0 -91 43.5 -141.5t121.5 -50.5q37 0 72.5 14t73.5 44l27 -60q-32 -30 -80.5 -47.5t-100.5 -17.5
q-73 0 -127.5 32z" />
    <glyph glyph-name="d" unicode="d" 
d="M521 736v-736h-80v91q-22 -47 -66.5 -72.5t-103.5 -25.5q-66 0 -116.5 33t-78.5 92.5t-28 137.5t27.5 136.5t78.5 90.5t117 32q59 0 103 -25.5t66 -71.5v318h81zM401 110.5q40 50.5 40 143.5q0 92 -40 142.5t-114 50.5t-115.5 -50t-41.5 -141q0 -93 41.5 -144.5
t115.5 -51.5t114 50.5z" />
    <glyph glyph-name="e" unicode="e" horiz-adv-x="544" 
d="M499 254h-369q1 -96 44.5 -145t126.5 -49q88 0 162 59l27 -59q-33 -31 -84.5 -49t-105.5 -18q-118 0 -185 69.5t-67 190.5q0 77 30 136.5t84 92.5t123 33q100 0 157 -65.5t57 -180.5v-15zM183.5 414q-39.5 -38 -50.5 -107h293q-6 71 -41.5 108t-98.5 37t-102.5 -38z" />
    <glyph glyph-name="f" unicode="f" horiz-adv-x="337" 
d="M208.5 647.5q-22.5 -22.5 -22.5 -77.5v-67h123v-64h-123v-439h-81v439h-98v64h98v77q0 79 39.5 119.5t110.5 40.5q35 0 68 -9v-69q-28 8 -52 8q-40 0 -62.5 -22.5z" />
    <glyph glyph-name="g" unicode="g" horiz-adv-x="604" 
d="M526 503v-499q0 -112 -57.5 -169.5t-169.5 -57.5q-115 0 -198 52l14 66q48 -27 90.5 -39t93.5 -12q73 0 110 38.5t37 114.5v119q-23 -48 -67.5 -74.5t-105.5 -26.5q-66 0 -117.5 31t-79.5 88t-28 131t28 131t79.5 88t117.5 31q60 0 104.5 -26t67.5 -73v87h81z
M403.5 131.5q41.5 48.5 41.5 133.5t-41.5 133.5t-114.5 48.5q-74 0 -116.5 -48.5t-42.5 -133.5t42.5 -133.5t116.5 -48.5q73 0 114.5 48.5z" />
    <glyph glyph-name="h" unicode="h" horiz-adv-x="585" 
d="M510 316v-316h-81v312q0 70 -28 102.5t-88 32.5q-70 0 -112 -43t-42 -116v-288h-81v736h81v-315q24 46 68.5 70t101.5 24q181 0 181 -199z" />
    <glyph glyph-name="i" unicode="i" horiz-adv-x="238" 
d="M78 0v503h81v-503h-81zM70 716h99v-92h-99v92z" />
    <glyph glyph-name="j" unicode="j" horiz-adv-x="238" 
d="M-6 -150q84 0 84 100v553h81v-563q0 -79 -39.5 -119.5t-108.5 -40.5q-33 0 -66 9v69q27 -8 49 -8zM69 716h99v-92h-99v92z" />
    <glyph glyph-name="k" unicode="k" horiz-adv-x="515" 
d="M523 0h-106l-258 242v-242h-81v736h81v-464l237 230h103l-252 -241z" />
    <glyph glyph-name="l" unicode="l" horiz-adv-x="238" 
d="M78 0v736h81v-736h-81z" />
    <glyph glyph-name="m" unicode="m" horiz-adv-x="879" 
d="M803 316v-316h-81v312q0 71 -24.5 103t-79.5 32q-64 0 -100 -43t-36 -117v-287h-81v312q0 70 -25 102.5t-80 32.5q-64 0 -100.5 -43t-36.5 -117v-287h-81v362q0 78 -8 141h77l8 -88q21 48 62.5 74t96.5 26q60 0 98 -24t56 -74q23 45 67.5 71.5t100.5 26.5q167 0 167 -199
z" />
    <glyph glyph-name="n" unicode="n" horiz-adv-x="585" 
d="M510 316v-316h-81v312q0 70 -28 102.5t-88 32.5q-70 0 -112 -43t-42 -116v-288h-81v362q0 78 -8 141h77l8 -90q23 49 69 75.5t105 26.5q181 0 181 -199z" />
    <glyph glyph-name="o" unicode="o" horiz-adv-x="572" 
d="M161 25q-54 32 -83.5 91t-29.5 138t29.5 138t83.5 91t125 32t125 -32t83.5 -91t29.5 -138t-29.5 -138t-83.5 -91t-125 -32t-125 32zM401 109.5q40 49.5 40 144.5q0 92 -41 142.5t-114 50.5q-74 0 -115 -50.5t-41 -142.5q0 -95 40.5 -144.5t115.5 -49.5t115 49.5z" />
    <glyph glyph-name="p" unicode="p" 
d="M446 482q51 -33 79 -92.5t28 -137.5t-28 -136.5t-78.5 -90.5t-117.5 -32q-59 0 -103 26t-67 74v-309h-81v578q0 78 -8 141h77l8 -97q21 52 66.5 80.5t107.5 28.5q66 0 117 -33zM428.5 110q40.5 50 40.5 142t-41 143.5t-114 51.5q-75 0 -115 -50t-40 -143t40 -143.5
t115 -50.5q74 0 114.5 50z" />
    <glyph glyph-name="q" unicode="q" 
d="M529 503q-8 -63 -8 -141v-578h-81v305q-22 -46 -66 -71t-103 -25q-67 0 -117.5 32t-78 90.5t-27.5 136.5t28 137.5t78.5 92.5t116.5 33q61 0 106 -27.5t67 -78.5l10 94h75zM401 110.5q40 50.5 40 143.5t-40 143t-114 50t-115.5 -51.5t-41.5 -143.5t41 -142t116 -50
q74 0 114 50.5z" />
    <glyph glyph-name="r" unicode="r" horiz-adv-x="362" 
d="M358 509l-2 -74q-23 8 -53 8q-73 0 -108.5 -45.5t-35.5 -110.5v-287h-81v362q0 78 -8 141h77l8 -93q19 51 61 78t96 27q25 0 46 -6z" />
    <glyph glyph-name="s" unicode="s" horiz-adv-x="496" 
d="M47 58l27 60q41 -32 83 -46t94 -14q57 0 86.5 19.5t29.5 56.5q0 30 -20 48t-66 28l-85 20q-63 14 -97.5 50t-34.5 86q0 66 53 107.5t140 41.5q53 0 100 -17t79 -49l-27 -59q-71 59 -152 59q-54 0 -83.5 -20.5t-29.5 -57.5q0 -31 18.5 -49t59.5 -28l85 -21
q70 -16 104 -49.5t34 -87.5q0 -65 -53 -104t-144 -39q-127 0 -201 65z" />
    <glyph glyph-name="t" unicode="t" horiz-adv-x="350" 
d="M186 439v-275q0 -56 23 -78.5t65 -22.5q28 0 54 9v-69q-31 -10 -70 -10q-72 0 -112.5 40.5t-40.5 119.5v286h-98v64h98v129l81 29v-158h144v-64h-144z" />
    <glyph glyph-name="u" unicode="u" horiz-adv-x="577" 
d="M499 503v-503h-79v87q-24 -46 -67 -70t-97 -24q-89 0 -135 50t-46 148v312h81v-310q0 -68 28 -100t85 -32q67 0 108 43.5t41 114.5v284h81z" />
    <glyph glyph-name="v" unicode="v" horiz-adv-x="531" 
d="M439 502h81l-217 -502h-77l-214 502h85l170 -414z" />
    <glyph glyph-name="w" unicode="w" horiz-adv-x="869" 
d="M762 503h80l-186 -503h-78l-144 393l-143 -393h-78l-186 503h85l142 -406l147 406h71l145 -407z" />
    <glyph glyph-name="x" unicode="x" horiz-adv-x="535" 
d="M316 259l207 -259h-97l-159 198l-157 -198h-99l209 259l-197 244h98l146 -185l146 185h99z" />
    <glyph glyph-name="y" unicode="y" horiz-adv-x="531" 
d="M520 503l-235 -549q-37 -86 -93 -126t-138 -55l-17 63q71 16 107.5 42.5t60.5 81.5l20 45l-213 498h85l170 -415l172 415h81z" />
    <glyph glyph-name="z" unicode="z" horiz-adv-x="518" 
d="M150 64h325v-64h-425v56l317 383h-306v64h403v-59z" />
    <glyph glyph-name="braceleft" unicode="{" horiz-adv-x="354" 
d="M206.5 299.5q-21.5 -26.5 -52.5 -33.5q31 -8 52.5 -35t21.5 -71v-197q0 -39 18 -59.5t49 -20.5h51v-65h-59q-68 0 -104 35t-36 101v192q0 44 -15.5 65t-54.5 29l-28 7v37l28 7q39 8 54.5 29t15.5 65v191q0 65 38 100.5t102 35.5h59v-64h-51q-31 0 -49 -21t-18 -60v-196
q0 -45 -21.5 -71.5z" />
    <glyph glyph-name="bar" unicode="|" horiz-adv-x="264" 
d="M93 -182v894h78v-894h-78z" />
    <glyph glyph-name="braceright" unicode="}" horiz-adv-x="355" 
d="M305 284v-37l-27 -7q-40 -8 -55.5 -28.5t-15.5 -65.5v-192q0 -66 -36 -101t-104 -35h-59v65h52q30 0 48 20.5t18 59.5v197q0 44 22 71t52 35q-30 7 -52 33.5t-22 71.5v196q0 39 -18 60t-48 21h-52v64h59q64 0 102 -35.5t38 -100.5v-191q0 -45 15.5 -65.5t55.5 -28.5z" />
    <glyph glyph-name="asciitilde" unicode="~" 
d="M546 316q-19 -47 -52 -73t-78 -26q-33 0 -63 12t-72 34q-33 18 -53 26.5t-39 8.5q-32 0 -52 -17.5t-33 -49.5l-50 28q18 47 51.5 72.5t78.5 25.5q33 0 63 -12t72 -34q31 -17 52 -25.5t40 -8.5q32 0 52 17.5t33 48.5z" />
    <glyph glyph-name="uni00A0" unicode="&#xa0;" horiz-adv-x="261" 
 />
    <glyph glyph-name="exclamdown" unicode="&#xa1;" horiz-adv-x="231" 
d="M64 388v104h103v-104h-103zM90 304h50l26 -486h-101z" />
    <glyph glyph-name="cent" unicode="&#xa2;" 
d="M514 58q-26 -25 -64.5 -41.5t-81.5 -21.5v-114h-69v114q-94 11 -150.5 80.5t-56.5 176.5q0 70 26 126t72.5 91t108.5 43v114h69v-113q44 -5 82.5 -21.5t63.5 -42.5l-27 -60q-61 49 -119 56v-383q58 7 119 56zM208 126.5q32 -48.5 91 -61.5v377q-58 -14 -90.5 -63.5
t-32.5 -126.5t32 -125.5z" />
    <glyph glyph-name="sterling" unicode="&#xa3;" 
d="M211.5 126q-15.5 -36 -52.5 -57h404v-69h-518v57q54 26 77 59t23 86v125h-100v59h100v140q0 90 53 142t144 52q64 0 122.5 -23t103.5 -67l-33 -63q-43 41 -91.5 62.5t-97.5 21.5q-58 0 -88.5 -33.5t-30.5 -97.5v-134h182v-59h-182v-104q0 -61 -15.5 -97z" />
    <glyph glyph-name="currency" unicode="&#xa4;" 
d="M529.5 164.5q-13.5 -39.5 -38.5 -71.5l53 -56l-42 -42l-53 54q-32 -25 -70 -38.5t-79 -13.5q-85 0 -150 54l-55 -56l-42 42l55 57q-51 67 -51 153t51 153l-55 57l43 44l54 -57q65 54 150 54q83 0 148 -52l53 55l44 -44l-53 -55q51 -69 51 -155q0 -43 -13.5 -82.5z
M385.5 88.5q39.5 24.5 62.5 66.5t23 92t-23 92t-62.5 66.5t-86.5 24.5t-86 -24.5t-62 -66.5t-23 -92t23 -92t62 -66.5t86 -24.5t86.5 24.5z" />
    <glyph glyph-name="yen" unicode="&#xa5;" 
d="M608 712l-232 -323h154v-60h-189v-93h189v-59h-189v-177h-82v177h-189v59h189v93h-189v60h154l-232 323h93l215 -304l215 304h93z" />
    <glyph glyph-name="brokenbar" unicode="&#xa6;" horiz-adv-x="264" 
d="M93 375v337h78v-337h-78zM93 -182v338h78v-338h-78z" />
    <glyph glyph-name="section" unicode="&#xa7;" horiz-adv-x="542" 
d="M485.5 126.5q-15.5 -33.5 -43.5 -58.5q18 -33 18 -80q0 -81 -52.5 -129t-142.5 -48q-123 0 -201 65l27 60q43 -31 83 -44.5t87 -13.5q56 0 87.5 27.5t31.5 78.5q0 41 -21 68t-70 52l-97 48q-81 39 -116 81.5t-35 101.5q0 37 15.5 71.5t42.5 57.5q-17 33 -17 78
q0 81 54 128.5t145 48.5q50 0 96.5 -17t77.5 -47l-27 -59q-75 57 -145 57q-58 0 -89.5 -27.5t-31.5 -79.5q0 -40 21 -67t70 -52l97 -48q81 -41 116 -83t35 -101q0 -35 -15.5 -68.5zM402 118q21 32 21 70q0 36 -24 63.5t-82 57.5l-94 50q-54 28 -83 54q-22 -33 -22 -71
q0 -35 24.5 -62.5t82.5 -58.5l94 -48q54 -28 83 -55z" />
    <glyph glyph-name="dieresis" unicode="&#xa8;" horiz-adv-x="300" 
d="M20 702h90v-86h-90v86zM193 702h90v-86h-90v86z" />
    <glyph glyph-name="copyright" unicode="&#xa9;" horiz-adv-x="823" 
d="M229 43q-83 48 -130.5 130.5t-47.5 183.5t47.5 183t130 129.5t183.5 47.5t183.5 -47.5t130 -130t47.5 -182.5q0 -101 -47.5 -183.5t-130.5 -130.5t-183 -48t-183 48zM571.5 81.5q71.5 41.5 112.5 114t41 161.5q0 88 -41 160t-112.5 113.5t-159.5 41.5t-160 -41.5
t-113 -113.5t-41 -160q0 -89 41 -161.5t113 -114t160 -41.5t159.5 41.5zM270.5 197q-55.5 59 -55.5 160q0 99 55.5 158t149.5 59q43 0 83 -14.5t68 -40.5l-24 -54q-58 47 -121 47q-64 0 -98.5 -40t-34.5 -115q0 -76 34.5 -116.5t98.5 -40.5q63 0 121 47l24 -54
q-29 -26 -69 -40.5t-82 -14.5q-94 0 -149.5 59z" />
    <glyph glyph-name="ordfeminine" unicode="&#xaa;" horiz-adv-x="333" 
d="M260 687.5q31 -29.5 31 -93.5v-178h-69v47q-12 -25 -35 -38.5t-53 -13.5q-45 0 -74.5 26.5t-29.5 63.5q0 33 16.5 51.5t54.5 27t104 8.5h16v17q0 31 -14 44t-43 13q-52 0 -99 -30l-20 52q25 15 57.5 24t66.5 9q60 0 91 -29.5zM201 482q20 20 20 53v15h-10
q-67 0 -89.5 -10t-22.5 -34q0 -18 14.5 -31t36.5 -13q31 0 51 20z" />
    <glyph glyph-name="guillemotleft" unicode="&#xab;" horiz-adv-x="445" 
d="M158 88l-132 179l134 181h75l-129 -180l126 -180h-74zM341 88l-132 179l134 181h75l-129 -180l126 -180h-74z" />
    <glyph glyph-name="logicalnot" unicode="&#xac;" 
d="M546 423v-272h-61v210h-431v62h492z" />
    <glyph glyph-name="uni00AD" unicode="&#xad;" horiz-adv-x="429" 
d="M73 235v67h283v-67h-283z" />
    <glyph glyph-name="registered" unicode="&#xae;" horiz-adv-x="823" 
d="M595.5 669.5q82.5 -47.5 130 -130t47.5 -182.5q0 -101 -47.5 -183.5t-130.5 -130.5t-183 -48t-183 48t-130.5 130.5t-47.5 183.5t47.5 183t130 129.5t183.5 47.5t183.5 -47.5zM571.5 81.5q71.5 41.5 112.5 114t41 161.5q0 88 -41 160t-112.5 113.5t-159.5 41.5
t-160 -41.5t-113 -113.5t-41 -160q0 -89 41 -161.5t113 -114t160 -41.5t159.5 41.5zM535 274l78 -131h-83l-80 137q-12 19 -26 26.5t-36 7.5h-53v-171h-74v427h178q71 0 109.5 -33.5t38.5 -93.5q0 -49 -28.5 -81.5t-80.5 -40.5q33 -9 57 -47zM493 388.5q20 16.5 20 51.5
q0 37 -20 53.5t-63 16.5h-95v-138h95q43 0 63 16.5z" />
    <glyph glyph-name="macron" unicode="&#xaf;" horiz-adv-x="300" 
d="M0 628v62h303v-62h-303z" />
    <glyph glyph-name="degree" unicode="&#xb0;" horiz-adv-x="369" 
d="M110 443q-34 19 -53.5 53t-19.5 75t19.5 74.5t53.5 52.5t75 19q40 0 73.5 -19t53 -52.5t19.5 -74.5t-19.5 -75t-53 -53t-73.5 -19q-41 0 -75 19zM249 504q25 26 25 67q0 40 -25.5 66.5t-63.5 26.5q-40 0 -65 -26t-25 -67t25 -67t65 -26q39 0 64 26z" />
    <glyph glyph-name="plusminus" unicode="&#xb1;" 
d="M331 360h215v-62h-215v-174h-62v174h-215v62h215v174h62v-174zM54 0v63h492v-63h-492z" />
    <glyph glyph-name="uni00B2" unicode="&#xb2;" horiz-adv-x="380" 
d="M337 345v-60h-285v54l144 159q26 28 39 52t13 47q0 29 -18 44.5t-49 15.5q-27 0 -58.5 -12t-59.5 -34l-26 54q30 23 70 37t81 14q62 0 98 -32t36 -83q0 -37 -17 -70.5t-57 -74.5l-106 -111h195z" />
    <glyph glyph-name="uni00B3" unicode="&#xb3;" horiz-adv-x="380" 
d="M311 468q20 -26 20 -66q0 -56 -39.5 -88.5t-107.5 -32.5q-42 0 -82.5 14.5t-69.5 37.5l25 53q64 -46 123 -46q38 0 59.5 16.5t21.5 49.5q0 66 -85 66h-57v58h46q40 0 62 17t22 50q0 29 -18 44.5t-49 15.5q-59 0 -119 -46l-26 54q30 23 70 37t79 14q64 0 99.5 -31.5
t35.5 -81.5q0 -35 -18.5 -60.5t-49.5 -37.5q38 -11 58 -37z" />
    <glyph glyph-name="acute" unicode="&#xb4;" horiz-adv-x="300" 
d="M180 557h-57l100 204h94z" />
    <glyph glyph-name="uni00B5" unicode="&#xb5;" horiz-adv-x="577" 
d="M499 503v-503h-79v87q-24 -46 -67 -70t-97 -24q-61 0 -100 27v-236h-81v719h81v-310q0 -68 28 -100t85 -32q67 0 108 43.5t41 114.5v284h81z" />
    <glyph glyph-name="paragraph" unicode="&#xb6;" horiz-adv-x="588" 
d="M500 -182h-68v833h-119v-833h-68v495q-60 0 -105 25.5t-69.5 71t-24.5 103.5t24.5 103t70.5 70.5t106 25.5h253v-894z" />
    <glyph glyph-name="periodcentered" unicode="&#xb7;" horiz-adv-x="231" 
d="M64 320h103v-103h-103v103z" />
    <glyph glyph-name="cedilla" unicode="&#xb8;" horiz-adv-x="300" 
d="M247.5 -59q22.5 -18 22.5 -52q0 -37 -31 -60.5t-86 -23.5q-21 0 -46 5t-43 14l13 44q36 -14 76 -14q27 0 41.5 9t14.5 26q0 13 -9 20t-26 7q-23 0 -46 -9l-20 16l11 97h57l-7 -63q16 2 24 2q32 0 54.5 -18z" />
    <glyph glyph-name="uni00B9" unicode="&#xb9;" horiz-adv-x="380" 
d="M252 345h76v-60h-225v60h77v284l-72 -44v74l89 53h55v-367z" />
    <glyph glyph-name="ordmasculine" unicode="&#xba;" horiz-adv-x="345" 
d="M62 453.5q-40 42.5 -40 111.5q0 68 40 110t110 42t110.5 -42t40.5 -110q0 -69 -40.5 -111.5t-110.5 -42.5t-110 42.5zM231 493.5q20 24.5 20 71.5q0 45 -20.5 70t-58.5 25t-57.5 -25t-19.5 -70q0 -47 19.5 -71.5t57.5 -24.5q39 0 59 24.5z" />
    <glyph glyph-name="guillemotright" unicode="&#xbb;" horiz-adv-x="445" 
d="M104 88h-74l127 180l-130 180h76l133 -181zM287 88h-74l127 180l-130 180h76l133 -181z" />
    <glyph glyph-name="onequarter" unicode="&#xbc;" horiz-adv-x="935" 
d="M252 345h76v-60h-225v60h77v284l-72 -44v74l89 53h55v-367zM287 -25l-60 34l422 728l59 -34zM914 141v-57h-63v-84h-70v84h-194v53l204 290h60v-286h63zM656 141h125v179z" />
    <glyph glyph-name="onehalf" unicode="&#xbd;" horiz-adv-x="935" 
d="M252 345h76v-60h-225v60h77v284l-72 -44v74l89 53h55v-367zM287 -25l-60 34l422 728l59 -34zM892 60v-60h-285v54l144 159q26 28 39 52t13 47q0 29 -18 44.5t-49 15.5q-27 0 -58.5 -12t-59.5 -34l-26 54q30 23 70 37t81 14q62 0 98 -32t36 -83q0 -37 -17 -70.5t-57 -74.5
l-106 -111h195z" />
    <glyph glyph-name="threequarters" unicode="&#xbe;" horiz-adv-x="935" 
d="M311 468q20 -26 20 -66q0 -56 -39.5 -88.5t-107.5 -32.5q-42 0 -82.5 14.5t-69.5 37.5l25 53q64 -46 123 -46q38 0 59.5 16.5t21.5 49.5q0 66 -85 66h-57v58h46q40 0 62 17t22 50q0 29 -18 44.5t-49 15.5q-59 0 -119 -46l-26 54q30 23 70 37t79 14q64 0 99.5 -31.5
t35.5 -81.5q0 -35 -18.5 -60.5t-49.5 -37.5q38 -11 58 -37zM287 -25l-60 34l422 728l59 -34zM914 141v-57h-63v-84h-70v84h-194v53l204 290h60v-286h63zM656 141h125v179z" />
    <glyph glyph-name="questiondown" unicode="&#xbf;" horiz-adv-x="447" 
d="M186 388v104h103v-104h-103zM78.5 -146q-54.5 43 -54.5 113q0 51 23 86t68 77q44 42 67.5 75.5t28.5 82.5l3 18h49v-25q0 -43 -12.5 -75.5t-29.5 -55.5t-45 -52q-35 -35 -51.5 -62t-16.5 -64q0 -41 30 -66t82 -25q69 0 139 41v-74q-64 -37 -142 -37q-84 0 -138.5 43z" />
    <glyph glyph-name="Agrave" unicode="&#xc0;" horiz-adv-x="734" 
d="M632 0l-78 183h-372l-79 -183h-85l313 712h72l313 -712h-84zM211 251h314l-157 366zM338 773l-134 153h89l102 -153h-57z" />
    <glyph glyph-name="Aacute" unicode="&#xc1;" horiz-adv-x="734" 
d="M632 0l-78 183h-372l-79 -183h-85l313 712h72l313 -712h-84zM211 251h314l-157 366zM395 773h-57l102 153h89z" />
    <glyph glyph-name="Acircumflex" unicode="&#xc2;" horiz-adv-x="734" 
d="M632 0l-78 183h-372l-79 -183h-85l313 712h72l313 -712h-84zM211 251h314l-157 366zM293 773h-74l120 153h55l120 -153h-74l-73 104z" />
    <glyph glyph-name="Atilde" unicode="&#xc3;" horiz-adv-x="734" 
d="M632 0l-78 183h-372l-79 -183h-85l313 712h72l313 -712h-84zM211 251h314l-157 366zM228.5 879.5q24.5 30.5 65.5 30.5q21 0 40 -8.5t45 -24.5q21 -13 33.5 -19t24.5 -6q22 0 34.5 16t12.5 39h45q0 -55 -24.5 -85.5t-65.5 -30.5q-21 0 -40 8.5t-45 24.5q-21 13 -33.5 19
t-24.5 6q-22 0 -34.5 -16t-12.5 -39h-45q0 55 24.5 85.5z" />
    <glyph glyph-name="Adieresis" unicode="&#xc4;" horiz-adv-x="734" 
d="M632 0l-78 183h-372l-79 -183h-85l313 712h72l313 -712h-84zM211 251h314l-157 366zM235 893h90v-86h-90v86zM408 893h90v-86h-90v86z" />
    <glyph glyph-name="Aring" unicode="&#xc5;" horiz-adv-x="734" 
d="M554 183h-372l-79 -183h-85l304 691q-25 12 -40.5 36.5t-15.5 53.5q0 42 29.5 71t72.5 29q42 0 72 -29t30 -71q0 -30 -16 -54.5t-42 -35.5l304 -691h-84zM333 816.5q-14 -14.5 -14 -35.5q0 -22 13.5 -36.5t35.5 -14.5q21 0 34.5 14.5t13.5 36.5q0 21 -13.5 35.5
t-34.5 14.5t-35 -14.5zM211 251h314l-157 366z" />
    <glyph glyph-name="AE" unicode="&#xc6;" horiz-adv-x="1001" 
d="M951 643h-374l22 -247h332v-69h-326l23 -258h323v-69h-392l-16 183h-347l-108 -183h-90l433 712h520v-69zM537 251l-34 392h-34l-232 -392h300z" />
    <glyph glyph-name="Ccedilla" unicode="&#xc7;" horiz-adv-x="684" 
d="M534 17q-58 -23 -127 -25l-4 -35q16 2 24 2q32 0 54.5 -18t22.5 -52q0 -37 -31 -60.5t-86 -23.5q-21 0 -46 5t-43 14l13 44q36 -14 76 -14q27 0 41.5 9t14.5 26q0 13 -9 20t-26 7q-23 0 -46 -9l-20 16l8 71q-89 9 -154 55.5t-99.5 125t-34.5 182.5q0 112 40 193.5
t114.5 125.5t175.5 44q74 0 135.5 -22.5t106.5 -67.5l-31 -63q-51 44 -100.5 63t-109.5 19q-117 0 -181.5 -76t-64.5 -216q0 -141 64 -217.5t182 -76.5q60 0 109.5 19t100.5 63l31 -63q-42 -42 -100 -65z" />
    <glyph glyph-name="Egrave" unicode="&#xc8;" horiz-adv-x="588" 
d="M88 0v712h450v-68h-369v-248h349v-69h-349v-259h369v-68h-450zM298 773l-134 153h89l102 -153h-57z" />
    <glyph glyph-name="Eacute" unicode="&#xc9;" horiz-adv-x="588" 
d="M88 0v712h450v-68h-369v-248h349v-69h-349v-259h369v-68h-450zM355 773h-57l102 153h89z" />
    <glyph glyph-name="Ecircumflex" unicode="&#xca;" horiz-adv-x="588" 
d="M88 0v712h450v-68h-369v-248h349v-69h-349v-259h369v-68h-450zM253 773h-74l120 153h55l120 -153h-74l-73 104z" />
    <glyph glyph-name="Edieresis" unicode="&#xcb;" horiz-adv-x="588" 
d="M88 0v712h450v-68h-369v-248h349v-69h-349v-259h369v-68h-450zM195 893h90v-86h-90v86zM368 893h90v-86h-90v86z" />
    <glyph glyph-name="Igrave" unicode="&#xcc;" horiz-adv-x="258" 
d="M88 0v712h82v-712h-82zM100 773l-134 153h89l102 -153h-57z" />
    <glyph glyph-name="Iacute" unicode="&#xcd;" horiz-adv-x="258" 
d="M88 0v712h82v-712h-82zM157 773h-57l102 153h89z" />
    <glyph glyph-name="Icircumflex" unicode="&#xce;" horiz-adv-x="258" 
d="M88 0v712h82v-712h-82zM55 773h-74l120 153h55l120 -153h-74l-73 104z" />
    <glyph glyph-name="Idieresis" unicode="&#xcf;" horiz-adv-x="258" 
d="M88 0v712h82v-712h-82zM-3 893h90v-86h-90v86zM170 893h90v-86h-90v86z" />
    <glyph glyph-name="Eth" unicode="&#xd0;" horiz-adv-x="760" 
d="M604.5 619.5q93.5 -92.5 93.5 -262.5q0 -171 -93.5 -264t-264.5 -93h-239v328h-93v66h93v318h239q171 0 264.5 -92.5zM543 142.5q70 72.5 70 214.5q0 285 -277 285h-152v-248h194v-66h-194v-258h152q137 0 207 72.5z" />
    <glyph glyph-name="Ntilde" unicode="&#xd1;" horiz-adv-x="746" 
d="M581 712h78v-712h-64l-430 573v-573h-77v712h63l430 -573v573zM234.5 879.5q24.5 30.5 65.5 30.5q21 0 40 -8.5t45 -24.5q21 -13 33.5 -19t24.5 -6q22 0 34.5 16t12.5 39h45q0 -55 -24.5 -85.5t-65.5 -30.5q-21 0 -40 8.5t-45 24.5q-21 13 -33.5 19t-24.5 6
q-22 0 -34.5 -16t-12.5 -39h-45q0 55 24.5 85.5z" />
    <glyph glyph-name="Ograve" unicode="&#xd2;" horiz-adv-x="772" 
d="M214 36q-73 44 -112.5 126.5t-39.5 193.5q0 112 39 194t112 126t173 44t173 -44t112 -126t39 -193q0 -112 -39.5 -194t-112.5 -126.5t-172 -44.5t-172 44zM562 139q63 77 63 218t-62.5 217t-176.5 76t-177 -76.5t-63 -216.5q0 -141 63 -218t177 -77q113 0 176 77z
M356 773l-134 153h89l102 -153h-57z" />
    <glyph glyph-name="Oacute" unicode="&#xd3;" horiz-adv-x="772" 
d="M214 36q-73 44 -112.5 126.5t-39.5 193.5q0 112 39 194t112 126t173 44t173 -44t112 -126t39 -193q0 -112 -39.5 -194t-112.5 -126.5t-172 -44.5t-172 44zM562 139q63 77 63 218t-62.5 217t-176.5 76t-177 -76.5t-63 -216.5q0 -141 63 -218t177 -77q113 0 176 77z
M413 773h-57l102 153h89z" />
    <glyph glyph-name="Ocircumflex" unicode="&#xd4;" horiz-adv-x="772" 
d="M214 36q-73 44 -112.5 126.5t-39.5 193.5q0 112 39 194t112 126t173 44t173 -44t112 -126t39 -193q0 -112 -39.5 -194t-112.5 -126.5t-172 -44.5t-172 44zM562 139q63 77 63 218t-62.5 217t-176.5 76t-177 -76.5t-63 -216.5q0 -141 63 -218t177 -77q113 0 176 77z
M311 773h-74l120 153h55l120 -153h-74l-73 104z" />
    <glyph glyph-name="Otilde" unicode="&#xd5;" horiz-adv-x="772" 
d="M214 36q-73 44 -112.5 126.5t-39.5 193.5q0 112 39 194t112 126t173 44t173 -44t112 -126t39 -193q0 -112 -39.5 -194t-112.5 -126.5t-172 -44.5t-172 44zM562 139q63 77 63 218t-62.5 217t-176.5 76t-177 -76.5t-63 -216.5q0 -141 63 -218t177 -77q113 0 176 77z
M246.5 879.5q24.5 30.5 65.5 30.5q21 0 40 -8.5t45 -24.5q21 -13 33.5 -19t24.5 -6q22 0 34.5 16t12.5 39h45q0 -55 -24.5 -85.5t-65.5 -30.5q-21 0 -40 8.5t-45 24.5q-21 13 -33.5 19t-24.5 6q-22 0 -34.5 -16t-12.5 -39h-45q0 55 24.5 85.5z" />
    <glyph glyph-name="Odieresis" unicode="&#xd6;" horiz-adv-x="772" 
d="M214 36q-73 44 -112.5 126.5t-39.5 193.5q0 112 39 194t112 126t173 44t173 -44t112 -126t39 -193q0 -112 -39.5 -194t-112.5 -126.5t-172 -44.5t-172 44zM562 139q63 77 63 218t-62.5 217t-176.5 76t-177 -76.5t-63 -216.5q0 -141 63 -218t177 -77q113 0 176 77z
M253 893h90v-86h-90v86zM426 893h90v-86h-90v86z" />
    <glyph glyph-name="multiply" unicode="&#xd7;" 
d="M536 480l-192 -192l192 -193l-44 -43l-192 192l-192 -192l-44 43l192 193l-192 192l44 44l192 -192l192 192z" />
    <glyph glyph-name="Oslash" unicode="&#xd8;" horiz-adv-x="772" 
d="M680.5 528.5q29.5 -74.5 29.5 -171.5q0 -112 -39.5 -194t-112.5 -126.5t-172 -44.5q-86 0 -154 34l-43 -73l-57 33l45 77q-56 47 -85.5 122t-29.5 171q0 112 39 194t112 126t173 44q86 0 154 -34l43 73l56 -33l-44 -76q56 -47 85.5 -121.5zM216 131l288 492
q-51 27 -118 27q-114 0 -177 -76.5t-63 -216.5q0 -148 70 -226zM562 139q63 77 63 218q0 150 -70 225l-287 -492q50 -28 118 -28q113 0 176 77z" />
    <glyph glyph-name="Ugrave" unicode="&#xd9;" horiz-adv-x="731" 
d="M154.5 64.5q-71.5 72.5 -71.5 214.5v433h81v-440q0 -104 51 -157t151 -53q99 0 149.5 53t50.5 157v440h82v-433q0 -141 -72 -214t-210 -73q-140 0 -211.5 72.5zM337 773l-134 153h89l102 -153h-57z" />
    <glyph glyph-name="Uacute" unicode="&#xda;" horiz-adv-x="731" 
d="M154.5 64.5q-71.5 72.5 -71.5 214.5v433h81v-440q0 -104 51 -157t151 -53q99 0 149.5 53t50.5 157v440h82v-433q0 -141 -72 -214t-210 -73q-140 0 -211.5 72.5zM394 773h-57l102 153h89z" />
    <glyph glyph-name="Ucircumflex" unicode="&#xdb;" horiz-adv-x="731" 
d="M154.5 64.5q-71.5 72.5 -71.5 214.5v433h81v-440q0 -104 51 -157t151 -53q99 0 149.5 53t50.5 157v440h82v-433q0 -141 -72 -214t-210 -73q-140 0 -211.5 72.5zM292 773h-74l120 153h55l120 -153h-74l-73 104z" />
    <glyph glyph-name="Udieresis" unicode="&#xdc;" horiz-adv-x="731" 
d="M154.5 64.5q-71.5 72.5 -71.5 214.5v433h81v-440q0 -104 51 -157t151 -53q99 0 149.5 53t50.5 157v440h82v-433q0 -141 -72 -214t-210 -73q-140 0 -211.5 72.5zM234 893h90v-86h-90v86zM407 893h90v-86h-90v86z" />
    <glyph glyph-name="Yacute" unicode="&#xdd;" horiz-adv-x="607" 
d="M624 712l-280 -424v-288h-82v289l-280 423h96l226 -350l226 350h94zM331 773h-57l102 153h89z" />
    <glyph glyph-name="Thorn" unicode="&#xde;" horiz-adv-x="651" 
d="M545.5 505q59.5 -50 59.5 -142t-60 -143t-168 -51h-208v-169h-81v712h81v-157h208q109 0 168.5 -50zM485.5 268q38.5 31 38.5 95t-38 94t-118 30h-199v-250h199q79 0 117.5 31z" />
    <glyph glyph-name="germandbls" unicode="&#xdf;" horiz-adv-x="634" 
d="M543.5 287.5q58.5 -54.5 58.5 -131.5q0 -75 -51 -119t-138 -44q-55 0 -104 17t-83 48l28 62q41 -32 80 -46.5t81 -14.5q54 0 81.5 25.5t27.5 73.5q0 56 -56.5 97.5t-194.5 78.5v62q91 35 127.5 77.5t36.5 101.5q0 49 -30 75t-88 26q-78 0 -119 -43.5t-41 -129.5v-503h-81
v494q0 120 62.5 183.5t178.5 63.5q91 0 143 -43.5t52 -121.5q0 -67 -35.5 -116.5t-119.5 -86.5q126 -31 184.5 -85.5z" />
    <glyph glyph-name="agrave" unicode="&#xe0;" 
d="M521 503v-503h-80v91q-22 -47 -66.5 -72.5t-103.5 -25.5q-67 0 -117.5 32t-78 90.5t-27.5 136.5t28 137.5t78.5 92.5t116.5 33q59 0 103 -26t67 -73v87h80zM401 110.5q40 50.5 40 143.5t-40 143t-114 50t-115.5 -51.5t-41.5 -143.5t41 -142t116 -50q74 0 114 50.5z
M272 568l-137 204h94l100 -204h-57z" />
    <glyph glyph-name="aacute" unicode="&#xe1;" 
d="M521 503v-503h-80v91q-22 -47 -66.5 -72.5t-103.5 -25.5q-67 0 -117.5 32t-78 90.5t-27.5 136.5t28 137.5t78.5 92.5t116.5 33q59 0 103 -26t67 -73v87h80zM401 110.5q40 50.5 40 143.5t-40 143t-114 50t-115.5 -51.5t-41.5 -143.5t41 -142t116 -50q74 0 114 50.5z
M329 568h-57l100 204h94z" />
    <glyph glyph-name="acircumflex" unicode="&#xe2;" 
d="M521 503v-503h-80v91q-22 -47 -66.5 -72.5t-103.5 -25.5q-67 0 -117.5 32t-78 90.5t-27.5 136.5t28 137.5t78.5 92.5t116.5 33q59 0 103 -26t67 -73v87h80zM401 110.5q40 50.5 40 143.5t-40 143t-114 50t-115.5 -51.5t-41.5 -143.5t41 -142t116 -50q74 0 114 50.5z
M228 568h-75l119 204h57l119 -204h-75l-72 144z" />
    <glyph glyph-name="atilde" unicode="&#xe3;" 
d="M521 503v-503h-80v91q-22 -47 -66.5 -72.5t-103.5 -25.5q-67 0 -117.5 32t-78 90.5t-27.5 136.5t28 137.5t78.5 92.5t116.5 33q59 0 103 -26t67 -73v87h80zM401 110.5q40 50.5 40 143.5t-40 143t-114 50t-115.5 -51.5t-41.5 -143.5t41 -142t116 -50q74 0 114 50.5z
M162.5 700q24.5 30 65.5 30q21 0 40 -8.5t45 -24.5q21 -13 33.5 -19t24.5 -6q22 0 34.5 16t12.5 39h45q0 -55 -24.5 -85t-65.5 -30q-21 0 -40 8.5t-45 24.5q-21 13 -33.5 19t-24.5 6q-22 0 -34.5 -16t-12.5 -39h-45q0 55 24.5 85z" />
    <glyph glyph-name="adieresis" unicode="&#xe4;" 
d="M521 503v-503h-80v91q-22 -47 -66.5 -72.5t-103.5 -25.5q-67 0 -117.5 32t-78 90.5t-27.5 136.5t28 137.5t78.5 92.5t116.5 33q59 0 103 -26t67 -73v87h80zM401 110.5q40 50.5 40 143.5t-40 143t-114 50t-115.5 -51.5t-41.5 -143.5t41 -142t116 -50q74 0 114 50.5z
M169 713h90v-86h-90v86zM342 713h90v-86h-90v86z" />
    <glyph glyph-name="aring" unicode="&#xe5;" 
d="M521 503v-503h-80v91q-22 -47 -66.5 -72.5t-103.5 -25.5q-67 0 -117.5 32t-78 90.5t-27.5 136.5t28 137.5t78.5 92.5t116.5 33q59 0 103 -26t67 -73v87h80zM401 110.5q40 50.5 40 143.5t-40 143t-114 50t-115.5 -51.5t-41.5 -143.5t41 -142t116 -50q74 0 114 50.5z
M228.5 598.5q-29.5 28.5 -29.5 71.5q0 42 29.5 71t72.5 29q42 0 71.5 -29t29.5 -71t-29.5 -71t-71.5 -29q-43 0 -72.5 28.5zM335.5 633.5q13.5 14.5 13.5 36.5q0 21 -13.5 35.5t-34.5 14.5t-35 -14.5t-14 -35.5q0 -22 13.5 -36.5t35.5 -14.5q21 0 34.5 14.5z" />
    <glyph glyph-name="ae" unicode="&#xe6;" horiz-adv-x="881" 
d="M474 254v-1q0 -93 43 -143t126 -50q81 0 158 59l26 -59q-32 -31 -83 -49t-103 -18q-76 0 -130 33.5t-81 96.5q-20 -62 -68 -96t-116 -34q-53 0 -95 20t-66 56.5t-24 82.5q0 56 28.5 89.5t92.5 49.5t172 16h40v16q0 66 -25.5 95.5t-84.5 29.5q-86 0 -175 -54l-27 59
q38 28 93.5 45t107.5 17q127 0 168 -90q30 43 75.5 66.5t101.5 23.5q97 0 152.5 -66.5t55.5 -180.5v-14h-362zM527 414.5q-39 -37.5 -49 -107.5h285q-5 70 -40.5 107.5t-95.5 37.5q-61 0 -100 -37.5zM355.5 100.5q38.5 43.5 38.5 112.5v42h-36q-81 0 -127.5 -10.5t-66.5 -32
t-20 -57.5q0 -44 30.5 -71t79.5 -27q63 0 101.5 43.5z" />
    <glyph glyph-name="ccedilla" unicode="&#xe7;" horiz-adv-x="495" 
d="M395.5 12.5q-44.5 -17.5 -92.5 -19.5l-4 -36q16 2 24 2q32 0 54.5 -18t22.5 -52q0 -37 -31 -60.5t-86 -23.5q-21 0 -46 5t-43 14l13 44q36 -14 76 -14q27 0 41.5 9t14.5 26q0 13 -9 20t-26 7q-23 0 -46 -9l-20 16l8 73q-92 13 -145 81.5t-53 174.5q0 78 30 137.5
t85.5 92.5t129.5 33q51 0 98.5 -17.5t78.5 -48.5l-27 -60q-38 30 -73.5 44t-72.5 14q-77 0 -121 -51.5t-44 -143.5q0 -91 43.5 -141.5t121.5 -50.5q37 0 72.5 14t73.5 44l27 -60q-30 -28 -74.5 -45.5z" />
    <glyph glyph-name="egrave" unicode="&#xe8;" horiz-adv-x="544" 
d="M499 254h-369q1 -96 44.5 -145t126.5 -49q88 0 162 59l27 -59q-33 -31 -84.5 -49t-105.5 -18q-118 0 -185 69.5t-67 190.5q0 77 30 136.5t84 92.5t123 33q100 0 157 -65.5t57 -180.5v-15zM183.5 414q-39.5 -38 -50.5 -107h293q-6 71 -41.5 108t-98.5 37t-102.5 -38z
M256 568l-137 204h94l100 -204h-57z" />
    <glyph glyph-name="eacute" unicode="&#xe9;" horiz-adv-x="544" 
d="M499 254h-369q1 -96 44.5 -145t126.5 -49q88 0 162 59l27 -59q-33 -31 -84.5 -49t-105.5 -18q-118 0 -185 69.5t-67 190.5q0 77 30 136.5t84 92.5t123 33q100 0 157 -65.5t57 -180.5v-15zM183.5 414q-39.5 -38 -50.5 -107h293q-6 71 -41.5 108t-98.5 37t-102.5 -38z
M313 568h-57l100 204h94z" />
    <glyph glyph-name="ecircumflex" unicode="&#xea;" horiz-adv-x="544" 
d="M499 254h-369q1 -96 44.5 -145t126.5 -49q88 0 162 59l27 -59q-33 -31 -84.5 -49t-105.5 -18q-118 0 -185 69.5t-67 190.5q0 77 30 136.5t84 92.5t123 33q100 0 157 -65.5t57 -180.5v-15zM183.5 414q-39.5 -38 -50.5 -107h293q-6 71 -41.5 108t-98.5 37t-102.5 -38z
M212 568h-75l119 204h57l119 -204h-75l-72 144z" />
    <glyph glyph-name="edieresis" unicode="&#xeb;" horiz-adv-x="544" 
d="M499 254h-369q1 -96 44.5 -145t126.5 -49q88 0 162 59l27 -59q-33 -31 -84.5 -49t-105.5 -18q-118 0 -185 69.5t-67 190.5q0 77 30 136.5t84 92.5t123 33q100 0 157 -65.5t57 -180.5v-15zM183.5 414q-39.5 -38 -50.5 -107h293q-6 71 -41.5 108t-98.5 37t-102.5 -38z
M153 713h90v-86h-90v86zM326 713h90v-86h-90v86z" />
    <glyph glyph-name="igrave" unicode="&#xec;" horiz-adv-x="238" 
d="M78 0v503h81v-503h-81zM91 568l-137 204h94l100 -204h-57z" />
    <glyph glyph-name="iacute" unicode="&#xed;" horiz-adv-x="238" 
d="M78 0v503h81v-503h-81zM148 568h-57l100 204h94z" />
    <glyph glyph-name="icircumflex" unicode="&#xee;" horiz-adv-x="238" 
d="M78 0v503h81v-503h-81zM47 568h-75l119 204h57l119 -204h-75l-72 144z" />
    <glyph glyph-name="idieresis" unicode="&#xef;" horiz-adv-x="238" 
d="M78 0v503h81v-503h-81zM-12 713h90v-86h-90v86zM161 713h90v-86h-90v86z" />
    <glyph glyph-name="eth" unicode="&#xf0;" horiz-adv-x="576" 
d="M500.5 469.5q27.5 -78.5 27.5 -172.5q0 -149 -62.5 -226.5t-181.5 -77.5q-70 0 -123.5 29.5t-83 83.5t-29.5 125t29 125.5t82 84t122 29.5q110 0 163 -75q-19 112 -95 186l-165 -59l-17 51l134 48q-58 42 -139 63l21 60q113 -29 194 -95l132 47l16 -51l-105 -38
q53 -59 80.5 -137.5zM400 105.5q41 45.5 41 125.5q0 82 -40.5 127t-114.5 45t-115 -45t-41 -127t40.5 -126.5t115.5 -44.5q73 0 114 45.5z" />
    <glyph glyph-name="ntilde" unicode="&#xf1;" horiz-adv-x="585" 
d="M510 316v-316h-81v312q0 70 -28 102.5t-88 32.5q-70 0 -112 -43t-42 -116v-288h-81v362q0 78 -8 141h77l8 -90q23 49 69 75.5t105 26.5q181 0 181 -199zM155.5 700q24.5 30 65.5 30q21 0 40 -8.5t45 -24.5q21 -13 33.5 -19t24.5 -6q22 0 34.5 16t12.5 39h45
q0 -55 -24.5 -85t-65.5 -30q-21 0 -40 8.5t-45 24.5q-21 13 -33.5 19t-24.5 6q-22 0 -34.5 -16t-12.5 -39h-45q0 55 24.5 85z" />
    <glyph glyph-name="ograve" unicode="&#xf2;" horiz-adv-x="572" 
d="M161 25q-54 32 -83.5 91t-29.5 138t29.5 138t83.5 91t125 32t125 -32t83.5 -91t29.5 -138t-29.5 -138t-83.5 -91t-125 -32t-125 32zM401 109.5q40 49.5 40 144.5q0 92 -41 142.5t-114 50.5q-74 0 -115 -50.5t-41 -142.5q0 -95 40.5 -144.5t115.5 -49.5t115 49.5zM257 568
l-137 204h94l100 -204h-57z" />
    <glyph glyph-name="oacute" unicode="&#xf3;" horiz-adv-x="572" 
d="M161 25q-54 32 -83.5 91t-29.5 138t29.5 138t83.5 91t125 32t125 -32t83.5 -91t29.5 -138t-29.5 -138t-83.5 -91t-125 -32t-125 32zM401 109.5q40 49.5 40 144.5q0 92 -41 142.5t-114 50.5q-74 0 -115 -50.5t-41 -142.5q0 -95 40.5 -144.5t115.5 -49.5t115 49.5zM314 568
h-57l100 204h94z" />
    <glyph glyph-name="ocircumflex" unicode="&#xf4;" horiz-adv-x="572" 
d="M161 25q-54 32 -83.5 91t-29.5 138t29.5 138t83.5 91t125 32t125 -32t83.5 -91t29.5 -138t-29.5 -138t-83.5 -91t-125 -32t-125 32zM401 109.5q40 49.5 40 144.5q0 92 -41 142.5t-114 50.5q-74 0 -115 -50.5t-41 -142.5q0 -95 40.5 -144.5t115.5 -49.5t115 49.5zM213 568
h-75l119 204h57l119 -204h-75l-72 144z" />
    <glyph glyph-name="otilde" unicode="&#xf5;" horiz-adv-x="572" 
d="M161 25q-54 32 -83.5 91t-29.5 138t29.5 138t83.5 91t125 32t125 -32t83.5 -91t29.5 -138t-29.5 -138t-83.5 -91t-125 -32t-125 32zM401 109.5q40 49.5 40 144.5q0 92 -41 142.5t-114 50.5q-74 0 -115 -50.5t-41 -142.5q0 -95 40.5 -144.5t115.5 -49.5t115 49.5z
M147.5 700q24.5 30 65.5 30q21 0 40 -8.5t45 -24.5q21 -13 33.5 -19t24.5 -6q22 0 34.5 16t12.5 39h45q0 -55 -24.5 -85t-65.5 -30q-21 0 -40 8.5t-45 24.5q-21 13 -33.5 19t-24.5 6q-22 0 -34.5 -16t-12.5 -39h-45q0 55 24.5 85z" />
    <glyph glyph-name="odieresis" unicode="&#xf6;" horiz-adv-x="572" 
d="M161 25q-54 32 -83.5 91t-29.5 138t29.5 138t83.5 91t125 32t125 -32t83.5 -91t29.5 -138t-29.5 -138t-83.5 -91t-125 -32t-125 32zM401 109.5q40 49.5 40 144.5q0 92 -41 142.5t-114 50.5q-74 0 -115 -50.5t-41 -142.5q0 -95 40.5 -144.5t115.5 -49.5t115 49.5zM154 713
h90v-86h-90v86zM327 713h90v-86h-90v86z" />
    <glyph glyph-name="divide" unicode="&#xf7;" 
d="M247 439v96h94v-96h-94zM546 319v-63h-492v63h492zM247 38v96h94v-96h-94z" />
    <glyph glyph-name="oslash" unicode="&#xf8;" horiz-adv-x="572" 
d="M502 374.5q22 -53.5 22 -120.5q0 -79 -29.5 -138t-83.5 -91t-125 -32q-57 0 -106 22l-36 -62l-49 29l37 64q-40 34 -62 87.5t-22 120.5q0 79 29.5 138t83.5 91t125 32q57 0 106 -22l35 60l50 -27l-37 -64q40 -34 62 -87.5zM170 110l187 323q-30 15 -71 15
q-74 0 -115 -50.5t-41 -143.5t40 -144zM401.5 109.5q40.5 49.5 40.5 144.5q0 91 -40 142l-187 -322q31 -14 71 -14q75 0 115.5 49.5z" />
    <glyph glyph-name="ugrave" unicode="&#xf9;" horiz-adv-x="577" 
d="M499 503v-503h-79v87q-24 -46 -67 -70t-97 -24q-89 0 -135 50t-46 148v312h81v-310q0 -68 28 -100t85 -32q67 0 108 43.5t41 114.5v284h81zM260 568l-137 204h94l100 -204h-57z" />
    <glyph glyph-name="uacute" unicode="&#xfa;" horiz-adv-x="577" 
d="M499 503v-503h-79v87q-24 -46 -67 -70t-97 -24q-89 0 -135 50t-46 148v312h81v-310q0 -68 28 -100t85 -32q67 0 108 43.5t41 114.5v284h81zM317 568h-57l100 204h94z" />
    <glyph glyph-name="ucircumflex" unicode="&#xfb;" horiz-adv-x="577" 
d="M499 503v-503h-79v87q-24 -46 -67 -70t-97 -24q-89 0 -135 50t-46 148v312h81v-310q0 -68 28 -100t85 -32q67 0 108 43.5t41 114.5v284h81zM216 568h-75l119 204h57l119 -204h-75l-72 144z" />
    <glyph glyph-name="udieresis" unicode="&#xfc;" horiz-adv-x="577" 
d="M499 503v-503h-79v87q-24 -46 -67 -70t-97 -24q-89 0 -135 50t-46 148v312h81v-310q0 -68 28 -100t85 -32q67 0 108 43.5t41 114.5v284h81zM157 713h90v-86h-90v86zM330 713h90v-86h-90v86z" />
    <glyph glyph-name="yacute" unicode="&#xfd;" horiz-adv-x="531" 
d="M520 503l-235 -549q-37 -86 -93 -126t-138 -55l-17 63q71 16 107.5 42.5t60.5 81.5l20 45l-213 498h85l170 -415l172 415h81zM294 568h-57l100 204h94z" />
    <glyph glyph-name="thorn" unicode="&#xfe;" 
d="M444 483q51 -32 80 -92t29 -139q0 -80 -29 -138.5t-79.5 -89.5t-115.5 -31q-59 0 -103 26t-67 74v-309h-81v952h81v-322q22 49 66.5 75t103.5 26q64 0 115 -32zM429 110.5q40 50.5 40 141.5t-40.5 143t-114.5 52q-75 0 -115 -50t-40 -143t40 -143.5t115 -50.5t115 50.5z
" />
    <glyph glyph-name="ydieresis" unicode="&#xff;" horiz-adv-x="531" 
d="M520 503l-235 -549q-37 -86 -93 -126t-138 -55l-17 63q71 16 107.5 42.5t60.5 81.5l20 45l-213 498h85l170 -415l172 415h81zM134 713h90v-86h-90v86zM307 713h90v-86h-90v86z" />
    <glyph glyph-name="Amacron" unicode="&#x100;" horiz-adv-x="734" 
d="M632 0l-78 183h-372l-79 -183h-85l313 712h72l313 -712h-84zM211 251h314l-157 366zM215 819v62h303v-62h-303z" />
    <glyph glyph-name="amacron" unicode="&#x101;" 
d="M521 503v-503h-80v91q-22 -47 -66.5 -72.5t-103.5 -25.5q-67 0 -117.5 32t-78 90.5t-27.5 136.5t28 137.5t78.5 92.5t116.5 33q59 0 103 -26t67 -73v87h80zM401 110.5q40 50.5 40 143.5t-40 143t-114 50t-115.5 -51.5t-41.5 -143.5t41 -142t116 -50q74 0 114 50.5z
M149 639v62h303v-62h-303z" />
    <glyph glyph-name="Abreve" unicode="&#x102;" horiz-adv-x="734" 
d="M632 0l-78 183h-372l-79 -183h-85l313 712h72l313 -712h-84zM211 251h314l-157 366zM267 810.5q-43 25.5 -65 81.5l51 22q23 -40 50 -55.5t64 -15.5t63.5 15.5t49.5 55.5l51 -22q-22 -56 -65 -81.5t-99 -25.5q-57 0 -100 25.5z" />
    <glyph glyph-name="abreve" unicode="&#x103;" 
d="M521 503v-503h-80v91q-22 -47 -66.5 -72.5t-103.5 -25.5q-67 0 -117.5 32t-78 90.5t-27.5 136.5t28 137.5t78.5 92.5t116.5 33q59 0 103 -26t67 -73v87h80zM401 110.5q40 50.5 40 143.5t-40 143t-114 50t-115.5 -51.5t-41.5 -143.5t41 -142t116 -50q74 0 114 50.5z
M200 629.5q-45 31.5 -66 96.5l51 22q22 -48 51 -69t65 -21q73 0 115 90l51 -22q-21 -65 -65.5 -96.5t-100.5 -31.5t-101 31.5z" />
    <glyph glyph-name="Aogonek" unicode="&#x104;" horiz-adv-x="734" 
d="M750 -172q-39 -23 -86 -23q-52 0 -85.5 29.5t-33.5 76.5q0 37 19.5 66.5t56.5 47.5l-67 158h-372l-79 -183h-85l313 712h72l313 -712h-19q-43 0 -65.5 -22t-22.5 -56q0 -30 17.5 -46.5t48.5 -16.5q27 0 58 17zM211 251h314l-157 366z" />
    <glyph glyph-name="aogonek" unicode="&#x105;" 
d="M568 -176q-37 -23 -89 -23q-53 0 -86.5 30t-33.5 79q0 38 21.5 68.5t60.5 47.5v65q-22 -47 -66.5 -72.5t-103.5 -25.5q-67 0 -117.5 32t-78 90.5t-27.5 136.5t28 137.5t78.5 92.5t116.5 33q59 0 103 -26t67 -73v87h80v-503h-5q-41 0 -67 -22.5t-26 -57.5q0 -31 18 -48.5
t50 -17.5q25 0 60 19zM401 110.5q40 50.5 40 143.5t-40 143t-114 50t-115.5 -51.5t-41.5 -143.5t41 -142t116 -50q74 0 114 50.5z" />
    <glyph glyph-name="Cacute" unicode="&#x106;" horiz-adv-x="684" 
d="M216.5 36q-74.5 44 -114.5 126.5t-40 194.5t40 193.5t114.5 125.5t175.5 44q74 0 135.5 -22.5t106.5 -67.5l-31 -63q-51 44 -100.5 63t-109.5 19q-117 0 -181.5 -76t-64.5 -216q0 -141 64 -217.5t182 -76.5q60 0 109.5 19t100.5 63l31 -63q-45 -45 -106.5 -67.5
t-135.5 -22.5q-101 0 -175.5 44zM418 773h-57l102 153h89z" />
    <glyph glyph-name="cacute" unicode="&#x107;" horiz-adv-x="495" 
d="M161.5 25q-54.5 32 -84 90.5t-29.5 136.5t30 137.5t85.5 92.5t129.5 33q51 0 98.5 -17.5t78.5 -48.5l-27 -60q-38 30 -73.5 44t-72.5 14q-77 0 -121 -51.5t-44 -143.5q0 -91 43.5 -141.5t121.5 -50.5q37 0 72.5 14t73.5 44l27 -60q-32 -30 -80.5 -47.5t-100.5 -17.5
q-73 0 -127.5 32zM317 568h-57l100 204h94z" />
    <glyph glyph-name="Ccircumflex" unicode="&#x108;" horiz-adv-x="684" 
d="M216.5 36q-74.5 44 -114.5 126.5t-40 194.5t40 193.5t114.5 125.5t175.5 44q74 0 135.5 -22.5t106.5 -67.5l-31 -63q-51 44 -100.5 63t-109.5 19q-117 0 -181.5 -76t-64.5 -216q0 -141 64 -217.5t182 -76.5q60 0 109.5 19t100.5 63l31 -63q-45 -45 -106.5 -67.5
t-135.5 -22.5q-101 0 -175.5 44zM316 773h-74l120 153h55l120 -153h-74l-73 104z" />
    <glyph glyph-name="ccircumflex" unicode="&#x109;" horiz-adv-x="495" 
d="M161.5 25q-54.5 32 -84 90.5t-29.5 136.5t30 137.5t85.5 92.5t129.5 33q51 0 98.5 -17.5t78.5 -48.5l-27 -60q-38 30 -73.5 44t-72.5 14q-77 0 -121 -51.5t-44 -143.5q0 -91 43.5 -141.5t121.5 -50.5q37 0 72.5 14t73.5 44l27 -60q-32 -30 -80.5 -47.5t-100.5 -17.5
q-73 0 -127.5 32zM216 568h-75l119 204h57l119 -204h-75l-72 144z" />
    <glyph glyph-name="Cdotaccent" unicode="&#x10a;" horiz-adv-x="684" 
d="M216.5 36q-74.5 44 -114.5 126.5t-40 194.5t40 193.5t114.5 125.5t175.5 44q74 0 135.5 -22.5t106.5 -67.5l-31 -63q-51 44 -100.5 63t-109.5 19q-117 0 -181.5 -76t-64.5 -216q0 -141 64 -217.5t182 -76.5q60 0 109.5 19t100.5 63l31 -63q-45 -45 -106.5 -67.5
t-135.5 -22.5q-101 0 -175.5 44zM340 896h99v-92h-99v92z" />
    <glyph glyph-name="cdotaccent" unicode="&#x10b;" horiz-adv-x="495" 
d="M161.5 25q-54.5 32 -84 90.5t-29.5 136.5t30 137.5t85.5 92.5t129.5 33q51 0 98.5 -17.5t78.5 -48.5l-27 -60q-38 30 -73.5 44t-72.5 14q-77 0 -121 -51.5t-44 -143.5q0 -91 43.5 -141.5t121.5 -50.5q37 0 72.5 14t73.5 44l27 -60q-32 -30 -80.5 -47.5t-100.5 -17.5
q-73 0 -127.5 32zM239 716h99v-92h-99v92z" />
    <glyph glyph-name="Ccaron" unicode="&#x10c;" horiz-adv-x="684" 
d="M216.5 36q-74.5 44 -114.5 126.5t-40 194.5t40 193.5t114.5 125.5t175.5 44q74 0 135.5 -22.5t106.5 -67.5l-31 -63q-51 44 -100.5 63t-109.5 19q-117 0 -181.5 -76t-64.5 -216q0 -141 64 -217.5t182 -76.5q60 0 109.5 19t100.5 63l31 -63q-45 -45 -106.5 -67.5
t-135.5 -22.5q-101 0 -175.5 44zM463 926h74l-120 -153h-55l-120 153h74l74 -105z" />
    <glyph glyph-name="ccaron" unicode="&#x10d;" horiz-adv-x="495" 
d="M161.5 25q-54.5 32 -84 90.5t-29.5 136.5t30 137.5t85.5 92.5t129.5 33q51 0 98.5 -17.5t78.5 -48.5l-27 -60q-38 30 -73.5 44t-72.5 14q-77 0 -121 -51.5t-44 -143.5q0 -91 43.5 -141.5t121.5 -50.5q37 0 72.5 14t73.5 44l27 -60q-32 -30 -80.5 -47.5t-100.5 -17.5
q-73 0 -127.5 32zM361 772h75l-119 -204h-57l-119 204h75l73 -145z" />
    <glyph glyph-name="Dcaron" unicode="&#x10e;" horiz-adv-x="746" 
d="M88 712h239q171 0 264.5 -92.5t93.5 -262.5q0 -171 -93.5 -264t-264.5 -93h-239v712zM322 70q138 0 207.5 72t69.5 215q0 285 -277 285h-152v-572h152zM446 926h74l-120 -153h-55l-120 153h74l74 -105z" />
    <glyph glyph-name="dcaron" unicode="&#x10f;" 
d="M440 736h81v-736h-80v91q-22 -47 -66.5 -72.5t-103.5 -25.5q-66 0 -116.5 33t-78.5 92.5t-28 137.5t27.5 136.5t78.5 90.5t117 32q59 0 103 -25.5t66 -71.5v318zM556 736h65l-27 -196h-38v196zM401 110.5q40 50.5 40 143.5q0 92 -40 142.5t-114 50.5t-115.5 -50
t-41.5 -141q0 -93 41.5 -144.5t115.5 -51.5t114 50.5z" />
    <glyph glyph-name="Dcroat" unicode="&#x110;" horiz-adv-x="760" 
d="M604.5 619.5q93.5 -92.5 93.5 -262.5q0 -171 -93.5 -264t-264.5 -93h-239v328h-93v66h93v318h239q171 0 264.5 -92.5zM543 142.5q70 72.5 70 214.5q0 285 -277 285h-152v-248h194v-66h-194v-258h152q137 0 207 72.5z" />
    <glyph glyph-name="dcroat" unicode="&#x111;" 
d="M617 582h-96v-582h-80v91q-22 -47 -66.5 -72.5t-103.5 -25.5q-66 0 -116.5 33t-78.5 92.5t-28 137.5t27.5 136.5t78.5 90.5t117 32q59 0 103 -25.5t66 -71.5v164h-199v61h199v93h81v-93h96v-61zM401 110.5q40 50.5 40 143.5q0 92 -40 142.5t-114 50.5t-115.5 -50
t-41.5 -141q0 -93 41.5 -144.5t115.5 -51.5t114 50.5z" />
    <glyph glyph-name="Emacron" unicode="&#x112;" horiz-adv-x="588" 
d="M88 0v712h450v-68h-369v-248h349v-69h-349v-259h369v-68h-450zM175 819v62h303v-62h-303z" />
    <glyph glyph-name="emacron" unicode="&#x113;" horiz-adv-x="544" 
d="M499 254h-369q1 -96 44.5 -145t126.5 -49q88 0 162 59l27 -59q-33 -31 -84.5 -49t-105.5 -18q-118 0 -185 69.5t-67 190.5q0 77 30 136.5t84 92.5t123 33q100 0 157 -65.5t57 -180.5v-15zM183.5 414q-39.5 -38 -50.5 -107h293q-6 71 -41.5 108t-98.5 37t-102.5 -38z
M133 639v62h303v-62h-303z" />
    <glyph glyph-name="Ebreve" unicode="&#x114;" horiz-adv-x="588" 
d="M88 0v712h450v-68h-369v-248h349v-69h-349v-259h369v-68h-450zM227 810.5q-43 25.5 -65 81.5l51 22q23 -40 50 -55.5t64 -15.5t63.5 15.5t49.5 55.5l51 -22q-22 -56 -65 -81.5t-99 -25.5q-57 0 -100 25.5z" />
    <glyph glyph-name="ebreve" unicode="&#x115;" horiz-adv-x="544" 
d="M499 254h-369q1 -96 44.5 -145t126.5 -49q88 0 162 59l27 -59q-33 -31 -84.5 -49t-105.5 -18q-118 0 -185 69.5t-67 190.5q0 77 30 136.5t84 92.5t123 33q100 0 157 -65.5t57 -180.5v-15zM183.5 414q-39.5 -38 -50.5 -107h293q-6 71 -41.5 108t-98.5 37t-102.5 -38z
M184 629.5q-45 31.5 -66 96.5l51 22q22 -48 51 -69t65 -21q73 0 115 90l51 -22q-21 -65 -65.5 -96.5t-100.5 -31.5t-101 31.5z" />
    <glyph glyph-name="Edotaccent" unicode="&#x116;" horiz-adv-x="588" 
d="M88 0v712h450v-68h-369v-248h349v-69h-349v-259h369v-68h-450zM277 896h99v-92h-99v92z" />
    <glyph glyph-name="edotaccent" unicode="&#x117;" horiz-adv-x="544" 
d="M499 254h-369q1 -96 44.5 -145t126.5 -49q88 0 162 59l27 -59q-33 -31 -84.5 -49t-105.5 -18q-118 0 -185 69.5t-67 190.5q0 77 30 136.5t84 92.5t123 33q100 0 157 -65.5t57 -180.5v-15zM183.5 414q-39.5 -38 -50.5 -107h293q-6 71 -41.5 108t-98.5 37t-102.5 -38z
M235 716h99v-92h-99v92z" />
    <glyph glyph-name="Eogonek" unicode="&#x118;" horiz-adv-x="588" 
d="M573 -172q-41 -23 -87 -23q-53 0 -85.5 30t-32.5 76q0 54 41 89h-321v712h450v-68h-369v-248h349v-69h-349v-259h369v-68h-15q-44 0 -68 -21.5t-24 -56.5q0 -30 18 -46.5t49 -16.5q26 0 58 17z" />
    <glyph glyph-name="eogonek" unicode="&#x119;" horiz-adv-x="544" 
d="M499 254h-369q1 -96 44.5 -145t126.5 -49q88 0 162 59l27 -58q-7 -8 -17.5 -15t-34.5 -20q-51 -28 -71.5 -52t-20.5 -54q0 -31 18 -48.5t49 -17.5q26 0 61 19l16 -49q-37 -23 -87 -23q-54 0 -87.5 30t-33.5 78q0 50 37 85q-6 -1 -19 -1q-118 0 -185 69.5t-67 190.5
q0 77 30 136.5t84 92.5t123 33q100 0 157 -65.5t57 -180.5v-15zM183.5 414q-39.5 -38 -49.5 -107h292q-6 71 -41.5 108t-98.5 37t-102.5 -38z" />
    <glyph glyph-name="Ecaron" unicode="&#x11a;" horiz-adv-x="588" 
d="M88 0v712h450v-68h-369v-248h349v-69h-349v-259h369v-68h-450zM400 926h74l-120 -153h-55l-120 153h74l74 -105z" />
    <glyph glyph-name="ecaron" unicode="&#x11b;" horiz-adv-x="544" 
d="M499 254h-369q1 -96 44.5 -145t126.5 -49q88 0 162 59l27 -59q-33 -31 -84.5 -49t-105.5 -18q-118 0 -185 69.5t-67 190.5q0 77 30 136.5t84 92.5t123 33q100 0 157 -65.5t57 -180.5v-15zM183.5 414q-39.5 -38 -50.5 -107h293q-6 71 -41.5 108t-98.5 37t-102.5 -38z
M357 772h75l-119 -204h-57l-119 204h75l73 -145z" />
    <glyph glyph-name="Gcircumflex" unicode="&#x11c;" horiz-adv-x="731" 
d="M651 371v-330q-42 -22 -110 -35.5t-138 -13.5q-106 0 -183 43.5t-117.5 125.5t-40.5 196q0 113 40.5 194.5t116 125t178.5 43.5q75 0 137.5 -22.5t107.5 -67.5l-32 -63q-52 44 -101.5 63.5t-111.5 19.5q-121 0 -185.5 -75.5t-64.5 -217.5q0 -145 66 -220.5t192 -75.5
q89 0 171 28v217h-177v65h252zM322 773h-74l120 153h55l120 -153h-74l-73 104z" />
    <glyph glyph-name="gcircumflex" unicode="&#x11d;" horiz-adv-x="604" 
d="M526 503v-499q0 -112 -57.5 -169.5t-169.5 -57.5q-115 0 -198 52l14 66q48 -27 90.5 -39t93.5 -12q73 0 110 38.5t37 114.5v119q-23 -48 -67.5 -74.5t-105.5 -26.5q-66 0 -117.5 31t-79.5 88t-28 131t28 131t79.5 88t117.5 31q60 0 104.5 -26t67.5 -73v87h81z
M403.5 131.5q41.5 48.5 41.5 133.5t-41.5 133.5t-114.5 48.5q-74 0 -116.5 -48.5t-42.5 -133.5t42.5 -133.5t116.5 -48.5q73 0 114.5 48.5zM231 568h-75l119 204h57l119 -204h-75l-72 144z" />
    <glyph glyph-name="Gbreve" unicode="&#x11e;" horiz-adv-x="731" 
d="M651 371v-330q-42 -22 -110 -35.5t-138 -13.5q-106 0 -183 43.5t-117.5 125.5t-40.5 196q0 113 40.5 194.5t116 125t178.5 43.5q75 0 137.5 -22.5t107.5 -67.5l-32 -63q-52 44 -101.5 63.5t-111.5 19.5q-121 0 -185.5 -75.5t-64.5 -217.5q0 -145 66 -220.5t192 -75.5
q89 0 171 28v217h-177v65h252zM296 810.5q-43 25.5 -65 81.5l51 22q23 -40 50 -55.5t64 -15.5t63.5 15.5t49.5 55.5l51 -22q-22 -56 -65 -81.5t-99 -25.5q-57 0 -100 25.5z" />
    <glyph glyph-name="gbreve" unicode="&#x11f;" horiz-adv-x="604" 
d="M526 503v-499q0 -112 -57.5 -169.5t-169.5 -57.5q-115 0 -198 52l14 66q48 -27 90.5 -39t93.5 -12q73 0 110 38.5t37 114.5v119q-23 -48 -67.5 -74.5t-105.5 -26.5q-66 0 -117.5 31t-79.5 88t-28 131t28 131t79.5 88t117.5 31q60 0 104.5 -26t67.5 -73v87h81z
M403.5 131.5q41.5 48.5 41.5 133.5t-41.5 133.5t-114.5 48.5q-74 0 -116.5 -48.5t-42.5 -133.5t42.5 -133.5t116.5 -48.5q73 0 114.5 48.5zM203 629.5q-45 31.5 -66 96.5l51 22q22 -48 51 -69t65 -21q73 0 115 90l51 -22q-21 -65 -65.5 -96.5t-100.5 -31.5t-101 31.5z" />
    <glyph glyph-name="Gdotaccent" unicode="&#x120;" horiz-adv-x="731" 
d="M651 371v-330q-42 -22 -110 -35.5t-138 -13.5q-106 0 -183 43.5t-117.5 125.5t-40.5 196q0 113 40.5 194.5t116 125t178.5 43.5q75 0 137.5 -22.5t107.5 -67.5l-32 -63q-52 44 -101.5 63.5t-111.5 19.5q-121 0 -185.5 -75.5t-64.5 -217.5q0 -145 66 -220.5t192 -75.5
q89 0 171 28v217h-177v65h252zM346 896h99v-92h-99v92z" />
    <glyph glyph-name="gdotaccent" unicode="&#x121;" horiz-adv-x="604" 
d="M526 503v-499q0 -112 -57.5 -169.5t-169.5 -57.5q-115 0 -198 52l14 66q48 -27 90.5 -39t93.5 -12q73 0 110 38.5t37 114.5v119q-23 -48 -67.5 -74.5t-105.5 -26.5q-66 0 -117.5 31t-79.5 88t-28 131t28 131t79.5 88t117.5 31q60 0 104.5 -26t67.5 -73v87h81z
M403.5 131.5q41.5 48.5 41.5 133.5t-41.5 133.5t-114.5 48.5q-74 0 -116.5 -48.5t-42.5 -133.5t42.5 -133.5t116.5 -48.5q73 0 114.5 48.5zM254 716h99v-92h-99v92z" />
    <glyph glyph-name="Gcommaaccent" unicode="&#x122;" horiz-adv-x="731" 
d="M651 371v-330q-42 -22 -110 -35.5t-138 -13.5q-106 0 -183 43.5t-117.5 125.5t-40.5 196q0 113 40.5 194.5t116 125t178.5 43.5q75 0 137.5 -22.5t107.5 -67.5l-32 -63q-52 44 -101.5 63.5t-111.5 19.5q-121 0 -185.5 -75.5t-64.5 -217.5q0 -145 66 -220.5t192 -75.5
q89 0 171 28v217h-177v65h252zM452 -73v-58q0 -40 -11.5 -71.5t-40.5 -59.5l-37 28q19 20 27 38t10 40h-47v83h99z" />
    <glyph glyph-name="gcommaaccent" unicode="&#x123;" horiz-adv-x="604" 
d="M526 503v-499q0 -112 -57.5 -169.5t-169.5 -57.5q-115 0 -198 52l14 66q48 -27 90.5 -39t93.5 -12q73 0 110 38.5t37 114.5v119q-23 -48 -67.5 -74.5t-105.5 -26.5q-66 0 -117.5 31t-79.5 88t-28 131t28 131t79.5 88t117.5 31q60 0 104.5 -26t67.5 -73v87h81z
M403.5 131.5q41.5 48.5 41.5 133.5t-41.5 133.5t-114.5 48.5q-74 0 -116.5 -48.5t-42.5 -133.5t42.5 -133.5t116.5 -48.5q73 0 114.5 48.5zM353 680v-83h-99v58q0 40 11.5 71.5t39.5 59.5l37 -28q-18 -19 -26 -37.5t-10 -40.5h47z" />
    <glyph glyph-name="Hcircumflex" unicode="&#x124;" horiz-adv-x="766" 
d="M596 712h82v-712h-82v327h-427v-327h-81v712h81v-316h427v316zM309 773h-74l120 153h55l120 -153h-74l-73 104z" />
    <glyph glyph-name="hcircumflex" unicode="&#x125;" horiz-adv-x="585" 
d="M510 316v-316h-81v312q0 70 -28 102.5t-88 32.5q-70 0 -112 -43t-42 -116v-288h-81v736h81v-315q24 46 68.5 70t101.5 24q181 0 181 -199zM46 797h-74l120 153h55l120 -153h-74l-73 104z" />
    <glyph glyph-name="Hbar" unicode="&#x126;" horiz-adv-x="793" 
d="M785 591v-66h-93v-525h-83v327h-425v-327h-83v525h-93v66h93v121h83v-121h425v121h83v-121h93zM609 396v129h-425v-129h425z" />
    <glyph glyph-name="hbar" unicode="&#x127;" horiz-adv-x="585" 
d="M510 316v-316h-81v312q0 70 -28 102.5t-88 32.5q-70 0 -112 -43t-42 -116v-288h-81v582h-95v61h95v93h81v-93h200v-61h-200v-161q24 46 68.5 70t101.5 24q181 0 181 -199z" />
    <glyph glyph-name="Itilde" unicode="&#x128;" horiz-adv-x="258" 
d="M88 0v712h82v-712h-82zM-9.5 879.5q24.5 30.5 65.5 30.5q21 0 40 -8.5t45 -24.5q21 -13 33.5 -19t24.5 -6q22 0 34.5 16t12.5 39h45q0 -55 -24.5 -85.5t-65.5 -30.5q-21 0 -40 8.5t-45 24.5q-21 13 -33.5 19t-24.5 6q-22 0 -34.5 -16t-12.5 -39h-45q0 55 24.5 85.5z" />
    <glyph glyph-name="itilde" unicode="&#x129;" horiz-adv-x="238" 
d="M78 0v503h81v-503h-81zM-18.5 700q24.5 30 65.5 30q21 0 40 -8.5t45 -24.5q21 -13 33.5 -19t24.5 -6q22 0 34.5 16t12.5 39h45q0 -55 -24.5 -85t-65.5 -30q-21 0 -40 8.5t-45 24.5q-21 13 -33.5 19t-24.5 6q-22 0 -34.5 -16t-12.5 -39h-45q0 55 24.5 85z" />
    <glyph glyph-name="Imacron" unicode="&#x12a;" horiz-adv-x="258" 
d="M88 0v712h82v-712h-82zM-23 819v62h303v-62h-303z" />
    <glyph glyph-name="imacron" unicode="&#x12b;" horiz-adv-x="238" 
d="M78 0v503h81v-503h-81zM-32 639v62h303v-62h-303z" />
    <glyph glyph-name="Ibreve" unicode="&#x12c;" horiz-adv-x="258" 
d="M88 0v712h82v-712h-82zM29 810.5q-43 25.5 -65 81.5l51 22q23 -40 50 -55.5t64 -15.5t63.5 15.5t49.5 55.5l51 -22q-22 -56 -65 -81.5t-99 -25.5q-57 0 -100 25.5z" />
    <glyph glyph-name="ibreve" unicode="&#x12d;" horiz-adv-x="238" 
d="M78 0v503h81v-503h-81zM19 629.5q-45 31.5 -66 96.5l51 22q22 -48 51 -69t65 -21q73 0 115 90l51 -22q-21 -65 -65.5 -96.5t-100.5 -31.5t-101 31.5z" />
    <glyph glyph-name="Iogonek" unicode="&#x12e;" horiz-adv-x="258" 
d="M214 -172q-39 -23 -86 -23q-53 0 -86 30t-33 77q0 36 20.5 65.5t58.5 46.5v688h82v-712h-7q-41 0 -65.5 -22.5t-24.5 -55.5q0 -30 18 -46.5t48 -16.5q27 0 59 17z" />
    <glyph glyph-name="iogonek" unicode="&#x12f;" horiz-adv-x="238" 
d="M169 720v-92h-100v92h100zM206 -176q-41 -23 -89 -23q-53 0 -86.5 30t-33.5 79q0 37 21 67t60 48v478h81v-503h-5q-44 0 -69 -23t-25 -57q0 -32 19 -49t51 -17q28 0 59 19z" />
    <glyph glyph-name="Idotaccent" unicode="&#x130;" horiz-adv-x="258" 
d="M88 0v712h82v-712h-82zM79 896h99v-92h-99v92z" />
    <glyph glyph-name="dotlessi" unicode="&#x131;" horiz-adv-x="238" 
d="M78 0v503h81v-503h-81z" />
    <glyph glyph-name="Jcircumflex" unicode="&#x134;" horiz-adv-x="329" 
d="M-5 -107q45 -8 72 -8q51 0 71.5 28.5t20.5 97.5v701h82v-702q0 -104 -37.5 -150t-123.5 -46q-34 0 -85 8v71zM126 773h-74l120 153h55l120 -153h-74l-73 104z" />
    <glyph glyph-name="jcircumflex" unicode="&#x135;" horiz-adv-x="238" 
d="M-6 -150q84 0 84 100v553h81v-563q0 -79 -39.5 -119.5t-108.5 -40.5q-33 0 -66 9v69q27 -8 49 -8zM46 568h-75l119 204h57l119 -204h-75l-72 144z" />
    <glyph glyph-name="Kcommaaccent" unicode="&#x136;" horiz-adv-x="634" 
d="M644 0h-107l-367 339v-339h-82v712h82v-327l350 327h105l-372 -347zM368 -73v-58q0 -40 -11.5 -71.5t-40.5 -59.5l-37 28q19 20 27 38t10 40h-47v83h99z" />
    <glyph glyph-name="kcommaaccent" unicode="&#x137;" horiz-adv-x="515" 
d="M523 0h-106l-258 242v-242h-81v736h81v-464l237 230h103l-252 -241zM306 -73v-58q0 -40 -11.5 -71.5t-40.5 -59.5l-37 28q19 20 27 38t10 40h-47v83h99z" />
    <glyph glyph-name="kgreenlandic" unicode="&#x138;" horiz-adv-x="515" 
d="M523 0h-106l-258 242v-242h-81v503h81v-231l237 230h103l-252 -241z" />
    <glyph glyph-name="Lacute" unicode="&#x139;" horiz-adv-x="545" 
d="M88 0v712h82v-642h357v-70h-439zM157 773h-57l102 153h89z" />
    <glyph glyph-name="lacute" unicode="&#x13a;" horiz-adv-x="238" 
d="M78 0v736h81v-736h-81zM148 797h-57l102 153h89z" />
    <glyph glyph-name="Lcommaaccent" unicode="&#x13b;" horiz-adv-x="545" 
d="M88 0v712h82v-642h357v-70h-439zM361 -73v-58q0 -40 -11.5 -71.5t-40.5 -59.5l-37 28q19 20 27 38t10 40h-47v83h99z" />
    <glyph glyph-name="lcommaaccent" unicode="&#x13c;" horiz-adv-x="238" 
d="M78 0v736h81v-736h-81zM169 -73v-58q0 -40 -11.5 -71.5t-40.5 -59.5l-37 28q19 20 27 38t10 40h-47v83h99z" />
    <glyph glyph-name="Lcaron" unicode="&#x13d;" horiz-adv-x="545" 
d="M88 0v712h82v-642h357v-70h-439zM299 520h-43v192h69z" />
    <glyph glyph-name="lcaron" unicode="&#x13e;" horiz-adv-x="238" 
d="M78 0v736h81v-736h-81zM235 540h-38v196h65z" />
    <glyph glyph-name="Ldot" unicode="&#x13f;" horiz-adv-x="545" 
d="M88 0v712h82v-642h357v-70h-439zM301 404h103v-95h-103v95z" />
    <glyph glyph-name="ldot" unicode="&#x140;" horiz-adv-x="267" 
d="M78 0v736h81v-736h-81zM195 406h103v-95h-103v95z" />
    <glyph glyph-name="Lslash" unicode="&#x141;" horiz-adv-x="559" 
d="M184 70h357v-70h-440v298l-92 -53v77l92 53v337h83v-289l189 109v-77l-189 -109v-276z" />
    <glyph glyph-name="lslash" unicode="&#x142;" horiz-adv-x="289" 
d="M297 417l-112 -64v-353h-81v306l-78 -45l-33 58l111 65v352h81v-305l78 45z" />
    <glyph glyph-name="Nacute" unicode="&#x143;" horiz-adv-x="746" 
d="M581 712h78v-712h-64l-430 573v-573h-77v712h63l430 -573v573zM401 773h-57l102 153h89z" />
    <glyph glyph-name="nacute" unicode="&#x144;" horiz-adv-x="585" 
d="M510 316v-316h-81v312q0 70 -28 102.5t-88 32.5q-70 0 -112 -43t-42 -116v-288h-81v362q0 78 -8 141h77l8 -90q23 49 69 75.5t105 26.5q181 0 181 -199zM322 568h-57l100 204h94z" />
    <glyph glyph-name="Ncommaaccent" unicode="&#x145;" horiz-adv-x="746" 
d="M581 712h78v-712h-64l-430 573v-573h-77v712h63l430 -573v573zM423 -73v-58q0 -40 -11.5 -71.5t-40.5 -59.5l-37 28q19 20 27 38t10 40h-47v83h99z" />
    <glyph glyph-name="ncommaaccent" unicode="&#x146;" horiz-adv-x="585" 
d="M510 316v-316h-81v312q0 70 -28 102.5t-88 32.5q-70 0 -112 -43t-42 -116v-288h-81v362q0 78 -8 141h77l8 -90q23 49 69 75.5t105 26.5q181 0 181 -199zM343 -73v-58q0 -40 -11.5 -71.5t-40.5 -59.5l-37 28q19 20 27 38t10 40h-47v83h99z" />
    <glyph glyph-name="Ncaron" unicode="&#x147;" horiz-adv-x="746" 
d="M581 712h78v-712h-64l-430 573v-573h-77v712h63l430 -573v573zM446 926h74l-120 -153h-55l-120 153h74l74 -105z" />
    <glyph glyph-name="ncaron" unicode="&#x148;" horiz-adv-x="585" 
d="M510 316v-316h-81v312q0 70 -28 102.5t-88 32.5q-70 0 -112 -43t-42 -116v-288h-81v362q0 78 -8 141h77l8 -90q23 49 69 75.5t105 26.5q181 0 181 -199zM366 772h75l-119 -204h-57l-119 204h75l73 -145z" />
    <glyph glyph-name="napostrophe" unicode="&#x149;" horiz-adv-x="585" 
d="M198 761v-58q0 -40 -11.5 -71.5t-39.5 -59.5l-37 28q19 20 26.5 38t9.5 40h-47v83h99zM510 316v-316h-81v312q0 70 -28 102.5t-88 32.5q-70 0 -112 -43t-42 -116v-288h-81v362q0 78 -8 141h77l8 -90q23 49 69 75.5t105 26.5q181 0 181 -199z" />
    <glyph glyph-name="Eng" unicode="&#x14a;" horiz-adv-x="746" 
d="M659 712v-711q0 -174 -178 -185l-66 -5l-5 68l60 4q53 4 82 32.5t29 81.5v22l-416 554v-573h-77v712h63l430 -573v573h78z" />
    <glyph glyph-name="eng" unicode="&#x14b;" horiz-adv-x="585" 
d="M510 316v-355q0 -181 -148 -181q-32 0 -66 8v70q27 -8 49 -8q40 0 62 26t22 95v341q0 70 -28 102.5t-88 32.5q-70 0 -112 -43t-42 -116v-288h-81v362q0 78 -8 141h77l8 -90q23 49 69 75.5t105 26.5q181 0 181 -199z" />
    <glyph glyph-name="Omacron" unicode="&#x14c;" horiz-adv-x="772" 
d="M214 36q-73 44 -112.5 126.5t-39.5 193.5q0 112 39 194t112 126t173 44t173 -44t112 -126t39 -193q0 -112 -39.5 -194t-112.5 -126.5t-172 -44.5t-172 44zM562 139q63 77 63 218t-62.5 217t-176.5 76t-177 -76.5t-63 -216.5q0 -141 63 -218t177 -77q113 0 176 77z
M233 819v62h303v-62h-303z" />
    <glyph glyph-name="omacron" unicode="&#x14d;" horiz-adv-x="572" 
d="M161 25q-54 32 -83.5 91t-29.5 138t29.5 138t83.5 91t125 32t125 -32t83.5 -91t29.5 -138t-29.5 -138t-83.5 -91t-125 -32t-125 32zM401 109.5q40 49.5 40 144.5q0 92 -41 142.5t-114 50.5q-74 0 -115 -50.5t-41 -142.5q0 -95 40.5 -144.5t115.5 -49.5t115 49.5zM134 639
v62h303v-62h-303z" />
    <glyph glyph-name="Obreve" unicode="&#x14e;" horiz-adv-x="772" 
d="M214 36q-73 44 -112.5 126.5t-39.5 193.5q0 112 39 194t112 126t173 44t173 -44t112 -126t39 -193q0 -112 -39.5 -194t-112.5 -126.5t-172 -44.5t-172 44zM562 139q63 77 63 218t-62.5 217t-176.5 76t-177 -76.5t-63 -216.5q0 -141 63 -218t177 -77q113 0 176 77z
M285 810.5q-43 25.5 -65 81.5l51 22q23 -40 50 -55.5t64 -15.5t63.5 15.5t49.5 55.5l51 -22q-22 -56 -65 -81.5t-99 -25.5q-57 0 -100 25.5z" />
    <glyph glyph-name="obreve" unicode="&#x14f;" horiz-adv-x="572" 
d="M161 25q-54 32 -83.5 91t-29.5 138t29.5 138t83.5 91t125 32t125 -32t83.5 -91t29.5 -138t-29.5 -138t-83.5 -91t-125 -32t-125 32zM401 109.5q40 49.5 40 144.5q0 92 -41 142.5t-114 50.5q-74 0 -115 -50.5t-41 -142.5q0 -95 40.5 -144.5t115.5 -49.5t115 49.5z
M185 629.5q-45 31.5 -66 96.5l51 22q22 -48 51 -69t65 -21q73 0 115 90l51 -22q-21 -65 -65.5 -96.5t-100.5 -31.5t-101 31.5z" />
    <glyph glyph-name="Ohungarumlaut" unicode="&#x150;" horiz-adv-x="772" 
d="M214 36q-73 44 -112.5 126.5t-39.5 193.5q0 112 39 194t112 126t173 44t173 -44t112 -126t39 -193q0 -112 -39.5 -194t-112.5 -126.5t-172 -44.5t-172 44zM562 139q63 77 63 218t-62.5 217t-176.5 76t-177 -76.5t-63 -216.5q0 -141 63 -218t177 -77q113 0 176 77z
M302 773l71 153h72l-99 -153h-44zM423 773l72 153h70l-98 -153h-44z" />
    <glyph glyph-name="ohungarumlaut" unicode="&#x151;" horiz-adv-x="572" 
d="M161 25q-54 32 -83.5 91t-29.5 138t29.5 138t83.5 91t125 32t125 -32t83.5 -91t29.5 -138t-29.5 -138t-83.5 -91t-125 -32t-125 32zM401 109.5q40 49.5 40 144.5q0 92 -41 142.5t-114 50.5q-74 0 -115 -50.5t-41 -142.5q0 -95 40.5 -144.5t115.5 -49.5t115 49.5zM245 568
h-41l46 204h75zM367 568h-41l45 204h76z" />
    <glyph glyph-name="OE" unicode="&#x152;" horiz-adv-x="1056" 
d="M637 644v-248h349v-69h-349v-259h369v-68h-447v46q-70 -54 -179 -54q-96 0 -168 44.5t-111 127t-39 192.5q0 111 39 193t110.5 126.5t168.5 44.5q108 0 179 -53v45h447v-68h-369zM209 139.5q63 -77.5 177 -77.5q109 0 170 57v475q-62 56 -170 56q-114 0 -177 -77
t-63 -216q0 -140 63 -217.5z" />
    <glyph glyph-name="oe" unicode="&#x153;" horiz-adv-x="933" 
d="M888 239h-365q5 -89 47 -134t121 -45q85 0 161 59l28 -59q-33 -31 -84.5 -49t-103.5 -18q-74 0 -127 31t-82 89q-28 -57 -79 -88.5t-119 -31.5q-71 0 -124.5 32t-83 91t-29.5 138t29.5 138t83 91t124.5 32q68 0 118.5 -31t78.5 -88q29 56 80 87.5t118 31.5q96 0 152 -66
t56 -180v-30zM573 410q-40 -42 -48 -118h292q-3 78 -38.5 119t-99.5 41q-66 0 -106 -42zM400 109.5q40 49.5 40 144.5q0 93 -40.5 143t-113.5 50q-74 0 -115 -50.5t-41 -142.5q0 -95 40 -144.5t115 -49.5t115 49.5z" />
    <glyph glyph-name="Racute" unicode="&#x154;" horiz-adv-x="693" 
d="M647 0h-87l-88 237q-16 44 -44.5 59t-80.5 15h-178v-311h-81v712h283q115 0 176.5 -51t61.5 -147q0 -70 -36.5 -117.5t-105.5 -67.5q31 -5 53 -26.5t37 -61.5zM364 379q164 0 164 134q0 66 -40 98.5t-124 32.5h-195v-265h195zM372 773h-57l102 153h89z" />
    <glyph glyph-name="racute" unicode="&#x155;" horiz-adv-x="362" 
d="M358 509l-2 -74q-23 8 -53 8q-73 0 -108.5 -45.5t-35.5 -110.5v-287h-81v362q0 78 -8 141h77l8 -93q19 51 61 78t96 27q25 0 46 -6zM249 568h-57l100 204h94z" />
    <glyph glyph-name="Rcommaaccent" unicode="&#x156;" horiz-adv-x="693" 
d="M647 0h-87l-88 237q-16 44 -44.5 59t-80.5 15h-178v-311h-81v712h283q115 0 176.5 -51t61.5 -147q0 -70 -36.5 -117.5t-105.5 -67.5q31 -5 53 -26.5t37 -61.5zM364 379q164 0 164 134q0 66 -40 98.5t-124 32.5h-195v-265h195zM393 -73v-58q0 -40 -11.5 -71.5t-40.5 -59.5
l-37 28q19 20 27 38t10 40h-47v83h99z" />
    <glyph glyph-name="rcommaaccent" unicode="&#x157;" horiz-adv-x="362" 
d="M358 509l-2 -74q-23 8 -53 8q-73 0 -108.5 -45.5t-35.5 -110.5v-287h-81v362q0 78 -8 141h77l8 -93q19 51 61 78t96 27q25 0 46 -6zM169 -73v-58q0 -40 -11.5 -71.5t-40.5 -59.5l-37 28q19 20 27 38t10 40h-47v83h99z" />
    <glyph glyph-name="Rcaron" unicode="&#x158;" horiz-adv-x="693" 
d="M647 0h-87l-88 237q-16 44 -44.5 59t-80.5 15h-178v-311h-81v712h283q115 0 176.5 -51t61.5 -147q0 -70 -36.5 -117.5t-105.5 -67.5q31 -5 53 -26.5t37 -61.5zM364 379q164 0 164 134q0 66 -40 98.5t-124 32.5h-195v-265h195zM417 926h74l-120 -153h-55l-120 153h74
l74 -105z" />
    <glyph glyph-name="rcaron" unicode="&#x159;" horiz-adv-x="362" 
d="M358 509l-2 -74q-23 8 -53 8q-73 0 -108.5 -45.5t-35.5 -110.5v-287h-81v362q0 78 -8 141h77l8 -93q19 51 61 78t96 27q25 0 46 -6zM293 772h75l-119 -204h-57l-119 204h75l73 -145z" />
    <glyph glyph-name="Sacute" unicode="&#x15a;" horiz-adv-x="623" 
d="M48 82l31 63q53 -45 108 -64t128 -19q86 0 132.5 33.5t46.5 94.5q0 36 -22.5 58.5t-59 35.5t-97.5 27q-82 18 -135 39t-86 60.5t-33 103.5q0 61 32 107.5t90.5 72.5t136.5 26q74 0 138 -23t108 -67l-32 -63q-50 43 -101.5 63t-112.5 20q-83 0 -130 -35.5t-47 -97.5
q0 -54 41 -81t126 -47q92 -22 144.5 -40.5t87.5 -56t35 -99.5q0 -60 -32 -105.5t-91.5 -70.5t-139.5 -25q-167 0 -266 90zM340 773h-57l102 153h89z" />
    <glyph glyph-name="sacute" unicode="&#x15b;" horiz-adv-x="496" 
d="M47 58l27 60q41 -32 83 -46t94 -14q57 0 86.5 19.5t29.5 56.5q0 30 -20 48t-66 28l-85 20q-63 14 -97.5 50t-34.5 86q0 66 53 107.5t140 41.5q53 0 100 -17t79 -49l-27 -59q-71 59 -152 59q-54 0 -83.5 -20.5t-29.5 -57.5q0 -31 18.5 -49t59.5 -28l85 -21
q70 -16 104 -49.5t34 -87.5q0 -65 -53 -104t-144 -39q-127 0 -201 65zM285 568h-57l100 204h94z" />
    <glyph glyph-name="Scircumflex" unicode="&#x15c;" horiz-adv-x="623" 
d="M48 82l31 63q53 -45 108 -64t128 -19q86 0 132.5 33.5t46.5 94.5q0 36 -22.5 58.5t-59 35.5t-97.5 27q-82 18 -135 39t-86 60.5t-33 103.5q0 61 32 107.5t90.5 72.5t136.5 26q74 0 138 -23t108 -67l-32 -63q-50 43 -101.5 63t-112.5 20q-83 0 -130 -35.5t-47 -97.5
q0 -54 41 -81t126 -47q92 -22 144.5 -40.5t87.5 -56t35 -99.5q0 -60 -32 -105.5t-91.5 -70.5t-139.5 -25q-167 0 -266 90zM238 773h-74l120 153h55l120 -153h-74l-73 104z" />
    <glyph glyph-name="scircumflex" unicode="&#x15d;" horiz-adv-x="496" 
d="M47 58l27 60q41 -32 83 -46t94 -14q57 0 86.5 19.5t29.5 56.5q0 30 -20 48t-66 28l-85 20q-63 14 -97.5 50t-34.5 86q0 66 53 107.5t140 41.5q53 0 100 -17t79 -49l-27 -59q-71 59 -152 59q-54 0 -83.5 -20.5t-29.5 -57.5q0 -31 18.5 -49t59.5 -28l85 -21
q70 -16 104 -49.5t34 -87.5q0 -65 -53 -104t-144 -39q-127 0 -201 65zM184 568h-75l119 204h57l119 -204h-75l-72 144z" />
    <glyph glyph-name="Scedilla" unicode="&#x15e;" horiz-adv-x="623" 
d="M511.5 51q-65.5 -55 -178.5 -59l-4 -35q16 2 24 2q32 0 54.5 -18t22.5 -52q0 -37 -31 -60.5t-86 -23.5q-21 0 -46 5t-43 14l13 44q36 -14 76 -14q27 0 41.5 9t14.5 26q0 13 -9 20t-26 7q-23 0 -46 -9l-20 16l8 70q-141 9 -228 89l31 63q53 -45 108 -64t128 -19
q86 0 132.5 33.5t46.5 94.5q0 36 -22.5 58.5t-59 35.5t-97.5 27q-82 18 -135 39t-86 60.5t-33 103.5q0 61 32 107.5t90.5 72.5t136.5 26q74 0 138 -23t108 -67l-32 -63q-50 43 -101.5 63t-112.5 20q-83 0 -130 -35.5t-47 -97.5q0 -54 41 -81t126 -47q92 -22 144.5 -40.5
t87.5 -56t35 -99.5q0 -87 -65.5 -142z" />
    <glyph glyph-name="scedilla" unicode="&#x15f;" horiz-adv-x="496" 
d="M397 35.5q-48 -38.5 -132 -42.5l-4 -36q16 2 24 2q32 0 54.5 -18t22.5 -52q0 -37 -31 -60.5t-86 -23.5q-21 0 -46 5t-43 14l13 44q36 -14 76 -14q27 0 41.5 9t14.5 26q0 13 -9 20t-26 7q-23 0 -46 -9l-20 16l8 72q-100 9 -161 63l27 60q41 -32 83 -46t94 -14
q57 0 86.5 19.5t29.5 56.5q0 30 -20 48t-66 28l-85 20q-63 14 -97.5 50t-34.5 86q0 66 53 107.5t140 41.5q53 0 100 -17t79 -49l-27 -59q-71 59 -152 59q-54 0 -83.5 -20.5t-29.5 -57.5q0 -31 18.5 -49t59.5 -28l85 -21q70 -16 104 -49.5t34 -87.5q0 -62 -48 -100.5z" />
    <glyph glyph-name="Scaron" unicode="&#x160;" horiz-adv-x="623" 
d="M48 82l31 63q53 -45 108 -64t128 -19q86 0 132.5 33.5t46.5 94.5q0 36 -22.5 58.5t-59 35.5t-97.5 27q-82 18 -135 39t-86 60.5t-33 103.5q0 61 32 107.5t90.5 72.5t136.5 26q74 0 138 -23t108 -67l-32 -63q-50 43 -101.5 63t-112.5 20q-83 0 -130 -35.5t-47 -97.5
q0 -54 41 -81t126 -47q92 -22 144.5 -40.5t87.5 -56t35 -99.5q0 -60 -32 -105.5t-91.5 -70.5t-139.5 -25q-167 0 -266 90zM385 926h74l-120 -153h-55l-120 153h74l74 -105z" />
    <glyph glyph-name="scaron" unicode="&#x161;" horiz-adv-x="496" 
d="M47 58l27 60q41 -32 83 -46t94 -14q57 0 86.5 19.5t29.5 56.5q0 30 -20 48t-66 28l-85 20q-63 14 -97.5 50t-34.5 86q0 66 53 107.5t140 41.5q53 0 100 -17t79 -49l-27 -59q-71 59 -152 59q-54 0 -83.5 -20.5t-29.5 -57.5q0 -31 18.5 -49t59.5 -28l85 -21
q70 -16 104 -49.5t34 -87.5q0 -65 -53 -104t-144 -39q-127 0 -201 65zM329 772h75l-119 -204h-57l-119 204h75l73 -145z" />
    <glyph glyph-name="uni0162" unicode="&#x162;" horiz-adv-x="603" 
d="M321 0l-5 -43q16 2 24 2q32 0 54.5 -18t22.5 -52q0 -37 -31 -60.5t-86 -23.5q-21 0 -46 5t-43 14l13 44q36 -14 76 -14q27 0 41.5 9t14.5 26q0 13 -9 20t-26 7q-23 0 -46 -9l-20 16l9 77h-4v642h-248v70h579v-70h-248v-642h-22z" />
    <glyph glyph-name="uni0163" unicode="&#x163;" horiz-adv-x="350" 
d="M317.5 -59q22.5 -18 22.5 -52q0 -37 -31 -60.5t-86 -23.5q-21 0 -46 5t-43 14l13 44q36 -14 76 -14q27 0 41.5 9t14.5 26q0 13 -9 20t-26 7q-23 0 -46 -9l-20 16l9 83q-40 16 -61 53t-21 94v286h-98v64h98v129l81 29v-158h144v-64h-144v-275q0 -56 23 -78.5t65 -22.5
q28 0 54 9v-69q-31 -10 -70 -10h-15l-4 -36q16 2 24 2q32 0 54.5 -18z" />
    <glyph glyph-name="Tcaron" unicode="&#x164;" horiz-adv-x="603" 
d="M260 0v642h-248v70h579v-70h-248v-642h-83zM375 926h74l-120 -153h-55l-120 153h74l74 -105z" />
    <glyph glyph-name="tcaron" unicode="&#x165;" horiz-adv-x="350" 
d="M311 714l-28 -173h-45v173h73zM186 439v-275q0 -56 23 -78.5t65 -22.5q28 0 54 9v-69q-31 -10 -70 -10q-72 0 -112.5 40.5t-40.5 119.5v286h-98v64h98v129l81 29v-158h144v-64h-144z" />
    <glyph glyph-name="Tbar" unicode="&#x166;" horiz-adv-x="603" 
d="M591 642h-248v-248h144v-66h-144v-328h-83v328h-144v66h144v248h-248v70h579v-70z" />
    <glyph glyph-name="tbar" unicode="&#x167;" horiz-adv-x="360" 
d="M191 439v-119h123v-61h-123v-95q0 -56 23 -78.5t65 -22.5q28 0 54 9v-69q-31 -10 -70 -10q-72 0 -112 40.5t-40 119.5v106h-78v61h78v119h-99v64h99v129l80 29v-158h144v-64h-144z" />
    <glyph glyph-name="Utilde" unicode="&#x168;" horiz-adv-x="731" 
d="M154.5 64.5q-71.5 72.5 -71.5 214.5v433h81v-440q0 -104 51 -157t151 -53q99 0 149.5 53t50.5 157v440h82v-433q0 -141 -72 -214t-210 -73q-140 0 -211.5 72.5zM227.5 879.5q24.5 30.5 65.5 30.5q21 0 40 -8.5t45 -24.5q21 -13 33.5 -19t24.5 -6q22 0 34.5 16t12.5 39h45
q0 -55 -24.5 -85.5t-65.5 -30.5q-21 0 -40 8.5t-45 24.5q-21 13 -33.5 19t-24.5 6q-22 0 -34.5 -16t-12.5 -39h-45q0 55 24.5 85.5z" />
    <glyph glyph-name="utilde" unicode="&#x169;" horiz-adv-x="577" 
d="M499 503v-503h-79v87q-24 -46 -67 -70t-97 -24q-89 0 -135 50t-46 148v312h81v-310q0 -68 28 -100t85 -32q67 0 108 43.5t41 114.5v284h81zM150.5 700q24.5 30 65.5 30q21 0 40 -8.5t45 -24.5q21 -13 33.5 -19t24.5 -6q22 0 34.5 16t12.5 39h45q0 -55 -24.5 -85
t-65.5 -30q-21 0 -40 8.5t-45 24.5q-21 13 -33.5 19t-24.5 6q-22 0 -34.5 -16t-12.5 -39h-45q0 55 24.5 85z" />
    <glyph glyph-name="Umacron" unicode="&#x16a;" horiz-adv-x="731" 
d="M154.5 64.5q-71.5 72.5 -71.5 214.5v433h81v-440q0 -104 51 -157t151 -53q99 0 149.5 53t50.5 157v440h82v-433q0 -141 -72 -214t-210 -73q-140 0 -211.5 72.5zM214 819v62h303v-62h-303z" />
    <glyph glyph-name="umacron" unicode="&#x16b;" horiz-adv-x="577" 
d="M499 503v-503h-79v87q-24 -46 -67 -70t-97 -24q-89 0 -135 50t-46 148v312h81v-310q0 -68 28 -100t85 -32q67 0 108 43.5t41 114.5v284h81zM137 639v62h303v-62h-303z" />
    <glyph glyph-name="Ubreve" unicode="&#x16c;" horiz-adv-x="731" 
d="M154.5 64.5q-71.5 72.5 -71.5 214.5v433h81v-440q0 -104 51 -157t151 -53q99 0 149.5 53t50.5 157v440h82v-433q0 -141 -72 -214t-210 -73q-140 0 -211.5 72.5zM266 810.5q-43 25.5 -65 81.5l51 22q23 -40 50 -55.5t64 -15.5t63.5 15.5t49.5 55.5l51 -22
q-22 -56 -65 -81.5t-99 -25.5q-57 0 -100 25.5z" />
    <glyph glyph-name="ubreve" unicode="&#x16d;" horiz-adv-x="577" 
d="M499 503v-503h-79v87q-24 -46 -67 -70t-97 -24q-89 0 -135 50t-46 148v312h81v-310q0 -68 28 -100t85 -32q67 0 108 43.5t41 114.5v284h81zM188 629.5q-45 31.5 -66 96.5l51 22q22 -48 51 -69t65 -21q73 0 115 90l51 -22q-21 -65 -65.5 -96.5t-100.5 -31.5t-101 31.5z
" />
    <glyph glyph-name="Uring" unicode="&#x16e;" horiz-adv-x="731" 
d="M154.5 64.5q-71.5 72.5 -71.5 214.5v433h81v-440q0 -104 51 -157t151 -53q99 0 149.5 53t50.5 157v440h82v-433q0 -141 -72 -214t-210 -73q-140 0 -211.5 72.5zM293.5 796.5q-29.5 28.5 -29.5 71.5q0 42 29.5 71t72.5 29q42 0 71.5 -29t29.5 -71t-29.5 -71t-71.5 -29
q-43 0 -72.5 28.5zM400.5 831.5q13.5 14.5 13.5 36.5q0 21 -13.5 35.5t-34.5 14.5t-35 -14.5t-14 -35.5q0 -22 13.5 -36.5t35.5 -14.5q21 0 34.5 14.5z" />
    <glyph glyph-name="uring" unicode="&#x16f;" horiz-adv-x="577" 
d="M499 503v-503h-79v87q-24 -46 -67 -70t-97 -24q-89 0 -135 50t-46 148v312h81v-310q0 -68 28 -100t85 -32q67 0 108 43.5t41 114.5v284h81zM216.5 598.5q-29.5 28.5 -29.5 71.5q0 42 29.5 71t72.5 29q42 0 71.5 -29t29.5 -71t-29.5 -71t-71.5 -29q-43 0 -72.5 28.5z
M323.5 633.5q13.5 14.5 13.5 36.5q0 21 -13.5 35.5t-34.5 14.5t-35 -14.5t-14 -35.5q0 -22 13.5 -36.5t35.5 -14.5q21 0 34.5 14.5z" />
    <glyph glyph-name="Uhungarumlaut" unicode="&#x170;" horiz-adv-x="731" 
d="M154.5 64.5q-71.5 72.5 -71.5 214.5v433h81v-440q0 -104 51 -157t151 -53q99 0 149.5 53t50.5 157v440h82v-433q0 -141 -72 -214t-210 -73q-140 0 -211.5 72.5zM283 773l71 153h72l-99 -153h-44zM404 773l72 153h70l-98 -153h-44z" />
    <glyph glyph-name="uhungarumlaut" unicode="&#x171;" horiz-adv-x="577" 
d="M499 503v-503h-79v87q-24 -46 -67 -70t-97 -24q-89 0 -135 50t-46 148v312h81v-310q0 -68 28 -100t85 -32q67 0 108 43.5t41 114.5v284h81zM248 568h-41l46 204h75zM370 568h-41l45 204h76z" />
    <glyph glyph-name="Uogonek" unicode="&#x172;" horiz-adv-x="731" 
d="M648 712v-433q0 -110 -43.5 -178.5t-129.5 -94.5q-42 -13 -61 -33.5t-19 -50.5t17 -46.5t48 -16.5q27 0 59 17l16 -48q-35 -23 -86 -23q-52 0 -85 30t-33 76q0 51 38 81h-3q-140 0 -211.5 72.5t-71.5 214.5v433h81v-440q0 -104 51 -157t151 -53q99 0 149.5 53t50.5 157
v440h82z" />
    <glyph glyph-name="uogonek" unicode="&#x173;" horiz-adv-x="577" 
d="M545 -176q-37 -23 -88 -23q-53 0 -86.5 30t-33.5 79q0 39 22 69t61 47v61q-24 -46 -67 -70t-97 -24q-89 0 -135 50t-46 148v312h81v-310q0 -68 28 -100t85 -32q67 0 108 43.5t41 114.5v284h81v-503h-6q-41 0 -66.5 -22.5t-25.5 -57.5q0 -31 18 -48.5t50 -17.5q26 0 59 19
z" />
    <glyph glyph-name="Wcircumflex" unicode="&#x174;" horiz-adv-x="1112" 
d="M997 712h81l-249 -712h-70l-203 583l-204 -583h-69l-250 712h84l202 -595l207 595l63 -1l204 -596zM481 773h-74l120 153h55l120 -153h-74l-73 104z" />
    <glyph glyph-name="wcircumflex" unicode="&#x175;" horiz-adv-x="869" 
d="M762 503h80l-186 -503h-78l-144 393l-143 -393h-78l-186 503h85l142 -406l147 406h71l145 -407zM362 568h-75l119 204h57l119 -204h-75l-72 144z" />
    <glyph glyph-name="Ycircumflex" unicode="&#x176;" horiz-adv-x="607" 
d="M624 712l-280 -424v-288h-82v289l-280 423h96l226 -350l226 350h94zM229 773h-74l120 153h55l120 -153h-74l-73 104z" />
    <glyph glyph-name="ycircumflex" unicode="&#x177;" horiz-adv-x="531" 
d="M520 503l-235 -549q-37 -86 -93 -126t-138 -55l-17 63q71 16 107.5 42.5t60.5 81.5l20 45l-213 498h85l170 -415l172 415h81zM193 568h-75l119 204h57l119 -204h-75l-72 144z" />
    <glyph glyph-name="Ydieresis" unicode="&#x178;" horiz-adv-x="607" 
d="M624 712l-280 -424v-288h-82v289l-280 423h96l226 -350l226 350h94zM171 893h90v-86h-90v86zM344 893h90v-86h-90v86z" />
    <glyph glyph-name="Zacute" unicode="&#x179;" horiz-adv-x="596" 
d="M140 69h418v-69h-513v61l408 582h-408v69h503v-60zM325 773h-57l102 153h89z" />
    <glyph glyph-name="zacute" unicode="&#x17a;" horiz-adv-x="518" 
d="M150 64h325v-64h-425v56l317 383h-306v64h403v-59zM292 568h-57l100 204h94z" />
    <glyph glyph-name="Zdotaccent" unicode="&#x17b;" horiz-adv-x="596" 
d="M140 69h418v-69h-513v61l408 582h-408v69h503v-60zM247 896h99v-92h-99v92z" />
    <glyph glyph-name="zdotaccent" unicode="&#x17c;" horiz-adv-x="518" 
d="M150 64h325v-64h-425v56l317 383h-306v64h403v-59zM214 716h99v-92h-99v92z" />
    <glyph glyph-name="Zcaron" unicode="&#x17d;" horiz-adv-x="596" 
d="M140 69h418v-69h-513v61l408 582h-408v69h503v-60zM370 926h74l-120 -153h-55l-120 153h74l74 -105z" />
    <glyph glyph-name="zcaron" unicode="&#x17e;" horiz-adv-x="518" 
d="M150 64h325v-64h-425v56l317 383h-306v64h403v-59zM336 772h75l-119 -204h-57l-119 204h75l73 -145z" />
    <glyph glyph-name="uni018F" unicode="&#x18f;" horiz-adv-x="750" 
d="M530.5 676q75.5 -44 116.5 -125.5t41 -193.5q0 -111 -38 -193.5t-108 -127t-164 -44.5q-97 0 -168 43.5t-109.5 125t-38.5 193.5v42h541q-9 122 -74.5 188t-177.5 66q-128 0 -223 -83l-32 63q46 43 113.5 66.5t142.5 23.5q103 0 178.5 -44zM537.5 130.5
q58.5 68.5 65.5 195.5h-457q6 -126 66 -195t164 -69q103 0 161.5 68.5z" />
    <glyph glyph-name="florin" unicode="&#x192;" 
d="M438.5 626q-26.5 -24 -37.5 -78l-12 -55h125v-59h-137l-98 -456q-18 -83 -66.5 -124t-122.5 -41h-52v67h51q45 0 72 24t38 78l96 452h-123v59h135l13 59q18 83 66 123.5t123 40.5h52v-66h-51q-45 0 -71.5 -24z" />
    <glyph glyph-name="Ohorn" unicode="&#x1a0;" horiz-adv-x="772" 
d="M674.5 707.5q-35.5 -39.5 -98.5 -45.5q65 -45 99.5 -123t34.5 -182q0 -112 -39.5 -194t-112.5 -126.5t-172 -44.5t-172 44.5t-112.5 126.5t-39.5 193q0 112 39 194t113 126t175 44q26 0 74 -4q44 -4 63 -4q61 1 86 26t25 85v15h73v-27q0 -64 -35.5 -103.5zM562.5 574
q-62.5 76 -176.5 76t-177 -76.5t-63 -216.5q0 -141 63 -218t177 -77q113 0 176 77t63 218t-62.5 217z" />
    <glyph glyph-name="ohorn" unicode="&#x1a1;" horiz-adv-x="572" 
d="M501.5 519q-24.5 -37 -69.5 -53q44 -33 68 -87.5t24 -124.5q0 -79 -29.5 -138t-83.5 -91t-125 -32t-125 32t-83.5 91t-29.5 138t29.5 138t83.5 91t125 32q17 0 45 -4q17 -3 28 -3q49 0 72 26t23 87v15h72v-26q0 -54 -24.5 -91zM401 109.5q40 49.5 40 144.5
q0 92 -41 142.5t-114 50.5q-74 0 -115 -50.5t-41 -142.5q0 -95 40.5 -144.5t115.5 -49.5t115 49.5z" />
    <glyph glyph-name="Uhorn" unicode="&#x1af;" horiz-adv-x="731" 
d="M766 838v-27q0 -60 -31 -98t-87 -49v-385q0 -141 -72 -214t-210 -73q-140 0 -211.5 72.5t-71.5 214.5v433h81v-440q0 -104 51 -157t151 -53q99 0 149.5 53t50.5 157v440h24q56 1 80 26t24 85v15h72z" />
    <glyph glyph-name="uhorn" unicode="&#x1b0;" horiz-adv-x="591" 
d="M620 636v-26q0 -63 -31.5 -103t-89.5 -49v-458h-79v87q-24 -46 -67 -70t-97 -24q-89 0 -135 50t-46 148v312h81v-310q0 -68 28 -100t85 -32q67 0 108 43.5t41 114.5v284h23q57 0 82 27.5t25 90.5v15h72z" />
    <glyph glyph-name="uni01C4" unicode="&#x1c4;" horiz-adv-x="1327" 
d="M88 712h239q171 0 264.5 -92.5t93.5 -262.5q0 -171 -93.5 -264t-264.5 -93h-239v712zM322 70q138 0 207.5 72t69.5 215q0 285 -277 285h-152v-572h152zM871 69h418v-69h-513v61l408 582h-408v69h503v-60zM1101 926h74l-120 -153h-55l-120 153h74l74 -105z" />
    <glyph glyph-name="uni01C5" unicode="&#x1c5;" horiz-adv-x="1264" 
d="M88 712h239q171 0 264.5 -92.5t93.5 -262.5q0 -171 -93.5 -264t-264.5 -93h-239v712zM322 70q138 0 207.5 72t69.5 215q0 285 -277 285h-152v-572h152zM896 64h325v-64h-425v56l317 383h-306v64h403v-59zM1082 772h75l-119 -204h-57l-119 204h75l73 -145z" />
    <glyph glyph-name="uni01C6" unicode="&#x1c6;" horiz-adv-x="1118" 
d="M521 736v-736h-80v91q-22 -47 -66.5 -72.5t-103.5 -25.5q-66 0 -116.5 33t-78.5 92.5t-28 137.5t27.5 136.5t78.5 90.5t117 32q59 0 103 -25.5t66 -71.5v318h81zM401 110.5q40 50.5 40 143.5q0 92 -40 142.5t-114 50.5t-115.5 -50t-41.5 -141q0 -93 41.5 -144.5
t115.5 -51.5t114 50.5zM750 64h325v-64h-425v56l317 383h-306v64h403v-59zM936 772h75l-119 -204h-57l-119 204h75l73 -145z" />
    <glyph glyph-name="uni01C7" unicode="&#x1c7;" horiz-adv-x="798" 
d="M88 0v712h82v-642h327v-70h-409zM463 -107q45 -8 72 -8q51 0 71.5 28t20.5 98v701h83v-702q0 -104 -37.5 -150t-124.5 -46q-34 0 -85 8v71z" />
    <glyph glyph-name="uni01C8" unicode="&#x1c8;" horiz-adv-x="783" 
d="M88 0v712h82v-642h357v-70h-439zM539 -150q84 0 84 100v553h81v-563q0 -79 -39.5 -119.5t-108.5 -40.5q-33 0 -66 9v69q27 -8 49 -8zM614 716h99v-92h-99v92z" />
    <glyph glyph-name="uni01C9" unicode="&#x1c9;" horiz-adv-x="476" 
d="M78 0v736h81v-736h-81zM232 -150q84 0 84 100v553h81v-563q0 -79 -39.5 -119.5t-108.5 -40.5q-33 0 -66 9v69q27 -8 49 -8zM307 716h99v-92h-99v92z" />
    <glyph glyph-name="uni01CA" unicode="&#x1ca;" horiz-adv-x="1075" 
d="M581 712h78v-712h-64l-430 573v-573h-77v712h63l430 -573v573zM741 -107q45 -8 72 -8q51 0 71.5 28.5t20.5 97.5v701h82v-702q0 -104 -37.5 -150t-123.5 -46q-34 0 -85 8v71z" />
    <glyph glyph-name="uni01CB" unicode="&#x1cb;" horiz-adv-x="984" 
d="M581 712h78v-712h-64l-430 573v-573h-77v712h63l430 -573v573zM740 -150q84 0 84 100v553h81v-563q0 -79 -39.5 -119.5t-108.5 -40.5q-33 0 -66 9v69q27 -8 49 -8zM815 716h99v-92h-99v92z" />
    <glyph glyph-name="uni01CC" unicode="&#x1cc;" horiz-adv-x="823" 
d="M510 316v-316h-81v312q0 70 -28 102.5t-88 32.5q-70 0 -112 -43t-42 -116v-288h-81v362q0 78 -8 141h77l8 -90q23 49 69 75.5t105 26.5q181 0 181 -199zM579 -150q84 0 84 100v553h81v-563q0 -79 -39.5 -119.5t-108.5 -40.5q-33 0 -66 9v69q27 -8 49 -8zM654 716h99v-92
h-99v92z" />
    <glyph glyph-name="uni01CE" unicode="&#x1ce;" 
d="M521 503v-503h-80v91q-22 -47 -66.5 -72.5t-103.5 -25.5q-67 0 -117.5 32t-78 90.5t-27.5 136.5t28 137.5t78.5 92.5t116.5 33q59 0 103 -26t67 -73v87h80zM401 110.5q40 50.5 40 143.5t-40 143t-114 50t-115.5 -51.5t-41.5 -143.5t41 -142t116 -50q74 0 114 50.5z
M373 772h75l-119 -204h-57l-119 204h75l73 -145z" />
    <glyph glyph-name="Gcaron" unicode="&#x1e6;" horiz-adv-x="731" 
d="M651 371v-330q-42 -22 -110 -35.5t-138 -13.5q-106 0 -183 43.5t-117.5 125.5t-40.5 196q0 113 40.5 194.5t116 125t178.5 43.5q75 0 137.5 -22.5t107.5 -67.5l-32 -63q-52 44 -101.5 63.5t-111.5 19.5q-121 0 -185.5 -75.5t-64.5 -217.5q0 -145 66 -220.5t192 -75.5
q89 0 171 28v217h-177v65h252zM469 926h74l-120 -153h-55l-120 153h74l74 -105z" />
    <glyph glyph-name="gcaron" unicode="&#x1e7;" horiz-adv-x="604" 
d="M526 503v-499q0 -112 -57.5 -169.5t-169.5 -57.5q-115 0 -198 52l14 66q48 -27 90.5 -39t93.5 -12q73 0 110 38.5t37 114.5v119q-23 -48 -67.5 -74.5t-105.5 -26.5q-66 0 -117.5 31t-79.5 88t-28 131t28 131t79.5 88t117.5 31q60 0 104.5 -26t67.5 -73v87h81z
M403.5 131.5q41.5 48.5 41.5 133.5t-41.5 133.5t-114.5 48.5q-74 0 -116.5 -48.5t-42.5 -133.5t42.5 -133.5t116.5 -48.5q73 0 114.5 48.5zM376 772h75l-119 -204h-57l-119 204h75l73 -145z" />
    <glyph glyph-name="uni01EA" unicode="&#x1ea;" horiz-adv-x="772" 
d="M408 -78q0 -30 17.5 -46.5t49.5 -16.5q26 0 58 17l16 -48q-37 -23 -86 -23q-52 0 -85.5 29.5t-33.5 76.5t33 80q-96 2 -167 47t-109.5 126.5t-38.5 191.5q0 112 39 194t112 126t173 44q99 0 172 -44t112.5 -126t39.5 -193q0 -138 -59.5 -230t-168.5 -123q-74 -21 -74 -82
zM209 139q63 -77 177 -77q113 0 176 77t63 218t-62.5 217t-176.5 76t-177 -76.5t-63 -216.5q0 -141 63 -218z" />
    <glyph glyph-name="uni01EB" unicode="&#x1eb;" horiz-adv-x="572" 
d="M307 -26.5q-20 -20.5 -20 -53.5q0 -31 18 -48.5t50 -17.5q25 0 60 19l16 -49q-35 -23 -87 -23q-53 0 -87 30t-34 78q0 53 37 85q-97 9 -154.5 79t-57.5 181q0 79 29.5 138t83.5 91t125 32t125 -32t83.5 -91t29.5 -138q0 -93 -40 -158.5t-111 -88.5q-46 -13 -66 -33.5z
M170.5 109.5q40.5 -49.5 115.5 -49.5t115 49.5t40 144.5q0 92 -41 142.5t-114 50.5q-74 0 -115 -50.5t-41 -142.5q0 -95 40.5 -144.5z" />
    <glyph glyph-name="Aringacute" unicode="&#x1fa;" horiz-adv-x="734" 
d="M554 183h-372l-79 -183h-85l304 691q-25 12 -40.5 36.5t-15.5 53.5q0 42 29.5 71t72.5 29q29 0 52 -14l81 83h92l-138 -117q15 -22 15 -52t-16 -54.5t-42 -35.5l304 -691h-84zM333 816.5q-14 -14.5 -14 -35.5q0 -22 13.5 -36.5t35.5 -14.5q21 0 34.5 14.5t13.5 36.5
q0 21 -13.5 35.5t-34.5 14.5t-35 -14.5zM211 251h314l-157 366z" />
    <glyph glyph-name="aringacute" unicode="&#x1fb;" 
d="M227 601.5q-30 29.5 -30 72.5t30 73t74 30q30 0 54 -15l80 117l88 -3l-134 -148q16 -24 16 -54q0 -43 -30.5 -72.5t-73.5 -29.5q-44 0 -74 29.5zM265 711q-14 -15 -14 -37q0 -21 14.5 -36.5t35.5 -15.5t35.5 15.5t14.5 36.5q0 22 -14.5 37t-35.5 15q-22 0 -36 -15z
M441 503h80v-503h-80v91q-22 -47 -66.5 -72.5t-103.5 -25.5q-67 0 -117.5 32t-78 90.5t-27.5 136.5t28 137.5t78.5 92.5t116.5 33q59 0 103 -26t67 -73v87zM401 110.5q40 50.5 40 143.5t-40 143t-114 50t-115.5 -51.5t-41.5 -143.5t41 -142t116 -50q74 0 114 50.5z" />
    <glyph glyph-name="AEacute" unicode="&#x1fc;" horiz-adv-x="1001" 
d="M951 643h-374l22 -247h332v-69h-326l23 -258h323v-69h-392l-16 183h-347l-108 -183h-90l433 712h520v-69zM537 251l-34 392h-34l-232 -392h300zM531 773h-57l102 153h89z" />
    <glyph glyph-name="aeacute" unicode="&#x1fd;" horiz-adv-x="881" 
d="M474 254v-1q0 -93 43 -143t126 -50q81 0 158 59l26 -59q-32 -31 -83 -49t-103 -18q-76 0 -130 33.5t-81 96.5q-20 -62 -68 -96t-116 -34q-53 0 -95 20t-66 56.5t-24 82.5q0 56 28.5 89.5t92.5 49.5t172 16h40v16q0 66 -25.5 95.5t-84.5 29.5q-86 0 -175 -54l-27 59
q38 28 93.5 45t107.5 17q127 0 168 -90q30 43 75.5 66.5t101.5 23.5q97 0 152.5 -66.5t55.5 -180.5v-14h-362zM527 414.5q-39 -37.5 -49 -107.5h285q-5 70 -40.5 107.5t-95.5 37.5q-61 0 -100 -37.5zM355.5 100.5q38.5 43.5 38.5 112.5v42h-36q-81 0 -127.5 -10.5t-66.5 -32
t-20 -57.5q0 -44 30.5 -71t79.5 -27q63 0 101.5 43.5zM463 568h-57l100 204h94z" />
    <glyph glyph-name="Oslashacute" unicode="&#x1fe;" horiz-adv-x="772" 
d="M680.5 528.5q29.5 -74.5 29.5 -171.5q0 -112 -39.5 -194t-112.5 -126.5t-172 -44.5q-86 0 -154 34l-43 -73l-57 33l45 77q-56 47 -85.5 122t-29.5 171q0 112 39 194t112 126t173 44q86 0 154 -34l43 73l56 -33l-44 -76q56 -47 85.5 -121.5zM216 131l288 492
q-51 27 -118 27q-114 0 -177 -76.5t-63 -216.5q0 -148 70 -226zM562 139q63 77 63 218q0 150 -70 225l-287 -492q50 -28 118 -28q113 0 176 77zM413 773h-57l102 153h89z" />
    <glyph glyph-name="oslashacute" unicode="&#x1ff;" horiz-adv-x="572" 
d="M502 374.5q22 -53.5 22 -120.5q0 -79 -29.5 -138t-83.5 -91t-125 -32q-57 0 -106 22l-36 -62l-49 29l37 64q-40 34 -62 87.5t-22 120.5q0 79 29.5 138t83.5 91t125 32q57 0 106 -22l35 60l50 -27l-37 -64q40 -34 62 -87.5zM170 110l187 323q-30 15 -71 15
q-74 0 -115 -50.5t-41 -143.5t40 -144zM401.5 109.5q40.5 49.5 40.5 144.5q0 91 -40 142l-187 -322q31 -14 71 -14q75 0 115.5 49.5zM314 568h-57l100 204h94z" />
    <glyph glyph-name="uni0200" unicode="&#x200;" horiz-adv-x="734" 
d="M632 0l-78 183h-372l-79 -183h-85l313 712h72l313 -712h-84zM211 251h314l-157 366zM284 773l-98 153h70l72 -153h-44zM405 773l-99 153h72l71 -153h-44z" />
    <glyph glyph-name="uni0201" unicode="&#x201;" 
d="M521 503v-503h-80v91q-22 -47 -66.5 -72.5t-103.5 -25.5q-67 0 -117.5 32t-78 90.5t-27.5 136.5t28 137.5t78.5 92.5t116.5 33q59 0 103 -26t67 -73v87h80zM401 110.5q40 50.5 40 143.5t-40 143t-114 50t-115.5 -51.5t-41.5 -143.5t41 -142t116 -50q74 0 114 50.5z
M219 568l-80 204h76l45 -204h-41zM341 568l-80 204h75l46 -204h-41z" />
    <glyph glyph-name="uni0202" unicode="&#x202;" horiz-adv-x="734" 
d="M632 0l-78 183h-372l-79 -183h-85l313 712h72l313 -712h-84zM211 251h314l-157 366zM466 889.5q43 -25.5 65 -81.5l-51 -22q-23 40 -50 55.5t-63 15.5q-37 0 -64 -15.5t-50 -55.5l-51 22q22 56 65 81.5t100 25.5q56 0 99 -25.5z" />
    <glyph glyph-name="uni0203" unicode="&#x203;" 
d="M521 503v-503h-80v91q-22 -47 -66.5 -72.5t-103.5 -25.5q-67 0 -117.5 32t-78 90.5t-27.5 136.5t28 137.5t78.5 92.5t116.5 33q59 0 103 -26t67 -73v87h80zM401 110.5q40 50.5 40 143.5t-40 143t-114 50t-115.5 -51.5t-41.5 -143.5t41 -142t116 -50q74 0 114 50.5z
M401.5 715q44.5 -31 65.5 -96l-51 -22q-22 47 -50.5 68t-64.5 21t-65 -20.5t-51 -68.5l-51 21q21 65 65.5 96.5t101.5 31.5q56 0 100.5 -31z" />
    <glyph glyph-name="uni0204" unicode="&#x204;" horiz-adv-x="588" 
d="M88 0v712h450v-68h-369v-248h349v-69h-349v-259h369v-68h-450zM244 773l-98 153h70l72 -153h-44zM365 773l-99 153h72l71 -153h-44z" />
    <glyph glyph-name="uni0205" unicode="&#x205;" horiz-adv-x="544" 
d="M499 254h-369q1 -96 44.5 -145t126.5 -49q88 0 162 59l27 -59q-33 -31 -84.5 -49t-105.5 -18q-118 0 -185 69.5t-67 190.5q0 77 30 136.5t84 92.5t123 33q100 0 157 -65.5t57 -180.5v-15zM183.5 414q-39.5 -38 -50.5 -107h293q-6 71 -41.5 108t-98.5 37t-102.5 -38z
M203 568l-80 204h76l45 -204h-41zM325 568l-80 204h75l46 -204h-41z" />
    <glyph glyph-name="uni0206" unicode="&#x206;" horiz-adv-x="588" 
d="M88 0v712h450v-68h-369v-248h349v-69h-349v-259h369v-68h-450zM426 889.5q43 -25.5 65 -81.5l-51 -22q-23 40 -50 55.5t-63 15.5q-37 0 -64 -15.5t-50 -55.5l-51 22q22 56 65 81.5t100 25.5q56 0 99 -25.5z" />
    <glyph glyph-name="uni0207" unicode="&#x207;" horiz-adv-x="544" 
d="M499 254h-369q1 -96 44.5 -145t126.5 -49q88 0 162 59l27 -59q-33 -31 -84.5 -49t-105.5 -18q-118 0 -185 69.5t-67 190.5q0 77 30 136.5t84 92.5t123 33q100 0 157 -65.5t57 -180.5v-15zM183.5 414q-39.5 -38 -50.5 -107h293q-6 71 -41.5 108t-98.5 37t-102.5 -38z
M385.5 715q44.5 -31 65.5 -96l-51 -22q-22 47 -50.5 68t-64.5 21t-65 -20.5t-51 -68.5l-51 21q21 65 65.5 96.5t101.5 31.5q56 0 100.5 -31z" />
    <glyph glyph-name="uni0208" unicode="&#x208;" horiz-adv-x="258" 
d="M88 0v712h82v-712h-82zM46 773l-98 153h70l72 -153h-44zM167 773l-99 153h72l71 -153h-44z" />
    <glyph glyph-name="uni0209" unicode="&#x209;" horiz-adv-x="238" 
d="M78 0v503h81v-503h-81zM38 568l-80 204h76l45 -204h-41zM160 568l-80 204h75l46 -204h-41z" />
    <glyph glyph-name="uni020A" unicode="&#x20a;" horiz-adv-x="258" 
d="M88 0v712h82v-712h-82zM228 889.5q43 -25.5 65 -81.5l-51 -22q-23 40 -50 55.5t-63 15.5q-37 0 -64 -15.5t-50 -55.5l-51 22q22 56 65 81.5t100 25.5q56 0 99 -25.5z" />
    <glyph glyph-name="uni020B" unicode="&#x20b;" horiz-adv-x="238" 
d="M78 0v503h81v-503h-81zM220.5 715q44.5 -31 65.5 -96l-51 -22q-22 47 -50.5 68t-64.5 21t-65 -20.5t-51 -68.5l-51 21q21 65 65.5 96.5t101.5 31.5q56 0 100.5 -31z" />
    <glyph glyph-name="uni020C" unicode="&#x20c;" horiz-adv-x="772" 
d="M214 36q-73 44 -112.5 126.5t-39.5 193.5q0 112 39 194t112 126t173 44t173 -44t112 -126t39 -193q0 -112 -39.5 -194t-112.5 -126.5t-172 -44.5t-172 44zM562 139q63 77 63 218t-62.5 217t-176.5 76t-177 -76.5t-63 -216.5q0 -141 63 -218t177 -77q113 0 176 77z
M302 773l-98 153h70l72 -153h-44zM423 773l-99 153h72l71 -153h-44z" />
    <glyph glyph-name="uni020D" unicode="&#x20d;" horiz-adv-x="572" 
d="M161 25q-54 32 -83.5 91t-29.5 138t29.5 138t83.5 91t125 32t125 -32t83.5 -91t29.5 -138t-29.5 -138t-83.5 -91t-125 -32t-125 32zM401 109.5q40 49.5 40 144.5q0 92 -41 142.5t-114 50.5q-74 0 -115 -50.5t-41 -142.5q0 -95 40.5 -144.5t115.5 -49.5t115 49.5zM204 568
l-80 204h76l45 -204h-41zM326 568l-80 204h75l46 -204h-41z" />
    <glyph glyph-name="uni020E" unicode="&#x20e;" horiz-adv-x="772" 
d="M214 36q-73 44 -112.5 126.5t-39.5 193.5q0 112 39 194t112 126t173 44t173 -44t112 -126t39 -193q0 -112 -39.5 -194t-112.5 -126.5t-172 -44.5t-172 44zM562 139q63 77 63 218t-62.5 217t-176.5 76t-177 -76.5t-63 -216.5q0 -141 63 -218t177 -77q113 0 176 77z
M484 889.5q43 -25.5 65 -81.5l-51 -22q-23 40 -50 55.5t-63 15.5q-37 0 -64 -15.5t-50 -55.5l-51 22q22 56 65 81.5t100 25.5q56 0 99 -25.5z" />
    <glyph glyph-name="uni020F" unicode="&#x20f;" horiz-adv-x="572" 
d="M161 25q-54 32 -83.5 91t-29.5 138t29.5 138t83.5 91t125 32t125 -32t83.5 -91t29.5 -138t-29.5 -138t-83.5 -91t-125 -32t-125 32zM401 109.5q40 49.5 40 144.5q0 92 -41 142.5t-114 50.5q-74 0 -115 -50.5t-41 -142.5q0 -95 40.5 -144.5t115.5 -49.5t115 49.5z
M386.5 715q44.5 -31 65.5 -96l-51 -22q-22 47 -50.5 68t-64.5 21t-65 -20.5t-51 -68.5l-51 21q21 65 65.5 96.5t101.5 31.5q56 0 100.5 -31z" />
    <glyph glyph-name="uni0210" unicode="&#x210;" horiz-adv-x="693" 
d="M647 0h-87l-88 237q-16 44 -44.5 59t-80.5 15h-178v-311h-81v712h283q115 0 176.5 -51t61.5 -147q0 -70 -36.5 -117.5t-105.5 -67.5q31 -5 53 -26.5t37 -61.5zM364 379q164 0 164 134q0 66 -40 98.5t-124 32.5h-195v-265h195zM261 773l-98 153h70l72 -153h-44zM382 773
l-99 153h72l71 -153h-44z" />
    <glyph glyph-name="uni0211" unicode="&#x211;" horiz-adv-x="362" 
d="M358 509l-2 -74q-23 8 -53 8q-73 0 -108.5 -45.5t-35.5 -110.5v-287h-81v362q0 78 -8 141h77l8 -93q19 51 61 78t96 27q25 0 46 -6zM139 568l-80 204h76l45 -204h-41zM261 568l-80 204h75l46 -204h-41z" />
    <glyph glyph-name="uni0212" unicode="&#x212;" horiz-adv-x="693" 
d="M647 0h-87l-88 237q-16 44 -44.5 59t-80.5 15h-178v-311h-81v712h283q115 0 176.5 -51t61.5 -147q0 -70 -36.5 -117.5t-105.5 -67.5q31 -5 53 -26.5t37 -61.5zM364 379q164 0 164 134q0 66 -40 98.5t-124 32.5h-195v-265h195zM443 889.5q43 -25.5 65 -81.5l-51 -22
q-23 40 -50 55.5t-63 15.5q-37 0 -64 -15.5t-50 -55.5l-51 22q22 56 65 81.5t100 25.5q56 0 99 -25.5z" />
    <glyph glyph-name="uni0213" unicode="&#x213;" horiz-adv-x="362" 
d="M358 509l-2 -74q-23 8 -53 8q-73 0 -108.5 -45.5t-35.5 -110.5v-287h-81v362q0 78 -8 141h77l8 -93q19 51 61 78t96 27q25 0 46 -6zM321.5 715q44.5 -31 65.5 -96l-51 -22q-22 47 -50.5 68t-64.5 21t-65 -20.5t-51 -68.5l-51 21q21 65 65.5 96.5t101.5 31.5
q56 0 100.5 -31z" />
    <glyph glyph-name="uni0214" unicode="&#x214;" horiz-adv-x="731" 
d="M154.5 64.5q-71.5 72.5 -71.5 214.5v433h81v-440q0 -104 51 -157t151 -53q99 0 149.5 53t50.5 157v440h82v-433q0 -141 -72 -214t-210 -73q-140 0 -211.5 72.5zM283 773l-98 153h70l72 -153h-44zM404 773l-99 153h72l71 -153h-44z" />
    <glyph glyph-name="uni0215" unicode="&#x215;" horiz-adv-x="577" 
d="M499 503v-503h-79v87q-24 -46 -67 -70t-97 -24q-89 0 -135 50t-46 148v312h81v-310q0 -68 28 -100t85 -32q67 0 108 43.5t41 114.5v284h81zM207 568l-80 204h76l45 -204h-41zM329 568l-80 204h75l46 -204h-41z" />
    <glyph glyph-name="uni0216" unicode="&#x216;" horiz-adv-x="731" 
d="M154.5 64.5q-71.5 72.5 -71.5 214.5v433h81v-440q0 -104 51 -157t151 -53q99 0 149.5 53t50.5 157v440h82v-433q0 -141 -72 -214t-210 -73q-140 0 -211.5 72.5zM465 889.5q43 -25.5 65 -81.5l-51 -22q-23 40 -50 55.5t-63 15.5q-37 0 -64 -15.5t-50 -55.5l-51 22
q22 56 65 81.5t100 25.5q56 0 99 -25.5z" />
    <glyph glyph-name="uni0217" unicode="&#x217;" horiz-adv-x="577" 
d="M499 503v-503h-79v87q-24 -46 -67 -70t-97 -24q-89 0 -135 50t-46 148v312h81v-310q0 -68 28 -100t85 -32q67 0 108 43.5t41 114.5v284h81zM389.5 715q44.5 -31 65.5 -96l-51 -22q-22 47 -50.5 68t-64.5 21t-65 -20.5t-51 -68.5l-51 21q21 65 65.5 96.5t101.5 31.5
q56 0 100.5 -31z" />
    <glyph glyph-name="Scommaaccent" unicode="&#x218;" horiz-adv-x="623" 
d="M48 82l31 63q53 -45 108 -64t128 -19q86 0 132.5 33.5t46.5 94.5q0 36 -22.5 58.5t-59 35.5t-97.5 27q-82 18 -135 39t-86 60.5t-33 103.5q0 61 32 107.5t90.5 72.5t136.5 26q74 0 138 -23t108 -67l-32 -63q-50 43 -101.5 63t-112.5 20q-83 0 -130 -35.5t-47 -97.5
q0 -54 41 -81t126 -47q92 -22 144.5 -40.5t87.5 -56t35 -99.5q0 -60 -32 -105.5t-91.5 -70.5t-139.5 -25q-167 0 -266 90zM364 -73v-58q0 -40 -11.5 -71.5t-40.5 -59.5l-37 28q19 20 27 38t10 40h-47v83h99z" />
    <glyph glyph-name="scommaaccent" unicode="&#x219;" horiz-adv-x="496" 
d="M47 58l27 60q41 -32 83 -46t94 -14q57 0 86.5 19.5t29.5 56.5q0 30 -20 48t-66 28l-85 20q-63 14 -97.5 50t-34.5 86q0 66 53 107.5t140 41.5q53 0 100 -17t79 -49l-27 -59q-71 59 -152 59q-54 0 -83.5 -20.5t-29.5 -57.5q0 -31 18.5 -49t59.5 -28l85 -21
q70 -16 104 -49.5t34 -87.5q0 -65 -53 -104t-144 -39q-127 0 -201 65zM296 -73v-58q0 -40 -11.5 -71.5t-40.5 -59.5l-37 28q19 20 27 38t10 40h-47v83h99z" />
    <glyph glyph-name="uni021A" unicode="&#x21a;" horiz-adv-x="603" 
d="M260 0v642h-248v70h579v-70h-248v-642h-83zM351 -73v-58q0 -40 -11.5 -71.5t-40.5 -59.5l-37 28q19 20 27 38t10 40h-47v83h99z" />
    <glyph glyph-name="uni021B" unicode="&#x21b;" horiz-adv-x="350" 
d="M186 439v-275q0 -56 23 -78.5t65 -22.5q28 0 54 9v-69q-31 -10 -70 -10q-72 0 -112.5 40.5t-40.5 119.5v286h-98v64h98v129l81 29v-158h144v-64h-144zM274 -73v-58q0 -40 -11.5 -71.5t-40.5 -59.5l-37 28q19 20 27 38t10 40h-47v83h99z" />
    <glyph glyph-name="uni0227" unicode="&#x227;" 
d="M521 503v-503h-80v91q-22 -47 -66.5 -72.5t-103.5 -25.5q-67 0 -117.5 32t-78 90.5t-27.5 136.5t28 137.5t78.5 92.5t116.5 33q59 0 103 -26t67 -73v87h80zM401 110.5q40 50.5 40 143.5t-40 143t-114 50t-115.5 -51.5t-41.5 -143.5t41 -142t116 -50q74 0 114 50.5z
M251 716h99v-92h-99v92z" />
    <glyph glyph-name="uni0228" unicode="&#x228;" horiz-adv-x="588" 
d="M169 644v-248h349v-69h-349v-259h369v-68h-192l-5 -43q16 2 24 2q32 0 54.5 -18t22.5 -52q0 -37 -31 -60.5t-86 -23.5q-21 0 -46 5t-43 14l13 44q36 -14 76 -14q27 0 41.5 9t14.5 26q0 13 -9 20t-26 7q-23 0 -46 -9l-20 16l9 77h-201v712h450v-68h-369z" />
    <glyph glyph-name="uni022A" unicode="&#x22a;" horiz-adv-x="772" 
d="M214 36q-73 44 -112.5 126.5t-39.5 193.5q0 112 39 194t112 126t173 44t173 -44t112 -126t39 -193q0 -112 -39.5 -194t-112.5 -126.5t-172 -44.5t-172 44zM562 139q63 77 63 218t-62.5 217t-176.5 76t-177 -76.5t-63 -216.5q0 -141 63 -218t177 -77q113 0 176 77z
M253 893h90v-86h-90v86zM426 893h90v-86h-90v86zM233 981v62h303v-62h-303z" />
    <glyph glyph-name="uni022B" unicode="&#x22b;" horiz-adv-x="572" 
d="M161 25q-54 32 -83.5 91t-29.5 138t29.5 138t83.5 91t125 32t125 -32t83.5 -91t29.5 -138t-29.5 -138t-83.5 -91t-125 -32t-125 32zM401 109.5q40 49.5 40 144.5q0 92 -41 142.5t-114 50.5q-74 0 -115 -50.5t-41 -142.5q0 -95 40.5 -144.5t115.5 -49.5t115 49.5zM154 713
h90v-86h-90v86zM327 713h90v-86h-90v86zM134 835v62h303v-62h-303z" />
    <glyph glyph-name="uni022C" unicode="&#x22c;" horiz-adv-x="772" 
d="M214 36q-73 44 -112.5 126.5t-39.5 193.5q0 112 39 194t112 126t173 44t173 -44t112 -126t39 -193q0 -112 -39.5 -194t-112.5 -126.5t-172 -44.5t-172 44zM562 139q63 77 63 218t-62.5 217t-176.5 76t-177 -76.5t-63 -216.5q0 -141 63 -218t177 -77q113 0 176 77z
M246.5 879.5q24.5 30.5 65.5 30.5q21 0 40 -8.5t45 -24.5q21 -13 33.5 -19t24.5 -6q22 0 34.5 16t12.5 39h45q0 -55 -24.5 -85.5t-65.5 -30.5q-21 0 -40 8.5t-45 24.5q-21 13 -33.5 19t-24.5 6q-22 0 -34.5 -16t-12.5 -39h-45q0 55 24.5 85.5zM233 981v62h303v-62h-303z" />
    <glyph glyph-name="uni022D" unicode="&#x22d;" horiz-adv-x="572" 
d="M161 25q-54 32 -83.5 91t-29.5 138t29.5 138t83.5 91t125 32t125 -32t83.5 -91t29.5 -138t-29.5 -138t-83.5 -91t-125 -32t-125 32zM401 109.5q40 49.5 40 144.5q0 92 -41 142.5t-114 50.5q-74 0 -115 -50.5t-41 -142.5q0 -95 40.5 -144.5t115.5 -49.5t115 49.5z
M147.5 700q24.5 30 65.5 30q21 0 40 -8.5t45 -24.5q21 -13 33.5 -19t24.5 -6q22 0 34.5 16t12.5 39h45q0 -55 -24.5 -85t-65.5 -30q-21 0 -40 8.5t-45 24.5q-21 13 -33.5 19t-24.5 6q-22 0 -34.5 -16t-12.5 -39h-45q0 55 24.5 85zM134 835v62h303v-62h-303z" />
    <glyph glyph-name="uni0230" unicode="&#x230;" horiz-adv-x="772" 
d="M214 36q-73 44 -112.5 126.5t-39.5 193.5q0 112 39 194t112 126t173 44t173 -44t112 -126t39 -193q0 -112 -39.5 -194t-112.5 -126.5t-172 -44.5t-172 44zM562 139q63 77 63 218t-62.5 217t-176.5 76t-177 -76.5t-63 -216.5q0 -141 63 -218t177 -77q113 0 176 77z
M335 896h99v-92h-99v92zM233 981v62h303v-62h-303z" />
    <glyph glyph-name="uni0231" unicode="&#x231;" horiz-adv-x="572" 
d="M161 25q-54 32 -83.5 91t-29.5 138t29.5 138t83.5 91t125 32t125 -32t83.5 -91t29.5 -138t-29.5 -138t-83.5 -91t-125 -32t-125 32zM401 109.5q40 49.5 40 144.5q0 92 -41 142.5t-114 50.5q-74 0 -115 -50.5t-41 -142.5q0 -95 40.5 -144.5t115.5 -49.5t115 49.5zM236 716
h99v-92h-99v92zM134 835v62h303v-62h-303z" />
    <glyph glyph-name="uni0232" unicode="&#x232;" horiz-adv-x="607" 
d="M624 712l-280 -424v-288h-82v289l-280 423h96l226 -350l226 350h94zM151 819v62h303v-62h-303z" />
    <glyph glyph-name="uni0233" unicode="&#x233;" horiz-adv-x="531" 
d="M520 503l-235 -549q-37 -86 -93 -126t-138 -55l-17 63q71 16 107.5 42.5t60.5 81.5l20 45l-213 498h85l170 -415l172 415h81zM114 639v62h303v-62h-303z" />
    <glyph glyph-name="uni0237" unicode="&#x237;" horiz-adv-x="238" 
d="M-6 -150q84 0 84 100v553h81v-563q0 -79 -39.5 -119.5t-108.5 -40.5q-33 0 -66 9v69q27 -8 49 -8z" />
    <glyph glyph-name="uni0259" unicode="&#x259;" horiz-adv-x="544" 
d="M429.5 445q66.5 -70 66.5 -190q0 -79 -28.5 -138.5t-81 -91.5t-121.5 -32q-104 0 -162 65t-58 182v14h371q-2 95 -44.5 144.5t-124.5 49.5q-81 0 -166 -60l-28 59q36 32 89.5 50t107.5 18q113 0 179.5 -70zM364.5 92.5q38.5 37.5 48.5 107.5h-292q6 -70 42.5 -107.5
t99.5 -37.5t101.5 37.5z" />
    <glyph glyph-name="uni02BB" unicode="&#x2bb;" horiz-adv-x="300" 
d="M201 669v-83h-99v58q0 40 11.5 71.5t39.5 59.5l37 -28q-18 -19 -26 -37.5t-10 -40.5h47z" />
    <glyph glyph-name="uni02BC" unicode="&#x2bc;" horiz-adv-x="300" 
d="M198 761v-58q0 -40 -11.5 -71.5t-39.5 -59.5l-37 28q19 20 26.5 38t9.5 40h-47v83h99z" />
    <glyph glyph-name="uni02BE" unicode="&#x2be;" horiz-adv-x="300" 
d="M223.5 730.5q29.5 -28.5 29.5 -70.5t-29.5 -71t-71.5 -29v49q21 0 34.5 14.5t13.5 36.5q0 21 -13.5 35.5t-34.5 14.5v49q42 0 71.5 -28.5z" />
    <glyph glyph-name="uni02BF" unicode="&#x2bf;" horiz-adv-x="300" 
d="M152 710q-21 0 -35 -14.5t-14 -35.5q0 -22 13.5 -36.5t35.5 -14.5v-49q-43 0 -72.5 28.5t-29.5 71.5q0 42 29.5 70.5t72.5 28.5v-49z" />
    <glyph glyph-name="circumflex" unicode="&#x2c6;" horiz-adv-x="300" 
d="M79 557h-75l119 204h57l119 -204h-75l-72 144z" />
    <glyph glyph-name="caron" unicode="&#x2c7;" horiz-adv-x="300" 
d="M224 761h75l-119 -204h-57l-119 204h75l73 -145z" />
    <glyph glyph-name="uni02C8" unicode="&#x2c8;" horiz-adv-x="300" 
d="M121 557v202h61v-202h-61z" />
    <glyph glyph-name="uni02C9" unicode="&#x2c9;" horiz-adv-x="300" 
d="M0 628v62h303v-62h-303z" />
    <glyph glyph-name="uni02CA" unicode="&#x2ca;" horiz-adv-x="300" 
d="M180 557h-57l100 204h94z" />
    <glyph glyph-name="uni02CB" unicode="&#x2cb;" horiz-adv-x="300" 
d="M123 557l-137 204h94l100 -204h-57z" />
    <glyph glyph-name="uni02CC" unicode="&#x2cc;" horiz-adv-x="300" 
d="M121 -273v203h61v-203h-61z" />
    <glyph glyph-name="breve" unicode="&#x2d8;" horiz-adv-x="300" 
d="M51 618.5q-45 31.5 -66 96.5l51 22q22 -48 51 -69t65 -21q73 0 115 90l51 -22q-21 -65 -65.5 -96.5t-100.5 -31.5t-101 31.5z" />
    <glyph glyph-name="dotaccent" unicode="&#x2d9;" horiz-adv-x="300" 
d="M102 705h99v-92h-99v92z" />
    <glyph glyph-name="ring" unicode="&#x2da;" horiz-adv-x="300" 
d="M79.5 587.5q-29.5 28.5 -29.5 71.5q0 42 29.5 71t72.5 29q42 0 71.5 -29t29.5 -71t-29.5 -71t-71.5 -29q-43 0 -72.5 28.5zM186.5 622.5q13.5 14.5 13.5 36.5q0 21 -13.5 35.5t-34.5 14.5t-35 -14.5t-14 -35.5q0 -22 13.5 -36.5t35.5 -14.5q21 0 34.5 14.5z" />
    <glyph glyph-name="ogonek" unicode="&#x2db;" horiz-adv-x="300" 
d="M34 -165q-33 30 -33 76q0 51 36 86t101 45l14 -32q-44 -9 -65.5 -32t-21.5 -56q0 -30 17.5 -46.5t48.5 -16.5q27 0 58 17l17 -48q-39 -23 -87 -23q-52 0 -85 30z" />
    <glyph glyph-name="tilde" unicode="&#x2dc;" horiz-adv-x="300" 
d="M13.5 689q24.5 30 65.5 30q21 0 40 -8.5t45 -24.5q21 -13 33.5 -19t24.5 -6q22 0 34.5 16t12.5 39h45q0 -55 -24.5 -85t-65.5 -30q-21 0 -40 8.5t-45 24.5q-21 13 -33.5 19t-24.5 6q-22 0 -34.5 -16t-12.5 -39h-45q0 55 24.5 85z" />
    <glyph glyph-name="hungarumlaut" unicode="&#x2dd;" horiz-adv-x="300" 
d="M111 557h-41l46 204h75zM233 557h-41l45 204h76z" />
    <glyph glyph-name="gravecomb" unicode="&#x300;" horiz-adv-x="0" 
d="M-177 557l-137 204h94l100 -204h-57z" />
    <glyph glyph-name="acutecomb" unicode="&#x301;" horiz-adv-x="0" 
d="M-120 557h-57l100 204h94z" />
    <glyph glyph-name="uni0302" unicode="&#x302;" horiz-adv-x="0" 
d="M-221 557h-75l119 204h57l119 -204h-75l-72 144z" />
    <glyph glyph-name="tildecomb" unicode="&#x303;" horiz-adv-x="0" 
d="M-286.5 689q24.5 30 65.5 30q21 0 40 -8.5t45 -24.5q21 -13 33.5 -19t24.5 -6q22 0 34.5 16t12.5 39h45q0 -55 -24.5 -85t-65.5 -30q-21 0 -40 8.5t-45 24.5q-21 13 -33.5 19t-24.5 6q-22 0 -34.5 -16t-12.5 -39h-45q0 55 24.5 85z" />
    <glyph glyph-name="uni0304" unicode="&#x304;" horiz-adv-x="0" 
d="M-300 628v62h303v-62h-303z" />
    <glyph glyph-name="uni0306" unicode="&#x306;" horiz-adv-x="0" 
d="M-249 618.5q-45 31.5 -66 96.5l51 22q22 -48 51 -69t65 -21q73 0 115 90l51 -22q-21 -65 -65.5 -96.5t-100.5 -31.5t-101 31.5z" />
    <glyph glyph-name="uni0307" unicode="&#x307;" horiz-adv-x="0" 
d="M-198 705h99v-92h-99v92z" />
    <glyph glyph-name="uni0308" unicode="&#x308;" horiz-adv-x="0" 
d="M-280 702h90v-86h-90v86zM-107 702h90v-86h-90v86z" />
    <glyph glyph-name="hookabovecomb" unicode="&#x309;" horiz-adv-x="0" 
d="M-120 557h-53v28q0 20 10 34.5t29 32.5q14 14 19.5 21t5.5 16q0 12 -10.5 18.5t-30.5 6.5q-27 0 -59 -11l-15 44q39 18 81 18q47 0 73.5 -20t26.5 -50q0 -23 -10.5 -37t-31.5 -32q-17 -13 -26 -24.5t-9 -27.5v-17z" />
    <glyph glyph-name="uni030A" unicode="&#x30a;" horiz-adv-x="0" 
d="M-220.5 587.5q-29.5 28.5 -29.5 71.5q0 42 29.5 71t72.5 29q42 0 71.5 -29t29.5 -71t-29.5 -71t-71.5 -29q-43 0 -72.5 28.5zM-113.5 622.5q13.5 14.5 13.5 36.5q0 21 -13.5 35.5t-34.5 14.5t-35 -14.5t-14 -35.5q0 -22 13.5 -36.5t35.5 -14.5q21 0 34.5 14.5z" />
    <glyph glyph-name="uni030B" unicode="&#x30b;" horiz-adv-x="0" 
d="M-189 557h-41l46 204h75zM-67 557h-41l45 204h76z" />
    <glyph glyph-name="uni030C" unicode="&#x30c;" horiz-adv-x="0" 
d="M-76 761h75l-119 -204h-57l-119 204h75l73 -145z" />
    <glyph glyph-name="uni030F" unicode="&#x30f;" horiz-adv-x="0" 
d="M-230 557l-80 204h76l45 -204h-41zM-108 557l-80 204h75l46 -204h-41z" />
    <glyph glyph-name="uni0311" unicode="&#x311;" horiz-adv-x="0" 
d="M-47.5 704q44.5 -31 65.5 -96l-51 -22q-22 47 -50.5 68t-64.5 21t-65 -20.5t-51 -68.5l-51 21q21 65 65.5 96.5t101.5 31.5q56 0 100.5 -31z" />
    <glyph glyph-name="uni0312" unicode="&#x312;" horiz-adv-x="0" 
d="M-99 669v-83h-99v58q0 40 11.5 71.5t39.5 59.5l37 -28q-18 -19 -26 -37.5t-10 -40.5h47z" />
    <glyph glyph-name="uni031B" unicode="&#x31b;" horiz-adv-x="0" 
d="M-149 474v22q62 1 86.5 26.5t24.5 84.5v15h72v-26q0 -66 -37 -106t-105 -45z" />
    <glyph glyph-name="dotbelowcomb" unicode="&#x323;" horiz-adv-x="0" 
d="M-195 -95h93v-89h-93v89z" />
    <glyph glyph-name="uni0324" unicode="&#x324;" horiz-adv-x="0" 
d="M-280 -96h90v-87h-90v87zM-107 -96h90v-87h-90v87z" />
    <glyph glyph-name="uni0326" unicode="&#x326;" horiz-adv-x="0" 
d="M-99 -73v-58q0 -40 -11.5 -71.5t-40.5 -59.5l-37 28q19 20 27 38t10 40h-47v83h99z" />
    <glyph glyph-name="uni0327" unicode="&#x327;" horiz-adv-x="0" 
d="M-52.5 -59q22.5 -18 22.5 -52q0 -37 -31 -60.5t-86 -23.5q-21 0 -46 5t-43 14l13 44q36 -14 76 -14q27 0 41.5 9t14.5 26q0 13 -9 20t-26 7q-23 0 -46 -9l-20 16l11 97h57l-7 -63q16 2 24 2q32 0 54.5 -18z" />
    <glyph glyph-name="uni0328" unicode="&#x328;" horiz-adv-x="0" 
d="M-266 -165q-33 30 -33 76q0 51 36 86t101 45l14 -32q-44 -9 -65.5 -32t-21.5 -56q0 -30 17.5 -46.5t48.5 -16.5q27 0 58 17l17 -48q-39 -23 -87 -23q-52 0 -85 30z" />
    <glyph glyph-name="uni032E" unicode="&#x32e;" horiz-adv-x="0" 
d="M-249 -182q-45 31 -66 96l51 22q22 -48 51 -68.5t65 -20.5t64.5 21t50.5 68l51 -21q-21 -65 -65.5 -96.5t-100.5 -31.5t-101 31z" />
    <glyph glyph-name="uni0331" unicode="&#x331;" horiz-adv-x="0" 
d="M-300 -170v60h303v-60h-303z" />
    <glyph glyph-name="uni0335" unicode="&#x335;" horiz-adv-x="0" 
d="M-300 220v56h303v-56h-303z" />
    <glyph glyph-name="uni0394" unicode="&#x394;" horiz-adv-x="728" 
d="M399 712l298 -662v-50h-665v50l298 662h69zM365 614l-241 -544h481z" />
    <glyph glyph-name="Sigma" unicode="&#x3a3;" horiz-adv-x="588" 
d="M545 712v-69h-406l244 -349v-57l-243 -349h405v-70h-504v61l269 386l-269 387v60h504z" />
    <glyph glyph-name="uni03A9" unicode="&#x3a9;" horiz-adv-x="787" 
d="M685.5 236q-44.5 -85 -137.5 -167h175v-69h-263v66q91 83 138 171.5t47 174.5q0 113 -66.5 175.5t-185.5 62.5t-185.5 -63t-66.5 -175q0 -87 47 -175t139 -171v-66h-263v69h175q-93 82 -138 167t-45 178t41.5 162.5t117.5 107t178 37.5t178.5 -37.5t117.5 -107t41 -162.5
t-44.5 -178z" />
    <glyph glyph-name="uni03BC" unicode="&#x3bc;" horiz-adv-x="577" 
d="M499 503v-503h-79v87q-24 -46 -67 -70t-97 -24q-61 0 -100 27v-236h-81v719h81v-310q0 -68 28 -100t85 -32q67 0 108 43.5t41 114.5v284h81z" />
    <glyph glyph-name="pi" unicode="&#x3c0;" horiz-adv-x="593" 
d="M589 58l-7 -65l-46 3q-95 6 -140 52.5t-45 137.5v253h-162q-2 -129 -19 -236t-51 -203h-86q69 200 75 439h-103v64h550v-64h-123v-262q0 -55 27.5 -83t82.5 -33z" />
    <glyph glyph-name="uni1E08" unicode="&#x1e08;" horiz-adv-x="684" 
d="M552 926l-134 -153h-57l102 153h89zM534 17q-58 -23 -127 -25l-4 -35q16 2 24 2q32 0 54.5 -18t22.5 -52q0 -37 -31 -60.5t-86 -23.5q-21 0 -46 5t-43 14l13 44q36 -14 76 -14q27 0 41.5 9t14.5 26q0 13 -9 20t-26 7q-23 0 -46 -9l-20 16l8 71q-89 9 -154 55.5t-99.5 125
t-34.5 182.5q0 112 40 193.5t114.5 125.5t175.5 44q74 0 135.5 -22.5t106.5 -67.5l-31 -63q-51 44 -100.5 63t-109.5 19q-117 0 -181.5 -76t-64.5 -216q0 -141 64 -217.5t182 -76.5q60 0 109.5 19t100.5 63l31 -63q-42 -42 -100 -65z" />
    <glyph glyph-name="uni1E09" unicode="&#x1e09;" horiz-adv-x="495" 
d="M454 772l-137 -204h-57l100 204h94zM395.5 12.5q-44.5 -17.5 -92.5 -19.5l-4 -36q16 2 24 2q32 0 54.5 -18t22.5 -52q0 -37 -31 -60.5t-86 -23.5q-21 0 -46 5t-43 14l13 44q36 -14 76 -14q27 0 41.5 9t14.5 26q0 13 -9 20t-26 7q-23 0 -46 -9l-20 16l8 73
q-92 13 -145 81.5t-53 174.5q0 78 30 137.5t85.5 92.5t129.5 33q51 0 98.5 -17.5t78.5 -48.5l-27 -60q-38 30 -73.5 44t-72.5 14q-77 0 -121 -51.5t-44 -143.5q0 -91 43.5 -141.5t121.5 -50.5q37 0 72.5 14t73.5 44l27 -60q-30 -28 -74.5 -45.5z" />
    <glyph glyph-name="uni1E0C" unicode="&#x1e0c;" horiz-adv-x="746" 
d="M88 712h239q171 0 264.5 -92.5t93.5 -262.5q0 -171 -93.5 -264t-264.5 -93h-239v712zM322 70q138 0 207.5 72t69.5 215q0 285 -277 285h-152v-572h152zM326 -95h93v-89h-93v89z" />
    <glyph glyph-name="uni1E0D" unicode="&#x1e0d;" 
d="M521 736v-736h-80v91q-22 -47 -66.5 -72.5t-103.5 -25.5q-66 0 -116.5 33t-78.5 92.5t-28 137.5t27.5 136.5t78.5 90.5t117 32q59 0 103 -25.5t66 -71.5v318h81zM401 110.5q40 50.5 40 143.5q0 92 -40 142.5t-114 50.5t-115.5 -50t-41.5 -141q0 -93 41.5 -144.5
t115.5 -51.5t114 50.5zM255 -95h93v-89h-93v89z" />
    <glyph glyph-name="uni1E0E" unicode="&#x1e0e;" horiz-adv-x="746" 
d="M88 712h239q171 0 264.5 -92.5t93.5 -262.5q0 -171 -93.5 -264t-264.5 -93h-239v712zM322 70q138 0 207.5 72t69.5 215q0 285 -277 285h-152v-572h152zM221 -170v60h303v-60h-303z" />
    <glyph glyph-name="uni1E0F" unicode="&#x1e0f;" 
d="M521 736v-736h-80v91q-22 -47 -66.5 -72.5t-103.5 -25.5q-66 0 -116.5 33t-78.5 92.5t-28 137.5t27.5 136.5t78.5 90.5t117 32q59 0 103 -25.5t66 -71.5v318h81zM401 110.5q40 50.5 40 143.5q0 92 -40 142.5t-114 50.5t-115.5 -50t-41.5 -141q0 -93 41.5 -144.5
t115.5 -51.5t114 50.5zM150 -170v60h303v-60h-303z" />
    <glyph glyph-name="uni1E14" unicode="&#x1e14;" horiz-adv-x="588" 
d="M88 0v712h450v-68h-369v-248h349v-69h-349v-259h369v-68h-450zM175 819v62h303v-62h-303zM298 935l-134 153h89l102 -153h-57z" />
    <glyph glyph-name="uni1E15" unicode="&#x1e15;" horiz-adv-x="544" 
d="M499 254h-369q1 -96 44.5 -145t126.5 -49q88 0 162 59l27 -59q-33 -31 -84.5 -49t-105.5 -18q-118 0 -185 69.5t-67 190.5q0 77 30 136.5t84 92.5t123 33q100 0 157 -65.5t57 -180.5v-15zM183.5 414q-39.5 -38 -50.5 -107h293q-6 71 -41.5 108t-98.5 37t-102.5 -38z
M133 639v62h303v-62h-303zM256 764l-137 204h94l100 -204h-57z" />
    <glyph glyph-name="uni1E16" unicode="&#x1e16;" horiz-adv-x="588" 
d="M88 0v712h450v-68h-369v-248h349v-69h-349v-259h369v-68h-450zM175 819v62h303v-62h-303zM355 935h-57l102 153h89z" />
    <glyph glyph-name="uni1E17" unicode="&#x1e17;" horiz-adv-x="544" 
d="M499 254h-369q1 -96 44.5 -145t126.5 -49q88 0 162 59l27 -59q-33 -31 -84.5 -49t-105.5 -18q-118 0 -185 69.5t-67 190.5q0 77 30 136.5t84 92.5t123 33q100 0 157 -65.5t57 -180.5v-15zM183.5 414q-39.5 -38 -50.5 -107h293q-6 71 -41.5 108t-98.5 37t-102.5 -38z
M133 639v62h303v-62h-303zM313 764h-57l100 204h94z" />
    <glyph glyph-name="uni1E1C" unicode="&#x1e1c;" horiz-adv-x="588" 
d="M227 810.5q-43 25.5 -65 81.5l51 22q23 -40 50 -55.5t64 -15.5t63.5 15.5t49.5 55.5l51 -22q-22 -56 -65 -81.5t-99 -25.5q-57 0 -100 25.5zM169 644v-248h349v-69h-349v-259h369v-68h-192l-5 -43q16 2 24 2q32 0 54.5 -18t22.5 -52q0 -37 -31 -60.5t-86 -23.5
q-21 0 -46 5t-43 14l13 44q36 -14 76 -14q27 0 41.5 9t14.5 26q0 13 -9 20t-26 7q-23 0 -46 -9l-20 16l9 77h-201v712h450v-68h-369z" />
    <glyph glyph-name="uni1E1D" unicode="&#x1e1d;" horiz-adv-x="544" 
d="M184 629.5q-45 31.5 -66 96.5l51 22q22 -48 51 -69t65 -21q73 0 115 90l51 -22q-21 -65 -65.5 -96.5t-100.5 -31.5t-101 31.5zM499 254h-369q1 -96 44.5 -145t126.5 -49q88 0 162 59l27 -59q-31 -28 -77 -46t-96 -21l-4 -36q16 2 24 2q32 0 54.5 -18t22.5 -52
q0 -37 -31 -60.5t-86 -23.5q-21 0 -46 5t-43 14l13 44q36 -14 76 -14q27 0 41.5 9t14.5 26q0 13 -9 20t-26 7q-23 0 -46 -9l-20 16l8 72q-100 12 -156 79.5t-56 178.5q0 77 30 136.5t84 92.5t123 33q100 0 157 -65.5t57 -180.5v-15zM183.5 414q-39.5 -38 -50.5 -107h293
q-6 71 -41.5 108t-98.5 37t-102.5 -38z" />
    <glyph glyph-name="uni1E20" unicode="&#x1e20;" horiz-adv-x="731" 
d="M651 371v-330q-42 -22 -110 -35.5t-138 -13.5q-106 0 -183 43.5t-117.5 125.5t-40.5 196q0 113 40.5 194.5t116 125t178.5 43.5q75 0 137.5 -22.5t107.5 -67.5l-32 -63q-52 44 -101.5 63.5t-111.5 19.5q-121 0 -185.5 -75.5t-64.5 -217.5q0 -145 66 -220.5t192 -75.5
q89 0 171 28v217h-177v65h252zM244 819v62h303v-62h-303z" />
    <glyph glyph-name="uni1E21" unicode="&#x1e21;" horiz-adv-x="604" 
d="M526 503v-499q0 -112 -57.5 -169.5t-169.5 -57.5q-115 0 -198 52l14 66q48 -27 90.5 -39t93.5 -12q73 0 110 38.5t37 114.5v119q-23 -48 -67.5 -74.5t-105.5 -26.5q-66 0 -117.5 31t-79.5 88t-28 131t28 131t79.5 88t117.5 31q60 0 104.5 -26t67.5 -73v87h81z
M403.5 131.5q41.5 48.5 41.5 133.5t-41.5 133.5t-114.5 48.5q-74 0 -116.5 -48.5t-42.5 -133.5t42.5 -133.5t116.5 -48.5q73 0 114.5 48.5zM152 639v62h303v-62h-303z" />
    <glyph glyph-name="uni1E24" unicode="&#x1e24;" horiz-adv-x="766" 
d="M596 712h82v-712h-82v327h-427v-327h-81v712h81v-316h427v316zM336 -95h93v-89h-93v89z" />
    <glyph glyph-name="uni1E25" unicode="&#x1e25;" horiz-adv-x="585" 
d="M510 316v-316h-81v312q0 70 -28 102.5t-88 32.5q-70 0 -112 -43t-42 -116v-288h-81v736h81v-315q24 46 68.5 70t101.5 24q181 0 181 -199zM247 -95h93v-89h-93v89z" />
    <glyph glyph-name="uni1E2A" unicode="&#x1e2a;" horiz-adv-x="766" 
d="M596 712h82v-712h-82v327h-427v-327h-81v712h81v-316h427v316zM282 -182q-45 31 -66 96l51 22q22 -48 51 -68.5t65 -20.5t64.5 21t50.5 68l51 -21q-21 -65 -65.5 -96.5t-100.5 -31.5t-101 31z" />
    <glyph glyph-name="uni1E2B" unicode="&#x1e2b;" horiz-adv-x="585" 
d="M510 316v-316h-81v312q0 70 -28 102.5t-88 32.5q-70 0 -112 -43t-42 -116v-288h-81v736h81v-315q24 46 68.5 70t101.5 24q181 0 181 -199zM193 -182q-45 31 -66 96l51 22q22 -48 51 -68.5t65 -20.5t64.5 21t50.5 68l51 -21q-21 -65 -65.5 -96.5t-100.5 -31.5t-101 31z
" />
    <glyph glyph-name="uni1E2E" unicode="&#x1e2e;" horiz-adv-x="258" 
d="M88 0v712h82v-712h-82zM-3 893h90v-86h-90v86zM170 893h90v-86h-90v86zM157 935h-57l102 153h89z" />
    <glyph glyph-name="uni1E2F" unicode="&#x1e2f;" horiz-adv-x="238" 
d="M78 0v503h81v-503h-81zM-12 713h90v-86h-90v86zM161 713h90v-86h-90v86zM148 764h-57l100 204h94z" />
    <glyph glyph-name="uni1E36" unicode="&#x1e36;" horiz-adv-x="545" 
d="M88 0v712h82v-642h357v-70h-439zM265 -95h93v-89h-93v89z" />
    <glyph glyph-name="uni1E37" unicode="&#x1e37;" horiz-adv-x="238" 
d="M78 0v736h81v-736h-81zM73 -95h93v-89h-93v89z" />
    <glyph glyph-name="uni1E3A" unicode="&#x1e3a;" horiz-adv-x="545" 
d="M88 0v712h82v-642h357v-70h-439zM160 -170v60h303v-60h-303z" />
    <glyph glyph-name="uni1E3B" unicode="&#x1e3b;" horiz-adv-x="238" 
d="M78 0v736h81v-736h-81zM-32 -170v60h303v-60h-303z" />
    <glyph glyph-name="uni1E42" unicode="&#x1e42;" horiz-adv-x="849" 
d="M693 712h68v-712h-76v529l-231 -529h-58l-233 525l1 -525h-76v712h68l270 -614zM377 -95h93v-89h-93v89z" />
    <glyph glyph-name="uni1E43" unicode="&#x1e43;" horiz-adv-x="879" 
d="M803 316v-316h-81v312q0 71 -24.5 103t-79.5 32q-64 0 -100 -43t-36 -117v-287h-81v312q0 70 -25 102.5t-80 32.5q-64 0 -100.5 -43t-36.5 -117v-287h-81v362q0 78 -8 141h77l8 -88q21 48 62.5 74t96.5 26q60 0 98 -24t56 -74q23 45 67.5 71.5t100.5 26.5q167 0 167 -199
zM394 -95h93v-89h-93v89z" />
    <glyph glyph-name="uni1E44" unicode="&#x1e44;" horiz-adv-x="746" 
d="M581 712h78v-712h-64l-430 573v-573h-77v712h63l430 -573v573zM323 896h99v-92h-99v92z" />
    <glyph glyph-name="uni1E45" unicode="&#x1e45;" horiz-adv-x="585" 
d="M510 316v-316h-81v312q0 70 -28 102.5t-88 32.5q-70 0 -112 -43t-42 -116v-288h-81v362q0 78 -8 141h77l8 -90q23 49 69 75.5t105 26.5q181 0 181 -199zM244 716h99v-92h-99v92z" />
    <glyph glyph-name="uni1E46" unicode="&#x1e46;" horiz-adv-x="746" 
d="M581 712h78v-712h-64l-430 573v-573h-77v712h63l430 -573v573zM327 -95h93v-89h-93v89z" />
    <glyph glyph-name="uni1E47" unicode="&#x1e47;" horiz-adv-x="585" 
d="M510 316v-316h-81v312q0 70 -28 102.5t-88 32.5q-70 0 -112 -43t-42 -116v-288h-81v362q0 78 -8 141h77l8 -90q23 49 69 75.5t105 26.5q181 0 181 -199zM247 -95h93v-89h-93v89z" />
    <glyph glyph-name="uni1E48" unicode="&#x1e48;" horiz-adv-x="746" 
d="M581 712h78v-712h-64l-430 573v-573h-77v712h63l430 -573v573zM222 -170v60h303v-60h-303z" />
    <glyph glyph-name="uni1E49" unicode="&#x1e49;" horiz-adv-x="585" 
d="M510 316v-316h-81v312q0 70 -28 102.5t-88 32.5q-70 0 -112 -43t-42 -116v-288h-81v362q0 78 -8 141h77l8 -90q23 49 69 75.5t105 26.5q181 0 181 -199zM142 -170v60h303v-60h-303z" />
    <glyph glyph-name="uni1E4C" unicode="&#x1e4c;" horiz-adv-x="772" 
d="M214 36q-73 44 -112.5 126.5t-39.5 193.5q0 112 39 194t112 126t173 44t173 -44t112 -126t39 -193q0 -112 -39.5 -194t-112.5 -126.5t-172 -44.5t-172 44zM562 139q63 77 63 218t-62.5 217t-176.5 76t-177 -76.5t-63 -216.5q0 -141 63 -218t177 -77q113 0 176 77z
M246.5 879.5q24.5 30.5 65.5 30.5q21 0 40 -8.5t45 -24.5q21 -13 33.5 -19t24.5 -6q22 0 34.5 16t12.5 39h45q0 -55 -24.5 -85.5t-65.5 -30.5q-21 0 -40 8.5t-45 24.5q-21 13 -33.5 19t-24.5 6q-22 0 -34.5 -16t-12.5 -39h-45q0 55 24.5 85.5zM413 935h-57l102 153h89z" />
    <glyph glyph-name="uni1E4D" unicode="&#x1e4d;" horiz-adv-x="572" 
d="M161 25q-54 32 -83.5 91t-29.5 138t29.5 138t83.5 91t125 32t125 -32t83.5 -91t29.5 -138t-29.5 -138t-83.5 -91t-125 -32t-125 32zM401 109.5q40 49.5 40 144.5q0 92 -41 142.5t-114 50.5q-74 0 -115 -50.5t-41 -142.5q0 -95 40.5 -144.5t115.5 -49.5t115 49.5z
M147.5 700q24.5 30 65.5 30q21 0 40 -8.5t45 -24.5q21 -13 33.5 -19t24.5 -6q22 0 34.5 16t12.5 39h45q0 -55 -24.5 -85t-65.5 -30q-21 0 -40 8.5t-45 24.5q-21 13 -33.5 19t-24.5 6q-22 0 -34.5 -16t-12.5 -39h-45q0 55 24.5 85zM314 764h-57l100 204h94z" />
    <glyph glyph-name="uni1E4E" unicode="&#x1e4e;" horiz-adv-x="772" 
d="M214 36q-73 44 -112.5 126.5t-39.5 193.5q0 112 39 194t112 126t173 44t173 -44t112 -126t39 -193q0 -112 -39.5 -194t-112.5 -126.5t-172 -44.5t-172 44zM562 139q63 77 63 218t-62.5 217t-176.5 76t-177 -76.5t-63 -216.5q0 -141 63 -218t177 -77q113 0 176 77z
M246.5 879.5q24.5 30.5 65.5 30.5q21 0 40 -8.5t45 -24.5q21 -13 33.5 -19t24.5 -6q22 0 34.5 16t12.5 39h45q0 -55 -24.5 -85.5t-65.5 -30.5q-21 0 -40 8.5t-45 24.5q-21 13 -33.5 19t-24.5 6q-22 0 -34.5 -16t-12.5 -39h-45q0 55 24.5 85.5zM253 1055h90v-86h-90v86z
M426 1055h90v-86h-90v86z" />
    <glyph glyph-name="uni1E4F" unicode="&#x1e4f;" horiz-adv-x="572" 
d="M161 25q-54 32 -83.5 91t-29.5 138t29.5 138t83.5 91t125 32t125 -32t83.5 -91t29.5 -138t-29.5 -138t-83.5 -91t-125 -32t-125 32zM401 109.5q40 49.5 40 144.5q0 92 -41 142.5t-114 50.5q-74 0 -115 -50.5t-41 -142.5q0 -95 40.5 -144.5t115.5 -49.5t115 49.5z
M147.5 700q24.5 30 65.5 30q21 0 40 -8.5t45 -24.5q21 -13 33.5 -19t24.5 -6q22 0 34.5 16t12.5 39h45q0 -55 -24.5 -85t-65.5 -30q-21 0 -40 8.5t-45 24.5q-21 13 -33.5 19t-24.5 6q-22 0 -34.5 -16t-12.5 -39h-45q0 55 24.5 85zM154 909h90v-86h-90v86zM327 909h90v-86
h-90v86z" />
    <glyph glyph-name="uni1E50" unicode="&#x1e50;" horiz-adv-x="772" 
d="M214 36q-73 44 -112.5 126.5t-39.5 193.5q0 112 39 194t112 126t173 44t173 -44t112 -126t39 -193q0 -112 -39.5 -194t-112.5 -126.5t-172 -44.5t-172 44zM562 139q63 77 63 218t-62.5 217t-176.5 76t-177 -76.5t-63 -216.5q0 -141 63 -218t177 -77q113 0 176 77z
M233 819v62h303v-62h-303zM356 935l-134 153h89l102 -153h-57z" />
    <glyph glyph-name="uni1E51" unicode="&#x1e51;" horiz-adv-x="572" 
d="M161 25q-54 32 -83.5 91t-29.5 138t29.5 138t83.5 91t125 32t125 -32t83.5 -91t29.5 -138t-29.5 -138t-83.5 -91t-125 -32t-125 32zM401 109.5q40 49.5 40 144.5q0 92 -41 142.5t-114 50.5q-74 0 -115 -50.5t-41 -142.5q0 -95 40.5 -144.5t115.5 -49.5t115 49.5zM134 639
v62h303v-62h-303zM257 764l-137 204h94l100 -204h-57z" />
    <glyph glyph-name="uni1E52" unicode="&#x1e52;" horiz-adv-x="772" 
d="M214 36q-73 44 -112.5 126.5t-39.5 193.5q0 112 39 194t112 126t173 44t173 -44t112 -126t39 -193q0 -112 -39.5 -194t-112.5 -126.5t-172 -44.5t-172 44zM562 139q63 77 63 218t-62.5 217t-176.5 76t-177 -76.5t-63 -216.5q0 -141 63 -218t177 -77q113 0 176 77z
M233 819v62h303v-62h-303zM413 935h-57l102 153h89z" />
    <glyph glyph-name="uni1E53" unicode="&#x1e53;" horiz-adv-x="572" 
d="M161 25q-54 32 -83.5 91t-29.5 138t29.5 138t83.5 91t125 32t125 -32t83.5 -91t29.5 -138t-29.5 -138t-83.5 -91t-125 -32t-125 32zM401 109.5q40 49.5 40 144.5q0 92 -41 142.5t-114 50.5q-74 0 -115 -50.5t-41 -142.5q0 -95 40.5 -144.5t115.5 -49.5t115 49.5zM134 639
v62h303v-62h-303zM314 764h-57l100 204h94z" />
    <glyph glyph-name="uni1E5A" unicode="&#x1e5a;" horiz-adv-x="693" 
d="M647 0h-87l-88 237q-16 44 -44.5 59t-80.5 15h-178v-311h-81v712h283q115 0 176.5 -51t61.5 -147q0 -70 -36.5 -117.5t-105.5 -67.5q31 -5 53 -26.5t37 -61.5zM364 379q164 0 164 134q0 66 -40 98.5t-124 32.5h-195v-265h195zM297 -95h93v-89h-93v89z" />
    <glyph glyph-name="uni1E5B" unicode="&#x1e5b;" horiz-adv-x="362" 
d="M358 509l-2 -74q-23 8 -53 8q-73 0 -108.5 -45.5t-35.5 -110.5v-287h-81v362q0 78 -8 141h77l8 -93q19 51 61 78t96 27q25 0 46 -6zM73 -95h93v-89h-93v89z" />
    <glyph glyph-name="uni1E5E" unicode="&#x1e5e;" horiz-adv-x="693" 
d="M647 0h-87l-88 237q-16 44 -44.5 59t-80.5 15h-178v-311h-81v712h283q115 0 176.5 -51t61.5 -147q0 -70 -36.5 -117.5t-105.5 -67.5q31 -5 53 -26.5t37 -61.5zM364 379q164 0 164 134q0 66 -40 98.5t-124 32.5h-195v-265h195zM192 -170v60h303v-60h-303z" />
    <glyph glyph-name="uni1E5F" unicode="&#x1e5f;" horiz-adv-x="362" 
d="M358 509l-2 -74q-23 8 -53 8q-73 0 -108.5 -45.5t-35.5 -110.5v-287h-81v362q0 78 -8 141h77l8 -93q19 51 61 78t96 27q25 0 46 -6zM-32 -170v60h303v-60h-303z" />
    <glyph glyph-name="uni1E60" unicode="&#x1e60;" horiz-adv-x="623" 
d="M48 82l31 63q53 -45 108 -64t128 -19q86 0 132.5 33.5t46.5 94.5q0 36 -22.5 58.5t-59 35.5t-97.5 27q-82 18 -135 39t-86 60.5t-33 103.5q0 61 32 107.5t90.5 72.5t136.5 26q74 0 138 -23t108 -67l-32 -63q-50 43 -101.5 63t-112.5 20q-83 0 -130 -35.5t-47 -97.5
q0 -54 41 -81t126 -47q92 -22 144.5 -40.5t87.5 -56t35 -99.5q0 -60 -32 -105.5t-91.5 -70.5t-139.5 -25q-167 0 -266 90zM262 896h99v-92h-99v92z" />
    <glyph glyph-name="uni1E61" unicode="&#x1e61;" horiz-adv-x="496" 
d="M47 58l27 60q41 -32 83 -46t94 -14q57 0 86.5 19.5t29.5 56.5q0 30 -20 48t-66 28l-85 20q-63 14 -97.5 50t-34.5 86q0 66 53 107.5t140 41.5q53 0 100 -17t79 -49l-27 -59q-71 59 -152 59q-54 0 -83.5 -20.5t-29.5 -57.5q0 -31 18.5 -49t59.5 -28l85 -21
q70 -16 104 -49.5t34 -87.5q0 -65 -53 -104t-144 -39q-127 0 -201 65zM207 716h99v-92h-99v92z" />
    <glyph glyph-name="uni1E62" unicode="&#x1e62;" horiz-adv-x="623" 
d="M48 82l31 63q53 -45 108 -64t128 -19q86 0 132.5 33.5t46.5 94.5q0 36 -22.5 58.5t-59 35.5t-97.5 27q-82 18 -135 39t-86 60.5t-33 103.5q0 61 32 107.5t90.5 72.5t136.5 26q74 0 138 -23t108 -67l-32 -63q-50 43 -101.5 63t-112.5 20q-83 0 -130 -35.5t-47 -97.5
q0 -54 41 -81t126 -47q92 -22 144.5 -40.5t87.5 -56t35 -99.5q0 -60 -32 -105.5t-91.5 -70.5t-139.5 -25q-167 0 -266 90zM268 -95h93v-89h-93v89z" />
    <glyph glyph-name="uni1E63" unicode="&#x1e63;" horiz-adv-x="496" 
d="M47 58l27 60q41 -32 83 -46t94 -14q57 0 86.5 19.5t29.5 56.5q0 30 -20 48t-66 28l-85 20q-63 14 -97.5 50t-34.5 86q0 66 53 107.5t140 41.5q53 0 100 -17t79 -49l-27 -59q-71 59 -152 59q-54 0 -83.5 -20.5t-29.5 -57.5q0 -31 18.5 -49t59.5 -28l85 -21
q70 -16 104 -49.5t34 -87.5q0 -65 -53 -104t-144 -39q-127 0 -201 65zM200 -95h93v-89h-93v89z" />
    <glyph glyph-name="uni1E64" unicode="&#x1e64;" horiz-adv-x="623" 
d="M48 82l31 63q53 -45 108 -64t128 -19q86 0 132.5 33.5t46.5 94.5q0 36 -22.5 58.5t-59 35.5t-97.5 27q-82 18 -135 39t-86 60.5t-33 103.5q0 61 32 107.5t90.5 72.5t136.5 26q74 0 138 -23t108 -67l-32 -63q-50 43 -101.5 63t-112.5 20q-83 0 -130 -35.5t-47 -97.5
q0 -54 41 -81t126 -47q92 -22 144.5 -40.5t87.5 -56t35 -99.5q0 -60 -32 -105.5t-91.5 -70.5t-139.5 -25q-167 0 -266 90zM348 773h-57l102 153h89zM149 925h99v-92h-99v92z" />
    <glyph glyph-name="uni1E65" unicode="&#x1e65;" horiz-adv-x="496" 
d="M47 58l27 60q41 -32 83 -46t94 -14q57 0 86.5 19.5t29.5 56.5q0 30 -20 48t-66 28l-85 20q-63 14 -97.5 50t-34.5 86q0 66 53 107.5t140 41.5q53 0 100 -17t79 -49l-27 -59q-71 59 -152 59q-54 0 -83.5 -20.5t-29.5 -57.5q0 -31 18.5 -49t59.5 -28l85 -21
q70 -16 104 -49.5t34 -87.5q0 -65 -53 -104t-144 -39q-127 0 -201 65zM289 565h-57l100 204h94zM106 763h99v-92h-99v92z" />
    <glyph glyph-name="uni1E66" unicode="&#x1e66;" horiz-adv-x="623" 
d="M48 82l31 63q53 -45 108 -64t128 -19q86 0 132.5 33.5t46.5 94.5q0 36 -22.5 58.5t-59 35.5t-97.5 27q-82 18 -135 39t-86 60.5t-33 103.5q0 61 32 107.5t90.5 72.5t136.5 26q74 0 138 -23t108 -67l-32 -63q-50 43 -101.5 63t-112.5 20q-83 0 -130 -35.5t-47 -97.5
q0 -54 41 -81t126 -47q92 -22 144.5 -40.5t87.5 -56t35 -99.5q0 -60 -32 -105.5t-91.5 -70.5t-139.5 -25q-167 0 -266 90zM385 926h74l-120 -153h-55l-120 153h74l74 -105zM262 1058h99v-92h-99v92z" />
    <glyph glyph-name="uni1E67" unicode="&#x1e67;" horiz-adv-x="496" 
d="M47 58l27 60q41 -32 83 -46t94 -14q57 0 86.5 19.5t29.5 56.5q0 30 -20 48t-66 28l-85 20q-63 14 -97.5 50t-34.5 86q0 66 53 107.5t140 41.5q53 0 100 -17t79 -49l-27 -59q-71 59 -152 59q-54 0 -83.5 -20.5t-29.5 -57.5q0 -31 18.5 -49t59.5 -28l85 -21
q70 -16 104 -49.5t34 -87.5q0 -65 -53 -104t-144 -39q-127 0 -201 65zM329 772h75l-119 -204h-57l-119 204h75l73 -145zM207 912h99v-92h-99v92z" />
    <glyph glyph-name="uni1E68" unicode="&#x1e68;" horiz-adv-x="623" 
d="M48 82l31 63q53 -45 108 -64t128 -19q86 0 132.5 33.5t46.5 94.5q0 36 -22.5 58.5t-59 35.5t-97.5 27q-82 18 -135 39t-86 60.5t-33 103.5q0 61 32 107.5t90.5 72.5t136.5 26q74 0 138 -23t108 -67l-32 -63q-50 43 -101.5 63t-112.5 20q-83 0 -130 -35.5t-47 -97.5
q0 -54 41 -81t126 -47q92 -22 144.5 -40.5t87.5 -56t35 -99.5q0 -60 -32 -105.5t-91.5 -70.5t-139.5 -25q-167 0 -266 90zM268 -95h93v-89h-93v89zM262 896h99v-92h-99v92z" />
    <glyph glyph-name="uni1E69" unicode="&#x1e69;" horiz-adv-x="496" 
d="M47 58l27 60q41 -32 83 -46t94 -14q57 0 86.5 19.5t29.5 56.5q0 30 -20 48t-66 28l-85 20q-63 14 -97.5 50t-34.5 86q0 66 53 107.5t140 41.5q53 0 100 -17t79 -49l-27 -59q-71 59 -152 59q-54 0 -83.5 -20.5t-29.5 -57.5q0 -31 18.5 -49t59.5 -28l85 -21
q70 -16 104 -49.5t34 -87.5q0 -65 -53 -104t-144 -39q-127 0 -201 65zM200 -95h93v-89h-93v89zM207 716h99v-92h-99v92z" />
    <glyph glyph-name="uni1E6C" unicode="&#x1e6c;" horiz-adv-x="603" 
d="M260 0v642h-248v70h579v-70h-248v-642h-83zM255 -95h93v-89h-93v89z" />
    <glyph glyph-name="uni1E6D" unicode="&#x1e6d;" horiz-adv-x="350" 
d="M186 439v-275q0 -56 23 -78.5t65 -22.5q28 0 54 9v-69q-31 -10 -70 -10q-72 0 -112.5 40.5t-40.5 119.5v286h-98v64h98v129l81 29v-158h144v-64h-144zM178 -95h93v-89h-93v89z" />
    <glyph glyph-name="uni1E6E" unicode="&#x1e6e;" horiz-adv-x="603" 
d="M260 0v642h-248v70h579v-70h-248v-642h-83zM150 -170v60h303v-60h-303z" />
    <glyph glyph-name="uni1E6F" unicode="&#x1e6f;" horiz-adv-x="350" 
d="M186 439v-275q0 -56 23 -78.5t65 -22.5q28 0 54 9v-69q-31 -10 -70 -10q-72 0 -112.5 40.5t-40.5 119.5v286h-98v64h98v129l81 29v-158h144v-64h-144zM73 -170v60h303v-60h-303z" />
    <glyph glyph-name="uni1E78" unicode="&#x1e78;" horiz-adv-x="731" 
d="M154.5 64.5q-71.5 72.5 -71.5 214.5v433h81v-440q0 -104 51 -157t151 -53q99 0 149.5 53t50.5 157v440h82v-433q0 -141 -72 -214t-210 -73q-140 0 -211.5 72.5zM227.5 879.5q24.5 30.5 65.5 30.5q21 0 40 -8.5t45 -24.5q21 -13 33.5 -19t24.5 -6q22 0 34.5 16t12.5 39h45
q0 -55 -24.5 -85.5t-65.5 -30.5q-21 0 -40 8.5t-45 24.5q-21 13 -33.5 19t-24.5 6q-22 0 -34.5 -16t-12.5 -39h-45q0 55 24.5 85.5zM394 935h-57l102 153h89z" />
    <glyph glyph-name="uni1E79" unicode="&#x1e79;" horiz-adv-x="577" 
d="M499 503v-503h-79v87q-24 -46 -67 -70t-97 -24q-89 0 -135 50t-46 148v312h81v-310q0 -68 28 -100t85 -32q67 0 108 43.5t41 114.5v284h81zM150.5 700q24.5 30 65.5 30q21 0 40 -8.5t45 -24.5q21 -13 33.5 -19t24.5 -6q22 0 34.5 16t12.5 39h45q0 -55 -24.5 -85
t-65.5 -30q-21 0 -40 8.5t-45 24.5q-21 13 -33.5 19t-24.5 6q-22 0 -34.5 -16t-12.5 -39h-45q0 55 24.5 85zM317 764h-57l100 204h94z" />
    <glyph glyph-name="uni1E7A" unicode="&#x1e7a;" horiz-adv-x="731" 
d="M154.5 64.5q-71.5 72.5 -71.5 214.5v433h81v-440q0 -104 51 -157t151 -53q99 0 149.5 53t50.5 157v440h82v-433q0 -141 -72 -214t-210 -73q-140 0 -211.5 72.5zM214 819v62h303v-62h-303zM234 1055h90v-86h-90v86zM407 1055h90v-86h-90v86z" />
    <glyph glyph-name="uni1E7B" unicode="&#x1e7b;" horiz-adv-x="577" 
d="M499 503v-503h-79v87q-24 -46 -67 -70t-97 -24q-89 0 -135 50t-46 148v312h81v-310q0 -68 28 -100t85 -32q67 0 108 43.5t41 114.5v284h81zM137 639v62h303v-62h-303zM157 909h90v-86h-90v86zM330 909h90v-86h-90v86z" />
    <glyph glyph-name="Wgrave" unicode="&#x1e80;" horiz-adv-x="1112" 
d="M997 712h81l-249 -712h-70l-203 583l-204 -583h-69l-250 712h84l202 -595l207 595l63 -1l204 -596zM526 773l-134 153h89l102 -153h-57z" />
    <glyph glyph-name="wgrave" unicode="&#x1e81;" horiz-adv-x="869" 
d="M762 503h80l-186 -503h-78l-144 393l-143 -393h-78l-186 503h85l142 -406l147 406h71l145 -407zM406 568l-137 204h94l100 -204h-57z" />
    <glyph glyph-name="Wacute" unicode="&#x1e82;" horiz-adv-x="1112" 
d="M997 712h81l-249 -712h-70l-203 583l-204 -583h-69l-250 712h84l202 -595l207 595l63 -1l204 -596zM583 773h-57l102 153h89z" />
    <glyph glyph-name="wacute" unicode="&#x1e83;" horiz-adv-x="869" 
d="M762 503h80l-186 -503h-78l-144 393l-143 -393h-78l-186 503h85l142 -406l147 406h71l145 -407zM463 568h-57l100 204h94z" />
    <glyph glyph-name="Wdieresis" unicode="&#x1e84;" horiz-adv-x="1112" 
d="M997 712h81l-249 -712h-70l-203 583l-204 -583h-69l-250 712h84l202 -595l207 595l63 -1l204 -596zM423 893h90v-86h-90v86zM596 893h90v-86h-90v86z" />
    <glyph glyph-name="wdieresis" unicode="&#x1e85;" horiz-adv-x="869" 
d="M762 503h80l-186 -503h-78l-144 393l-143 -393h-78l-186 503h85l142 -406l147 406h71l145 -407zM303 713h90v-86h-90v86zM476 713h90v-86h-90v86z" />
    <glyph glyph-name="uni1E8E" unicode="&#x1e8e;" horiz-adv-x="607" 
d="M624 712l-280 -424v-288h-82v289l-280 423h96l226 -350l226 350h94zM253 896h99v-92h-99v92z" />
    <glyph glyph-name="uni1E8F" unicode="&#x1e8f;" horiz-adv-x="531" 
d="M520 503l-235 -549q-37 -86 -93 -126t-138 -55l-17 63q71 16 107.5 42.5t60.5 81.5l20 45l-213 498h85l170 -415l172 415h81zM216 716h99v-92h-99v92z" />
    <glyph glyph-name="uni1E92" unicode="&#x1e92;" horiz-adv-x="596" 
d="M140 69h418v-69h-513v61l408 582h-408v69h503v-60zM255 -95h93v-89h-93v89z" />
    <glyph glyph-name="uni1E93" unicode="&#x1e93;" horiz-adv-x="518" 
d="M150 64h325v-64h-425v56l317 383h-306v64h403v-59zM211 -95h93v-89h-93v89z" />
    <glyph glyph-name="uni1E97" unicode="&#x1e97;" horiz-adv-x="350" 
d="M186 439v-275q0 -56 23 -78.5t65 -22.5q28 0 54 9v-69q-31 -10 -70 -10q-72 0 -112.5 40.5t-40.5 119.5v286h-98v64h98v129l81 29v-158h144v-64h-144zM14 837h90v-86h-90v86zM187 837h90v-86h-90v86z" />
    <glyph glyph-name="uni1E9E" unicode="&#x1e9e;" horiz-adv-x="695" 
d="M597.5 310.5q38.5 -45.5 38.5 -115.5q0 -59 -28 -105t-78 -71.5t-114 -25.5q-108 0 -184 65l28 63q41 -31 76 -45t72 -14q69 0 108 36t39 100q0 129 -169 129h-129v69h98q73 0 112.5 33.5t39.5 94.5q0 59 -40.5 92t-112.5 33q-93 0 -139 -47.5t-46 -144.5v-457h-81v461
q0 127 68 192.5t199 65.5q107 0 170 -51.5t63 -138.5q0 -56 -27 -97t-75 -60q73 -16 111.5 -61.5z" />
    <glyph glyph-name="uni1EA0" unicode="&#x1ea0;" horiz-adv-x="734" 
d="M632 0l-78 183h-372l-79 -183h-85l313 712h72l313 -712h-84zM211 251h314l-157 366zM321 -95h93v-89h-93v89z" />
    <glyph glyph-name="uni1EA1" unicode="&#x1ea1;" 
d="M521 503v-503h-80v91q-22 -47 -66.5 -72.5t-103.5 -25.5q-67 0 -117.5 32t-78 90.5t-27.5 136.5t28 137.5t78.5 92.5t116.5 33q59 0 103 -26t67 -73v87h80zM401 110.5q40 50.5 40 143.5t-40 143t-114 50t-115.5 -51.5t-41.5 -143.5t41 -142t116 -50q74 0 114 50.5z
M254 -95h93v-89h-93v89z" />
    <glyph glyph-name="uni1EA2" unicode="&#x1ea2;" horiz-adv-x="734" 
d="M632 0l-78 183h-372l-79 -183h-85l313 712h72l313 -712h-84zM211 251h314l-157 366zM394 773h-54v18q0 17 10.5 26.5t30.5 20.5q15 8 21 13t6 12q0 9 -11 14t-30 5q-30 0 -62 -12l-14 43q39 17 82 17q46 0 72.5 -17.5t26.5 -46.5q0 -20 -12 -31t-34 -21q-17 -9 -24.5 -15
t-7.5 -16v-10z" />
    <glyph glyph-name="uni1EA3" unicode="&#x1ea3;" 
d="M521 503v-503h-80v91q-22 -47 -66.5 -72.5t-103.5 -25.5q-67 0 -117.5 32t-78 90.5t-27.5 136.5t28 137.5t78.5 92.5t116.5 33q59 0 103 -26t67 -73v87h80zM401 110.5q40 50.5 40 143.5t-40 143t-114 50t-115.5 -51.5t-41.5 -143.5t41 -142t116 -50q74 0 114 50.5z
M329 568h-53v28q0 20 10 34.5t29 32.5q14 14 19.5 21t5.5 16q0 12 -10.5 18.5t-30.5 6.5q-27 0 -59 -11l-15 44q39 18 81 18q47 0 73.5 -20t26.5 -50q0 -23 -10.5 -37t-31.5 -32q-17 -13 -26 -24.5t-9 -27.5v-17z" />
    <glyph glyph-name="uni1EA4" unicode="&#x1ea4;" horiz-adv-x="734" 
d="M632 0l-78 183h-372l-79 -183h-85l313 712h72l313 -712h-84zM211 251h314l-157 366zM502 877h-50l92 142h86zM293 773h-74l120 148h55l120 -148h-74l-73 100z" />
    <glyph glyph-name="uni1EA5" unicode="&#x1ea5;" 
d="M521 503v-503h-80v91q-22 -47 -66.5 -72.5t-103.5 -25.5q-67 0 -117.5 32t-78 90.5t-27.5 136.5t28 137.5t78.5 92.5t116.5 33q59 0 103 -26t67 -73v87h80zM401 110.5q40 50.5 40 143.5t-40 143t-114 50t-115.5 -51.5t-41.5 -143.5t41 -142t116 -50q74 0 114 50.5z
M436 672h-50l92 143h86zM227 568h-74l120 148h55l120 -148h-74l-73 100z" />
    <glyph glyph-name="uni1EA6" unicode="&#x1ea6;" horiz-adv-x="734" 
d="M632 0l-78 183h-372l-79 -183h-85l313 712h72l313 -712h-84zM211 251h314l-157 366zM495 877l-113 142h85l78 -142h-50zM293 773h-74l120 148h55l120 -148h-74l-73 100z" />
    <glyph glyph-name="uni1EA7" unicode="&#x1ea7;" 
d="M521 503v-503h-80v91q-22 -47 -66.5 -72.5t-103.5 -25.5q-67 0 -117.5 32t-78 90.5t-27.5 136.5t28 137.5t78.5 92.5t116.5 33q59 0 103 -26t67 -73v87h80zM401 110.5q40 50.5 40 143.5t-40 143t-114 50t-115.5 -51.5t-41.5 -143.5t41 -142t116 -50q74 0 114 50.5z
M429 672l-113 143h85l78 -143h-50zM227 568h-74l120 148h55l120 -148h-74l-73 100z" />
    <glyph glyph-name="uni1EA8" unicode="&#x1ea8;" horiz-adv-x="734" 
d="M632 0l-78 183h-372l-79 -183h-85l313 712h72l313 -712h-84zM211 251h314l-157 366zM505 877h-54v17q0 17 11.5 26t31.5 18q13 6 19 10t6 10q0 9 -11 14t-30 5q-30 0 -62 -12l-14 42q41 18 82 18q46 0 73 -17.5t27 -46.5q0 -18 -11.5 -27t-34.5 -20q-16 -7 -24.5 -13
t-8.5 -15v-9zM293 773h-74l120 148h55l120 -148h-74l-73 100z" />
    <glyph glyph-name="uni1EA9" unicode="&#x1ea9;" 
d="M521 503v-503h-80v91q-22 -47 -66.5 -72.5t-103.5 -25.5q-67 0 -117.5 32t-78 90.5t-27.5 136.5t28 137.5t78.5 92.5t116.5 33q59 0 103 -26t67 -73v87h80zM401 110.5q40 50.5 40 143.5t-40 143t-114 50t-115.5 -51.5t-41.5 -143.5t41 -142t116 -50q74 0 114 50.5z
M439 672h-54v17q0 17 11.5 26t31.5 18q13 6 19 10t6 10q0 8 -11 13.5t-30 5.5q-31 0 -62 -13l-14 44q42 17 82 17q46 0 73 -17.5t27 -46.5q0 -18 -11.5 -27t-34.5 -20q-16 -7 -24.5 -13t-8.5 -15v-9zM227 568h-74l120 148h55l120 -148h-74l-73 100z" />
    <glyph glyph-name="uni1EAA" unicode="&#x1eaa;" horiz-adv-x="734" 
d="M632 0l-78 183h-372l-79 -183h-85l313 712h72l313 -712h-84zM211 251h314l-157 366zM229 1007.5q25 27.5 65 27.5q21 0 39.5 -6.5t45.5 -18.5q15 -7 30.5 -12.5t27.5 -5.5q22 0 34.5 13.5t12.5 31.5h45q0 -43 -25 -71.5t-65 -28.5q-21 0 -39.5 6.5t-45.5 18.5
q-20 10 -33 14.5t-25 4.5q-22 0 -34.5 -13.5t-12.5 -31.5h-45q0 44 25 71.5zM293 773h-74l120 148h55l120 -148h-74l-73 100z" />
    <glyph glyph-name="uni1EAB" unicode="&#x1eab;" 
d="M521 503v-503h-80v91q-22 -47 -66.5 -72.5t-103.5 -25.5q-67 0 -117.5 32t-78 90.5t-27.5 136.5t28 137.5t78.5 92.5t116.5 33q59 0 103 -26t67 -73v87h80zM401 110.5q40 50.5 40 143.5t-40 143t-114 50t-115.5 -51.5t-41.5 -143.5t41 -142t116 -50q74 0 114 50.5z
M163 803q25 28 65 28q21 0 39.5 -6.5t45.5 -18.5q15 -7 30.5 -12.5t27.5 -5.5q22 0 34.5 13t12.5 31h45q0 -43 -25 -71t-65 -28q-21 0 -39.5 6.5t-45.5 18.5q-15 7 -30.5 12.5t-27.5 5.5q-22 0 -34.5 -13.5t-12.5 -31.5h-45q0 44 25 72zM227 568h-74l120 148h55l120 -148
h-74l-73 100z" />
    <glyph glyph-name="uni1EAC" unicode="&#x1eac;" horiz-adv-x="734" 
d="M632 0l-78 183h-372l-79 -183h-85l313 712h72l313 -712h-84zM211 251h314l-157 366zM321 -95h93v-89h-93v89zM293 773h-74l120 153h55l120 -153h-74l-73 104z" />
    <glyph glyph-name="uni1EAD" unicode="&#x1ead;" 
d="M521 503v-503h-80v91q-22 -47 -66.5 -72.5t-103.5 -25.5q-67 0 -117.5 32t-78 90.5t-27.5 136.5t28 137.5t78.5 92.5t116.5 33q59 0 103 -26t67 -73v87h80zM401 110.5q40 50.5 40 143.5t-40 143t-114 50t-115.5 -51.5t-41.5 -143.5t41 -142t116 -50q74 0 114 50.5z
M254 -95h93v-89h-93v89zM228 568h-75l119 204h57l119 -204h-75l-72 144z" />
    <glyph glyph-name="uni1EAE" unicode="&#x1eae;" horiz-adv-x="734" 
d="M632 0l-78 183h-372l-79 -183h-85l313 712h72l313 -712h-84zM211 251h314l-157 366zM394 877h-55l101 142h86zM267 793.5q-43 25.5 -65 81.5l47 20q23 -41 51.5 -57t66.5 -16q37 0 65.5 16.5t51.5 56.5l47 -20q-22 -56 -65 -81.5t-99 -25.5q-57 0 -100 25.5z" />
    <glyph glyph-name="uni1EAF" unicode="&#x1eaf;" 
d="M521 503v-503h-80v91q-22 -47 -66.5 -72.5t-103.5 -25.5q-67 0 -117.5 32t-78 90.5t-27.5 136.5t28 137.5t78.5 92.5t116.5 33q59 0 103 -26t67 -73v87h80zM401 110.5q40 50.5 40 143.5t-40 143t-114 50t-115.5 -51.5t-41.5 -143.5t41 -142t116 -50q74 0 114 50.5z
M328 672h-55l101 143h86zM201 588.5q-43 25.5 -65 81.5l47 20q23 -40 51.5 -56t66.5 -16t66 16t51 56l47 -20q-22 -56 -65 -81.5t-99 -25.5q-57 0 -100 25.5z" />
    <glyph glyph-name="uni1EB0" unicode="&#x1eb0;" horiz-adv-x="734" 
d="M632 0l-78 183h-372l-79 -183h-85l313 712h72l313 -712h-84zM211 251h314l-157 366zM339 877l-132 142h86l101 -142h-55zM267 793.5q-43 25.5 -65 81.5l47 20q23 -41 51.5 -57t66.5 -16q37 0 65.5 16.5t51.5 56.5l47 -20q-22 -56 -65 -81.5t-99 -25.5q-57 0 -100 25.5z
" />
    <glyph glyph-name="uni1EB1" unicode="&#x1eb1;" 
d="M521 503v-503h-80v91q-22 -47 -66.5 -72.5t-103.5 -25.5q-67 0 -117.5 32t-78 90.5t-27.5 136.5t28 137.5t78.5 92.5t116.5 33q59 0 103 -26t67 -73v87h80zM401 110.5q40 50.5 40 143.5t-40 143t-114 50t-115.5 -51.5t-41.5 -143.5t41 -142t116 -50q74 0 114 50.5z
M273 672l-132 143h86l101 -143h-55zM201 588.5q-43 25.5 -65 81.5l47 20q23 -40 51.5 -56t66.5 -16t66 16t51 56l47 -20q-22 -56 -65 -81.5t-99 -25.5q-57 0 -100 25.5z" />
    <glyph glyph-name="uni1EB2" unicode="&#x1eb2;" horiz-adv-x="734" 
d="M632 0l-78 183h-372l-79 -183h-85l313 712h72l313 -712h-84zM211 251h314l-157 366zM394 877h-54v17q0 17 11.5 26t31.5 18q13 6 19 10t6 10q0 9 -11 14t-30 5q-30 0 -62 -12l-14 42q41 18 82 18q46 0 72.5 -17.5t26.5 -46.5q0 -18 -11 -27t-34 -20q-16 -7 -24.5 -13
t-8.5 -15v-9zM267 793.5q-43 25.5 -65 81.5l47 20q23 -41 51.5 -57t66.5 -16q37 0 65.5 16.5t51.5 56.5l47 -20q-22 -56 -65 -81.5t-99 -25.5q-57 0 -100 25.5z" />
    <glyph glyph-name="uni1EB3" unicode="&#x1eb3;" 
d="M521 503v-503h-80v91q-22 -47 -66.5 -72.5t-103.5 -25.5q-67 0 -117.5 32t-78 90.5t-27.5 136.5t28 137.5t78.5 92.5t116.5 33q59 0 103 -26t67 -73v87h80zM401 110.5q40 50.5 40 143.5t-40 143t-114 50t-115.5 -51.5t-41.5 -143.5t41 -142t116 -50q74 0 114 50.5z
M328 672h-54v17q0 17 11.5 26t31.5 18q13 6 19 10t6 10q0 8 -11 13.5t-30 5.5q-31 0 -62 -13l-14 44q42 17 82 17q46 0 72.5 -17.5t26.5 -46.5q0 -18 -11 -27t-34 -20q-16 -7 -24.5 -13t-8.5 -15v-9zM201 588.5q-43 25.5 -65 81.5l47 20q23 -40 51.5 -56t66.5 -16t66 16
t51 56l47 -20q-22 -56 -65 -81.5t-99 -25.5q-57 0 -100 25.5z" />
    <glyph glyph-name="uni1EB4" unicode="&#x1eb4;" horiz-adv-x="734" 
d="M632 0l-78 183h-372l-79 -183h-85l313 712h72l313 -712h-84zM211 251h314l-157 366zM228.5 998.5q24.5 28.5 65.5 28.5q20 0 38.5 -7.5t46.5 -22.5q23 -12 34.5 -17t23.5 -5q22 0 34.5 14t12.5 35h45q0 -46 -25 -75t-65 -29q-20 0 -38.5 7.5t-46.5 22.5
q-21 12 -33.5 17.5t-24.5 5.5q-22 0 -34.5 -14.5t-12.5 -35.5h-45q0 47 24.5 75.5zM267 793.5q-43 25.5 -65 81.5l47 20q23 -41 51.5 -57t66.5 -16q37 0 65.5 16.5t51.5 56.5l47 -20q-22 -56 -65 -81.5t-99 -25.5q-57 0 -100 25.5z" />
    <glyph glyph-name="uni1EB5" unicode="&#x1eb5;" 
d="M521 503v-503h-80v91q-22 -47 -66.5 -72.5t-103.5 -25.5q-67 0 -117.5 32t-78 90.5t-27.5 136.5t28 137.5t78.5 92.5t116.5 33q59 0 103 -26t67 -73v87h80zM401 110.5q40 50.5 40 143.5t-40 143t-114 50t-115.5 -51.5t-41.5 -143.5t41 -142t116 -50q74 0 114 50.5z
M163 794.5q25 28.5 65 28.5q20 0 38.5 -7.5t46.5 -22.5q21 -12 33.5 -17.5t24.5 -5.5q22 0 34.5 14.5t12.5 35.5h45q0 -47 -24.5 -75.5t-65.5 -28.5q-20 0 -38.5 7.5t-46.5 22.5q-23 12 -34.5 17t-23.5 5q-22 0 -34.5 -14t-12.5 -35h-45q0 47 25 75.5zM201 588.5
q-43 25.5 -65 81.5l47 20q23 -40 51.5 -56t66.5 -16t66 16t51 56l47 -20q-22 -56 -65 -81.5t-99 -25.5q-57 0 -100 25.5z" />
    <glyph glyph-name="uni1EB6" unicode="&#x1eb6;" horiz-adv-x="734" 
d="M632 0l-78 183h-372l-79 -183h-85l313 712h72l313 -712h-84zM211 251h314l-157 366zM321 -95h93v-89h-93v89zM267 810.5q-43 25.5 -65 81.5l51 22q23 -40 50 -55.5t64 -15.5t63.5 15.5t49.5 55.5l51 -22q-22 -56 -65 -81.5t-99 -25.5q-57 0 -100 25.5z" />
    <glyph glyph-name="uni1EB7" unicode="&#x1eb7;" 
d="M521 503v-503h-80v91q-22 -47 -66.5 -72.5t-103.5 -25.5q-67 0 -117.5 32t-78 90.5t-27.5 136.5t28 137.5t78.5 92.5t116.5 33q59 0 103 -26t67 -73v87h80zM401 110.5q40 50.5 40 143.5t-40 143t-114 50t-115.5 -51.5t-41.5 -143.5t41 -142t116 -50q74 0 114 50.5z
M254 -95h93v-89h-93v89zM200 629.5q-45 31.5 -66 96.5l51 22q22 -48 51 -69t65 -21q73 0 115 90l51 -22q-21 -65 -65.5 -96.5t-100.5 -31.5t-101 31.5z" />
    <glyph glyph-name="uni1EB8" unicode="&#x1eb8;" horiz-adv-x="588" 
d="M88 0v712h450v-68h-369v-248h349v-69h-349v-259h369v-68h-450zM280 -95h93v-89h-93v89z" />
    <glyph glyph-name="uni1EB9" unicode="&#x1eb9;" horiz-adv-x="544" 
d="M499 254h-369q1 -96 44.5 -145t126.5 -49q88 0 162 59l27 -59q-33 -31 -84.5 -49t-105.5 -18q-118 0 -185 69.5t-67 190.5q0 77 30 136.5t84 92.5t123 33q100 0 157 -65.5t57 -180.5v-15zM183.5 414q-39.5 -38 -50.5 -107h293q-6 71 -41.5 108t-98.5 37t-102.5 -38z
M252 -95h93v-89h-93v89z" />
    <glyph glyph-name="uni1EBA" unicode="&#x1eba;" horiz-adv-x="588" 
d="M88 0v712h450v-68h-369v-248h349v-69h-349v-259h369v-68h-450zM354 773h-54v18q0 17 10.5 26.5t30.5 20.5q15 8 21 13t6 12q0 9 -11 14t-30 5q-30 0 -62 -12l-14 43q39 17 82 17q46 0 72.5 -17.5t26.5 -46.5q0 -20 -12 -31t-34 -21q-17 -9 -24.5 -15t-7.5 -16v-10z" />
    <glyph glyph-name="uni1EBB" unicode="&#x1ebb;" horiz-adv-x="544" 
d="M499 254h-369q1 -96 44.5 -145t126.5 -49q88 0 162 59l27 -59q-33 -31 -84.5 -49t-105.5 -18q-118 0 -185 69.5t-67 190.5q0 77 30 136.5t84 92.5t123 33q100 0 157 -65.5t57 -180.5v-15zM183.5 414q-39.5 -38 -50.5 -107h293q-6 71 -41.5 108t-98.5 37t-102.5 -38z
M313 568h-53v28q0 20 10 34.5t29 32.5q14 14 19.5 21t5.5 16q0 12 -10.5 18.5t-30.5 6.5q-27 0 -59 -11l-15 44q39 18 81 18q47 0 73.5 -20t26.5 -50q0 -23 -10.5 -37t-31.5 -32q-17 -13 -26 -24.5t-9 -27.5v-17z" />
    <glyph glyph-name="uni1EBC" unicode="&#x1ebc;" horiz-adv-x="588" 
d="M88 0v712h450v-68h-369v-248h349v-69h-349v-259h369v-68h-450zM188.5 879.5q24.5 30.5 65.5 30.5q21 0 40 -8.5t45 -24.5q21 -13 33.5 -19t24.5 -6q22 0 34.5 16t12.5 39h45q0 -55 -24.5 -85.5t-65.5 -30.5q-21 0 -40 8.5t-45 24.5q-21 13 -33.5 19t-24.5 6
q-22 0 -34.5 -16t-12.5 -39h-45q0 55 24.5 85.5z" />
    <glyph glyph-name="uni1EBD" unicode="&#x1ebd;" horiz-adv-x="544" 
d="M499 254h-369q1 -96 44.5 -145t126.5 -49q88 0 162 59l27 -59q-33 -31 -84.5 -49t-105.5 -18q-118 0 -185 69.5t-67 190.5q0 77 30 136.5t84 92.5t123 33q100 0 157 -65.5t57 -180.5v-15zM183.5 414q-39.5 -38 -50.5 -107h293q-6 71 -41.5 108t-98.5 37t-102.5 -38z
M146.5 700q24.5 30 65.5 30q21 0 40 -8.5t45 -24.5q21 -13 33.5 -19t24.5 -6q22 0 34.5 16t12.5 39h45q0 -55 -24.5 -85t-65.5 -30q-21 0 -40 8.5t-45 24.5q-21 13 -33.5 19t-24.5 6q-22 0 -34.5 -16t-12.5 -39h-45q0 55 24.5 85z" />
    <glyph glyph-name="uni1EBE" unicode="&#x1ebe;" horiz-adv-x="588" 
d="M88 0v712h450v-68h-369v-248h349v-69h-349v-259h369v-68h-450zM462 877h-50l92 142h86zM253 773h-74l120 148h55l120 -148h-74l-73 100z" />
    <glyph glyph-name="uni1EBF" unicode="&#x1ebf;" horiz-adv-x="544" 
d="M499 254h-369q1 -96 44.5 -145t126.5 -49q88 0 162 59l27 -59q-33 -31 -84.5 -49t-105.5 -18q-118 0 -185 69.5t-67 190.5q0 77 30 136.5t84 92.5t123 33q100 0 157 -65.5t57 -180.5v-15zM183.5 414q-39.5 -38 -50.5 -107h293q-6 71 -41.5 108t-98.5 37t-102.5 -38z
M420 672h-50l92 143h86zM211 568h-74l120 148h55l120 -148h-74l-73 100z" />
    <glyph glyph-name="uni1EC0" unicode="&#x1ec0;" horiz-adv-x="588" 
d="M88 0v712h450v-68h-369v-248h349v-69h-349v-259h369v-68h-450zM455 877l-113 142h85l78 -142h-50zM253 773h-74l120 148h55l120 -148h-74l-73 100z" />
    <glyph glyph-name="uni1EC1" unicode="&#x1ec1;" horiz-adv-x="544" 
d="M499 254h-369q1 -96 44.5 -145t126.5 -49q88 0 162 59l27 -59q-33 -31 -84.5 -49t-105.5 -18q-118 0 -185 69.5t-67 190.5q0 77 30 136.5t84 92.5t123 33q100 0 157 -65.5t57 -180.5v-15zM183.5 414q-39.5 -38 -50.5 -107h293q-6 71 -41.5 108t-98.5 37t-102.5 -38z
M413 672l-113 143h85l78 -143h-50zM211 568h-74l120 148h55l120 -148h-74l-73 100z" />
    <glyph glyph-name="uni1EC2" unicode="&#x1ec2;" horiz-adv-x="588" 
d="M88 0v712h450v-68h-369v-248h349v-69h-349v-259h369v-68h-450zM465 877h-54v17q0 17 11.5 26t31.5 18q13 6 19 10t6 10q0 9 -11 14t-30 5q-30 0 -62 -12l-14 42q41 18 82 18q46 0 73 -17.5t27 -46.5q0 -18 -11.5 -27t-34.5 -20q-16 -7 -24.5 -13t-8.5 -15v-9zM253 773
h-74l120 148h55l120 -148h-74l-73 100z" />
    <glyph glyph-name="uni1EC3" unicode="&#x1ec3;" horiz-adv-x="544" 
d="M499 254h-369q1 -96 44.5 -145t126.5 -49q88 0 162 59l27 -59q-33 -31 -84.5 -49t-105.5 -18q-118 0 -185 69.5t-67 190.5q0 77 30 136.5t84 92.5t123 33q100 0 157 -65.5t57 -180.5v-15zM183.5 414q-39.5 -38 -50.5 -107h293q-6 71 -41.5 108t-98.5 37t-102.5 -38z
M423 672h-54v17q0 17 11.5 26t31.5 18q13 6 19 10t6 10q0 8 -11 13.5t-30 5.5q-31 0 -62 -13l-14 44q42 17 82 17q46 0 73 -17.5t27 -46.5q0 -18 -11.5 -27t-34.5 -20q-16 -7 -24.5 -13t-8.5 -15v-9zM211 568h-74l120 148h55l120 -148h-74l-73 100z" />
    <glyph glyph-name="uni1EC4" unicode="&#x1ec4;" horiz-adv-x="588" 
d="M88 0v712h450v-68h-369v-248h349v-69h-349v-259h369v-68h-450zM189 1007.5q25 27.5 65 27.5q21 0 39.5 -6.5t45.5 -18.5q15 -7 30.5 -12.5t27.5 -5.5q22 0 34.5 13.5t12.5 31.5h45q0 -43 -25 -71.5t-65 -28.5q-21 0 -39.5 6.5t-45.5 18.5q-20 10 -33 14.5t-25 4.5
q-22 0 -34.5 -13.5t-12.5 -31.5h-45q0 44 25 71.5zM253 773h-74l120 148h55l120 -148h-74l-73 100z" />
    <glyph glyph-name="uni1EC5" unicode="&#x1ec5;" horiz-adv-x="544" 
d="M499 254h-369q1 -96 44.5 -145t126.5 -49q88 0 162 59l27 -59q-33 -31 -84.5 -49t-105.5 -18q-118 0 -185 69.5t-67 190.5q0 77 30 136.5t84 92.5t123 33q100 0 157 -65.5t57 -180.5v-15zM183.5 414q-39.5 -38 -50.5 -107h293q-6 71 -41.5 108t-98.5 37t-102.5 -38z
M147 803q25 28 65 28q21 0 39.5 -6.5t45.5 -18.5q15 -7 30.5 -12.5t27.5 -5.5q22 0 34.5 13t12.5 31h45q0 -43 -25 -71t-65 -28q-21 0 -39.5 6.5t-45.5 18.5q-15 7 -30.5 12.5t-27.5 5.5q-22 0 -34.5 -13.5t-12.5 -31.5h-45q0 44 25 72zM211 568h-74l120 148h55l120 -148
h-74l-73 100z" />
    <glyph glyph-name="uni1EC6" unicode="&#x1ec6;" horiz-adv-x="588" 
d="M88 0v712h450v-68h-369v-248h349v-69h-349v-259h369v-68h-450zM280 -95h93v-89h-93v89zM253 773h-74l120 153h55l120 -153h-74l-73 104z" />
    <glyph glyph-name="uni1EC7" unicode="&#x1ec7;" horiz-adv-x="544" 
d="M499 254h-369q1 -96 44.5 -145t126.5 -49q88 0 162 59l27 -59q-33 -31 -84.5 -49t-105.5 -18q-118 0 -185 69.5t-67 190.5q0 77 30 136.5t84 92.5t123 33q100 0 157 -65.5t57 -180.5v-15zM183.5 414q-39.5 -38 -50.5 -107h293q-6 71 -41.5 108t-98.5 37t-102.5 -38z
M252 -95h93v-89h-93v89zM212 568h-75l119 204h57l119 -204h-75l-72 144z" />
    <glyph glyph-name="uni1EC8" unicode="&#x1ec8;" horiz-adv-x="258" 
d="M88 0v712h82v-712h-82zM156 773h-54v18q0 17 10.5 26.5t30.5 20.5q15 8 21 13t6 12q0 9 -11 14t-30 5q-30 0 -62 -12l-14 43q39 17 82 17q46 0 72.5 -17.5t26.5 -46.5q0 -20 -12 -31t-34 -21q-17 -9 -24.5 -15t-7.5 -16v-10z" />
    <glyph glyph-name="uni1EC9" unicode="&#x1ec9;" horiz-adv-x="238" 
d="M78 0v503h81v-503h-81zM148 568h-53v28q0 20 10 34.5t29 32.5q14 14 19.5 21t5.5 16q0 12 -10.5 18.5t-30.5 6.5q-27 0 -59 -11l-15 44q39 18 81 18q47 0 73.5 -20t26.5 -50q0 -23 -10.5 -37t-31.5 -32q-17 -13 -26 -24.5t-9 -27.5v-17z" />
    <glyph glyph-name="uni1ECA" unicode="&#x1eca;" horiz-adv-x="258" 
d="M88 0v712h82v-712h-82zM82 -95h93v-89h-93v89z" />
    <glyph glyph-name="uni1ECB" unicode="&#x1ecb;" horiz-adv-x="238" 
d="M78 0v503h81v-503h-81zM70 716h99v-92h-99v92zM71 -95h93v-89h-93v89z" />
    <glyph glyph-name="uni1ECC" unicode="&#x1ecc;" horiz-adv-x="772" 
d="M214 36q-73 44 -112.5 126.5t-39.5 193.5q0 112 39 194t112 126t173 44t173 -44t112 -126t39 -193q0 -112 -39.5 -194t-112.5 -126.5t-172 -44.5t-172 44zM562 139q63 77 63 218t-62.5 217t-176.5 76t-177 -76.5t-63 -216.5q0 -141 63 -218t177 -77q113 0 176 77z
M339 -95h93v-89h-93v89z" />
    <glyph glyph-name="uni1ECD" unicode="&#x1ecd;" horiz-adv-x="572" 
d="M161 25q-54 32 -83.5 91t-29.5 138t29.5 138t83.5 91t125 32t125 -32t83.5 -91t29.5 -138t-29.5 -138t-83.5 -91t-125 -32t-125 32zM401 109.5q40 49.5 40 144.5q0 92 -41 142.5t-114 50.5q-74 0 -115 -50.5t-41 -142.5q0 -95 40.5 -144.5t115.5 -49.5t115 49.5zM239 -95
h93v-89h-93v89z" />
    <glyph glyph-name="uni1ECE" unicode="&#x1ece;" horiz-adv-x="772" 
d="M214 36q-73 44 -112.5 126.5t-39.5 193.5q0 112 39 194t112 126t173 44t173 -44t112 -126t39 -193q0 -112 -39.5 -194t-112.5 -126.5t-172 -44.5t-172 44zM562 139q63 77 63 218t-62.5 217t-176.5 76t-177 -76.5t-63 -216.5q0 -141 63 -218t177 -77q113 0 176 77z
M412 773h-54v18q0 17 10.5 26.5t30.5 20.5q15 8 21 13t6 12q0 9 -11 14t-30 5q-30 0 -62 -12l-14 43q39 17 82 17q46 0 72.5 -17.5t26.5 -46.5q0 -20 -12 -31t-34 -21q-17 -9 -24.5 -15t-7.5 -16v-10z" />
    <glyph glyph-name="uni1ECF" unicode="&#x1ecf;" horiz-adv-x="572" 
d="M161 25q-54 32 -83.5 91t-29.5 138t29.5 138t83.5 91t125 32t125 -32t83.5 -91t29.5 -138t-29.5 -138t-83.5 -91t-125 -32t-125 32zM401 109.5q40 49.5 40 144.5q0 92 -41 142.5t-114 50.5q-74 0 -115 -50.5t-41 -142.5q0 -95 40.5 -144.5t115.5 -49.5t115 49.5zM314 568
h-53v28q0 20 10 34.5t29 32.5q14 14 19.5 21t5.5 16q0 12 -10.5 18.5t-30.5 6.5q-27 0 -59 -11l-15 44q39 18 81 18q47 0 73.5 -20t26.5 -50q0 -23 -10.5 -37t-31.5 -32q-17 -13 -26 -24.5t-9 -27.5v-17z" />
    <glyph glyph-name="uni1ED0" unicode="&#x1ed0;" horiz-adv-x="772" 
d="M214 36q-73 44 -112.5 126.5t-39.5 193.5q0 112 39 194t112 126t173 44t173 -44t112 -126t39 -193q0 -112 -39.5 -194t-112.5 -126.5t-172 -44.5t-172 44zM562 139q63 77 63 218t-62.5 217t-176.5 76t-177 -76.5t-63 -216.5q0 -141 63 -218t177 -77q113 0 176 77z
M520 877h-50l92 142h86zM311 773h-74l120 148h55l120 -148h-74l-73 100z" />
    <glyph glyph-name="uni1ED1" unicode="&#x1ed1;" horiz-adv-x="572" 
d="M161 25q-54 32 -83.5 91t-29.5 138t29.5 138t83.5 91t125 32t125 -32t83.5 -91t29.5 -138t-29.5 -138t-83.5 -91t-125 -32t-125 32zM401 109.5q40 49.5 40 144.5q0 92 -41 142.5t-114 50.5q-74 0 -115 -50.5t-41 -142.5q0 -95 40.5 -144.5t115.5 -49.5t115 49.5zM421 672
h-50l92 143h86zM212 568h-74l120 148h55l120 -148h-74l-73 100z" />
    <glyph glyph-name="uni1ED2" unicode="&#x1ed2;" horiz-adv-x="772" 
d="M214 36q-73 44 -112.5 126.5t-39.5 193.5q0 112 39 194t112 126t173 44t173 -44t112 -126t39 -193q0 -112 -39.5 -194t-112.5 -126.5t-172 -44.5t-172 44zM562 139q63 77 63 218t-62.5 217t-176.5 76t-177 -76.5t-63 -216.5q0 -141 63 -218t177 -77q113 0 176 77z
M513 877l-113 142h85l78 -142h-50zM311 773h-74l120 148h55l120 -148h-74l-73 100z" />
    <glyph glyph-name="uni1ED3" unicode="&#x1ed3;" horiz-adv-x="572" 
d="M161 25q-54 32 -83.5 91t-29.5 138t29.5 138t83.5 91t125 32t125 -32t83.5 -91t29.5 -138t-29.5 -138t-83.5 -91t-125 -32t-125 32zM401 109.5q40 49.5 40 144.5q0 92 -41 142.5t-114 50.5q-74 0 -115 -50.5t-41 -142.5q0 -95 40.5 -144.5t115.5 -49.5t115 49.5zM414 672
l-113 143h85l78 -143h-50zM212 568h-74l120 148h55l120 -148h-74l-73 100z" />
    <glyph glyph-name="uni1ED4" unicode="&#x1ed4;" horiz-adv-x="772" 
d="M214 36q-73 44 -112.5 126.5t-39.5 193.5q0 112 39 194t112 126t173 44t173 -44t112 -126t39 -193q0 -112 -39.5 -194t-112.5 -126.5t-172 -44.5t-172 44zM562 139q63 77 63 218t-62.5 217t-176.5 76t-177 -76.5t-63 -216.5q0 -141 63 -218t177 -77q113 0 176 77z
M523 877h-54v17q0 17 11.5 26t31.5 18q13 6 19 10t6 10q0 9 -11 14t-30 5q-30 0 -62 -12l-14 42q41 18 82 18q46 0 73 -17.5t27 -46.5q0 -18 -11.5 -27t-34.5 -20q-16 -7 -24.5 -13t-8.5 -15v-9zM311 773h-74l120 148h55l120 -148h-74l-73 100z" />
    <glyph glyph-name="uni1ED5" unicode="&#x1ed5;" horiz-adv-x="572" 
d="M161 25q-54 32 -83.5 91t-29.5 138t29.5 138t83.5 91t125 32t125 -32t83.5 -91t29.5 -138t-29.5 -138t-83.5 -91t-125 -32t-125 32zM401 109.5q40 49.5 40 144.5q0 92 -41 142.5t-114 50.5q-74 0 -115 -50.5t-41 -142.5q0 -95 40.5 -144.5t115.5 -49.5t115 49.5zM424 672
h-54v17q0 17 11.5 26t31.5 18q13 6 19 10t6 10q0 8 -11 13.5t-30 5.5q-31 0 -62 -13l-14 44q42 17 82 17q46 0 73 -17.5t27 -46.5q0 -18 -11.5 -27t-34.5 -20q-16 -7 -24.5 -13t-8.5 -15v-9zM212 568h-74l120 148h55l120 -148h-74l-73 100z" />
    <glyph glyph-name="uni1ED6" unicode="&#x1ed6;" horiz-adv-x="772" 
d="M214 36q-73 44 -112.5 126.5t-39.5 193.5q0 112 39 194t112 126t173 44t173 -44t112 -126t39 -193q0 -112 -39.5 -194t-112.5 -126.5t-172 -44.5t-172 44zM562 139q63 77 63 218t-62.5 217t-176.5 76t-177 -76.5t-63 -216.5q0 -141 63 -218t177 -77q113 0 176 77z
M247 1007.5q25 27.5 65 27.5q21 0 39.5 -6.5t45.5 -18.5q15 -7 30.5 -12.5t27.5 -5.5q22 0 34.5 13.5t12.5 31.5h45q0 -43 -25 -71.5t-65 -28.5q-21 0 -39.5 6.5t-45.5 18.5q-20 10 -33 14.5t-25 4.5q-22 0 -34.5 -13.5t-12.5 -31.5h-45q0 44 25 71.5zM311 773h-74l120 148
h55l120 -148h-74l-73 100z" />
    <glyph glyph-name="uni1ED7" unicode="&#x1ed7;" horiz-adv-x="572" 
d="M161 25q-54 32 -83.5 91t-29.5 138t29.5 138t83.5 91t125 32t125 -32t83.5 -91t29.5 -138t-29.5 -138t-83.5 -91t-125 -32t-125 32zM401 109.5q40 49.5 40 144.5q0 92 -41 142.5t-114 50.5q-74 0 -115 -50.5t-41 -142.5q0 -95 40.5 -144.5t115.5 -49.5t115 49.5zM148 803
q25 28 65 28q21 0 39.5 -6.5t45.5 -18.5q15 -7 30.5 -12.5t27.5 -5.5q22 0 34.5 13t12.5 31h45q0 -43 -25 -71t-65 -28q-21 0 -39.5 6.5t-45.5 18.5q-15 7 -30.5 12.5t-27.5 5.5q-22 0 -34.5 -13.5t-12.5 -31.5h-45q0 44 25 72zM212 568h-74l120 148h55l120 -148h-74
l-73 100z" />
    <glyph glyph-name="uni1ED8" unicode="&#x1ed8;" horiz-adv-x="772" 
d="M214 36q-73 44 -112.5 126.5t-39.5 193.5q0 112 39 194t112 126t173 44t173 -44t112 -126t39 -193q0 -112 -39.5 -194t-112.5 -126.5t-172 -44.5t-172 44zM562 139q63 77 63 218t-62.5 217t-176.5 76t-177 -76.5t-63 -216.5q0 -141 63 -218t177 -77q113 0 176 77z
M339 -95h93v-89h-93v89zM311 773h-74l120 153h55l120 -153h-74l-73 104z" />
    <glyph glyph-name="uni1ED9" unicode="&#x1ed9;" horiz-adv-x="572" 
d="M161 25q-54 32 -83.5 91t-29.5 138t29.5 138t83.5 91t125 32t125 -32t83.5 -91t29.5 -138t-29.5 -138t-83.5 -91t-125 -32t-125 32zM401 109.5q40 49.5 40 144.5q0 92 -41 142.5t-114 50.5q-74 0 -115 -50.5t-41 -142.5q0 -95 40.5 -144.5t115.5 -49.5t115 49.5zM239 -95
h93v-89h-93v89zM213 568h-75l119 204h57l119 -204h-75l-72 144z" />
    <glyph glyph-name="uni1EDA" unicode="&#x1eda;" horiz-adv-x="772" 
d="M674.5 707.5q-35.5 -39.5 -98.5 -45.5q65 -45 99.5 -123t34.5 -182q0 -112 -39.5 -194t-112.5 -126.5t-172 -44.5t-172 44.5t-112.5 126.5t-39.5 193q0 112 39 194t113 126t175 44q26 0 74 -4q44 -4 63 -4q61 1 86 26t25 85v15h73v-27q0 -64 -35.5 -103.5zM562.5 574
q-62.5 76 -176.5 76t-177 -76.5t-63 -216.5q0 -141 63 -218t177 -77q113 0 176 77t63 218t-62.5 217zM413 773h-57l102 153h89z" />
    <glyph glyph-name="uni1EDB" unicode="&#x1edb;" horiz-adv-x="572" 
d="M501.5 519q-24.5 -37 -69.5 -53q44 -33 68 -87.5t24 -124.5q0 -79 -29.5 -138t-83.5 -91t-125 -32t-125 32t-83.5 91t-29.5 138t29.5 138t83.5 91t125 32q17 0 45 -4q17 -3 28 -3q49 0 72 26t23 87v15h72v-26q0 -54 -24.5 -91zM401 109.5q40 49.5 40 144.5
q0 92 -41 142.5t-114 50.5q-74 0 -115 -50.5t-41 -142.5q0 -95 40.5 -144.5t115.5 -49.5t115 49.5zM314 568h-57l100 204h94z" />
    <glyph glyph-name="uni1EDC" unicode="&#x1edc;" horiz-adv-x="772" 
d="M674.5 707.5q-35.5 -39.5 -98.5 -45.5q65 -45 99.5 -123t34.5 -182q0 -112 -39.5 -194t-112.5 -126.5t-172 -44.5t-172 44.5t-112.5 126.5t-39.5 193q0 112 39 194t113 126t175 44q26 0 74 -4q44 -4 63 -4q61 1 86 26t25 85v15h73v-27q0 -64 -35.5 -103.5zM562.5 574
q-62.5 76 -176.5 76t-177 -76.5t-63 -216.5q0 -141 63 -218t177 -77q113 0 176 77t63 218t-62.5 217zM356 773l-134 153h89l102 -153h-57z" />
    <glyph glyph-name="uni1EDD" unicode="&#x1edd;" horiz-adv-x="572" 
d="M501.5 519q-24.5 -37 -69.5 -53q44 -33 68 -87.5t24 -124.5q0 -79 -29.5 -138t-83.5 -91t-125 -32t-125 32t-83.5 91t-29.5 138t29.5 138t83.5 91t125 32q17 0 45 -4q17 -3 28 -3q49 0 72 26t23 87v15h72v-26q0 -54 -24.5 -91zM401 109.5q40 49.5 40 144.5
q0 92 -41 142.5t-114 50.5q-74 0 -115 -50.5t-41 -142.5q0 -95 40.5 -144.5t115.5 -49.5t115 49.5zM257 568l-137 204h94l100 -204h-57z" />
    <glyph glyph-name="uni1EDE" unicode="&#x1ede;" horiz-adv-x="772" 
d="M674.5 707.5q-35.5 -39.5 -98.5 -45.5q65 -45 99.5 -123t34.5 -182q0 -112 -39.5 -194t-112.5 -126.5t-172 -44.5t-172 44.5t-112.5 126.5t-39.5 193q0 112 39 194t113 126t175 44q26 0 74 -4q44 -4 63 -4q61 1 86 26t25 85v15h73v-27q0 -64 -35.5 -103.5zM562.5 574
q-62.5 76 -176.5 76t-177 -76.5t-63 -216.5q0 -141 63 -218t177 -77q113 0 176 77t63 218t-62.5 217zM412 773h-54v18q0 17 10.5 26.5t30.5 20.5q15 8 21 13t6 12q0 9 -11 14t-30 5q-30 0 -62 -12l-14 43q39 17 82 17q46 0 72.5 -17.5t26.5 -46.5q0 -20 -12 -31t-34 -21
q-17 -9 -24.5 -15t-7.5 -16v-10z" />
    <glyph glyph-name="uni1EDF" unicode="&#x1edf;" horiz-adv-x="572" 
d="M501.5 519q-24.5 -37 -69.5 -53q44 -33 68 -87.5t24 -124.5q0 -79 -29.5 -138t-83.5 -91t-125 -32t-125 32t-83.5 91t-29.5 138t29.5 138t83.5 91t125 32q17 0 45 -4q17 -3 28 -3q49 0 72 26t23 87v15h72v-26q0 -54 -24.5 -91zM401 109.5q40 49.5 40 144.5
q0 92 -41 142.5t-114 50.5q-74 0 -115 -50.5t-41 -142.5q0 -95 40.5 -144.5t115.5 -49.5t115 49.5zM314 568h-53v28q0 20 10 34.5t29 32.5q14 14 19.5 21t5.5 16q0 12 -10.5 18.5t-30.5 6.5q-27 0 -59 -11l-15 44q39 18 81 18q47 0 73.5 -20t26.5 -50q0 -23 -10.5 -37
t-31.5 -32q-17 -13 -26 -24.5t-9 -27.5v-17z" />
    <glyph glyph-name="uni1EE0" unicode="&#x1ee0;" horiz-adv-x="772" 
d="M674.5 707.5q-35.5 -39.5 -98.5 -45.5q65 -45 99.5 -123t34.5 -182q0 -112 -39.5 -194t-112.5 -126.5t-172 -44.5t-172 44.5t-112.5 126.5t-39.5 193q0 112 39 194t113 126t175 44q26 0 74 -4q44 -4 63 -4q61 1 86 26t25 85v15h73v-27q0 -64 -35.5 -103.5zM562.5 574
q-62.5 76 -176.5 76t-177 -76.5t-63 -216.5q0 -141 63 -218t177 -77q113 0 176 77t63 218t-62.5 217zM246.5 879.5q24.5 30.5 65.5 30.5q21 0 40 -8.5t45 -24.5q21 -13 33.5 -19t24.5 -6q22 0 34.5 16t12.5 39h45q0 -55 -24.5 -85.5t-65.5 -30.5q-21 0 -40 8.5t-45 24.5
q-21 13 -33.5 19t-24.5 6q-22 0 -34.5 -16t-12.5 -39h-45q0 55 24.5 85.5z" />
    <glyph glyph-name="uni1EE1" unicode="&#x1ee1;" horiz-adv-x="572" 
d="M501.5 519q-24.5 -37 -69.5 -53q44 -33 68 -87.5t24 -124.5q0 -79 -29.5 -138t-83.5 -91t-125 -32t-125 32t-83.5 91t-29.5 138t29.5 138t83.5 91t125 32q17 0 45 -4q17 -3 28 -3q49 0 72 26t23 87v15h72v-26q0 -54 -24.5 -91zM401 109.5q40 49.5 40 144.5
q0 92 -41 142.5t-114 50.5q-74 0 -115 -50.5t-41 -142.5q0 -95 40.5 -144.5t115.5 -49.5t115 49.5zM147.5 700q24.5 30 65.5 30q21 0 40 -8.5t45 -24.5q21 -13 33.5 -19t24.5 -6q22 0 34.5 16t12.5 39h45q0 -55 -24.5 -85t-65.5 -30q-21 0 -40 8.5t-45 24.5q-21 13 -33.5 19
t-24.5 6q-22 0 -34.5 -16t-12.5 -39h-45q0 55 24.5 85z" />
    <glyph glyph-name="uni1EE2" unicode="&#x1ee2;" horiz-adv-x="772" 
d="M674.5 707.5q-35.5 -39.5 -98.5 -45.5q65 -45 99.5 -123t34.5 -182q0 -112 -39.5 -194t-112.5 -126.5t-172 -44.5t-172 44.5t-112.5 126.5t-39.5 193q0 112 39 194t113 126t175 44q26 0 74 -4q44 -4 63 -4q61 1 86 26t25 85v15h73v-27q0 -64 -35.5 -103.5zM562.5 574
q-62.5 76 -176.5 76t-177 -76.5t-63 -216.5q0 -141 63 -218t177 -77q113 0 176 77t63 218t-62.5 217zM339 -95h93v-89h-93v89z" />
    <glyph glyph-name="uni1EE3" unicode="&#x1ee3;" horiz-adv-x="572" 
d="M501.5 519q-24.5 -37 -69.5 -53q44 -33 68 -87.5t24 -124.5q0 -79 -29.5 -138t-83.5 -91t-125 -32t-125 32t-83.5 91t-29.5 138t29.5 138t83.5 91t125 32q17 0 45 -4q17 -3 28 -3q49 0 72 26t23 87v15h72v-26q0 -54 -24.5 -91zM401 109.5q40 49.5 40 144.5
q0 92 -41 142.5t-114 50.5q-74 0 -115 -50.5t-41 -142.5q0 -95 40.5 -144.5t115.5 -49.5t115 49.5zM239 -95h93v-89h-93v89z" />
    <glyph glyph-name="uni1EE4" unicode="&#x1ee4;" horiz-adv-x="731" 
d="M154.5 64.5q-71.5 72.5 -71.5 214.5v433h81v-440q0 -104 51 -157t151 -53q99 0 149.5 53t50.5 157v440h82v-433q0 -141 -72 -214t-210 -73q-140 0 -211.5 72.5zM319 -95h93v-89h-93v89z" />
    <glyph glyph-name="uni1EE5" unicode="&#x1ee5;" horiz-adv-x="577" 
d="M499 503v-503h-79v87q-24 -46 -67 -70t-97 -24q-89 0 -135 50t-46 148v312h81v-310q0 -68 28 -100t85 -32q67 0 108 43.5t41 114.5v284h81zM242 -95h93v-89h-93v89z" />
    <glyph glyph-name="uni1EE6" unicode="&#x1ee6;" horiz-adv-x="731" 
d="M154.5 64.5q-71.5 72.5 -71.5 214.5v433h81v-440q0 -104 51 -157t151 -53q99 0 149.5 53t50.5 157v440h82v-433q0 -141 -72 -214t-210 -73q-140 0 -211.5 72.5zM393 773h-54v18q0 17 10.5 26.5t30.5 20.5q15 8 21 13t6 12q0 9 -11 14t-30 5q-30 0 -62 -12l-14 43
q39 17 82 17q46 0 72.5 -17.5t26.5 -46.5q0 -20 -12 -31t-34 -21q-17 -9 -24.5 -15t-7.5 -16v-10z" />
    <glyph glyph-name="uni1EE7" unicode="&#x1ee7;" horiz-adv-x="577" 
d="M499 503v-503h-79v87q-24 -46 -67 -70t-97 -24q-89 0 -135 50t-46 148v312h81v-310q0 -68 28 -100t85 -32q67 0 108 43.5t41 114.5v284h81zM317 568h-53v28q0 20 10 34.5t29 32.5q14 14 19.5 21t5.5 16q0 12 -10.5 18.5t-30.5 6.5q-27 0 -59 -11l-15 44q39 18 81 18
q47 0 73.5 -20t26.5 -50q0 -23 -10.5 -37t-31.5 -32q-17 -13 -26 -24.5t-9 -27.5v-17z" />
    <glyph glyph-name="uni1EE8" unicode="&#x1ee8;" horiz-adv-x="731" 
d="M766 838v-27q0 -60 -31 -98t-87 -49v-385q0 -141 -72 -214t-210 -73q-140 0 -211.5 72.5t-71.5 214.5v433h81v-440q0 -104 51 -157t151 -53q99 0 149.5 53t50.5 157v440h24q56 1 80 26t24 85v15h72zM394 773h-57l102 153h89z" />
    <glyph glyph-name="uni1EE9" unicode="&#x1ee9;" horiz-adv-x="591" 
d="M620 636v-26q0 -63 -31.5 -103t-89.5 -49v-458h-79v87q-24 -46 -67 -70t-97 -24q-89 0 -135 50t-46 148v312h81v-310q0 -68 28 -100t85 -32q67 0 108 43.5t41 114.5v284h23q57 0 82 27.5t25 90.5v15h72zM317 568h-57l100 204h94z" />
    <glyph glyph-name="uni1EEA" unicode="&#x1eea;" horiz-adv-x="731" 
d="M766 838v-27q0 -60 -31 -98t-87 -49v-385q0 -141 -72 -214t-210 -73q-140 0 -211.5 72.5t-71.5 214.5v433h81v-440q0 -104 51 -157t151 -53q99 0 149.5 53t50.5 157v440h24q56 1 80 26t24 85v15h72zM337 773l-134 153h89l102 -153h-57z" />
    <glyph glyph-name="uni1EEB" unicode="&#x1eeb;" horiz-adv-x="591" 
d="M620 636v-26q0 -63 -31.5 -103t-89.5 -49v-458h-79v87q-24 -46 -67 -70t-97 -24q-89 0 -135 50t-46 148v312h81v-310q0 -68 28 -100t85 -32q67 0 108 43.5t41 114.5v284h23q57 0 82 27.5t25 90.5v15h72zM260 568l-137 204h94l100 -204h-57z" />
    <glyph glyph-name="uni1EEC" unicode="&#x1eec;" horiz-adv-x="731" 
d="M766 838v-27q0 -60 -31 -98t-87 -49v-385q0 -141 -72 -214t-210 -73q-140 0 -211.5 72.5t-71.5 214.5v433h81v-440q0 -104 51 -157t151 -53q99 0 149.5 53t50.5 157v440h24q56 1 80 26t24 85v15h72zM393 773h-54v18q0 17 10.5 26.5t30.5 20.5q15 8 21 13t6 12q0 9 -11 14
t-30 5q-30 0 -62 -12l-14 43q39 17 82 17q46 0 72.5 -17.5t26.5 -46.5q0 -20 -12 -31t-34 -21q-17 -9 -24.5 -15t-7.5 -16v-10z" />
    <glyph glyph-name="uni1EED" unicode="&#x1eed;" horiz-adv-x="591" 
d="M620 636v-26q0 -63 -31.5 -103t-89.5 -49v-458h-79v87q-24 -46 -67 -70t-97 -24q-89 0 -135 50t-46 148v312h81v-310q0 -68 28 -100t85 -32q67 0 108 43.5t41 114.5v284h23q57 0 82 27.5t25 90.5v15h72zM317 568h-53v28q0 20 10 34.5t29 32.5q14 14 19.5 21t5.5 16
q0 12 -10.5 18.5t-30.5 6.5q-27 0 -59 -11l-15 44q39 18 81 18q47 0 73.5 -20t26.5 -50q0 -23 -10.5 -37t-31.5 -32q-17 -13 -26 -24.5t-9 -27.5v-17z" />
    <glyph glyph-name="uni1EEE" unicode="&#x1eee;" horiz-adv-x="731" 
d="M766 838v-27q0 -60 -31 -98t-87 -49v-385q0 -141 -72 -214t-210 -73q-140 0 -211.5 72.5t-71.5 214.5v433h81v-440q0 -104 51 -157t151 -53q99 0 149.5 53t50.5 157v440h24q56 1 80 26t24 85v15h72zM227.5 879.5q24.5 30.5 65.5 30.5q21 0 40 -8.5t45 -24.5
q21 -13 33.5 -19t24.5 -6q22 0 34.5 16t12.5 39h45q0 -55 -24.5 -85.5t-65.5 -30.5q-21 0 -40 8.5t-45 24.5q-21 13 -33.5 19t-24.5 6q-22 0 -34.5 -16t-12.5 -39h-45q0 55 24.5 85.5z" />
    <glyph glyph-name="uni1EEF" unicode="&#x1eef;" horiz-adv-x="591" 
d="M620 636v-26q0 -63 -31.5 -103t-89.5 -49v-458h-79v87q-24 -46 -67 -70t-97 -24q-89 0 -135 50t-46 148v312h81v-310q0 -68 28 -100t85 -32q67 0 108 43.5t41 114.5v284h23q57 0 82 27.5t25 90.5v15h72zM150.5 700q24.5 30 65.5 30q21 0 40 -8.5t45 -24.5
q21 -13 33.5 -19t24.5 -6q22 0 34.5 16t12.5 39h45q0 -55 -24.5 -85t-65.5 -30q-21 0 -40 8.5t-45 24.5q-21 13 -33.5 19t-24.5 6q-22 0 -34.5 -16t-12.5 -39h-45q0 55 24.5 85z" />
    <glyph glyph-name="uni1EF0" unicode="&#x1ef0;" horiz-adv-x="731" 
d="M766 838v-27q0 -60 -31 -98t-87 -49v-385q0 -141 -72 -214t-210 -73q-140 0 -211.5 72.5t-71.5 214.5v433h81v-440q0 -104 51 -157t151 -53q99 0 149.5 53t50.5 157v440h24q56 1 80 26t24 85v15h72zM319 -95h93v-89h-93v89z" />
    <glyph glyph-name="uni1EF1" unicode="&#x1ef1;" horiz-adv-x="591" 
d="M620 636v-26q0 -63 -31.5 -103t-89.5 -49v-458h-79v87q-24 -46 -67 -70t-97 -24q-89 0 -135 50t-46 148v312h81v-310q0 -68 28 -100t85 -32q67 0 108 43.5t41 114.5v284h23q57 0 82 27.5t25 90.5v15h72zM242 -95h93v-89h-93v89z" />
    <glyph glyph-name="Ygrave" unicode="&#x1ef2;" horiz-adv-x="607" 
d="M624 712l-280 -424v-288h-82v289l-280 423h96l226 -350l226 350h94zM274 773l-134 153h89l102 -153h-57z" />
    <glyph glyph-name="ygrave" unicode="&#x1ef3;" horiz-adv-x="531" 
d="M520 503l-235 -549q-37 -86 -93 -126t-138 -55l-17 63q71 16 107.5 42.5t60.5 81.5l20 45l-213 498h85l170 -415l172 415h81zM237 568l-137 204h94l100 -204h-57z" />
    <glyph glyph-name="uni1EF4" unicode="&#x1ef4;" horiz-adv-x="607" 
d="M624 712l-280 -424v-288h-82v289l-280 423h96l226 -350l226 350h94zM256 -95h93v-89h-93v89z" />
    <glyph glyph-name="uni1EF5" unicode="&#x1ef5;" horiz-adv-x="531" 
d="M520 503l-235 -549q-37 -86 -93 -126t-138 -55l-17 63q71 16 107.5 42.5t60.5 81.5l20 45l-213 498h85l170 -415l172 415h81zM354 -95h93v-89h-93v89z" />
    <glyph glyph-name="uni1EF6" unicode="&#x1ef6;" horiz-adv-x="607" 
d="M624 712l-280 -424v-288h-82v289l-280 423h96l226 -350l226 350h94zM330 773h-54v18q0 17 10.5 26.5t30.5 20.5q15 8 21 13t6 12q0 9 -11 14t-30 5q-30 0 -62 -12l-14 43q39 17 82 17q46 0 72.5 -17.5t26.5 -46.5q0 -20 -12 -31t-34 -21q-17 -9 -24.5 -15t-7.5 -16v-10z
" />
    <glyph glyph-name="uni1EF7" unicode="&#x1ef7;" horiz-adv-x="531" 
d="M520 503l-235 -549q-37 -86 -93 -126t-138 -55l-17 63q71 16 107.5 42.5t60.5 81.5l20 45l-213 498h85l170 -415l172 415h81zM294 568h-53v28q0 20 10 34.5t29 32.5q14 14 19.5 21t5.5 16q0 12 -10.5 18.5t-30.5 6.5q-27 0 -59 -11l-15 44q39 18 81 18q47 0 73.5 -20
t26.5 -50q0 -23 -10.5 -37t-31.5 -32q-17 -13 -26 -24.5t-9 -27.5v-17z" />
    <glyph glyph-name="uni1EF8" unicode="&#x1ef8;" horiz-adv-x="607" 
d="M624 712l-280 -424v-288h-82v289l-280 423h96l226 -350l226 350h94zM164.5 879.5q24.5 30.5 65.5 30.5q21 0 40 -8.5t45 -24.5q21 -13 33.5 -19t24.5 -6q22 0 34.5 16t12.5 39h45q0 -55 -24.5 -85.5t-65.5 -30.5q-21 0 -40 8.5t-45 24.5q-21 13 -33.5 19t-24.5 6
q-22 0 -34.5 -16t-12.5 -39h-45q0 55 24.5 85.5z" />
    <glyph glyph-name="uni1EF9" unicode="&#x1ef9;" horiz-adv-x="531" 
d="M520 503l-235 -549q-37 -86 -93 -126t-138 -55l-17 63q71 16 107.5 42.5t60.5 81.5l20 45l-213 498h85l170 -415l172 415h81zM127.5 700q24.5 30 65.5 30q21 0 40 -8.5t45 -24.5q21 -13 33.5 -19t24.5 -6q22 0 34.5 16t12.5 39h45q0 -55 -24.5 -85t-65.5 -30
q-21 0 -40 8.5t-45 24.5q-21 13 -33.5 19t-24.5 6q-22 0 -34.5 -16t-12.5 -39h-45q0 55 24.5 85z" />
    <glyph glyph-name="uni2007" unicode="&#x2007;" horiz-adv-x="606" 
 />
    <glyph glyph-name="uni2008" unicode="&#x2008;" horiz-adv-x="231" 
 />
    <glyph glyph-name="uni2009" unicode="&#x2009;" horiz-adv-x="202" 
 />
    <glyph glyph-name="uni200A" unicode="&#x200a;" horiz-adv-x="101" 
 />
    <glyph glyph-name="uni200B" unicode="&#x200b;" horiz-adv-x="0" 
 />
    <glyph glyph-name="uni2010" unicode="&#x2010;" horiz-adv-x="429" 
d="M73 235v67h283v-67h-283z" />
    <glyph glyph-name="figuredash" unicode="&#x2012;" horiz-adv-x="606" 
d="M73 242v53h460v-53h-460z" />
    <glyph glyph-name="endash" unicode="&#x2013;" horiz-adv-x="505" 
d="M0 242v53h505v-53h-505z" />
    <glyph glyph-name="emdash" unicode="&#x2014;" horiz-adv-x="1010" 
d="M0 242v53h1010v-53h-1010z" />
    <glyph glyph-name="uni2015" unicode="&#x2015;" horiz-adv-x="1010" 
d="M0 242v53h1010v-53h-1010z" />
    <glyph glyph-name="quoteleft" unicode="&#x2018;" horiz-adv-x="231" 
d="M167 603v-104h-103v73q0 42 14 77.5t47 68.5l38 -30q-39 -42 -44 -85h48z" />
    <glyph glyph-name="quoteright" unicode="&#x2019;" horiz-adv-x="231" 
d="M167 712v-73q0 -42 -14 -77t-47 -69l-38 30q39 45 44 86h-48v103h103z" />
    <glyph glyph-name="quotesinglbase" unicode="&#x201a;" horiz-adv-x="231" 
d="M167 103v-73q0 -42 -14 -77t-47 -68l-38 29q39 45 44 86h-48v103h103z" />
    <glyph glyph-name="quotedblleft" unicode="&#x201c;" horiz-adv-x="399" 
d="M167 603v-104h-103v73q0 42 14 77.5t47 68.5l38 -30q-39 -42 -44 -85h48zM335 603v-104h-103v73q0 42 14 77.5t47 68.5l38 -30q-39 -42 -44 -85h48z" />
    <glyph glyph-name="quotedblright" unicode="&#x201d;" horiz-adv-x="399" 
d="M167 712v-73q0 -42 -14 -77t-47 -69l-38 30q39 45 44 86h-48v103h103zM335 712v-73q0 -42 -14 -77t-47 -69l-38 30q39 45 44 86h-48v103h103z" />
    <glyph glyph-name="quotedblbase" unicode="&#x201e;" horiz-adv-x="399" 
d="M167 103v-73q0 -42 -14 -77t-47 -68l-38 29q39 45 44 86h-48v103h103zM335 103v-73q0 -42 -14 -77t-47 -68l-38 29q39 45 44 86h-48v103h103z" />
    <glyph glyph-name="dagger" unicode="&#x2020;" horiz-adv-x="328" 
d="M195 720v-121h113v-53h-113v-379h-62v379h-113v53h113v121h62z" />
    <glyph glyph-name="daggerdbl" unicode="&#x2021;" horiz-adv-x="328" 
d="M195 720v-120h113v-53h-113v-207h113v-52h-113v-121h-62v121h-113v52h113v207h-113v53h113v120h62z" />
    <glyph glyph-name="bullet" unicode="&#x2022;" horiz-adv-x="529" 
d="M174 112.5q-42 23.5 -67 65t-25 90.5q0 46 24 87.5t66 66.5t93 25q48 0 90 -23.5t67 -64.5t25 -91q0 -49 -24.5 -90t-66.5 -65t-91 -24t-91 23.5z" />
    <glyph glyph-name="ellipsis" unicode="&#x2026;" horiz-adv-x="694" 
d="M64 103h103v-103h-103v103zM295 103h103v-103h-103v103zM526 103h103v-103h-103v103z" />
    <glyph glyph-name="perthousand" unicode="&#x2030;" horiz-adv-x="1340" 
d="M101 340q-45 55 -45 163q0 107 45 162t126 55t126.5 -55t45.5 -162q0 -108 -45.5 -163t-126.5 -55t-126 55zM303 0h-79l412 712h79zM300.5 381.5q23.5 38.5 23.5 121.5q0 82 -23.5 120.5t-73.5 38.5q-49 0 -73 -38.5t-24 -120.5q0 -83 24 -121.5t73 -38.5q50 0 73.5 38.5
zM586 48q-45 55 -45 163t45 162.5t126 54.5t126.5 -54.5t45.5 -162.5t-45.5 -163t-126.5 -55t-126 55zM986.5 48q-45.5 55 -45.5 163t45.5 162.5t126.5 54.5t126.5 -54.5t45.5 -162.5t-45.5 -163t-126.5 -55t-126.5 55zM786.5 89q23.5 38 23.5 122q0 82 -24 120.5t-74 38.5
t-73.5 -38.5t-23.5 -120.5q0 -83 23.5 -121.5t73.5 -38.5q51 0 74.5 38zM1186.5 89.5q23.5 38.5 23.5 121.5q0 82 -23.5 120.5t-73.5 38.5t-74 -38.5t-24 -120.5q0 -83 24 -121.5t74 -38.5t73.5 38.5z" />
    <glyph glyph-name="minute" unicode="&#x2032;" horiz-adv-x="222" 
d="M85 432l-22 280h96l-20 -280h-54z" />
    <glyph glyph-name="second" unicode="&#x2033;" horiz-adv-x="424" 
d="M85 432l-22 280h96l-20 -280h-54zM287 432l-22 280h96l-20 -280h-54z" />
    <glyph glyph-name="guilsinglleft" unicode="&#x2039;" horiz-adv-x="262" 
d="M158 88l-132 179l134 181h75l-129 -180l126 -180h-74z" />
    <glyph glyph-name="guilsinglright" unicode="&#x203a;" horiz-adv-x="262" 
d="M104 88h-74l127 180l-130 180h76l133 -181z" />
    <glyph glyph-name="fraction" unicode="&#x2044;" horiz-adv-x="175" 
d="M-93 -25l-60 34l422 728l59 -34z" />
    <glyph glyph-name="uni2070" unicode="&#x2070;" horiz-adv-x="380" 
d="M73.5 336q-41.5 55 -41.5 163t41.5 162.5t116.5 54.5t116 -54.5t41 -162.5t-41.5 -163t-115.5 -55q-75 0 -116.5 55zM253 377q20 38 20 122q0 82 -20.5 120.5t-62.5 38.5q-43 0 -63 -38.5t-20 -120.5q0 -84 20 -122t63 -38t63 38z" />
    <glyph glyph-name="uni2074" unicode="&#x2074;" horiz-adv-x="380" 
d="M359 426v-57h-63v-84h-70v84h-194v53l204 290h60v-286h63zM101 426h125v179z" />
    <glyph glyph-name="uni2075" unicode="&#x2075;" horiz-adv-x="380" 
d="M306 520q38 -37 38 -98q0 -63 -43 -102t-109 -39q-40 0 -80 14.5t-67 37.5l25 53q57 -45 117 -45q40 0 63.5 21t23.5 58q0 35 -23 56.5t-59 21.5q-52 0 -91 -37h-43v251h266v-59h-197v-122q34 26 82 26q59 0 97 -37z" />
    <glyph glyph-name="uni2076" unicode="&#x2076;" horiz-adv-x="380" 
d="M310.5 519.5q37.5 -36.5 37.5 -98.5q0 -63 -41.5 -101.5t-103.5 -38.5q-77 0 -122 52t-45 156q0 113 49 170t127 57q36 0 73.5 -14t65.5 -37l-25 -54q-59 46 -113 46q-48 0 -76 -38.5t-29 -119.5q16 26 44.5 41.5t62.5 15.5q58 0 95.5 -36.5zM258.5 359.5
q21.5 22.5 21.5 59.5t-21.5 59t-57.5 22t-58.5 -22t-22.5 -59t22.5 -59.5t58.5 -22.5t57.5 22.5z" />
    <glyph glyph-name="uni2077" unicode="&#x2077;" horiz-adv-x="380" 
d="M43 712h294v-57l-188 -370h-80l189 366h-215v61z" />
    <glyph glyph-name="uni2078" unicode="&#x2078;" horiz-adv-x="380" 
d="M326.5 465.5q23.5 -27.5 23.5 -65.5q0 -56 -42.5 -87.5t-117.5 -31.5q-76 0 -118.5 31.5t-42.5 87.5q0 38 23.5 65.5t62.5 39.5q-35 12 -55.5 38.5t-20.5 59.5q0 52 40.5 82.5t110.5 30.5q69 0 109.5 -30.5t40.5 -82.5q0 -34 -21 -61t-56 -38q40 -11 63.5 -38.5z
M130 643.5q-21 -17.5 -21 -48.5q0 -28 20.5 -46.5t60.5 -25.5q40 7 60.5 25.5t20.5 46.5q0 31 -21 48.5t-60 17.5t-60 -17.5zM258 354q23 18 23 51q0 31 -22 48.5t-69 25.5q-47 -7 -69 -25t-22 -49q0 -33 22.5 -51t68.5 -18q45 0 68 18z" />
    <glyph glyph-name="uni2079" unicode="&#x2079;" horiz-adv-x="380" 
d="M298.5 664q44.5 -52 44.5 -156q0 -113 -48.5 -170t-126.5 -57q-36 0 -73.5 14t-66.5 38l26 53q59 -46 113 -46q47 0 75.5 38.5t29.5 120.5q-16 -26 -44.5 -41.5t-62.5 -15.5q-58 0 -95.5 36t-37.5 98q0 64 41.5 102t103.5 38q77 0 121.5 -52zM237.5 519.5
q22.5 22.5 22.5 58.5q0 37 -22.5 59.5t-58.5 22.5t-57.5 -22.5t-21.5 -59.5t21.5 -59t57.5 -22t58.5 22.5z" />
    <glyph glyph-name="uni2080" unicode="&#x2080;" horiz-adv-x="380" 
d="M73.5 51q-41.5 55 -41.5 163t41.5 162.5t116.5 54.5t116 -54.5t41 -162.5t-41.5 -163t-115.5 -55q-75 0 -116.5 55zM253 92q20 38 20 122q0 82 -20.5 120.5t-62.5 38.5q-43 0 -63 -38.5t-20 -120.5q0 -84 20 -122t63 -38t63 38z" />
    <glyph glyph-name="uni2081" unicode="&#x2081;" horiz-adv-x="380" 
d="M252 60h76v-60h-225v60h77v284l-72 -44v74l89 53h55v-367z" />
    <glyph glyph-name="uni2082" unicode="&#x2082;" horiz-adv-x="380" 
d="M337 60v-60h-285v54l144 159q26 28 39 52t13 47q0 29 -18 44.5t-49 15.5q-27 0 -58.5 -12t-59.5 -34l-26 54q30 23 70 37t81 14q62 0 98 -32t36 -83q0 -37 -17 -70.5t-57 -74.5l-106 -111h195z" />
    <glyph glyph-name="uni2083" unicode="&#x2083;" horiz-adv-x="380" 
d="M311 183q20 -26 20 -66q0 -56 -39.5 -88.5t-107.5 -32.5q-42 0 -82.5 14.5t-69.5 37.5l25 53q64 -46 123 -46q38 0 59.5 16.5t21.5 49.5q0 66 -85 66h-57v58h46q40 0 62 17t22 50q0 29 -18 44.5t-49 15.5q-59 0 -119 -46l-26 54q30 23 70 37t79 14q64 0 99.5 -31.5
t35.5 -81.5q0 -35 -18.5 -60.5t-49.5 -37.5q38 -11 58 -37z" />
    <glyph glyph-name="uni2084" unicode="&#x2084;" horiz-adv-x="380" 
d="M359 141v-57h-63v-84h-70v84h-194v53l204 290h60v-286h63zM101 141h125v179z" />
    <glyph glyph-name="uni2085" unicode="&#x2085;" horiz-adv-x="380" 
d="M306 235q38 -37 38 -98q0 -63 -43 -102t-109 -39q-40 0 -80 14.5t-67 37.5l25 53q57 -45 117 -45q40 0 63.5 21t23.5 58q0 35 -23 56.5t-59 21.5q-52 0 -91 -37h-43v251h266v-59h-197v-122q34 26 82 26q59 0 97 -37z" />
    <glyph glyph-name="uni2086" unicode="&#x2086;" horiz-adv-x="380" 
d="M310.5 234.5q37.5 -36.5 37.5 -98.5q0 -63 -41.5 -101.5t-103.5 -38.5q-77 0 -122 52t-45 156q0 113 49 170t127 57q36 0 73.5 -14t65.5 -37l-25 -54q-59 46 -113 46q-48 0 -76 -38.5t-29 -119.5q16 26 44.5 41.5t62.5 15.5q58 0 95.5 -36.5zM258.5 74.5
q21.5 22.5 21.5 59.5t-21.5 59t-57.5 22t-58.5 -22t-22.5 -59t22.5 -59.5t58.5 -22.5t57.5 22.5z" />
    <glyph glyph-name="uni2087" unicode="&#x2087;" horiz-adv-x="380" 
d="M43 427h294v-57l-188 -370h-80l189 366h-215v61z" />
    <glyph glyph-name="uni2088" unicode="&#x2088;" horiz-adv-x="380" 
d="M326.5 180.5q23.5 -27.5 23.5 -65.5q0 -56 -42.5 -87.5t-117.5 -31.5q-76 0 -118.5 31.5t-42.5 87.5q0 38 23.5 65.5t62.5 39.5q-35 12 -55.5 38.5t-20.5 59.5q0 52 40.5 82.5t110.5 30.5q69 0 109.5 -30.5t40.5 -82.5q0 -34 -21 -61t-56 -38q40 -11 63.5 -38.5z
M130 358.5q-21 -17.5 -21 -48.5q0 -28 20.5 -46.5t60.5 -25.5q40 7 60.5 25.5t20.5 46.5q0 31 -21 48.5t-60 17.5t-60 -17.5zM258 69q23 18 23 51q0 31 -22 48.5t-69 25.5q-47 -7 -69 -25t-22 -49q0 -33 22.5 -51t68.5 -18q45 0 68 18z" />
    <glyph glyph-name="uni2089" unicode="&#x2089;" horiz-adv-x="380" 
d="M298.5 379q44.5 -52 44.5 -156q0 -113 -48.5 -170t-126.5 -57q-36 0 -73.5 14t-66.5 38l26 53q59 -46 113 -46q47 0 75.5 38.5t29.5 120.5q-16 -26 -44.5 -41.5t-62.5 -15.5q-58 0 -95.5 36t-37.5 98q0 64 41.5 102t103.5 38q77 0 121.5 -52zM237.5 234.5
q22.5 22.5 22.5 58.5q0 37 -22.5 59.5t-58.5 22.5t-57.5 -22.5t-21.5 -59.5t21.5 -59t57.5 -22t58.5 22.5z" />
    <glyph glyph-name="colonmonetary" unicode="&#x20a1;" 
d="M200 573q-57 -77 -57 -216t57 -217t158 -78q43 0 89.5 21.5t88.5 61.5l33 -63q-41 -41 -99.5 -65.5t-112.5 -24.5q-43 0 -79 9l-51 -126l-57 22l50 126q-41 22 -69 53l-59 -147l-58 22l74 185q-48 91 -48 221q0 109 33.5 189t96.5 125t150 49l43 108h66l-45 -113
q40 -7 80 -26l55 139h66l-68 -171q18 -13 32 -27l-33 -63q-42 40 -88.5 61.5t-89.5 21.5q-101 0 -158 -77z" />
    <glyph glyph-name="franc" unicode="&#x20a3;" 
d="M587 499v-70h-10q-73 0 -109 -41.5t-36 -107.5v-280h-79v327h-201v-327h-80v712h423v-69h-343v-246h201v95h75v-89q39 96 143 96h16z" />
    <glyph glyph-name="lira" unicode="&#x20a4;" 
d="M211.5 126q-15.5 -36 -52.5 -57h404v-69h-518v57q54 26 77 59t23 86v49h-100v59h100v93h-100v60h100v63q0 90 53 142t144 52q64 0 122.5 -23t103.5 -67l-33 -63q-43 41 -91.5 62.5t-97.5 21.5q-58 0 -88.5 -33.5t-30.5 -97.5v-57h182v-60h-182v-93h182v-59h-182v-28
q0 -61 -15.5 -97z" />
    <glyph glyph-name="uni20A6" unicode="&#x20a6;" 
d="M587 404h-95v-94h95v-59h-95v-251h-69l-242 535v-535h-73v251h-94v59h94v94h-94v59h94v249h69l242 -542v542h73v-249h95v-59z" />
    <glyph glyph-name="peseta" unicode="&#x20a7;" horiz-adv-x="1200" 
d="M1114.5 249q38.5 -19 55 -45t16.5 -67q0 -64 -54 -104t-142 -40q-114 0 -189 57l-2 -53q-24 -4 -51 -4q-91 0 -136.5 47t-45.5 131v268h-74q-15 -85 -76 -131.5t-157 -46.5h-90v-261h-81v728h171q111 0 173.5 -59t64.5 -166h69v153h81v-153h139v-64h-139v-262
q0 -119 111 -119q11 0 35 2l27 58q44 -31 83.5 -45t86.5 -14q56 0 87 20t31 57q0 23 -11.5 38t-39.5 26t-80 22q-90 20 -128.5 53t-38.5 89q0 44 24.5 78.5t68 53.5t99.5 19q49 0 96 -17.5t78 -48.5l-26 -59q-78 59 -152 59q-50 0 -79.5 -22t-29.5 -59q0 -33 24.5 -50
t93.5 -34q69 -16 107.5 -35zM418 494q0 85 -39.5 125.5t-122.5 40.5h-86v-332h86q162 0 162 166z" />
    <glyph glyph-name="uni20A9" unicode="&#x20a9;" 
d="M587 404h-84l-12 -94h96v-59h-104l-33 -251h-58l-92 537l-92 -537h-58l-33 251h-103v59h96l-13 94h-83v59h76l-33 249h71l59 -505l85 505h57l85 -507l58 507h72l-33 -249h76v-59z" />
    <glyph glyph-name="dong" unicode="&#x20ab;" 
d="M575 563h-74v-563h-81v89q-22 -46 -62 -70.5t-93 -24.5q-59 0 -105.5 30.5t-73.5 88.5t-27 137t26.5 136t73.5 86.5t106 29.5q52 0 92 -24t62 -69v154h-152v57h152v92h82v-92h74v-57zM384.5 111.5q35.5 49.5 35.5 136.5t-35.5 136.5t-102.5 49.5q-65 0 -102.5 -48.5
t-37.5 -135.5q0 -88 38 -138t102 -50q67 0 102.5 49.5zM76 -140v57h425v-57h-425z" />
    <glyph glyph-name="Euro" unicode="&#x20ac;" 
d="M469.5 83.5q45.5 21.5 86.5 61.5l31 -63q-39 -41 -96.5 -65.5t-114.5 -24.5q-105 0 -170.5 67t-85.5 192h-106v59h99q-1 15 -1 47q0 31 1 46h-99v60h106q20 123 86 190t170 67q61 0 115.5 -23t95.5 -67l-31 -63q-41 40 -86.5 61.5t-91.5 21.5q-146 0 -176 -187h176v-60
h-182q-1 -15 -1 -46q0 -32 1 -47h182v-59h-176q30 -189 176 -189q46 0 91.5 21.5z" />
    <glyph glyph-name="uni20AD" unicode="&#x20ad;" 
d="M548 327h-262l300 -327h-96l-297 321v-321h-82v327h-97v59h97v326h82v-319l297 319h96l-301 -326h263v-59z" />
    <glyph glyph-name="uni20B1" unicode="&#x20b1;" 
d="M587 529h-82q3 -21 3 -45q0 -28 -4 -48h83v-59h-99q-25 -59 -79.5 -91t-132.5 -32h-87v-254h-81v377h-94v59h94v93h-94v60h94v123h168q80 0 134.5 -32t78.5 -91h98v-60zM389.5 361q38.5 40 38.5 122q0 83 -38 122t-117 39h-83v-323h83q78 0 116.5 40z" />
    <glyph glyph-name="uni20B2" unicode="&#x20b2;" 
d="M331 371h222v-328q-34 -19 -82 -32.5t-95 -17.5v-109h-70v110q-120 14 -188.5 110t-68.5 253q0 156 68 251t188 110v110h70v-110q49 -6 98.5 -29.5t84.5 -58.5l-32 -63q-42 40 -88.5 61.5t-90.5 21.5q-100 0 -157 -77t-57 -216q0 -140 56.5 -218t156.5 -78q58 0 132 27
v218h-147v65z" />
    <glyph glyph-name="uni20B5" unicode="&#x20b5;" 
d="M569 82q-35 -35 -84.5 -58.5t-98.5 -29.5v-110h-70v110q-121 15 -188.5 110.5t-67.5 252.5q0 156 68 251.5t188 109.5v110h70v-110q49 -6 98.5 -29.5t84.5 -58.5l-33 -63q-35 33 -73.5 54t-76.5 27v-584q38 6 76.5 27t73.5 54zM188.5 157.5q45.5 -75.5 127.5 -91.5v580
q-82 -15 -127.5 -90.5t-45.5 -198.5q0 -124 45.5 -199.5z" />
    <glyph glyph-name="uni20B9" unicode="&#x20b9;" 
d="M582 653h-163q44 -33 57 -93h106v-60h-101q-3 -78 -52.5 -128t-132.5 -62q27 -7 49 -26t43 -51l154 -233h-98l-150 228q-26 41 -54.5 57.5t-76.5 16.5h-145v69h218q155 0 162 129h-380v60h374q-24 93 -156 93h-218v59h564v-59z" />
    <glyph glyph-name="uni20BA" unicode="&#x20ba;" 
d="M566 81q-95 -89 -247 -89q-79 0 -157 23v324l-99 -55v69l99 55v98l-99 -55v69l99 55v137h83v-91l184 102v-69l-184 -102v-98l184 103v-70l-184 -102v-312q39 -11 81 -11q118 0 208 82z" />
    <glyph glyph-name="uni20BC" unicode="&#x20bc;" 
d="M452 640q46 -66 70.5 -220t24.5 -420h-81q0 241 -15 378.5t-44 197.5t-73 72v-308h-68v307q-43 -13 -71 -73t-43 -198t-15 -376h-81q0 266 24.5 419.5t69.5 219.5t115 77v112h70v-111q71 -11 117 -77z" />
    <glyph glyph-name="uni20BD" unicode="&#x20bd;" 
d="M189 304v-94h180v-58h-180v-152h-81v152h-94v58h94v94h-94v59h94v349h232q112 0 174 -54.5t62 -149.5q0 -94 -63.5 -149t-172.5 -55h-151zM190 363h138q83 0 125.5 35t42.5 105q0 143 -166 143h-140v-283z" />
    <glyph glyph-name="uni2113" unicode="&#x2113;" horiz-adv-x="606" 
d="M231.5 21q-28.5 36 -28.5 92v117l-52 -61l-39 37l91 105v242q0 79 32 121.5t89 42.5q49 0 75 -30.5t26 -74.5q0 -73 -30 -137t-89 -139q-16 -22 -26 -37v-171q0 -77 57 -77q20 0 39 10.5t43 33.5l32 -48q-30 -29 -61 -45.5t-69 -16.5q-61 0 -89.5 36zM295 413
q70 108 70 183q0 21 -10.5 37.5t-28.5 16.5q-22 0 -34 -23t-12 -77v-160z" />
    <glyph glyph-name="uni2116" unicode="&#x2116;" horiz-adv-x="1085" 
d="M802.5 453.5q-39.5 42.5 -39.5 111.5q0 68 39.5 110t109.5 42q71 0 111 -42t40 -110q0 -69 -40 -111.5t-111 -42.5q-70 0 -109.5 42.5zM581 139v573h78v-712h-64l-430 573v-573h-77v712h63zM854.5 635q-19.5 -25 -19.5 -70q0 -47 19.5 -71.5t57.5 -24.5q39 0 59 24.5
t20 71.5q0 45 -20 70t-59 25q-38 0 -57.5 -25zM774 235v67h282v-67h-282z" />
    <glyph glyph-name="trademark" unicode="&#x2122;" horiz-adv-x="924" 
d="M8 649v63h355v-63h-139v-362h-77v362h-139zM784 712h59v-425h-67v286l-115 -219h-50l-114 214v-281h-69v425h61l148 -283z" />
    <glyph glyph-name="uni2126" unicode="&#x2126;" horiz-adv-x="787" 
d="M685.5 236q-44.5 -85 -137.5 -167h175v-69h-263v66q91 83 138 171.5t47 174.5q0 113 -66.5 175.5t-185.5 62.5t-185.5 -63t-66.5 -175q0 -87 47 -175t139 -171v-66h-263v69h175q-93 82 -138 167t-45 178t41.5 162.5t117.5 107t178 37.5t178.5 -37.5t117.5 -107t41 -162.5
t-44.5 -178z" />
    <glyph glyph-name="estimated" unicode="&#x212e;" horiz-adv-x="903" 
d="M238 43q-91 48 -139 129t-48 176q0 96 49 181t139.5 136.5t210.5 51.5q146 0 236 -55t128 -141t38 -187h-649q-5 0 -5 -6v-173q0 -22 7 -30q40 -48 102.5 -73t141.5 -25q82 0 144.5 27.5t117.5 80.5h72q-62 -74 -136.5 -107t-194.5 -33q-123 0 -214 48zM700 366q5 0 5 6
v190q0 14 -10 26q-47 55 -113.5 76.5t-134.5 21.5q-64 0 -126.5 -22.5t-113.5 -73.5q-9 -9 -9 -27v-191q0 -6 5 -6h497z" />
    <glyph glyph-name="partialdiff" unicode="&#x2202;" 
d="M381 728.5q72 -43.5 117.5 -144.5t45.5 -265q0 -169 -66.5 -252t-179.5 -83q-72 1 -128 33t-87.5 93.5t-31.5 145.5t32 146t86 94t120 32q53 0 95 -20t71 -67q-17 141 -86 202.5t-169 61.5h-45v62q40 5 67 5q87 0 159 -43.5zM414.5 109.5q45.5 57.5 45.5 160.5
q0 60 -21.5 103t-59 65t-82.5 22q-72 0 -118 -54t-46 -152q0 -63 21.5 -108.5t58.5 -69.5t83 -24q73 0 118.5 57.5z" />
    <glyph glyph-name="emptyset" unicode="&#x2205;" 
d="M105 110q-49 40 -76.5 95.5t-27.5 119.5q0 76 39.5 142t108 105.5t152.5 39.5q88 0 159 -44l77 102l48 -36l-79 -101q44 -39 68.5 -92.5t24.5 -115.5q0 -77 -40 -142t-108.5 -103.5t-149.5 -38.5q-79 0 -147 38l-79 -103l-49 31zM424 522q-55 33 -123 33
q-66 0 -119.5 -30t-84.5 -82.5t-31 -117.5q0 -50 19.5 -94t54.5 -76zM418 124.5q54 29.5 85.5 82.5t31.5 118q0 46 -16.5 87.5t-47.5 74.5l-283 -365q51 -27 113 -27q63 0 117 29.5z" />
    <glyph glyph-name="uni2206" unicode="&#x2206;" horiz-adv-x="787" 
d="M685.5 236q-44.5 -85 -137.5 -167h175v-69h-263v66q91 83 138 171.5t47 174.5q0 113 -66.5 175.5t-185.5 62.5t-185.5 -63t-66.5 -175q0 -87 47 -175t139 -171v-66h-263v69h175q-93 82 -138 167t-45 178t41.5 162.5t117.5 107t178 37.5t178.5 -37.5t117.5 -107t41 -162.5
t-44.5 -178z" />
    <glyph glyph-name="product" unicode="&#x220f;" 
d="M546 712v-894h-76v824h-340v-824h-76v894h492z" />
    <glyph glyph-name="summation" unicode="&#x2211;" horiz-adv-x="588" 
d="M545 712v-69h-406l244 -349v-57l-243 -349h405v-70h-504v61l269 386l-269 387v60h504z" />
    <glyph glyph-name="minus" unicode="&#x2212;" 
d="M546 319v-63h-492v63h492z" />
    <glyph glyph-name="uni2215" unicode="&#x2215;" 
d="M205 -66l-67 23l257 803l68 -22z" />
    <glyph glyph-name="uni2219" unicode="&#x2219;" 
d="M249 320h103v-103h-103v103z" />
    <glyph glyph-name="radical" unicode="&#x221a;" 
d="M583 766l-269 -968h-65l-150 458h-96v63h144l133 -415l235 862h68z" />
    <glyph glyph-name="infinity" unicode="&#x221e;" 
d="M524 388.5q36 -39.5 36 -101.5t-36 -101.5t-98 -39.5q-35 0 -69.5 20t-56.5 61q-22 -41 -56.5 -61t-69.5 -20q-62 0 -98 39.5t-36 101.5t36 101.5t98 39.5q35 0 69.5 -20t56.5 -61q22 41 56.5 61t69.5 20q62 0 98 -39.5zM276 288q-35 86 -100 86q-36 0 -56 -25t-20 -62
q0 -38 20 -62.5t56 -24.5q65 0 100 88zM480 224.5q20 24.5 20 62.5q0 37 -20 62t-56 25q-65 0 -100 -86q35 -88 100 -88q36 0 56 24.5z" />
    <glyph glyph-name="integral" unicode="&#x222b;" 
d="M471 711v-68q-28 7 -48 7q-82 0 -82 -98v-580q0 -77 -39.5 -117.5t-107.5 -40.5q-32 0 -65 9v69q27 -8 48 -8q82 0 82 98v580q0 77 39.5 117.5t107.5 40.5q32 0 65 -9z" />
    <glyph glyph-name="approxequal" unicode="&#x2248;" horiz-adv-x="589" 
d="M541 417q-19 -47 -52 -73t-78 -26q-32 0 -62 11.5t-74 34.5q-30 17 -51.5 26t-39.5 9q-32 0 -52 -17.5t-33 -49.5l-51 28q19 47 52.5 72.5t78.5 25.5q33 0 63 -12t72 -34q31 -17 52 -25.5t40 -8.5q32 0 52 17.5t33 48.5zM541 215q-19 -47 -52 -73t-78 -26q-32 0 -62 11.5
t-74 34.5q-30 17 -51.5 26t-39.5 9q-32 0 -52 -17.5t-33 -49.5l-51 28q19 47 52.5 72.5t78.5 25.5q33 0 63 -12t72 -34q31 -17 52 -25.5t40 -8.5q32 0 52 17.5t33 48.5z" />
    <glyph glyph-name="notequal" unicode="&#x2260;" 
d="M546 357h-191l-57 -139h248v-63h-274l-57 -137l-57 25l47 112h-151v63h177l57 139h-234v63h261l56 136l57 -24l-46 -112h164v-63z" />
    <glyph glyph-name="lessequal" unicode="&#x2264;" 
d="M546 541v-67l-402 -144l402 -145v-68l-492 180v64zM54 0v63h492v-63h-492z" />
    <glyph glyph-name="greaterequal" unicode="&#x2265;" 
d="M54 541l492 -180v-64l-492 -180v68l402 145l-402 144v67zM54 0v63h492v-63h-492z" />
    <glyph glyph-name="lozenge" unicode="&#x25ca;" horiz-adv-x="606" 
d="M558 282l-223 -484h-64l-222 484l222 484h64zM489 282l-186 405l-186 -405l186 -406z" />
    <glyph glyph-name="uniF8FF" unicode="&#xf8ff;" horiz-adv-x="665" 
d="M138 1l71 226l-192 146h239l74 226l78 -226h239l-192 -146l71 -226l-196 136zM264 200h28v76l29 -55h23l30 55v-76h28v131h-27l-42 -79l-42 79h-27v-131z" />
    <glyph glyph-name="Iacute_J.loclNLD" horiz-adv-x="587" 
d="M88 0v712h82v-712h-82zM157 773h-57l102 153h89zM253 -107q45 -8 72 -8q51 0 71.5 28.5t20.5 97.5v701h82v-702q0 -104 -37.5 -150t-123.5 -46q-34 0 -85 8v71zM486 773h-57l102 153h89z" />
    <glyph glyph-name="i.loclTRK" horiz-adv-x="238" 
d="M78 0v503h81v-503h-81zM70 716h99v-92h-99v92z" />
    <glyph glyph-name="iacute_j.loclNLD" horiz-adv-x="476" 
d="M78 0v503h81v-503h-81zM148 568h-57l100 204h94zM232 -150q84 0 84 100v553h81v-563q0 -79 -39.5 -119.5t-108.5 -40.5q-33 0 -66 9v69q27 -8 49 -8zM385 568h-57l100 204h94z" />
    <glyph glyph-name="I_J.loclNLD" horiz-adv-x="587" 
d="M88 0v712h82v-712h-82zM253 -107q45 -8 72 -8q51 0 71.5 28.5t20.5 97.5v701h82v-702q0 -104 -37.5 -150t-123.5 -46q-34 0 -85 8v71z" />
    <glyph glyph-name="i_j.loclNLD" horiz-adv-x="476" 
d="M78 0v503h81v-503h-81zM70 716h99v-92h-99v92zM232 -150q84 0 84 100v553h81v-563q0 -79 -39.5 -119.5t-108.5 -40.5q-33 0 -66 9v69q27 -8 49 -8zM307 716h99v-92h-99v92z" />
    <glyph glyph-name="zero.dnom" horiz-adv-x="380" 
d="M73.5 51q-41.5 55 -41.5 163t41.5 162.5t116.5 54.5t116 -54.5t41 -162.5t-41.5 -163t-115.5 -55q-75 0 -116.5 55zM253 92q20 38 20 122q0 82 -20.5 120.5t-62.5 38.5q-43 0 -63 -38.5t-20 -120.5q0 -84 20 -122t63 -38t63 38z" />
    <glyph glyph-name="one.dnom" horiz-adv-x="380" 
d="M252 60h76v-60h-225v60h77v284l-72 -44v74l89 53h55v-367z" />
    <glyph glyph-name="two.dnom" horiz-adv-x="380" 
d="M337 60v-60h-285v54l144 159q26 28 39 52t13 47q0 29 -18 44.5t-49 15.5q-27 0 -58.5 -12t-59.5 -34l-26 54q30 23 70 37t81 14q62 0 98 -32t36 -83q0 -37 -17 -70.5t-57 -74.5l-106 -111h195z" />
    <glyph glyph-name="three.dnom" horiz-adv-x="380" 
d="M311 183q20 -26 20 -66q0 -56 -39.5 -88.5t-107.5 -32.5q-42 0 -82.5 14.5t-69.5 37.5l25 53q64 -46 123 -46q38 0 59.5 16.5t21.5 49.5q0 66 -85 66h-57v58h46q40 0 62 17t22 50q0 29 -18 44.5t-49 15.5q-59 0 -119 -46l-26 54q30 23 70 37t79 14q64 0 99.5 -31.5
t35.5 -81.5q0 -35 -18.5 -60.5t-49.5 -37.5q38 -11 58 -37z" />
    <glyph glyph-name="four.dnom" horiz-adv-x="380" 
d="M359 141v-57h-63v-84h-70v84h-194v53l204 290h60v-286h63zM101 141h125v179z" />
    <glyph glyph-name="five.dnom" horiz-adv-x="380" 
d="M306 235q38 -37 38 -98q0 -63 -43 -102t-109 -39q-40 0 -80 14.5t-67 37.5l25 53q57 -45 117 -45q40 0 63.5 21t23.5 58q0 35 -23 56.5t-59 21.5q-52 0 -91 -37h-43v251h266v-59h-197v-122q34 26 82 26q59 0 97 -37z" />
    <glyph glyph-name="six.dnom" horiz-adv-x="380" 
d="M310.5 234.5q37.5 -36.5 37.5 -98.5q0 -63 -41.5 -101.5t-103.5 -38.5q-77 0 -122 52t-45 156q0 113 49 170t127 57q36 0 73.5 -14t65.5 -37l-25 -54q-59 46 -113 46q-48 0 -76 -38.5t-29 -119.5q16 26 44.5 41.5t62.5 15.5q58 0 95.5 -36.5zM258.5 74.5
q21.5 22.5 21.5 59.5t-21.5 59t-57.5 22t-58.5 -22t-22.5 -59t22.5 -59.5t58.5 -22.5t57.5 22.5z" />
    <glyph glyph-name="seven.dnom" horiz-adv-x="380" 
d="M43 427h294v-57l-188 -370h-80l189 366h-215v61z" />
    <glyph glyph-name="eight.dnom" horiz-adv-x="380" 
d="M326.5 180.5q23.5 -27.5 23.5 -65.5q0 -56 -42.5 -87.5t-117.5 -31.5q-76 0 -118.5 31.5t-42.5 87.5q0 38 23.5 65.5t62.5 39.5q-35 12 -55.5 38.5t-20.5 59.5q0 52 40.5 82.5t110.5 30.5q69 0 109.5 -30.5t40.5 -82.5q0 -34 -21 -61t-56 -38q40 -11 63.5 -38.5z
M130 358.5q-21 -17.5 -21 -48.5q0 -28 20.5 -46.5t60.5 -25.5q40 7 60.5 25.5t20.5 46.5q0 31 -21 48.5t-60 17.5t-60 -17.5zM258 69q23 18 23 51q0 31 -22 48.5t-69 25.5q-47 -7 -69 -25t-22 -49q0 -33 22.5 -51t68.5 -18q45 0 68 18z" />
    <glyph glyph-name="nine.dnom" horiz-adv-x="380" 
d="M298.5 379q44.5 -52 44.5 -156q0 -113 -48.5 -170t-126.5 -57q-36 0 -73.5 14t-66.5 38l26 53q59 -46 113 -46q47 0 75.5 38.5t29.5 120.5q-16 -26 -44.5 -41.5t-62.5 -15.5q-58 0 -95.5 36t-37.5 98q0 64 41.5 102t103.5 38q77 0 121.5 -52zM237.5 234.5
q22.5 22.5 22.5 58.5q0 37 -22.5 59.5t-58.5 22.5t-57.5 -22.5t-21.5 -59.5t21.5 -59t57.5 -22t58.5 22.5z" />
    </font>
</defs>
</svg>
