<?xml version="1.0" standalone="no"?>
<!DOCTYPE svg PUBLIC "-//W3C//DTD SVG 1.1//EN" "http://www.w3.org/Graphics/SVG/1.1/DTD/svg11.dtd" >
<svg xmlns="http://www.w3.org/2000/svg" xmlns:xlink="http://www.w3.org/1999/xlink" version="1.1">
<metadata>
Created by FontForge 20170731 at Thu Jun 17 18:27:13 2021
 By Aleksey,,,
Copyright (c) 1988, 1990, 1993, 2003 Linotype Library GmbH, www.linotype.com. All rights reserved. Copyright (c) 1988, 1990, 1993 Adobe Systems Incorporated. All Rights Reserved.
</metadata>
<defs>
<font id="HelveticaNeueLTPro-BdCn" horiz-adv-x="983" >
  <font-face 
    font-family="HelveticaNeueLT Pro 57 Cn"
    font-weight="700"
    font-stretch="normal"
    units-per-em="2048"
    panose-1="2 11 7 6 3 5 2 3 2 4"
    ascent="1462"
    descent="-586"
    x-height="1102"
    cap-height="1462"
    bbox="-336 -518 2183 2806"
    underline-thickness="102"
    underline-position="-307"
    unicode-range="U+000D-FB02"
  />
<missing-glyph horiz-adv-x="1048" 
d="M455 240h114v137h-114v-137zM461 479h94q0 107 12 148q11 38 88 106q75 69 102 123t27 123q0 120 -72 194t-182 74q-115 0 -189 -69.5t-87 -210.5l102 -17q11 100 56 147.5t112 47.5q64 0 110 -50.5t46 -123.5q0 -41 -19.5 -75.5t-82.5 -94.5q-67 -67 -95 -121
q-26 -51 -26 -166zM946 102h-844v1264h844v-1264zM1049 1470h-1049v-1470h1049v1470z" />
    <glyph glyph-name="IJ" unicode="IJ" horiz-adv-x="1472" 
d="M412 0h-295v1462h295v-1462zM1087 1462h295v-1052q0 -230 -107 -334.5t-333 -104.5q-91 0 -159.5 23t-111 61.5t-69.5 94.5t-37 116t-10 133v64h270v-45q0 -123 27.5 -176.5t103.5 -53.5t103.5 53.5t27.5 176.5v1044z" />
    <glyph glyph-name="ij" unicode="ij" 
d="M104 1237v242h283v-242h-283zM104 0v1102h283v-1102h-283zM596 1237v242h283v-242h-283zM596 20v1082h283v-1178q0 -147 -71 -215.5t-253 -68.5q-33 0 -115 4v204q12 -4 23 -4h22q71 0 91 38t20 138z" />
    <glyph glyph-name="napostrophe" unicode="&#x22;n" horiz-adv-x="1085" 
d="M156 0v1102h270v-129h4q85 157 281 157q280 0 280 -313v-817h-282v760q0 83 -28.5 118t-92.5 35q-150 0 -150 -182v-731h-282zM61 1704h230v-199q0 -54 -12.5 -93t-29.5 -60.5t-47 -35.5t-52 -18.5t-58 -9.5v74q37 11 55 33t19 67h-105v242z" />
    <glyph glyph-name="fi" unicode="fi" horiz-adv-x="1099" 
d="M156 0v909h-144v193h144v125q0 143 75 203.5t220 60.5q75 0 151 -6v-201q-10 2 -29 2h-26q-60 0 -84.5 -20t-24.5 -68v-96h164v-193h-164v-909h-282zM713 1237v242h282v-242h-282zM713 0v1102h282v-1102h-282z" />
    <glyph glyph-name="fl" unicode="fl" horiz-adv-x="1099" 
d="M156 0v909h-144v193h144v125q0 143 75 203.5t220 60.5q75 0 151 -6v-201q-10 2 -29 2h-26q-60 0 -84.5 -20t-24.5 -68v-96h164v-193h-164v-909h-282zM713 0v1479h282v-1479h-282z" />
    <glyph glyph-name=".notdef" horiz-adv-x="1048" 
d="M455 240h114v137h-114v-137zM461 479h94q0 107 12 148q11 38 88 106q75 69 102 123t27 123q0 120 -72 194t-182 74q-115 0 -189 -69.5t-87 -210.5l102 -17q11 100 56 147.5t112 47.5q64 0 110 -50.5t46 -123.5q0 -41 -19.5 -75.5t-82.5 -94.5q-67 -67 -95 -121
q-26 -51 -26 -166zM946 102h-844v1264h844v-1264zM1049 1470h-1049v-1470h1049v1470z" />
    <glyph glyph-name=".null" horiz-adv-x="1024" 
 />
    <glyph glyph-name=".null" horiz-adv-x="1024" 
 />
    <glyph glyph-name="nonmarkingreturn" horiz-adv-x="682" 
 />
    <glyph glyph-name="CR" unicode="&#xd;" horiz-adv-x="0" 
 />
    <glyph glyph-name="space" unicode=" " horiz-adv-x="491" 
 />
    <glyph glyph-name="exclam" unicode="!" horiz-adv-x="606" 
d="M162 270h282v-270h-282v270zM406 408h-205l-39 579v475h282v-475z" />
    <glyph glyph-name="quotedbl" unicode="&#x22;" horiz-adv-x="948" 
d="M147 805v657h254v-657h-254zM547 805v657h254v-657h-254z" />
    <glyph glyph-name="numbersign" unicode="#" 
d="M408 836l-31 -250h198l33 250h-200zM0 356v230h178l33 250h-150v229h177l45 356h196l-43 -356h199l45 356h199l-45 -356h149v-229h-176l-33 -250h150v-230h-176l-46 -356h-198l45 356h-201l-43 -356h-199l46 356h-152z" />
    <glyph glyph-name="dollar" unicode="$" 
d="M420 -207v178q-99 8 -171.5 34t-116 63.5t-70 91t-35.5 108t-9 123.5v43h283q0 -51 3.5 -84.5t15 -70t36.5 -59t64 -32.5v414l-103 37q-280 101 -280 393q0 187 99 292t284 126v141h131v-141q379 -34 379 -387v-29h-283q-2 84 -23.5 133.5t-72.5 65.5v-387l162 -66
q63 -28 104.5 -54.5t77.5 -68.5t53 -103t17 -144q0 -216 -103 -320.5t-311 -118.5v-178h-131zM420 905v328q-101 -29 -101 -156q0 -114 101 -172zM551 551v-363q60 13 89.5 58t29.5 106q0 76 -28.5 121.5t-90.5 77.5z" />
    <glyph glyph-name="percent" unicode="%" horiz-adv-x="1593" 
d="M287 -63l831 1548h182l-831 -1548h-182zM272 1067q0 -69 2.5 -108.5t11.5 -73.5t27.5 -48t48.5 -14t48.5 14t27.5 48t12 73.5t3 108.5q0 123 -17 175t-74 52t-73.5 -51.5t-16.5 -175.5zM55 1059q0 105 12.5 173.5t45.5 120t94 74.5t155 23t155 -23t94.5 -74.5t46 -120
t12.5 -173.5t-12.5 -173.5t-46 -120t-94.5 -74.5t-155 -23t-155 23t-94 74.5t-45.5 120t-12.5 173.5zM924 362q0 105 12.5 173.5t45.5 120.5t94 75t155 23t155 -23t94 -75t45.5 -120.5t12.5 -173.5t-12.5 -173.5t-45.5 -120t-94 -74.5t-155 -23t-155 23t-94 74.5t-45.5 120
t-12.5 173.5zM1141 371q0 -69 2.5 -108.5t11.5 -73.5t27.5 -48t48.5 -14t48.5 14t27.5 48t11.5 73.5t2.5 108.5q0 124 -16.5 175.5t-73.5 51.5t-73.5 -51.5t-16.5 -175.5z" />
    <glyph glyph-name="ampersand" unicode="&#x26;" horiz-adv-x="1214" 
d="M653 778l219 -297q23 46 37.5 110t14.5 111h254q0 -219 -150 -432l193 -270h-314l-82 113q-56 -66 -149.5 -104t-202.5 -38q-106 0 -188 28.5t-129.5 72t-78.5 102.5t-41.5 111.5t-10.5 107.5q0 236 294 422l-51 76q-59 85 -78.5 141t-19.5 123q0 140 103.5 223.5
t269.5 83.5q180 0 272 -85t92 -220q0 -108 -61 -196t-193 -183zM702 293l-245 348q-83 -65 -116.5 -122t-33.5 -126q0 -74 55.5 -133t149.5 -59q116 0 190 92zM412 1163q0 -61 73 -159l35 -50l53 45q93 77 93 160q0 59 -35.5 91t-93.5 32q-55 0 -90 -31.5t-35 -87.5z" />
    <glyph glyph-name="quotesingle" unicode="'" horiz-adv-x="532" 
d="M139 805v657h254v-657h-254z" />
    <glyph glyph-name="parenleft" unicode="(" horiz-adv-x="606" 
d="M389 1462h217q-127 -233 -180 -444.5t-53 -474.5t53 -475t180 -445h-217q-287 455 -287 920q0 464 287 919z" />
    <glyph glyph-name="parenright" unicode=")" horiz-adv-x="606" 
d="M0 1462h217q287 -455 287 -919q0 -465 -287 -920h-217q127 233 180 445t53 475t-53 474.5t-180 444.5z" />
    <glyph glyph-name="asterisk" unicode="*" horiz-adv-x="798" 
d="M315 1462h168v-262l250 82l51 -160l-249 -82l155 -213l-137 -98l-154 213l-153 -213l-137 98l155 213l-250 82l52 160l249 -82v262z" />
    <glyph glyph-name="plus" unicode="+" horiz-adv-x="1228" 
d="M487 0v391h-391v254h391v391h254v-391h392v-254h-392v-391h-254z" />
    <glyph glyph-name="comma" unicode="," horiz-adv-x="491" 
d="M111 319h270v-266q0 -88 -11.5 -151.5t-41 -116.5t-83.5 -84t-134 -39v143q51 10 78.5 55.5t27.5 106.5v33h-106v319z" />
    <glyph glyph-name="hyphen" unicode="-" horiz-adv-x="757" 
d="M90 713h578v-242h-578v242z" />
    <glyph glyph-name="period" unicode="." horiz-adv-x="491" 
d="M111 319h270v-319h-270v319z" />
    <glyph glyph-name="slash" unicode="/" horiz-adv-x="679" 
d="M-6 -29l463 1520h229l-463 -1520h-229z" />
    <glyph glyph-name="zero" unicode="0" 
d="M37 676q0 101 2.5 170t12.5 157.5t28 147t51.5 120t81 97.5t118.5 59t161 23q133 0 219.5 -37t139.5 -124t74 -216t21 -328q0 -102 -2.5 -170.5t-12 -157t-28 -147t-52 -120t-80.5 -97.5t-118 -59t-161 -23q-107 0 -183 24.5t-129 75t-84.5 136t-45 198t-13.5 271.5z
M332 770v-158q0 -187 14.5 -281t47.5 -130.5t98 -36.5q39 0 66 15.5t45.5 48t28.5 91.5t14.5 137.5t4.5 194.5v158q0 187 -14.5 281t-47 130.5t-97.5 36.5q-39 0 -66 -15.5t-46 -48t-29 -91.5t-14.5 -137.5t-4.5 -194.5z" />
    <glyph glyph-name="one" unicode="1" 
d="M668 0h-295v1024h-289v193h27q148 0 232.5 56.5t107.5 176.5h217v-1450z" />
    <glyph glyph-name="two" unicode="2" 
d="M930 229v-229h-893q0 188 76 334.5t243 300.5l119 110q95 83 123.5 149.5t28.5 182.5q0 180 -144 180q-42 0 -72.5 -15t-48 -39t-27.5 -62.5t-13 -76t-3 -89.5h-282v55q0 420 450 420q217 0 326 -101.5t109 -293.5q0 -141 -51.5 -246t-174.5 -215l-164 -152
q-123 -112 -149 -213h547z" />
    <glyph glyph-name="three" unicode="3" 
d="M41 424h283q2 -136 35.5 -198t125.5 -62q41 0 71 12.5t47 32.5t27.5 51.5t13.5 63t3 73.5t-4 75.5t-16.5 67t-32.5 55.5t-55 36t-82 14h-99v193h97q86 0 127 65t41 164q0 101 -34.5 145.5t-107.5 44.5q-46 0 -76.5 -16.5t-46 -50.5t-21 -73t-5.5 -95h-271
q0 213 108.5 320.5t317.5 107.5q202 0 310 -92.5t108 -280.5q0 -130 -58 -213t-163 -106v-4q258 -43 258 -342q0 -65 -11 -122t-43.5 -117.5t-83.5 -103.5t-139 -70.5t-204 -27.5q-207 0 -313.5 117t-106.5 330v6z" />
    <glyph glyph-name="four" unicode="4" 
d="M29 301v242l481 907h305v-920h139v-229h-139v-301h-270v301h-516zM545 530v551h-4l-283 -551h287z" />
    <glyph glyph-name="five" unicode="5" 
d="M870 1421v-229h-534l-31 -330h4q79 109 266 109q81 0 144 -26.5t102 -70t64 -105t35 -125t10 -136.5q0 -101 -12.5 -179t-44.5 -147t-84 -114t-133.5 -71t-190.5 -26q-106 0 -186 27t-124.5 67.5t-72.5 97.5t-36.5 106.5t-8.5 105.5v39h282q0 -238 144 -238
q89 0 130.5 70t41.5 213q0 179 -35.5 243t-134.5 64q-61 0 -96 -35t-43 -98h-265l54 788h755z" />
    <glyph glyph-name="six" unicode="6" 
d="M338 451q0 -68 6.5 -116t23 -89t49.5 -61.5t83 -20.5q41 0 70.5 15t46.5 38.5t26.5 62.5t12.5 77.5t3 93.5q0 148 -36.5 211t-122.5 63q-88 0 -125 -63t-37 -211zM920 1081h-283q0 88 -31 132t-102 44q-46 0 -78.5 -18.5t-52 -49t-31 -79.5t-15 -100t-3.5 -121v-72h4
q38 59 108 92t164 33t163 -33.5t110.5 -95.5t61 -142.5t19.5 -181.5q0 -518 -469 -518q-85 0 -153 19.5t-115 52.5t-81.5 84t-55 105.5t-32 127.5t-15.5 139t-4 150q0 86 1 136.5t5.5 128.5t13.5 126t25.5 111t41 101t61.5 80.5t84.5 65t112 37.5t142.5 15q65 0 122 -11.5
t108.5 -38.5t89 -68.5t60 -105.5t24.5 -145z" />
    <glyph glyph-name="seven" unicode="7" 
d="M45 1421h893v-225q-172 -242 -279.5 -556t-146.5 -640h-309q23 188 72.5 372.5t147 397.5t232.5 397h-610v254z" />
    <glyph glyph-name="eight" unicode="8" 
d="M324 414q0 -116 37.5 -183t130.5 -67q48 0 82 19t52 54.5t25.5 78t7.5 98.5t-7.5 98.5t-25.5 78t-52 54.5t-82 19q-93 0 -130.5 -67t-37.5 -183zM348 1059q0 -100 38 -151.5t106 -51.5t105.5 51t37.5 152q0 198 -143 198q-144 0 -144 -198zM29 410q0 141 62.5 237.5
t182.5 120.5v4q-56 14 -98.5 45t-65.5 71.5t-33.5 81t-10.5 81.5q0 399 426 399t426 -399q0 -56 -19 -109.5t-68.5 -102.5t-121.5 -67v-4q120 -24 182.5 -120.5t62.5 -237.5q0 -58 -9 -110.5t-38.5 -115t-77.5 -107.5t-135 -75.5t-202 -30.5t-202 30.5t-135.5 75.5
t-78 107.5t-38.5 115t-9 110.5z" />
    <glyph glyph-name="nine" unicode="9" 
d="M324 971q0 -148 36.5 -211.5t122.5 -63.5q88 0 125 63.5t37 211.5q0 68 -6.5 115.5t-23 88.5t-49.5 61.5t-83 20.5q-51 0 -84 -20.5t-48.5 -62.5t-21 -88t-5.5 -115zM63 338h283q0 -86 31 -130t102 -44q46 0 78.5 18.5t52 49t31 79.5t15 100t3.5 121v70h-4
q-38 -57 -108 -90t-164 -33t-163 33.5t-110.5 95.5t-61 142.5t-19.5 181.5q0 518 469 518q84 0 152 -19.5t115 -52.5t81.5 -84t55 -106t32.5 -127.5t16 -139t4 -149.5q0 -111 -2 -176t-11.5 -161t-28 -153t-54 -123.5t-86.5 -102.5t-128 -60.5t-177 -24.5q-83 0 -151.5 18.5
t-126 59.5t-91 114.5t-35.5 174.5z" />
    <glyph glyph-name="colon" unicode=":" horiz-adv-x="491" 
d="M111 748v319h270v-319h-270zM111 0v319h270v-319h-270z" />
    <glyph glyph-name="semicolon" unicode=";" horiz-adv-x="491" 
d="M111 1067h270v-319h-270v319zM111 319h270v-266q0 -88 -11.5 -151.5t-41 -116.5t-83.5 -84t-134 -39v143q51 10 78.5 55.5t27.5 106.5v33h-106v319z" />
    <glyph glyph-name="semicolon" unicode="&#x37e;" horiz-adv-x="491" 
d="M111 1067h270v-319h-270v319zM111 319h270v-266q0 -88 -11.5 -151.5t-41 -116.5t-83.5 -84t-134 -39v143q51 10 78.5 55.5t27.5 106.5v33h-106v319z" />
    <glyph glyph-name="less" unicode="&#x3c;" horiz-adv-x="1228" 
d="M96 410v217l1037 426v-254l-693 -281l693 -280v-254z" />
    <glyph glyph-name="equal" unicode="=" horiz-adv-x="1228" 
d="M96 168v254h1037v-254h-1037zM96 614v254h1037v-254h-1037z" />
    <glyph glyph-name="greater" unicode="&#x3e;" horiz-adv-x="1228" 
d="M96 -16v254l692 280l-692 281v254l1037 -426v-217z" />
    <glyph glyph-name="question" unicode="?" horiz-adv-x="985" 
d="M332 270h282v-270h-282v270zM344 1010h-270v47q0 191 104 306.5t301 115.5q212 0 322 -105.5t110 -290.5q0 -88 -29 -162.5t-100 -156.5l-82 -92q-56 -63 -78 -112t-22 -124v-30h-254v79q0 101 28.5 172t98.5 150l78 88q78 86 78 217q0 80 -36 127t-104 47
q-145 0 -145 -225v-51z" />
    <glyph glyph-name="at" unicode="@" horiz-adv-x="1638" 
d="M1069 999l27 109h180l-119 -512q-12 -59 -12 -84q0 -41 41 -41q31 0 67.5 26t69 70.5t54.5 113.5t22 146q0 132 -77 241.5t-201.5 169.5t-266.5 60q-118 0 -224 -47.5t-180 -126t-117.5 -182t-43.5 -213.5q0 -153 79.5 -284t213 -206t286.5 -75q227 0 445 131h182
q-229 -324 -676 -324q-155 0 -295.5 60t-242.5 162t-162 242.5t-60 295.5t60 295.5t162 242.5t242.5 162t295.5 60q153 0 291.5 -45t242.5 -124.5t165 -197t61 -254.5q0 -123 -41 -226t-101.5 -167.5t-133.5 -109.5t-133.5 -63.5t-104.5 -18.5q-124 0 -133 108h-4
q-104 -108 -246 -108q-55 0 -108 24t-96 67.5t-69 110.5t-26 146q0 127 52.5 241t154.5 188.5t231 74.5q163 0 248 -138zM612 668q0 -69 41 -117.5t105 -48.5q100 0 168.5 82t68.5 180q0 66 -45 111t-108 45q-94 0 -162 -81t-68 -171z" />
    <glyph glyph-name="A" unicode="A" horiz-adv-x="1138" 
d="M567 1208l-141 -657h287l-142 657h-4zM0 0l387 1462h365l387 -1462h-308l-67 309h-389l-68 -309h-307z" />
    <glyph glyph-name="B" unicode="B" horiz-adv-x="1138" 
d="M397 657v-440h115q114 0 176 50t62 171q0 120 -60 169.5t-166 49.5h-127zM397 1245v-383h84q124 0 180 45t56 148t-50.5 146.5t-162.5 43.5h-107zM102 0v1462h494q95 0 168 -19t130 -60.5t87.5 -114.5t30.5 -176q0 -121 -56.5 -205.5t-164.5 -114.5v-4
q125 -17 195.5 -105.5t70.5 -234.5q0 -71 -14 -132.5t-48 -117t-85.5 -94t-130.5 -61.5t-179 -23h-498z" />
    <glyph glyph-name="C" unicode="C" horiz-adv-x="1099" 
d="M1022 969h-295q0 163 -39 234t-137 71q-108 0 -146 -122t-38 -441q0 -164 11 -268t36 -159.5t57.5 -75.5t83.5 -20q43 0 73.5 14t57 52t40 114t13.5 191h295q0 -103 -11 -184t-41.5 -159t-81 -130t-134.5 -83.5t-197 -31.5q-82 0 -148.5 14t-116 43t-87 66t-63 91
t-42 110t-25 130.5t-12 145t-3.5 160.5t3.5 160.5t12 145t25 130.5t42 110t63 91t87 66t116 43t148.5 14q88 0 158 -18.5t116.5 -47t80.5 -73.5t52.5 -87.5t29 -99.5t13.5 -99.5t3 -96.5z" />
    <glyph glyph-name="D" unicode="D" horiz-adv-x="1175" 
d="M412 1245v-1028h131q62 0 104 17.5t70.5 52.5t43.5 100.5t21 147.5t6 208q0 91 -3 153.5t-12.5 123.5t-26.5 99t-44.5 68.5t-68.5 44t-96 13.5h-125zM117 0v1462h483q86 0 155 -17t119 -47.5t87 -79t60.5 -105t37 -132.5t19 -153.5t5.5 -175.5q0 -160 -14.5 -277
t-49 -210t-92.5 -149.5t-143 -86t-202 -29.5h-465z" />
    <glyph glyph-name="E" unicode="E" horiz-adv-x="985" 
d="M102 1462h818v-241h-523v-344h492v-242h-492v-393h543v-242h-838v1462z" />
    <glyph glyph-name="F" unicode="F" horiz-adv-x="948" 
d="M102 0v1462h818v-241h-523v-344h492v-242h-492v-635h-295z" />
    <glyph glyph-name="G" unicode="G" horiz-adv-x="1138" 
d="M1034 1028h-282q0 58 -16 111.5t-55.5 94t-96.5 40.5q-106 0 -153.5 -119t-47.5 -393q0 -143 8 -240t29.5 -177t62.5 -118.5t103 -38.5q64 0 123 63t59 171v149h-195v217h478v-788h-217v135h-5q-54 -86 -128 -125t-179 -39q-90 0 -158 21.5t-115.5 68t-79 108.5
t-49.5 153.5t-25 191.5t-7 234q0 191 24 325t80.5 230t152 142t235.5 46q236 0 345 -117t109 -346z" />
    <glyph glyph-name="H" unicode="H" horiz-adv-x="1138" 
d="M102 0v1462h295v-559h344v559h295v-1462h-295v649h-344v-649h-295z" />
    <glyph glyph-name="I" unicode="I" horiz-adv-x="528" 
d="M412 0h-295v1462h295v-1462z" />
    <glyph glyph-name="J" unicode="J" horiz-adv-x="948" 
d="M563 1462h295v-1052q0 -230 -107 -334.5t-333 -104.5q-91 0 -159.5 23t-111 61.5t-69.5 94.5t-37 116t-10 133v64h270v-45q0 -123 27.5 -176.5t103.5 -53.5t103.5 53.5t27.5 176.5v1044z" />
    <glyph glyph-name="K" unicode="K" horiz-adv-x="1099" 
d="M102 1462h295v-585h4l373 585h320l-398 -626l443 -836h-332l-301 600l-109 -166v-434h-295v1462z" />
    <glyph glyph-name="L" unicode="L" horiz-adv-x="948" 
d="M920 0h-818v1462h295v-1220h523v-242z" />
    <glyph glyph-name="M" unicode="M" horiz-adv-x="1515" 
d="M109 0v1462h438l209 -1032h4l211 1032h436v-1462h-270v1167h-4l-261 -1167h-229l-260 1167h-4v-1167h-270z" />
    <glyph glyph-name="N" unicode="N" horiz-adv-x="1175" 
d="M102 1462h340l357 -1001h4v1001h270v-1462h-336l-360 1024h-4v-1024h-271v1462z" />
    <glyph glyph-name="O" unicode="O" horiz-adv-x="1138" 
d="M72 731q0 90 3.5 160.5t12 145t25 130.5t42 110t63 91t87 66t116 43t148.5 14q93 0 166.5 -19.5t125.5 -53t89.5 -88t60 -113.5t35 -142t17 -161.5t4.5 -182.5t-4.5 -182.5t-17 -161.5t-35 -142t-60 -113.5t-89.5 -88t-125.5 -53t-166.5 -19.5q-82 0 -148.5 14t-116 43
t-87 66t-63 91t-42 110t-25 130.5t-12 145t-3.5 160.5zM367 731q0 -105 3 -177.5t11 -137.5t22 -104.5t36.5 -69t54 -42t75.5 -12.5t75.5 12.5t54.5 42t37 69t22 104.5t11 137.5t3 177.5q0 104 -3 176.5t-11 137.5t-22 105t-37 69.5t-54.5 42t-75.5 12.5t-75.5 -12.5
t-54 -42t-36.5 -69.5t-22 -105t-11 -137.5t-3 -176.5z" />
    <glyph glyph-name="P" unicode="P" horiz-adv-x="1062" 
d="M397 1245v-444h131q91 0 144 55t53 164q0 112 -48.5 168.5t-156.5 56.5h-123zM102 0v1462h516q87 0 157 -25t115 -66t75 -98.5t42.5 -119t12.5 -129.5q0 -220 -124 -330t-341 -110h-158v-584h-295z" />
    <glyph glyph-name="Q" unicode="Q" horiz-adv-x="1138" 
d="M367 731q0 -105 3 -177.5t11 -137.5t22 -104.5t36.5 -69t54 -42t75.5 -12.5t75.5 12.5t54.5 42t37 69t22 104.5t11 137.5t3 177.5q0 104 -3 176.5t-11 137.5t-22 105t-37 69.5t-54.5 42t-75.5 12.5t-75.5 -12.5t-54 -42t-36.5 -69.5t-22 -105t-11 -137.5t-3 -176.5z
M1112 -23l-174 -157l-174 180q-53 -18 -90 -23q-46 -6 -105 -6q-82 0 -148.5 14t-116 43t-87 66t-63 91t-42 110t-25 130.5t-12 145t-3.5 160.5t3.5 160.5t12 145t25 130.5t42 110t63 91t87 66t116 43t148.5 14q93 0 166.5 -19.5t125.5 -53t89.5 -88t60 -113.5t35 -142
t17 -161.5t4.5 -182.5q0 -212 -23 -355t-90 -239z" />
    <glyph glyph-name="R" unicode="R" horiz-adv-x="1138" 
d="M102 0v1462h545q186 0 287.5 -95.5t101.5 -281.5q0 -309 -243 -360v-4q61 -8 101.5 -28t66.5 -51t40 -86.5t19.5 -118t7.5 -163.5q2 -126 14.5 -183t51.5 -79v-12h-320q-33 44 -37 154l-8 280q-5 90 -46 137t-128 47h-158v-618h-295zM397 1245v-422h123q109 0 165 52
t56 167q0 203 -204 203h-140z" />
    <glyph glyph-name="S" unicode="S" horiz-adv-x="1062" 
d="M45 457h295v-43q0 -112 42.5 -169t152.5 -57q73 0 124.5 47t51.5 134q0 96 -55.5 147t-206.5 102q-203 68 -293 167.5t-90 275.5q0 212 118.5 321t333.5 109q101 0 182 -22.5t142.5 -68.5t95 -122.5t33.5 -179.5v-41h-283q0 108 -38 162.5t-122 54.5q-168 0 -168 -170
q0 -72 31.5 -117.5t120.5 -81.5l227 -98q160 -71 219.5 -158.5t59.5 -228.5q0 -227 -131.5 -338t-376.5 -111q-243 0 -354 108t-111 318v60z" />
    <glyph glyph-name="T" unicode="T" 
d="M25 1462h933v-241h-319v-1221h-295v1221h-319v241z" />
    <glyph glyph-name="U" unicode="U" horiz-adv-x="1101" 
d="M84 1462h295v-1020q0 -121 37.5 -187.5t134.5 -66.5t134.5 66.5t37.5 187.5v1020h295v-1020q0 -108 -26 -191t-69 -135t-104.5 -85.5t-126.5 -46.5t-141 -13q-78 0 -141.5 11t-126 42.5t-105 82.5t-68.5 136t-26 199v1020z" />
    <glyph glyph-name="V" unicode="V" horiz-adv-x="1062" 
d="M6 1462h316l206 -1081h7l217 1081h305l-336 -1462h-379z" />
    <glyph glyph-name="W" unicode="W" horiz-adv-x="1556" 
d="M283 0l-267 1462h283l162 -1081h4l172 1081h283l172 -1081h4l161 1081h283l-266 -1462h-330l-164 1061h-4l-164 -1061h-329z" />
    <glyph glyph-name="X" unicode="X" horiz-adv-x="1099" 
d="M377 739l-336 723h326l188 -473l186 473h322l-340 -723l364 -739h-331l-211 496l-209 -496h-324z" />
    <glyph glyph-name="Y" unicode="Y" horiz-adv-x="1064" 
d="M6 1462h332l192 -565h5l204 565h320l-379 -887v-575h-295v575z" />
    <glyph glyph-name="Z" unicode="Z" horiz-adv-x="985" 
d="M49 0v215l539 1006h-502v241h842v-223l-547 -997h555v-242h-887z" />
    <glyph glyph-name="bracketleft" unicode="[" horiz-adv-x="645" 
d="M164 -377v1839h469v-205h-215v-1429h215v-205h-469z" />
    <glyph glyph-name="backslash" unicode="\" horiz-adv-x="679" 
d="M457 -29l-463 1520h229l463 -1520h-229z" />
    <glyph glyph-name="bracketright" unicode="]" horiz-adv-x="645" 
d="M12 -377v205h215v1429h-215v205h469v-1839h-469z" />
    <glyph glyph-name="asciicircum" unicode="^" horiz-adv-x="1228" 
d="M369 633h-254l385 788h229l385 -788h-254l-246 506z" />
    <glyph glyph-name="underscore" unicode="_" horiz-adv-x="1024" 
d="M1024 -256h-1024v102h1024v-102z" />
    <glyph glyph-name="grave" unicode="`" horiz-adv-x="454" 
d="M360 1233h-192l-201 295h283z" />
    <glyph glyph-name="a" unicode="a" horiz-adv-x="985" 
d="M346 764h-254v27q0 92 30 159.5t84.5 105.5t122 56t150.5 18q99 0 170.5 -16.5t115.5 -44.5t70 -72t35 -92t9 -112v-580q0 -78 7 -120.5t27 -92.5h-270q-19 37 -35 115h-4q-48 -83 -110.5 -113.5t-169.5 -30.5q-57 0 -103 19t-76 50t-50.5 72.5t-29 85t-8.5 89.5
q0 153 64 228t215 116l160 43q63 17 87.5 45.5t24.5 83.5q0 135 -131 135q-65 0 -98 -37.5t-33 -105.5v-31zM608 334v217q-48 -38 -121 -55q-85 -18 -122 -61t-37 -118q0 -68 26 -110.5t80 -42.5q67 0 120.5 43t53.5 127z" />
    <glyph glyph-name="b" unicode="b" horiz-adv-x="1024" 
d="M94 0v1462h283v-463h4q45 67 102 99t135 32q175 0 256.5 -137t81.5 -442t-81.5 -442.5t-256.5 -137.5q-85 0 -143.5 34t-105.5 112h-4v-117h-271zM377 551q0 -97 6 -159.5t21.5 -111t45.5 -70.5t76 -22q45 0 74.5 22t45.5 70.5t22 111.5t6 159t-6 159t-22 111t-45 70
t-75 22q-37 0 -63.5 -15t-43 -42.5t-26 -74t-13 -100t-3.5 -130.5z" />
    <glyph glyph-name="c" unicode="c" horiz-adv-x="948" 
d="M895 705h-270q0 221 -127 221q-51 0 -83.5 -22t-49.5 -72.5t-23 -115t-6 -167.5q0 -214 30.5 -299.5t120.5 -85.5q72 0 105 61.5t33 196.5h270q0 -223 -100 -337t-320 -114q-110 0 -186 28.5t-130.5 95.5t-80 179t-25.5 277t32 280.5t94 179.5t139.5 91.5t181.5 27.5
q193 0 294 -112.5t101 -312.5z" />
    <glyph glyph-name="d" unicode="d" horiz-adv-x="1024" 
d="M659 0v117h-4q-47 -78 -105.5 -112t-143.5 -34q-175 0 -256.5 137.5t-81.5 442.5t81.5 442t256.5 137q78 0 135 -32t102 -99h4v463h283v-1462h-271zM350 551q0 -96 6 -159t22 -111.5t45.5 -70.5t74.5 -22q46 0 76 22t45.5 70.5t21.5 111t6 159.5q0 77 -3.5 130.5t-13 100
t-26 74t-43 42.5t-63.5 15q-46 0 -75 -22t-45 -70t-22 -111t-6 -159z" />
    <glyph glyph-name="e" unicode="e" horiz-adv-x="948" 
d="M895 508h-559v-88q0 -110 33.5 -183t105.5 -73q70 0 104 49.5t46 157.5h254q-8 -197 -105 -298.5t-295 -101.5q-67 0 -122.5 12t-96.5 30.5t-73.5 50t-54 62.5t-37 76.5t-23.5 83t-12.5 91t-5.5 91.5t-1 93q0 98 8.5 173.5t36.5 153t74.5 128t127.5 82.5t192 32
q97 0 168.5 -26.5t116 -72.5t71.5 -118t37 -153t10 -189v-63zM336 676h289q-5 139 -33.5 200.5t-110.5 61.5q-40 0 -70 -19t-45.5 -52t-22.5 -69.5t-7 -78.5v-43z" />
    <glyph glyph-name="f" unicode="f" horiz-adv-x="606" 
d="M156 0v909h-144v193h144v125q0 143 75 203.5t220 60.5q75 0 151 -6v-201q-10 2 -29 2h-26q-60 0 -84.5 -20t-24.5 -68v-96h164v-193h-164v-909h-282z" />
    <glyph glyph-name="g" unicode="g" horiz-adv-x="1024" 
d="M354 516q0 -63 5.5 -110t20 -89.5t43.5 -65t73 -22.5q85 0 119 81.5t34 234.5q0 204 -31.5 286t-115.5 82q-91 0 -119.5 -83t-28.5 -314zM649 1102h271v-1047q0 -223 -107.5 -327.5t-351.5 -104.5q-180 0 -277.5 77t-97.5 218h270q0 -54 43 -84q47 -31 95 -31
q155 0 155 199v145h-4q-43 -62 -105.5 -98.5t-129.5 -36.5q-171 0 -254.5 131.5t-83.5 425.5q0 61 3 112.5t12.5 111t24.5 106t41.5 91.5t62 74.5t87 47.5t115.5 18q68 0 128.5 -35.5t98.5 -115.5h4v123z" />
    <glyph glyph-name="h" unicode="h" horiz-adv-x="1024" 
d="M94 0v1462h283v-473h4q81 141 268 141q281 0 281 -313v-817h-283v760q0 83 -28.5 118t-92.5 35q-149 0 -149 -182v-731h-283z" />
    <glyph glyph-name="i" unicode="i" horiz-adv-x="491" 
d="M104 1237v242h283v-242h-283zM104 0v1102h283v-1102h-283z" />
    <glyph glyph-name="j" unicode="j" horiz-adv-x="491" 
d="M104 1237v242h283v-242h-283zM104 20v1082h283v-1178q0 -147 -71 -215.5t-253 -68.5q-32 0 -114 4v204q12 -4 22 -4h23q71 0 90.5 37.5t19.5 138.5z" />
    <glyph glyph-name="k" unicode="k" horiz-adv-x="1024" 
d="M104 1462h283v-772h4l285 412h311l-317 -434l364 -668h-311l-236 453l-100 -131v-322h-283v1462z" />
    <glyph glyph-name="l" unicode="l" horiz-adv-x="491" 
d="M104 0v1462h283v-1462h-283z" />
    <glyph glyph-name="m" unicode="m" horiz-adv-x="1552" 
d="M94 0v1102h271v-113h4q54 74 120 107.5t158 33.5q99 0 165 -45t89 -131h4q32 86 104.5 131t174.5 45q274 0 274 -329v-801h-282v770q0 71 -26.5 107t-84.5 36q-70 0 -108.5 -47t-38.5 -141v-725h-283v770q0 71 -26.5 107t-84.5 36q-70 0 -108.5 -47t-38.5 -141v-725h-283
z" />
    <glyph glyph-name="n" unicode="n" horiz-adv-x="1024" 
d="M94 0v1102h271v-129h4q85 157 280 157q281 0 281 -313v-817h-283v760q0 83 -28.5 118t-92.5 35q-149 0 -149 -182v-731h-283z" />
    <glyph glyph-name="o" unicode="o" 
d="M57 551q0 293 100.5 436t334.5 143q125 2 210 -33t134 -111t69.5 -180.5t20.5 -254.5q0 -293 -100 -436.5t-334 -143.5q-125 -2 -210 33t-134.5 111.5t-70 181t-20.5 254.5zM340 551q0 -64 1.5 -108t7 -92t15.5 -79t26.5 -57t42 -38.5t59.5 -12.5q85 0 118 88t33 299
t-33 299t-118 88q-34 0 -59.5 -12.5t-42 -38.5t-26.5 -57t-15.5 -79t-7 -92t-1.5 -108z" />
    <glyph glyph-name="p" unicode="p" horiz-adv-x="1024" 
d="M94 -360v1462h271v-117h4q47 78 105.5 111.5t143.5 33.5q175 0 256.5 -137t81.5 -442t-81.5 -442.5t-256.5 -137.5q-78 0 -135 32t-102 99h-4v-462h-283zM377 551q0 -97 6 -159.5t21.5 -111t45.5 -70.5t76 -22q45 0 74.5 22t45.5 70.5t22 111.5t6 159t-6 159t-22 111
t-45 70t-75 22q-37 0 -63.5 -15t-43 -42.5t-26 -74t-13 -100t-3.5 -130.5z" />
    <glyph glyph-name="q" unicode="q" horiz-adv-x="1024" 
d="M647 -360v462h-4q-45 -67 -102 -99t-135 -32q-175 0 -256.5 137.5t-81.5 442.5t81.5 442t256.5 137q85 0 143.5 -33.5t105.5 -111.5h4v117h271v-1462h-283zM647 551q0 77 -3.5 130.5t-13 100t-26 74t-43 42.5t-63.5 15q-46 0 -75 -22t-45 -70t-22 -111t-6 -159t6 -159
t22 -111.5t45.5 -70.5t74.5 -22q46 0 76 22t45.5 70.5t21.5 111t6 159.5z" />
    <glyph glyph-name="r" unicode="r" horiz-adv-x="681" 
d="M94 0v1102h271v-148h4q95 176 254 176q19 0 51 -4v-270q-62 4 -88 4q-85 0 -147 -48.5t-62 -149.5v-662h-283z" />
    <glyph glyph-name="s" unicode="s" horiz-adv-x="909" 
d="M47 360h254v-36q0 -73 38.5 -116.5t109.5 -43.5q68 0 105.5 33t37.5 98q0 49 -27 76.5t-76 48.5l-198 72q-119 42 -177.5 117t-58.5 190q0 70 23.5 128t70.5 104.5t127 72.5t185 26q189 0 283 -80.5t94 -232.5v-45h-254q0 87 -28.5 126.5t-96.5 39.5q-57 0 -95 -31
t-38 -88q0 -44 27.5 -75.5t95.5 -53.5l169 -57q132 -44 188 -117t56 -199q0 -168 -112 -257t-297 -89q-117 0 -197.5 24t-125.5 72t-64 109.5t-19 145.5v38z" />
    <glyph glyph-name="t" unicode="t" horiz-adv-x="606" 
d="M156 1102v315h282v-315h164v-193h-164v-596q0 -68 20.5 -94t80.5 -26q27 0 63 4v-197q-126 -12 -184 -12q-84 0 -134.5 13.5t-79.5 50t-38.5 88t-9.5 139.5v630h-144v193h144z" />
    <glyph glyph-name="u" unicode="u" horiz-adv-x="1024" 
d="M659 0v129h-4q-86 -158 -280 -158q-281 0 -281 314v817h283v-760q0 -84 28.5 -119t92.5 -35q149 0 149 183v731h283v-1102h-271z" />
    <glyph glyph-name="v" unicode="v" horiz-adv-x="909" 
d="M467 313l149 789h283l-276 -1102h-328l-285 1102h295l158 -789h4z" />
    <glyph glyph-name="w" unicode="w" horiz-adv-x="1441" 
d="M254 0l-240 1102h283l129 -783h4l137 783h307l146 -783h4l133 783h270l-237 -1102h-322l-145 782h-4l-137 -782h-328z" />
    <glyph glyph-name="x" unicode="x" horiz-adv-x="946" 
d="M473 770l152 332h295l-287 -535l299 -567h-295l-164 360l-164 -360h-295l299 567l-286 535h295z" />
    <glyph glyph-name="y" unicode="y" horiz-adv-x="909" 
d="M94 -360v210q37 -6 74 -6q75 0 110 39.5t41 116.5l-309 1102h295l164 -762h4l143 762h283l-266 -1028q-26 -100 -47 -165t-48.5 -116.5t-54.5 -79t-69.5 -45t-88.5 -23t-116 -5.5h-115z" />
    <glyph glyph-name="z" unicode="z" horiz-adv-x="872" 
d="M49 0v217l440 655h-419v230h753v-217l-440 -656h440v-229h-774z" />
    <glyph glyph-name="braceleft" unicode="{" horiz-adv-x="645" 
d="M61 459v168q53 0 94.5 48t41.5 118v395q0 131 54.5 202.5t158.5 71.5h182v-205h-62q-46 0 -62.5 -39t-16.5 -108v-340q0 -91 -40.5 -152t-107.5 -73v-4q67 -12 107.5 -73.5t40.5 -152.5v-340q0 -69 16.5 -108t62.5 -39h62v-205h-182q-103 0 -158 71.5t-55 203.5v395
q0 70 -41.5 118t-94.5 48z" />
    <glyph glyph-name="bar" unicode="|" horiz-adv-x="454" 
d="M100 -29v1520h254v-1520h-254z" />
    <glyph glyph-name="braceright" unicode="}" horiz-adv-x="645" 
d="M53 -377v205h62q46 0 63 39t17 108v340q0 92 40.5 153t106.5 73v4q-67 12 -107 73t-40 152v340q0 69 -17 108t-63 39h-62v205h183q104 0 158.5 -71.5t54.5 -202.5v-395q0 -70 41 -118t94 -48v-168q-53 0 -94 -48t-41 -118v-395q0 -132 -55 -203.5t-158 -71.5h-183z" />
    <glyph glyph-name="asciitilde" unicode="~" horiz-adv-x="1228" 
d="M1014 715l73 -217q-93 -176 -251 -176q-64 0 -119 17t-123 52q-83 43 -122 56.5t-73 13.5q-55 0 -109 -46.5t-75 -92.5l-74 217q93 176 252 176q106 0 223 -60q93 -48 133 -64t80 -16q55 0 109.5 47t75.5 93z" />
    <glyph glyph-name="uni00A0" unicode="&#xa0;" horiz-adv-x="491" 
 />
    <glyph glyph-name="exclamdown" unicode="&#xa1;" horiz-adv-x="606" 
d="M162 831v271h282v-271h-282zM162 -360v475l39 579h205l38 -579v-475h-282z" />
    <glyph glyph-name="cent" unicode="&#xa2;" 
d="M455 -209v180q-70 3 -125 19.5t-105.5 55.5t-84 101.5t-53 162.5t-19.5 233q0 101 8.5 178t33.5 153.5t67 127.5t112 85.5t166 42.5v156h106v-156q57 -3 104 -15t95 -41t81 -73.5t53.5 -118t20.5 -169.5h-270q0 180 -84 213v-750q28 17 46.5 46t26 68t9.5 68t2 70h270
q0 -208 -84.5 -321t-269.5 -136v-180h-106zM455 176v750q-63 -23 -84 -109.5t-21 -261.5q0 -54 0.5 -84t3.5 -78.5t9.5 -77.5t18 -61t30 -51t43.5 -27z" />
    <glyph glyph-name="sterling" unicode="&#xa3;" 
d="M18 627v168h138q-93 181 -93 290q0 160 113.5 262.5t325.5 102.5q437 0 446 -424h-270q0 104 -37.5 167.5t-122.5 63.5q-90 0 -131 -46t-41 -115q0 -76 53 -185l58 -116h342v-168h-289q10 -30 10 -80q0 -91 -41 -162.5t-143 -157.5l8 -4q35 15 92 15q26 0 111.5 -31
t122.5 -31q35 0 92 22t121 64l90 -192q-150 -99 -305 -99q-45 0 -176.5 37t-196.5 37q-50 0 -94 -13t-107 -44l-84 176q109 70 174.5 165.5t65.5 196.5q0 40 -23 101h-209z" />
    <glyph glyph-name="currency" unicode="&#xa4;" 
d="M240 711q0 -123 68 -194t184 -71t183.5 71t67.5 194t-67.5 193.5t-183.5 70.5t-184 -70.5t-68 -193.5zM125 219l-125 127l102 103q-79 119 -79 262q0 144 79 262l-102 102l125 127l104 -102q119 80 263 80q141 0 262 -80l104 102l125 -127l-102 -102q80 -119 80 -262
t-80 -262l102 -103l-125 -127l-104 105q-119 -82 -262 -82q-147 0 -263 82z" />
    <glyph glyph-name="yen" unicode="&#xa5;" 
d="M365 0v326h-291v168h291v88l-23 47h-268v168h188l-297 624h305l219 -551h5l229 551h295l-297 -624h188v-168h-268l-23 -47v-88h291v-168h-291v-326h-253z" />
    <glyph glyph-name="brokenbar" unicode="&#xa6;" horiz-adv-x="454" 
d="M100 936v555h254v-555h-254zM100 -29v555h254v-555h-254z" />
    <glyph glyph-name="section" unicode="&#xa7;" horiz-adv-x="985" 
d="M338 557l203 -111q32 -17 80 -51q96 79 96 154q0 54 -30.5 90.5t-108.5 77.5l-197 104q-113 -66 -113 -153q0 -31 18 -62t52 -49zM78 76h270v-31q0 -76 40.5 -120t103.5 -44q67 0 101 40t34 97q0 58 -30 97.5t-101 74.5l-252 121q-217 104 -217 316q0 96 48.5 173
t135.5 120q-123 92 -123 233q0 118 57 195.5t148.5 110t214.5 32.5q200 0 294.5 -89t94.5 -243h-270q0 61 -29 101q-28 38 -113 38q-59 0 -93 -32.5t-34 -83.5q0 -78 131 -142l244 -114q225 -106 225 -334q0 -79 -45 -166t-114 -125q110 -89 110 -254q0 -181 -107.5 -269.5
t-309.5 -88.5q-206 0 -310 93.5t-104 262.5v31z" />
    <glyph glyph-name="dieresis" unicode="&#xa8;" horiz-adv-x="454" 
d="M289 1260v241h229v-241h-229zM-63 1260v241h229v-241h-229z" />
    <glyph glyph-name="copyright" unicode="&#xa9;" horiz-adv-x="1638" 
d="M59 731q0 155 60 295.5t162 242.5t242.5 162t295.5 60t295.5 -60t242.5 -162t162 -242.5t60 -295.5t-60 -295.5t-162 -242.5t-242.5 -162t-295.5 -60t-295.5 60t-242.5 162t-162 242.5t-60 295.5zM289 731q0 -147 68 -271.5t190.5 -198t271.5 -73.5t271.5 73.5t191 198
t68.5 271.5t-68.5 271.5t-191 198t-271.5 73.5t-271.5 -73.5t-190.5 -198t-68 -271.5zM1014 610h205q-24 -149 -128 -234t-241 -85q-127 0 -224.5 60t-148.5 161t-51 225q0 194 113 320.5t305 126.5q142 0 244 -82.5t122 -231.5h-196q-40 138 -180 138q-103 0 -159.5 -75
t-56.5 -196q0 -114 58 -192t155 -78q75 0 123.5 38.5t59.5 104.5z" />
    <glyph glyph-name="ordfeminine" unicode="&#xaa;" horiz-adv-x="643" 
d="M395 979v121q-29 -20 -71 -31q-53 -10 -76 -34t-23 -66q0 -38 16.5 -62t49.5 -24q41 0 72.5 23.5t31.5 72.5zM600 1247v-352q0 -77 23 -129h-205q-6 10 -10 21t-8 29.5t-5 21.5q-34 -52 -75 -69t-117 -17q-94 0 -138.5 55.5t-44.5 132.5q0 96 41.5 142t141.5 67l119 25
q40 10 56.5 26t16.5 43q0 76 -76 76q-40 0 -61.5 -22t-21.5 -58v-18h-193v26q0 203 281 203q86 0 142.5 -14t84.5 -43.5t38.5 -63t10.5 -82.5z" />
    <glyph glyph-name="guillemotleft" unicode="&#xab;" horiz-adv-x="872" 
d="M106 426v332l306 246v-271l-162 -141l162 -141v-271zM461 426v332l305 246v-271l-162 -141l162 -141v-271z" />
    <glyph glyph-name="logicalnot" unicode="&#xac;" horiz-adv-x="1228" 
d="M879 201v413h-783v254h1037v-667h-254z" />
    <glyph glyph-name="uni00AD" unicode="&#xad;" horiz-adv-x="757" 
d="M90 713h578v-242h-578v242z" />
    <glyph glyph-name="registered" unicode="&#xae;" horiz-adv-x="1638" 
d="M289 731q0 -147 68 -271.5t190.5 -198t271.5 -73.5t271.5 73.5t191 198t68.5 271.5t-68.5 271.5t-191 198t-271.5 73.5t-271.5 -73.5t-190.5 -198t-68 -271.5zM59 731q0 155 60 295.5t162 242.5t242.5 162t295.5 60t295.5 -60t242.5 -162t162 -242.5t60 -295.5
t-60 -295.5t-162 -242.5t-242.5 -162t-295.5 -60t-295.5 60t-242.5 162t-162 242.5t-60 295.5zM702 997v-202h138q68 0 102.5 20.5t34.5 81.5q0 32 -14 53.5t-39.5 30.5t-48.5 12.5t-54 3.5h-119zM522 322v819h320q315 0 315 -254q0 -99 -56.5 -158t-146.5 -70l203 -337
h-196l-193 329h-66v-329h-180z" />
    <glyph glyph-name="macron" unicode="&#xaf;" horiz-adv-x="454" 
d="M-74 1458h602v-155h-602v155z" />
    <glyph glyph-name="degree" unicode="&#xb0;" horiz-adv-x="819" 
d="M262 1147q0 -61 43 -104.5t105 -43.5q61 0 104 43t43 105q0 61 -42.5 104t-104.5 43t-105 -43t-43 -104zM106 1147q0 127 88 215t216 88t215.5 -88t87.5 -215t-87.5 -215t-215.5 -88t-216 88t-88 215z" />
    <glyph glyph-name="plusminus" unicode="&#xb1;" horiz-adv-x="1228" 
d="M96 0v254h1037v-254h-1037zM487 815v221h254v-221h392v-254h-392v-221h-254v221h-391v254h391z" />
    <glyph glyph-name="twosuperior" unicode="&#xb2;" horiz-adv-x="638" 
d="M639 573h-639q0 121 47.5 213.5t159.5 171.5l102 74q58 41 79.5 78.5t21.5 87.5q0 42 -24 69t-64 27q-105 0 -105 -149h-217v51q0 126 78 190t250 64q159 0 235 -58.5t76 -162.5q0 -88 -29 -147t-106 -119l-117 -91q-94 -71 -108 -131h360v-168z" />
    <glyph glyph-name="threesuperior" unicode="&#xb3;" horiz-adv-x="638" 
d="M0 852h217q4 -137 100 -137q47 0 70 30t23 78q0 129 -123 129h-58v144h58q56 0 83 31t27 77q0 39 -23.5 64.5t-60.5 25.5q-94 0 -94 -123h-205q0 140 74 211q71 68 223 68q155 0 229 -53.5t74 -169.5q0 -79 -37.5 -130t-105.5 -65v-4q168 -31 168 -205q0 -264 -346 -264
q-293 0 -293 272v21z" />
    <glyph glyph-name="acute" unicode="&#xb4;" horiz-adv-x="454" 
d="M94 1233l111 295h282l-200 -295h-193z" />
    <glyph glyph-name="mu" unicode="&#xb5;" horiz-adv-x="1024" 
d="M647 371v731h283v-1102h-271v129h-4q-42 -77 -102 -117.5t-115 -40.5q-31 0 -61 17v-348h-283v1462h283v-760q0 -84 28.5 -119t92.5 -35q149 0 149 183z" />
    <glyph glyph-name="paragraph" unicode="&#xb6;" 
d="M373 -283v969q-183 0 -277 97.5t-94 283.5q0 114 29 193t85 122.5t126.5 61.5t165.5 18h548v-1745h-217v1553h-149v-1553h-217z" />
    <glyph glyph-name="periodcentered" unicode="&#xb7;" horiz-adv-x="491" 
d="M47 578q0 85 57 141.5t142 56.5t141.5 -56.5t56.5 -141.5t-56.5 -142t-141.5 -57t-142 57t-57 142z" />
    <glyph glyph-name="cedilla" unicode="&#xb8;" horiz-adv-x="454" 
d="M195 0h106l-78 -119q31 10 68 10q72 0 124 -39.5t48 -107.5q0 -91 -66.5 -139.5t-191.5 -48.5q-63 0 -120.5 11.5t-84.5 26.5l39 95q60 -31 141 -31q44 0 73.5 19t29.5 49t-24 46.5t-66 18.5q-35 0 -70 -12l-45 41z" />
    <glyph glyph-name="onesuperior" unicode="&#xb9;" horiz-adv-x="638" 
d="M236 573v594h-187v144h17q197 0 223 139h176v-877h-229z" />
    <glyph glyph-name="ordmasculine" unicode="&#xba;" horiz-adv-x="643" 
d="M229 1100q0 -53 3 -88t12.5 -66.5t28.5 -47t49 -15.5q51 0 71.5 49.5t20.5 167.5t-20.5 168.5t-71.5 50.5q-30 0 -49 -15.5t-28.5 -48t-12.5 -67.5t-3 -88zM25 1100q0 179 67 264.5t230 85.5q169 4 232.5 -80t63.5 -270q0 -178 -66.5 -263t-229.5 -85q-87 -2 -145.5 19
t-91.5 67t-46.5 108.5t-13.5 153.5z" />
    <glyph glyph-name="guillemotright" unicode="&#xbb;" horiz-adv-x="872" 
d="M461 180v271l162 141l-162 141v271l305 -246v-332zM106 180v271l162 141l-162 141v271l306 -246v-332z" />
    <glyph glyph-name="onequarter" unicode="&#xbc;" horiz-adv-x="1476" 
d="M186 573v594h-186v144h16q198 0 224 139h176v-877h-230zM197 -63l831 1548h182l-831 -1548h-182zM821 158v186l312 533h253v-551h91v-168h-91v-158h-217v158h-348zM1169 326v297h-4l-176 -297h180z" />
    <glyph glyph-name="onehalf" unicode="&#xbd;" horiz-adv-x="1476" 
d="M1477 0h-639q0 122 47 214t159 171l103 74q57 41 78.5 78.5t21.5 87.5q0 42 -24 69t-64 27q-104 0 -104 -150h-217v52q0 126 77.5 190t249.5 64q159 0 235.5 -59t76.5 -163q0 -87 -29.5 -146.5t-106.5 -119.5l-116 -90q-95 -72 -109 -131h361v-168zM186 573v594h-186v144
h16q198 0 224 139h176v-877h-230zM147 -63l832 1548h182l-831 -1548h-183z" />
    <glyph glyph-name="threequarters" unicode="&#xbe;" horiz-adv-x="1476" 
d="M0 852h217q4 -137 100 -137q47 0 70 30t23 78q0 129 -123 129h-58v144h58q56 0 83 31t27 77q0 39 -23.5 64.5t-60.5 25.5q-94 0 -94 -123h-205q0 140 74 211q71 68 223 68q155 0 229 -53.5t74 -169.5q0 -79 -37.5 -130t-105.5 -65v-4q168 -31 168 -205q0 -264 -346 -264
q-293 0 -293 272v21zM276 -63l832 1548h182l-831 -1548h-183zM989 326h180v297h-4zM821 158v186l312 533h253v-551h91v-168h-91v-158h-217v158h-348z" />
    <glyph glyph-name="questiondown" unicode="&#xbf;" horiz-adv-x="985" 
d="M653 831h-282v271h282v-271zM641 92h270v-47q0 -191 -104 -306.5t-301 -115.5q-212 0 -322 105t-110 290q0 88 29 163t100 157l82 92q56 63 78 112t22 124v30h254v-80q0 -101 -28.5 -171.5t-98.5 -149.5l-78 -88q-78 -86 -78 -217q0 -80 36 -127t104 -47q145 0 145 225
v51z" />
    <glyph glyph-name="Agrave" unicode="&#xc0;" horiz-adv-x="1138" 
d="M567 1208l-141 -657h287l-142 657h-4zM0 0l387 1462h365l387 -1462h-308l-67 309h-389l-68 -309h-307zM696 1548h-192l-201 295h283z" />
    <glyph glyph-name="Aacute" unicode="&#xc1;" horiz-adv-x="1138" 
d="M567 1208l-141 -657h287l-142 657h-4zM0 0l387 1462h365l387 -1462h-308l-67 309h-389l-68 -309h-307zM434 1548l111 295h282l-200 -295h-193z" />
    <glyph glyph-name="Acircumflex" unicode="&#xc2;" horiz-adv-x="1138" 
d="M567 1208l-141 -657h287l-142 657h-4zM0 0l387 1462h365l387 -1462h-308l-67 309h-389l-68 -309h-307zM260 1548l160 295h295l159 -295h-217l-94 174l-98 -174h-205z" />
    <glyph glyph-name="Atilde" unicode="&#xc3;" horiz-adv-x="1138" 
d="M567 1208l-141 -657h287l-142 657h-4zM0 0l387 1462h365l387 -1462h-308l-67 309h-389l-68 -309h-307zM391 1567h-143q36 254 190 254q54 0 88 -15l99 -43q30 -12 61 -12q26 0 41.5 24.5t15.5 49.5h148q-11 -112 -62.5 -183t-128.5 -71q-46 0 -129 34.5t-114 34.5
q-51 0 -66 -73z" />
    <glyph glyph-name="Adieresis" unicode="&#xc4;" horiz-adv-x="1138" 
d="M567 1208l-141 -657h287l-142 657h-4zM0 0l387 1462h365l387 -1462h-308l-67 309h-389l-68 -309h-307zM631 1579v242h229v-242h-229zM279 1579v242h229v-242h-229z" />
    <glyph glyph-name="Aring" unicode="&#xc5;" horiz-adv-x="1138" 
d="M567 1208l-141 -657h287l-142 657h-4zM0 0l387 1462h365l387 -1462h-308l-67 309h-389l-68 -309h-307zM455 1729q0 -50 33.5 -83.5t82.5 -33.5t83 34t34 83t-33.5 82.5t-83.5 33.5q-49 0 -82.5 -33.5t-33.5 -82.5zM340 1729q0 98 67 161.5t164 63.5t164.5 -63.5
t67.5 -161.5q0 -99 -67 -160.5t-165 -61.5q-100 0 -165.5 61t-65.5 161z" />
    <glyph glyph-name="AE" unicode="&#xc6;" horiz-adv-x="1554" 
d="M479 551h246v682h-18zM-10 0l551 1462h948v-241h-481v-344h450v-242h-450v-393h501v-242h-784v309h-326l-102 -309h-307z" />
    <glyph glyph-name="Ccedilla" unicode="&#xc7;" horiz-adv-x="1099" 
d="M1022 969h-295q0 163 -39 234t-137 71q-108 0 -146 -122t-38 -441q0 -164 11 -268t36 -159.5t57.5 -75.5t83.5 -20q43 0 73.5 14t57 52t40 114t13.5 191h295q0 -97 -10 -174t-34.5 -150t-70.5 -128t-114 -89q-80 -41 -201 -47l-59 -90q31 10 67 10q72 0 124 -39.5
t48 -107.5q0 -91 -66.5 -139.5t-191.5 -48.5q-63 0 -120 11.5t-84 26.5l38 95q60 -31 142 -31q44 0 73 19t29 49t-24 46.5t-66 18.5q-36 0 -70 -12l-45 41l101 155q-119 9 -195 52q-73 43 -120.5 109.5t-71.5 162t-32.5 194t-8.5 238.5q0 90 3.5 160.5t12 145t25 130.5
t42 110t63 91t87 66t116 43t148.5 14q88 0 158 -18.5t116.5 -47t80.5 -73.5t52.5 -87.5t29 -99.5t13.5 -99.5t3 -96.5z" />
    <glyph glyph-name="Egrave" unicode="&#xc8;" horiz-adv-x="985" 
d="M102 1462h818v-241h-523v-344h492v-242h-492v-393h543v-242h-838v1462zM653 1548h-192l-201 295h283z" />
    <glyph glyph-name="Eacute" unicode="&#xc9;" horiz-adv-x="985" 
d="M102 1462h818v-241h-523v-344h492v-242h-492v-393h543v-242h-838v1462zM408 1548l110 295h283l-201 -295h-192z" />
    <glyph glyph-name="Ecircumflex" unicode="&#xca;" horiz-adv-x="985" 
d="M102 1462h818v-241h-523v-344h492v-242h-492v-393h543v-242h-838v1462zM207 1548l160 295h295l159 -295h-217l-94 174l-98 -174h-205z" />
    <glyph glyph-name="Edieresis" unicode="&#xcb;" horiz-adv-x="985" 
d="M102 1462h818v-241h-523v-344h492v-242h-492v-393h543v-242h-838v1462zM569 1575v242h230v-242h-230zM217 1575v242h229v-242h-229z" />
    <glyph glyph-name="Igrave" unicode="&#xcc;" horiz-adv-x="528" 
d="M412 0h-295v1462h295v-1462zM414 1548h-193l-201 295h283z" />
    <glyph glyph-name="Iacute" unicode="&#xcd;" horiz-adv-x="528" 
d="M412 0h-295v1462h295v-1462zM119 1548l110 295h283l-201 -295h-192z" />
    <glyph glyph-name="Icircumflex" unicode="&#xce;" horiz-adv-x="528" 
d="M412 0h-295v1462h295v-1462zM-39 1548l160 295h295l159 -295h-217l-94 174l-98 -174h-205z" />
    <glyph glyph-name="Idieresis" unicode="&#xcf;" horiz-adv-x="528" 
d="M412 0h-295v1462h295v-1462zM328 1575v242h229v-242h-229zM-25 1575v242h230v-242h-230z" />
    <glyph glyph-name="Eth" unicode="&#xd0;" horiz-adv-x="1175" 
d="M412 1245v-383h190v-217h-190v-428h131q62 0 104 17.5t70.5 52.5t43.5 100.5t21 147.5t6 208q0 91 -3 153.5t-12.5 123.5t-26.5 99t-44.5 68.5t-68.5 44t-96 13.5h-125zM117 0v645h-117v217h117v600h483q86 0 155 -17t119 -47.5t87 -79t60.5 -105t37 -132.5t19 -153.5
t5.5 -175.5q0 -160 -14.5 -277t-49 -210t-92.5 -149.5t-143 -86t-202 -29.5h-465z" />
    <glyph glyph-name="Ntilde" unicode="&#xd1;" horiz-adv-x="1175" 
d="M102 1462h340l357 -1001h4v1001h270v-1462h-336l-360 1024h-4v-1024h-271v1462zM414 1567h-144q17 123 65.5 188.5t125.5 65.5q53 0 88 -15l98 -43q30 -12 62 -12q26 0 41.5 24.5t15.5 49.5h147q-11 -112 -62 -183t-128 -71q-45 0 -129 34.5t-115 34.5q-50 0 -65 -73z
" />
    <glyph glyph-name="Ograve" unicode="&#xd2;" horiz-adv-x="1138" 
d="M72 731q0 90 3.5 160.5t12 145t25 130.5t42 110t63 91t87 66t116 43t148.5 14q93 0 166.5 -19.5t125.5 -53t89.5 -88t60 -113.5t35 -142t17 -161.5t4.5 -182.5t-4.5 -182.5t-17 -161.5t-35 -142t-60 -113.5t-89.5 -88t-125.5 -53t-166.5 -19.5q-82 0 -148.5 14t-116 43
t-87 66t-63 91t-42 110t-25 130.5t-12 145t-3.5 160.5zM367 731q0 -105 3 -177.5t11 -137.5t22 -104.5t36.5 -69t54 -42t75.5 -12.5t75.5 12.5t54.5 42t37 69t22 104.5t11 137.5t3 177.5q0 104 -3 176.5t-11 137.5t-22 105t-37 69.5t-54.5 42t-75.5 12.5t-75.5 -12.5
t-54 -42t-36.5 -69.5t-22 -105t-11 -137.5t-3 -176.5zM696 1548h-192l-201 295h283z" />
    <glyph glyph-name="Oacute" unicode="&#xd3;" horiz-adv-x="1138" 
d="M72 731q0 90 3.5 160.5t12 145t25 130.5t42 110t63 91t87 66t116 43t148.5 14q93 0 166.5 -19.5t125.5 -53t89.5 -88t60 -113.5t35 -142t17 -161.5t4.5 -182.5t-4.5 -182.5t-17 -161.5t-35 -142t-60 -113.5t-89.5 -88t-125.5 -53t-166.5 -19.5q-82 0 -148.5 14t-116 43
t-87 66t-63 91t-42 110t-25 130.5t-12 145t-3.5 160.5zM367 731q0 -105 3 -177.5t11 -137.5t22 -104.5t36.5 -69t54 -42t75.5 -12.5t75.5 12.5t54.5 42t37 69t22 104.5t11 137.5t3 177.5q0 104 -3 176.5t-11 137.5t-22 105t-37 69.5t-54.5 42t-75.5 12.5t-75.5 -12.5
t-54 -42t-36.5 -69.5t-22 -105t-11 -137.5t-3 -176.5zM465 1548l110 295h283l-201 -295h-192z" />
    <glyph glyph-name="Ocircumflex" unicode="&#xd4;" horiz-adv-x="1138" 
d="M72 731q0 90 3.5 160.5t12 145t25 130.5t42 110t63 91t87 66t116 43t148.5 14q93 0 166.5 -19.5t125.5 -53t89.5 -88t60 -113.5t35 -142t17 -161.5t4.5 -182.5t-4.5 -182.5t-17 -161.5t-35 -142t-60 -113.5t-89.5 -88t-125.5 -53t-166.5 -19.5q-82 0 -148.5 14t-116 43
t-87 66t-63 91t-42 110t-25 130.5t-12 145t-3.5 160.5zM367 731q0 -105 3 -177.5t11 -137.5t22 -104.5t36.5 -69t54 -42t75.5 -12.5t75.5 12.5t54.5 42t37 69t22 104.5t11 137.5t3 177.5q0 104 -3 176.5t-11 137.5t-22 105t-37 69.5t-54.5 42t-75.5 12.5t-75.5 -12.5
t-54 -42t-36.5 -69.5t-22 -105t-11 -137.5t-3 -176.5zM266 1548l160 295h295l160 -295h-217l-95 174l-98 -174h-205z" />
    <glyph glyph-name="Otilde" unicode="&#xd5;" horiz-adv-x="1138" 
d="M72 731q0 90 3.5 160.5t12 145t25 130.5t42 110t63 91t87 66t116 43t148.5 14q93 0 166.5 -19.5t125.5 -53t89.5 -88t60 -113.5t35 -142t17 -161.5t4.5 -182.5t-4.5 -182.5t-17 -161.5t-35 -142t-60 -113.5t-89.5 -88t-125.5 -53t-166.5 -19.5q-82 0 -148.5 14t-116 43
t-87 66t-63 91t-42 110t-25 130.5t-12 145t-3.5 160.5zM367 731q0 -105 3 -177.5t11 -137.5t22 -104.5t36.5 -69t54 -42t75.5 -12.5t75.5 12.5t54.5 42t37 69t22 104.5t11 137.5t3 177.5q0 104 -3 176.5t-11 137.5t-22 105t-37 69.5t-54.5 42t-75.5 12.5t-75.5 -12.5
t-54 -42t-36.5 -69.5t-22 -105t-11 -137.5t-3 -176.5zM389 1567h-143q36 254 190 254q53 0 88 -15l99 -43q30 -12 61 -12q26 0 41.5 24.5t15.5 49.5h148q-11 -112 -62.5 -183t-128.5 -71q-46 0 -129 34.5t-114 34.5q-51 0 -66 -73z" />
    <glyph glyph-name="Odieresis" unicode="&#xd6;" horiz-adv-x="1138" 
d="M72 731q0 90 3.5 160.5t12 145t25 130.5t42 110t63 91t87 66t116 43t148.5 14q93 0 166.5 -19.5t125.5 -53t89.5 -88t60 -113.5t35 -142t17 -161.5t4.5 -182.5t-4.5 -182.5t-17 -161.5t-35 -142t-60 -113.5t-89.5 -88t-125.5 -53t-166.5 -19.5q-82 0 -148.5 14t-116 43
t-87 66t-63 91t-42 110t-25 130.5t-12 145t-3.5 160.5zM367 731q0 -105 3 -177.5t11 -137.5t22 -104.5t36.5 -69t54 -42t75.5 -12.5t75.5 12.5t54.5 42t37 69t22 104.5t11 137.5t3 177.5q0 104 -3 176.5t-11 137.5t-22 105t-37 69.5t-54.5 42t-75.5 12.5t-75.5 -12.5
t-54 -42t-36.5 -69.5t-22 -105t-11 -137.5t-3 -176.5zM633 1575v242h229v-242h-229zM281 1575v242h229v-242h-229z" />
    <glyph glyph-name="multiply" unicode="&#xd7;" horiz-adv-x="1228" 
d="M121 201l319 317l-319 318l176 176l317 -320l318 320l176 -176l-320 -318l320 -317l-176 -176l-318 319l-317 -319z" />
    <glyph glyph-name="Oslash" unicode="&#xd8;" horiz-adv-x="1138" 
d="M170 -61l61 143q-50 45 -82.5 111t-48.5 154t-22 176t-6 208q0 90 3.5 160.5t12 145t25 130.5t42 110t63 91t87 66t116 43t148.5 14q150 0 248 -49l53 125l99 -43l-62 -144q95 -87 127.5 -244t32.5 -405q0 -104 -4.5 -182.5t-17 -161.5t-35 -142t-60 -113.5t-89.5 -88
t-125.5 -53t-166.5 -19.5q-153 0 -247 49l-54 -124zM756 1034l-330 -770q40 -76 143 -76q44 0 75.5 12.5t54.5 42t37 69t22 104.5t11 137.5t3 177.5q0 207 -12 303h-4zM383 428l330 772q-47 74 -144 74q-44 0 -75.5 -12.5t-54 -42t-36.5 -69.5t-22 -105t-11 -137.5
t-3 -176.5q0 -212 12 -303h4z" />
    <glyph glyph-name="Ugrave" unicode="&#xd9;" horiz-adv-x="1101" 
d="M84 1462h295v-1020q0 -121 37.5 -187.5t134.5 -66.5t134.5 66.5t37.5 187.5v1020h295v-1020q0 -108 -26 -191t-69 -135t-104.5 -85.5t-126.5 -46.5t-141 -13q-78 0 -141.5 11t-126 42.5t-105 82.5t-68.5 136t-26 199v1020zM682 1548h-193l-200 295h282z" />
    <glyph glyph-name="Uacute" unicode="&#xda;" horiz-adv-x="1101" 
d="M84 1462h295v-1020q0 -121 37.5 -187.5t134.5 -66.5t134.5 66.5t37.5 187.5v1020h295v-1020q0 -108 -26 -191t-69 -135t-104.5 -85.5t-126.5 -46.5t-141 -13q-78 0 -141.5 11t-126 42.5t-105 82.5t-68.5 136t-26 199v1020zM451 1548l110 295h283l-201 -295h-192z" />
    <glyph glyph-name="Ucircumflex" unicode="&#xdb;" horiz-adv-x="1101" 
d="M84 1462h295v-1020q0 -121 37.5 -187.5t134.5 -66.5t134.5 66.5t37.5 187.5v1020h295v-1020q0 -108 -26 -191t-69 -135t-104.5 -85.5t-126.5 -46.5t-141 -13q-78 0 -141.5 11t-126 42.5t-105 82.5t-68.5 136t-26 199v1020zM246 1548l160 295h294l160 -295h-217l-94 174
l-98 -174h-205z" />
    <glyph glyph-name="Udieresis" unicode="&#xdc;" horiz-adv-x="1101" 
d="M84 1462h295v-1020q0 -121 37.5 -187.5t134.5 -66.5t134.5 66.5t37.5 187.5v1020h295v-1020q0 -108 -26 -191t-69 -135t-104.5 -85.5t-126.5 -46.5t-141 -13q-78 0 -141.5 11t-126 42.5t-105 82.5t-68.5 136t-26 199v1020zM612 1575v242h230v-242h-230zM260 1575v242h229
v-242h-229z" />
    <glyph glyph-name="Yacute" unicode="&#xdd;" horiz-adv-x="1064" 
d="M6 1462h332l192 -565h5l204 565h320l-379 -887v-575h-295v575zM442 1552l111 295h283l-201 -295h-193z" />
    <glyph glyph-name="Thorn" unicode="&#xde;" horiz-adv-x="1062" 
d="M397 983v-444h131q91 0 144 55t53 164q0 112 -48.5 168.5t-156.5 56.5h-123zM102 0v1462h295v-262h221q87 0 157 -25t115 -66t75 -98.5t42.5 -119t12.5 -129.5q0 -220 -124 -330t-341 -110h-158v-322h-295z" />
    <glyph glyph-name="germandbls" unicode="&#xdf;" horiz-adv-x="1024" 
d="M367 0h-283v1079q0 214 105 313t329 99q196 0 300 -89.5t104 -260.5q0 -119 -39.5 -188t-143.5 -113v-4q228 -38 228 -394q0 -67 -8 -125t-32 -121t-63 -107t-106.5 -72.5t-157.5 -28.5q-94 0 -135 8v192q19 -8 43 -8q105 0 140.5 72.5t35.5 226.5q0 120 -37.5 184
t-126.5 64h-51v193h35q135 0 135 194q0 184 -135 184q-79 0 -108 -57.5t-29 -167.5v-1073z" />
    <glyph glyph-name="agrave" unicode="&#xe0;" horiz-adv-x="985" 
d="M346 764h-254v27q0 92 30 159.5t84.5 105.5t122 56t150.5 18q99 0 170.5 -16.5t115.5 -44.5t70 -72t35 -92t9 -112v-580q0 -78 7 -120.5t27 -92.5h-270q-19 37 -35 115h-4q-48 -83 -110.5 -113.5t-169.5 -30.5q-57 0 -103 19t-76 50t-50.5 72.5t-29 85t-8.5 89.5
q0 153 64 228t215 116l160 43q63 17 87.5 45.5t24.5 83.5q0 135 -131 135q-65 0 -98 -37.5t-33 -105.5v-31zM608 334v217q-48 -38 -121 -55q-85 -18 -122 -61t-37 -118q0 -68 26 -110.5t80 -42.5q67 0 120.5 43t53.5 127zM631 1233h-193l-200 295h282z" />
    <glyph glyph-name="aacute" unicode="&#xe1;" horiz-adv-x="985" 
d="M346 764h-254v27q0 92 30 159.5t84.5 105.5t122 56t150.5 18q99 0 170.5 -16.5t115.5 -44.5t70 -72t35 -92t9 -112v-580q0 -78 7 -120.5t27 -92.5h-270q-19 37 -35 115h-4q-48 -83 -110.5 -113.5t-169.5 -30.5q-57 0 -103 19t-76 50t-50.5 72.5t-29 85t-8.5 89.5
q0 153 64 228t215 116l160 43q63 17 87.5 45.5t24.5 83.5q0 135 -131 135q-65 0 -98 -37.5t-33 -105.5v-31zM608 334v217q-48 -38 -121 -55q-85 -18 -122 -61t-37 -118q0 -68 26 -110.5t80 -42.5q67 0 120.5 43t53.5 127zM389 1233l111 295h282l-200 -295h-193z" />
    <glyph glyph-name="acircumflex" unicode="&#xe2;" horiz-adv-x="985" 
d="M346 764h-254v27q0 92 30 159.5t84.5 105.5t122 56t150.5 18q99 0 170.5 -16.5t115.5 -44.5t70 -72t35 -92t9 -112v-580q0 -78 7 -120.5t27 -92.5h-270q-19 37 -35 115h-4q-48 -83 -110.5 -113.5t-169.5 -30.5q-57 0 -103 19t-76 50t-50.5 72.5t-29 85t-8.5 89.5
q0 153 64 228t215 116l160 43q63 17 87.5 45.5t24.5 83.5q0 135 -131 135q-65 0 -98 -37.5t-33 -105.5v-31zM608 334v217q-48 -38 -121 -55q-85 -18 -122 -61t-37 -118q0 -68 26 -110.5t80 -42.5q67 0 120.5 43t53.5 127zM184 1233l160 295h295l160 -295h-217l-95 174
l-98 -174h-205z" />
    <glyph glyph-name="atilde" unicode="&#xe3;" horiz-adv-x="985" 
d="M346 764h-254v27q0 92 30 159.5t84.5 105.5t122 56t150.5 18q99 0 170.5 -16.5t115.5 -44.5t70 -72t35 -92t9 -112v-580q0 -78 7 -120.5t27 -92.5h-270q-19 37 -35 115h-4q-48 -83 -110.5 -113.5t-169.5 -30.5q-57 0 -103 19t-76 50t-50.5 72.5t-29 85t-8.5 89.5
q0 153 64 228t215 116l160 43q63 17 87.5 45.5t24.5 83.5q0 135 -131 135q-65 0 -98 -37.5t-33 -105.5v-31zM608 334v217q-48 -38 -121 -55q-85 -18 -122 -61t-37 -118q0 -68 26 -110.5t80 -42.5q67 0 120.5 43t53.5 127zM317 1251h-143q17 123 65.5 188.5t125.5 65.5
q56 0 88 -14l98 -43q30 -12 61 -12q27 0 42.5 24.5t15.5 48.5h147q-11 -112 -62 -183t-128 -71q-45 0 -129 35t-115 35q-51 0 -66 -74z" />
    <glyph glyph-name="adieresis" unicode="&#xe4;" horiz-adv-x="985" 
d="M346 764h-254v27q0 92 30 159.5t84.5 105.5t122 56t150.5 18q99 0 170.5 -16.5t115.5 -44.5t70 -72t35 -92t9 -112v-580q0 -78 7 -120.5t27 -92.5h-270q-19 37 -35 115h-4q-48 -83 -110.5 -113.5t-169.5 -30.5q-57 0 -103 19t-76 50t-50.5 72.5t-29 85t-8.5 89.5
q0 153 64 228t215 116l160 43q63 17 87.5 45.5t24.5 83.5q0 135 -131 135q-65 0 -98 -37.5t-33 -105.5v-31zM608 334v217q-48 -38 -121 -55q-85 -18 -122 -61t-37 -118q0 -68 26 -110.5t80 -42.5q67 0 120.5 43t53.5 127zM555 1260v241h229v-241h-229zM203 1260v241h229
v-241h-229z" />
    <glyph glyph-name="aring" unicode="&#xe5;" horiz-adv-x="985" 
d="M346 764h-254v27q0 92 30 159.5t84.5 105.5t122 56t150.5 18q99 0 170.5 -16.5t115.5 -44.5t70 -72t35 -92t9 -112v-580q0 -78 7 -120.5t27 -92.5h-270q-19 37 -35 115h-4q-48 -83 -110.5 -113.5t-169.5 -30.5q-57 0 -103 19t-76 50t-50.5 72.5t-29 85t-8.5 89.5
q0 153 64 228t215 116l160 43q63 17 87.5 45.5t24.5 83.5q0 135 -131 135q-65 0 -98 -37.5t-33 -105.5v-31zM608 334v217q-48 -38 -121 -55q-85 -18 -122 -61t-37 -118q0 -68 26 -110.5t80 -42.5q67 0 120.5 43t53.5 127zM369 1413q0 -50 33.5 -83.5t82.5 -33.5t83 34t34 83
t-34 83t-83 34t-82.5 -33.5t-33.5 -83.5zM254 1413q0 98 67 161.5t164 63.5t164.5 -63.5t67.5 -161.5q0 -99 -67 -160t-165 -61q-100 0 -165.5 60.5t-65.5 160.5z" />
    <glyph glyph-name="ae" unicode="&#xe6;" horiz-adv-x="1478" 
d="M344 764h-254v27q0 92 30 159.5t84.5 105.5t122 56t150.5 18q113 0 177.5 -28.5t107.5 -102.5q30 62 99 96.5t161 34.5q97 0 168 -26.5t115 -72.5t71 -118t37 -153t10 -189v-63h-555v-88q0 -110 33.5 -183t104.5 -73q67 0 101 50.5t46 156.5h254q-16 -400 -397 -400
q-140 0 -220 54t-112 137q-63 -117 -139.5 -154t-216.5 -37q-57 0 -103 19t-76 50t-50.5 72.5t-29 85t-8.5 89.5q0 153 64 228t215 116l160 43q63 17 87.5 45.5t24.5 83.5q0 135 -131 135q-65 0 -98 -37.5t-33 -105.5v-31zM868 676h285q-2 56 -6 93.5t-13 72t-24.5 54
t-39.5 31t-58 11.5q-75 0 -109.5 -64.5t-34.5 -154.5v-43zM606 334v217q-48 -38 -121 -55q-85 -18 -122 -61t-37 -118q0 -68 26 -110.5t80 -42.5q67 0 120.5 43t53.5 127z" />
    <glyph glyph-name="ccedilla" unicode="&#xe7;" horiz-adv-x="948" 
d="M895 705h-270q0 221 -127 221q-51 0 -83.5 -22t-49.5 -72.5t-23 -115t-6 -167.5q0 -214 30.5 -299.5t120.5 -85.5q72 0 105 61.5t33 196.5h270q0 -218 -98 -334q-81 -100 -262 -115l-60 -92q31 10 68 10q72 0 124 -39.5t48 -107.5q0 -91 -66.5 -139.5t-191.5 -48.5
q-63 0 -120.5 11.5t-84.5 26.5l39 95q60 -31 141 -31q44 0 73.5 19t29.5 49t-24.5 46.5t-66.5 18.5q-34 0 -69 -12l-45 41l98 153q-68 3 -139 27q-79 29 -130.5 94.5t-78.5 179t-27 277.5q0 165 32 280.5t94 179.5t139.5 91.5t181.5 27.5q193 0 294 -112.5t101 -312.5z" />
    <glyph glyph-name="egrave" unicode="&#xe8;" horiz-adv-x="948" 
d="M895 508h-559v-88q0 -110 33.5 -183t105.5 -73q70 0 104 49.5t46 157.5h254q-8 -197 -105 -298.5t-295 -101.5q-67 0 -122.5 12t-96.5 30.5t-73.5 50t-54 62.5t-37 76.5t-23.5 83t-12.5 91t-5.5 91.5t-1 93q0 98 8.5 173.5t36.5 153t74.5 128t127.5 82.5t192 32
q97 0 168.5 -26.5t116 -72.5t71.5 -118t37 -153t10 -189v-63zM336 676h289q-5 139 -33.5 200.5t-110.5 61.5q-40 0 -70 -19t-45.5 -52t-22.5 -69.5t-7 -78.5v-43zM618 1233h-192l-201 295h283z" />
    <glyph glyph-name="eacute" unicode="&#xe9;" horiz-adv-x="948" 
d="M895 508h-559v-88q0 -110 33.5 -183t105.5 -73q70 0 104 49.5t46 157.5h254q-8 -197 -105 -298.5t-295 -101.5q-67 0 -122.5 12t-96.5 30.5t-73.5 50t-54 62.5t-37 76.5t-23.5 83t-12.5 91t-5.5 91.5t-1 93q0 98 8.5 173.5t36.5 153t74.5 128t127.5 82.5t192 32
q97 0 168.5 -26.5t116 -72.5t71.5 -118t37 -153t10 -189v-63zM336 676h289q-5 139 -33.5 200.5t-110.5 61.5q-40 0 -70 -19t-45.5 -52t-22.5 -69.5t-7 -78.5v-43zM389 1233l111 295h282l-200 -295h-193z" />
    <glyph glyph-name="ecircumflex" unicode="&#xea;" horiz-adv-x="948" 
d="M895 508h-559v-88q0 -110 33.5 -183t105.5 -73q70 0 104 49.5t46 157.5h254q-8 -197 -105 -298.5t-295 -101.5q-67 0 -122.5 12t-96.5 30.5t-73.5 50t-54 62.5t-37 76.5t-23.5 83t-12.5 91t-5.5 91.5t-1 93q0 98 8.5 173.5t36.5 153t74.5 128t127.5 82.5t192 32
q97 0 168.5 -26.5t116 -72.5t71.5 -118t37 -153t10 -189v-63zM336 676h289q-5 139 -33.5 200.5t-110.5 61.5q-40 0 -70 -19t-45.5 -52t-22.5 -69.5t-7 -78.5v-43zM184 1233l160 295h295l160 -295h-217l-95 174l-98 -174h-205z" />
    <glyph glyph-name="edieresis" unicode="&#xeb;" horiz-adv-x="948" 
d="M895 508h-559v-88q0 -110 33.5 -183t105.5 -73q70 0 104 49.5t46 157.5h254q-8 -197 -105 -298.5t-295 -101.5q-67 0 -122.5 12t-96.5 30.5t-73.5 50t-54 62.5t-37 76.5t-23.5 83t-12.5 91t-5.5 91.5t-1 93q0 98 8.5 173.5t36.5 153t74.5 128t127.5 82.5t192 32
q97 0 168.5 -26.5t116 -72.5t71.5 -118t37 -153t10 -189v-63zM336 676h289q-5 139 -33.5 200.5t-110.5 61.5q-40 0 -70 -19t-45.5 -52t-22.5 -69.5t-7 -78.5v-43zM553 1260v241h229v-241h-229zM201 1260v241h229v-241h-229z" />
    <glyph glyph-name="igrave" unicode="&#xec;" horiz-adv-x="491" 
d="M104 0v1102h283v-1102h-283zM385 1233h-192l-201 295h282z" />
    <glyph glyph-name="iacute" unicode="&#xed;" horiz-adv-x="491" 
d="M104 0v1102h283v-1102h-283zM104 1233l111 295h283l-201 -295h-193z" />
    <glyph glyph-name="icircumflex" unicode="&#xee;" horiz-adv-x="491" 
d="M104 0v1102h283v-1102h-283zM-59 1233l159 295h295l160 -295h-217l-94 174l-99 -174h-204z" />
    <glyph glyph-name="idieresis" unicode="&#xef;" horiz-adv-x="491" 
d="M104 0v1102h283v-1102h-283zM307 1260v241h230v-241h-230zM-45 1260v241h229v-241h-229z" />
    <glyph glyph-name="eth" unicode="&#xf0;" 
d="M215 1194l-80 86l156 92q-49 49 -135 131l213 125q65 -57 137 -129l153 92l89 -86l-158 -92q171 -189 253.5 -389.5t82.5 -472.5q0 -293 -100 -436.5t-334 -143.5q-125 -2 -210 33t-134.5 111.5t-70 181t-20.5 254.5q0 256 87 397.5t270 141.5q78 0 143 -54l4 4
q-65 105 -188 246zM340 537q0 -62 1.5 -104.5t7 -89t15.5 -76t26.5 -55t42 -37t59.5 -11.5q85 0 118 85.5t33 287.5q0 195 -33 277.5t-118 82.5q-34 0 -59.5 -12t-42 -36.5t-26.5 -54t-15.5 -74t-7 -85t-1.5 -98.5z" />
    <glyph glyph-name="ntilde" unicode="&#xf1;" horiz-adv-x="1024" 
d="M94 0v1102h271v-129h4q85 157 280 157q281 0 281 -313v-817h-283v760q0 83 -28.5 118t-92.5 35q-149 0 -149 -182v-731h-283zM319 1251h-143q17 123 65.5 188.5t125.5 65.5q56 0 88 -14l98 -43q30 -12 61 -12q27 0 42.5 24.5t15.5 48.5h147q-11 -112 -62 -183t-128 -71
q-45 0 -129 35t-115 35q-51 0 -66 -74z" />
    <glyph glyph-name="ograve" unicode="&#xf2;" 
d="M57 551q0 293 100.5 436t334.5 143q125 2 210 -33t134 -111t69.5 -180.5t20.5 -254.5q0 -293 -100 -436.5t-334 -143.5q-125 -2 -210 33t-134.5 111.5t-70 181t-20.5 254.5zM340 551q0 -64 1.5 -108t7 -92t15.5 -79t26.5 -57t42 -38.5t59.5 -12.5q85 0 118 88t33 299
t-33 299t-118 88q-34 0 -59.5 -12.5t-42 -38.5t-26.5 -57t-15.5 -79t-7 -92t-1.5 -108zM612 1233h-192l-201 295h283z" />
    <glyph glyph-name="oacute" unicode="&#xf3;" 
d="M57 551q0 293 100.5 436t334.5 143q125 2 210 -33t134 -111t69.5 -180.5t20.5 -254.5q0 -293 -100 -436.5t-334 -143.5q-125 -2 -210 33t-134.5 111.5t-70 181t-20.5 254.5zM340 551q0 -64 1.5 -108t7 -92t15.5 -79t26.5 -57t42 -38.5t59.5 -12.5q85 0 118 88t33 299
t-33 299t-118 88q-34 0 -59.5 -12.5t-42 -38.5t-26.5 -57t-15.5 -79t-7 -92t-1.5 -108zM391 1233l111 295h282l-200 -295h-193z" />
    <glyph glyph-name="ocircumflex" unicode="&#xf4;" 
d="M57 551q0 293 100.5 436t334.5 143q125 2 210 -33t134 -111t69.5 -180.5t20.5 -254.5q0 -293 -100 -436.5t-334 -143.5q-125 -2 -210 33t-134.5 111.5t-70 181t-20.5 254.5zM340 551q0 -64 1.5 -108t7 -92t15.5 -79t26.5 -57t42 -38.5t59.5 -12.5q85 0 118 88t33 299
t-33 299t-118 88q-34 0 -59.5 -12.5t-42 -38.5t-26.5 -57t-15.5 -79t-7 -92t-1.5 -108zM184 1233l160 295h295l160 -295h-217l-95 174l-98 -174h-205z" />
    <glyph glyph-name="otilde" unicode="&#xf5;" 
d="M57 551q0 293 100.5 436t334.5 143q125 2 210 -33t134 -111t69.5 -180.5t20.5 -254.5q0 -293 -100 -436.5t-334 -143.5q-125 -2 -210 33t-134.5 111.5t-70 181t-20.5 254.5zM340 551q0 -64 1.5 -108t7 -92t15.5 -79t26.5 -57t42 -38.5t59.5 -12.5q85 0 118 88t33 299
t-33 299t-118 88q-34 0 -59.5 -12.5t-42 -38.5t-26.5 -57t-15.5 -79t-7 -92t-1.5 -108zM313 1251h-143q36 254 190 254q57 0 89 -14l98 -43q30 -12 61 -12q27 0 42.5 24.5t15.5 48.5h147q-11 -112 -62 -183t-128 -71q-45 0 -129 35t-115 35q-51 0 -66 -74z" />
    <glyph glyph-name="odieresis" unicode="&#xf6;" 
d="M57 551q0 293 100.5 436t334.5 143q125 2 210 -33t134 -111t69.5 -180.5t20.5 -254.5q0 -293 -100 -436.5t-334 -143.5q-125 -2 -210 33t-134.5 111.5t-70 181t-20.5 254.5zM340 551q0 -64 1.5 -108t7 -92t15.5 -79t26.5 -57t42 -38.5t59.5 -12.5q85 0 118 88t33 299
t-33 299t-118 88q-34 0 -59.5 -12.5t-42 -38.5t-26.5 -57t-15.5 -79t-7 -92t-1.5 -108zM553 1260v241h229v-241h-229zM201 1260v241h229v-241h-229z" />
    <glyph glyph-name="divide" unicode="&#xf7;" horiz-adv-x="1228" 
d="M416 84q0 85 56.5 142t141.5 57t142 -57t57 -142t-57 -142t-142 -57t-141.5 57t-56.5 142zM416 952q0 85 56.5 142t141.5 57t142 -57t57 -142t-57 -141.5t-142 -56.5t-141.5 56.5t-56.5 141.5zM96 391v254h1037v-254h-1037z" />
    <glyph glyph-name="oslash" unicode="&#xf8;" 
d="M109 -72l75 144q-69 66 -98 183t-29 296q0 293 100.5 436t334.5 143q138 3 223 -43l69 134l90 -47l-75 -144q69 -66 98 -183t29 -296q0 -293 -100 -436.5t-334 -143.5q-142 -3 -224 43l-69 -133zM635 719l-254 -488q34 -67 111 -67q85 0 118 88t33 299q0 74 -4 168h-4z
M348 381l252 487q-34 70 -108 70q-34 0 -59.5 -12.5t-42 -38.5t-26.5 -57t-15.5 -79t-7 -92t-1.5 -108v-90q0 -30 4 -80h4z" />
    <glyph glyph-name="ugrave" unicode="&#xf9;" horiz-adv-x="1024" 
d="M659 0v129h-4q-86 -158 -280 -158q-281 0 -281 314v817h283v-760q0 -84 28.5 -119t92.5 -35q149 0 149 183v731h283v-1102h-271zM639 1233h-193l-200 295h282z" />
    <glyph glyph-name="uacute" unicode="&#xfa;" horiz-adv-x="1024" 
d="M659 0v129h-4q-86 -158 -280 -158q-281 0 -281 314v817h283v-760q0 -84 28.5 -119t92.5 -35q149 0 149 183v731h283v-1102h-271zM410 1233l110 295h283l-201 -295h-192z" />
    <glyph glyph-name="ucircumflex" unicode="&#xfb;" horiz-adv-x="1024" 
d="M659 0v129h-4q-86 -158 -280 -158q-281 0 -281 314v817h283v-760q0 -84 28.5 -119t92.5 -35q149 0 149 183v731h283v-1102h-271zM205 1233l160 295h294l160 -295h-217l-94 174l-98 -174h-205z" />
    <glyph glyph-name="udieresis" unicode="&#xfc;" horiz-adv-x="1024" 
d="M659 0v129h-4q-86 -158 -280 -158q-281 0 -281 314v817h283v-760q0 -84 28.5 -119t92.5 -35q149 0 149 183v731h283v-1102h-271zM573 1260v241h230v-241h-230zM221 1260v241h230v-241h-230z" />
    <glyph glyph-name="yacute" unicode="&#xfd;" horiz-adv-x="909" 
d="M94 -360v210q37 -6 74 -6q75 0 110 39.5t41 116.5l-309 1102h295l164 -762h4l143 762h283l-266 -1028q-26 -100 -47 -165t-48.5 -116.5t-54.5 -79t-69.5 -45t-88.5 -23t-116 -5.5h-115zM365 1233l110 295h283l-201 -295h-192z" />
    <glyph glyph-name="thorn" unicode="&#xfe;" horiz-adv-x="1024" 
d="M94 -360v1822h283v-477h4q36 77 93.5 111t143.5 34q175 0 256.5 -137t81.5 -442t-81.5 -442.5t-256.5 -137.5q-78 0 -135 32t-102 99h-4v-462h-283zM377 551q0 -97 6 -159.5t21.5 -111t45.5 -70.5t76 -22q45 0 74.5 22t45.5 70.5t22 111.5t6 159t-6 159t-22 111t-45 70
t-75 22q-37 0 -63.5 -15t-43 -42.5t-26 -74t-13 -100t-3.5 -130.5z" />
    <glyph glyph-name="ydieresis" unicode="&#xff;" horiz-adv-x="909" 
d="M94 -360v210q37 -6 74 -6q75 0 110 39.5t41 116.5l-309 1102h295l164 -762h4l143 762h283l-266 -1028q-26 -100 -47 -165t-48.5 -116.5t-54.5 -79t-69.5 -45t-88.5 -23t-116 -5.5h-115zM535 1260v241h229v-241h-229zM182 1260v241h230v-241h-230z" />
    <glyph glyph-name="Amacron" unicode="&#x100;" horiz-adv-x="1138" 
d="M567 1208l-141 -657h287l-142 657h-4zM0 0l387 1462h365l387 -1462h-308l-67 309h-389l-68 -309h-307zM268 1774h602v-156h-602v156z" />
    <glyph glyph-name="amacron" unicode="&#x101;" horiz-adv-x="985" 
d="M346 764h-254v27q0 92 30 159.5t84.5 105.5t122 56t150.5 18q99 0 170.5 -16.5t115.5 -44.5t70 -72t35 -92t9 -112v-580q0 -78 7 -120.5t27 -92.5h-270q-19 37 -35 115h-4q-48 -83 -110.5 -113.5t-169.5 -30.5q-57 0 -103 19t-76 50t-50.5 72.5t-29 85t-8.5 89.5
q0 153 64 228t215 116l160 43q63 17 87.5 45.5t24.5 83.5q0 135 -131 135q-65 0 -98 -37.5t-33 -105.5v-31zM608 334v217q-48 -38 -121 -55q-85 -18 -122 -61t-37 -118q0 -68 26 -110.5t80 -42.5q67 0 120.5 43t53.5 127zM197 1458h602v-155h-602v155z" />
    <glyph glyph-name="Abreve" unicode="&#x102;" horiz-adv-x="1138" 
d="M567 1208l-141 -657h287l-142 657h-4zM0 0l387 1462h365l387 -1462h-308l-67 309h-389l-68 -309h-307zM285 1841h133q6 -60 48 -96.5t103 -36.5t103.5 37t48.5 96h133q0 -35 -8.5 -72t-29.5 -76.5t-52 -70t-81.5 -50.5t-113.5 -20q-78 0 -136.5 29t-89 75.5t-44.5 93
t-14 91.5z" />
    <glyph glyph-name="abreve" unicode="&#x103;" horiz-adv-x="985" 
d="M346 764h-254v27q0 92 30 159.5t84.5 105.5t122 56t150.5 18q99 0 170.5 -16.5t115.5 -44.5t70 -72t35 -92t9 -112v-580q0 -78 7 -120.5t27 -92.5h-270q-19 37 -35 115h-4q-48 -83 -110.5 -113.5t-169.5 -30.5q-57 0 -103 19t-76 50t-50.5 72.5t-29 85t-8.5 89.5
q0 153 64 228t215 116l160 43q63 17 87.5 45.5t24.5 83.5q0 135 -131 135q-65 0 -98 -37.5t-33 -105.5v-31zM608 334v217q-48 -38 -121 -55q-85 -18 -122 -61t-37 -118q0 -68 26 -110.5t80 -42.5q67 0 120.5 43t53.5 127zM215 1526h133q6 -59 48.5 -96t103.5 -37t103 36.5
t48 96.5h133q0 -35 -8 -72t-29 -76.5t-52 -70t-81.5 -50.5t-113.5 -20t-114 20t-82 50.5t-52 70t-29 76.5t-8 72z" />
    <glyph glyph-name="Aogonek" unicode="&#x104;" horiz-adv-x="1138" 
d="M948 -272l62 -101q-56 -40 -108 -55.5t-126 -15.5q-57 0 -97.5 14.5t-61 39t-29 50.5t-8.5 57q0 76 67.5 152.5t183.5 130.5l-67 309h-389l-68 -309h-307l387 1462h365l387 -1462h-170q-120 -87 -163.5 -143t-43.5 -107q0 -30 15 -46.5t42 -16.5q60 0 129 41zM567 1208
l-141 -657h287l-142 657h-4z" />
    <glyph glyph-name="aogonek" unicode="&#x105;" horiz-adv-x="985" 
d="M782 -272l56 -101q-53 -41 -98.5 -56t-112.5 -15q-97 0 -136.5 47t-39.5 114q0 130 190 283q-17 37 -33 115h-4q-48 -83 -110.5 -113.5t-169.5 -30.5q-57 0 -103 19t-76 50t-50.5 72.5t-29 85t-8.5 89.5q0 153 64 228t215 116l160 43q63 17 87.5 45.5t24.5 83.5
q0 135 -131 135q-65 0 -98 -37.5t-33 -105.5v-31h-254v27q0 92 30 159.5t84.5 105.5t122 56t150.5 18q99 0 170.5 -16.5t115.5 -44.5t70 -72t35 -92t9 -112v-580q0 -78 7 -120.5t27 -92.5h-135l4 2h-2q-55 -52 -82 -82q-84 -103 -84 -170q0 -63 52 -63t116 41zM608 334v217
q-48 -38 -121 -55q-85 -18 -122 -61t-37 -118q0 -68 26 -110.5t80 -42.5q67 0 120.5 43t53.5 127z" />
    <glyph glyph-name="Cacute" unicode="&#x106;" horiz-adv-x="1099" 
d="M1022 969h-295q0 163 -39 234t-137 71q-108 0 -146 -122t-38 -441q0 -164 11 -268t36 -159.5t57.5 -75.5t83.5 -20q43 0 73.5 14t57 52t40 114t13.5 191h295q0 -103 -11 -184t-41.5 -159t-81 -130t-134.5 -83.5t-197 -31.5q-82 0 -148.5 14t-116 43t-87 66t-63 91
t-42 110t-25 130.5t-12 145t-3.5 160.5t3.5 160.5t12 145t25 130.5t42 110t63 91t87 66t116 43t148.5 14q88 0 158 -18.5t116.5 -47t80.5 -73.5t52.5 -87.5t29 -99.5t13.5 -99.5t3 -96.5zM455 1548l110 295h283l-201 -295h-192z" />
    <glyph glyph-name="cacute" unicode="&#x107;" horiz-adv-x="948" 
d="M895 705h-270q0 221 -127 221q-51 0 -83.5 -22t-49.5 -72.5t-23 -115t-6 -167.5q0 -214 30.5 -299.5t120.5 -85.5q72 0 105 61.5t33 196.5h270q0 -223 -100 -337t-320 -114q-110 0 -186 28.5t-130.5 95.5t-80 179t-25.5 277t32 280.5t94 179.5t139.5 91.5t181.5 27.5
q193 0 294 -112.5t101 -312.5zM391 1233l111 295h282l-200 -295h-193z" />
    <glyph glyph-name="Ccircumflex" unicode="&#x108;" horiz-adv-x="1099" 
d="M1022 969h-295q0 163 -39 234t-137 71q-108 0 -146 -122t-38 -441q0 -164 11 -268t36 -159.5t57.5 -75.5t83.5 -20q43 0 73.5 14t57 52t40 114t13.5 191h295q0 -103 -11 -184t-41.5 -159t-81 -130t-134.5 -83.5t-197 -31.5q-82 0 -148.5 14t-116 43t-87 66t-63 91
t-42 110t-25 130.5t-12 145t-3.5 160.5t3.5 160.5t12 145t25 130.5t42 110t63 91t87 66t116 43t148.5 14q88 0 158 -18.5t116.5 -47t80.5 -73.5t52.5 -87.5t29 -99.5t13.5 -99.5t3 -96.5zM258 1548l160 295h295l159 -295h-217l-94 174l-98 -174h-205z" />
    <glyph glyph-name="ccircumflex" unicode="&#x109;" horiz-adv-x="948" 
d="M895 705h-270q0 221 -127 221q-51 0 -83.5 -22t-49.5 -72.5t-23 -115t-6 -167.5q0 -214 30.5 -299.5t120.5 -85.5q72 0 105 61.5t33 196.5h270q0 -223 -100 -337t-320 -114q-110 0 -186 28.5t-130.5 95.5t-80 179t-25.5 277t32 280.5t94 179.5t139.5 91.5t181.5 27.5
q193 0 294 -112.5t101 -312.5zM188 1233l160 295h295l160 -295h-217l-94 174l-99 -174h-205z" />
    <glyph glyph-name="Cdotaccent" unicode="&#x10a;" horiz-adv-x="1099" 
d="M1022 969h-295q0 163 -39 234t-137 71q-108 0 -146 -122t-38 -441q0 -164 11 -268t36 -159.5t57.5 -75.5t83.5 -20q43 0 73.5 14t57 52t40 114t13.5 191h295q0 -103 -11 -184t-41.5 -159t-81 -130t-134.5 -83.5t-197 -31.5q-82 0 -148.5 14t-116 43t-87 66t-63 91
t-42 110t-25 130.5t-12 145t-3.5 160.5t3.5 160.5t12 145t25 130.5t42 110t63 91t87 66t116 43t148.5 14q88 0 158 -18.5t116.5 -47t80.5 -73.5t52.5 -87.5t29 -99.5t13.5 -99.5t3 -96.5zM449 1817h229v-242h-229v242z" />
    <glyph glyph-name="cdotaccent" unicode="&#x10b;" horiz-adv-x="948" 
d="M895 705h-270q0 221 -127 221q-51 0 -83.5 -22t-49.5 -72.5t-23 -115t-6 -167.5q0 -214 30.5 -299.5t120.5 -85.5q72 0 105 61.5t33 196.5h270q0 -223 -100 -337t-320 -114q-110 0 -186 28.5t-130.5 95.5t-80 179t-25.5 277t32 280.5t94 179.5t139.5 91.5t181.5 27.5
q193 0 294 -112.5t101 -312.5zM377 1501h229v-241h-229v241z" />
    <glyph glyph-name="Ccaron" unicode="&#x10c;" horiz-adv-x="1099" 
d="M1022 969h-295q0 163 -39 234t-137 71q-108 0 -146 -122t-38 -441q0 -164 11 -268t36 -159.5t57.5 -75.5t83.5 -20q43 0 73.5 14t57 52t40 114t13.5 191h295q0 -103 -11 -184t-41.5 -159t-81 -130t-134.5 -83.5t-197 -31.5q-82 0 -148.5 14t-116 43t-87 66t-63 91
t-42 110t-25 130.5t-12 145t-3.5 160.5t3.5 160.5t12 145t25 130.5t42 110t63 91t87 66t116 43t148.5 14q88 0 158 -18.5t116.5 -47t80.5 -73.5t52.5 -87.5t29 -99.5t13.5 -99.5t3 -96.5zM416 1548l-160 295h217l94 -174l99 174h204l-159 -295h-295z" />
    <glyph glyph-name="ccaron" unicode="&#x10d;" horiz-adv-x="948" 
d="M895 705h-270q0 221 -127 221q-51 0 -83.5 -22t-49.5 -72.5t-23 -115t-6 -167.5q0 -214 30.5 -299.5t120.5 -85.5q72 0 105 61.5t33 196.5h270q0 -223 -100 -337t-320 -114q-110 0 -186 28.5t-130.5 95.5t-80 179t-25.5 277t32 280.5t94 179.5t139.5 91.5t181.5 27.5
q193 0 294 -112.5t101 -312.5zM350 1233l-160 295h218l94 -174l98 174h205l-160 -295h-295z" />
    <glyph glyph-name="Dcaron" unicode="&#x10e;" horiz-adv-x="1175" 
d="M412 1245v-1028h131q62 0 104 17.5t70.5 52.5t43.5 100.5t21 147.5t6 208q0 91 -3 153.5t-12.5 123.5t-26.5 99t-44.5 68.5t-68.5 44t-96 13.5h-125zM117 0v1462h483q86 0 155 -17t119 -47.5t87 -79t60.5 -105t37 -132.5t19 -153.5t5.5 -175.5q0 -160 -14.5 -277
t-49 -210t-92.5 -149.5t-143 -86t-202 -29.5h-465zM377 1548l-160 295h217l94 -174l99 174h204l-159 -295h-295z" />
    <glyph glyph-name="dcaron" unicode="&#x10f;" horiz-adv-x="1243" 
d="M659 0v117h-4q-47 -78 -105.5 -112t-143.5 -34q-175 0 -256.5 137.5t-81.5 442.5t81.5 442t256.5 137q78 0 135 -32t102 -99h4v463h283v-1462h-271zM350 551q0 -96 6 -159t22 -111.5t45.5 -70.5t74.5 -22q46 0 76 22t45.5 70.5t21.5 111t6 159.5q0 77 -3.5 130.5t-13 100
t-26 74t-43 42.5t-63.5 15q-46 0 -75 -22t-45 -70t-22 -111t-6 -159zM1008 1167l67 295h246l-129 -295h-184z" />
    <glyph glyph-name="Dcroat" unicode="&#x110;" horiz-adv-x="1175" 
d="M412 1245v-383h190v-217h-190v-428h131q62 0 104 17.5t70.5 52.5t43.5 100.5t21 147.5t6 208q0 91 -3 153.5t-12.5 123.5t-26.5 99t-44.5 68.5t-68.5 44t-96 13.5h-125zM117 0v645h-117v217h117v600h483q86 0 155 -17t119 -47.5t87 -79t60.5 -105t37 -132.5t19 -153.5
t5.5 -175.5q0 -160 -14.5 -277t-49 -210t-92.5 -149.5t-143 -86t-202 -29.5h-465z" />
    <glyph glyph-name="dcroat" unicode="&#x111;" horiz-adv-x="1105" 
d="M659 0v117h-4q-47 -78 -105.5 -112t-143.5 -34q-175 0 -256.5 137.5t-81.5 442.5t81.5 442t256.5 137q78 0 135 -32t102 -99h4v201h-225v125h225v137h283v-137h176v-125h-176v-1200h-271zM350 551q0 -96 6 -159t22 -111.5t45.5 -70.5t74.5 -22q46 0 76 22t45.5 70.5
t21.5 111t6 159.5q0 77 -3.5 130.5t-13 100t-26 74t-43 42.5t-63.5 15q-46 0 -75 -22t-45 -70t-22 -111t-6 -159z" />
    <glyph glyph-name="Emacron" unicode="&#x112;" horiz-adv-x="985" 
d="M102 1462h818v-241h-523v-344h492v-242h-492v-393h543v-242h-838v1462zM213 1774h602v-156h-602v156z" />
    <glyph glyph-name="emacron" unicode="&#x113;" horiz-adv-x="948" 
d="M895 508h-559v-88q0 -110 33.5 -183t105.5 -73q70 0 104 49.5t46 157.5h254q-8 -197 -105 -298.5t-295 -101.5q-67 0 -122.5 12t-96.5 30.5t-73.5 50t-54 62.5t-37 76.5t-23.5 83t-12.5 91t-5.5 91.5t-1 93q0 98 8.5 173.5t36.5 153t74.5 128t127.5 82.5t192 32
q97 0 168.5 -26.5t116 -72.5t71.5 -118t37 -153t10 -189v-63zM336 676h289q-5 139 -33.5 200.5t-110.5 61.5q-40 0 -70 -19t-45.5 -52t-22.5 -69.5t-7 -78.5v-43zM184 1458h602v-155h-602v155z" />
    <glyph glyph-name="Ebreve" unicode="&#x114;" horiz-adv-x="985" 
d="M102 1462h818v-241h-523v-344h492v-242h-492v-393h543v-242h-838v1462zM221 1841h133q6 -59 48.5 -96t103.5 -37t103 36.5t48 96.5h134q0 -35 -8.5 -72t-29.5 -76.5t-52 -70t-81.5 -50.5t-113.5 -20t-114 20t-82 50.5t-52 70t-29 76.5t-8 72z" />
    <glyph glyph-name="ebreve" unicode="&#x115;" horiz-adv-x="948" 
d="M895 508h-559v-88q0 -110 33.5 -183t105.5 -73q70 0 104 49.5t46 157.5h254q-8 -197 -105 -298.5t-295 -101.5q-67 0 -122.5 12t-96.5 30.5t-73.5 50t-54 62.5t-37 76.5t-23.5 83t-12.5 91t-5.5 91.5t-1 93q0 98 8.5 173.5t36.5 153t74.5 128t127.5 82.5t192 32
q97 0 168.5 -26.5t116 -72.5t71.5 -118t37 -153t10 -189v-63zM336 676h289q-5 139 -33.5 200.5t-110.5 61.5q-40 0 -70 -19t-45.5 -52t-22.5 -69.5t-7 -78.5v-43zM201 1526h133q6 -60 48 -96.5t103 -36.5t103.5 37t48.5 96h133q0 -35 -8.5 -72t-29.5 -76.5t-52 -70
t-81.5 -50.5t-113.5 -20q-78 0 -136.5 29t-89 75.5t-44.5 93t-14 91.5z" />
    <glyph glyph-name="Edotaccent" unicode="&#x116;" horiz-adv-x="985" 
d="M102 1462h818v-241h-523v-344h492v-242h-492v-393h543v-242h-838v1462zM401 1817h230v-242h-230v242z" />
    <glyph glyph-name="edotaccent" unicode="&#x117;" horiz-adv-x="948" 
d="M895 508h-559v-88q0 -110 33.5 -183t105.5 -73q70 0 104 49.5t46 157.5h254q-8 -197 -105 -298.5t-295 -101.5q-67 0 -122.5 12t-96.5 30.5t-73.5 50t-54 62.5t-37 76.5t-23.5 83t-12.5 91t-5.5 91.5t-1 93q0 98 8.5 173.5t36.5 153t74.5 128t127.5 82.5t192 32
q97 0 168.5 -26.5t116 -72.5t71.5 -118t37 -153t10 -189v-63zM336 676h289q-5 139 -33.5 200.5t-110.5 61.5q-40 0 -70 -19t-45.5 -52t-22.5 -69.5t-7 -78.5v-43zM373 1501h229v-241h-229v241z" />
    <glyph glyph-name="Eogonek" unicode="&#x118;" horiz-adv-x="985" 
d="M879 -272l61 -101q-56 -40 -107.5 -55.5t-125.5 -15.5q-57 0 -97.5 14.5t-61 39t-29.5 50.5t-9 57q0 76 68 152.5t184 130.5h-660v1462h818v-241h-523v-344h492v-242h-492v-393h543v-242h-41q-120 -87 -163.5 -143t-43.5 -107q0 -30 15.5 -46.5t42.5 -16.5q60 0 129 41z
" />
    <glyph glyph-name="eogonek" unicode="&#x119;" horiz-adv-x="948" 
d="M616 -272l62 -101q-56 -40 -108 -55.5t-126 -15.5q-57 0 -97.5 14.5t-61 39t-29 50.5t-8.5 57q0 78 67 154q43 51 127 102q-121 3 -202 52q-42 26 -74 61.5t-52 80t-32.5 87.5t-18.5 99.5t-8 101t-2 106.5q0 98 8.5 173.5t36.5 153t74.5 128t127.5 82.5t192 32
q97 0 168.5 -26.5t116 -72.5t71.5 -118t37 -153t10 -189v-63h-559v-88q0 -110 33.5 -183t105.5 -73q70 0 104 49.5t46 157.5h254q-9 -193 -103 -297q-58 -64 -160 -88q-20 -15 -47.5 -38t-36.5 -30q-57 -54 -79.5 -92t-22.5 -76q0 -30 15 -46.5t42 -16.5q60 0 129 41z
M336 676h289q-5 139 -33.5 200.5t-110.5 61.5q-40 0 -70 -19t-45.5 -52t-22.5 -69.5t-7 -78.5v-43z" />
    <glyph glyph-name="Ecaron" unicode="&#x11a;" horiz-adv-x="985" 
d="M102 1462h818v-241h-523v-344h492v-242h-492v-393h543v-242h-838v1462zM371 1548l-160 295h217l94 -174l99 174h204l-159 -295h-295z" />
    <glyph glyph-name="ecaron" unicode="&#x11b;" horiz-adv-x="948" 
d="M895 508h-559v-88q0 -110 33.5 -183t105.5 -73q70 0 104 49.5t46 157.5h254q-8 -197 -105 -298.5t-295 -101.5q-67 0 -122.5 12t-96.5 30.5t-73.5 50t-54 62.5t-37 76.5t-23.5 83t-12.5 91t-5.5 91.5t-1 93q0 98 8.5 173.5t36.5 153t74.5 128t127.5 82.5t192 32
q97 0 168.5 -26.5t116 -72.5t71.5 -118t37 -153t10 -189v-63zM336 676h289q-5 139 -33.5 200.5t-110.5 61.5q-40 0 -70 -19t-45.5 -52t-22.5 -69.5t-7 -78.5v-43zM336 1233l-160 295h217l94 -174l99 174h205l-160 -295h-295z" />
    <glyph glyph-name="Gcircumflex" unicode="&#x11c;" horiz-adv-x="1138" 
d="M1034 1028h-282q0 58 -16 111.5t-55.5 94t-96.5 40.5q-106 0 -153.5 -119t-47.5 -393q0 -143 8 -240t29.5 -177t62.5 -118.5t103 -38.5q64 0 123 63t59 171v149h-195v217h478v-788h-217v135h-5q-54 -86 -128 -125t-179 -39q-90 0 -158 21.5t-115.5 68t-79 108.5
t-49.5 153.5t-25 191.5t-7 234q0 191 24 325t80.5 230t152 142t235.5 46q236 0 345 -117t109 -346zM281 1548l159 295h295l160 -295h-217l-94 174l-99 -174h-204z" />
    <glyph glyph-name="gcircumflex" unicode="&#x11d;" horiz-adv-x="1024" 
d="M354 516q0 -63 5.5 -110t20 -89.5t43.5 -65t73 -22.5q85 0 119 81.5t34 234.5q0 204 -31.5 286t-115.5 82q-91 0 -119.5 -83t-28.5 -314zM649 1102h271v-1047q0 -223 -107.5 -327.5t-351.5 -104.5q-180 0 -277.5 77t-97.5 218h270q0 -54 43 -84q47 -31 95 -31
q155 0 155 199v145h-4q-43 -62 -105.5 -98.5t-129.5 -36.5q-171 0 -254.5 131.5t-83.5 425.5q0 61 3 112.5t12.5 111t24.5 106t41.5 91.5t62 74.5t87 47.5t115.5 18q68 0 128.5 -35.5t98.5 -115.5h4v123zM225 1233l160 295h295l160 -295h-217l-95 174l-98 -174h-205z" />
    <glyph glyph-name="Gbreve" unicode="&#x11e;" horiz-adv-x="1138" 
d="M1034 1028h-282q0 58 -16 111.5t-55.5 94t-96.5 40.5q-106 0 -153.5 -119t-47.5 -393q0 -143 8 -240t29.5 -177t62.5 -118.5t103 -38.5q64 0 123 63t59 171v149h-195v217h478v-788h-217v135h-5q-54 -86 -128 -125t-179 -39q-90 0 -158 21.5t-115.5 68t-79 108.5
t-49.5 153.5t-25 191.5t-7 234q0 191 24 325t80.5 230t152 142t235.5 46q236 0 345 -117t109 -346zM297 1841h133q6 -59 48.5 -96t103.5 -37t103 36.5t48 96.5h133q0 -35 -8 -72t-29 -76.5t-52 -70t-81.5 -50.5t-113.5 -20t-114 20t-82 50.5t-52 70t-29 76.5t-8 72z" />
    <glyph glyph-name="gbreve" unicode="&#x11f;" horiz-adv-x="1024" 
d="M354 516q0 -63 5.5 -110t20 -89.5t43.5 -65t73 -22.5q85 0 119 81.5t34 234.5q0 204 -31.5 286t-115.5 82q-91 0 -119.5 -83t-28.5 -314zM649 1102h271v-1047q0 -223 -107.5 -327.5t-351.5 -104.5q-180 0 -277.5 77t-97.5 218h270q0 -54 43 -84q47 -31 95 -31
q155 0 155 199v145h-4q-43 -62 -105.5 -98.5t-129.5 -36.5q-171 0 -254.5 131.5t-83.5 425.5q0 61 3 112.5t12.5 111t24.5 106t41.5 91.5t62 74.5t87 47.5t115.5 18q68 0 128.5 -35.5t98.5 -115.5h4v123zM233 1526h134q6 -60 48 -96.5t103 -36.5t103.5 37t48.5 96h133
q0 -35 -8.5 -72t-29.5 -76.5t-52 -70t-81.5 -50.5t-113.5 -20t-114 20t-82 50.5t-52 70t-29 76.5t-8 72z" />
    <glyph glyph-name="Gdotaccent" unicode="&#x120;" horiz-adv-x="1138" 
d="M1034 1028h-282q0 58 -16 111.5t-55.5 94t-96.5 40.5q-106 0 -153.5 -119t-47.5 -393q0 -143 8 -240t29.5 -177t62.5 -118.5t103 -38.5q64 0 123 63t59 171v149h-195v217h478v-788h-217v135h-5q-54 -86 -128 -125t-179 -39q-90 0 -158 21.5t-115.5 68t-79 108.5
t-49.5 153.5t-25 191.5t-7 234q0 191 24 325t80.5 230t152 142t235.5 46q236 0 345 -117t109 -346zM471 1817h229v-242h-229v242z" />
    <glyph glyph-name="gdotaccent" unicode="&#x121;" horiz-adv-x="1024" 
d="M354 516q0 -63 5.5 -110t20 -89.5t43.5 -65t73 -22.5q85 0 119 81.5t34 234.5q0 204 -31.5 286t-115.5 82q-91 0 -119.5 -83t-28.5 -314zM649 1102h271v-1047q0 -223 -107.5 -327.5t-351.5 -104.5q-180 0 -277.5 77t-97.5 218h270q0 -54 43 -84q47 -31 95 -31
q155 0 155 199v145h-4q-43 -62 -105.5 -98.5t-129.5 -36.5q-171 0 -254.5 131.5t-83.5 425.5q0 61 3 112.5t12.5 111t24.5 106t41.5 91.5t62 74.5t87 47.5t115.5 18q68 0 128.5 -35.5t98.5 -115.5h4v123zM406 1501h229v-241h-229v241z" />
    <glyph glyph-name="Gcommaaccent" unicode="&#x122;" horiz-adv-x="1138" 
d="M1034 1028h-282q0 58 -16 111.5t-55.5 94t-96.5 40.5q-106 0 -153.5 -119t-47.5 -393q0 -143 8 -240t29.5 -177t62.5 -118.5t103 -38.5q64 0 123 63t59 171v149h-195v217h478v-788h-217v135h-5q-54 -86 -128 -125t-179 -39q-90 0 -158 21.5t-115.5 68t-79 108.5
t-49.5 153.5t-25 191.5t-7 234q0 191 24 325t80.5 230t152 142t235.5 46q236 0 345 -117t109 -346zM461 -102h229v-199q0 -54 -12.5 -93t-29.5 -60.5t-47 -35.5t-51.5 -18.5t-57.5 -9.5v74q37 11 54.5 33t18.5 67h-104v242z" />
    <glyph glyph-name="gcommaaccent" unicode="&#x123;" horiz-adv-x="1024" 
d="M354 516q0 -63 5.5 -110t20 -89.5t43.5 -65t73 -22.5q85 0 119 81.5t34 234.5q0 204 -31.5 286t-115.5 82q-91 0 -119.5 -83t-28.5 -314zM649 1102h271v-1047q0 -223 -107.5 -327.5t-351.5 -104.5q-180 0 -277.5 77t-97.5 218h270q0 -54 43 -84q47 -31 95 -31
q155 0 155 199v145h-4q-43 -62 -105.5 -98.5t-129.5 -36.5q-171 0 -254.5 131.5t-83.5 425.5q0 61 3 112.5t12.5 111t24.5 106t41.5 91.5t62 74.5t87 47.5t115.5 18q68 0 128.5 -35.5t98.5 -115.5h4v123zM578 2390h-230v199q0 54 12.5 93t29.5 60.5t47 35.5t52 18.5t58 9.5
v-74q-37 -11 -55 -33t-19 -67h105v-242zM643 1221h-229v198q0 54 12.5 93t29.5 60.5t47 35.5t51.5 18.5t57.5 9.5v-73q-37 -11 -54.5 -33.5t-18.5 -67.5h104v-241z" />
    <glyph glyph-name="Hcircumflex" unicode="&#x124;" horiz-adv-x="1138" 
d="M102 0v1462h295v-559h344v559h295v-1462h-295v649h-344v-649h-295zM264 1548l160 295h295l160 -295h-217l-95 174l-98 -174h-205z" />
    <glyph glyph-name="hcircumflex" unicode="&#x125;" horiz-adv-x="1024" 
d="M94 0v1462h283v-473h4q81 141 268 141q281 0 281 -313v-817h-283v760q0 83 -28.5 118t-92.5 35q-149 0 -149 -182v-731h-283zM205 1548l160 295h294l160 -295h-217l-94 174l-98 -174h-205z" />
    <glyph glyph-name="Hbar" unicode="&#x126;" horiz-adv-x="1138" 
d="M102 0v1462h295v-299h344v299h295v-1462h-295v614h-344v-614h-295zM397 860h344v178h-344v-178z" />
    <glyph glyph-name="hbar" unicode="&#x127;" horiz-adv-x="1105" 
d="M176 1325v137h283v-137h227v-125h-227v-211h4q81 141 268 141q281 0 281 -313v-817h-283v760q0 83 -28.5 118t-92.5 35q-149 0 -149 -182v-731h-283v1200h-176v125h176z" />
    <glyph glyph-name="Itilde" unicode="&#x128;" horiz-adv-x="528" 
d="M412 0h-295v1462h295v-1462zM88 1567h-143q36 254 190 254q53 0 88 -15l99 -43q30 -12 61 -12q26 0 41.5 24.5t15.5 49.5h148q-11 -112 -62.5 -183t-128.5 -71q-45 0 -129 34.5t-114 34.5q-51 0 -66 -73z" />
    <glyph glyph-name="itilde" unicode="&#x129;" horiz-adv-x="491" 
d="M104 0v1102h283v-1102h-283zM68 1251h-144q17 123 65.5 188.5t125.5 65.5q56 0 88 -14l98 -43q30 -12 61 -12q27 0 42.5 24.5t15.5 48.5h147q-11 -112 -62 -183t-128 -71q-45 0 -129 35t-115 35q-50 0 -65 -74z" />
    <glyph glyph-name="Imacron" unicode="&#x12a;" horiz-adv-x="528" 
d="M412 0h-295v1462h295v-1462zM-35 1774h602v-156h-602v156z" />
    <glyph glyph-name="imacron" unicode="&#x12b;" horiz-adv-x="491" 
d="M104 0v1102h283v-1102h-283zM-55 1458h602v-155h-602v155z" />
    <glyph glyph-name="Iogonek" unicode="&#x12e;" horiz-adv-x="528" 
d="M391 -272l62 -101q-56 -40 -108 -55.5t-126 -15.5q-57 0 -97.5 14.5t-61 39t-29 50.5t-8.5 57q0 76 67.5 152.5t183.5 130.5h-157v1462h295v-1462q-120 -87 -163.5 -143t-43.5 -107q0 -30 15 -46.5t42 -16.5q60 0 129 41z" />
    <glyph glyph-name="iogonek" unicode="&#x12f;" horiz-adv-x="491" 
d="M365 -272l61 -101q-56 -40 -107.5 -55.5t-125.5 -15.5q-57 0 -97.5 14.5t-61 39t-29.5 50.5t-9 57q0 76 68 152.5t184 130.5h-144v1102h283v-1102h-2q-120 -87 -163.5 -143t-43.5 -107q0 -30 15.5 -46.5t42.5 -16.5q60 0 129 41zM104 1237v242h283v-242h-283z" />
    <glyph glyph-name="Idotaccent" unicode="&#x130;" horiz-adv-x="528" 
d="M412 0h-295v1462h295v-1462zM150 1817h229v-242h-229v242z" />
    <glyph glyph-name="dotlessi" unicode="&#x131;" horiz-adv-x="491" 
d="M104 0v1102h283v-1102h-283z" />
    <glyph glyph-name="Jcircumflex" unicode="&#x134;" horiz-adv-x="948" 
d="M563 1462h295v-1052q0 -230 -107 -334.5t-333 -104.5q-91 0 -159.5 23t-111 61.5t-69.5 94.5t-37 116t-10 133v64h270v-45q0 -123 27.5 -176.5t103.5 -53.5t103.5 53.5t27.5 176.5v1044zM401 1548l160 295h295l160 -295h-217l-94 174l-99 -174h-205z" />
    <glyph glyph-name="jcircumflex" unicode="&#x135;" horiz-adv-x="491" 
d="M104 20v1082h283v-1178q0 -147 -71 -215.5t-253 -68.5q-32 0 -114 4v204q12 -4 22 -4h23q71 0 90.5 37.5t19.5 138.5zM-68 1233l160 295h295l160 -295h-217l-94 174l-99 -174h-205z" />
    <glyph glyph-name="Kcommaaccent" unicode="&#x136;" horiz-adv-x="1099" 
d="M102 1462h295v-585h4l373 585h320l-398 -626l443 -836h-332l-301 600l-109 -166v-434h-295v1462zM477 -102h230v-199q0 -54 -12.5 -93t-29.5 -60.5t-47 -35.5t-52 -18.5t-58 -9.5v74q37 11 55 33t19 67h-105v242z" />
    <glyph glyph-name="kcommaaccent" unicode="&#x137;" horiz-adv-x="1024" 
d="M104 1462h283v-772h4l285 412h311l-317 -434l364 -668h-311l-236 453l-100 -131v-322h-283v1462zM438 -102h230v-199q0 -54 -12.5 -93t-29.5 -60.5t-47 -35.5t-52 -18.5t-58 -9.5v74q37 11 55 33t19 67h-105v242z" />
    <glyph glyph-name="Lacute" unicode="&#x139;" horiz-adv-x="948" 
d="M920 0h-818v1462h295v-1220h523v-242zM143 1548l111 295h283l-201 -295h-193z" />
    <glyph glyph-name="lacute" unicode="&#x13a;" horiz-adv-x="491" 
d="M104 0v1462h283v-1462h-283zM106 1548l111 295h283l-201 -295h-193z" />
    <glyph glyph-name="Lcommaaccent" unicode="&#x13b;" horiz-adv-x="948" 
d="M920 0h-818v1462h295v-1220h523v-242zM403 -102h230v-199q0 -54 -12.5 -93t-29.5 -60.5t-47 -35.5t-52 -18.5t-58 -9.5v74q37 11 55 33t19 67h-105v242z" />
    <glyph glyph-name="lcommaaccent" unicode="&#x13c;" horiz-adv-x="491" 
d="M104 0v1462h283v-1462h-283zM137 -102h230v-199q0 -54 -12.5 -93t-29.5 -60.5t-47 -35.5t-52 -18.5t-58 -9.5v74q37 11 55 33t19 67h-105v242z" />
    <glyph glyph-name="Lcaron" unicode="&#x13d;" horiz-adv-x="948" 
d="M920 0h-818v1462h295v-1220h523v-242zM502 1167l67 295h246l-129 -295h-184z" />
    <glyph glyph-name="lcaron" unicode="&#x13e;" horiz-adv-x="700" 
d="M104 0v1462h283v-1462h-283zM465 1167l67 295h246l-129 -295h-184z" />
    <glyph glyph-name="Ldot" unicode="&#x13f;" horiz-adv-x="948" 
d="M920 0h-818v1462h295v-1220h523v-242zM547 1102h229v-242h-229v242z" />
    <glyph glyph-name="ldot" unicode="&#x140;" horiz-adv-x="813" 
d="M104 0v1462h283v-1462h-283zM502 1102h229v-242h-229v242z" />
    <glyph glyph-name="Lslash" unicode="&#x141;" horiz-adv-x="948" 
d="M102 0v524l-102 -63v217l102 63v721h295v-536l258 161v-217l-258 -161v-467h523v-242h-818z" />
    <glyph glyph-name="lslash" unicode="&#x142;" horiz-adv-x="491" 
d="M104 0v578l-129 -86v180l129 86v704h283v-518l129 84v-180l-129 -84v-764h-283z" />
    <glyph glyph-name="Nacute" unicode="&#x143;" horiz-adv-x="1175" 
d="M102 1462h340l357 -1001h4v1001h270v-1462h-336l-360 1024h-4v-1024h-271v1462zM487 1548l111 295h283l-201 -295h-193z" />
    <glyph glyph-name="nacute" unicode="&#x144;" horiz-adv-x="1024" 
d="M94 0v1102h271v-129h4q85 157 280 157q281 0 281 -313v-817h-283v760q0 83 -28.5 118t-92.5 35q-149 0 -149 -182v-731h-283zM399 1233l111 295h283l-201 -295h-193z" />
    <glyph glyph-name="Ncommaaccent" unicode="&#x145;" horiz-adv-x="1175" 
d="M102 1462h340l357 -1001h4v1001h270v-1462h-336l-360 1024h-4v-1024h-271v1462zM475 -102h230v-199q0 -54 -12.5 -93t-29.5 -60.5t-47 -35.5t-52 -18.5t-58 -9.5v74q37 11 55 33t19 67h-105v242z" />
    <glyph glyph-name="ncommaaccent" unicode="&#x146;" horiz-adv-x="1024" 
d="M94 0v1102h271v-129h4q85 157 280 157q281 0 281 -313v-817h-283v760q0 83 -28.5 118t-92.5 35q-149 0 -149 -182v-731h-283zM401 -102h230v-199q0 -54 -12.5 -93t-29.5 -60.5t-47 -35.5t-52 -18.5t-58 -9.5v74q37 11 55 33t19 67h-105v242z" />
    <glyph glyph-name="Ncaron" unicode="&#x147;" horiz-adv-x="1175" 
d="M102 1462h340l357 -1001h4v1001h270v-1462h-336l-360 1024h-4v-1024h-271v1462zM440 1548l-159 295h217l94 -174l98 174h205l-160 -295h-295z" />
    <glyph glyph-name="ncaron" unicode="&#x148;" horiz-adv-x="1024" 
d="M94 0v1102h271v-129h4q85 157 280 157q281 0 281 -313v-817h-283v760q0 83 -28.5 118t-92.5 35q-149 0 -149 -182v-731h-283zM360 1233l-159 295h217l94 -174l98 174h205l-160 -295h-295z" />
    <glyph glyph-name="Omacron" unicode="&#x14c;" horiz-adv-x="1138" 
d="M72 731q0 90 3.5 160.5t12 145t25 130.5t42 110t63 91t87 66t116 43t148.5 14q93 0 166.5 -19.5t125.5 -53t89.5 -88t60 -113.5t35 -142t17 -161.5t4.5 -182.5t-4.5 -182.5t-17 -161.5t-35 -142t-60 -113.5t-89.5 -88t-125.5 -53t-166.5 -19.5q-82 0 -148.5 14t-116 43
t-87 66t-63 91t-42 110t-25 130.5t-12 145t-3.5 160.5zM367 731q0 -105 3 -177.5t11 -137.5t22 -104.5t36.5 -69t54 -42t75.5 -12.5t75.5 12.5t54.5 42t37 69t22 104.5t11 137.5t3 177.5q0 104 -3 176.5t-11 137.5t-22 105t-37 69.5t-54.5 42t-75.5 12.5t-75.5 -12.5
t-54 -42t-36.5 -69.5t-22 -105t-11 -137.5t-3 -176.5zM266 1774h602v-156h-602v156z" />
    <glyph glyph-name="omacron" unicode="&#x14d;" 
d="M57 551q0 293 100.5 436t334.5 143q125 2 210 -33t134 -111t69.5 -180.5t20.5 -254.5q0 -293 -100 -436.5t-334 -143.5q-125 -2 -210 33t-134.5 111.5t-70 181t-20.5 254.5zM340 551q0 -64 1.5 -108t7 -92t15.5 -79t26.5 -57t42 -38.5t59.5 -12.5q85 0 118 88t33 299
t-33 299t-118 88q-34 0 -59.5 -12.5t-42 -38.5t-26.5 -57t-15.5 -79t-7 -92t-1.5 -108zM188 1458h603v-155h-603v155z" />
    <glyph glyph-name="Obreve" unicode="&#x14e;" horiz-adv-x="1138" 
d="M72 731q0 90 3.5 160.5t12 145t25 130.5t42 110t63 91t87 66t116 43t148.5 14q93 0 166.5 -19.5t125.5 -53t89.5 -88t60 -113.5t35 -142t17 -161.5t4.5 -182.5t-4.5 -182.5t-17 -161.5t-35 -142t-60 -113.5t-89.5 -88t-125.5 -53t-166.5 -19.5q-82 0 -148.5 14t-116 43
t-87 66t-63 91t-42 110t-25 130.5t-12 145t-3.5 160.5zM367 731q0 -105 3 -177.5t11 -137.5t22 -104.5t36.5 -69t54 -42t75.5 -12.5t75.5 12.5t54.5 42t37 69t22 104.5t11 137.5t3 177.5q0 104 -3 176.5t-11 137.5t-22 105t-37 69.5t-54.5 42t-75.5 12.5t-75.5 -12.5
t-54 -42t-36.5 -69.5t-22 -105t-11 -137.5t-3 -176.5zM283 1841h133q6 -60 48 -96.5t103 -36.5t103.5 37t48.5 96h133q0 -35 -8.5 -72t-29.5 -76.5t-52 -70t-81.5 -50.5t-113.5 -20q-78 0 -136.5 29t-89 75.5t-44.5 93t-14 91.5z" />
    <glyph glyph-name="obreve" unicode="&#x14f;" 
d="M57 551q0 293 100.5 436t334.5 143q125 2 210 -33t134 -111t69.5 -180.5t20.5 -254.5q0 -293 -100 -436.5t-334 -143.5q-125 -2 -210 33t-134.5 111.5t-70 181t-20.5 254.5zM340 551q0 -64 1.5 -108t7 -92t15.5 -79t26.5 -57t42 -38.5t59.5 -12.5q85 0 118 88t33 299
t-33 299t-118 88q-34 0 -59.5 -12.5t-42 -38.5t-26.5 -57t-15.5 -79t-7 -92t-1.5 -108zM207 1526h133q6 -59 48.5 -96t103.5 -37t103 36.5t48 96.5h133q0 -35 -8 -72t-29 -76.5t-52 -70t-81.5 -50.5t-113.5 -20t-114 20t-82 50.5t-52 70t-29 76.5t-8 72z" />
    <glyph glyph-name="Ohungarumlaut" unicode="&#x150;" horiz-adv-x="1138" 
d="M72 731q0 90 3.5 160.5t12 145t25 130.5t42 110t63 91t87 66t116 43t148.5 14q93 0 166.5 -19.5t125.5 -53t89.5 -88t60 -113.5t35 -142t17 -161.5t4.5 -182.5t-4.5 -182.5t-17 -161.5t-35 -142t-60 -113.5t-89.5 -88t-125.5 -53t-166.5 -19.5q-82 0 -148.5 14t-116 43
t-87 66t-63 91t-42 110t-25 130.5t-12 145t-3.5 160.5zM367 731q0 -105 3 -177.5t11 -137.5t22 -104.5t36.5 -69t54 -42t75.5 -12.5t75.5 12.5t54.5 42t37 69t22 104.5t11 137.5t3 177.5q0 104 -3 176.5t-11 137.5t-22 105t-37 69.5t-54.5 42t-75.5 12.5t-75.5 -12.5
t-54 -42t-36.5 -69.5t-22 -105t-11 -137.5t-3 -176.5zM635 1548l110 295h283l-201 -295h-192zM295 1548l111 295h282l-201 -295h-192z" />
    <glyph glyph-name="ohungarumlaut" unicode="&#x151;" 
d="M57 551q0 293 100.5 436t334.5 143q125 2 210 -33t134 -111t69.5 -180.5t20.5 -254.5q0 -293 -100 -436.5t-334 -143.5q-125 -2 -210 33t-134.5 111.5t-70 181t-20.5 254.5zM340 551q0 -64 1.5 -108t7 -92t15.5 -79t26.5 -57t42 -38.5t59.5 -12.5q85 0 118 88t33 299
t-33 299t-118 88q-34 0 -59.5 -12.5t-42 -38.5t-26.5 -57t-15.5 -79t-7 -92t-1.5 -108zM557 1233l111 295h282l-200 -295h-193zM217 1233l111 295h282l-200 -295h-193z" />
    <glyph glyph-name="OE" unicode="&#x152;" horiz-adv-x="1593" 
d="M367 731q0 -106 2.5 -176t10 -136.5t21 -105.5t36 -69.5t55 -43t77.5 -12.5q33 0 58 5.5t44.5 22t32.5 35t22.5 55t15 72t8 95.5t3.5 115.5t1 142.5t-1 142.5t-3.5 115.5t-8 95.5t-15 72t-22.5 55t-32.5 35t-44.5 22t-58 5.5q-45 0 -77.5 -12.5t-55 -43t-36 -69.5
t-21 -105.5t-10 -136.5t-2.5 -176zM1532 1462v-241h-496v-344h465v-242h-465v-393h512v-242h-764v84h-4q-23 -51 -98 -82t-154 -31q-70 0 -128.5 14.5t-102 38.5t-78 63t-58 79.5t-40.5 98t-26 108.5t-14.5 120.5t-7 125t-1.5 129.5q0 88 4.5 161t16.5 151.5t32 139.5
t54 117.5t79.5 93t110.5 58.5t145 22q202 0 266 -107h4v78h748z" />
    <glyph glyph-name="oe" unicode="&#x153;" horiz-adv-x="1517" 
d="M899 676h289q-5 139 -33.5 200.5t-110.5 61.5q-40 0 -70 -19t-45.5 -52t-22.5 -69.5t-7 -78.5v-43zM498 164q83 0 115 88t32 299t-33 299t-118 88q-34 0 -59.5 -12.5t-42 -38.5t-26.5 -57t-15.5 -79t-7 -92t-1.5 -108t1.5 -107.5t7 -92t16 -79t27.5 -57t43 -39t61 -12.5z
M1458 508h-559v-88q0 -110 33.5 -183t105.5 -73q70 0 104 50t46 157h254q-16 -400 -383 -400q-119 0 -190 46t-97 116q-29 -76 -112 -119t-191 -43q-118 0 -198 36t-126.5 111.5t-66 179.5t-19.5 253q0 293 100.5 436t334.5 143q114 0 182 -37t110 -116q40 73 112.5 113
t156.5 40q97 0 168.5 -26.5t116 -72.5t71.5 -118t37 -153t10 -189v-63z" />
    <glyph glyph-name="Racute" unicode="&#x154;" horiz-adv-x="1138" 
d="M102 0v1462h545q186 0 287.5 -95.5t101.5 -281.5q0 -309 -243 -360v-4q61 -8 101.5 -28t66.5 -51t40 -86.5t19.5 -118t7.5 -163.5q2 -126 14.5 -183t51.5 -79v-12h-320q-33 44 -37 154l-8 280q-5 90 -46 137t-128 47h-158v-618h-295zM397 1245v-422h123q109 0 165 52
t56 167q0 203 -204 203h-140zM399 1548l111 295h283l-201 -295h-193z" />
    <glyph glyph-name="racute" unicode="&#x155;" horiz-adv-x="681" 
d="M94 0v1102h271v-148h4q95 176 254 176q19 0 51 -4v-270q-62 4 -88 4q-85 0 -147 -48.5t-62 -149.5v-662h-283zM166 1233l110 295h283l-201 -295h-192z" />
    <glyph glyph-name="Rcommaaccent" unicode="&#x156;" horiz-adv-x="1138" 
d="M102 0v1462h545q186 0 287.5 -95.5t101.5 -281.5q0 -309 -243 -360v-4q61 -8 101.5 -28t66.5 -51t40 -86.5t19.5 -118t7.5 -163.5q2 -126 14.5 -183t51.5 -79v-12h-320q-33 44 -37 154l-8 280q-5 90 -46 137t-128 47h-158v-618h-295zM397 1245v-422h123q109 0 165 52
t56 167q0 203 -204 203h-140zM471 -102h229v-199q0 -54 -12.5 -93t-29.5 -60.5t-47 -35.5t-51.5 -18.5t-57.5 -9.5v74q37 11 54.5 33t18.5 67h-104v242z" />
    <glyph glyph-name="rcommaaccent" unicode="&#x157;" horiz-adv-x="681" 
d="M94 0v1102h271v-148h4q95 176 254 176q19 0 51 -4v-270q-62 4 -88 4q-85 0 -147 -48.5t-62 -149.5v-662h-283zM127 -102h229v-199q0 -54 -12.5 -93t-29.5 -60.5t-47 -35.5t-51.5 -18.5t-57.5 -9.5v74q37 11 54.5 33t18.5 67h-104v242z" />
    <glyph glyph-name="Rcaron" unicode="&#x158;" horiz-adv-x="1138" 
d="M102 0v1462h545q186 0 287.5 -95.5t101.5 -281.5q0 -309 -243 -360v-4q61 -8 101.5 -28t66.5 -51t40 -86.5t19.5 -118t7.5 -163.5q2 -126 14.5 -183t51.5 -79v-12h-320q-33 44 -37 154l-8 280q-5 90 -46 137t-128 47h-158v-618h-295zM397 1245v-422h123q109 0 165 52
t56 167q0 203 -204 203h-140zM381 1548l-160 295h217l94 -174l99 174h205l-160 -295h-295z" />
    <glyph glyph-name="rcaron" unicode="&#x159;" horiz-adv-x="681" 
d="M94 0v1102h271v-148h4q95 176 254 176q19 0 51 -4v-270q-62 4 -88 4q-85 0 -147 -48.5t-62 -149.5v-662h-283zM242 1233l-160 295h217l94 -174l99 174h204l-159 -295h-295z" />
    <glyph glyph-name="Sacute" unicode="&#x15a;" horiz-adv-x="1062" 
d="M45 457h295v-43q0 -112 42.5 -169t152.5 -57q73 0 124.5 47t51.5 134q0 96 -55.5 147t-206.5 102q-203 68 -293 167.5t-90 275.5q0 212 118.5 321t333.5 109q101 0 182 -22.5t142.5 -68.5t95 -122.5t33.5 -179.5v-41h-283q0 108 -38 162.5t-122 54.5q-168 0 -168 -170
q0 -72 31.5 -117.5t120.5 -81.5l227 -98q160 -71 219.5 -158.5t59.5 -228.5q0 -227 -131.5 -338t-376.5 -111q-243 0 -354 108t-111 318v60zM424 1548l111 295h282l-201 -295h-192z" />
    <glyph glyph-name="sacute" unicode="&#x15b;" horiz-adv-x="909" 
d="M47 360h254v-36q0 -73 38.5 -116.5t109.5 -43.5q68 0 105.5 33t37.5 98q0 49 -27 76.5t-76 48.5l-198 72q-119 42 -177.5 117t-58.5 190q0 70 23.5 128t70.5 104.5t127 72.5t185 26q189 0 283 -80.5t94 -232.5v-45h-254q0 87 -28.5 126.5t-96.5 39.5q-57 0 -95 -31
t-38 -88q0 -44 27.5 -75.5t95.5 -53.5l169 -57q132 -44 188 -117t56 -199q0 -168 -112 -257t-297 -89q-117 0 -197.5 24t-125.5 72t-64 109.5t-19 145.5v38zM350 1233l111 295h282l-200 -295h-193z" />
    <glyph glyph-name="Scircumflex" unicode="&#x15c;" horiz-adv-x="1062" 
d="M45 457h295v-43q0 -112 42.5 -169t152.5 -57q73 0 124.5 47t51.5 134q0 96 -55.5 147t-206.5 102q-203 68 -293 167.5t-90 275.5q0 212 118.5 321t333.5 109q101 0 182 -22.5t142.5 -68.5t95 -122.5t33.5 -179.5v-41h-283q0 108 -38 162.5t-122 54.5q-168 0 -168 -170
q0 -72 31.5 -117.5t120.5 -81.5l227 -98q160 -71 219.5 -158.5t59.5 -228.5q0 -227 -131.5 -338t-376.5 -111q-243 0 -354 108t-111 318v60zM223 1548l160 295h295l160 -295h-217l-95 174l-98 -174h-205z" />
    <glyph glyph-name="scircumflex" unicode="&#x15d;" horiz-adv-x="909" 
d="M47 360h254v-36q0 -73 38.5 -116.5t109.5 -43.5q68 0 105.5 33t37.5 98q0 49 -27 76.5t-76 48.5l-198 72q-119 42 -177.5 117t-58.5 190q0 70 23.5 128t70.5 104.5t127 72.5t185 26q189 0 283 -80.5t94 -232.5v-45h-254q0 87 -28.5 126.5t-96.5 39.5q-57 0 -95 -31
t-38 -88q0 -44 27.5 -75.5t95.5 -53.5l169 -57q132 -44 188 -117t56 -199q0 -168 -112 -257t-297 -89q-117 0 -197.5 24t-125.5 72t-64 109.5t-19 145.5v38zM158 1233l159 295h295l160 -295h-217l-94 174l-99 -174h-204z" />
    <glyph glyph-name="Scedilla" unicode="&#x15e;" horiz-adv-x="1062" 
d="M45 457h295v-43q0 -112 42.5 -169t152.5 -57q73 0 124.5 47t51.5 134q0 96 -55.5 147t-206.5 102q-203 68 -293 167.5t-90 275.5q0 212 118.5 321t333.5 109q101 0 182 -22.5t142.5 -68.5t95 -122.5t33.5 -179.5v-41h-283q0 108 -38 162.5t-122 54.5q-168 0 -168 -170
q0 -72 31.5 -117.5t120.5 -81.5l227 -98q160 -71 219.5 -158.5t59.5 -228.5q0 -232 -135 -340q-123 -100 -340 -109l-60 -90q31 10 68 10q72 0 124 -39.5t48 -107.5q0 -91 -66.5 -139.5t-191.5 -48.5q-63 0 -120.5 11.5t-84.5 26.5l39 95q60 -31 141 -31q44 0 73.5 19
t29.5 49t-24 46.5t-66 18.5q-35 0 -70 -12l-45 41l98 153q-190 15 -284 109q-107 113 -107 315v60z" />
    <glyph glyph-name="Scedilla" unicode="&#xf6c1;" horiz-adv-x="1062" 
d="M45 457h295v-43q0 -112 42.5 -169t152.5 -57q73 0 124.5 47t51.5 134q0 96 -55.5 147t-206.5 102q-203 68 -293 167.5t-90 275.5q0 212 118.5 321t333.5 109q101 0 182 -22.5t142.5 -68.5t95 -122.5t33.5 -179.5v-41h-283q0 108 -38 162.5t-122 54.5q-168 0 -168 -170
q0 -72 31.5 -117.5t120.5 -81.5l227 -98q160 -71 219.5 -158.5t59.5 -228.5q0 -232 -135 -340q-123 -100 -340 -109l-60 -90q31 10 68 10q72 0 124 -39.5t48 -107.5q0 -91 -66.5 -139.5t-191.5 -48.5q-63 0 -120.5 11.5t-84.5 26.5l39 95q60 -31 141 -31q44 0 73.5 19
t29.5 49t-24 46.5t-66 18.5q-35 0 -70 -12l-45 41l98 153q-190 15 -284 109q-107 113 -107 315v60z" />
    <glyph glyph-name="scedilla" unicode="&#x15f;" horiz-adv-x="909" 
d="M47 360h254v-36q0 -73 38.5 -116.5t109.5 -43.5q68 0 105.5 33t37.5 98q0 49 -27 76.5t-76 48.5l-198 72q-119 42 -177.5 117t-58.5 190q0 70 23.5 128t70.5 104.5t127 72.5t185 26q189 0 283 -80.5t94 -232.5v-45h-254q0 87 -28.5 126.5t-96.5 39.5q-57 0 -95 -31
t-38 -88q0 -44 27.5 -75.5t95.5 -53.5l169 -57q132 -44 188 -117t56 -199t-65.5 -208.5t-180.5 -114.5q-73 -20 -141 -23l-59 -90q31 10 67 10q72 0 124 -39.5t48 -107.5q0 -91 -66.5 -139.5t-191.5 -48.5q-63 0 -120 11.5t-84 26.5l38 95q60 -31 142 -31q44 0 73 19t29 49
t-24 46.5t-66 18.5q-35 0 -70 -12l-45 41l101 155q-65 6 -117 21q-113 35 -160 116.5t-47 209.5v38z" />
    <glyph glyph-name="scedilla" unicode="&#xf6c2;" horiz-adv-x="909" 
d="M47 360h254v-36q0 -73 38.5 -116.5t109.5 -43.5q68 0 105.5 33t37.5 98q0 49 -27 76.5t-76 48.5l-198 72q-119 42 -177.5 117t-58.5 190q0 70 23.5 128t70.5 104.5t127 72.5t185 26q189 0 283 -80.5t94 -232.5v-45h-254q0 87 -28.5 126.5t-96.5 39.5q-57 0 -95 -31
t-38 -88q0 -44 27.5 -75.5t95.5 -53.5l169 -57q132 -44 188 -117t56 -199t-65.5 -208.5t-180.5 -114.5q-73 -20 -141 -23l-59 -90q31 10 67 10q72 0 124 -39.5t48 -107.5q0 -91 -66.5 -139.5t-191.5 -48.5q-63 0 -120 11.5t-84 26.5l38 95q60 -31 142 -31q44 0 73 19t29 49
t-24 46.5t-66 18.5q-35 0 -70 -12l-45 41l101 155q-65 6 -117 21q-113 35 -160 116.5t-47 209.5v38z" />
    <glyph glyph-name="Scaron" unicode="&#x160;" horiz-adv-x="1062" 
d="M45 457h295v-43q0 -112 42.5 -169t152.5 -57q73 0 124.5 47t51.5 134q0 96 -55.5 147t-206.5 102q-203 68 -293 167.5t-90 275.5q0 212 118.5 321t333.5 109q101 0 182 -22.5t142.5 -68.5t95 -122.5t33.5 -179.5v-41h-283q0 108 -38 162.5t-122 54.5q-168 0 -168 -170
q0 -72 31.5 -117.5t120.5 -81.5l227 -98q160 -71 219.5 -158.5t59.5 -228.5q0 -227 -131.5 -338t-376.5 -111q-243 0 -354 108t-111 318v60zM379 1552l-160 295h217l94 -174l99 174h205l-160 -295h-295z" />
    <glyph glyph-name="scaron" unicode="&#x161;" horiz-adv-x="909" 
d="M47 360h254v-36q0 -73 38.5 -116.5t109.5 -43.5q68 0 105.5 33t37.5 98q0 49 -27 76.5t-76 48.5l-198 72q-119 42 -177.5 117t-58.5 190q0 70 23.5 128t70.5 104.5t127 72.5t185 26q189 0 283 -80.5t94 -232.5v-45h-254q0 87 -28.5 126.5t-96.5 39.5q-57 0 -95 -31
t-38 -88q0 -44 27.5 -75.5t95.5 -53.5l169 -57q132 -44 188 -117t56 -199q0 -168 -112 -257t-297 -89q-117 0 -197.5 24t-125.5 72t-64 109.5t-19 145.5v38zM309 1233l-159 295h217l94 -174l98 174h205l-160 -295h-295z" />
    <glyph glyph-name="Tcommaaccent" unicode="&#x162;" 
d="M25 1462h933v-241h-319v-1221h-295v1221h-319v241zM379 -102h229v-199q0 -54 -12.5 -93t-29.5 -60.5t-47 -35.5t-51.5 -18.5t-57.5 -9.5v74q37 11 54.5 33t18.5 67h-104v242z" />
    <glyph glyph-name="tcommaaccent" unicode="&#x163;" horiz-adv-x="606" 
d="M156 1102v315h282v-315h164v-193h-164v-596q0 -68 20.5 -94t80.5 -26q27 0 63 4v-197q-126 -12 -184 -12q-84 0 -134.5 13.5t-79.5 50t-38.5 88t-9.5 139.5v630h-144v193h144zM283 -102h229v-199q0 -54 -12.5 -93t-29.5 -60.5t-47 -35.5t-52 -18.5t-58 -9.5v74
q37 11 55 33t19 67h-104v242z" />
    <glyph glyph-name="Tcaron" unicode="&#x164;" 
d="M25 1462h933v-241h-319v-1221h-295v1221h-319v241zM346 1548l-160 295h217l95 -174l98 174h205l-160 -295h-295z" />
    <glyph glyph-name="tcaron" unicode="&#x165;" horiz-adv-x="839" 
d="M588 1167l67 295h246l-129 -295h-184zM156 1102v315h282v-315h164v-193h-164v-596q0 -68 20.5 -94t80.5 -26q27 0 63 4v-197q-126 -12 -184 -12q-84 0 -134.5 13.5t-79.5 50t-38.5 88t-9.5 139.5v630h-144v193h144z" />
    <glyph glyph-name="Tbar" unicode="&#x166;" 
d="M25 1462h933v-241h-319v-267h221v-125h-221v-829h-295v829h-221v125h221v267h-319v241z" />
    <glyph glyph-name="tbar" unicode="&#x167;" horiz-adv-x="606" 
d="M156 1102v315h282v-315h164v-193h-164v-200h183v-125h-183v-271q0 -68 20.5 -94t80.5 -26q27 0 63 4v-197q-126 -12 -184 -12q-84 0 -134.5 13.5t-79.5 50t-38.5 88t-9.5 139.5v305h-166v125h166v200h-144v193h144z" />
    <glyph glyph-name="Utilde" unicode="&#x168;" horiz-adv-x="1101" 
d="M84 1462h295v-1020q0 -121 37.5 -187.5t134.5 -66.5t134.5 66.5t37.5 187.5v1020h295v-1020q0 -108 -26 -191t-69 -135t-104.5 -85.5t-126.5 -46.5t-141 -13q-78 0 -141.5 11t-126 42.5t-105 82.5t-68.5 136t-26 199v1020zM379 1567h-143q36 254 190 254q54 0 88 -15
l98 -43q30 -12 62 -12q26 0 41.5 24.5t15.5 49.5h148q-11 -112 -62.5 -183t-128.5 -71q-46 0 -130 34.5t-114 34.5q-50 0 -65 -73z" />
    <glyph glyph-name="utilde" unicode="&#x169;" horiz-adv-x="1024" 
d="M659 0v129h-4q-86 -158 -280 -158q-281 0 -281 314v817h283v-760q0 -84 28.5 -119t92.5 -35q149 0 149 183v731h283v-1102h-271zM334 1251h-144q17 123 65.5 188.5t125.5 65.5q56 0 88 -14l98 -43q30 -12 62 -12q27 0 42 24t15 49h148q-11 -112 -62.5 -183t-128.5 -71
q-45 0 -129 35t-115 35q-50 0 -65 -74z" />
    <glyph glyph-name="Umacron" unicode="&#x16a;" horiz-adv-x="1101" 
d="M84 1462h295v-1020q0 -121 37.5 -187.5t134.5 -66.5t134.5 66.5t37.5 187.5v1020h295v-1020q0 -108 -26 -191t-69 -135t-104.5 -85.5t-126.5 -46.5t-141 -13q-78 0 -141.5 11t-126 42.5t-105 82.5t-68.5 136t-26 199v1020zM252 1774h602v-156h-602v156z" />
    <glyph glyph-name="umacron" unicode="&#x16b;" horiz-adv-x="1024" 
d="M659 0v129h-4q-86 -158 -280 -158q-281 0 -281 314v817h283v-760q0 -84 28.5 -119t92.5 -35q149 0 149 183v731h283v-1102h-271zM211 1458h602v-155h-602v155z" />
    <glyph glyph-name="Ubreve" unicode="&#x16c;" horiz-adv-x="1101" 
d="M84 1462h295v-1020q0 -121 37.5 -187.5t134.5 -66.5t134.5 66.5t37.5 187.5v1020h295v-1020q0 -108 -26 -191t-69 -135t-104.5 -85.5t-126.5 -46.5t-141 -13q-78 0 -141.5 11t-126 42.5t-105 82.5t-68.5 136t-26 199v1020zM268 1841h133q6 -59 48.5 -96t103.5 -37
t103.5 37t48.5 96h133q0 -35 -8.5 -72t-29.5 -76.5t-52 -70t-81.5 -50.5t-113.5 -20t-114 20t-82 50.5t-52 70t-29 76.5t-8 72z" />
    <glyph glyph-name="ubreve" unicode="&#x16d;" horiz-adv-x="1024" 
d="M659 0v129h-4q-86 -158 -280 -158q-281 0 -281 314v817h283v-760q0 -84 28.5 -119t92.5 -35q149 0 149 183v731h283v-1102h-271zM229 1526h133q6 -59 48.5 -96t103.5 -37t103.5 37t48.5 96h133q0 -35 -8.5 -72t-29.5 -76.5t-52 -70t-81.5 -50.5t-113.5 -20t-114 20
t-82 50.5t-52 70t-29 76.5t-8 72z" />
    <glyph glyph-name="Uring" unicode="&#x16e;" horiz-adv-x="1101" 
d="M84 1462h295v-1020q0 -121 37.5 -187.5t134.5 -66.5t134.5 66.5t37.5 187.5v1020h295v-1020q0 -108 -26 -191t-69 -135t-104.5 -85.5t-126.5 -46.5t-141 -13q-78 0 -141.5 11t-126 42.5t-105 82.5t-68.5 136t-26 199v1020zM436 1729q0 -49 34 -83t83 -34t83 34t34 83
t-33.5 82.5t-83.5 33.5t-83.5 -33.5t-33.5 -82.5zM322 1729q0 98 67 161.5t164 63.5t164 -63.5t67 -161.5q0 -99 -66.5 -160.5t-164.5 -61.5q-100 0 -165.5 61t-65.5 161z" />
    <glyph glyph-name="uring" unicode="&#x16f;" horiz-adv-x="1024" 
d="M659 0v129h-4q-86 -158 -280 -158q-281 0 -281 314v817h283v-760q0 -84 28.5 -119t92.5 -35q149 0 149 183v731h283v-1102h-271zM395 1413q0 -49 33.5 -83t83.5 -34t83.5 34t33.5 83t-33.5 83t-83.5 34t-83.5 -34t-33.5 -83zM281 1413q0 98 67 161.5t164 63.5t164 -63.5
t67 -161.5q0 -99 -66.5 -160t-164.5 -61q-100 0 -165.5 60.5t-65.5 160.5z" />
    <glyph glyph-name="Uhungarumlaut" unicode="&#x170;" horiz-adv-x="1101" 
d="M84 1462h295v-1020q0 -121 37.5 -187.5t134.5 -66.5t134.5 66.5t37.5 187.5v1020h295v-1020q0 -108 -26 -191t-69 -135t-104.5 -85.5t-126.5 -46.5t-141 -13q-78 0 -141.5 11t-126 42.5t-105 82.5t-68.5 136t-26 199v1020zM623 1548l110 295h283l-201 -295h-192z
M283 1548l110 295h283l-201 -295h-192z" />
    <glyph glyph-name="uhungarumlaut" unicode="&#x171;" horiz-adv-x="1024" 
d="M659 0v129h-4q-86 -158 -280 -158q-281 0 -281 314v817h283v-760q0 -84 28.5 -119t92.5 -35q149 0 149 183v731h283v-1102h-271zM571 1233l111 295h283l-201 -295h-193zM231 1233l111 295h283l-201 -295h-193z" />
    <glyph glyph-name="Uogonek" unicode="&#x172;" horiz-adv-x="1101" 
d="M692 -272l62 -101q-56 -40 -108 -55.5t-126 -15.5q-57 0 -97.5 14.5t-61 39t-29 50.5t-8.5 57q0 78 67 154q45 54 127 100q-68 3 -141 19q-135 30 -214 138.5t-79 313.5v1020h295v-1020q0 -121 37.5 -187.5t134.5 -66.5t134.5 66.5t37.5 187.5v1020h295v-1020
q0 -196 -79.5 -305.5t-213.5 -142.5l-35 -8q-45 -35 -82 -68q-57 -54 -79.5 -92t-22.5 -76q0 -30 15 -46.5t42 -16.5q60 0 129 41z" />
    <glyph glyph-name="uogonek" unicode="&#x173;" horiz-adv-x="1024" 
d="M659 0v129h-4q-86 -158 -280 -158q-281 0 -281 314v817h283v-760q0 -84 28.5 -119t92.5 -35q149 0 149 183v731h283v-1102h-131q-104 -93 -140 -156q-19 -34 -24.5 -54t-5.5 -52q0 -23 14 -37t37 -14q53 0 117 41l55 -101q-53 -41 -98.5 -56t-112.5 -15q-97 0 -136.5 47
t-39.5 114q0 141 194 283z" />
    <glyph glyph-name="Wcircumflex" unicode="&#x174;" horiz-adv-x="1556" 
d="M283 0l-267 1462h283l162 -1081h4l172 1081h283l172 -1081h4l161 1081h283l-266 -1462h-330l-164 1061h-4l-164 -1061h-329zM471 1548l160 295h295l159 -295h-217l-94 174l-98 -174h-205z" />
    <glyph glyph-name="wcircumflex" unicode="&#x175;" horiz-adv-x="1441" 
d="M254 0l-240 1102h283l129 -783h4l137 783h307l146 -783h4l133 783h270l-237 -1102h-322l-145 782h-4l-137 -782h-328zM416 1233l159 295h295l160 -295h-217l-94 174l-98 -174h-205z" />
    <glyph glyph-name="Ycircumflex" unicode="&#x176;" horiz-adv-x="1064" 
d="M6 1462h332l192 -565h5l204 565h320l-379 -887v-575h-295v575zM231 1548l160 295h295l160 -295h-217l-94 174l-99 -174h-205z" />
    <glyph glyph-name="ycircumflex" unicode="&#x177;" horiz-adv-x="909" 
d="M94 -360v210q37 -6 74 -6q75 0 110 39.5t41 116.5l-309 1102h295l164 -762h4l143 762h283l-266 -1028q-26 -100 -47 -165t-48.5 -116.5t-54.5 -79t-69.5 -45t-88.5 -23t-116 -5.5h-115zM164 1233l160 295h294l160 -295h-217l-94 174l-98 -174h-205z" />
    <glyph glyph-name="Ydieresis" unicode="&#x178;" horiz-adv-x="1064" 
d="M6 1462h332l192 -565h5l204 565h320l-379 -887v-575h-295v575zM594 1575v242h229v-242h-229zM242 1575v242h229v-242h-229z" />
    <glyph glyph-name="Zacute" unicode="&#x179;" horiz-adv-x="985" 
d="M49 0v215l539 1006h-502v241h842v-223l-547 -997h555v-242h-887zM393 1548l111 295h282l-200 -295h-193z" />
    <glyph glyph-name="zacute" unicode="&#x17a;" horiz-adv-x="872" 
d="M49 0v217l440 655h-419v230h753v-217l-440 -656h440v-229h-774zM344 1233l111 295h282l-200 -295h-193z" />
    <glyph glyph-name="Zdotaccent" unicode="&#x17b;" horiz-adv-x="985" 
d="M49 0v215l539 1006h-502v241h842v-223l-547 -997h555v-242h-887zM391 1817h230v-242h-230v242z" />
    <glyph glyph-name="zdotaccent" unicode="&#x17c;" horiz-adv-x="872" 
d="M49 0v217l440 655h-419v230h753v-217l-440 -656h440v-229h-774zM332 1501h229v-241h-229v241z" />
    <glyph glyph-name="Zcaron" unicode="&#x17d;" horiz-adv-x="985" 
d="M49 0v215l539 1006h-502v241h842v-223l-547 -997h555v-242h-887zM369 1552l-160 295h217l94 -174l98 174h205l-159 -295h-295z" />
    <glyph glyph-name="zcaron" unicode="&#x17e;" horiz-adv-x="872" 
d="M49 0v217l440 655h-419v230h753v-217l-440 -656h440v-229h-774zM301 1233l-160 295h217l95 -174l98 174h205l-160 -295h-295z" />
    <glyph glyph-name="florin" unicode="&#x192;" 
d="M131 709l33 168h215l35 182q42 221 130.5 312t274.5 91q107 0 154 -6l-39 -192q-23 6 -57 6q-50 0 -80.5 -10.5t-52.5 -41.5t-35 -72.5t-29 -119.5l-31 -149h225l-30 -168h-228l-133 -701q-17 -94 -42 -156.5t-70 -113t-117.5 -74.5t-177.5 -24t-148 14l41 186
q31 -8 72 -8q85 0 119 43t55 158l131 676h-215z" />
    <glyph glyph-name="Scommaaccent" unicode="&#x218;" horiz-adv-x="1062" 
d="M45 457h295v-43q0 -112 42.5 -169t152.5 -57q73 0 124.5 47t51.5 134q0 96 -55.5 147t-206.5 102q-203 68 -293 167.5t-90 275.5q0 212 118.5 321t333.5 109q101 0 182 -22.5t142.5 -68.5t95 -122.5t33.5 -179.5v-41h-283q0 108 -38 162.5t-122 54.5q-168 0 -168 -170
q0 -72 31.5 -117.5t120.5 -81.5l227 -98q160 -71 219.5 -158.5t59.5 -228.5q0 -227 -131.5 -338t-376.5 -111q-243 0 -354 108t-111 318v60zM406 -102h229v-199q0 -54 -12.5 -93t-29.5 -60.5t-47 -35.5t-52 -18.5t-58 -9.5v74q37 11 55 33t19 67h-104v242z" />
    <glyph glyph-name="scommaaccent" unicode="&#x219;" horiz-adv-x="909" 
d="M47 360h254v-36q0 -73 38.5 -116.5t109.5 -43.5q68 0 105.5 33t37.5 98q0 49 -27 76.5t-76 48.5l-198 72q-119 42 -177.5 117t-58.5 190q0 70 23.5 128t70.5 104.5t127 72.5t185 26q189 0 283 -80.5t94 -232.5v-45h-254q0 87 -28.5 126.5t-96.5 39.5q-57 0 -95 -31
t-38 -88q0 -44 27.5 -75.5t95.5 -53.5l169 -57q132 -44 188 -117t56 -199q0 -168 -112 -257t-297 -89q-117 0 -197.5 24t-125.5 72t-64 109.5t-19 145.5v38zM340 -102h229v-199q0 -54 -12.5 -93t-29.5 -60.5t-47 -35.5t-51.5 -18.5t-57.5 -9.5v74q37 11 54.5 33t18.5 67
h-104v242z" />
    <glyph glyph-name="uni021A" unicode="&#x21a;" 
d="M25 1462h933v-241h-319v-1221h-295v1221h-319v241zM379 -102h229v-199q0 -54 -12.5 -93t-29.5 -60.5t-47 -35.5t-51.5 -18.5t-57.5 -9.5v74q37 11 54.5 33t18.5 67h-104v242z" />
    <glyph glyph-name="uni021B" unicode="&#x21b;" horiz-adv-x="606" 
d="M156 1102v315h282v-315h164v-193h-164v-596q0 -68 20.5 -94t80.5 -26q27 0 63 4v-197q-126 -12 -184 -12q-84 0 -134.5 13.5t-79.5 50t-38.5 88t-9.5 139.5v630h-144v193h144zM283 -102h229v-199q0 -54 -12.5 -93t-29.5 -60.5t-47 -35.5t-52 -18.5t-58 -9.5v74
q37 11 55 33t19 67h-104v242z" />
    <glyph glyph-name="circumflex" unicode="&#x2c6;" horiz-adv-x="454" 
d="M-80 1233l160 295h295l160 -295h-218l-94 174l-98 -174h-205z" />
    <glyph glyph-name="caron" unicode="&#x2c7;" horiz-adv-x="454" 
d="M80 1233l-160 295h217l94 -174l99 174h205l-160 -295h-295z" />
    <glyph glyph-name="uni02C9" unicode="&#x2c9;" horiz-adv-x="454" 
d="M-74 1458h602v-155h-602v155z" />
    <glyph glyph-name="breve" unicode="&#x2d8;" horiz-adv-x="454" 
d="M-57 1526h133q6 -60 48 -96.5t103 -36.5t103.5 37t48.5 96h133q0 -35 -8.5 -72t-29.5 -76.5t-52 -70t-81.5 -50.5t-113.5 -20q-78 0 -136.5 29t-89 75.5t-44.5 93t-14 91.5z" />
    <glyph glyph-name="dotaccent" unicode="&#x2d9;" horiz-adv-x="454" 
d="M113 1501h229v-241h-229v241z" />
    <glyph glyph-name="ring" unicode="&#x2da;" horiz-adv-x="454" 
d="M111 1413q0 -50 33.5 -83.5t82.5 -33.5t83 34t34 83t-34 83t-83 34t-82.5 -33.5t-33.5 -83.5zM-4 1413q0 98 67 161.5t164 63.5t164.5 -63.5t67.5 -161.5q0 -99 -67 -160t-165 -61q-100 0 -165.5 60.5t-65.5 160.5z" />
    <glyph glyph-name="ogonek" unicode="&#x2db;" horiz-adv-x="454" 
d="M418 -272l61 -101q-56 -40 -107.5 -55.5t-125.5 -15.5q-57 0 -97.5 14.5t-61 39t-29.5 50.5t-9 57q0 76 68 152.5t184 130.5h137q-120 -87 -163.5 -143t-43.5 -107q0 -30 15.5 -46.5t42.5 -16.5q60 0 129 41z" />
    <glyph glyph-name="tilde" unicode="&#x2dc;" horiz-adv-x="454" 
d="M49 1251h-143q36 254 190 254q56 0 88 -14l99 -43q30 -12 61 -12q27 0 42 24t15 49h148q-11 -112 -62.5 -183t-128.5 -71q-46 0 -129 35t-114 35q-51 0 -66 -74z" />
    <glyph glyph-name="hungarumlaut" unicode="&#x2dd;" horiz-adv-x="454" 
d="M264 1233l111 295h282l-200 -295h-193zM-76 1233l111 295h282l-200 -295h-193z" />
    <glyph glyph-name="uni0394" unicode="&#x394;" horiz-adv-x="1411" 
d="M1395 0h-1377l547 1458h250zM1057 223l-369 957l-344 -957h713z" />
    <glyph glyph-name="uni03A9" unicode="&#x3a9;" horiz-adv-x="1558" 
d="M1440 0h-570v393q153 36 233.5 147.5t80.5 272.5q0 184 -116 311t-298 127q-184 0 -301 -127.5t-117 -312.5q0 -161 79.5 -270t232.5 -148v-393h-568v209h369v80q-120 35 -205 116.5t-125.5 189.5t-40.5 234q0 186 90.5 335.5t244.5 231t339 81.5q187 0 339.5 -79
t242.5 -226.5t90 -335.5q0 -126 -39.5 -236t-125.5 -194.5t-208 -116.5v-80h373v-209z" />
    <glyph glyph-name="uni03BC" unicode="&#x3bc;" horiz-adv-x="1024" 
d="M647 371v731h283v-1102h-271v129h-4q-42 -77 -102 -117.5t-115 -40.5q-31 0 -61 17v-348h-283v1462h283v-760q0 -84 28.5 -119t92.5 -35q149 0 149 183z" />
    <glyph glyph-name="pi" unicode="&#x3c0;" horiz-adv-x="1222" 
d="M1176 29q-95 -45 -181 -45q-67 0 -111.5 19.5t-67.5 58.5t-31.5 84.5t-8.5 109.5v520h-401v-776h-230v776h-143v217h1167v-217h-161v-467v-37.5t4 -33t11.5 -32.5t23 -19t38.5 -9q35 0 91 23v-172z" />
    <glyph glyph-name="endash" unicode="&#x2013;" horiz-adv-x="1024" 
d="M0 477v230h1024v-230h-1024z" />
    <glyph glyph-name="emdash" unicode="&#x2014;" horiz-adv-x="2048" 
d="M0 477v230h2048v-230h-2048z" />
    <glyph glyph-name="quoteleft" unicode="&#x2018;" horiz-adv-x="532" 
d="M131 805v266q0 88 11.5 151.5t41 116.5t83.5 84t134 39v-143q-51 -10 -78.5 -55.5t-27.5 -106.5v-33h106v-319h-270z" />
    <glyph glyph-name="quoteright" unicode="&#x2019;" horiz-adv-x="532" 
d="M401 1462v-266q0 -88 -11.5 -151.5t-41 -116.5t-83.5 -84t-134 -39v143q52 10 79.5 55.5t27.5 106.5v33h-107v319h270z" />
    <glyph glyph-name="quotesinglbase" unicode="&#x201a;" horiz-adv-x="532" 
d="M131 319h270v-266q0 -88 -11.5 -151.5t-41 -116.5t-83.5 -84t-134 -39v143q52 10 79.5 55.5t27.5 106.5v33h-107v319z" />
    <glyph glyph-name="quotedblleft" unicode="&#x201c;" horiz-adv-x="948" 
d="M139 805v266q0 87 12 151t41 117t83.5 84t134.5 39v-143q-52 -10 -79.5 -55.5t-27.5 -106.5v-33h107v-319h-271zM539 805v266q0 88 11.5 151.5t41 116.5t83.5 84t134 39v-143q-52 -10 -79.5 -55.5t-27.5 -106.5v-33h107v-319h-270z" />
    <glyph glyph-name="quotedblright" unicode="&#x201d;" horiz-adv-x="948" 
d="M539 1143v319h270v-266q0 -88 -11.5 -151.5t-41 -116.5t-83.5 -84t-134 -39v143q51 10 78.5 55.5t27.5 106.5v33h-106zM139 1143v319h271v-266q0 -87 -12 -151t-41 -117t-83.5 -84t-134.5 -39v143q52 10 79.5 55.5t27.5 106.5v33h-107z" />
    <glyph glyph-name="quotedblbase" unicode="&#x201e;" horiz-adv-x="948" 
d="M139 0v319h271v-266q0 -87 -12 -151t-41 -117t-83.5 -84t-134.5 -39v143q52 10 79.5 55.5t27.5 106.5v33h-107zM539 0v319h270v-266q0 -88 -11.5 -151.5t-41 -116.5t-83.5 -84t-134 -39v143q51 10 78.5 55.5t27.5 106.5v33h-106z" />
    <glyph glyph-name="dagger" unicode="&#x2020;" 
d="M350 1057v405h283v-405h344v-230h-344v-1110h-283v1110h-344v230h344z" />
    <glyph glyph-name="daggerdbl" unicode="&#x2021;" 
d="M350 -283v389h-344v230h344v508h-344v229h344v389h283v-389h344v-229h-344v-508h344v-230h-344v-389h-283z" />
    <glyph glyph-name="bullet" unicode="&#x2022;" horiz-adv-x="1024" 
d="M147 731q0 152 106.5 258.5t258.5 106.5t258.5 -106.5t106.5 -258.5t-106.5 -258t-258.5 -106t-258.5 106t-106.5 258z" />
    <glyph glyph-name="ellipsis" unicode="&#x2026;" horiz-adv-x="2048" 
d="M1571 319h270v-319h-270v319zM889 319h270v-319h-270v319zM207 319h270v-319h-270v319z" />
    <glyph glyph-name="perthousand" unicode="&#x2030;" horiz-adv-x="2238" 
d="M262 -63l832 1548h182l-832 -1548h-182zM1094 371q0 -69 2.5 -108.5t11.5 -73.5t27.5 -48t48.5 -14t48.5 14t27.5 48t11.5 73.5t2.5 108.5q0 124 -16.5 175.5t-73.5 51.5t-73.5 -51.5t-16.5 -175.5zM877 362q0 105 12.5 173.5t45.5 120.5t94 75t155 23t155 -23t94 -75
t45.5 -120.5t12.5 -173.5t-12.5 -173.5t-45.5 -120t-94 -74.5t-155 -23t-155 23t-94 74.5t-45.5 120t-12.5 173.5zM272 1067q0 -69 2.5 -108.5t11.5 -73.5t27.5 -48t48.5 -14t48.5 14t27.5 48t12 73.5t3 108.5q0 123 -17 175t-74 52t-73.5 -51.5t-16.5 -175.5zM55 1059
q0 105 12.5 173.5t45.5 120t94 74.5t155 23t155 -23t94.5 -74.5t46 -120t12.5 -173.5t-12.5 -173.5t-46 -120t-94.5 -74.5t-155 -23t-155 23t-94 74.5t-45.5 120t-12.5 173.5zM1569 362q0 105 12.5 173.5t45.5 120.5t94 75t155 23t155 -23t94 -75t45.5 -120.5t12.5 -173.5
t-12.5 -173.5t-45.5 -120t-94 -74.5t-155 -23t-155 23t-94 74.5t-45.5 120t-12.5 173.5zM1786 371q0 -69 2.5 -108.5t11.5 -73.5t27.5 -48t48.5 -14t48.5 14t27.5 48t11.5 73.5t2.5 108.5q0 124 -16.5 175.5t-73.5 51.5t-73.5 -51.5t-16.5 -175.5z" />
    <glyph glyph-name="guilsinglleft" unicode="&#x2039;" horiz-adv-x="493" 
d="M94 426v332l305 246v-271l-161 -141l161 -141v-271z" />
    <glyph glyph-name="guilsinglright" unicode="&#x203a;" horiz-adv-x="493" 
d="M94 180v271l162 141l-162 141v271l305 -246v-332z" />
    <glyph glyph-name="fraction" unicode="&#x2044;" horiz-adv-x="342" 
d="M-336 -63l832 1548h182l-832 -1548h-182z" />
    <glyph glyph-name="Euro" unicode="&#x20ac;" 
d="M981 1354l-94 -205q-98 104 -203 104q-117 0 -160 -100q-26 -59 -35 -201h345l-60 -159h-291v-105h271l-60 -160h-207q6 -160 27 -221q40 -125 156 -125q109 0 264 137v-256q-157 -92 -309 -92q-415 0 -430 557h-142l60 160h77l3 105h-140l62 159h84q43 504 467 504
q183 0 315 -102z" />
    <glyph glyph-name="afii61289" unicode="&#x2113;" horiz-adv-x="1024" 
d="M920 104q-154 -133 -338 -133q-151 0 -237.5 81t-86.5 214v109l-115 -105h-4l-92 144l209 174v493q0 172 99.5 284t252.5 112q133 0 215 -83t82 -218q0 -154 -95 -305.5t-292 -323.5v-240q0 -76 37.5 -109.5t91.5 -33.5q82 0 180 76h4zM690 1161q0 61 -23 101.5t-59 40.5
q-38 0 -64 -48t-26 -125v-362q172 186 172 393z" />
    <glyph glyph-name="trademark" unicode="&#x2122;" horiz-adv-x="2027" 
d="M293 614v656h-230v192h689v-192h-230v-656h-229zM1724 614v582h-4l-194 -582h-205l-195 582h-4v-582h-217v848h346l170 -512h4l170 512h347v-848h-218z" />
    <glyph glyph-name="Omega" unicode="&#x2126;" horiz-adv-x="1558" 
d="M1440 0h-570v393q153 36 233.5 147.5t80.5 272.5q0 184 -116 311t-298 127q-184 0 -301 -127.5t-117 -312.5q0 -161 79.5 -270t232.5 -148v-393h-568v209h369v80q-120 35 -205 116.5t-125.5 189.5t-40.5 234q0 186 90.5 335.5t244.5 231t339 81.5q187 0 339.5 -79
t242.5 -226.5t90 -335.5q0 -126 -39.5 -236t-125.5 -194.5t-208 -116.5v-80h373v-209z" />
    <glyph glyph-name="estimated" unicode="&#x212e;" horiz-adv-x="1228" 
d="M1149 530h-827v-370q121 -121 296 -121q128 0 224 59t172 187l71 -43q-95 -148 -201.5 -212.5t-265.5 -64.5q-157 0 -278.5 75.5t-185.5 203.5t-64 286q0 159 64 287t185.5 203.5t278.5 75.5q235 0 382 -158t149 -408zM322 604h596v297q-129 123 -302 123
q-171 0 -294 -123v-297z" />
    <glyph glyph-name="partialdiff" unicode="&#x2202;" horiz-adv-x="1146" 
d="M1061 735q0 -114 -12.5 -214.5t-48.5 -204t-92.5 -177t-151.5 -120t-219 -46.5q-203 0 -329 132t-126 337q0 197 124 326t320 129q155 0 289 -109l2 54q1 60 -7.5 120t-31 120.5t-57 106t-88.5 74.5t-121 29q-120 0 -248 -102l-127 147q94 72 176.5 106t188.5 34
q123 0 220.5 -43.5t160 -114.5t103.5 -168.5t58 -200t17 -215.5zM813 543l-2 49q-111 127 -250 127q-120 0 -183 -82.5t-63 -206.5q0 -117 58.5 -196.5t171.5 -79.5q69 0 123.5 38t85 97t46 125t13.5 129z" />
    <glyph glyph-name="Delta" unicode="&#x2206;" horiz-adv-x="1411" 
d="M1395 0h-1377l547 1458h250zM1057 223l-369 957l-344 -957h713z" />
    <glyph glyph-name="product" unicode="&#x220f;" horiz-adv-x="1521" 
d="M1399 -438h-244v1824h-788v-1824h-244v2048h1276v-2048z" />
    <glyph glyph-name="summation" unicode="&#x2211;" horiz-adv-x="1339" 
d="M1288 -438h-1237v194l617 842l-590 819v193h1186v-224h-863l557 -786l-593 -815h923v-223z" />
    <glyph glyph-name="minus" unicode="&#x2212;" horiz-adv-x="1228" 
d="M96 391v254h1037v-254h-1037z" />
    <glyph glyph-name="uni2215" unicode="&#x2215;" horiz-adv-x="342" 
d="M-336 -63l832 1548h182l-832 -1548h-182z" />
    <glyph glyph-name="uni2219" unicode="&#x2219;" horiz-adv-x="491" 
d="M47 578q0 85 57 141.5t142 56.5t141.5 -56.5t56.5 -141.5t-56.5 -142t-141.5 -57t-142 57t-57 142z" />
    <glyph glyph-name="radical" unicode="&#x221a;" horiz-adv-x="1116" 
d="M1141 1610l-436 -2048h-226l-309 641l-104 -49l-91 190l318 145l258 -550l340 1671h250z" />
    <glyph glyph-name="infinity" unicode="&#x221e;" horiz-adv-x="1685" 
d="M1593 543q0 -164 -96 -273.5t-258 -109.5q-61 0 -117 18t-106 53t-88.5 71.5t-83.5 88.5q-37 -39 -49.5 -52t-46 -45t-51.5 -44.5t-51 -34t-59.5 -30t-62 -16t-73.5 -7.5q-163 0 -261 107t-98 270q0 162 95 268t255 106q65 0 122.5 -18.5t107.5 -55.5t88.5 -75.5
t83.5 -93.5q45 55 82.5 93t87.5 76t107 57t120 19q161 0 256.5 -105t95.5 -267zM1401 537q0 74 -45.5 124t-118.5 50q-38 0 -76 -16t-75.5 -47t-62 -55.5t-56.5 -60.5q67 -75 133.5 -120t142.5 -45q73 0 115.5 48.5t42.5 121.5zM721 532q-163 177 -279 177q-69 0 -112 -51.5
t-43 -122.5q0 -74 44 -120t118 -46q130 0 272 163z" />
    <glyph glyph-name="integral" unicode="&#x222b;" horiz-adv-x="1257" 
d="M1010 1450q0 -46 -32 -79.5t-79 -33.5q-36 0 -60 16t-34.5 39t-18 46t-17 39t-24.5 16q-36 0 -36 -57q0 -49 4 -148.5t4 -148.5l2 -963v-57q-1 -51 0.5 -104.5t-5 -108t-16.5 -105t-33 -94t-54.5 -76t-82.5 -51t-116 -18.5q-52 0 -102.5 15.5t-90 54t-39.5 92.5
q0 47 32.5 77.5t78.5 30.5q36 0 60 -16t34 -39t16.5 -46t16 -39t24.5 -16q37 0 37 68q0 38 -4 114t-4 115l-2 1084q0 9 -0.5 54t0 61.5t2 59t5 64.5t10 58t15.5 59.5t23.5 50.5t32.5 47q87 97 225 97q52 0 101.5 -15t88 -52.5t38.5 -90.5z" />
    <glyph glyph-name="approxequal" unicode="&#x2248;" horiz-adv-x="1214" 
d="M1161 936q-7 -75 -27.5 -137t-57 -114t-96.5 -81t-138 -29q-64 0 -164.5 34t-195.5 68t-146 34q-53 0 -86 -39.5t-41 -96.5h-154q5 71 25.5 133t56.5 114t94.5 82t133.5 30q69 0 166 -32t192.5 -64.5t159.5 -32.5q55 0 86 36.5t41 94.5h151zM1157 500
q-7 -74 -26.5 -135.5t-55 -114t-93.5 -82t-134 -29.5q-67 0 -171.5 34.5t-200.5 68.5t-144 34q-52 0 -85.5 -41t-41.5 -96h-154q5 71 25.5 133.5t56.5 115t94.5 83.5t132.5 31q57 0 129.5 -20.5t131 -45t131 -45t129.5 -20.5q54 0 84.5 35.5t40.5 93.5h151z" />
    <glyph glyph-name="notequal" unicode="&#x2260;" horiz-adv-x="1214" 
d="M1145 193h-586l-160 -318l-200 102l106 216h-235v231h354l115 229h-469v232h585l160 313l203 -100l-109 -213h236v-232h-352l-115 -229h467v-231z" />
    <glyph glyph-name="lessequal" unicode="&#x2264;" horiz-adv-x="1214" 
d="M1145 217l-1075 348v232l1075 356v-242l-758 -229l758 -223v-242zM1145 -78h-1075v232h1075v-232z" />
    <glyph glyph-name="greaterequal" unicode="&#x2265;" horiz-adv-x="1214" 
d="M1145 565l-1075 -348v242l757 223l-757 229v242l1075 -356v-232zM1145 -78h-1075v232h1075v-232z" />
    <glyph glyph-name="lozenge" unicode="&#x25ca;" horiz-adv-x="1214" 
d="M1081 729l-368 -801h-215l-365 801l367 801h213zM846 729l-240 571l-237 -571l237 -573z" />
    <glyph glyph-name="commaaccent" unicode="&#xf004;" horiz-adv-x="491" 
d="M135 -102h230v-199q0 -54 -12.5 -93t-29.5 -60.5t-47 -35.5t-52 -18.5t-58 -9.5v74q37 11 55 33t19 67h-105v242z" />
    <glyph glyph-name="commaaccent" unicode="&#xf6c3;" horiz-adv-x="491" 
d="M135 -102h230v-199q0 -54 -12.5 -93t-29.5 -60.5t-47 -35.5t-52 -18.5t-58 -9.5v74q37 11 55 33t19 67h-105v242z" />
    <glyph glyph-name="dotlessj" unicode="&#xf6be;" horiz-adv-x="491" 
d="M104 20v1082h283v-1178q0 -147 -71 -215.5t-253 -68.5q-32 0 -114 4v204q12 -4 22 -4h23q71 0 90.5 37.5t19.5 138.5z" />
    <glyph glyph-name="dotlessj" unicode="&#xfb0f;" horiz-adv-x="491" 
d="M104 20v1082h283v-1178q0 -147 -71 -215.5t-253 -68.5q-32 0 -114 4v204q12 -4 22 -4h23q71 0 90.5 37.5t19.5 138.5z" />
    <glyph glyph-name="uniF8FF" unicode="&#xf8ff;" horiz-adv-x="1048" 
d="M455 240h114v137h-114v-137zM461 479h94q0 107 12 148q11 38 88 106q75 69 102 123t27 123q0 120 -72 194t-182 74q-115 0 -189 -69.5t-87 -210.5l102 -17q11 100 56 147.5t112 47.5q64 0 110 -50.5t46 -123.5q0 -41 -19.5 -75.5t-82.5 -94.5q-67 -67 -95 -121
q-26 -51 -26 -166zM946 102h-844v1264h844v-1264zM1049 1470h-1049v-1470h1049v1470z" />
    <glyph glyph-name="commaaccent.alt" horiz-adv-x="491" 
d="M358 1221h-229v198q0 54 12.5 93t29.5 60.5t47 35.5t52 18.5t58 9.5v-73q-37 -11 -55 -33.5t-19 -67.5h104v-241z" />
    <glyph glyph-name="caron.alt" horiz-adv-x="454" 
d="M94 1167l68 295h246l-129 -295h-185z" />
    <glyph glyph-name="grave.cap" horiz-adv-x="454" 
d="M360 1548h-192l-201 295h283z" />
    <glyph glyph-name="acute.cap" horiz-adv-x="454" 
d="M94 1548l111 295h282l-200 -295h-193z" />
    <glyph glyph-name="circumflex.cap" horiz-adv-x="454" 
d="M-80 1548l160 295h295l160 -295h-218l-94 174l-98 -174h-205z" />
    <glyph glyph-name="caron.cap" horiz-adv-x="454" 
d="M80 1548l-160 295h217l94 -174l99 174h205l-160 -295h-295z" />
    <glyph glyph-name="tilde.cap" horiz-adv-x="454" 
d="M49 1567h-143q36 254 190 254q54 0 88 -15l99 -43q30 -12 61 -12q26 0 41.5 24.5t15.5 49.5h148q-11 -112 -62.5 -183t-128.5 -71q-46 0 -129.5 34.5t-113.5 34.5q-51 0 -66 -73z" />
    <glyph glyph-name="dieresis.cap" horiz-adv-x="454" 
d="M289 1579v242h229v-242h-229zM-63 1579v242h229v-242h-229z" />
    <glyph glyph-name="macron.cap" horiz-adv-x="454" 
d="M-74 1774h602v-156h-602v156z" />
    <glyph glyph-name="breve.cap" horiz-adv-x="454" 
d="M-57 1841h133q6 -60 48 -96.5t103 -36.5t103.5 37t48.5 96h133q0 -35 -8.5 -72t-29.5 -76.5t-52 -70t-81.5 -50.5t-113.5 -20q-78 0 -136.5 29t-89 75.5t-44.5 93t-14 91.5z" />
    <glyph glyph-name="ring.cap" horiz-adv-x="454" 
d="M111 1729q0 -50 33.5 -83.5t82.5 -33.5t83 34t34 83t-33.5 82.5t-83.5 33.5q-49 0 -82.5 -33.5t-33.5 -82.5zM-4 1729q0 98 67 161.5t164 63.5t164.5 -63.5t67.5 -161.5q0 -99 -67 -160.5t-165 -61.5q-100 0 -165.5 61t-65.5 161z" />
    <glyph glyph-name="hungarumlaut.cap" horiz-adv-x="454" 
d="M264 1548l111 295h282l-200 -295h-193zM-76 1548l111 295h282l-200 -295h-193z" />
    <glyph glyph-name="dotaccent.cap" horiz-adv-x="454" 
d="M113 1698h229v-242h-229v242z" />
    </font>
</defs>
</svg>
