<?xml version="1.0" standalone="no"?>
<!DOCTYPE svg PUBLIC "-//W3C//DTD SVG 1.1//EN" "http://www.w3.org/Graphics/SVG/1.1/DTD/svg11.dtd" >
<svg xmlns="http://www.w3.org/2000/svg">
<metadata>Generated by IcoMoon</metadata>
<defs>
<font id="icomoon" horiz-adv-x="1024">
<font-face units-per-em="1024" ascent="960" descent="-64" />
<missing-glyph horiz-adv-x="1024" />
<glyph unicode="&#x20;" horiz-adv-x="512" d="" />
<glyph unicode="&#xe900;" glyph-name="add_user" d="M613.362 230.648c-37.856 79.418-119.339 128.693-207.254 125.334-170.258 0-238.587-137.905-257.84-302.009h-75.125c24.538 204.8 121.181 377.511 332.965 377.511 103.594 3.471 201.006-49.203 254.82-137.792-18.869-18.561-34.897-39.805-47.566-63.044v0zM406.108 506.986v0c125.096 0 226.507 101.411 226.507 226.507s-101.411 226.507-226.507 226.507c-125.096 0-226.507-101.411-226.507-226.507s101.411-226.507 226.507-226.507zM406.108 884.498c83.398 0 151.005-67.607 151.005-151.005s-67.607-151.005-151.005-151.005c-83.398 0-151.005 67.607-151.005 151.005s67.607 151.005 151.005 151.005zM902.095 82.286h-97.524v-97.524c0-26.965-21.797-48.762-48.762-48.762-26.917 0-48.762 21.797-48.762 48.762v97.524h-97.524c-26.917 0-48.762 21.797-48.762 48.762s21.845 48.762 48.762 48.762h97.524v97.524c0 26.917 21.845 48.762 48.762 48.762 26.965 0 48.762-21.845 48.762-48.762v-97.524h97.524c26.965 0 48.762-21.797 48.762-48.762s-21.797-48.762-48.762-48.762z" />
<glyph unicode="&#xe901;" glyph-name="add" d="M896 320h-256v-256c0-70.784-57.216-128-128-128-70.656 0-128 57.216-128 128v256h-256c-70.656 0-128 57.216-128 128s57.344 128 128 128h256v256c0 70.656 57.344 128 128 128 70.784 0 128-57.344 128-128v-256h256c70.784 0 128-57.216 128-128s-57.216-128-128-128z" />
<glyph unicode="&#xe902;" glyph-name="v" d="M932.585 866.922l-581.725-581.725-264.285 264.471-86.575-86.854 350.86-350.86 668.486 668.393z" />
<glyph unicode="&#xe903;" glyph-name="back" d="M361.685 810.701l-361.685-358.571 360.619-358.528 60.331 60.331-256.469 256.512h857.387v89.6h-850.133l250.325 250.283z" />
<glyph unicode="&#xe904;" glyph-name="calendar" d="M938.667-64h-853.333c-47.128 0-85.333 38.205-85.333 85.333v768c0 47.128 38.205 85.333 85.333 85.333h85.333v-85.333h-85.333v-768h853.333v768h-85.333v85.333h85.333c47.128 0 85.333-38.205 85.333-85.333v-768c0-47.128-38.205-85.333-85.333-85.333v0zM725.333 234.667h85.333c23.564 0 42.667-19.102 42.667-42.667s-19.102-42.667-42.667-42.667h-85.333c-23.564 0-42.667 19.102-42.667 42.667s19.102 42.667 42.667 42.667v0zM725.333 405.333h85.333c23.564 0 42.667-19.102 42.667-42.667s-19.102-42.667-42.667-42.667h-85.333c-23.564 0-42.667 19.102-42.667 42.667s19.102 42.667 42.667 42.667v0zM810.667 490.667h-85.333c-23.564 0-42.667 19.102-42.667 42.667s19.102 42.667 42.667 42.667h85.333c23.564 0 42.667-19.102 42.667-42.667s-19.102-42.667-42.667-42.667v0zM768 704c-23.564 0-42.667 19.102-42.667 42.667v170.667c0 23.564 19.102 42.667 42.667 42.667s42.667-19.102 42.667-42.667v-170.667c0-23.564-19.102-42.667-42.667-42.667v0zM597.333 874.667h85.333v-85.333h-85.333v85.333zM469.333 234.667h85.333c23.564 0 42.667-19.102 42.667-42.667s-19.102-42.667-42.667-42.667h-85.333c-23.564 0-42.667 19.102-42.667 42.667s19.102 42.667 42.667 42.667v0zM469.333 405.333h85.333c23.564 0 42.667-19.102 42.667-42.667s-19.102-42.667-42.667-42.667h-85.333c-23.564 0-42.667 19.102-42.667 42.667s19.102 42.667 42.667 42.667v0zM554.667 490.667h-85.333c-23.564 0-42.667 19.102-42.667 42.667s19.102 42.667 42.667 42.667h85.333c23.564 0 42.667-19.102 42.667-42.667s-19.102-42.667-42.667-42.667v0zM512 704c-23.564 0-42.667 19.102-42.667 42.667v170.667c0 23.564 19.102 42.667 42.667 42.667s42.667-19.102 42.667-42.667v-170.667c0-23.564-19.102-42.667-42.667-42.667v0zM341.333 874.667h85.333v-85.333h-85.333v85.333zM213.333 234.667h85.333c23.564 0 42.667-19.102 42.667-42.667s-19.102-42.667-42.667-42.667h-85.333c-23.564 0-42.667 19.102-42.667 42.667s19.102 42.667 42.667 42.667v0zM213.333 405.333h85.333c23.564 0 42.667-19.102 42.667-42.667s-19.102-42.667-42.667-42.667h-85.333c-23.564 0-42.667 19.102-42.667 42.667s19.102 42.667 42.667 42.667v0zM298.667 490.667h-85.333c-23.564 0-42.667 19.102-42.667 42.667s19.102 42.667 42.667 42.667h85.333c23.564 0 42.667-19.102 42.667-42.667s-19.102-42.667-42.667-42.667v0zM256 704c-23.564 0-42.667 19.102-42.667 42.667v170.667c0 23.564 19.102 42.667 42.667 42.667s42.667-19.102 42.667-42.667v-170.667c0-23.564-19.102-42.667-42.667-42.667v0z" />
<glyph unicode="&#xe905;" glyph-name="close" d="M938.825 939.099c-27.867 27.867-72.997 27.867-100.864 0l-358.034-358.107-358.181 358.107c-27.867 27.867-72.923 27.867-100.791 0-27.941-27.867-27.941-72.997 0-100.864l358.107-358.107-358.107-358.107c-27.941-27.867-27.941-72.85 0-100.718 13.97-14.043 32.183-20.919 50.469-20.919 18.213 0 36.425 6.875 50.322 20.919l358.181 357.961 358.034-357.961c13.97-14.043 32.183-20.919 50.395-20.919 18.286 0 36.571 6.875 50.469 20.919 27.867 27.867 27.867 72.85 0 100.718l-358.107 358.107 358.107 358.107c27.867 27.867 27.867 72.997 0 100.864z" />
<glyph unicode="&#xe906;" glyph-name="delete" d="M229.055 706.695v-535.579c0-60.818 42.455-111.158 93.534-111.158h399.037c39.671 0 73.324 41.043 73.324 90.947v555.79h-565.895zM721.626-20.884h-399.037c-99.069 0-174.376 89.295-174.376 192v554.051c0 24.19 8.319 43.983 29.557 55.055 12.909 6.729 19.835 7.321 42.728 7.315 0.347 0 194.336 0 581.97 0 23.932 0.006 30.858-0.586 43.767-7.315 21.239-11.072 29.557-30.865 29.557-55.055v-574.262c0-91.404-65.911-171.789-154.166-171.789zM309.895 565.221v-363.789c0-22.324 18.097-40.421 40.421-40.421s40.421 18.097 40.421 40.421v363.789c0 22.324-18.097 40.421-40.421 40.421s-40.421-18.097-40.421-40.421zM471.579 565.221v-363.789c0-22.324 18.097-40.421 40.421-40.421s40.421 18.097 40.421 40.421v363.789c0 22.324-18.097 40.421-40.421 40.421s-40.421-18.097-40.421-40.421zM633.263 565.221c0 22.324 18.097 40.421 40.421 40.421s40.421-18.097 40.421-40.421v-363.789c0-22.324-18.097-40.421-40.421-40.421s-40.421 18.097-40.421 40.421v363.789zM128 706.695c-22.324 0-40.421 18.097-40.421 40.421s18.097 40.421 40.421 40.421h768c22.324 0 40.421-18.097 40.421-40.421s-18.097-40.421-40.421-40.421h-768zM693.895 787.537c0-33.48-27.151-60.632-60.632-60.632h-242.526c-33.48 0-60.632 27.151-60.632 60.632v101.053c0 33.48 27.151 60.632 60.632 60.632h242.526c33.48 0 60.632-27.151 60.632-60.632v-101.053zM613.053 868.379h-202.105v-60.632h202.105v60.632z" />
<glyph unicode="&#xe907;" glyph-name="download" d="M487.208 204.45l268.989 254.868-70.333 66.183-149.612-140.881v575.38h-102.885v-570.099l-144.761 136.354-70.279-66.129 268.881-255.677zM161.684-31.34h651.156v100.244h-651.156v-100.244z" />
<glyph unicode="&#xe908;" glyph-name="dropdown" d="M505.83 183.834c-30.925 0-60.621 12.288-82.534 34.202l-389.12 389.018c-45.568 45.568-45.568 119.501 0 165.171 45.568 45.568 119.501 45.568 165.069 0l306.586-306.586 306.586 306.586c45.568 45.568 119.398 45.568 164.966 0 45.67-45.67 45.67-119.603 0-165.171l-389.018-389.018c-21.914-21.914-51.507-34.202-82.534-34.202z" />
<glyph unicode="&#xe909;" glyph-name="edit" d="M499.705 764.025c0.548 0.602 1.113 1.194 1.694 1.776s1.173 1.146 1.775 1.693l169.946 169.951c30.073 30.074 78.812 30.074 108.961 0l219.359-219.366c30.080-30.081 30.080-78.883 0-108.964l-170.054-170.060c-0.513-0.561-1.042-1.113-1.585-1.656s-1.094-1.070-1.655-1.584l-429.95-429.963c-7.428-7.428-16.961-12.392-27.307-14.217l-310.774-54.835c-35.002-6.176-65.494 24.319-59.315 59.322l54.859 310.757c1.826 10.344 6.789 19.875 14.216 27.303l429.829 429.842zM793.57 546.054l117.54 117.544-183.509 183.515-117.543-117.546 183.512-183.512zM721.148 473.629l-183.512 183.512-383.943-383.955-39.338-222.834 222.849 39.321 383.944 383.956z" />
<glyph unicode="&#xe90a;" glyph-name="envelope" d="M116.048 169.665l277.376 190.839c9.712 6.667 12.032 19.782 5.184 29.259-6.864 9.462-20.256 11.757-30 5.059l-299.872-206.311c-2.576 4.824-4.176 10.195-4.176 16.003v486.957c0 3.497 0.704 6.807 1.696 10.024l429.456-327.828c7.792-5.933 17.152-8.915 26.528-8.915 9.36 0 18.736 2.982 26.528 8.915l410.672 313.823v-482.975c0-0.687-0.176-1.343-0.208-2.045l-279.6 192.353c-9.744 6.698-23.152 4.403-29.984-5.059-6.848-9.477-4.544-22.592 5.184-29.259l276.24-190.074c-2.368-0.484-4.8-0.765-7.344-0.765h-807.68zM923.728 726.335c4.72 0 9.232-0.937 13.344-2.592l-414.832-316.977-418.688 319.569h820.176zM923.728 789.333h-823.456c-55.28 0-100.272-43.904-100.272-97.863v-486.957c0-53.943 44.992-97.847 100.272-97.847h823.456c55.296 0 100.272 43.904 100.272 97.847v486.957c0 53.959-44.976 97.863-100.272 97.863z" />
<glyph unicode="&#xe90b;" glyph-name="error" d="M512-64c-282.77 0-512 229.23-512 512s229.23 512 512 512c282.77 0 512-229.23 512-512s-229.23-512-512-512v0zM512 874.667c-235.641 0-426.667-191.025-426.667-426.667s191.025-426.667 426.667-426.667c235.641 0 426.667 191.025 426.667 426.667s-191.025 426.667-426.667 426.667v0zM469.333 350.72v395.947h93.867v-395.947h-93.867zM469.333 134.827v116.907h93.867v-116.907h-93.867z" />
<glyph unicode="&#xe90c;" glyph-name="export" d="M487.316 959.973l-268.989-254.868 70.333-66.183 149.612 140.881v-575.38h102.885v570.099l144.761-136.354 70.279 66.129-268.881 255.677zM161.684-31.367h651.156v100.244h-651.156v-100.244z" />
<glyph unicode="&#xe90d;" glyph-name="fav_btn" d="M695.223 463.633c-17.306-26.248-38.33-49.688-58.383-71.455-37.896-41.056-77.857-79.448-115.34-114.742-3.511-3.222-6.836-4.956-9.603-4.956-3.655 0-7.084 2.602-7.331 2.788l-29.346 28.479c-21.086 20.507-44.959 43.761-67.408 66.54-32.506 33.002-55.698 59.952-75.255 87.378-15.158 21.313-22.614 42.13-22.779 63.628-0.248 36.822 15.551 64.826 48.325 85.602 17.451 11.090 35.562 16.687 53.798 16.687 10.45 0 21.23-1.817 32.031-5.431 16.811-5.597 31.783-17.162 47.272-36.574 1.983-2.313 9.397-9.913 20.838-9.913 5.287 0 13.073 1.652 20.177 9.5l1.673 1.859c5.679 6.278 11.049 12.205 16.728 17.43 16.356 15.055 37.049 23.006 59.849 23.006 18.091 0 36.203-5.080 52.394-14.725 28.685-17.1 45.042-40.003 49.998-70.030 4.275-26.021-1.508-50.556-17.637-75.069zM681.097 639.339c-21.664 12.928-46.074 19.764-70.629 19.764-31.411 0-61.233-11.503-83.97-32.423-5.039-4.647-9.727-9.541-14.332-14.601-17.678 20.115-35.914 32.857-56.978 39.879-39.713 13.238-79.861 8.054-116.167-14.973-43.41-27.508-65.198-66.54-64.867-115.919 0.186-29.078 9.789-56.586 29.388-84.074 20.425-28.685 45.496-57.825 78.89-91.694 22.097-22.428 44.938-44.711 67.903-67.098l21.829-21.292 8.736-8.261c5.287-4.399 16.356-11.792 30.998-11.792 12.081 0 23.502 4.874 33.952 14.56 38.041 35.81 78.56 74.739 117.178 116.6 20.115 21.829 43.142 47.479 61.955 76.019 21.003 31.886 28.768 65.673 23.068 100.471-6.712 40.436-29.202 72.343-66.953 94.833zM508.634 535.027c0 0 0.578-0.083 2.272-0.33 1.693-0.207 2.313-0.31 2.375-0.31 0.021 0-1.198 0.186-2.375 0.351-1.136 0.145-2.251 0.289-2.272 0.289zM511.897-28.376c-262.629 0-476.272 213.643-476.272 476.334 0 262.712 213.643 476.458 476.272 476.458 262.753 0 476.52-213.746 476.52-476.458 0-262.691-213.767-476.334-476.52-476.334zM511.897 960c-282.248 0-511.897-229.69-511.897-512.041 0-282.29 229.648-511.938 511.897-511.938 282.372 0 512.103 229.648 512.103 511.938 0 282.352-229.731 512.041-512.103 512.041z" />
<glyph unicode="&#xe90e;" glyph-name="info" d="M607.378 492.325c-14.19-10.971-29.038-20.992-43.374-31.744-21.065-13.824-33.207-37.815-31.744-62.976 0.658-18.359-11.191-34.816-28.818-39.936-18.798-7.241-40.082-0.878-51.712 15.433-3.803 6.29-5.778 13.385-5.925 20.699-1.463 45.861 19.822 89.454 56.832 116.517 16.018 12.215 31.159 25.6 45.349 39.936 6.656 7.973 10.752 17.774 11.63 28.087 2.341 28.306-15.872 46.519-45.202 48.347-35.328 2.341-65.097-6.875-85.797-38.107-8.85-15.141-26.258-23.113-43.447-20.041-29.989 5.047-42.862 29.403-30.574 57.49 12.873 27.355 34.962 49.298 62.391 61.952 28.233 13.897 59.099 21.431 90.624 22.235 17.701-1.902 35.328-4.827 52.809-8.777 53.248-15.067 84.992-57.637 88.942-114.176 3.877-36.864-12.142-73.070-42.057-94.939h0.073zM537.454 261.705c0.219-32.037-17.774-51.2-49.298-51.2s-52.443 18.432-52.59 45.275c0 37.303 16.75 55.881 50.030 56.905 27.063 0.805 55.223-15.799 51.858-50.981zM499.639 960c-275.895 0-499.639-223.744-499.639-499.639s223.744-499.639 499.639-499.639c275.968 0 499.639 223.744 499.639 499.639s-223.671 499.639-499.639 499.639z" />
<glyph unicode="&#xe90f;" glyph-name="info1" d="M607.378 492.325c-14.19-10.971-29.038-20.992-43.374-31.744-21.065-13.824-33.207-37.815-31.744-62.976 0.658-18.359-11.191-34.816-28.818-39.936-18.798-7.241-40.082-0.878-51.712 15.433-3.803 6.29-5.778 13.385-5.925 20.699-1.463 45.861 19.822 89.454 56.832 116.517 16.018 12.215 31.159 25.6 45.349 39.936 6.656 7.973 10.752 17.774 11.63 28.087 2.341 28.306-15.872 46.519-45.202 48.347-35.328 2.341-65.097-6.875-85.797-38.107-8.85-15.141-26.258-23.113-43.447-20.041-29.989 5.047-42.862 29.403-30.574 57.49 12.873 27.355 34.962 49.298 62.391 61.952 28.233 13.897 59.099 21.431 90.624 22.235 17.701-1.902 35.328-4.827 52.809-8.777 53.248-15.067 84.992-57.637 88.942-114.176 3.877-36.864-12.142-73.070-42.057-94.939h0.073zM537.454 261.705c0.219-32.037-17.774-51.2-49.298-51.2s-52.443 18.432-52.59 45.275c0 37.303 16.75 55.881 50.030 56.905 27.063 0.805 55.223-15.799 51.858-50.981zM499.639 960c-275.895 0-499.639-223.744-499.639-499.639s223.744-499.639 499.639-499.639c275.968 0 499.639 223.744 499.639 499.639s-223.671 499.639-499.639 499.639z" />
<glyph unicode="&#xe910;" glyph-name="link" d="M114.2 573.903c11.166 11.166 26.039 16.14 40.96 16.14h171.301c16.14 1.219 31.013-3.706 43.447-16.14 11.166-11.166 16.14-26.039 16.14-43.496l1.219-16.091c0 0-76.946 0-80.652 1.268-27.355 0-49.688-22.382-48.421-48.372 0-27.355 22.333-49.737 49.64-49.737 4.974 0 80.652 1.219 80.652 1.219l-2.438-14.824c0-17.408-6.193-31.061-17.408-42.228-11.166-11.166-27.307-17.408-40.96-16.189l-172.52-1.219c-32.28 0-59.587 27.355-58.319 58.368v129.073c0 14.921 6.193 31.061 17.359 42.228zM628.102 573.903c11.118 11.166 26.039 16.14 40.911 16.14l172.568 1.219c16.14-1.219 31.013-6.193 42.228-17.359 11.118-11.166 17.359-27.307 17.359-42.228v-129.073c1.268-16.14-6.242-31.013-17.359-42.179-12.434-12.434-26.088-16.189-42.228-17.408h-171.301c-31.061-1.268-59.587 27.307-58.319 58.368l-1.268 18.578 80.701-1.268c27.307 0 49.64 22.382 49.64 49.737 0 27.258-22.333 49.591-48.372 48.372l-80.701-1.219-1.268 16.091c0 17.408 6.193 31.061 17.408 42.228zM45.934 644.657c-29.794-29.794-44.666-69.534-45.934-110.446v-129.122c1.268-43.447 16.14-80.652 45.934-110.494 29.745-29.794 68.267-45.885 110.446-45.885h171.301c40.96 1.219 80.701 16.091 110.494 45.885 29.745 29.842 44.666 69.534 45.885 110.494v17.408h32.329l-1.268-16.189c2.487-42.179 17.408-81.871 45.934-110.446 29.794-29.794 69.486-44.666 110.446-45.934h171.349c42.179 0 80.652 16.14 110.446 45.934s45.934 68.267 45.934 110.446v129.122c0 42.228-16.14 80.701-45.934 110.494-29.794 29.745-68.267 45.885-110.446 45.885h-171.349c-42.179 0-80.652-16.14-110.446-45.885-29.794-29.794-44.666-69.486-45.934-110.494l1.268-16.14h-32.329l-1.219 16.14c1.219 41.009-14.872 79.433-44.666 109.227s-69.534 44.715-110.494 45.934l-172.52-1.219c-42.179 0-80.701-16.14-109.227-44.715z" />
<glyph unicode="&#xe911;" glyph-name="location" d="M512 606.72c-42.954 0-77.878-34.924-77.878-77.878s34.924-77.932 77.878-77.932c42.954 0 77.878 34.978 77.878 77.932s-34.924 77.878-77.878 77.878zM512 370.068c-87.525 0-158.72 71.249-158.72 158.774s71.195 158.72 158.72 158.72c87.525 0 158.72-71.195 158.72-158.72s-71.195-158.774-158.72-158.774zM512 879.158c-193.159 0-350.316-157.157-350.316-350.316 0-43.709 18.055-95.933 53.733-155.217 29.049-48.344 69.901-101.538 121.425-158.235 36.217-39.774 76.746-80.195 120.401-120.239 14.336-12.989 27.702-24.845 39.72-35.247l15.037-12.773 15.144 12.827c11.857 10.294 25.223 22.151 39.613 35.247 43.709 40.044 84.237 80.519 120.401 120.185 51.416 56.589 92.322 109.784 121.479 158.235 35.624 59.338 53.679 111.562 53.679 155.217 0 193.159-157.157 350.316-350.316 350.316zM512-57.479l-67.907 56.212c-12.45 10.725-26.355 23.067-41.337 36.702-45.595 41.768-87.848 83.968-125.683 125.521-55.080 60.632-99.166 118.137-130.964 170.954-43.924 73.135-65.267 137.539-65.267 196.931 0 237.73 193.428 431.158 431.158 431.158s431.158-193.428 431.158-431.158c0-59.338-21.342-123.742-65.267-196.877-31.906-52.979-75.938-110.484-130.964-171.008-37.78-41.445-80.034-83.645-125.629-125.413-14.929-13.689-28.941-25.977-41.337-36.756l-67.961-56.266z" />
<glyph unicode="&#xe912;" glyph-name="maybe" horiz-adv-x="614" d="M135.168 280.064c0 47.332 7.964 89.202 23.893 125.611s45.738 67.811 89.429 94.208c15.474 9.102 33.678 19.342 54.613 30.72s40.96 24.803 60.075 40.277c19.115 15.474 35.271 33.678 48.469 54.613s19.797 45.511 19.797 73.728c0 21.845-4.324 41.415-12.971 58.709s-19.797 31.858-33.451 43.691c-13.653 11.833-29.582 20.708-47.787 26.624s-36.864 8.875-55.979 8.875c-21.845 0-41.87-3.413-60.075-10.24s-35.043-15.929-50.517-27.307c-15.474-11.378-29.355-24.348-41.643-38.912s-22.528-29.127-30.72-43.691l-98.304 66.901c24.576 56.434 62.805 99.897 114.688 130.389s108.771 45.739 170.667 45.739c33.678 0 67.129-5.234 100.352-15.701s63.033-26.396 89.429-47.787c26.397-21.39 47.559-48.924 63.488-82.603s23.893-73.728 23.893-120.149c0-31.858-4.096-59.392-12.288-82.603s-19.342-44.146-33.451-62.805c-14.109-18.66-30.947-35.043-50.517-49.152s-40.277-27.079-62.123-38.912c-18.205-10.012-35.954-20.252-53.248-30.72s-32.54-22.528-45.739-36.181c-13.198-13.653-23.893-29.582-32.085-47.787s-12.288-40.050-12.288-65.536h-125.611zM135.168-21.675v172.032h125.611v-172.032h-125.611z" />
<glyph unicode="&#xe913;" glyph-name="menu" d="M0 684.995h995.328v111.165h-995.328v-111.165zM0 408.515h995.328v111.165h-995.328v-111.165zM0 132.035h995.328v111.165h-995.328v-111.165z" />
<glyph unicode="&#xe914;" glyph-name="more" d="M741.965 371.661l-389.018-389.12c-45.568-45.568-119.501-45.568-165.171 0-45.568 45.568-45.568 119.501 0 165.069l306.586 306.586-306.586 306.586c-45.568 45.568-45.568 119.398 0 164.966 45.67 45.67 119.603 45.67 165.171 0l389.018-389.018c21.914-21.914 34.202-51.507 34.202-82.534 0-30.925-12.288-60.621-34.202-82.534z" />
<glyph unicode="&#xe915;" glyph-name="not_attending" d="M833.558 939.209l-356.153-356.226-356.299 356.226c-27.721 27.721-72.54 27.721-100.261 0-27.794-27.721-27.794-72.613 0-100.334l356.226-356.226-356.226-356.226c-27.794-27.721-27.794-72.467 0-100.188 13.897-13.97 32.014-20.809 50.203-20.809 18.117 0 36.234 6.839 50.058 20.809l356.299 356.080 356.153-356.080c13.897-13.97 32.014-20.809 50.131-20.809 18.19 0 36.379 6.839 50.203 20.809 27.721 27.721 27.721 72.467 0 100.188l-356.226 356.226 356.226 356.226c27.721 27.721 27.721 72.613 0 100.334s-72.613 27.721-100.334 0z" />
<glyph unicode="&#xe916;" glyph-name="photo" horiz-adv-x="1317" d="M660.715 251.073c-89.617 0-162.066 69.299-162.066 155.212 0 85.868 72.448 155.167 162.066 155.167 89.759 0 162.16-69.299 162.16-155.167 0-85.913-72.401-155.212-162.16-155.212zM660.715 721.313c-183.479 0-331.584-141.803-331.584-317.421 0-175.663 148.104-317.376 331.584-317.376 183.527 0 331.678 141.713 331.678 317.376 0 175.618-148.151 317.421-331.678 317.421zM1152.006-64h-987.488c-90.466 0-164.518 70.924-164.518 157.604v551.367c0 86.59 74.052 157.469 164.518 157.469h82.401c0 87.448 73.156 157.559 164.518 157.559h493.744c90.513 0 164.613-70.112 164.613-157.559h82.212c90.561 0 164.566-70.879 164.566-157.469v-551.367c0-86.68-74.005-157.604-164.566-157.604z" />
<glyph unicode="&#xe917;" glyph-name="preview" d="M597.725 469.772c0 41.906-33.988 75.894-75.894 75.894s-75.894-33.989-75.894-75.894c0-41.906 33.989-75.894 75.894-75.894s75.894 33.989 75.894 75.894zM0.648 465.84c-1.242 6.559-0.733 13.534 1.84 20.223 71.472 185.798 309.486 340.372 510.372 340.372 199.907 0 434.538-151.324 508.456-335.461 3.35-8.346 3.458-17.189 0.919-25.134 2.539-7.946 2.431-16.789-0.919-25.134-73.918-184.137-308.549-335.461-508.456-335.461-200.886 0-438.9 154.573-510.372 340.372-2.573 6.689-3.082 13.664-1.84 20.223zM951.305 465.84c-63.593 154.26-269.212 286.274-438.446 286.274-168.51 0-375.071-132.637-438.431-286.274 63.36-153.637 269.921-286.274 438.431-286.274 169.234 0 374.853 132.014 438.446 286.274zM672.046 469.772c0-82.952-67.263-150.215-150.215-150.215s-150.215 67.263-150.215 150.215c0 82.952 67.263 150.215 150.215 150.215s150.215-67.263 150.215-150.215z" />
<glyph unicode="&#xe918;" glyph-name="Print_full" d="M202.663 712.797v202.663h607.944v-202.663h-607.944zM861.273 459.513c-27.871 0-50.666 22.795-50.666 50.666s22.795 50.71 50.666 50.71c27.871 0 50.621-22.84 50.621-50.71s-22.751-50.666-50.621-50.666zM303.994 104.853v253.329h405.326v-253.329h-405.326zM861.273 662.176h-709.276c-84.146 0-151.997-67.851-151.997-151.997v-303.95h202.663v-202.663h607.944v202.663h202.618v303.95c0 84.146-67.851 151.997-151.953 151.997z" />
<glyph unicode="&#xe919;" glyph-name="print" d="M274.061 960c-20.268 0-36.123-15.854-36.123-36.122v-118.961h-201.816c-20.268 0-36.122-15.872-36.122-36.158v-641.536c0-19.368 16.737-36.123 36.122-36.123h201.816v-118.961c0-20.286 15.854-36.14 36.123-36.14h475.877c20.268 0 36.123 15.854 36.123 36.14v118.961h201.799c20.286 0 36.14 15.854 36.14 36.123v641.536c0 20.286-15.854 36.158-36.14 36.158h-201.799v118.961c0 20.268-15.854 36.122-36.123 36.122h-475.877zM310.201 804.899v82.838h403.615v-82.838h-403.615zM72.263 732.637h879.492v-569.273h-165.694v142.76h64.335c20.286 0 36.14 15.854 36.14 36.122s-15.854 36.14-36.14 36.14h-675.911c-20.268 0-36.122-15.872-36.122-36.14s15.854-36.122 36.122-36.122h64.318v-142.76h-166.541v569.273zM310.201 8.263v297.86h403.615v-297.86h-403.615zM703.223 618.955c-20.268 0-36.123-15.854-36.123-36.14 0-20.25 15.854-36.105 36.123-36.105h93.413c20.268 0 36.14 15.854 36.14 36.105 0 20.286-15.872 36.14-36.14 36.14h-93.413z" />
<glyph unicode="&#xe91a;" glyph-name="remove" d="M128 320c-70.656 0-128 57.216-128 128s57.344 128 128 128h768c70.784 0 128-57.216 128-128s-57.216-128-128-128h-768z" />
<glyph unicode="&#xe91b;" glyph-name="search" d="M126.805 546.702c0 158.208 128.228 286.379 286.379 286.379s286.379-128.171 286.379-286.379c0-158.094-128.228-286.436-286.379-286.436s-286.379 128.341-286.379 286.436zM1002.155 72.249l-240.697 252.018c41.131 64.341 65.081 140.572 65.081 222.436 0 228.295-185.060 413.298-413.355 413.298-228.238 0-413.184-185.003-413.184-413.298 0-228.181 184.946-413.298 413.184-413.298 89.316 0 171.861 28.444 239.388 76.516l235.463-246.613c30.037-31.573 79.986-32.768 111.502-2.56 31.516 29.98 32.654 79.986 2.617 111.502z" />
<glyph unicode="&#xe91c;" glyph-name="send_full" d="M1016.302 886.014l-1016.302-504.134 362.771-133.378 411.651 379.613-328.895-398.245-26.714-176.111 134.297 144.654 257.85-75.255z" />
<glyph unicode="&#xe91d;" glyph-name="send" d="M388.369 226.689c-9.629-8.88-23.418-11.622-35.712-7.102l-329.792 121.252c-28.759 10.574-30.916 50.421-3.466 64.038l923.911 458.304c26.936 13.362 57.038-11.312 49.222-40.347l-186.674-693.505c-5.086-18.894-24.706-29.919-43.49-24.437l-213.714 62.373-107.42-115.704c-23.381-25.184-65.251-4.988-60.098 28.987l24.286 160.1c0.072 0.476-5.612-4.178-17.053-13.96zM123.091 378.378l233.632-85.898 358.542 330.638c31.973 29.485 78.278-14.357 50.582-47.892l-292.846-354.595-5.845-38.53 44.998 48.468c8.991 9.684 22.679 13.462 35.364 9.759l200.186-58.425 157.289 584.336-781.903-387.861z" />
<glyph unicode="&#xe91e;" glyph-name="share_android" d="M853.459 618.743c-53.55 0.040-103.948 25.332-136.003 68.25l-376.886-225.738c0.426-4.479 1.279-8.531 1.279-13.309 0-5.46-1.279-10.621-1.705-15.954l375.18-226.079c49.15 67.758 140.284 89.634 214.811 51.564s110.263-124.755 84.234-204.324c-26.029-79.568-106.077-128.337-188.679-114.951s-143.171 84.941-142.767 168.662c0 6.356 1.279 12.413 1.705 18.598l-376.033 222.496c-43.157-59.545-119.595-84.718-189.663-62.46s-117.994 86.936-118.918 160.483c-0.923 73.548 45.364 139.41 114.851 163.421s146.533 0.768 191.171-57.674l378.591 221.345c-0.426 5.417-1.705 10.707-1.705 16.295 0 69.012 41.55 131.228 105.275 157.638s137.076 11.812 185.849-36.987c48.773-48.799 63.363-122.188 36.968-185.947s-88.58-105.33-157.555-105.33v0zM853.459 21.552c47.092 0 85.268 38.196 85.268 85.313s-38.176 85.313-85.268 85.313c-47.092 0-85.268-38.196-85.268-85.313s38.176-85.313 85.268-85.313v0zM171.313 533.43c-47.092 0-85.268-38.196-85.268-85.313s38.176-85.313 85.268-85.313c47.092 0 85.268 38.196 85.268 85.313s-38.176 85.313-85.268 85.313v0zM853.459 874.682c-47.092 0-85.268-38.196-85.268-85.313s38.176-85.313 85.268-85.313c47.092 0 85.268 38.196 85.268 85.313s-38.176 85.313-85.268 85.313v0z" />
<glyph unicode="&#xe91f;" glyph-name="share_ios" d="M540.643 856.025v-535.201h-57.287v535.201l-124.398-124.398-37.637 37.695 190.679 190.679 190.679-190.679-37.637-37.695-124.398 124.398zM798.434-22.897h-572.867c-47.376 0-85.93 38.554-85.93 85.93v515.58c0 47.376 38.554 85.93 85.93 85.93h200.503v-57.287h-200.503c-15.811 0-28.643-12.861-28.643-28.643v-515.58c0-15.782 12.832-28.643 28.643-28.643h572.867c15.811 0 28.643 12.861 28.643 28.643v515.58c0 15.782-12.832 28.643-28.643 28.643h-200.503v57.287h200.503c47.376 0 85.93-38.554 85.93-85.93v-515.58c0-47.376-38.554-85.93-85.93-85.93z" />
<glyph unicode="&#xe920;" glyph-name="step_done" d="M512-64c-282.77 0-512 229.23-512 512s229.23 512 512 512c282.77 0 512-229.23 512-512s-229.23-512-512-512v0zM512 874.667c-235.641 0-426.667-191.025-426.667-426.667s191.025-426.667 426.667-426.667c235.641 0 426.667 191.025 426.667 426.667s-191.025 426.667-426.667 426.667v0zM508.587 263.125c-1.515-6.326-4.766-12.104-9.387-16.683-8.060-8.112-19.34-12.169-30.72-11.051-18.278-1.276-34.974 10.358-40.107 27.947l-120.32 120.235c-13.482 15.194-12.799 38.259 1.559 52.629s37.423 15.071 52.627 1.601l93.013-93.184 190.293 337.365c5.52 10.101 14.887 17.542 25.974 20.635s22.954 1.575 32.906-4.209c20.594-12.707 27.392-39.463 15.36-60.459l-211.2-374.827z" />
<glyph unicode="&#xe921;" glyph-name="user" d="M765.464-29.127c-21.019 179.156-95.616 329.709-281.489 329.709s-260.47-150.553-281.489-329.709h-82.015c26.789 223.584 132.296 412.136 363.504 412.136s336.715-188.552 363.504-412.136h-82.015zM483.975 465.437c-136.57 0-247.282 110.712-247.282 247.282s110.712 247.282 247.282 247.282c136.57 0 247.282-110.712 247.282-247.282s-110.712-247.282-247.282-247.282v0zM483.975 877.573c-91.047 0-164.854-73.808-164.854-164.854s73.808-164.854 164.854-164.854c91.047 0 164.854 73.808 164.854 164.854s-73.808 164.854-164.854 164.854v0z" />
<glyph unicode="&#xe922;" glyph-name="users" d="M786.57 388.398c-95.182 0-172.342 77.16-172.342 172.342s77.16 172.342 172.342 172.342c95.182 0 172.342-77.16 172.342-172.342s-77.16-172.342-172.342-172.342v0zM786.57 664.146c-57.109 0-103.405-46.296-103.405-103.405s46.296-103.405 103.405-103.405c57.109 0 103.405 46.296 103.405 103.405s-46.296 103.405-103.405 103.405v0zM493.243 205.026c-34.565 72.512-108.962 117.502-189.232 114.435-155.453 0-217.841-125.913-235.419-275.748h-68.592c22.404 186.991 110.644 344.684 304.012 344.684 94.586 3.17 183.528-44.925 232.662-125.81-17.229-16.947-31.863-36.344-43.43-57.562v0zM304.012 457.335c-114.218 0-206.811 92.592-206.811 206.811s92.592 206.811 206.811 206.811c114.218 0 206.811-92.592 206.811-206.811s-92.592-206.811-206.811-206.811v0zM304.012 802.020c-76.146 0-137.874-61.728-137.874-137.874s61.728-137.874 137.874-137.874c76.146 0 137.874 61.728 137.874 137.874s-61.728 137.874-137.874 137.874v0zM786.57 319.461c151.661 0 219.909-126.43 236.798-275.748h-68.248c-12.409 112.402-57.218 206.811-168.551 206.811s-156.142-94.478-168.551-206.811h-68.248c16.89 149.283 85.137 275.748 236.798 275.748v0z" />
<glyph unicode="&#xe923;" glyph-name="attending" horiz-adv-x="1280" d="M1171.139 960.016l-730.53-730.53-331.889 332.123-108.72-109.071 440.609-440.609 839.484 839.367z" />
<glyph unicode="&#xe924;" glyph-name="facebook" horiz-adv-x="569" d="M151.666-27.807v450.56h-151.666v175.673h151.666v129.479c0 150.244 91.762 232.107 225.849 232.107 64.228 0 119.353-4.779 135.509-6.884v-157.070l-93.013-0.057c-72.875 0-86.983-34.588-86.983-85.504v-112.071h173.852l-22.642-175.673h-151.211v-450.56h-181.362z" />
<glyph unicode="&#xe925;" glyph-name="gmail-2" horiz-adv-x="1308" d="M0-16.845h1308.459v976.862h-1308.459v-976.862zM257.617 951.374l804.865-1.572-47.467-45.313-22.584-21.943-21.012-21.827-21.798-20.372-20.226-20.343-19.47-18.742-17.898-18.829-18.655-17.171-49.067-49.271-44.382-42.257-12.456-13.3-13.242-10.914-11.67-10.943-21.012-20.372-10.128-8.614-8.556-8.614-8.556-6.985-7.014-7.829-13.242-10.972-5.442-3.871-3.871-4.715-4.686-2.357-3.114-3.143-3.871-3.085-395.448 393.353zM769.796 462.593l351.095 304.24v-549.838l-351.095 245.598zM203.137 750.42l330.025-280.783-330.811-264.34 0.786 545.123zM202.351 173.196h1.572l4.686 1.572 344.809 277.64 104.304-88.385 92.605 81.371 370.565-262.012v-190.070h-918.541v179.884z" />
<glyph unicode="&#xe926;" glyph-name="instagram" d="M905.846 526.832h-89.135c6.522-25.238 10.335-51.562 10.335-78.801 0-174.064-141.044-315.077-315.077-315.077-173.97 0-315.045 141.013-315.045 315.077 0 27.238 3.844 53.563 10.335 78.801h-89.135v-433.262c0-21.725 17.629-39.385 39.416-39.385h708.892c21.788 0 39.416 17.66 39.416 39.385v433.262zM905.846 802.493c0 21.756-17.629 39.385-39.416 39.385h-118.122c-21.756 0-39.385-17.629-39.385-39.385v-118.185c0-21.725 17.629-39.353 39.385-39.353h118.122c21.788 0 39.416 17.629 39.416 39.353v118.185zM511.968 644.955c-108.733 0-196.923-88.19-196.923-196.923 0-108.765 88.19-196.955 196.923-196.955 108.765 0 196.955 88.19 196.955 196.955 0 108.733-88.19 196.923-196.955 196.923zM905.846-64h-787.724c-65.237 0-118.122 52.917-118.122 118.185v787.692c0 65.237 52.886 118.122 118.122 118.122h787.724c65.268 0 118.154-52.886 118.154-118.122v-787.692c0-65.268-52.886-118.185-118.154-118.185z" />
<glyph unicode="&#xe927;" glyph-name="outlook" d="M710.37 513.706c-1.793-0.558-5.681-0.497-7.444 0l-67.69 42.645v193.697h332.542c12.251 0 33.905-16.666 33.905-39.918l-291.314-196.424zM716.197 441.598c-10.443-6.389 285.542 190.246 285.542 190.246v-356.035c0-38.757-24.804-55.032-52.711-55.032h-313.827v263.285h0.030l61.783-42.464c8.71-6.389 19.183 0 19.183 0zM22.261 90.565v757.865l576.509 111.571v-990.304l-576.509 120.868zM219.891 589.228c-24.427-32.549-36.648-75.164-36.648-127.875 0-49.924 12.070-90.384 36.090-121.501 24.080-31.072 55.183-46.623 93.352-46.623 39.21 0 70.99 16.079 95.326 48.16 24.382 32.052 36.588 74.305 36.527 126.73 0 51.009-11.739 92.056-35.231 123.234-23.477 31.163-54.263 46.699-92.328 46.699-40.279 0-72.663-16.275-97.090-48.824zM313.837 358.13c-20.072 0-36.346 9.569-48.703 28.812-12.402 19.198-18.61 45.297-18.61 78.344 0 32.534 6.208 58.694 18.61 78.434 12.357 19.755 29.158 29.641 50.24 29.641 20.418 0 36.512-9.599 48.326-28.782 11.769-19.213 17.646-46.111 17.646-80.664 0-33.182-6.088-59.101-18.218-77.771-12.115-18.655-28.541-28.013-49.291-28.013z" />
<glyph unicode="&#xe928;" glyph-name="yahoo" d="M893.707 637.36c-16.017-1.59-82.745-16.537-105.166-21.336-24.010-6.389-243.406-175.853-257.803-217.485-3.194-14.397-4.799-36.558-4.799-57.39l-1.605-33.624c0-23.98 6.664-62.739 9.858-83.525 14.428-3.21 118.799-0.397 138.011-3.592l-2.369-43.054c-18.768 1.375-151.307 1.055-227.038 1.055-38.454 0-162.021-4.249-199.97-3.072l7.168 40.914c20.816 1.62 107.016-3.714 125.967 16.277 9.415 9.919 6.404 20.556 6.404 78.191v27.22c0 12.808 0 36.818-3.21 59.27-7.993 23.995-201.224 265.292-250.865 303.7-14.428 4.784-104.754 13.816-127.159 18.646l-1.131 36.879c11.188 5.609 111.631-1.36 209.095 2.231 64.038 2.369 210.195 0 228.23-2.155l-4.616-32.493c-19.211-4.814-111.769-6.603-135.779-12.991 62.449-92.878 161.196-212.442 193.23-258.873 17.622 25.631 172.414 132.096 177.198 168.945-24.011 4.814-103.546 16.262-116.354 16.262l-7.611 41.923c21.794 3.423 136.437 0 193.414 0 49.198 0 154.303 0 184.167-2.445l-27.266-39.477zM941.125 285.166l-52.591 5.089c5.533 26.593 0.734 230.721 0.29 252.5l-2.72 42.87c14.657-2.889 12.441-1.391 74.263-7.871 37.598-3.958 42.519-5.655 54.899-6.113l-16.17-50.864c-13.77-40.654-53.752-222.025-57.971-235.612zM904.826 177.341l-28.183 2.43-0.29 61.058 35.672-4.463 31.958-1.483-8.865-59.759-30.292 2.216z" />
<glyph unicode="&#xe929;" glyph-name="clock" d="M512-64c-282.77 0-512 229.23-512 512s229.23 512 512 512c282.77 0 512-229.23 512-512s-229.23-512-512-512v0zM512 874.667c-235.641 0-426.667-191.025-426.667-426.667s191.025-426.667 426.667-426.667c235.641 0 426.667 191.025 426.667 426.667s-191.025 426.667-426.667 426.667v0zM607.147 290.133l-125.013 125.397c-8.812 8.659-13.474 20.689-12.8 33.024v212.779c0 23.564 19.103 42.667 42.667 42.667s42.667-19.103 42.667-42.667v-193.323l115.2-115.2c17.308-17.32 17.298-45.391-0.021-62.699s-45.391-17.298-62.699 0.021v0z" />
<glyph unicode="&#xe92a;" glyph-name="arrows" horiz-adv-x="683" d="M322.37 21.333l-322.37 369.778h644.741zM322.37 960l322.37-369.778h-644.741z" />
<glyph unicode="&#xe92b;" glyph-name="phone" horiz-adv-x="652" d="M139.636 960c-77.265 0-139.636-62.371-139.636-139.636v-744.727c0-77.265 62.371-139.636 139.636-139.636h372.364c77.265 0 139.636 62.371 139.636 139.636v744.727c0 77.265-62.371 139.636-139.636 139.636h-372.364zM418.909 29.091h-186.182v46.545h186.182v-46.545zM570.182 168.727h-488.727v651.636h488.727v-651.636z" />
<glyph unicode="&#xe92c;" glyph-name="gift" horiz-adv-x="1082" d="M576.621 18.525v399.847h366.174v-399.847h-366.174zM576.621 489.923v130.476h433.518v-130.476h-433.518zM628.605 769.504c1.638 4.028 3.422 8.225 5.341 12.532 1.921 4.309 3.972 8.729 6.142 13.205 2.17 4.474 4.454 9.002 6.845 13.528 2.388 4.526 4.878 9.045 7.455 13.504 2.579 4.461 5.242 8.857 7.976 13.136 2.735 4.277 5.54 8.435 8.403 12.416 2.86 3.981 5.776 7.784 8.734 11.349 2.953 3.567 5.949 6.899 8.969 9.939 1.579 1.579 3.241 3.078 4.98 4.487s3.552 2.732 5.432 3.961c1.88 1.229 3.827 2.369 5.832 3.412s4.067 1.99 6.179 2.838c2.109 0.85 4.271 1.599 6.471 2.248 2.198 0.647 4.435 1.194 6.704 1.631 2.269 0.439 4.571 0.772 6.893 0.995 2.319 0.223 4.664 0.335 7.018 0.335 2.358 0 4.703-0.112 7.024-0.335s4.625-0.556 6.895-0.995c2.269-0.439 4.508-0.984 6.709-1.631 2.202-0.649 4.361-1.4 6.473-2.248 2.114-0.848 4.175-1.796 6.183-2.841 2.003-1.041 3.952-2.181 5.835-3.409 1.88-1.229 3.693-2.553 5.434-3.961 1.735-1.408 3.399-2.905 4.976-4.487 3.427-3.453 6.43-7.178 9.002-11.105 2.57-3.927 4.714-8.059 6.427-12.323s3.001-8.667 3.857-13.136c0.857-4.467 1.287-9.004 1.287-13.538 0-4.537-0.431-9.073-1.287-13.541-0.857-4.47-2.144-8.87-3.857-13.134-1.713-4.266-3.857-8.396-6.427-12.325-2.572-3.927-5.575-7.65-9.002-11.105-3.6-3.621-8.123-7.544-13.376-11.63-5.253-4.084-11.234-8.338-17.746-12.623-6.512-4.288-13.551-8.608-20.924-12.835-7.377-4.225-15.083-8.355-22.925-12.26s-15.816-7.58-23.732-10.901c-7.914-3.319-15.765-6.282-23.352-8.757-7.591-2.475-14.921-4.461-21.792-5.83-6.871-1.367-13.283-2.118-19.042-2.118-0.956 0-1.841 0.022-2.657 0.061-0.816 0.041-1.56 0.097-2.241 0.167s-1.298 0.149-1.854 0.24c-0.554 0.089-1.049 0.184-1.488 0.281-0.441 0.1-0.829 0.201-1.16 0.299-0.333 0.097-0.614 0.193-0.852 0.281-0.236 0.089-0.426 0.171-0.573 0.238-0.149 0.069-0.255 0.123-0.322 0.162-0.792 0.891-1.389 2.157-1.8 3.762-0.409 1.605-0.63 3.552-0.662 5.804-0.039 2.25 0.106 4.809 0.428 7.639 0.32 2.83 0.818 5.932 1.484 9.272 0.668 3.34 1.501 6.918 2.501 10.702 0.997 3.782 2.157 7.769 3.474 11.927 1.313 4.158 2.784 8.485 4.407 12.95 1.62 4.463 3.39 9.065 5.302 13.768zM71.552 489.923v130.476h433.518v-130.476h-433.518zM505.069 418.372v-399.847h-366.176v399.847h366.176zM294.181 768.906c-3.429 3.455-6.427 7.178-9 11.105-2.572 3.929-4.716 8.059-6.43 12.325-1.713 4.264-3.001 8.664-3.857 13.134-0.857 4.467-1.285 9.004-1.285 13.541 0 4.534 0.428 9.071 1.285 13.538 0.857 4.47 2.144 8.872 3.857 13.136s3.857 8.396 6.43 12.323c2.572 3.927 5.571 7.652 9 11.105 1.657 1.664 3.384 3.236 5.168 4.712 1.787 1.475 3.634 2.856 5.54 4.136 1.902 1.279 3.859 2.462 5.867 3.541s4.063 2.060 6.161 2.936c2.098 0.874 4.24 1.646 6.417 2.308 2.176 0.664 4.389 1.222 6.633 1.67s4.515 0.785 6.812 1.012c2.295 0.227 4.617 0.342 6.953 0.342 2.332 0 4.647-0.115 6.938-0.342 2.293-0.227 4.563-0.565 6.8-1.012 2.239-0.448 4.45-1.006 6.624-1.67s4.309-1.434 6.406-2.308c2.096-0.876 4.149-1.856 6.153-2.936s3.963-2.263 5.865-3.541c1.902-1.281 3.747-2.661 5.532-4.136 1.787-1.475 3.511-3.048 5.168-4.712 5.869-5.904 11.639-12.846 17.223-20.505 5.582-7.658 10.977-16.031 16.089-24.797 5.112-8.764 9.945-17.921 14.402-27.146s8.541-18.519 12.158-27.555c3.617-9.036 6.767-17.818 9.359-26.017 2.59-8.201 4.623-15.823 6.003-22.538 1.38-6.717 2.107-12.528 2.092-17.112-0.017-4.584-0.779-7.942-2.375-9.746-0.074-0.041-0.186-0.1-0.34-0.169-0.151-0.071-0.346-0.154-0.588-0.244-0.24-0.089-0.526-0.186-0.861-0.283-0.337-0.1-0.723-0.201-1.164-0.301-0.439-0.097-0.935-0.195-1.486-0.283-0.554-0.089-1.164-0.171-1.837-0.238-0.673-0.069-1.408-0.125-2.211-0.167-0.803-0.039-1.672-0.061-2.609-0.061-5.757 0-12.171 0.751-19.042 2.118-6.871 1.369-14.2 3.355-21.79 5.83s-15.44 5.439-23.356 8.757c-7.911 3.321-15.89 6.996-23.73 10.901-7.842 3.905-15.55 8.035-22.925 12.26-7.373 4.227-14.415 8.548-20.926 12.835-6.512 4.286-12.491 8.539-17.746 12.623-5.253 4.087-9.776 8.009-13.376 11.63zM35.776 418.372h31.566v-401.952c0-4.788 0.487-9.46 1.413-13.978 0.928-4.515 2.293-8.874 4.054-13.028 1.759-4.152 3.911-8.1 6.41-11.795s5.344-7.139 8.487-10.283c3.143-3.143 6.587-5.988 10.283-8.487 3.695-2.497 7.643-4.649 11.795-6.41 4.154-1.759 8.511-3.126 13.028-4.052 4.517-0.928 9.192-1.415 13.978-1.415h808.111c4.788 0 9.463 0.487 13.98 1.415 4.515 0.926 8.874 2.293 13.028 4.052 4.152 1.761 8.1 3.914 11.795 6.41 3.695 2.499 7.139 5.344 10.283 8.487s5.986 6.587 8.485 10.283c2.501 3.695 4.651 7.643 6.412 11.795 1.759 4.154 3.126 8.513 4.054 13.028 0.924 4.517 1.411 9.19 1.411 13.978v401.952h31.568c2.464 0 4.874 0.251 7.2 0.729 2.328 0.478 4.573 1.181 6.713 2.088 2.14 0.904 4.171 2.016 6.077 3.301 1.902 1.287 3.676 2.754 5.296 4.372 1.618 1.62 3.085 3.392 4.372 5.298 1.285 1.902 2.395 3.935 3.301 6.077 0.906 2.137 1.612 4.383 2.088 6.709 0.478 2.328 0.729 4.736 0.729 7.202v168.356c0 4.788-0.487 9.463-1.413 13.98-0.928 4.515-2.293 8.874-4.054 13.026-1.759 4.154-3.911 8.102-6.41 11.795-2.499 3.697-5.344 7.139-8.487 10.283-3.141 3.143-6.585 5.99-10.283 8.487-3.693 2.499-7.643 4.651-11.795 6.412-4.152 1.759-8.511 3.126-13.030 4.052-4.515 0.928-9.19 1.413-13.978 1.413h-206.352c1.679 1.188 3.325 2.369 4.93 3.544 1.603 1.173 3.172 2.339 4.699 3.494 1.525 1.157 3.011 2.304 4.457 3.44s2.847 2.261 4.206 3.375c1.356 1.112 2.672 2.213 3.94 3.299 1.27 1.088 2.49 2.159 3.665 3.217 1.175 1.056 2.3 2.098 3.377 3.126 1.077 1.023 2.103 2.031 3.081 3.020 6.886 6.931 12.911 14.404 18.079 22.285 5.164 7.879 9.469 16.167 12.913 24.727s6.025 17.391 7.749 26.359c1.72 8.967 2.581 18.071 2.581 27.174s-0.861 18.205-2.581 27.172c-1.724 8.967-4.305 17.8-7.749 26.359s-7.749 16.848-12.913 24.727c-5.168 7.881-11.193 15.356-18.079 22.285-3.195 3.215-6.559 6.254-10.079 9.119-3.518 2.862-7.189 5.547-10.994 8.046-3.808 2.499-7.751 4.809-11.81 6.929-4.061 2.118-8.234 4.046-12.511 5.768-4.275 1.726-8.649 3.249-13.101 4.565-4.454 1.317-8.989 2.423-13.586 3.316-4.597 0.891-9.257 1.566-13.96 2.021s-9.447 0.684-14.218 0.684c-4.772 0-9.517-0.231-14.218-0.684-4.703-0.454-9.361-1.129-13.958-2.021-4.593-0.893-9.125-2.001-13.58-3.316-4.452-1.315-8.827-2.838-13.101-4.565-4.273-1.724-8.448-3.65-12.509-5.768-4.059-2.12-8-4.431-11.806-6.929-3.808-2.497-7.479-5.183-10.996-8.046s-6.882-5.904-10.075-9.116c-1.936-1.943-4.043-4.234-6.295-6.841-2.25-2.605-4.647-5.525-7.15-8.723-2.505-3.2-5.121-6.678-7.812-10.402-2.691-3.721-5.463-7.689-8.275-11.866-2.815-4.177-5.672-8.563-8.543-13.125-2.869-4.558-5.75-9.294-8.608-14.168-2.86-4.874-5.698-9.891-8.483-15.010s-5.512-10.341-8.156-15.633c-1.798-3.6-3.615-7.355-5.428-11.243s-3.626-7.905-5.4-12.031c-1.78-4.128-3.524-8.361-5.212-12.682-1.685-4.318-3.314-8.721-4.855-13.184-1.545-4.465-3.001-8.991-4.346-13.551s-2.574-9.158-3.669-13.77c-1.095-4.612-2.044-9.238-2.834-13.852-0.787-4.612-1.411-9.218-1.839-13.787-0.431 4.571-1.054 9.175-1.843 13.787-0.79 4.617-1.744 9.24-2.838 13.852s-2.326 9.212-3.671 13.772c-1.346 4.56-2.804 9.086-4.346 13.549s-3.169 8.866-4.857 13.186c-1.687 4.318-3.431 8.554-5.207 12.68-1.778 4.126-3.587 8.143-5.4 12.031s-3.632 7.643-5.428 11.243c-2.644 5.294-5.372 10.518-8.156 15.639s-5.62 10.135-8.48 15.012c-2.858 4.874-5.739 9.61-8.606 14.17-2.869 4.563-5.726 8.948-8.539 13.125-2.812 4.175-5.579 8.143-8.271 11.864-2.691 3.723-5.305 7.2-7.808 10.399-2.503 3.197-4.898 6.116-7.148 8.721s-4.357 4.894-6.289 6.834c-3.193 3.215-6.557 6.254-10.075 9.119-3.518 2.862-7.191 5.547-10.996 8.046-3.808 2.499-7.747 4.809-11.806 6.929-4.061 2.118-8.236 4.046-12.511 5.768-4.275 1.726-8.647 3.249-13.099 4.565s-8.989 2.423-13.584 3.316c-4.595 0.891-9.253 1.566-13.954 2.021s-9.447 0.684-14.218 0.684c-4.77 0-9.517-0.229-14.22-0.684s-9.363-1.129-13.958-2.021c-4.597-0.893-9.132-1.999-13.586-3.316-4.454-1.315-8.829-2.838-13.101-4.565-4.277-1.722-8.452-3.65-12.513-5.768-4.059-2.12-8-4.431-11.808-6.929s-7.479-5.183-10.999-8.046c-3.518-2.864-6.882-5.904-10.075-9.119-6.884-6.927-12.909-14.399-18.073-22.278-5.166-7.879-9.471-16.165-12.915-24.725-3.444-8.558-6.027-17.389-7.751-26.354-1.724-8.967-2.587-18.071-2.592-27.174-0.002-9.104 0.855-18.207 2.572-27.174s4.296-17.798 7.734-26.361c3.44-8.56 7.738-16.848 12.898-24.73 5.16-7.883 11.18-15.358 18.060-22.289 0.987-0.995 2.025-2.008 3.111-3.035s2.222-2.073 3.403-3.133c1.181-1.060 2.41-2.135 3.682-3.223 1.274-1.086 2.592-2.189 3.952-3.299 1.361-1.114 2.765-2.239 4.21-3.375 1.445-1.134 2.931-2.278 4.457-3.433 1.525-1.153 3.089-2.317 4.69-3.487s3.241-2.347 4.915-3.531h-206.354c-4.785 0-9.463-0.485-13.978-1.413-4.517-0.926-8.876-2.293-13.028-4.052-4.154-1.761-8.102-3.914-11.797-6.412-3.695-2.497-7.137-5.344-10.283-8.487-3.143-3.143-5.988-6.585-8.487-10.283-2.499-3.693-4.649-7.641-6.408-11.795-1.761-4.152-3.128-8.511-4.054-13.026-0.926-4.517-1.413-9.192-1.413-13.98v-168.356c0-2.466 0.251-4.874 0.729-7.202 0.476-2.326 1.179-4.571 2.085-6.709 0.909-2.142 2.016-4.175 3.303-6.077 1.287-1.906 2.752-3.678 4.372-5.298 1.62-1.618 3.392-3.085 5.296-4.372 1.904-1.285 3.937-2.397 6.077-3.301 2.14-0.906 4.385-1.61 6.711-2.088 2.328-0.478 4.736-0.729 7.202-0.729z" />
<glyph unicode="&#xe92d;" glyph-name="whats_app" horiz-adv-x="983" d="M644.041 410.989c-11.126 4.527-19.25 6.874-27.953-5.152-8.657-11.995-33.302-38.85-40.786-46.791-7.499-7.987-14.723-8.703-26.84-2.088-12.056 6.645-51.272 21.14-96.752 64.837-35.391 34.019-58.618 75.277-65.34 87.882-6.721 12.589-0.061 19.021 6.371 24.935 5.746 5.304 12.864 13.931 19.265 20.865 6.417 6.965 8.688 12.025 13.092 20.103 4.405 8.063 2.652 15.333-0.213 21.612-2.85 6.279-25.209 67.809-34.583 92.851-9.328 25.026-19.738 21.338-26.947 21.597-7.163 0.274-15.333 1.616-23.578 1.89-8.185 0.32-21.643-2.271-33.394-14.144-11.766-11.904-44.718-40.512-46.974-101.127-2.271-60.615 39.673-120.864 45.541-129.278 5.837-8.459 80.078-139.825 203.442-193.855 123.394-54.061 124.050-37.57 146.668-36.381 22.649 1.189 73.997 27.099 85.337 55.463 11.385 28.364 12.269 53.010 9.389 58.283-2.896 5.274-10.959 8.627-23.045 15.272-12.117 6.615-71.528 38.667-82.7 43.225zM279.405 142.085l-154.38-49.413 50.19 149.198c-48.102 66.239-76.497 147.628-76.497 235.525 0 221.549 180.214 401.794 401.718 401.794 221.549 0 401.763-180.245 401.763-401.794 0-221.503-180.214-401.718-401.763-401.718-81.587 0-157.566 24.462-221.031 66.407zM17.863 477.396c0-91.174 25.301-176.434 69.242-249.182l-87.105-258.906 267.212 85.535c69.12-38.225 148.634-60.051 233.224-60.051 266.557 0 482.604 216.123 482.604 482.604 0 266.557-216.047 482.604-482.604 482.604-266.511 0-482.573-216.047-482.573-482.604z" />
</font>
</defs>
</svg>
