<?xml version="1.0" standalone="no"?>
<!DOCTYPE svg PUBLIC "-//W3C//DTD SVG 1.1//EN" "http://www.w3.org/Graphics/SVG/1.1/DTD/svg11.dtd" >
<svg>
<metadata>
Created by FontForge 20120731 at Mon Jul  8 07:27:13 2019
 By www-data
Copyright \251 2014 by Type Dynamic. All rights reserved.
</metadata>
<defs>
<font id="Sailec" horiz-adv-x="591" >
  <font-face 
    font-family="Sailec Regular"
    font-weight="400"
    font-stretch="normal"
    units-per-em="1000"
    panose-1="0 0 5 0 0 0 0 0 0 0"
    ascent="800"
    descent="-200"
    x-height="510"
    cap-height="748"
    bbox="-209 -306 1188 1063"
    underline-thickness="50"
    underline-position="-50"
    stemh="81"
    stemv="86"
    unicode-range="U+000D-FB02"
  />
<missing-glyph horiz-adv-x="703" 
d="M622 748v-748h-541v748h541zM509 686h-313l157 -256zM147 638v-530l166 265zM556 634l-162 -261l162 -260v521zM353 317l-155 -255h311z" />
    <glyph glyph-name="fi" unicode="fi" horiz-adv-x="604" 
d="M292 781c11 0 23 -1 38 -2v-75c-11 1 -20 2 -29 2c-63 0 -104 -41 -104 -109v-87h131v-75h-131v-435h-86v435h-99v75h99v85c0 116 70 186 181 186zM531 694c0 -31 -26 -56 -57 -56c-32 0 -57 25 -57 56c0 32 26 57 57 57s57 -25 57 -57zM516 510v-510h-86v510h86z" />
    <glyph glyph-name="f_j" unicode="fj" horiz-adv-x="604" 
d="M292 781c11 0 23 -1 38 -2v-75c-11 1 -20 2 -29 2c-63 0 -104 -41 -104 -109v-87h131v-75h-131v-435h-86v435h-99v75h99v85c0 116 70 186 181 186zM474 751c31 0 57 -25 57 -57c0 -31 -26 -56 -57 -56c-32 0 -57 25 -57 56c0 32 25 57 57 57zM431 510h86v-585
c0 -117 -66 -185 -173 -185c-13 0 -27 1 -40 3v75c9 -2 19 -3 30 -3c60 0 97 39 97 108v587z" />
    <glyph glyph-name=".notdef" horiz-adv-x="703" 
d="M622 748v-748h-541v748h541zM509 686h-313l157 -256zM147 638v-530l166 265zM556 634l-162 -261l162 -260v521zM353 317l-155 -255h311z" />
    <glyph glyph-name="NULL" horiz-adv-x="0" 
 />
    <glyph glyph-name="CR" horiz-adv-x="333" 
 />
    <glyph glyph-name="CR.001" unicode="&#xd;" horiz-adv-x="600" 
 />
    <glyph glyph-name="space" unicode=" " horiz-adv-x="238" 
 />
    <glyph glyph-name="exclam" unicode="!" horiz-adv-x="279" 
d="M189 748l-5 -545h-91l-4 545h100zM139 109c33 0 60 -27 60 -60c0 -32 -27 -59 -60 -59c-32 0 -59 27 -59 59c0 33 27 60 59 60z" />
    <glyph glyph-name="quotedbl" unicode="&#x22;" horiz-adv-x="332" 
d="M135 742l-10 -230h-70l-10 230h90zM286 742l-10 -230h-70l-10 230h90z" />
    <glyph glyph-name="numbersign" unicode="#" horiz-adv-x="635" 
d="M556 748l-49 -206h120l-16 -70h-121l-47 -198h126l-16 -69h-126l-49 -205h-76l49 205h-148l-49 -205h-76l49 205h-119l16 69h120l47 198h-125l17 70h124l50 206h75l-49 -206h148l50 206h75zM415 472h-149l-47 -198h149z" />
    <glyph glyph-name="dollar" unicode="$" horiz-adv-x="656" 
d="M606 206c0 -133 -95 -206 -236 -215v-109h-73v110c-69 7 -126 29 -171 66c-44 38 -67 88 -70 150l92 5c3 -43 23 -78 59 -104s80 -39 133 -39c105 0 173 42 173 129c0 35 -14 62 -33 78c-9 9 -23 17 -43 25c-19 8 -37 14 -53 18c-15 5 -38 11 -69 18c-40 9 -72 18 -96 26
c-24 9 -49 21 -74 36c-49 31 -72 78 -72 146c0 57 19 105 58 144s94 62 166 67v108h73v-109c127 -15 209 -90 214 -206l-93 -6c-5 84 -68 134 -163 134c-104 0 -162 -53 -162 -129c0 -41 14 -69 41 -86c28 -17 75 -32 141 -47c89 -21 140 -38 188 -70c49 -31 70 -76 70 -140
z" />
    <glyph glyph-name="percent" unicode="%" horiz-adv-x="840" 
d="M84 709c31 33 70 49 118 49s87 -16 117 -49c31 -32 46 -75 46 -129s-15 -97 -46 -130c-30 -33 -69 -49 -117 -49s-87 16 -118 49s-46 76 -46 130s15 97 46 129zM726 748l-528 -748h-85l528 748h85zM201 696c-57 0 -99 -45 -99 -116c0 -72 42 -118 99 -118
c59 0 99 46 99 118s-40 116 -99 116zM637 347c96 0 164 -70 164 -178s-68 -179 -164 -179c-47 0 -86 16 -117 49s-46 76 -46 130s15 97 46 129c31 33 70 49 117 49zM637 52c59 0 99 44 99 117s-40 117 -99 117s-99 -45 -99 -117s42 -117 99 -117z" />
    <glyph glyph-name="ampersand" unicode="&#x26;" horiz-adv-x="697" 
d="M699 59l-56 -68l-125 112c-63 -74 -140 -111 -232 -111c-77 0 -137 19 -180 58s-64 90 -64 151c0 85 43 158 130 217c-43 49 -64 99 -64 151c0 121 81 189 204 189c108 0 188 -64 201 -169l-88 -6c-9 61 -50 96 -113 96c-69 0 -112 -38 -112 -109c0 -59 32 -96 103 -157
l12 -10l191 -171c23 43 43 98 60 163l81 -22c-22 -79 -48 -144 -79 -197zM288 69c65 0 122 29 170 88l-208 186l-26 23c-59 -42 -89 -94 -89 -157c0 -85 58 -140 153 -140z" />
    <glyph glyph-name="quotesingle" unicode="'" horiz-adv-x="181" 
d="M135 742l-10 -230h-70l-10 230h90z" />
    <glyph glyph-name="parenleft" unicode="(" horiz-adv-x="255" 
d="M161 728l75 -27c-73 -116 -110 -243 -110 -381c0 -137 37 -264 110 -380l-75 -28c-81 121 -121 257 -121 408c0 152 40 288 121 408z" />
    <glyph glyph-name="parenright" unicode=")" horiz-adv-x="255" 
d="M20 701l75 27c81 -120 121 -256 121 -408c0 -151 -40 -287 -121 -408l-75 28c73 116 110 243 110 380c0 138 -37 265 -110 381z" />
    <glyph glyph-name="asterisk" unicode="*" horiz-adv-x="333" 
d="M191 757l-2 -124l118 40l16 -47l-118 -38l74 -98l-41 -30l-71 101l-72 -102l-40 31l73 98l-118 38l16 47l117 -40l-1 124h49z" />
    <glyph glyph-name="plus" unicode="+" horiz-adv-x="546" 
d="M315 607v-198h198v-79h-198v-203h-84v203h-198v79h198v198h84z" />
    <glyph glyph-name="comma" unicode="," horiz-adv-x="202" 
d="M102 108c35 0 55 -27 55 -67c0 -84 -38 -147 -113 -190v39c34 25 54 59 59 102c-32 0 -58 25 -58 57s25 59 57 59z" />
    <glyph glyph-name="hyphen" unicode="-" horiz-adv-x="403" 
d="M358 302v-81h-313v81h313z" />
    <glyph glyph-name="period" unicode="." horiz-adv-x="207" 
d="M103 109c33 0 60 -27 60 -60c0 -32 -27 -59 -60 -59c-32 0 -58 27 -58 59c0 33 26 60 58 60z" />
    <glyph glyph-name="slash" unicode="/" horiz-adv-x="366" 
d="M355 748l-254 -815h-91l256 815h89z" />
    <glyph glyph-name="zero" unicode="0" horiz-adv-x="644" 
d="M323 758c82 0 147 -34 195 -101c49 -67 73 -161 73 -283s-24 -217 -73 -284c-48 -67 -113 -100 -195 -100c-83 0 -149 33 -198 100c-48 67 -72 162 -72 284s24 216 72 283c49 67 115 101 198 101zM453 599c-30 51 -74 77 -131 77s-101 -26 -131 -77s-45 -126 -45 -225
s15 -174 45 -225s74 -77 131 -77s101 26 131 77c31 51 46 126 46 225s-15 174 -46 225z" />
    <glyph glyph-name="one" unicode="1" horiz-adv-x="372" 
d="M280 748v-748h-90v625l-132 -101l-45 71l200 153h67z" />
    <glyph glyph-name="two" unicode="2" horiz-adv-x="536" 
d="M275 757c137 0 215 -78 215 -209c0 -57 -12 -109 -37 -154s-61 -92 -110 -143l-162 -170h318v-81h-443v74l219 231c46 48 78 88 96 121s27 73 27 118c0 81 -44 132 -121 132c-85 0 -131 -54 -132 -150l-91 5c3 143 82 226 221 226z" />
    <glyph glyph-name="three" unicode="3" horiz-adv-x="557" 
d="M276 758c133 0 215 -80 215 -205c0 -84 -44 -142 -107 -166c75 -17 126 -81 126 -176c0 -67 -21 -121 -64 -161c-42 -40 -98 -60 -168 -60c-144 0 -227 83 -236 220l92 5c8 -92 57 -143 144 -143s140 53 140 141c0 87 -59 133 -148 133h-73v81h71c77 0 131 49 131 126
c0 79 -47 123 -123 123c-79 0 -125 -48 -132 -135l-90 5c5 132 86 212 222 212z" />
    <glyph glyph-name="four" unicode="4" horiz-adv-x="596" 
d="M442 748v-489h129v-82h-129v-177h-89v177h-326v75l339 496h76zM353 584l-225 -325h225v325z" />
    <glyph glyph-name="five" unicode="5" horiz-adv-x="559" 
d="M289 459c66 0 120 -21 161 -62s62 -97 62 -168s-21 -129 -63 -173s-99 -66 -172 -66c-140 0 -224 81 -233 214l92 5c8 -87 55 -137 142 -137c91 0 143 63 143 155c0 91 -56 151 -141 151c-46 0 -88 -15 -125 -45h-84v415h413v-81h-323v-244c38 24 81 36 128 36z" />
    <glyph glyph-name="six" unicode="6" horiz-adv-x="592" 
d="M298 478c72 0 132 -23 179 -68s71 -104 71 -177s-24 -131 -71 -176s-107 -67 -179 -67c-73 0 -134 22 -181 67s-70 103 -70 176c0 57 17 109 51 155l269 360h108l-202 -271c5 1 14 1 25 1zM298 72c92 0 158 65 158 164s-66 162 -158 162c-55 0 -97 -19 -126 -56
c-22 -28 -33 -63 -33 -106c0 -100 66 -164 159 -164z" />
    <glyph glyph-name="seven" unicode="7" horiz-adv-x="539" 
d="M515 748v-74l-351 -674h-101l351 667h-391v81h492z" />
    <glyph glyph-name="eight" unicode="8" horiz-adv-x="599" 
d="M299 758c65 0 119 -18 161 -55c43 -36 64 -85 64 -146c0 -76 -41 -134 -101 -162c72 -31 120 -97 120 -186c0 -67 -23 -120 -69 -160c-45 -39 -104 -59 -175 -59s-129 20 -175 59c-45 40 -68 93 -68 160c0 88 47 154 119 185c-61 27 -101 86 -101 163c0 62 21 111 63 147
s96 54 162 54zM300 676c-79 0 -135 -47 -135 -124c0 -75 56 -121 135 -121c77 0 134 46 134 121c0 77 -57 124 -134 124zM408 313c-29 25 -65 38 -109 38s-80 -13 -109 -38s-43 -58 -43 -101s14 -77 43 -102s65 -38 109 -38s80 13 109 38s43 59 43 102s-14 76 -43 101z" />
    <glyph glyph-name="nine" unicode="9" horiz-adv-x="592" 
d="M294 758c73 0 133 -22 180 -67s71 -103 71 -176c0 -57 -17 -109 -51 -155l-269 -360h-108l202 271c-5 -1 -14 -1 -25 -1c-72 0 -132 23 -179 68s-71 104 -71 177s24 131 71 176s107 67 179 67zM294 350c55 0 97 19 126 56c22 28 33 63 33 106c0 100 -66 164 -159 164
c-92 0 -158 -65 -158 -164s66 -162 158 -162z" />
    <glyph glyph-name="colon" unicode=":" horiz-adv-x="207" 
d="M98 519c33 0 60 -27 60 -60c0 -32 -27 -58 -60 -58c-32 0 -58 26 -58 58c0 33 26 60 58 60zM98 109c33 0 60 -27 60 -60c0 -32 -27 -59 -60 -59c-32 0 -58 27 -58 59c0 33 26 60 58 60z" />
    <glyph glyph-name="semicolon" unicode=";" horiz-adv-x="207" 
d="M98 401c-32 0 -58 26 -58 58c0 33 26 60 58 60c33 0 60 -27 60 -60c0 -32 -27 -58 -60 -58zM102 108c35 0 55 -27 55 -67c0 -84 -38 -147 -113 -190v39c34 25 54 59 59 102c-32 0 -58 25 -58 57s25 59 57 59z" />
    <glyph glyph-name="less" unicode="&#x3c;" horiz-adv-x="518" 
d="M484 601l2 -97l-288 -135l288 -135l-2 -97l-457 232z" />
    <glyph glyph-name="equal" unicode="=" horiz-adv-x="546" 
d="M513 529v-82h-480v82h480zM513 289v-81h-480v81h480z" />
    <glyph glyph-name="greater" unicode="&#x3e;" horiz-adv-x="518" 
d="M34 601l457 -232l-457 -232l-1 97l287 135l-287 135z" />
    <glyph glyph-name="question" unicode="?" horiz-adv-x="501" 
d="M252 758c71 0 127 -20 168 -60c41 -39 62 -91 62 -155c0 -81 -34 -124 -106 -176c-61 -45 -83 -78 -83 -137v-27h-91v31c0 67 28 110 96 165c61 45 90 82 90 143c0 80 -51 136 -136 136s-135 -48 -143 -129l-91 6c8 125 97 203 234 203zM246 109c33 0 60 -27 60 -60
c0 -32 -27 -59 -60 -59c-32 0 -59 27 -59 59c0 33 27 60 59 60z" />
    <glyph glyph-name="at" unicode="@" horiz-adv-x="806" 
d="M403 605c103 0 189 -34 258 -103c69 -68 103 -153 103 -256c0 -131 -55 -203 -144 -203c-51 0 -82 21 -93 62c-30 -43 -77 -65 -141 -65c-112 0 -188 80 -188 208s76 209 188 209c67 0 113 -22 138 -66v54h64v-289c0 -38 16 -57 47 -57c45 0 74 55 74 147
c0 87 -29 160 -88 219c-58 59 -131 88 -218 88c-89 0 -162 -29 -220 -88c-57 -58 -86 -131 -86 -219c0 -89 29 -163 87 -220c59 -57 130 -86 215 -86c70 0 132 17 185 50l15 -50c-57 -35 -124 -53 -200 -53c-101 0 -186 34 -255 102c-68 67 -102 153 -102 257
c0 103 34 189 102 257s154 102 259 102zM521 237v23c0 89 -49 137 -125 137c-77 0 -130 -56 -130 -149s53 -149 130 -149c76 0 125 49 125 138z" />
    <glyph glyph-name="A" unicode="A" horiz-adv-x="735" 
d="M406 748l313 -748h-100l-78 190h-347l-79 -190h-100l313 748h78zM368 607l-140 -337h279z" />
    <glyph glyph-name="B" unicode="B" horiz-adv-x="686" 
d="M90 0v748h280c133 0 223 -71 223 -199c0 -78 -28 -131 -85 -159c68 -23 117 -87 117 -183c0 -135 -93 -207 -229 -207h-306zM359 667h-178v-244h203c77 0 116 40 116 120s-56 124 -141 124zM393 344h-212v-263h204c87 0 147 42 147 131s-60 132 -139 132z" />
    <glyph glyph-name="C" unicode="C" horiz-adv-x="808" 
d="M423 758c89 0 166 -25 229 -75s101 -117 112 -202l-95 -9c-9 64 -37 114 -82 150s-101 54 -167 54c-81 0 -146 -27 -196 -81s-75 -128 -75 -221c0 -95 25 -170 76 -223s117 -79 197 -79c131 0 225 70 248 193l95 -8c-14 -82 -52 -147 -114 -195s-137 -72 -226 -72
c-108 0 -197 34 -266 103s-103 162 -103 281s34 212 102 281c69 69 157 103 265 103z" />
    <glyph glyph-name="D" unicode="D" horiz-adv-x="799" 
d="M90 0v748h292c106 0 192 -33 259 -100s101 -158 101 -274c0 -115 -34 -207 -102 -274s-155 -100 -260 -100h-290zM383 670h-202v-592h200c81 0 146 26 195 77c50 52 75 125 75 219s-25 167 -74 218c-49 52 -113 78 -194 78z" />
    <glyph glyph-name="E" unicode="E" horiz-adv-x="593" 
d="M553 748v-81h-371v-241h327v-79h-327v-266h371v-81h-463v748h463z" />
    <glyph glyph-name="F" unicode="F" horiz-adv-x="583" 
d="M553 748v-81h-371v-245h309v-81h-309v-341h-92v748h463z" />
    <glyph glyph-name="G" unicode="G" horiz-adv-x="821" 
d="M423 380h344v-31c0 -111 -31 -198 -94 -263c-62 -64 -146 -96 -251 -96c-107 0 -194 34 -263 103s-103 162 -103 281s34 212 102 281s156 103 263 103c87 0 162 -24 224 -71c63 -47 101 -111 116 -194l-95 -15c-9 61 -36 110 -81 145s-100 53 -165 53
c-82 0 -148 -26 -197 -79c-49 -52 -74 -126 -74 -223c0 -96 25 -170 74 -223c50 -53 116 -79 197 -79c141 0 234 76 249 227h-246v81z" />
    <glyph glyph-name="H" unicode="H" horiz-adv-x="753" 
d="M663 748v-748h-91v347h-390v-347h-92v748h92v-319h390v319h91z" />
    <glyph glyph-name="I" unicode="I" horiz-adv-x="271" 
d="M182 748v-748h-92v748h92z" />
    <glyph glyph-name="J" unicode="J" horiz-adv-x="579" 
d="M403 748h92v-511c0 -156 -88 -247 -233 -247c-141 0 -231 89 -239 233l92 15c5 -105 59 -166 147 -166c91 0 141 56 141 163v513z" />
    <glyph glyph-name="K" unicode="K" horiz-adv-x="675" 
d="M619 748l-286 -318l327 -430h-112l-276 358l-90 -101v-257h-92v748h92v-355l319 355h118z" />
    <glyph glyph-name="L" unicode="L" 
d="M182 748v-667h375v-81h-467v748h92z" />
    <glyph glyph-name="M" unicode="M" horiz-adv-x="981" 
d="M891 748v-748h-91v541l-278 -536h-61l-279 536v-541h-92v748h80l321 -610l321 610h79z" />
    <glyph glyph-name="N" unicode="N" horiz-adv-x="750" 
d="M660 748v-748h-78l-400 578v-578h-92v748h77l402 -579v579h91z" />
    <glyph glyph-name="O" unicode="O" horiz-adv-x="866" 
d="M163 653c71 70 161 105 270 105s198 -35 269 -105c71 -69 107 -162 107 -279s-36 -210 -107 -280c-71 -69 -160 -104 -269 -104s-199 35 -270 104c-71 70 -107 163 -107 280s36 210 107 279zM433 676c-83 0 -151 -27 -204 -81s-80 -128 -80 -221s27 -166 80 -221
c54 -54 122 -81 204 -81s150 27 203 81c53 55 80 128 80 221s-27 167 -80 221s-121 81 -203 81z" />
    <glyph glyph-name="P" unicode="P" horiz-adv-x="649" 
d="M90 0v748h293c68 0 123 -20 166 -59s64 -95 64 -168c0 -72 -21 -128 -64 -167s-98 -59 -166 -59h-201v-295h-92zM372 667h-191v-291h191c85 0 147 52 147 145c0 95 -62 146 -147 146z" />
    <glyph glyph-name="Q" unicode="Q" horiz-adv-x="868" 
d="M852 -11l-63 -65l-133 132c-63 -44 -138 -66 -223 -66c-109 0 -199 35 -270 104c-71 70 -107 163 -107 280s36 210 107 279c71 70 161 105 270 105s198 -35 269 -105c71 -69 107 -162 107 -279c0 -102 -29 -188 -86 -257zM433 72c61 0 114 15 160 46l-149 148l64 65
l151 -150c38 52 57 116 57 193c0 93 -27 167 -80 221s-121 81 -203 81c-83 0 -151 -27 -204 -81s-80 -128 -80 -221s27 -166 80 -221c54 -54 122 -81 204 -81z" />
    <glyph glyph-name="R" unicode="R" horiz-adv-x="686" 
d="M648 0h-103l-168 300h-195v-300h-92v748h289c67 0 122 -19 165 -58s65 -94 65 -166c0 -107 -52 -178 -137 -209zM181 667v-286h187c84 0 147 50 147 143s-63 143 -147 143h-187z" />
    <glyph glyph-name="S" unicode="S" horiz-adv-x="656" 
d="M326 758c75 0 136 -19 183 -56s72 -87 75 -152l-93 -6c-5 84 -68 134 -163 134c-104 0 -162 -53 -162 -129c0 -41 14 -69 41 -86c28 -17 75 -32 141 -47c89 -21 140 -38 188 -70c49 -31 70 -76 70 -140c0 -71 -25 -125 -75 -162c-49 -36 -113 -54 -191 -54
c-81 0 -147 19 -200 58s-81 92 -84 160l92 5c3 -43 23 -78 59 -104s80 -39 133 -39c105 0 173 42 173 129c0 35 -14 62 -33 78c-9 9 -23 17 -43 25c-19 8 -37 14 -53 18c-15 5 -38 11 -69 18c-40 9 -72 18 -96 26c-24 9 -49 21 -74 36c-49 31 -72 78 -72 146
c0 61 22 111 65 151c44 41 107 61 188 61z" />
    <glyph glyph-name="T" unicode="T" horiz-adv-x="682" 
d="M665 748v-81h-278v-667h-92v667h-278v81h648z" />
    <glyph glyph-name="U" unicode="U" horiz-adv-x="764" 
d="M589 748h91v-467c0 -185 -114 -291 -298 -291s-298 106 -298 291v467h91v-466c0 -137 76 -210 207 -210c129 0 207 74 207 210v466z" />
    <glyph glyph-name="V" unicode="V" horiz-adv-x="745" 
d="M725 748l-314 -748h-77l-314 748h100l253 -606l252 606h100z" />
    <glyph glyph-name="W" unicode="W" horiz-adv-x="1118" 
d="M1098 748l-261 -748h-77l-201 580l-200 -580h-77l-262 748h99l203 -587l200 587h75l201 -587l202 587h98z" />
    <glyph glyph-name="X" unicode="X" horiz-adv-x="691" 
d="M655 748l-242 -368l253 -380h-106l-214 319l-215 -319h-106l254 380l-242 368h105l204 -306l204 306h105z" />
    <glyph glyph-name="Y" unicode="Y" horiz-adv-x="692" 
d="M675 748l-283 -437v-311h-91v311l-284 437h106l224 -347l222 347h106z" />
    <glyph glyph-name="Z" unicode="Z" horiz-adv-x="618" 
d="M575 748v-69l-422 -598h430v-81h-547v69l421 598h-407v81h525z" />
    <glyph glyph-name="bracketleft" unicode="[" horiz-adv-x="264" 
d="M243 718v-72h-99v-651h99v-72h-185v795h185z" />
    <glyph glyph-name="backslash" unicode="\" horiz-adv-x="366" 
d="M100 748l255 -815h-90l-255 815h90z" />
    <glyph glyph-name="bracketright" unicode="]" horiz-adv-x="264" 
d="M207 718v-795h-184v72h98v651h-98v72h184z" />
    <glyph glyph-name="asciicircum" unicode="^" horiz-adv-x="555" 
d="M278 762l246 -388h-97l-149 252l-150 -252h-98z" />
    <glyph glyph-name="underscore" unicode="_" horiz-adv-x="685" 
d="M640 0v-81h-595v81h595z" />
    <glyph glyph-name="grave" unicode="`" horiz-adv-x="236" 
d="M117 786l102 -191h-68l-133 191h99z" />
    <glyph glyph-name="a" unicode="a" horiz-adv-x="542" 
d="M264 519c125 0 195 -71 195 -198v-321h-87v60c-39 -47 -90 -70 -152 -70c-101 0 -167 54 -167 145c0 95 62 145 187 152l132 8v24c0 83 -36 124 -107 124c-72 0 -111 -47 -111 -106l-87 4c0 47 18 88 54 124s84 54 143 54zM373 205v21l-122 -8c-74 -5 -111 -32 -111 -81
s31 -73 93 -73c84 0 140 45 140 141z" />
    <glyph glyph-name="b" unicode="b" horiz-adv-x="649" 
d="M87 777h86v-344c31 52 94 86 177 86c71 0 130 -24 176 -72c47 -48 70 -112 70 -193s-23 -145 -70 -193c-46 -47 -105 -71 -176 -71c-85 0 -150 37 -181 93v-83h-82v777zM337 444c-97 0 -163 -62 -163 -174v-30c0 -112 66 -175 163 -175c100 0 171 70 171 190
c0 119 -71 189 -171 189z" />
    <glyph glyph-name="c" unicode="c" horiz-adv-x="578" 
d="M304 519c61 0 112 -17 154 -52c43 -34 68 -80 75 -139l-84 -7c-9 76 -68 124 -145 124c-97 0 -163 -71 -163 -190s67 -190 163 -190c80 0 134 44 146 116l84 -8c-19 -113 -107 -183 -230 -183c-73 0 -134 24 -181 71s-70 112 -70 194s23 146 70 193s107 71 181 71z" />
    <glyph glyph-name="d" unicode="d" horiz-adv-x="649" 
d="M561 777v-777h-81v83c-31 -55 -97 -93 -181 -93c-71 0 -130 24 -177 71c-46 48 -69 112 -69 193s23 145 69 193c47 48 106 72 177 72c83 0 147 -35 176 -86v344h86zM311 444c-100 0 -171 -70 -171 -189c0 -120 71 -190 171 -190c97 0 164 63 164 175v30
c0 112 -67 174 -164 174z" />
    <glyph glyph-name="e" unicode="e" 
d="M538 269v-47h-394c5 -97 69 -157 160 -157c75 0 126 34 143 91l86 -5c-11 -47 -37 -85 -78 -116c-41 -30 -91 -45 -149 -45c-75 0 -136 24 -183 71c-47 48 -70 113 -70 194s23 146 70 193s107 71 181 71c73 0 130 -23 171 -68c42 -45 63 -106 63 -182zM303 444
c-91 0 -154 -55 -159 -152h308c-3 92 -54 152 -149 152z" />
    <glyph glyph-name="f" unicode="f" horiz-adv-x="343" 
d="M292 781c11 0 23 -1 38 -2v-75c-11 1 -20 2 -29 2c-63 0 -104 -41 -104 -109v-87h131v-75h-131v-435h-86v435h-99v75h99v85c0 116 70 186 181 186z" />
    <glyph glyph-name="g" unicode="g" horiz-adv-x="644" 
d="M299 519c84 0 150 -38 181 -93v84h81v-539c0 -73 -22 -130 -67 -172c-44 -42 -103 -63 -177 -63c-139 0 -226 72 -247 181l86 3c12 -68 75 -111 158 -111c97 0 161 57 161 156v111c-29 -51 -93 -86 -176 -86c-71 0 -130 24 -177 72c-46 48 -69 112 -69 193s23 145 69 192
c47 48 106 72 177 72zM311 444c-100 0 -171 -70 -171 -190c0 -119 71 -189 171 -189c97 0 164 62 164 174v30c0 112 -67 175 -164 175z" />
    <glyph glyph-name="h" unicode="h" horiz-adv-x="603" 
d="M87 777h86v-337c25 44 82 79 155 79c58 0 105 -19 142 -57s56 -89 56 -152v-310h-87v299c0 84 -52 140 -129 140c-40 0 -73 -14 -99 -41c-25 -27 -38 -61 -38 -100v-298h-86v777z" />
    <glyph glyph-name="i" unicode="i" horiz-adv-x="261" 
d="M188 694c0 -31 -26 -56 -57 -56c-32 0 -57 25 -57 56c0 32 26 57 57 57s57 -25 57 -57zM173 510v-510h-86v510h86z" />
    <glyph glyph-name="j" unicode="j" horiz-adv-x="261" 
d="M131 751c31 0 57 -25 57 -57c0 -31 -26 -56 -57 -56c-32 0 -57 25 -57 56c0 32 25 57 57 57zM88 510h86v-585c0 -117 -66 -185 -173 -185c-14 0 -27 1 -40 3v75c9 -2 19 -3 30 -3c60 0 97 39 97 108v587z" />
    <glyph glyph-name="k" unicode="k" horiz-adv-x="537" 
d="M173 777v-491l224 224h107l-215 -222l239 -288h-110l-190 225l-55 -54v-171h-86v777h86z" />
    <glyph glyph-name="l" unicode="l" horiz-adv-x="261" 
d="M173 777v-777h-86v777h86z" />
    <glyph glyph-name="m" unicode="m" horiz-adv-x="935" 
d="M662 519c57 0 102 -19 137 -58c35 -38 53 -88 53 -150v-311h-86v299c0 85 -48 140 -124 140c-72 0 -121 -51 -128 -123v-6v-310h-87v299c0 84 -49 140 -121 140c-39 0 -71 -14 -96 -41s-37 -61 -37 -100v-298h-86v510h82v-77c29 57 81 86 155 86c75 0 136 -37 167 -101
c31 61 92 101 171 101z" />
    <glyph glyph-name="n" unicode="n" horiz-adv-x="609" 
d="M328 519c58 0 105 -19 142 -57s56 -89 56 -152v-310h-87v299c0 84 -52 140 -129 140c-40 0 -73 -14 -99 -41c-25 -27 -38 -61 -38 -100v-298h-86v510h82v-76c27 49 83 85 159 85z" />
    <glyph glyph-name="o" unicode="o" horiz-adv-x="631" 
d="M127 446c50 49 113 73 188 73s138 -24 187 -73c50 -48 75 -112 75 -191s-25 -143 -75 -192c-49 -49 -112 -73 -187 -73s-138 24 -188 73c-49 49 -74 113 -74 192s25 143 74 191zM440 393c-33 34 -74 51 -125 51s-93 -17 -126 -51s-49 -80 -49 -138s16 -104 49 -139
c33 -34 75 -51 126 -51s92 17 125 51c33 35 50 81 50 139s-17 104 -50 138z" />
    <glyph glyph-name="p" unicode="p" horiz-adv-x="649" 
d="M350 519c71 0 130 -24 176 -72c47 -47 70 -111 70 -192s-23 -145 -70 -193c-46 -48 -105 -72 -176 -72c-83 0 -146 34 -177 86v-331h-86v765h82v-84c31 56 96 93 181 93zM337 444c-97 0 -163 -63 -163 -175v-30c0 -111 66 -174 163 -174c100 0 171 70 171 189
c0 120 -71 190 -171 190z" />
    <glyph glyph-name="q" unicode="q" horiz-adv-x="649" 
d="M299 519c84 0 150 -38 181 -93v84h81v-765h-86v331c-29 -51 -93 -86 -176 -86c-71 0 -130 24 -177 72c-46 48 -69 112 -69 193s23 145 69 192c47 48 106 72 177 72zM311 444c-100 0 -171 -70 -171 -190c0 -119 71 -189 171 -189c97 0 164 62 164 174v30
c0 112 -67 175 -164 175z" />
    <glyph glyph-name="r" unicode="r" horiz-adv-x="340" 
d="M321 516v-83c-89 0 -148 -60 -148 -140v-293h-86v510h84v-77c20 47 71 83 150 83z" />
    <glyph glyph-name="s" unicode="s" horiz-adv-x="499" 
d="M244 518c109 1 175 -61 187 -153l-86 -5c-7 57 -41 85 -104 84c-63 1 -97 -27 -97 -74c0 -22 9 -39 26 -48c12 -5 16 -8 31 -12l19 -5c9 -1 34 -7 45 -10c121 -29 177 -63 177 -147c0 -100 -74 -158 -193 -158c-115 0 -189 56 -202 155l86 6c8 -57 47 -86 118 -86
c64 0 105 27 105 76c0 25 -9 42 -26 52c-17 11 -50 22 -100 34l-57 14c-13 4 -29 10 -46 17c-48 20 -65 51 -70 111c0 91 70 150 187 149z" />
    <glyph glyph-name="t" unicode="t" horiz-adv-x="357" 
d="M283 71c13 0 30 2 50 5v-77c-23 -4 -46 -6 -69 -6c-97 0 -158 52 -157 160l1 282h-95v75h95l1 176h87l-1 -176h137v-75h-137l-2 -265c0 -66 30 -99 90 -99z" />
    <glyph glyph-name="u" unicode="u" 
d="M504 510v-510h-82v76c-21 -47 -74 -86 -153 -86c-57 0 -102 19 -136 56c-33 38 -50 88 -50 149v315h86v-303c0 -84 44 -136 120 -136c79 0 129 62 129 141v298h86z" />
    <glyph glyph-name="v" unicode="v" horiz-adv-x="530" 
d="M520 510l-220 -510h-69l-221 510h95l161 -380l158 380h96z" />
    <glyph glyph-name="w" unicode="w" horiz-adv-x="820" 
d="M810 510l-194 -510h-69l-137 365l-137 -365h-69l-194 510h94l137 -370l138 370h61l139 -370l138 370h93z" />
    <glyph glyph-name="x" unicode="x" horiz-adv-x="515" 
d="M489 510l-169 -249l179 -261h-103l-138 202l-140 -202h-101l175 263l-167 247h102l131 -191l128 191h103z" />
    <glyph glyph-name="y" unicode="y" horiz-adv-x="530" 
d="M515 510l-322 -765h-95l121 283l-203 482h96l154 -385l153 385h96z" />
    <glyph glyph-name="z" unicode="z" horiz-adv-x="448" 
d="M405 510v-58l-271 -382h283v-70h-384v57l272 382h-266v71h366z" />
    <glyph glyph-name="braceleft" unicode="{" horiz-adv-x="251" 
d="M228 718v-73h-6c-67 0 -87 -49 -66 -161c8 -45 11 -74 7 -106s-22 -52 -54 -57c32 -7 50 -26 54 -58s1 -61 -7 -106c-21 -113 -1 -162 66 -162h6v-72h-6c-121 0 -182 80 -151 227c25 83 21 134 -43 134h-8v72h8c64 0 68 52 43 135c-31 145 31 227 151 227h6z" />
    <glyph glyph-name="bar" unicode="|" horiz-adv-x="254" 
d="M169 748v-815h-86v815h86z" />
    <glyph glyph-name="braceright" unicode="}" horiz-adv-x="251" 
d="M23 645v73h6c121 0 182 -82 151 -227c-9 -39 -13 -58 -13 -83c0 -34 13 -52 56 -52h8v-72h-8c-28 0 -43 -10 -51 -23c-4 -6 -6 -16 -6 -29c1 -25 5 -43 14 -82c31 -147 -30 -227 -151 -227h-6v72h6c67 0 87 49 66 162c-8 45 -11 74 -7 106s22 51 54 58
c-32 5 -50 25 -54 57s-1 61 7 106c21 112 1 161 -66 161h-6z" />
    <glyph glyph-name="asciitilde" unicode="~" horiz-adv-x="536" 
d="M475 440l40 -57c-44 -56 -87 -84 -151 -84c-31 0 -65 10 -102 31c-36 21 -65 31 -87 31c-49 0 -78 -16 -114 -59l-40 58c44 56 85 82 146 82c25 0 56 -11 92 -32c37 -21 69 -31 97 -31c52 0 83 18 119 61z" />
    <glyph glyph-name="exclamdown" unicode="&#xa1;" horiz-adv-x="279" 
d="M141 391c-33 0 -60 27 -60 60c0 32 27 59 60 59c32 0 58 -27 58 -59c0 -33 -26 -60 -58 -60zM90 -248l5 545h91l5 -545h-101z" />
    <glyph glyph-name="cent" unicode="&#xa2;" horiz-adv-x="578" 
d="M450 181l84 -8c-17 -101 -91 -169 -196 -181v-110h-73v111c-63 8 -115 35 -154 81c-39 47 -58 107 -58 181s19 134 58 180c39 47 91 74 154 82v110h73v-110c105 -12 182 -82 195 -189l-84 -7c-9 76 -68 124 -145 124c-97 0 -163 -71 -163 -190s67 -190 163 -190
c80 0 134 44 146 116z" />
    <glyph glyph-name="sterling" unicode="&#xa3;" horiz-adv-x="547" 
d="M147 81h372v-81h-484v75c79 32 111 90 102 197l-4 56h-105v72h99l-8 107c-15 159 51 251 195 251c124 0 191 -72 194 -184l-91 -5c0 65 -36 108 -105 108c-79 0 -115 -51 -108 -154l10 -123h172v-72h-167l5 -57c7 -77 -19 -141 -77 -190z" />
    <glyph glyph-name="currency" unicode="&#xa4;" horiz-adv-x="588" 
d="M473 252c0 -44 -9 -82 -28 -114l118 -118l-55 -54l-117 116c-27 -17 -60 -26 -97 -26c-36 0 -68 9 -96 28l-118 -118l-55 54l119 119c-19 32 -29 70 -29 113s10 81 30 114l-120 120l55 54l118 -118c59 36 133 36 192 0l118 118l55 -54l-120 -120c20 -33 30 -71 30 -114z
M294 118c63 0 108 53 108 134c0 41 -10 74 -30 98c-20 25 -46 37 -78 37s-58 -12 -79 -37c-20 -24 -30 -57 -30 -98c0 -83 45 -134 109 -134z" />
    <glyph glyph-name="yen" unicode="&#xa5;" horiz-adv-x="692" 
d="M675 748l-258 -399h116v-55h-141v-91h141v-55h-141v-148h-91v148h-141v55h141v91h-141v55h116l-259 399h106l224 -347l222 347h106z" />
    <glyph glyph-name="brokenbar" unicode="&#xa6;" horiz-adv-x="254" 
d="M169 748v-319h-86v319h86zM169 252v-319h-86v319h86z" />
    <glyph glyph-name="section" unicode="&#xa7;" horiz-adv-x="516" 
d="M398 251c45 -24 67 -63 67 -118c0 -100 -81 -161 -205 -161c-129 0 -213 59 -213 159l86 4c1 -60 50 -94 127 -94c72 0 119 31 119 88c0 55 -37 72 -136 93c-125 27 -189 66 -189 155c0 48 22 87 65 116c-38 23 -57 60 -57 110c0 96 76 155 189 155
c120 0 196 -57 197 -150l-86 -3c-1 55 -43 84 -110 84c-63 0 -104 -28 -104 -84c0 -52 34 -66 122 -85c127 -28 189 -66 189 -155c0 -55 -20 -85 -61 -114zM133 381c0 -55 39 -71 142 -92c17 -3 34 -7 52 -12c36 23 52 44 52 84c0 28 -11 48 -32 59s-58 22 -109 33
c-21 5 -39 9 -52 13c-35 -24 -53 -52 -53 -85z" />
    <glyph glyph-name="dieresis" unicode="&#xa8;" horiz-adv-x="294" 
d="M124 681c0 -29 -23 -51 -52 -51s-52 22 -52 51c0 28 23 51 52 51s52 -23 52 -51zM273 681c0 -29 -22 -51 -51 -51s-53 22 -53 51c0 28 24 51 53 51s51 -23 51 -51z" />
    <glyph glyph-name="copyright" unicode="&#xa9;" horiz-adv-x="583" 
d="M292 759c73 0 135 -24 185 -73s75 -109 75 -180s-25 -131 -75 -180c-50 -48 -112 -72 -185 -72c-75 0 -137 24 -187 72c-50 49 -75 109 -75 180c0 72 25 132 75 180c50 49 112 73 187 73zM452 664c-43 42 -96 63 -161 63s-118 -21 -161 -63s-64 -95 -64 -158
s21 -116 64 -158c43 -41 96 -62 161 -62s118 21 161 62c43 42 64 95 64 158s-21 116 -64 158zM292 663c73 0 130 -44 139 -113l-50 -3c-7 45 -42 72 -89 72c-59 0 -98 -43 -98 -112s42 -112 99 -112c45 0 80 26 88 67l51 -3c-12 -67 -67 -109 -139 -109
c-43 0 -78 14 -107 43c-28 29 -42 67 -42 114c0 96 63 156 148 156z" />
    <glyph glyph-name="ordfeminine" unicode="&#xaa;" horiz-adv-x="441" 
d="M218 756c106 0 159 -53 159 -160v-256h-73v52c-23 -35 -72 -60 -129 -60c-83 0 -134 40 -134 115s55 117 164 124l94 6v24c0 56 -29 88 -81 88c-56 0 -89 -37 -89 -81l-76 3c0 39 15 72 45 101s70 44 120 44zM300 504v18l-89 -6c-61 -5 -91 -26 -91 -65s23 -58 70 -58
c60 -1 110 36 110 111z" />
    <glyph glyph-name="guillemotleft" unicode="&#xab;" horiz-adv-x="531" 
d="M194 473l68 -43l-149 -176l149 -176l-68 -44l-179 220zM442 473l68 -43l-149 -176l149 -176l-68 -44l-179 220z" />
    <glyph glyph-name="logicalnot" unicode="&#xac;" horiz-adv-x="556" 
d="M511 414v-249h-68v181h-405v68h473z" />
    <glyph glyph-name="registered" unicode="&#xae;" horiz-adv-x="583" 
d="M292 759c73 0 135 -24 185 -73s75 -109 75 -180s-25 -131 -75 -180c-50 -48 -112 -72 -185 -72c-75 0 -137 24 -187 72c-50 49 -75 109 -75 180c0 72 25 132 75 180c50 49 112 73 187 73zM130 348c43 -41 96 -62 161 -62s118 21 161 62c43 42 64 95 64 158
s-21 116 -64 158s-96 63 -161 63s-118 -21 -161 -63s-64 -95 -64 -158s21 -116 64 -158zM403 566c0 -42 -17 -71 -50 -86l66 -127h-54l-62 119h-69v-119h-49v306h124c56 0 94 -34 94 -93zM234 618v-105h62c38 0 57 18 57 53s-19 52 -57 52h-62z" />
    <glyph glyph-name="overscore" unicode="&#xaf;" horiz-adv-x="294" 
d="M279 702v-67h-264v67h264z" />
    <glyph glyph-name="degree" unicode="&#xb0;" horiz-adv-x="347" 
d="M317 617v-22c0 -87 -57 -139 -144 -139c-85 0 -143 52 -143 139v22c0 88 56 140 143 140s144 -52 144 -140zM90 614v-16c0 -55 32 -88 83 -88s84 33 84 88v16c0 55 -33 89 -84 89s-83 -33 -83 -89z" />
    <glyph glyph-name="plusminus" unicode="&#xb1;" horiz-adv-x="546" 
d="M315 707v-198h198v-79h-198v-202h-84v202h-198v79h198v198h84zM513 165v-81h-480v81h480z" />
    <glyph glyph-name="acute" unicode="&#xb4;" horiz-adv-x="236" 
d="M218 786l-132 -191h-69l103 191h98z" />
    <glyph glyph-name="paragraph" unicode="&#xb6;" horiz-adv-x="666" 
d="M646 748v-65h-69v-750h-68v750h-130v-750h-67v446h-62c-124 0 -206 65 -206 185c0 117 82 184 206 184h396z" />
    <glyph glyph-name="middot" unicode="&#xb7;" horiz-adv-x="217" 
d="M103 355c33 0 60 -27 60 -60c0 -32 -27 -59 -60 -59c-32 0 -58 27 -58 59c0 33 26 60 58 60z" />
    <glyph glyph-name="cedilla" unicode="&#xb8;" horiz-adv-x="274" 
d="M104 8h46l-13 -57c68 -5 111 -38 111 -95c0 -64 -57 -101 -126 -101c-37 0 -69 7 -97 21l16 53c21 -13 46 -20 73 -20c37 0 69 16 69 48c0 33 -26 50 -78 50c-7 0 -17 -1 -29 -4z" />
    <glyph glyph-name="ordmasculine" unicode="&#xba;" horiz-adv-x="506" 
d="M100 697c40 39 91 59 152 59s112 -20 152 -59s60 -90 60 -154s-20 -115 -60 -154c-40 -38 -91 -57 -152 -57s-112 19 -152 57c-39 39 -59 90 -59 154s20 115 59 154zM253 689c-77 0 -133 -57 -133 -146s56 -144 133 -144c79 0 134 55 134 144s-55 146 -134 146z" />
    <glyph glyph-name="guillemotright" unicode="&#xbb;" horiz-adv-x="531" 
d="M88 473l180 -219l-180 -220l-68 44l150 176l-150 176zM336 473l179 -219l-179 -220l-68 44l149 176l-149 176z" />
    <glyph glyph-name="onequarter" unicode="&#xbc;" horiz-adv-x="690" 
d="M640 748l-527 -748h-89l527 748h89zM175 733v-411h-68v321l-69 -53l-30 53l124 90h43zM609 411v-260h62v-61h-62v-90h-68v90h-178v53l182 268h64zM542 318l-119 -167h119v167z" />
    <glyph glyph-name="onehalf" unicode="&#xbd;" horiz-adv-x="728" 
d="M640 748l-527 -748h-89l527 748h89zM175 733v-411h-68v321l-69 -53l-30 53l124 90h43zM571 417c83 0 126 -50 126 -125c0 -57 -25 -99 -74 -152l-77 -80h155v-60h-256v46l129 135c37 39 55 76 55 112c0 39 -21 64 -57 64c-39 0 -63 -26 -63 -70l-66 4
c1 79 49 126 128 126z" />
    <glyph glyph-name="threequarters" unicode="&#xbe;" horiz-adv-x="781" 
d="M730 748l-527 -748h-89l527 748h89zM159 738c77 0 124 -44 124 -115c0 -42 -18 -72 -55 -89c36 -11 63 -46 63 -95c0 -76 -52 -124 -131 -124c-83 0 -130 47 -133 123l67 5c4 -45 26 -67 66 -67s64 24 64 65c0 40 -28 62 -69 62h-41v58h40c36 0 63 23 63 59
s-23 58 -58 58c-36 0 -59 -23 -60 -63l-66 4c3 75 47 119 126 119zM699 411v-260h62v-61h-62v-90h-68v90h-178v53l182 268h64zM632 318l-119 -167h119v167z" />
    <glyph glyph-name="questiondown" unicode="&#xbf;" horiz-adv-x="501" 
d="M256 401c-33 0 -60 27 -60 60c0 32 27 58 60 58c32 0 58 -26 58 -58c0 -33 -26 -60 -58 -60zM250 -249c-71 0 -128 20 -169 60c-41 39 -61 91 -61 155c0 81 34 124 106 177c60 45 82 79 82 136v28h92v-32c0 -65 -28 -109 -96 -164c-63 -47 -91 -82 -91 -143
c0 -80 52 -136 137 -136c84 0 134 47 143 128l91 -5c-9 -125 -98 -204 -234 -204z" />
    <glyph glyph-name="Agrave" unicode="&#xc0;" horiz-adv-x="735" 
d="M258 936l148 -141h-82l-187 141h121zM406 748l313 -748h-100l-78 190h-347l-79 -190h-100l313 748h78zM368 607l-140 -337h279z" />
    <glyph glyph-name="Aacute" unicode="&#xc1;" horiz-adv-x="735" 
d="M595 936l-187 -141h-82l149 141h120zM406 748l313 -748h-100l-78 190h-347l-79 -190h-100l313 748h78zM368 607l-140 -337h279z" />
    <glyph glyph-name="Acircumflex" unicode="&#xc2;" horiz-adv-x="735" 
d="M409 938l119 -143h-75l-85 90l-86 -90h-74l119 143h82zM406 748l313 -748h-100l-78 190h-347l-79 -190h-100l313 748h78zM368 607l-140 -337h279z" />
    <glyph glyph-name="Atilde" unicode="&#xc3;" horiz-adv-x="735" 
d="M295 936c22 0 46 -10 73 -31s48 -31 63 -31c32 0 49 22 50 55h49c4 -67 -33 -120 -90 -120c-22 0 -47 10 -74 30c-27 21 -47 31 -62 31c-31 0 -48 -18 -49 -54h-50c-4 67 33 120 90 120zM406 748l313 -748h-100l-78 190h-347l-79 -190h-100l313 748h78zM368 607
l-140 -337h279z" />
    <glyph glyph-name="Adieresis" unicode="&#xc4;" horiz-adv-x="735" 
d="M346 869c0 -29 -23 -52 -52 -52s-52 23 -52 52c0 28 23 51 52 51s52 -23 52 -51zM495 869c0 -29 -22 -52 -51 -52s-53 23 -53 52c0 28 24 51 53 51s51 -23 51 -51zM406 748l313 -748h-100l-78 190h-347l-79 -190h-100l313 748h78zM368 607l-140 -337h279z" />
    <glyph glyph-name="Aring" unicode="&#xc5;" horiz-adv-x="735" 
d="M368 989c57 0 103 -42 103 -98s-46 -98 -103 -98c-59 0 -103 42 -103 98s44 98 103 98zM315 891c0 -29 22 -51 53 -51s52 22 52 51c6 67 -110 67 -105 0zM406 748l313 -748h-100l-78 190h-347l-79 -190h-100l313 748h78zM368 607l-140 -337h279z" />
    <glyph glyph-name="AE" unicode="&#xc6;" horiz-adv-x="1019" 
d="M981 667h-371v-241h327v-79h-327v-266h371v-81h-463v190h-272l-126 -190h-111l499 748h473v-81zM299 270h219v332z" />
    <glyph glyph-name="Ccedilla" unicode="&#xc7;" horiz-adv-x="808" 
d="M670 265l95 -8c-13 -79 -49 -143 -107 -191c-58 -47 -129 -73 -214 -76l-10 -44c68 -5 111 -38 111 -95c0 -64 -57 -101 -126 -101c-37 0 -69 7 -97 21l16 53c21 -13 46 -20 73 -20c37 0 69 16 69 48c0 33 -26 50 -78 50c-7 0 -17 -1 -29 -4l25 93
c-101 6 -184 43 -247 111s-95 159 -95 272c0 119 34 212 102 281c69 69 157 103 265 103c89 0 166 -25 229 -75s101 -117 112 -202l-95 -9c-9 64 -37 114 -82 150s-101 54 -167 54c-81 0 -146 -27 -196 -81s-75 -128 -75 -221c0 -95 25 -170 76 -223s117 -79 197 -79
c131 0 225 70 248 193z" />
    <glyph glyph-name="Egrave" unicode="&#xc8;" horiz-adv-x="593" 
d="M215 936l148 -141h-82l-187 141h121zM553 748v-81h-371v-241h327v-79h-327v-266h371v-81h-463v748h463z" />
    <glyph glyph-name="Eacute" unicode="&#xc9;" horiz-adv-x="593" 
d="M552 936l-187 -141h-82l149 141h120zM553 748v-81h-371v-241h327v-79h-327v-266h371v-81h-463v748h463z" />
    <glyph glyph-name="Ecircumflex" unicode="&#xca;" horiz-adv-x="593" 
d="M367 938l119 -143h-75l-85 90l-86 -90h-74l119 143h82zM553 748v-81h-371v-241h327v-79h-327v-266h371v-81h-463v748h463z" />
    <glyph glyph-name="Edieresis" unicode="&#xcb;" horiz-adv-x="593" 
d="M304 869c0 -29 -23 -52 -52 -52s-52 23 -52 52c0 28 23 51 52 51s52 -23 52 -51zM453 869c0 -29 -22 -52 -51 -52s-53 23 -53 52c0 28 24 51 53 51s51 -23 51 -51zM553 748v-81h-371v-241h327v-79h-327v-266h371v-81h-463v748h463z" />
    <glyph glyph-name="Igrave" unicode="&#xcc;" horiz-adv-x="271" 
d="M28 936l148 -141h-82l-187 141h121zM182 748v-748h-92v748h92z" />
    <glyph glyph-name="Iacute" unicode="&#xcd;" horiz-adv-x="271" 
d="M366 936l-187 -141h-82l149 141h120zM182 748v-748h-92v748h92z" />
    <glyph glyph-name="Icircumflex" unicode="&#xce;" horiz-adv-x="271" 
d="M180 938l119 -143h-75l-85 90l-86 -90h-74l119 143h82zM182 748v-748h-92v748h92z" />
    <glyph glyph-name="Idieresis" unicode="&#xcf;" horiz-adv-x="271" 
d="M117 869c0 -29 -23 -52 -52 -52s-52 23 -52 52c0 28 23 51 52 51s52 -23 52 -51zM266 869c0 -29 -22 -52 -51 -52s-53 23 -53 52c0 28 24 51 53 51s51 -23 51 -51zM182 748v-748h-92v748h92z" />
    <glyph glyph-name="Eth" unicode="&#xd0;" horiz-adv-x="794" 
d="M110 409v339h292c106 0 192 -33 259 -100s101 -158 101 -274c0 -115 -34 -207 -102 -274s-155 -100 -260 -100h-290v338h-107v71h107zM201 338v-260h200c81 0 146 26 195 77c50 52 75 125 75 219s-25 167 -74 218c-49 52 -113 78 -194 78h-202v-261h150v-71h-150z" />
    <glyph glyph-name="Ntilde" unicode="&#xd1;" horiz-adv-x="750" 
d="M299 936c22 0 46 -10 73 -31s48 -31 63 -31c32 0 49 22 50 55h49c4 -67 -33 -120 -90 -120c-22 0 -47 10 -74 30c-27 21 -47 31 -62 31c-31 0 -48 -18 -49 -54h-50c-4 67 33 120 90 120zM660 748v-748h-78l-400 578v-578h-92v748h77l402 -579v579h91z" />
    <glyph glyph-name="Ograve" unicode="&#xd2;" horiz-adv-x="866" 
d="M313 936l148 -141h-82l-187 141h121zM163 653c71 70 161 105 270 105s198 -35 269 -105c71 -69 107 -162 107 -279s-36 -210 -107 -280c-71 -69 -160 -104 -269 -104s-199 35 -270 104c-71 70 -107 163 -107 280s36 210 107 279zM433 676c-83 0 -151 -27 -204 -81
s-80 -128 -80 -221s27 -166 80 -221c54 -54 122 -81 204 -81s150 27 203 81c53 55 80 128 80 221s-27 167 -80 221s-121 81 -203 81z" />
    <glyph glyph-name="Oacute" unicode="&#xd3;" horiz-adv-x="866" 
d="M650 936l-187 -141h-82l149 141h120zM163 653c71 70 161 105 270 105s198 -35 269 -105c71 -69 107 -162 107 -279s-36 -210 -107 -280c-71 -69 -160 -104 -269 -104s-199 35 -270 104c-71 70 -107 163 -107 280s36 210 107 279zM433 676c-83 0 -151 -27 -204 -81
s-80 -128 -80 -221s27 -166 80 -221c54 -54 122 -81 204 -81s150 27 203 81c53 55 80 128 80 221s-27 167 -80 221s-121 81 -203 81z" />
    <glyph glyph-name="Ocircumflex" unicode="&#xd4;" horiz-adv-x="866" 
d="M464 938l119 -143h-75l-85 90l-86 -90h-74l119 143h82zM163 653c71 70 161 105 270 105s198 -35 269 -105c71 -69 107 -162 107 -279s-36 -210 -107 -280c-71 -69 -160 -104 -269 -104s-199 35 -270 104c-71 70 -107 163 -107 280s36 210 107 279zM433 676
c-83 0 -151 -27 -204 -81s-80 -128 -80 -221s27 -166 80 -221c54 -54 122 -81 204 -81s150 27 203 81c53 55 80 128 80 221s-27 167 -80 221s-121 81 -203 81z" />
    <glyph glyph-name="Otilde" unicode="&#xd5;" horiz-adv-x="866" 
d="M350 936c22 0 46 -10 73 -31s48 -31 63 -31c32 0 49 22 50 55h49c4 -67 -33 -120 -90 -120c-22 0 -47 10 -74 30c-27 21 -47 31 -62 31c-31 0 -48 -18 -49 -54h-50c-4 67 33 120 90 120zM163 653c71 70 161 105 270 105s198 -35 269 -105c71 -69 107 -162 107 -279
s-36 -210 -107 -280c-71 -69 -160 -104 -269 -104s-199 35 -270 104c-71 70 -107 163 -107 280s36 210 107 279zM433 676c-83 0 -151 -27 -204 -81s-80 -128 -80 -221s27 -166 80 -221c54 -54 122 -81 204 -81s150 27 203 81c53 55 80 128 80 221s-27 167 -80 221
s-121 81 -203 81z" />
    <glyph glyph-name="Odieresis" unicode="&#xd6;" horiz-adv-x="866" 
d="M401 869c0 -29 -23 -52 -52 -52s-52 23 -52 52c0 28 23 51 52 51s52 -23 52 -51zM550 869c0 -29 -22 -52 -51 -52s-53 23 -53 52c0 28 24 51 53 51s51 -23 51 -51zM163 653c71 70 161 105 270 105s198 -35 269 -105c71 -69 107 -162 107 -279s-36 -210 -107 -280
c-71 -69 -160 -104 -269 -104s-199 35 -270 104c-71 70 -107 163 -107 280s36 210 107 279zM433 676c-83 0 -151 -27 -204 -81s-80 -128 -80 -221s27 -166 80 -221c54 -54 122 -81 204 -81s150 27 203 81c53 55 80 128 80 221s-27 167 -80 221s-121 81 -203 81z" />
    <glyph glyph-name="multiply" unicode="&#xd7;" horiz-adv-x="524" 
d="M414 578l57 -58l-151 -150l153 -154l-57 -58l-154 154l-155 -155l-57 58l155 155l-153 153l56 58l154 -155z" />
    <glyph glyph-name="Oslash" unicode="&#xd8;" horiz-adv-x="847" 
d="M692 785l56 -43l-59 -76c80 -71 120 -169 120 -292c0 -117 -36 -210 -107 -280c-71 -69 -160 -104 -269 -104c-81 0 -152 20 -215 60l-65 -85l-56 43l66 86c-71 70 -107 163 -107 280s36 210 107 279c71 70 161 105 270 105c74 0 140 -17 199 -51zM149 374
c0 -84 23 -153 69 -208l362 473c-43 25 -92 37 -147 37c-83 0 -151 -27 -204 -81s-80 -128 -80 -221zM433 72c82 0 150 27 203 81c53 55 80 128 80 221s-27 166 -80 221l-365 -476c47 -31 101 -47 162 -47z" />
    <glyph glyph-name="Ugrave" unicode="&#xd9;" horiz-adv-x="764" 
d="M271 936l148 -141h-82l-187 141h121zM589 748h91v-467c0 -185 -114 -291 -298 -291s-298 106 -298 291v467h91v-466c0 -137 76 -210 207 -210c129 0 207 74 207 210v466z" />
    <glyph glyph-name="Uacute" unicode="&#xda;" horiz-adv-x="764" 
d="M608 936l-187 -141h-82l149 141h120zM589 748h91v-467c0 -185 -114 -291 -298 -291s-298 106 -298 291v467h91v-466c0 -137 76 -210 207 -210c129 0 207 74 207 210v466z" />
    <glyph glyph-name="Ucircumflex" unicode="&#xdb;" horiz-adv-x="764" 
d="M423 938l119 -143h-75l-85 90l-86 -90h-74l119 143h82zM589 748h91v-467c0 -185 -114 -291 -298 -291s-298 106 -298 291v467h91v-466c0 -137 76 -210 207 -210c129 0 207 74 207 210v466z" />
    <glyph glyph-name="Udieresis" unicode="&#xdc;" horiz-adv-x="764" 
d="M360 869c0 -29 -23 -52 -52 -52s-52 23 -52 52c0 28 23 51 52 51s52 -23 52 -51zM509 869c0 -29 -22 -52 -51 -52s-53 23 -53 52c0 28 24 51 53 51s51 -23 51 -51zM589 748h91v-467c0 -185 -114 -291 -298 -291s-298 106 -298 291v467h91v-466c0 -137 76 -210 207 -210
c129 0 207 74 207 210v466z" />
    <glyph glyph-name="Yacute" unicode="&#xdd;" horiz-adv-x="692" 
d="M573 936l-187 -141h-82l149 141h120zM675 748l-283 -437v-311h-91v311l-284 437h106l224 -347l222 347h106z" />
    <glyph glyph-name="Thorn" unicode="&#xde;" horiz-adv-x="635" 
d="M182 748v-104h186c67 0 122 -20 165 -59s64 -94 64 -165s-22 -126 -65 -166c-43 -39 -97 -59 -164 -59h-186v-195h-92v748h92zM356 562h-175v-286h175c85 0 148 52 148 144c0 91 -63 142 -148 142z" />
    <glyph glyph-name="germandbls" unicode="&#xdf;" horiz-adv-x="634" 
d="M295 785c127 0 206 -64 206 -160c0 -44 -22 -83 -45 -103s-45 -49 -45 -80s28 -57 61 -82c49 -34 112 -83 112 -183c0 -58 -20 -103 -59 -136s-91 -49 -154 -49c-40 0 -74 6 -101 17l17 70c27 -10 53 -15 77 -15c79 0 133 45 133 120c0 105 -111 133 -156 199
c-24 35 -23 80 -4 113c9 17 20 29 31 38c24 19 46 47 46 76c0 63 -42 101 -117 101c-76 0 -126 -47 -126 -119v-592h-86v595c0 57 19 102 58 137s89 53 152 53z" />
    <glyph glyph-name="agrave" unicode="&#xe0;" horiz-adv-x="542" 
d="M207 786l102 -191h-68l-133 191h99zM264 519c125 0 195 -71 195 -198v-321h-87v60c-39 -47 -90 -70 -152 -70c-101 0 -167 54 -167 145c0 95 62 145 187 152l132 8v24c0 83 -36 124 -107 124c-72 0 -111 -47 -111 -106l-87 4c0 47 18 88 54 124s84 54 143 54zM373 205v21
l-122 -8c-74 -5 -111 -32 -111 -81s31 -73 93 -73c84 0 140 45 140 141z" />
    <glyph glyph-name="aacute" unicode="&#xe1;" horiz-adv-x="542" 
d="M441 786l-132 -191h-69l103 191h98zM264 519c125 0 195 -71 195 -198v-321h-87v60c-39 -47 -90 -70 -152 -70c-101 0 -167 54 -167 145c0 95 62 145 187 152l132 8v24c0 83 -36 124 -107 124c-72 0 -111 -47 -111 -106l-87 4c0 47 18 88 54 124s84 54 143 54zM373 205v21
l-122 -8c-74 -5 -111 -32 -111 -81s31 -73 93 -73c84 0 140 45 140 141z" />
    <glyph glyph-name="acircumflex" unicode="&#xe2;" horiz-adv-x="542" 
d="M318 765l120 -169h-74l-87 110l-87 -110h-74l120 169h82zM264 519c125 0 195 -71 195 -198v-321h-87v60c-39 -47 -90 -70 -152 -70c-101 0 -167 54 -167 145c0 95 62 145 187 152l132 8v24c0 83 -36 124 -107 124c-72 0 -111 -47 -111 -106l-87 4c0 47 18 88 54 124
s84 54 143 54zM373 205v21l-122 -8c-74 -5 -111 -32 -111 -81s31 -73 93 -73c84 0 140 45 140 141z" />
    <glyph glyph-name="atilde" unicode="&#xe3;" horiz-adv-x="542" 
d="M202 736c22 0 46 -10 73 -31c27 -20 48 -30 63 -30c32 0 49 18 50 54h49c4 -65 -33 -120 -90 -120c-22 0 -47 10 -74 30c-27 21 -47 31 -62 31c-31 0 -48 -18 -49 -54h-50c-4 67 33 120 90 120zM264 519c125 0 195 -71 195 -198v-321h-87v60c-39 -47 -90 -70 -152 -70
c-101 0 -167 54 -167 145c0 95 62 145 187 152l132 8v24c0 83 -36 124 -107 124c-72 0 -111 -47 -111 -106l-87 4c0 47 18 88 54 124s84 54 143 54zM373 205v21l-122 -8c-74 -5 -111 -32 -111 -81s31 -73 93 -73c84 0 140 45 140 141z" />
    <glyph glyph-name="adieresis" unicode="&#xe4;" horiz-adv-x="542" 
d="M251 681c0 -29 -23 -51 -52 -51s-52 22 -52 51c0 28 23 51 52 51s52 -23 52 -51zM400 681c0 -29 -22 -51 -51 -51s-53 22 -53 51c0 28 24 51 53 51s51 -23 51 -51zM264 519c125 0 195 -71 195 -198v-321h-87v60c-39 -47 -90 -70 -152 -70c-101 0 -167 54 -167 145
c0 95 62 145 187 152l132 8v24c0 83 -36 124 -107 124c-72 0 -111 -47 -111 -106l-87 4c0 47 18 88 54 124s84 54 143 54zM373 205v21l-122 -8c-74 -5 -111 -32 -111 -81s31 -73 93 -73c84 0 140 45 140 141z" />
    <glyph glyph-name="aring" unicode="&#xe5;" horiz-adv-x="542" 
d="M277 798c63 0 113 -45 113 -106s-50 -107 -113 -107c-64 0 -115 46 -115 107s50 106 115 106zM218 692c0 -33 23 -55 58 -55s58 22 58 55c0 32 -23 54 -58 54s-58 -22 -58 -54zM264 519c125 0 195 -71 195 -198v-321h-87v60c-39 -47 -90 -70 -152 -70
c-101 0 -167 54 -167 145c0 95 62 145 187 152l132 8v24c0 83 -36 124 -107 124c-72 0 -111 -47 -111 -106l-87 4c0 47 18 88 54 124s84 54 143 54zM373 205v21l-122 -8c-74 -5 -111 -32 -111 -81s31 -73 93 -73c84 0 140 45 140 141z" />
    <glyph glyph-name="ae" unicode="&#xe6;" horiz-adv-x="911" 
d="M859 269v-47h-394c5 -97 68 -157 159 -157c76 0 127 34 143 91l87 -5c-11 -47 -38 -85 -79 -116c-41 -30 -91 -45 -149 -45c-91 0 -160 34 -207 103c-43 -69 -109 -103 -196 -103c-104 0 -170 55 -170 147c0 93 62 143 187 150l132 8v18c0 83 -36 132 -107 132
c-72 0 -111 -48 -111 -108l-87 4c0 47 18 88 54 124s84 54 143 54c77 0 132 -30 164 -89c46 59 111 89 196 89c73 0 130 -23 172 -68s63 -106 63 -182zM623 444c-89 0 -153 -56 -158 -152h307c-3 92 -54 152 -149 152zM373 205v21l-122 -8c-74 -5 -111 -31 -111 -80
s31 -73 93 -73c80 0 140 41 140 140z" />
    <glyph glyph-name="ccedilla" unicode="&#xe7;" horiz-adv-x="578" 
d="M450 181l84 -8c-19 -107 -99 -177 -212 -182l-10 -44c68 -5 111 -38 111 -95c0 -64 -57 -101 -126 -101c-37 0 -69 7 -97 21l16 53c21 -13 46 -20 73 -20c37 0 69 16 69 48c0 33 -26 50 -78 50c-7 0 -17 -1 -29 -4l25 92c-67 6 -121 32 -162 79s-61 108 -61 185
c0 82 23 146 70 193s107 71 181 71c61 0 112 -17 154 -52c43 -34 68 -80 75 -139l-84 -7c-9 76 -68 124 -145 124c-97 0 -163 -71 -163 -190s67 -190 163 -190c80 0 134 44 146 116z" />
    <glyph glyph-name="egrave" unicode="&#xe8;" 
d="M334 595h-68l-133 191h99zM538 269v-47h-394c5 -97 69 -157 160 -157c75 0 126 34 143 91l86 -5c-11 -47 -37 -85 -78 -116c-41 -30 -91 -45 -149 -45c-75 0 -136 24 -183 71c-47 48 -70 113 -70 194s23 146 70 193s107 71 181 71c73 0 130 -23 171 -68
c42 -45 63 -106 63 -182zM303 444c-91 0 -154 -55 -159 -152h308c-3 92 -54 152 -149 152z" />
    <glyph glyph-name="eacute" unicode="&#xe9;" 
d="M467 786l-132 -191h-69l103 191h98zM538 269v-47h-394c5 -97 69 -157 160 -157c75 0 126 34 143 91l86 -5c-11 -47 -37 -85 -78 -116c-41 -30 -91 -45 -149 -45c-75 0 -136 24 -183 71c-47 48 -70 113 -70 194s23 146 70 193s107 71 181 71c73 0 130 -23 171 -68
c42 -45 63 -106 63 -182zM303 444c-91 0 -154 -55 -159 -152h308c-3 92 -54 152 -149 152z" />
    <glyph glyph-name="ecircumflex" unicode="&#xea;" 
d="M302 706l-87 -110h-74l120 169h82l120 -169h-74zM538 269v-47h-394c5 -97 69 -157 160 -157c75 0 126 34 143 91l86 -5c-11 -47 -37 -85 -78 -116c-41 -30 -91 -45 -149 -45c-75 0 -136 24 -183 71c-47 48 -70 113 -70 194s23 146 70 193s107 71 181 71
c73 0 130 -23 171 -68c42 -45 63 -106 63 -182zM303 444c-91 0 -154 -55 -159 -152h308c-3 92 -54 152 -149 152z" />
    <glyph glyph-name="edieresis" unicode="&#xeb;" 
d="M172 681c0 28 23 51 52 51s52 -23 52 -51c0 -29 -23 -51 -52 -51s-52 22 -52 51zM321 681c0 28 24 51 53 51s51 -23 51 -51c0 -29 -22 -51 -51 -51s-53 22 -53 51zM538 269v-47h-394c5 -97 69 -157 160 -157c75 0 126 34 143 91l86 -5c-11 -47 -37 -85 -78 -116
c-41 -30 -91 -45 -149 -45c-75 0 -136 24 -183 71c-47 48 -70 113 -70 194s23 146 70 193s107 71 181 71c73 0 130 -23 171 -68c42 -45 63 -106 63 -182zM303 444c-91 0 -154 -55 -159 -152h308c-3 92 -54 152 -149 152z" />
    <glyph glyph-name="igrave" unicode="&#xec;" horiz-adv-x="261" 
d="M63 786l102 -191h-68l-133 191h99zM173 510v-510h-86v510h86z" />
    <glyph glyph-name="iacute" unicode="&#xed;" horiz-adv-x="261" 
d="M298 786l-132 -191h-69l103 191h98zM173 510v-510h-86v510h86z" />
    <glyph glyph-name="icircumflex" unicode="&#xee;" horiz-adv-x="261" 
d="M174 765l120 -169h-74l-87 110l-87 -110h-74l120 169h82zM173 510v-510h-86v510h86z" />
    <glyph glyph-name="idieresis" unicode="&#xef;" horiz-adv-x="261" 
d="M107 681c0 -29 -23 -51 -52 -51s-52 22 -52 51c0 28 23 51 52 51s52 -23 52 -51zM256 681c0 -29 -22 -51 -51 -51s-53 22 -53 51c0 28 24 51 53 51s51 -23 51 -51zM173 510v-510h-86v510h86z" />
    <glyph glyph-name="eth" unicode="&#xf0;" horiz-adv-x="605" 
d="M448 793l40 -38l-94 -74c99 -91 148 -232 148 -424c0 -85 -23 -151 -69 -198c-45 -46 -105 -69 -178 -69c-69 0 -126 22 -173 67s-70 105 -70 180c0 74 23 134 69 179c47 45 104 68 173 68c53 0 101 -14 144 -43c-20 84 -54 148 -103 193l-95 -75l-39 40l86 68
c-45 25 -97 37 -158 38v72c85 0 158 -20 221 -61zM298 65c93 0 160 66 160 173c0 104 -64 171 -160 171c-95 0 -161 -68 -161 -172c0 -105 66 -172 161 -172z" />
    <glyph glyph-name="ntilde" unicode="&#xf1;" horiz-adv-x="609" 
d="M240 736c22 0 46 -10 73 -31c27 -20 48 -30 63 -30c32 0 49 18 50 54h49c4 -65 -33 -120 -90 -120c-22 0 -47 10 -74 30c-27 21 -47 31 -62 31c-31 0 -48 -18 -49 -54h-50c-4 67 33 120 90 120zM328 519c58 0 105 -19 142 -57s56 -89 56 -152v-310h-87v299
c0 84 -52 140 -129 140c-40 0 -73 -14 -99 -41c-25 -27 -38 -61 -38 -100v-298h-86v510h82v-76c27 49 83 85 159 85z" />
    <glyph glyph-name="ograve" unicode="&#xf2;" horiz-adv-x="631" 
d="M245 786l102 -191h-68l-133 191h99zM127 446c50 49 113 73 188 73s138 -24 187 -73c50 -48 75 -112 75 -191s-25 -143 -75 -192c-49 -49 -112 -73 -187 -73s-138 24 -188 73c-49 49 -74 113 -74 192s25 143 74 191zM440 393c-33 34 -74 51 -125 51s-93 -17 -126 -51
s-49 -80 -49 -138s16 -104 49 -139c33 -34 75 -51 126 -51s92 17 125 51c33 35 50 81 50 139s-17 104 -50 138z" />
    <glyph glyph-name="oacute" unicode="&#xf3;" horiz-adv-x="631" 
d="M479 786l-132 -191h-69l103 191h98zM127 446c50 49 113 73 188 73s138 -24 187 -73c50 -48 75 -112 75 -191s-25 -143 -75 -192c-49 -49 -112 -73 -187 -73s-138 24 -188 73c-49 49 -74 113 -74 192s25 143 74 191zM440 393c-33 34 -74 51 -125 51s-93 -17 -126 -51
s-49 -80 -49 -138s16 -104 49 -139c33 -34 75 -51 126 -51s92 17 125 51c33 35 50 81 50 139s-17 104 -50 138z" />
    <glyph glyph-name="ocircumflex" unicode="&#xf4;" horiz-adv-x="631" 
d="M356 765l120 -169h-74l-87 110l-87 -110h-74l120 169h82zM127 446c50 49 113 73 188 73s138 -24 187 -73c50 -48 75 -112 75 -191s-25 -143 -75 -192c-49 -49 -112 -73 -187 -73s-138 24 -188 73c-49 49 -74 113 -74 192s25 143 74 191zM440 393c-33 34 -74 51 -125 51
s-93 -17 -126 -51s-49 -80 -49 -138s16 -104 49 -139c33 -34 75 -51 126 -51s92 17 125 51c33 35 50 81 50 139s-17 104 -50 138z" />
    <glyph glyph-name="otilde" unicode="&#xf5;" horiz-adv-x="631" 
d="M240 736c22 0 46 -10 73 -31c27 -20 48 -30 63 -30c32 0 49 18 50 54h49c4 -65 -33 -120 -90 -120c-22 0 -47 10 -74 30c-27 21 -47 31 -62 31c-31 0 -48 -18 -49 -54h-50c-4 67 33 120 90 120zM127 446c50 49 113 73 188 73s138 -24 187 -73c50 -48 75 -112 75 -191
s-25 -143 -75 -192c-49 -49 -112 -73 -187 -73s-138 24 -188 73c-49 49 -74 113 -74 192s25 143 74 191zM440 393c-33 34 -74 51 -125 51s-93 -17 -126 -51s-49 -80 -49 -138s16 -104 49 -139c33 -34 75 -51 126 -51s92 17 125 51c33 35 50 81 50 139s-17 104 -50 138z" />
    <glyph glyph-name="odieresis" unicode="&#xf6;" horiz-adv-x="631" 
d="M289 681c0 -29 -23 -51 -52 -51s-52 22 -52 51c0 28 23 51 52 51s52 -23 52 -51zM438 681c0 -29 -22 -51 -51 -51s-53 22 -53 51c0 28 24 51 53 51s51 -23 51 -51zM127 446c50 49 113 73 188 73s138 -24 187 -73c50 -48 75 -112 75 -191s-25 -143 -75 -192
c-49 -49 -112 -73 -187 -73s-138 24 -188 73c-49 49 -74 113 -74 192s25 143 74 191zM440 393c-33 34 -74 51 -125 51s-93 -17 -126 -51s-49 -80 -49 -138s16 -104 49 -139c33 -34 75 -51 126 -51s92 17 125 51c33 35 50 81 50 139s-17 104 -50 138z" />
    <glyph glyph-name="divide" unicode="&#xf7;" horiz-adv-x="546" 
d="M273 642c33 0 60 -26 60 -59s-27 -58 -60 -58c-32 0 -58 25 -58 58s26 59 58 59zM513 411v-81h-480v81h480zM273 217c33 0 60 -27 60 -60c0 -32 -27 -59 -60 -59c-32 0 -58 27 -58 59c0 33 26 60 58 60z" />
    <glyph glyph-name="oslash" unicode="&#xf8;" horiz-adv-x="631" 
d="M493 536l48 -36l-40 -52c51 -49 76 -114 76 -193s-25 -143 -75 -192c-49 -49 -112 -73 -187 -73c-50 0 -95 11 -135 34l-44 -58l-48 36l43 57c-52 50 -78 115 -78 196c0 79 25 143 74 191c50 49 113 73 188 73c53 0 99 -12 138 -35zM140 255c0 -53 14 -97 42 -130
l224 296c-27 15 -58 23 -91 23c-51 0 -93 -17 -126 -51s-49 -80 -49 -138zM315 65c51 0 92 17 125 51c33 35 50 81 50 139c0 52 -13 94 -39 126l-223 -294c27 -15 56 -22 87 -22z" />
    <glyph glyph-name="ugrave" unicode="&#xf9;" 
d="M228 786l102 -191h-68l-133 191h99zM504 510v-510h-82v76c-21 -47 -74 -86 -153 -86c-57 0 -102 19 -136 56c-33 38 -50 88 -50 149v315h86v-303c0 -84 44 -136 120 -136c79 0 129 62 129 141v298h86z" />
    <glyph glyph-name="uacute" unicode="&#xfa;" 
d="M463 786l-132 -191h-69l103 191h98zM504 510v-510h-82v76c-21 -47 -74 -86 -153 -86c-57 0 -102 19 -136 56c-33 38 -50 88 -50 149v315h86v-303c0 -84 44 -136 120 -136c79 0 129 62 129 141v298h86z" />
    <glyph glyph-name="ucircumflex" unicode="&#xfb;" 
d="M339 765l120 -169h-74l-87 110l-87 -110h-74l120 169h82zM504 510v-510h-82v76c-21 -47 -74 -86 -153 -86c-57 0 -102 19 -136 56c-33 38 -50 88 -50 149v315h86v-303c0 -84 44 -136 120 -136c79 0 129 62 129 141v298h86z" />
    <glyph glyph-name="udieresis" unicode="&#xfc;" 
d="M272 681c0 -29 -23 -51 -52 -51s-52 22 -52 51c0 28 23 51 52 51s52 -23 52 -51zM421 681c0 -29 -22 -51 -51 -51s-53 22 -53 51c0 28 24 51 53 51s51 -23 51 -51zM504 510v-510h-82v76c-21 -47 -74 -86 -153 -86c-57 0 -102 19 -136 56c-33 38 -50 88 -50 149v315h86
v-303c0 -84 44 -136 120 -136c79 0 129 62 129 141v298h86z" />
    <glyph glyph-name="yacute" unicode="&#xfd;" horiz-adv-x="530" 
d="M431 786l-132 -191h-69l103 191h98zM515 510l-322 -765h-95l121 283l-203 482h96l154 -385l153 385h96z" />
    <glyph glyph-name="thorn" unicode="&#xfe;" horiz-adv-x="648" 
d="M87 777h86v-346c31 52 94 88 177 88c71 0 130 -24 176 -72c47 -47 70 -111 70 -192s-23 -145 -70 -193c-46 -48 -105 -72 -176 -72c-83 0 -146 35 -177 88v-333h-86v1032zM337 444c-97 0 -163 -63 -163 -175v-30c0 -111 66 -174 163 -174c100 0 171 70 171 189
c0 120 -71 190 -171 190z" />
    <glyph glyph-name="ydieresis" unicode="&#xff;" horiz-adv-x="530" 
d="M240 681c0 -29 -23 -51 -52 -51s-52 22 -52 51c0 28 23 51 52 51s52 -23 52 -51zM389 681c0 -29 -22 -51 -51 -51s-53 22 -53 51c0 28 24 51 53 51s51 -23 51 -51zM515 510l-322 -765h-95l121 283l-203 482h96l154 -385l153 385h96z" />
    <glyph glyph-name="Amacron" unicode="&#x100;" horiz-adv-x="735" 
d="M500 901v-67h-264v67h264zM406 748l313 -748h-100l-78 190h-347l-79 -190h-100l313 748h78zM368 607l-140 -337h279z" />
    <glyph glyph-name="amacron" unicode="&#x101;" horiz-adv-x="542" 
d="M408 702v-67h-264v67h264zM264 519c125 0 195 -71 195 -198v-321h-87v60c-39 -47 -90 -70 -152 -70c-101 0 -167 54 -167 145c0 95 62 145 187 152l132 8v24c0 83 -36 124 -107 124c-72 0 -111 -47 -111 -106l-87 4c0 47 18 88 54 124s84 54 143 54zM373 205v21l-122 -8
c-74 -5 -111 -32 -111 -81s31 -73 93 -73c84 0 140 45 140 141z" />
    <glyph glyph-name="Abreve" unicode="&#x102;" horiz-adv-x="735" 
d="M454 938h71c0 -85 -61 -133 -157 -133s-157 48 -157 133h71c0 -45 33 -73 86 -73c52 0 86 28 86 73zM406 748l313 -748h-100l-78 190h-347l-79 -190h-100l313 748h78zM368 607l-140 -337h279z" />
    <glyph glyph-name="abreve" unicode="&#x103;" horiz-adv-x="542" 
d="M362 732h71c0 -85 -61 -134 -157 -134s-157 49 -157 134h71c0 -45 33 -73 86 -73c52 0 86 28 86 73zM264 519c125 0 195 -71 195 -198v-321h-87v60c-39 -47 -90 -70 -152 -70c-101 0 -167 54 -167 145c0 95 62 145 187 152l132 8v24c0 83 -36 124 -107 124
c-72 0 -111 -47 -111 -106l-87 4c0 47 18 88 54 124s84 54 143 54zM373 205v21l-122 -8c-74 -5 -111 -32 -111 -81s31 -73 93 -73c84 0 140 45 140 141z" />
    <glyph glyph-name="Aogonek" unicode="&#x104;" horiz-adv-x="735" 
d="M642 -140c20 0 39 4 56 12l9 -44c-25 -11 -51 -16 -79 -16c-63 0 -108 31 -108 84c0 44 32 81 97 110l-76 184h-347l-79 -190h-100l313 748h78l313 -748h-41c-63 -32 -92 -57 -92 -94c0 -31 19 -46 56 -46zM228 270h279l-139 337z" />
    <glyph glyph-name="aogonek" unicode="&#x105;" horiz-adv-x="542" 
d="M456 -127l9 -44c-25 -11 -51 -16 -79 -16c-63 0 -108 31 -108 84c0 44 31 80 94 108v55c-39 -47 -90 -70 -152 -70c-101 0 -167 54 -167 145c0 95 62 145 187 152l132 8v24c0 83 -36 124 -107 124c-72 0 -111 -47 -111 -106l-87 4c0 47 18 88 54 124s84 54 143 54
c125 0 195 -71 195 -198v-321h-25c-61 -31 -90 -56 -90 -93c0 -31 19 -46 56 -46c20 0 39 4 56 12zM233 64c84 0 140 45 140 141v21l-122 -8c-74 -5 -111 -32 -111 -81s31 -73 93 -73z" />
    <glyph glyph-name="Cacute" unicode="&#x106;" horiz-adv-x="808" 
d="M641 936l-187 -141h-82l149 141h120zM423 758c89 0 166 -25 229 -75s101 -117 112 -202l-95 -9c-9 64 -37 114 -82 150s-101 54 -167 54c-81 0 -146 -27 -196 -81s-75 -128 -75 -221c0 -95 25 -170 76 -223s117 -79 197 -79c131 0 225 70 248 193l95 -8
c-14 -82 -52 -147 -114 -195s-137 -72 -226 -72c-108 0 -197 34 -266 103s-103 162 -103 281s34 212 102 281c69 69 157 103 265 103z" />
    <glyph glyph-name="cacute" unicode="&#x107;" horiz-adv-x="578" 
d="M461 786l-132 -191h-69l103 191h98zM304 519c61 0 112 -17 154 -52c43 -34 68 -80 75 -139l-84 -7c-9 76 -68 124 -145 124c-97 0 -163 -71 -163 -190s67 -190 163 -190c80 0 134 44 146 116l84 -8c-19 -113 -107 -183 -230 -183c-73 0 -134 24 -181 71s-70 112 -70 194
s23 146 70 193s107 71 181 71z" />
    <glyph glyph-name="Ccircumflex" unicode="&#x108;" horiz-adv-x="808" 
d="M455 938l119 -143h-75l-85 90l-86 -90h-74l119 143h82zM423 758c89 0 166 -25 229 -75s101 -117 112 -202l-95 -9c-9 64 -37 114 -82 150s-101 54 -167 54c-81 0 -146 -27 -196 -81s-75 -128 -75 -221c0 -95 25 -170 76 -223s117 -79 197 -79c131 0 225 70 248 193l95 -8
c-14 -82 -52 -147 -114 -195s-137 -72 -226 -72c-108 0 -197 34 -266 103s-103 162 -103 281s34 212 102 281c69 69 157 103 265 103z" />
    <glyph glyph-name="ccircumflex" unicode="&#x109;" horiz-adv-x="578" 
d="M337 765l120 -169h-74l-87 110l-87 -110h-74l120 169h82zM304 519c61 0 112 -17 154 -52c43 -34 68 -80 75 -139l-84 -7c-9 76 -68 124 -145 124c-97 0 -163 -71 -163 -190s67 -190 163 -190c80 0 134 44 146 116l84 -8c-19 -113 -107 -183 -230 -183
c-73 0 -134 24 -181 71s-70 112 -70 194s23 146 70 193s107 71 181 71z" />
    <glyph glyph-name="Cdotaccent" unicode="&#x10a;" horiz-adv-x="808" 
d="M415 925c31 0 57 -27 57 -58c0 -33 -26 -58 -57 -58c-32 0 -59 26 -59 58c0 31 27 58 59 58zM423 758c89 0 166 -25 229 -75s101 -117 112 -202l-95 -9c-9 64 -37 114 -82 150s-101 54 -167 54c-81 0 -146 -27 -196 -81s-75 -128 -75 -221c0 -95 25 -170 76 -223
s117 -79 197 -79c131 0 225 70 248 193l95 -8c-14 -82 -52 -147 -114 -195s-137 -72 -226 -72c-108 0 -197 34 -266 103s-103 162 -103 281s34 212 102 281c69 69 157 103 265 103z" />
    <glyph glyph-name="cdotaccent" unicode="&#x10b;" horiz-adv-x="578" 
d="M297 738c31 0 57 -26 57 -57c0 -32 -26 -58 -57 -58c-32 0 -59 26 -59 58c0 31 27 57 59 57zM304 519c61 0 112 -17 154 -52c43 -34 68 -80 75 -139l-84 -7c-9 76 -68 124 -145 124c-97 0 -163 -71 -163 -190s67 -190 163 -190c80 0 134 44 146 116l84 -8
c-19 -113 -107 -183 -230 -183c-73 0 -134 24 -181 71s-70 112 -70 194s23 146 70 193s107 71 181 71z" />
    <glyph glyph-name="Ccaron" unicode="&#x10c;" horiz-adv-x="808" 
d="M574 938l-119 -143h-82l-119 143h74l86 -90l85 90h75zM423 758c89 0 166 -25 229 -75s101 -117 112 -202l-95 -9c-9 64 -37 114 -82 150s-101 54 -167 54c-81 0 -146 -27 -196 -81s-75 -128 -75 -221c0 -95 25 -170 76 -223s117 -79 197 -79c131 0 225 70 248 193l95 -8
c-14 -82 -52 -147 -114 -195s-137 -72 -226 -72c-108 0 -197 34 -266 103s-103 162 -103 281s34 212 102 281c69 69 157 103 265 103z" />
    <glyph glyph-name="ccaron" unicode="&#x10d;" horiz-adv-x="578" 
d="M457 762l-120 -168h-82l-120 168h74l87 -110l87 110h74zM304 519c61 0 112 -17 154 -52c43 -34 68 -80 75 -139l-84 -7c-9 76 -68 124 -145 124c-97 0 -163 -71 -163 -190s67 -190 163 -190c80 0 134 44 146 116l84 -8c-19 -113 -107 -183 -230 -183
c-73 0 -134 24 -181 71s-70 112 -70 194s23 146 70 193s107 71 181 71z" />
    <glyph glyph-name="Dcaron" unicode="&#x10e;" horiz-adv-x="799" 
d="M511 938l-119 -143h-82l-119 143h74l86 -90l85 90h75zM90 0v748h292c106 0 192 -33 259 -100s101 -158 101 -274c0 -115 -34 -207 -102 -274s-155 -100 -260 -100h-290zM383 670h-202v-592h200c81 0 146 26 195 77c50 52 75 125 75 219s-25 167 -74 218
c-49 52 -113 78 -194 78z" />
    <glyph glyph-name="dcaron" unicode="&#x10f;" horiz-adv-x="755" 
d="M475 433v344h86v-777h-81v83c-31 -55 -97 -93 -181 -93c-71 0 -130 24 -177 71c-46 48 -69 112 -69 193s23 145 69 193c47 48 106 72 177 72c83 0 147 -35 176 -86zM684 750c35 0 55 -27 55 -67c0 -84 -38 -147 -113 -190v39c34 25 54 59 59 102c-32 0 -58 25 -58 57
s25 59 57 59zM475 240v30c0 112 -67 174 -164 174c-100 0 -171 -70 -171 -189c0 -120 71 -190 171 -190c97 0 164 63 164 175z" />
    <glyph glyph-name="Dcroat" unicode="&#x110;" horiz-adv-x="794" 
d="M110 409v339h292c106 0 192 -33 259 -100s101 -158 101 -274c0 -115 -34 -207 -102 -274s-155 -100 -260 -100h-290v338h-107v71h107zM201 338v-260h200c81 0 146 26 195 77c50 52 75 125 75 219s-25 167 -74 218c-49 52 -113 78 -194 78h-202v-261h150v-71h-150z" />
    <glyph glyph-name="dslash" unicode="&#x111;" horiz-adv-x="643" 
d="M642 679v-67h-81v-612h-81v83c-31 -55 -97 -93 -181 -93c-71 0 -130 24 -177 71c-46 48 -69 112 -69 193s23 145 69 193c47 48 106 72 177 72c83 0 147 -35 176 -86v179h-96v67h96v98h86v-98h81zM475 240v30c0 112 -67 174 -164 174c-100 0 -171 -70 -171 -189
c0 -120 71 -190 171 -190c97 0 164 63 164 175z" />
    <glyph glyph-name="Emacron" unicode="&#x112;" horiz-adv-x="593" 
d="M457 901v-67h-264v67h264zM553 748v-81h-371v-241h327v-79h-327v-266h371v-81h-463v748h463z" />
    <glyph glyph-name="emacron" unicode="&#x113;" 
d="M434 702v-67h-264v67h264zM538 269v-47h-394c5 -97 69 -157 160 -157c75 0 126 34 143 91l86 -5c-11 -47 -37 -85 -78 -116c-41 -30 -91 -45 -149 -45c-75 0 -136 24 -183 71c-47 48 -70 113 -70 194s23 146 70 193s107 71 181 71c73 0 130 -23 171 -68
c42 -45 63 -106 63 -182zM303 444c-91 0 -154 -55 -159 -152h308c-3 92 -54 152 -149 152z" />
    <glyph glyph-name="Ebreve" unicode="&#x114;" horiz-adv-x="593" 
d="M411 938h71c0 -85 -61 -133 -157 -133s-157 48 -157 133h71c0 -45 33 -73 86 -73c52 0 86 28 86 73zM553 748v-81h-371v-241h327v-79h-327v-266h371v-81h-463v748h463z" />
    <glyph glyph-name="ebreve" unicode="&#x115;" 
d="M144 732h71c0 -45 33 -73 86 -73c52 0 86 28 86 73h71c0 -85 -61 -134 -157 -134s-157 49 -157 134zM538 269v-47h-394c5 -97 69 -157 160 -157c75 0 126 34 143 91l86 -5c-11 -47 -37 -85 -78 -116c-41 -30 -91 -45 -149 -45c-75 0 -136 24 -183 71
c-47 48 -70 113 -70 194s23 146 70 193s107 71 181 71c73 0 130 -23 171 -68c42 -45 63 -106 63 -182zM303 444c-91 0 -154 -55 -159 -152h308c-3 92 -54 152 -149 152z" />
    <glyph glyph-name="Edotaccent" unicode="&#x116;" horiz-adv-x="593" 
d="M326 925c31 0 57 -27 57 -58c0 -33 -25 -58 -57 -58s-59 26 -59 58c0 31 27 58 59 58zM553 748v-81h-371v-241h327v-79h-327v-266h371v-81h-463v748h463z" />
    <glyph glyph-name="edotaccent" unicode="&#x117;" 
d="M303 623c-32 0 -59 26 -59 58c0 31 27 57 59 57c31 0 57 -26 57 -57c0 -32 -26 -58 -57 -58zM538 269v-47h-394c5 -97 69 -157 160 -157c75 0 126 34 143 91l86 -5c-11 -47 -37 -85 -78 -116c-41 -30 -91 -45 -149 -45c-75 0 -136 24 -183 71c-47 48 -70 113 -70 194
s23 146 70 193s107 71 181 71c73 0 130 -23 171 -68c42 -45 63 -106 63 -182zM303 444c-91 0 -154 -55 -159 -152h308c-3 92 -54 152 -149 152z" />
    <glyph glyph-name="Eogonek" unicode="&#x118;" horiz-adv-x="593" 
d="M562 -128l9 -44c-25 -11 -51 -16 -79 -16c-63 0 -108 31 -108 84c0 41 28 76 85 104h-379v748h463v-81h-371v-241h327v-79h-327v-266h371v-81h-11c-63 -32 -92 -57 -92 -94c0 -31 19 -46 56 -46c20 0 39 4 56 12z" />
    <glyph glyph-name="eogonek" unicode="&#x119;" 
d="M538 269v-47h-394c5 -97 69 -157 160 -157c75 0 126 34 143 91l86 -5c-17 -76 -80 -136 -168 -155c-60 -31 -88 -56 -88 -92c0 -31 19 -46 56 -46c21 0 39 4 56 12l9 -44c-25 -11 -51 -16 -79 -16c-63 0 -108 31 -108 84c0 38 24 70 71 97c-69 5 -124 31 -166 78
s-63 109 -63 186c0 81 23 146 70 193s107 71 181 71c73 0 130 -23 171 -68c42 -45 63 -106 63 -182zM303 444c-91 0 -154 -55 -159 -152h308c-3 92 -54 152 -149 152z" />
    <glyph glyph-name="Ecaron" unicode="&#x11a;" horiz-adv-x="593" 
d="M486 938l-119 -143h-82l-119 143h74l86 -90l85 90h75zM553 748v-81h-371v-241h327v-79h-327v-266h371v-81h-463v748h463z" />
    <glyph glyph-name="ecaron" unicode="&#x11b;" 
d="M343 594h-82l-120 168h74l87 -110l87 110h74zM538 269v-47h-394c5 -97 69 -157 160 -157c75 0 126 34 143 91l86 -5c-11 -47 -37 -85 -78 -116c-41 -30 -91 -45 -149 -45c-75 0 -136 24 -183 71c-47 48 -70 113 -70 194s23 146 70 193s107 71 181 71
c73 0 130 -23 171 -68c42 -45 63 -106 63 -182zM303 444c-91 0 -154 -55 -159 -152h308c-3 92 -54 152 -149 152z" />
    <glyph glyph-name="Gcircumflex" unicode="&#x11c;" horiz-adv-x="821" 
d="M417 885l-86 -90h-74l119 143h82l119 -143h-75zM423 380h344v-31c0 -111 -31 -198 -94 -263c-62 -64 -146 -96 -251 -96c-107 0 -194 34 -263 103s-103 162 -103 281s34 212 102 281s156 103 263 103c87 0 162 -24 224 -71c63 -47 101 -111 116 -194l-95 -15
c-9 61 -36 110 -81 145s-100 53 -165 53c-82 0 -148 -26 -197 -79c-49 -52 -74 -126 -74 -223c0 -96 25 -170 74 -223c50 -53 116 -79 197 -79c141 0 234 76 249 227h-246v81z" />
    <glyph glyph-name="gcircumflex" unicode="&#x11d;" horiz-adv-x="644" 
d="M357 765l120 -169h-74l-87 110l-87 -110h-74l120 169h82zM299 519c84 0 150 -38 181 -93v84h81v-539c0 -73 -22 -130 -67 -172c-44 -42 -103 -63 -177 -63c-139 0 -226 72 -247 181l86 3c12 -68 75 -111 158 -111c97 0 161 57 161 156v111c-29 -51 -93 -86 -176 -86
c-71 0 -130 24 -177 72c-46 48 -69 112 -69 193s23 145 69 192c47 48 106 72 177 72zM311 444c-100 0 -171 -70 -171 -190c0 -119 71 -189 171 -189c97 0 164 62 164 174v30c0 112 -67 175 -164 175z" />
    <glyph glyph-name="Gbreve" unicode="&#x11e;" horiz-adv-x="821" 
d="M259 938h71c0 -45 33 -73 86 -73c52 0 86 28 86 73h71c0 -85 -61 -133 -157 -133s-157 48 -157 133zM423 380h344v-31c0 -111 -31 -198 -94 -263c-62 -64 -146 -96 -251 -96c-107 0 -194 34 -263 103s-103 162 -103 281s34 212 102 281s156 103 263 103
c87 0 162 -24 224 -71c63 -47 101 -111 116 -194l-95 -15c-9 61 -36 110 -81 145s-100 53 -165 53c-82 0 -148 -26 -197 -79c-49 -52 -74 -126 -74 -223c0 -96 25 -170 74 -223c50 -53 116 -79 197 -79c141 0 234 76 249 227h-246v81z" />
    <glyph glyph-name="gbreve" unicode="&#x11f;" horiz-adv-x="644" 
d="M402 732h71c0 -85 -61 -134 -157 -134s-157 49 -157 134h71c0 -45 33 -73 86 -73c52 0 86 28 86 73zM299 519c84 0 150 -38 181 -93v84h81v-539c0 -73 -22 -130 -67 -172c-44 -42 -103 -63 -177 -63c-139 0 -226 72 -247 181l86 3c12 -68 75 -111 158 -111
c97 0 161 57 161 156v111c-29 -51 -93 -86 -176 -86c-71 0 -130 24 -177 72c-46 48 -69 112 -69 193s23 145 69 192c47 48 106 72 177 72zM311 444c-100 0 -171 -70 -171 -190c0 -119 71 -189 171 -189c97 0 164 62 164 174v30c0 112 -67 175 -164 175z" />
    <glyph glyph-name="Gdotaccent" unicode="&#x120;" horiz-adv-x="821" 
d="M417 809c-32 0 -59 26 -59 58c0 31 27 58 59 58c31 0 57 -27 57 -58c0 -33 -26 -58 -57 -58zM423 380h344v-31c0 -111 -31 -198 -94 -263c-62 -64 -146 -96 -251 -96c-107 0 -194 34 -263 103s-103 162 -103 281s34 212 102 281s156 103 263 103c87 0 162 -24 224 -71
c63 -47 101 -111 116 -194l-95 -15c-9 61 -36 110 -81 145s-100 53 -165 53c-82 0 -148 -26 -197 -79c-49 -52 -74 -126 -74 -223c0 -96 25 -170 74 -223c50 -53 116 -79 197 -79c141 0 234 76 249 227h-246v81z" />
    <glyph glyph-name="gdotaccent" unicode="&#x121;" horiz-adv-x="644" 
d="M317 738c31 0 57 -26 57 -57c0 -32 -26 -58 -57 -58c-32 0 -59 26 -59 58c0 31 27 57 59 57zM299 519c84 0 150 -38 181 -93v84h81v-539c0 -73 -22 -130 -67 -172c-44 -42 -103 -63 -177 -63c-139 0 -226 72 -247 181l86 3c12 -68 75 -111 158 -111c97 0 161 57 161 156
v111c-29 -51 -93 -86 -176 -86c-71 0 -130 24 -177 72c-46 48 -69 112 -69 193s23 145 69 192c47 48 106 72 177 72zM311 444c-100 0 -171 -70 -171 -190c0 -119 71 -189 171 -189c97 0 164 62 164 174v30c0 112 -67 175 -164 175z" />
    <glyph glyph-name="Gcommaaccent" unicode="&#x122;" horiz-adv-x="821" 
d="M423 380h344v-31c0 -111 -31 -198 -94 -263c-62 -64 -146 -96 -251 -96c-107 0 -194 34 -263 103s-103 162 -103 281s34 212 102 281s156 103 263 103c87 0 162 -24 224 -71c63 -47 101 -111 116 -194l-95 -15c-9 61 -36 110 -81 145s-100 53 -165 53
c-82 0 -148 -26 -197 -79c-49 -52 -74 -126 -74 -223c0 -96 25 -170 74 -223c50 -53 116 -79 197 -79c141 0 234 76 249 227h-246v81zM418 -46c35 0 55 -27 55 -67c0 -84 -38 -147 -113 -190v39c34 25 54 59 59 102c-32 0 -58 25 -58 57s25 59 57 59z" />
    <glyph glyph-name="gcommaaccent" unicode="&#x123;" horiz-adv-x="644" 
d="M384 771c0 -84 -38 -147 -113 -190v39c34 25 54 59 59 102c-32 0 -58 25 -58 57s25 59 57 59c35 0 55 -27 55 -67zM480 510h81v-539c0 -73 -22 -130 -67 -172c-44 -42 -103 -63 -177 -63c-139 0 -226 72 -247 181l86 3c12 -68 75 -111 158 -111c97 0 161 57 161 156v111
c-29 -51 -93 -86 -176 -86c-71 0 -130 24 -177 72c-46 48 -69 112 -69 193s23 145 69 192c47 48 106 72 177 72c84 0 150 -38 181 -93v84zM475 239v30c0 112 -67 175 -164 175c-100 0 -171 -70 -171 -190c0 -119 71 -189 171 -189c97 0 164 62 164 174z" />
    <glyph glyph-name="Hcircumflex" unicode="&#x124;" horiz-adv-x="753" 
d="M418 938l119 -143h-75l-85 90l-86 -90h-74l119 143h82zM663 748v-748h-91v347h-390v-347h-92v748h92v-319h390v319h91z" />
    <glyph glyph-name="hcircumflex" unicode="&#x125;" horiz-adv-x="603" 
d="M173 941l119 -143h-75l-85 90l-86 -90h-74l119 143h82zM87 777h86v-337c25 44 82 79 155 79c58 0 105 -19 142 -57s56 -89 56 -152v-310h-87v299c0 84 -52 140 -129 140c-40 0 -73 -14 -99 -41c-25 -27 -38 -61 -38 -100v-298h-86v777z" />
    <glyph glyph-name="Hbar" unicode="&#x126;" horiz-adv-x="763" 
d="M756 620v-70h-88v-550h-91v347h-391v-347h-91v550h-88v70h88v128h91v-128h391v128h91v-128h88zM577 429v121h-391v-121h391z" />
    <glyph glyph-name="hbar" unicode="&#x127;" horiz-adv-x="603" 
d="M328 519c58 0 105 -19 142 -57s56 -89 56 -152v-310h-87v299c0 84 -52 140 -129 140c-40 0 -73 -14 -99 -41c-25 -27 -38 -61 -38 -100v-298h-86v612h-82v67h82v98h86v-98h95v-67h-95v-172c25 44 82 79 155 79z" />
    <glyph glyph-name="Itilde" unicode="&#x128;" horiz-adv-x="271" 
d="M69 936c22 0 46 -10 73 -31s48 -31 63 -31c32 0 49 22 50 55h49c4 -67 -33 -120 -90 -120c-22 0 -47 10 -74 30c-27 21 -47 31 -62 31c-31 0 -48 -18 -49 -54h-50c-4 67 33 120 90 120zM185 748v-748h-92v748h92z" />
    <glyph glyph-name="itilde" unicode="&#x129;" horiz-adv-x="261" 
d="M62 736c22 0 46 -10 73 -31c27 -20 48 -30 63 -30c32 0 49 18 50 54h49c4 -65 -33 -120 -90 -120c-22 0 -47 10 -74 30c-27 21 -47 31 -62 31c-31 0 -48 -18 -49 -54h-50c-4 67 33 120 90 120zM176 510v-510h-86v510h86z" />
    <glyph glyph-name="Imacron" unicode="&#x12a;" horiz-adv-x="271" 
d="M271 901v-67h-264v67h264zM182 748v-748h-92v748h92z" />
    <glyph glyph-name="imacron" unicode="&#x12b;" horiz-adv-x="261" 
d="M265 702v-67h-264v67h264zM173 510v-510h-86v510h86z" />
    <glyph glyph-name="Ibreve" unicode="&#x12c;" horiz-adv-x="271" 
d="M224 938h71c0 -85 -61 -133 -157 -133s-157 48 -157 133h71c0 -45 33 -73 86 -73c52 0 86 28 86 73zM182 748v-748h-92v748h92z" />
    <glyph glyph-name="ibreve" unicode="&#x12d;" horiz-adv-x="261" 
d="M218 732h71c0 -85 -61 -134 -157 -134s-157 49 -157 134h71c0 -45 33 -73 86 -73c52 0 86 28 86 73zM173 510v-510h-86v510h86z" />
    <glyph glyph-name="Iogonek" unicode="&#x12e;" horiz-adv-x="271" 
d="M182 748v-748h-39c-61 -31 -90 -56 -90 -93c0 -31 19 -46 56 -46c21 0 39 4 56 12l9 -44c-25 -11 -51 -16 -79 -16c-63 0 -108 31 -108 84c0 45 34 83 103 112v739h92z" />
    <glyph glyph-name="iogonek" unicode="&#x12f;" horiz-adv-x="261" 
d="M134 623c-32 0 -59 26 -59 58c0 31 27 57 59 57c31 0 57 -26 57 -57c0 -32 -26 -58 -57 -58zM116 -139c20 0 39 4 56 12l9 -44c-25 -11 -51 -16 -79 -16c-63 0 -108 31 -108 84c0 44 31 80 93 108v505h86v-510h-23c-61 -31 -90 -56 -90 -93c0 -31 19 -46 56 -46z" />
    <glyph glyph-name="Idot" unicode="&#x130;" horiz-adv-x="271" 
d="M140 925c31 0 57 -27 57 -58c0 -33 -25 -58 -57 -58s-59 26 -59 58c0 31 27 58 59 58zM182 748v-748h-92v748h92z" />
    <glyph glyph-name="dotlessi" unicode="&#x131;" horiz-adv-x="261" 
d="M173 510v-510h-86v510h86z" />
    <glyph glyph-name="Jcircumflex" unicode="&#x134;" horiz-adv-x="579" 
d="M495 938l119 -143h-75l-85 90l-86 -90h-74l119 143h82zM403 748h92v-511c0 -156 -88 -247 -233 -247c-141 0 -231 89 -239 233l92 15c5 -105 59 -166 147 -166c91 0 141 56 141 163v513z" />
    <glyph glyph-name="jcircumflex" unicode="&#x135;" horiz-adv-x="261" 
d="M171 765l120 -169h-74l-87 110l-87 -110h-74l120 169h82zM89 510h86v-586c0 -124 -63 -186 -164 -186c-33 0 -61 7 -83 21l32 71c16 -10 30 -15 42 -15c58 0 87 35 87 105v590z" />
    <glyph glyph-name="Kcommaaccent" unicode="&#x136;" horiz-adv-x="675" 
d="M333 430l327 -430h-112l-276 358l-90 -101v-257h-92v748h92v-355l319 355h118zM348 -41c35 0 55 -27 55 -67c0 -84 -38 -147 -113 -190v39c34 25 54 59 59 102c-32 0 -58 25 -58 57s25 59 57 59z" />
    <glyph glyph-name="kcommaaccent" unicode="&#x137;" horiz-adv-x="537" 
d="M289 288l239 -288h-110l-190 225l-55 -54v-171h-86v777h86v-491l224 224h107zM287 -41c35 0 55 -27 55 -67c0 -84 -38 -147 -113 -190v39c34 25 54 59 59 102c-32 0 -58 25 -58 57s25 59 57 59z" />
    <glyph glyph-name="Lacute" unicode="&#x139;" 
d="M367 936l-187 -141h-82l149 141h120zM182 748v-667h375v-81h-467v748h92z" />
    <glyph glyph-name="lacute" unicode="&#x13a;" horiz-adv-x="261" 
d="M361 950l-187 -141h-82l149 141h120zM173 777v-777h-86v777h86z" />
    <glyph glyph-name="Lcommaaccent" unicode="&#x13b;" 
d="M182 81h375v-81h-467v748h92v-667zM332 -41c35 0 55 -27 55 -67c0 -84 -38 -147 -113 -190v39c34 25 54 59 59 102c-32 0 -58 25 -58 57s25 59 57 59z" />
    <glyph glyph-name="lcommaaccent" unicode="&#x13c;" horiz-adv-x="261" 
d="M173 777v-777h-86v777h86zM131 -41c35 0 55 -27 55 -67c0 -84 -38 -147 -113 -190v39c34 25 54 59 59 102c-32 0 -58 25 -58 57s25 59 57 59z" />
    <glyph glyph-name="Lcaron" unicode="&#x13d;" 
d="M574 683c0 -84 -38 -147 -113 -190v39c34 25 54 59 59 102c-32 0 -58 25 -58 57s25 59 57 59c35 0 55 -27 55 -67zM182 748v-667h375v-81h-467v748h92z" />
    <glyph glyph-name="lcaron" unicode="&#x13e;" horiz-adv-x="373" 
d="M87 0v777h86v-777h-86zM305 750c35 0 55 -27 55 -67c0 -84 -38 -147 -113 -190v39c34 25 54 59 59 102c-32 0 -58 25 -58 57s25 59 57 59z" />
    <glyph glyph-name="Ldot" unicode="&#x13f;" 
d="M182 748v-667h375v-81h-467v748h92zM440 445c33 0 60 -27 60 -60c0 -32 -27 -59 -60 -59c-32 0 -58 27 -58 59c0 33 26 60 58 60z" />
    <glyph glyph-name="ldot" unicode="&#x140;" horiz-adv-x="391" 
d="M173 777v-777h-86v777h86zM307 355c33 0 60 -27 60 -60c0 -32 -27 -59 -60 -59c-32 0 -58 27 -58 59c0 33 26 60 58 60z" />
    <glyph glyph-name="Lslash" unicode="&#x141;" horiz-adv-x="601" 
d="M194 81h375v-81h-466v267l-95 -30l-12 70l107 33v408h91v-380l112 35l11 -69l-123 -39v-214z" />
    <glyph glyph-name="lslash" unicode="&#x142;" horiz-adv-x="283" 
d="M298 317l-112 -40v-277h-86v246l-98 -35l-16 68l114 41v457h86v-426l96 35z" />
    <glyph glyph-name="Nacute" unicode="&#x143;" horiz-adv-x="750" 
d="M599 936l-187 -141h-82l149 141h120zM660 748v-748h-78l-400 578v-578h-92v748h77l402 -579v579h91z" />
    <glyph glyph-name="nacute" unicode="&#x144;" horiz-adv-x="609" 
d="M479 786l-132 -191h-69l103 191h98zM328 519c58 0 105 -19 142 -57s56 -89 56 -152v-310h-87v299c0 84 -52 140 -129 140c-40 0 -73 -14 -99 -41c-25 -27 -38 -61 -38 -100v-298h-86v510h82v-76c27 49 83 85 159 85z" />
    <glyph glyph-name="Ncommaaccent" unicode="&#x145;" horiz-adv-x="750" 
d="M569 748h91v-748h-78l-400 578v-578h-92v748h77l402 -579v579zM382 -41c35 0 55 -27 55 -67c0 -84 -38 -147 -113 -190v39c34 25 54 59 59 102c-32 0 -58 25 -58 57s25 59 57 59z" />
    <glyph glyph-name="ncommaaccent" unicode="&#x146;" horiz-adv-x="609" 
d="M328 519c58 0 105 -19 142 -57s56 -89 56 -152v-310h-87v299c0 84 -52 140 -129 140c-40 0 -73 -14 -99 -41c-25 -27 -38 -61 -38 -100v-298h-86v510h82v-76c27 49 83 85 159 85zM310 -41c35 0 55 -27 55 -67c0 -84 -38 -147 -113 -190v39c34 25 54 59 59 102
c-32 0 -58 25 -58 57s25 59 57 59z" />
    <glyph glyph-name="Ncaron" unicode="&#x147;" horiz-adv-x="750" 
d="M532 938l-119 -143h-82l-119 143h74l86 -90l85 90h75zM660 748v-748h-78l-400 578v-578h-92v748h77l402 -579v579h91z" />
    <glyph glyph-name="ncaron" unicode="&#x148;" horiz-adv-x="609" 
d="M475 762l-120 -168h-82l-120 168h74l87 -110l87 110h74zM328 519c58 0 105 -19 142 -57s56 -89 56 -152v-310h-87v299c0 84 -52 140 -129 140c-40 0 -73 -14 -99 -41c-25 -27 -38 -61 -38 -100v-298h-86v510h82v-76c27 49 83 85 159 85z" />
    <glyph glyph-name="Eng" unicode="&#x14a;" horiz-adv-x="750" 
d="M569 748h91v-780c0 -67 -21 -121 -63 -162s-99 -61 -171 -61v81c89 0 143 58 143 163v30l-387 559v-578h-92v748h77l402 -579v579z" />
    <glyph glyph-name="eng" unicode="&#x14b;" horiz-adv-x="609" 
d="M328 519c58 0 105 -19 142 -57s56 -89 56 -152v-385c0 -117 -67 -185 -179 -185v75c56 0 92 39 92 108v376c0 84 -52 140 -129 140c-40 0 -73 -14 -99 -41c-25 -27 -38 -61 -38 -100v-298h-86v510h82v-76c27 49 83 85 159 85z" />
    <glyph glyph-name="Omacron" unicode="&#x14c;" horiz-adv-x="866" 
d="M555 901v-67h-264v67h264zM163 653c71 70 161 105 270 105s198 -35 269 -105c71 -69 107 -162 107 -279s-36 -210 -107 -280c-71 -69 -160 -104 -269 -104s-199 35 -270 104c-71 70 -107 163 -107 280s36 210 107 279zM433 676c-83 0 -151 -27 -204 -81
s-80 -128 -80 -221s27 -166 80 -221c54 -54 122 -81 204 -81s150 27 203 81c53 55 80 128 80 221s-27 167 -80 221s-121 81 -203 81z" />
    <glyph glyph-name="omacron" unicode="&#x14d;" horiz-adv-x="631" 
d="M446 702v-67h-264v67h264zM127 446c50 49 113 73 188 73s138 -24 187 -73c50 -48 75 -112 75 -191s-25 -143 -75 -192c-49 -49 -112 -73 -187 -73s-138 24 -188 73c-49 49 -74 113 -74 192s25 143 74 191zM440 393c-33 34 -74 51 -125 51s-93 -17 -126 -51
s-49 -80 -49 -138s16 -104 49 -139c33 -34 75 -51 126 -51s92 17 125 51c33 35 50 81 50 139s-17 104 -50 138z" />
    <glyph glyph-name="Obreve" unicode="&#x14e;" horiz-adv-x="866" 
d="M509 938h71c0 -85 -61 -133 -157 -133s-157 48 -157 133h71c0 -45 33 -73 86 -73c52 0 86 28 86 73zM163 653c71 70 161 105 270 105s198 -35 269 -105c71 -69 107 -162 107 -279s-36 -210 -107 -280c-71 -69 -160 -104 -269 -104s-199 35 -270 104
c-71 70 -107 163 -107 280s36 210 107 279zM433 676c-83 0 -151 -27 -204 -81s-80 -128 -80 -221s27 -166 80 -221c54 -54 122 -81 204 -81s150 27 203 81c53 55 80 128 80 221s-27 167 -80 221s-121 81 -203 81z" />
    <glyph glyph-name="obreve" unicode="&#x14f;" horiz-adv-x="631" 
d="M400 732h71c0 -85 -61 -134 -157 -134s-157 49 -157 134h71c0 -45 33 -73 86 -73c52 0 86 28 86 73zM127 446c50 49 113 73 188 73s138 -24 187 -73c50 -48 75 -112 75 -191s-25 -143 -75 -192c-49 -49 -112 -73 -187 -73s-138 24 -188 73c-49 49 -74 113 -74 192
s25 143 74 191zM440 393c-33 34 -74 51 -125 51s-93 -17 -126 -51s-49 -80 -49 -138s16 -104 49 -139c33 -34 75 -51 126 -51s92 17 125 51c33 35 50 81 50 139s-17 104 -50 138z" />
    <glyph glyph-name="Ohungarumlaut" unicode="&#x150;" horiz-adv-x="866" 
d="M440 946l-74 -148h-69l61 148h82zM610 946l-74 -148h-68l60 148h82zM163 653c71 70 161 105 270 105s198 -35 269 -105c71 -69 107 -162 107 -279s-36 -210 -107 -280c-71 -69 -160 -104 -269 -104s-199 35 -270 104c-71 70 -107 163 -107 280s36 210 107 279zM433 676
c-83 0 -151 -27 -204 -81s-80 -128 -80 -221s27 -166 80 -221c54 -54 122 -81 204 -81s150 27 203 81c53 55 80 128 80 221s-27 167 -80 221s-121 81 -203 81z" />
    <glyph glyph-name="ohungarumlaut" unicode="&#x151;" horiz-adv-x="631" 
d="M335 763l-76 -158h-68l62 158h82zM506 763l-77 -158h-68l62 158h83zM127 446c50 49 113 73 188 73s138 -24 187 -73c50 -48 75 -112 75 -191s-25 -143 -75 -192c-49 -49 -112 -73 -187 -73s-138 24 -188 73c-49 49 -74 113 -74 192s25 143 74 191zM440 393
c-33 34 -74 51 -125 51s-93 -17 -126 -51s-49 -80 -49 -138s16 -104 49 -139c33 -34 75 -51 126 -51s92 17 125 51c33 35 50 81 50 139s-17 104 -50 138z" />
    <glyph glyph-name="OE" unicode="&#x152;" horiz-adv-x="1218" 
d="M1179 667h-371v-241h327v-79h-327v-5v-261h371v-81h-462v110c-71 -80 -165 -120 -284 -120c-109 0 -199 35 -270 104c-71 70 -107 163 -107 280s36 210 107 279c71 70 161 105 270 105c119 0 213 -40 284 -120v110h462v-81zM716 374c0 93 -27 167 -80 221
s-121 81 -203 81c-83 0 -151 -27 -204 -81s-80 -128 -80 -221s27 -166 80 -221c54 -54 122 -81 204 -81s150 27 203 81c53 55 80 128 80 221z" />
    <glyph glyph-name="oe" unicode="&#x153;" horiz-adv-x="1028" 
d="M974 269v-47h-393c5 -97 68 -157 159 -157c75 0 126 34 143 91l86 -5c-11 -47 -37 -85 -78 -116c-41 -30 -91 -45 -149 -45c-94 0 -164 36 -211 107c-45 -68 -125 -107 -216 -107c-75 0 -138 24 -188 73c-49 49 -74 113 -74 192s25 143 74 191c50 49 113 73 188 73
c91 0 169 -39 216 -106c46 71 116 106 209 106c73 0 130 -23 171 -68c42 -45 63 -106 63 -182zM315 65c96 0 167 67 174 172v18v18c-7 105 -78 171 -174 171c-51 0 -93 -17 -126 -51s-49 -80 -49 -138s16 -104 49 -139c33 -34 75 -51 126 -51zM739 444
c-91 0 -153 -56 -158 -152h307c-3 92 -54 152 -149 152z" />
    <glyph glyph-name="Racute" unicode="&#x154;" horiz-adv-x="686" 
d="M541 936l-187 -141h-82l149 141h120zM648 0h-103l-168 300h-195v-300h-92v748h289c67 0 122 -19 165 -58s65 -94 65 -166c0 -107 -52 -178 -137 -209zM181 667v-286h187c84 0 147 50 147 143s-63 143 -147 143h-187z" />
    <glyph glyph-name="racute" unicode="&#x155;" horiz-adv-x="340" 
d="M361 786l-132 -191h-69l103 191h98zM321 516v-83c-89 0 -148 -60 -148 -140v-293h-86v510h84v-77c20 47 71 83 150 83z" />
    <glyph glyph-name="Rcommaaccent" unicode="&#x156;" horiz-adv-x="686" 
d="M472 315l176 -315h-103l-168 300h-195v-300h-92v748h289c67 0 122 -19 165 -58s65 -94 65 -166c0 -107 -52 -178 -137 -209zM181 667v-286h187c84 0 147 50 147 143s-63 143 -147 143h-187zM353 -41c35 0 55 -27 55 -67c0 -84 -38 -147 -113 -190v39c34 25 54 59 59 102
c-32 0 -58 25 -58 57s25 59 57 59z" />
    <glyph glyph-name="rcommaaccent" unicode="&#x157;" horiz-adv-x="340" 
d="M87 510h84v-77c20 47 71 83 150 83v-83c-89 0 -148 -60 -148 -140v-293h-86v510zM132 -41c35 0 55 -27 55 -67c0 -84 -38 -147 -113 -190v39c34 25 54 59 59 102c-32 0 -58 25 -58 57s25 59 57 59z" />
    <glyph glyph-name="Rcaron" unicode="&#x158;" horiz-adv-x="686" 
d="M355 795h-82l-119 143h74l86 -90l85 90h75zM648 0h-103l-168 300h-195v-300h-92v748h289c67 0 122 -19 165 -58s65 -94 65 -166c0 -107 -52 -178 -137 -209zM181 667v-286h187c84 0 147 50 147 143s-63 143 -147 143h-187z" />
    <glyph glyph-name="rcaron" unicode="&#x159;" horiz-adv-x="340" 
d="M357 762l-120 -168h-82l-120 168h74l87 -110l87 110h74zM321 516v-83c-89 0 -148 -60 -148 -140v-293h-86v510h84v-77c20 47 71 83 150 83z" />
    <glyph glyph-name="Sacute" unicode="&#x15a;" horiz-adv-x="656" 
d="M554 936l-187 -141h-82l149 141h120zM326 758c75 0 136 -19 183 -56s72 -87 75 -152l-93 -6c-5 84 -68 134 -163 134c-104 0 -162 -53 -162 -129c0 -41 14 -69 41 -86c28 -17 75 -32 141 -47c89 -21 140 -38 188 -70c49 -31 70 -76 70 -140c0 -71 -25 -125 -75 -162
c-49 -36 -113 -54 -191 -54c-81 0 -147 19 -200 58s-81 92 -84 160l92 5c3 -43 23 -78 59 -104s80 -39 133 -39c105 0 173 42 173 129c0 35 -14 62 -33 78c-9 9 -23 17 -43 25c-19 8 -37 14 -53 18c-15 5 -38 11 -69 18c-40 9 -72 18 -96 26c-24 9 -49 21 -74 36
c-49 31 -72 78 -72 146c0 61 22 111 65 151c44 41 107 61 188 61z" />
    <glyph glyph-name="sacute" unicode="&#x15b;" horiz-adv-x="499" 
d="M406 786l-132 -191h-69l103 191h98zM244 518c109 1 175 -61 187 -153l-86 -5c-7 57 -41 85 -104 84c-63 1 -97 -27 -97 -74c0 -22 9 -39 26 -48c12 -5 16 -8 31 -12l19 -5c9 -1 34 -7 45 -10c121 -29 177 -63 177 -147c0 -100 -74 -158 -193 -158
c-115 0 -189 56 -202 155l86 6c8 -57 47 -86 118 -86c64 0 105 27 105 76c0 25 -9 42 -26 52c-17 11 -50 22 -100 34l-57 14c-13 4 -29 10 -46 17c-48 20 -65 51 -70 111c0 91 70 150 187 149z" />
    <glyph glyph-name="Scircumflex" unicode="&#x15c;" horiz-adv-x="656" 
d="M369 938l119 -143h-75l-85 90l-86 -90h-74l119 143h82zM326 758c75 0 136 -19 183 -56s72 -87 75 -152l-93 -6c-5 84 -68 134 -163 134c-104 0 -162 -53 -162 -129c0 -41 14 -69 41 -86c28 -17 75 -32 141 -47c89 -21 140 -38 188 -70c49 -31 70 -76 70 -140
c0 -71 -25 -125 -75 -162c-49 -36 -113 -54 -191 -54c-81 0 -147 19 -200 58s-81 92 -84 160l92 5c3 -43 23 -78 59 -104s80 -39 133 -39c105 0 173 42 173 129c0 35 -14 62 -33 78c-9 9 -23 17 -43 25c-19 8 -37 14 -53 18c-15 5 -38 11 -69 18c-40 9 -72 18 -96 26
c-24 9 -49 21 -74 36c-49 31 -72 78 -72 146c0 61 22 111 65 151c44 41 107 61 188 61z" />
    <glyph glyph-name="scircumflex" unicode="&#x15d;" horiz-adv-x="499" 
d="M283 765l120 -169h-74l-87 110l-87 -110h-74l120 169h82zM244 518c109 1 175 -61 187 -153l-86 -5c-7 57 -41 85 -104 84c-63 1 -97 -27 -97 -74c0 -22 9 -39 26 -48c12 -5 16 -8 31 -12l19 -5c9 -1 34 -7 45 -10c121 -29 177 -63 177 -147c0 -100 -74 -158 -193 -158
c-115 0 -189 56 -202 155l86 6c8 -57 47 -86 118 -86c64 0 105 27 105 76c0 25 -9 42 -26 52c-17 11 -50 22 -100 34l-57 14c-13 4 -29 10 -46 17c-48 20 -65 51 -70 111c0 91 70 150 187 149z" />
    <glyph glyph-name="Scedilla" unicode="&#x15e;" horiz-adv-x="656" 
d="M606 206c0 -68 -23 -120 -68 -156s-104 -56 -177 -60l-10 -44c68 -5 111 -38 111 -95c0 -64 -57 -101 -126 -101c-37 0 -69 7 -97 21l16 53c21 -13 46 -20 73 -20c37 0 69 16 69 48c0 33 -26 50 -78 50c-7 0 -17 -1 -29 -4l25 93c-75 4 -136 25 -183 63s-73 89 -76 154
l92 5c3 -43 23 -78 59 -104s80 -39 133 -39c105 0 173 42 173 129c0 35 -14 62 -33 78c-9 9 -23 17 -43 25c-19 8 -37 14 -53 18c-15 5 -38 11 -69 18c-40 9 -72 18 -96 26c-24 9 -49 21 -74 36c-49 31 -72 78 -72 146c0 61 22 111 65 151c44 41 107 61 188 61
c75 0 136 -19 183 -56s72 -87 75 -152l-93 -6c-5 84 -68 134 -163 134c-104 0 -162 -53 -162 -129c0 -41 14 -69 41 -86c28 -17 75 -32 141 -47c89 -21 140 -38 188 -70c49 -31 70 -76 70 -140z" />
    <glyph glyph-name="scedilla" unicode="&#x15f;" horiz-adv-x="499" 
d="M442 148c0 -93 -64 -150 -171 -157l-10 -45c68 -5 111 -38 111 -95c0 -64 -57 -101 -126 -101c-37 0 -69 7 -97 21l16 53c21 -13 46 -20 73 -20c37 0 69 16 69 48c0 33 -26 50 -78 50c-7 0 -17 -1 -29 -4l25 93c-101 7 -166 63 -178 154l86 6c8 -57 47 -86 118 -86
c64 0 105 27 105 76c0 25 -9 42 -26 52c-17 11 -50 22 -100 34l-57 14c-13 4 -29 10 -46 17c-48 20 -65 51 -70 111c0 91 70 150 187 149c109 1 175 -61 187 -153l-86 -5c-7 57 -41 85 -104 84c-63 1 -97 -27 -97 -74c0 -22 9 -39 26 -48c12 -5 16 -8 31 -12l19 -5
c9 -1 34 -7 45 -10c121 -29 177 -63 177 -147z" />
    <glyph glyph-name="Scaron" unicode="&#x160;" horiz-adv-x="656" 
d="M488 938l-119 -143h-82l-119 143h74l86 -90l85 90h75zM326 758c75 0 136 -19 183 -56s72 -87 75 -152l-93 -6c-5 84 -68 134 -163 134c-104 0 -162 -53 -162 -129c0 -41 14 -69 41 -86c28 -17 75 -32 141 -47c89 -21 140 -38 188 -70c49 -31 70 -76 70 -140
c0 -71 -25 -125 -75 -162c-49 -36 -113 -54 -191 -54c-81 0 -147 19 -200 58s-81 92 -84 160l92 5c3 -43 23 -78 59 -104s80 -39 133 -39c105 0 173 42 173 129c0 35 -14 62 -33 78c-9 9 -23 17 -43 25c-19 8 -37 14 -53 18c-15 5 -38 11 -69 18c-40 9 -72 18 -96 26
c-24 9 -49 21 -74 36c-49 31 -72 78 -72 146c0 61 22 111 65 151c44 41 107 61 188 61z" />
    <glyph glyph-name="scaron" unicode="&#x161;" horiz-adv-x="499" 
d="M403 762l-120 -168h-82l-120 168h74l87 -110l87 110h74zM244 518c109 1 175 -61 187 -153l-86 -5c-7 57 -41 85 -104 84c-63 1 -97 -27 -97 -74c0 -22 9 -39 26 -48c12 -5 16 -8 31 -12l19 -5c9 -1 34 -7 45 -10c121 -29 177 -63 177 -147c0 -100 -74 -158 -193 -158
c-115 0 -189 56 -202 155l86 6c8 -57 47 -86 118 -86c64 0 105 27 105 76c0 25 -9 42 -26 52c-17 11 -50 22 -100 34l-57 14c-13 4 -29 10 -46 17c-48 20 -65 51 -70 111c0 91 70 150 187 149z" />
    <glyph glyph-name="Tcaron" unicode="&#x164;" horiz-adv-x="682" 
d="M503 938l-119 -143h-82l-119 143h74l86 -90l85 90h75zM665 748v-81h-278v-667h-92v667h-278v81h648z" />
    <glyph glyph-name="tcaron" unicode="&#x165;" horiz-adv-x="512" 
d="M444 750c35 0 55 -27 55 -67c0 -84 -38 -147 -113 -190v39c34 25 54 59 59 102c-32 0 -58 25 -58 57s25 59 57 59zM332 435h-137l-2 -265c0 -66 30 -99 90 -99c13 0 30 2 50 5v-77c-23 -4 -46 -6 -69 -6c-97 0 -158 52 -157 160l1 282h-95v75h95l1 176h87l-1 -176h137
v-75z" />
    <glyph glyph-name="Tbar" unicode="&#x166;" horiz-adv-x="682" 
d="M665 667h-278v-263h141v-71h-141v-333h-92v333h-140v71h140v263h-278v81h648v-81z" />
    <glyph glyph-name="tbar" unicode="&#x167;" horiz-adv-x="357" 
d="M283 71c13 0 30 2 50 5v-77c-23 -4 -46 -6 -69 -6c-97 0 -158 52 -157 160v85h-94v63h95v134h-95v75h95l1 176h87l-1 -176h137v-75h-137l-1 -134h138v-63h-139v-68c0 -66 30 -99 90 -99z" />
    <glyph glyph-name="Utilde" unicode="&#x168;" horiz-adv-x="764" 
d="M309 936c22 0 46 -10 73 -31s48 -31 63 -31c32 0 49 22 50 55h49c4 -67 -33 -120 -90 -120c-22 0 -47 10 -74 30c-27 21 -47 31 -62 31c-31 0 -48 -18 -49 -54h-50c-4 67 33 120 90 120zM589 748h91v-467c0 -185 -114 -291 -298 -291s-298 106 -298 291v467h91v-466
c0 -137 76 -210 207 -210c129 0 207 74 207 210v466z" />
    <glyph glyph-name="utilde" unicode="&#x169;" 
d="M224 736c22 0 46 -10 73 -31c27 -20 48 -30 63 -30c32 0 49 18 50 54h49c4 -65 -33 -120 -90 -120c-22 0 -47 10 -74 30c-27 21 -47 31 -62 31c-31 0 -48 -18 -49 -54h-50c-4 67 33 120 90 120zM504 510v-510h-82v76c-21 -47 -74 -86 -153 -86c-57 0 -102 19 -136 56
c-33 38 -50 88 -50 149v315h86v-303c0 -84 44 -136 120 -136c79 0 129 62 129 141v298h86z" />
    <glyph glyph-name="Umacron" unicode="&#x16a;" horiz-adv-x="764" 
d="M513 901v-67h-264v67h264zM589 748h91v-467c0 -185 -114 -291 -298 -291s-298 106 -298 291v467h91v-466c0 -137 76 -210 207 -210c129 0 207 74 207 210v466z" />
    <glyph glyph-name="umacron" unicode="&#x16b;" 
d="M430 702v-67h-264v67h264zM504 510v-510h-82v76c-21 -47 -74 -86 -153 -86c-57 0 -102 19 -136 56c-33 38 -50 88 -50 149v315h86v-303c0 -84 44 -136 120 -136c79 0 129 62 129 141v298h86z" />
    <glyph glyph-name="Ubreve" unicode="&#x16c;" horiz-adv-x="764" 
d="M467 938h71c0 -85 -61 -133 -157 -133s-157 48 -157 133h71c0 -45 33 -73 86 -73c52 0 86 28 86 73zM589 748h91v-467c0 -185 -114 -291 -298 -291s-298 106 -298 291v467h91v-466c0 -137 76 -210 207 -210c129 0 207 74 207 210v466z" />
    <glyph glyph-name="ubreve" unicode="&#x16d;" 
d="M383 732h71c0 -85 -61 -134 -157 -134s-157 49 -157 134h71c0 -45 33 -73 86 -73c52 0 86 28 86 73zM504 510v-510h-82v76c-21 -47 -74 -86 -153 -86c-57 0 -102 19 -136 56c-33 38 -50 88 -50 149v315h86v-303c0 -84 44 -136 120 -136c79 0 129 62 129 141v298h86z" />
    <glyph glyph-name="Uring" unicode="&#x16e;" horiz-adv-x="764" 
d="M381 989c57 0 103 -42 103 -98s-46 -98 -103 -98c-59 0 -103 42 -103 98s44 98 103 98zM328 891c0 -29 22 -51 53 -51s52 22 52 51c6 67 -110 67 -105 0zM589 748h91v-467c0 -185 -114 -291 -298 -291s-298 106 -298 291v467h91v-466c0 -137 76 -210 207 -210
c129 0 207 74 207 210v466z" />
    <glyph glyph-name="uring" unicode="&#x16f;" 
d="M298 798c63 0 113 -45 113 -106s-50 -107 -113 -107c-64 0 -115 46 -115 107s50 106 115 106zM239 692c0 -33 23 -55 58 -55s58 22 58 55c0 32 -23 54 -58 54s-58 -22 -58 -54zM504 510v-510h-82v76c-21 -47 -74 -86 -153 -86c-57 0 -102 19 -136 56
c-33 38 -50 88 -50 149v315h86v-303c0 -84 44 -136 120 -136c79 0 129 62 129 141v298h86z" />
    <glyph glyph-name="Uhungarumlaut" unicode="&#x170;" horiz-adv-x="764" 
d="M398 946l-74 -148h-69l61 148h82zM568 946l-74 -148h-68l60 148h82zM589 748h91v-467c0 -185 -114 -291 -298 -291s-298 106 -298 291v467h91v-466c0 -137 76 -210 207 -210c129 0 207 74 207 210v466z" />
    <glyph glyph-name="uhungarumlaut" unicode="&#x171;" 
d="M318 763l-76 -158h-68l62 158h82zM489 763l-77 -158h-68l62 158h83zM504 510v-510h-82v76c-21 -47 -74 -86 -153 -86c-57 0 -102 19 -136 56c-33 38 -50 88 -50 149v315h86v-303c0 -84 44 -136 120 -136c79 0 129 62 129 141v298h86z" />
    <glyph glyph-name="Uogonek" unicode="&#x172;" horiz-adv-x="764" 
d="M589 748h91v-467c0 -155 -78 -254 -213 -282c-59 -31 -87 -56 -87 -92c0 -31 19 -46 56 -46c20 0 39 4 56 12l9 -44c-25 -11 -51 -16 -79 -16c-63 0 -108 31 -108 84c0 37 21 68 64 93c-183 1 -294 107 -294 291v467h91v-466c0 -137 76 -210 207 -210
c129 0 207 74 207 210v466z" />
    <glyph glyph-name="uogonek" unicode="&#x173;" 
d="M505 -128l9 -44c-25 -11 -51 -16 -79 -16c-63 0 -108 31 -108 84c0 43 32 80 95 109v71c-21 -47 -74 -86 -153 -86c-57 0 -102 19 -136 56c-33 38 -50 88 -50 149v315h86v-303c0 -84 44 -136 120 -136c79 0 129 62 129 141v298h86v-510h-19c-63 -32 -92 -57 -92 -94
c0 -31 19 -46 56 -46c21 0 39 4 56 12z" />
    <glyph glyph-name="Wcircumflex" unicode="&#x174;" horiz-adv-x="1118" 
d="M600 938l119 -143h-75l-85 90l-86 -90h-74l119 143h82zM1098 748l-261 -748h-77l-201 580l-200 -580h-77l-262 748h99l203 -587l200 587h75l201 -587l202 587h98z" />
    <glyph glyph-name="wcircumflex" unicode="&#x175;" horiz-adv-x="820" 
d="M451 765l120 -169h-74l-87 110l-87 -110h-74l120 169h82zM810 510l-194 -510h-69l-137 365l-137 -365h-69l-194 510h94l137 -370l138 370h61l139 -370l138 370h93z" />
    <glyph glyph-name="Ycircumflex" unicode="&#x176;" horiz-adv-x="692" 
d="M388 938l119 -143h-75l-85 90l-86 -90h-74l119 143h82zM675 748l-283 -437v-311h-91v311l-284 437h106l224 -347l222 347h106z" />
    <glyph glyph-name="ycircumflex" unicode="&#x177;" horiz-adv-x="530" 
d="M307 765l120 -169h-74l-87 110l-87 -110h-74l120 169h82zM515 510l-322 -765h-95l121 283l-203 482h96l154 -385l153 385h96z" />
    <glyph glyph-name="Ydieresis" unicode="&#x178;" horiz-adv-x="692" 
d="M324 869c0 -29 -23 -52 -52 -52s-52 23 -52 52c0 28 23 51 52 51s52 -23 52 -51zM473 869c0 -29 -22 -52 -51 -52s-53 23 -53 52c0 28 24 51 53 51s51 -23 51 -51zM675 748l-283 -437v-311h-91v311l-284 437h106l224 -347l222 347h106z" />
    <glyph glyph-name="Zacute" unicode="&#x179;" horiz-adv-x="618" 
d="M536 936l-187 -141h-82l149 141h120zM575 748v-69l-422 -598h430v-81h-547v69l421 598h-407v81h525z" />
    <glyph glyph-name="zacute" unicode="&#x17a;" horiz-adv-x="448" 
d="M392 786l-132 -191h-69l103 191h98zM405 510v-58l-271 -382h283v-70h-384v57l272 382h-266v71h366z" />
    <glyph glyph-name="Zdotaccent" unicode="&#x17b;" horiz-adv-x="618" 
d="M310 925c31 0 57 -27 57 -58c0 -33 -25 -58 -57 -58s-59 26 -59 58c0 31 27 58 59 58zM575 748v-69l-422 -598h430v-81h-547v69l421 598h-407v81h525z" />
    <glyph glyph-name="zdotaccent" unicode="&#x17c;" horiz-adv-x="448" 
d="M228 738c31 0 57 -26 57 -57c0 -32 -26 -58 -57 -58c-32 0 -59 26 -59 58c0 31 27 57 59 57zM405 510v-58l-271 -382h283v-70h-384v57l272 382h-266v71h366z" />
    <glyph glyph-name="Zcaron" unicode="&#x17d;" horiz-adv-x="618" 
d="M469 938l-119 -143h-82l-119 143h74l86 -90l85 90h75zM575 748v-69l-422 -598h430v-81h-547v69l421 598h-407v81h525z" />
    <glyph glyph-name="zcaron" unicode="&#x17e;" horiz-adv-x="448" 
d="M388 762l-120 -168h-82l-120 168h74l87 -110l87 110h74zM405 510v-58l-271 -382h283v-70h-384v57l272 382h-266v71h366z" />
    <glyph glyph-name="florin" unicode="&#x192;" horiz-adv-x="432" 
d="M339 786c52 0 96 -15 133 -44l-36 -71c-24 25 -54 38 -89 38c-51 0 -79 -27 -90 -91l-19 -108h150v-73h-163l-103 -579h-88l102 579h-109v73h122l22 123c18 102 74 153 168 153z" />
    <glyph glyph-name="Aringacute" unicode="&#x1fa;" horiz-adv-x="734" 
d="M373 772c-59 0 -103 42 -103 98c0 37 16 65 48 84l130 109h111l-151 -101c40 -13 67 -48 67 -92c0 -56 -45 -98 -102 -98zM425 870c6 67 -110 67 -105 0c0 -29 22 -51 53 -51s52 22 52 51zM406 748l313 -748h-100l-78 190h-347l-79 -190h-100l313 748h78zM228 270h279
l-139 337z" />
    <glyph glyph-name="aringacute" unicode="&#x1fb;" horiz-adv-x="542" 
d="M273 582c-59 0 -104 42 -104 98c0 35 14 62 43 81l136 112h111l-152 -100c41 -13 68 -48 68 -93c0 -56 -45 -98 -102 -98zM325 680c6 67 -110 67 -105 0c0 -29 22 -51 53 -51s52 22 52 51zM264 519c125 0 195 -71 195 -198v-321h-87v60c-39 -47 -90 -70 -152 -70
c-101 0 -167 54 -167 145c0 95 62 145 187 152l132 8v24c0 83 -36 124 -107 124c-72 0 -111 -47 -111 -106l-87 4c0 47 18 88 54 124s84 54 143 54zM373 205v21l-122 -8c-74 -5 -111 -32 -111 -81s31 -73 93 -73c84 0 140 45 140 141z" />
    <glyph glyph-name="AEacute" unicode="&#x1fc;" horiz-adv-x="1019" 
d="M879 936l-187 -141h-82l149 141h120zM981 667h-371v-241h327v-79h-327v-266h371v-81h-463v190h-272l-126 -190h-111l499 748h473v-81zM299 270h219v332z" />
    <glyph glyph-name="aeacute" unicode="&#x1fd;" horiz-adv-x="911" 
d="M604 786l-132 -191h-69l103 191h98zM859 269v-47h-394c5 -97 68 -157 159 -157c76 0 127 34 143 91l87 -5c-11 -47 -38 -85 -79 -116c-41 -30 -91 -45 -149 -45c-91 0 -160 34 -207 103c-43 -69 -109 -103 -196 -103c-104 0 -170 55 -170 147c0 93 62 143 187 150l132 8
v18c0 83 -36 132 -107 132c-72 0 -111 -48 -111 -108l-87 4c0 47 18 88 54 124s84 54 143 54c77 0 132 -30 164 -89c46 59 111 89 196 89c73 0 130 -23 172 -68s63 -106 63 -182zM623 444c-89 0 -153 -56 -158 -152h307c-3 92 -54 152 -149 152zM373 205v21l-122 -8
c-74 -5 -111 -31 -111 -80s31 -73 93 -73c80 0 140 41 140 140z" />
    <glyph glyph-name="Oslashacute" unicode="&#x1fe;" horiz-adv-x="847" 
d="M650 936l-187 -141h-82l149 141h120zM692 785l56 -43l-59 -76c80 -71 120 -169 120 -292c0 -117 -36 -210 -107 -280c-71 -69 -160 -104 -269 -104c-81 0 -152 20 -215 60l-65 -85l-56 43l66 86c-71 70 -107 163 -107 280s36 210 107 279c71 70 161 105 270 105
c74 0 140 -17 199 -51zM149 374c0 -84 23 -153 69 -208l362 473c-43 25 -92 37 -147 37c-83 0 -151 -27 -204 -81s-80 -128 -80 -221zM433 72c82 0 150 27 203 81c53 55 80 128 80 221s-27 166 -80 221l-365 -476c47 -31 101 -47 162 -47z" />
    <glyph glyph-name="oslashacute" unicode="&#x1ff;" horiz-adv-x="631" 
d="M479 786l-132 -191h-69l103 191h98zM493 536l48 -36l-40 -52c51 -49 76 -114 76 -193s-25 -143 -75 -192c-49 -49 -112 -73 -187 -73c-50 0 -95 11 -135 34l-44 -58l-48 36l43 57c-52 50 -78 115 -78 196c0 79 25 143 74 191c50 49 113 73 188 73c53 0 99 -12 138 -35z
M140 255c0 -53 14 -97 42 -130l224 296c-27 15 -58 23 -91 23c-51 0 -93 -17 -126 -51s-49 -80 -49 -138zM315 65c51 0 92 17 125 51c33 35 50 81 50 139c0 52 -13 94 -39 126l-223 -294c27 -15 56 -22 87 -22z" />
    <glyph glyph-name="Scommaaccent" unicode="&#x218;" horiz-adv-x="656" 
d="M348 416c89 -21 140 -38 188 -70c49 -31 70 -76 70 -140c0 -71 -25 -125 -75 -162c-49 -36 -113 -54 -191 -54c-81 0 -147 19 -200 58s-81 92 -84 160l92 5c3 -43 23 -78 59 -104s80 -39 133 -39c105 0 173 42 173 129c0 35 -14 62 -33 78c-9 9 -23 17 -43 25
c-19 8 -37 14 -53 18c-15 5 -38 11 -69 18c-40 9 -72 18 -96 26c-24 9 -49 21 -74 36c-49 31 -72 78 -72 146c0 61 22 111 65 151c44 41 107 61 188 61c75 0 136 -19 183 -56s72 -87 75 -152l-93 -6c-5 84 -68 134 -163 134c-104 0 -162 -53 -162 -129c0 -41 14 -69 41 -86
c28 -17 75 -32 141 -47zM338 -46c35 0 55 -27 55 -67c0 -84 -38 -147 -113 -190v39c34 25 54 59 59 102c-32 0 -58 25 -58 57s25 59 57 59z" />
    <glyph glyph-name="scommaaccent" unicode="&#x219;" horiz-adv-x="499" 
d="M265 295c121 -29 177 -63 177 -147c0 -100 -74 -158 -193 -158c-115 0 -189 56 -202 155l86 6c8 -57 47 -86 118 -86c64 0 105 27 105 76c0 25 -9 42 -26 52c-17 11 -50 22 -100 34l-57 14c-13 4 -29 10 -46 17c-48 20 -65 51 -70 111c0 91 70 150 187 149
c109 1 175 -61 187 -153l-86 -5c-7 57 -41 85 -104 84c-63 1 -97 -27 -97 -74c0 -22 9 -39 26 -48c12 -5 16 -8 31 -12l19 -5c9 -1 34 -7 45 -10zM247 -46c35 0 55 -27 55 -67c0 -84 -38 -147 -113 -190v39c34 25 54 59 59 102c-32 0 -58 25 -58 57s25 59 57 59z" />
    <glyph glyph-name="uni021A" unicode="&#x21a;" horiz-adv-x="682" 
d="M17 748h648v-81h-278v-667h-92v667h-278v81zM342 -41c35 0 55 -27 55 -67c0 -84 -38 -147 -113 -190v39c34 25 54 59 59 102c-32 0 -58 25 -58 57s25 59 57 59z" />
    <glyph glyph-name="uni021B" unicode="&#x21b;" horiz-adv-x="357" 
d="M283 71c13 0 30 2 50 5v-77c-23 -4 -46 -6 -69 -6c-97 0 -158 52 -157 160l1 282h-95v75h95l1 176h87l-1 -176h137v-75h-137l-2 -265c0 -66 30 -99 90 -99zM212 -49c35 0 55 -27 55 -67c0 -84 -38 -147 -113 -190v39c34 25 54 59 59 102c-32 0 -58 25 -58 57s25 59 57 59
z" />
    <glyph glyph-name="dotlessj" unicode="&#x237;" horiz-adv-x="261" 
d="M89 510h86v-586c0 -124 -63 -186 -164 -186c-33 0 -61 7 -83 21l32 71c16 -10 30 -15 42 -15c58 0 87 35 87 105v590z" />
    <glyph glyph-name="circumflex" unicode="&#x2c6;" horiz-adv-x="353" 
d="M218 765l120 -169h-74l-87 110l-87 -110h-74l120 169h82z" />
    <glyph glyph-name="caron" unicode="&#x2c7;" horiz-adv-x="353" 
d="M338 762l-120 -168h-82l-120 168h74l87 -110l87 110h74z" />
    <glyph glyph-name="breve" unicode="&#x2d8;" horiz-adv-x="353" 
d="M262 732h71c0 -85 -61 -134 -157 -134s-157 49 -157 134h71c0 -45 33 -73 86 -73c52 0 86 28 86 73z" />
    <glyph glyph-name="dotaccent" unicode="&#x2d9;" horiz-adv-x="155" 
d="M78 738c31 0 57 -26 57 -57c0 -32 -26 -58 -57 -58c-32 0 -59 26 -59 58c0 31 27 57 59 57z" />
    <glyph glyph-name="ring" unicode="&#x2da;" horiz-adv-x="265" 
d="M134 798c63 0 113 -45 113 -106s-50 -107 -113 -107c-64 0 -115 46 -115 107s50 106 115 106zM75 692c0 -33 23 -55 58 -55s58 22 58 55c0 32 -23 54 -58 54s-58 -22 -58 -54z" />
    <glyph glyph-name="ogonek" unicode="&#x2db;" horiz-adv-x="232" 
d="M173 28l14 -24c-64 -32 -94 -58 -94 -95c0 -31 19 -46 56 -46c21 0 39 4 56 12l9 -44c-25 -11 -51 -16 -79 -16c-63 0 -108 31 -108 84c0 59 51 97 146 129z" />
    <glyph glyph-name="tilde" unicode="&#x2dc;" horiz-adv-x="361" 
d="M111 736c22 0 46 -10 73 -31c27 -20 48 -30 63 -30c32 0 49 18 50 54h49c4 -65 -33 -120 -90 -120c-22 0 -47 10 -74 30c-27 21 -47 31 -62 31c-31 0 -48 -18 -49 -54h-50c-4 67 33 120 90 120z" />
    <glyph glyph-name="hungarumlaut" unicode="&#x2dd;" horiz-adv-x="349" 
d="M162 763l-76 -158h-68l62 158h82zM333 763l-77 -158h-68l62 158h83z" />
    <glyph glyph-name="uni0326" unicode="&#x326;" horiz-adv-x="0" 
d="M102 -41c35 0 55 -27 55 -67c0 -83 -38 -146 -113 -189v38c34 25 54 59 59 102c-32 0 -58 25 -58 57c0 33 24 59 57 59z" />
    <glyph glyph-name="Omega" unicode="&#x3a9;" horiz-adv-x="784" 
d="M716 374c0 -63 -14 -121 -43 -176c-29 -54 -61 -98 -97 -131h185v-67h-280v61c41 29 79 72 112 129c33 58 50 118 50 181c0 83 -22 150 -67 202c-45 53 -106 79 -184 79c-79 0 -140 -26 -185 -79c-45 -52 -67 -119 -67 -202c0 -63 17 -123 50 -181
c33 -57 71 -100 112 -129v-61h-279v67h184c-36 33 -68 77 -97 131c-28 55 -42 113 -42 176c0 100 29 182 86 247c58 65 137 98 238 98s180 -32 237 -97c58 -65 87 -147 87 -248z" />
    <glyph glyph-name="mu" unicode="&#x3bc;" horiz-adv-x="596" 
d="M422 510h86v-510h-81v76c-21 -47 -74 -86 -153 -86c-38 0 -72 9 -101 27v-272h-86v756h1v9h85v-303c0 -84 45 -136 121 -136c79 0 128 62 128 141v298z" />
    <glyph glyph-name="pi" unicode="&#x3c0;" horiz-adv-x="660" 
d="M564 524l67 -39c-29 -69 -76 -104 -141 -104h-20l-32 -261c-5 -37 7 -55 38 -55c16 0 34 7 53 22l39 -51c-31 -29 -66 -44 -105 -44c-72 0 -104 41 -95 124l32 265h-124l-28 -219c-7 -59 -23 -113 -47 -162h-81c29 61 48 120 57 177l25 204h-36c-35 0 -67 -14 -96 -43
l-40 59c44 40 81 61 152 61h267c61 0 91 21 115 66z" />
    <glyph glyph-name="Wgrave" unicode="&#x1e80;" horiz-adv-x="1118" 
d="M449 936l148 -141h-82l-187 141h121zM1098 748l-261 -748h-77l-201 580l-200 -580h-77l-262 748h99l203 -587l200 587h75l201 -587l202 587h98z" />
    <glyph glyph-name="wgrave" unicode="&#x1e81;" horiz-adv-x="820" 
d="M340 786l102 -191h-68l-133 191h99zM810 510l-194 -510h-69l-137 365l-137 -365h-69l-194 510h94l137 -370l138 370h61l139 -370l138 370h93z" />
    <glyph glyph-name="Wacute" unicode="&#x1e82;" horiz-adv-x="1118" 
d="M786 936l-187 -141h-82l149 141h120zM1098 748l-261 -748h-77l-201 580l-200 -580h-77l-262 748h99l203 -587l200 587h75l201 -587l202 587h98z" />
    <glyph glyph-name="wacute" unicode="&#x1e83;" horiz-adv-x="820" 
d="M575 786l-132 -191h-69l103 191h98zM810 510l-194 -510h-69l-137 365l-137 -365h-69l-194 510h94l137 -370l138 370h61l139 -370l138 370h93z" />
    <glyph glyph-name="Wdieresis" unicode="&#x1e84;" horiz-adv-x="1118" 
d="M537 869c0 -29 -23 -52 -52 -52s-52 23 -52 52c0 28 23 51 52 51s52 -23 52 -51zM686 869c0 -29 -22 -52 -51 -52s-53 23 -53 52c0 28 24 51 53 51s51 -23 51 -51zM1098 748l-261 -748h-77l-201 580l-200 -580h-77l-262 748h99l203 -587l200 587h75l201 -587l202 587h98z
" />
    <glyph glyph-name="wdieresis" unicode="&#x1e85;" horiz-adv-x="820" 
d="M384 681c0 -29 -23 -51 -52 -51s-52 22 -52 51c0 28 23 51 52 51s52 -23 52 -51zM533 681c0 -29 -22 -51 -51 -51s-53 22 -53 51c0 28 24 51 53 51s51 -23 51 -51zM810 510l-194 -510h-69l-137 365l-137 -365h-69l-194 510h94l137 -370l138 370h61l139 -370l138 370h93z
" />
    <glyph glyph-name="Ygrave" unicode="&#x1ef2;" horiz-adv-x="692" 
d="M236 936l148 -141h-82l-187 141h121zM675 748l-283 -437v-311h-91v311l-284 437h106l224 -347l222 347h106z" />
    <glyph glyph-name="ygrave" unicode="&#x1ef3;" horiz-adv-x="530" 
d="M196 786l102 -191h-68l-133 191h99zM515 510l-322 -765h-95l121 283l-203 482h96l154 -385l153 385h96z" />
    <glyph glyph-name="endash" unicode="&#x2013;" horiz-adv-x="563" 
d="M518 302v-81h-473v81h473z" />
    <glyph glyph-name="emdash" unicode="&#x2014;" horiz-adv-x="795" 
d="M750 302v-81h-705v81h705z" />
    <glyph glyph-name="quoteleft" unicode="&#x2018;" horiz-adv-x="182" 
d="M153 750v-39c-34 -25 -54 -59 -59 -102c32 0 58 -25 58 -57s-24 -59 -56 -59c-35 0 -56 27 -56 67c0 84 38 147 113 190z" />
    <glyph glyph-name="quoteright" unicode="&#x2019;" horiz-adv-x="182" 
d="M87 750c35 0 55 -27 55 -67c0 -83 -37 -147 -112 -190v38c33 27 53 61 58 103c-32 1 -57 25 -57 57s24 59 56 59z" />
    <glyph glyph-name="quotesinglbase" unicode="&#x201a;" horiz-adv-x="182" 
d="M87 108c35 0 55 -27 55 -67c0 -83 -37 -147 -112 -190v39c33 25 53 59 58 102c-32 1 -57 25 -57 57s24 59 56 59z" />
    <glyph glyph-name="quotedblleft" unicode="&#x201c;" horiz-adv-x="349" 
d="M35 560c0 84 38 147 113 190v-39c-34 -25 -54 -59 -59 -102c32 0 58 -25 58 -57s-25 -59 -57 -59c-35 0 -55 27 -55 67zM315 750v-39c-34 -25 -54 -59 -59 -102c32 0 58 -25 58 -57s-25 -59 -57 -59c-35 0 -55 27 -55 67c0 84 38 147 113 190z" />
    <glyph glyph-name="quotedblright" unicode="&#x201d;" horiz-adv-x="349" 
d="M82 750c35 0 55 -27 55 -67c0 -84 -38 -147 -113 -190v39c34 25 54 59 59 102c-32 0 -58 25 -58 57s25 59 57 59zM249 750c35 0 55 -27 55 -67c0 -84 -38 -147 -113 -190v39c34 25 54 59 59 102c-32 0 -58 25 -58 57s25 59 57 59z" />
    <glyph glyph-name="quotedblbase" unicode="&#x201e;" horiz-adv-x="349" 
d="M87 108c35 0 55 -27 55 -67c0 -83 -37 -147 -112 -190v39c33 25 53 59 58 102c-32 1 -57 25 -57 57s24 59 56 59zM254 108c35 0 55 -27 55 -67c0 -84 -38 -147 -113 -190v39c34 25 54 59 59 102c-32 0 -58 25 -58 57s25 59 57 59z" />
    <glyph glyph-name="dagger" unicode="&#x2020;" horiz-adv-x="493" 
d="M290 748v-206h183v-78h-183v-531h-86v531h-184v78h184v206h86z" />
    <glyph glyph-name="daggerdbl" unicode="&#x2021;" horiz-adv-x="493" 
d="M290 748v-206h183v-78h-183v-246h183v-79h-183v-206h-86v206h-184v79h184v246h-184v78h184v206h86z" />
    <glyph glyph-name="bullet" unicode="&#x2022;" horiz-adv-x="349" 
d="M175 375c33 0 61 -12 84 -35s35 -52 35 -85c0 -34 -12 -63 -35 -86s-51 -35 -84 -35c-68 0 -121 53 -121 121c0 33 12 62 35 85s52 35 86 35z" />
    <glyph glyph-name="ellipsis" unicode="&#x2026;" horiz-adv-x="624" 
d="M103 109c33 0 60 -27 60 -60c0 -32 -27 -59 -60 -59c-32 0 -58 27 -58 59c0 33 26 60 58 60zM307 109c33 0 60 -27 60 -60c0 -32 -27 -59 -60 -59c-32 0 -59 27 -59 59c0 33 27 60 59 60zM511 109c33 0 60 -27 60 -60c0 -32 -27 -59 -60 -59c-32 0 -58 27 -58 59
c0 33 26 60 58 60z" />
    <glyph glyph-name="perthousand" unicode="&#x2030;" horiz-adv-x="1226" 
d="M84 709c31 33 70 49 118 49s87 -16 117 -49c31 -32 46 -75 46 -129s-15 -97 -46 -130c-30 -33 -69 -49 -117 -49s-87 16 -118 49s-46 76 -46 130s15 97 46 129zM726 748l-528 -748h-85l528 748h85zM201 696c-57 0 -99 -45 -99 -116c0 -72 42 -118 99 -118
c59 0 99 46 99 118s-40 116 -99 116zM637 347c96 0 164 -70 164 -178s-68 -179 -164 -179c-47 0 -86 16 -117 49s-46 76 -46 130s15 97 46 129c31 33 70 49 117 49zM1025 -10c-96 0 -164 71 -164 179s68 178 164 178s163 -70 163 -178c0 -54 -15 -97 -46 -130
s-70 -49 -117 -49zM637 52c59 0 99 44 99 117s-40 117 -99 117s-99 -45 -99 -117s42 -117 99 -117zM1024 52c59 0 100 45 100 117s-41 117 -100 117s-99 -45 -99 -117s42 -117 99 -117z" />
    <glyph glyph-name="guilsinglleft" unicode="&#x2039;" horiz-adv-x="306" 
d="M224 472l63 -55l-167 -163l167 -163l-63 -55l-209 218z" />
    <glyph glyph-name="guilsinglright" unicode="&#x203a;" horiz-adv-x="306" 
d="M82 472l210 -218l-210 -218l-62 55l167 163l-167 163z" />
    <glyph glyph-name="fraction" unicode="&#x2044;" horiz-adv-x="197" 
d="M407 748l-527 -748h-89l527 748h89z" />
    <glyph glyph-name="Euro" unicode="&#x20ac;" horiz-adv-x="706" 
d="M620 134l39 -76c-59 -45 -132 -68 -218 -68c-79 0 -147 24 -206 71c-59 48 -98 114 -117 199h-110l20 54h81c-2 19 -3 39 -3 60c0 20 1 39 3 58h-101l20 54h90c19 85 57 152 116 200s129 72 208 72s148 -22 206 -65l-29 -75c-47 39 -105 58 -173 58
c-116 0 -201 -69 -233 -190h351l-21 -54h-341c-2 -18 -3 -37 -3 -58c0 -23 1 -43 4 -60h291l-20 -54h-261c32 -120 120 -188 233 -188c68 0 126 21 174 62z" />
    <glyph glyph-name="trademark" unicode="&#x2122;" horiz-adv-x="881" 
d="M358 748v-62h-132v-297h-64v297h-130v62h326zM815 748v-359h-65v219l-122 -217h-30l-122 217v-219h-64v359h53l148 -262l148 262h54z" />
    <glyph glyph-name="estimated" unicode="&#x212e;" horiz-adv-x="614" 
d="M321 538c71 0 131 -23 178 -69c47 -45 71 -108 71 -187h-412v-174c0 -26 9 -44 26 -53c35 -29 81 -44 137 -44c96 0 176 50 227 127l17 -11c-61 -92 -142 -138 -244 -138c-78 0 -144 25 -197 76s-79 116 -79 196c0 81 26 148 79 199c53 52 119 78 197 78zM320 516
c-54 0 -99 -15 -136 -44c-17 -8 -26 -25 -26 -50v-119h307v122c0 33 -5 46 -29 58c-31 22 -70 33 -116 33z" />
    <glyph glyph-name="partialdiff" unicode="&#x2202;" horiz-adv-x="613" 
d="M289 758c181 0 272 -159 272 -476c0 -184 -101 -293 -262 -293c-71 0 -131 23 -180 69c-48 47 -72 107 -72 182c0 73 23 131 70 175c47 45 107 67 180 67c70 0 127 -24 171 -72c-9 177 -68 266 -177 266c-63 0 -118 -24 -166 -72l-49 75c63 53 134 79 213 79zM305 71
c96 0 165 67 165 168v4c-1 49 -17 90 -48 121s-70 47 -117 47s-87 -16 -118 -48c-31 -31 -47 -72 -47 -122c0 -103 68 -170 165 -170z" />
    <glyph glyph-name="product" unicode="&#x220f;" horiz-adv-x="643" 
d="M618 748v-81h-103v-831h-78v831h-231v-831h-78v831h-103v81h593z" />
    <glyph glyph-name="summation" unicode="&#x2211;" horiz-adv-x="600" 
d="M553 748v-81h-398l220 -293l-220 -293h398v-81h-504v67l231 307l-231 307v67h504z" />
    <glyph glyph-name="minus" unicode="&#x2212;" horiz-adv-x="546" 
d="M513 411v-81h-480v81h480z" />
    <glyph glyph-name="radical" unicode="&#x221a;" horiz-adv-x="633" 
d="M532 694l71 -30l-274 -741l-144 341l-112 -73l-44 68l189 120l110 -275z" />
    <glyph glyph-name="infinity" unicode="&#x221e;" horiz-adv-x="787" 
d="M577 495c52 0 95 -18 128 -55c34 -37 51 -81 51 -134c0 -54 -17 -99 -51 -136c-33 -37 -76 -55 -128 -55c-66 0 -126 35 -181 104l-22 27l-21 -27c-54 -59 -108 -88 -161 -88c-48 0 -87 17 -117 50c-29 33 -44 75 -44 124s15 90 44 123c30 34 69 51 117 51
c58 0 111 -30 160 -90l21 -27l18 22c60 73 109 111 186 111zM577 422c-55 0 -91 -32 -140 -93l-19 -25l21 -28c48 -58 94 -87 138 -87c63 0 106 52 106 117s-43 116 -106 116zM194 408c-56 0 -94 -46 -94 -103c0 -59 38 -104 94 -104c41 0 81 25 118 74l23 29l-22 27
c-41 51 -80 77 -119 77z" />
    <glyph glyph-name="integral" unicode="&#x222b;" horiz-adv-x="339" 
d="M256 758c28 0 57 -5 86 -14l-15 -66c-17 6 -35 9 -53 9c-48 0 -64 -24 -64 -88v-610c0 -111 -37 -160 -124 -160c-29 0 -58 4 -87 13l15 66c21 -6 38 -9 51 -9c51 0 70 25 70 92v611c0 107 36 156 121 156z" />
    <glyph glyph-name="approxequal" unicode="&#x2248;" horiz-adv-x="536" 
d="M475 557l40 -57c-45 -56 -87 -84 -151 -84c-31 0 -65 10 -102 31c-36 21 -65 31 -87 31c-49 0 -78 -15 -114 -58l-40 58c44 55 85 81 146 81c25 0 56 -10 92 -31c37 -21 69 -31 97 -31c52 0 84 17 119 60zM475 323l40 -58c-44 -56 -87 -83 -151 -83c-31 0 -65 10 -102 31
c-36 21 -65 31 -87 31c-49 0 -78 -15 -114 -58l-40 57c44 56 85 82 146 82c25 0 56 -11 92 -32c37 -21 69 -31 97 -31c52 0 83 18 119 61z" />
    <glyph glyph-name="notequal" unicode="&#x2260;" horiz-adv-x="546" 
d="M513 447h-178l-54 -158h232v-81h-260l-45 -131l-74 18l39 113h-140v81h167l54 158h-221v82h250l44 130l75 -19l-38 -111h149v-82z" />
    <glyph glyph-name="lessequal" unicode="&#x2264;" horiz-adv-x="518" 
d="M484 664l2 -88l-284 -125l284 -125l-2 -88l-457 213zM486 180v-81h-459v81h459z" />
    <glyph glyph-name="greaterequal" unicode="&#x2265;" horiz-adv-x="518" 
d="M34 664l457 -213l-457 -213l-1 88l284 125l-284 125zM491 180v-81h-458v81h458z" />
    <glyph glyph-name="lozenge" unicode="&#x25ca;" horiz-adv-x="536" 
d="M296 748l205 -402l-205 -401h-55l-206 401l206 402h55zM269 623l-143 -277l143 -276l142 276z" />
    <glyph glyph-name="fl" unicode="&#xfb02;" horiz-adv-x="604" 
d="M292 781c11 0 23 -1 38 -2v-75c-11 1 -20 2 -29 2c-63 0 -104 -41 -104 -109v-87h131v-75h-131v-435h-86v435h-99v75h99v85c0 116 70 186 181 186zM516 777v-777h-86v777h86z" />
    <glyph glyph-name="n.001" horiz-adv-x="609" 
d="M330 519c58 0 105 -18 141 -55c37 -37 55 -85 55 -146v-318h-87v299c0 84 -52 140 -129 140c-40 0 -73 -14 -99 -41c-25 -27 -38 -61 -38 -100v-298h-86v510h82v-89c20 53 81 98 161 98z" />
    <glyph glyph-name="germandbls.cap" horiz-adv-x="689" 
d="M329 756c107 0 193 -40 259 -120l-116 -180c116 -33 174 -108 174 -225c0 -73 -25 -132 -74 -175s-114 -64 -195 -64c-33 0 -63 3 -88 8l18 81c16 -5 38 -8 66 -8c105 0 179 61 179 157c0 107 -72 158 -209 182l127 204c-35 39 -83 59 -145 59c-87 0 -151 -56 -151 -139
v-536h-91v535c0 66 23 119 70 160s105 61 176 61z" />
    <glyph glyph-name="a.sups" horiz-adv-x="441" 
d="M218 756c106 0 159 -53 159 -160v-256h-73v52c-23 -35 -72 -60 -129 -60c-83 0 -134 40 -134 115s55 117 164 124l94 6v24c0 56 -29 88 -81 88c-56 0 -89 -37 -89 -81l-76 3c0 39 15 72 45 101s70 44 120 44zM300 504v18l-89 -6c-61 -5 -91 -26 -91 -65s23 -58 70 -58
c60 -1 110 36 110 111z" />
    <glyph glyph-name="b.sups" horiz-adv-x="521" 
d="M68 962h77v-269c23 37 73 63 136 63c57 0 105 -19 142 -58s56 -90 56 -154s-19 -115 -56 -154s-85 -58 -142 -58c-65 0 -117 27 -140 67v-59h-73v622zM269 689c-73 0 -124 -49 -124 -133v-24c0 -84 51 -133 124 -133c77 0 132 53 132 144c0 92 -55 146 -132 146z" />
    <glyph glyph-name="c.sups" horiz-adv-x="464" 
d="M244 756c99 0 173 -59 186 -154l-75 -7c-8 59 -51 94 -111 94c-73 0 -124 -54 -124 -146c0 -89 52 -144 124 -144c61 0 102 33 111 88l75 -7c-15 -92 -86 -148 -186 -148c-59 0 -108 19 -146 57s-57 89 -57 154c0 132 83 213 203 213z" />
    <glyph glyph-name="d.sups" horiz-adv-x="521" 
d="M452 962v-622h-72v59c-23 -40 -76 -67 -141 -67c-57 0 -105 19 -142 58s-56 90 -56 154s19 115 56 154s85 58 142 58c64 0 115 -26 136 -63v269h77zM251 689c-76 0 -131 -55 -131 -146s55 -144 131 -144c73 0 124 49 124 133v24c0 84 -51 133 -124 133z" />
    <glyph glyph-name="e.sups" horiz-adv-x="474" 
d="M433 554v-37h-309c3 -76 49 -118 120 -118c56 0 96 26 107 70l78 -5c-16 -79 -89 -132 -184 -132c-60 0 -109 19 -147 56c-38 38 -57 90 -57 155c0 132 83 213 203 213c117 0 189 -78 189 -202zM243 689c-65 0 -113 -43 -118 -112h230c-3 67 -44 112 -112 112z" />
    <glyph glyph-name="f.sups" horiz-adv-x="276" 
d="M237 965c13 0 24 -1 32 -3v-67c-3 1 -11 2 -22 2c-49 0 -81 -31 -81 -83v-66h102v-67h-102v-341h-78v341h-79v67h79v65c0 95 58 152 149 152z" />
    <glyph glyph-name="g.sups" horiz-adv-x="519" 
d="M239 756c65 0 118 -27 141 -66v58h72v-430c0 -117 -77 -189 -197 -189c-115 0 -185 57 -201 146l78 3c8 -52 56 -84 120 -84c75 0 123 43 123 119v82c-23 -39 -73 -63 -136 -63c-57 0 -105 19 -142 58s-56 90 -56 154s19 115 56 154s85 58 142 58zM251 689
c-77 0 -131 -54 -131 -145s54 -145 131 -145c73 0 124 49 124 133v24c0 85 -51 133 -124 133z" />
    <glyph glyph-name="h.sups" horiz-adv-x="484" 
d="M68 962h77v-265c20 32 62 59 121 59c95 0 158 -63 158 -162v-254h-78v237c0 65 -38 107 -98 107c-61 0 -103 -47 -103 -108v-236h-77v622z" />
    <glyph glyph-name="i.sups" horiz-adv-x="214" 
d="M156 894c0 -28 -22 -49 -49 -49c-28 0 -50 21 -50 49c0 27 23 50 50 50s49 -23 49 -50zM146 748v-408h-78v408h78z" />
    <glyph glyph-name="j.sups" horiz-adv-x="214" 
d="M106 944c28 0 50 -23 50 -50c0 -28 -22 -49 -50 -49c-27 0 -49 21 -49 49c0 27 22 50 49 50zM69 748h77v-465c0 -95 -55 -152 -144 -152c-9 0 -21 1 -34 2v68c9 -1 17 -2 24 -2c48 0 77 30 77 82v467z" />
    <glyph glyph-name="k.sups" horiz-adv-x="435" 
d="M145 962v-387l170 173h97l-171 -178l189 -230h-98l-145 174l-42 -42v-132h-77v622h77z" />
    <glyph glyph-name="l.sups" horiz-adv-x="213" 
d="M145 962v-622h-77v622h77z" />
    <glyph glyph-name="m.sups" horiz-adv-x="748" 
d="M529 756c93 0 154 -62 154 -162v-254h-78v237c0 67 -35 107 -92 107c-60 0 -99 -47 -99 -108v-236h-78v237c0 67 -34 107 -93 107c-60 0 -98 -47 -98 -108v-236h-77v408h73v-51c19 31 60 59 119 59c64 0 109 -25 135 -75c26 50 71 75 134 75z" />
    <glyph glyph-name="n.sups" horiz-adv-x="488" 
d="M266 756c95 0 158 -63 158 -162v-254h-78v237c0 65 -38 107 -98 107c-61 0 -103 -47 -103 -108v-236h-77v408h73v-51c20 32 65 59 125 59z" />
    <glyph glyph-name="o.sups" horiz-adv-x="506" 
d="M100 697c40 39 91 59 152 59s112 -20 152 -59s60 -90 60 -154s-20 -115 -60 -154c-40 -38 -91 -57 -152 -57s-112 19 -152 57c-39 39 -59 90 -59 154s20 115 59 154zM253 689c-77 0 -133 -57 -133 -146s56 -144 133 -144c79 0 134 55 134 144s-55 146 -134 146z" />
    <glyph glyph-name="p.sups" horiz-adv-x="521" 
d="M281 756c57 0 105 -19 142 -58s56 -90 56 -154s-19 -115 -56 -154s-85 -58 -142 -58c-63 0 -113 26 -136 63v-259h-77v612h73v-58c23 40 75 66 140 66zM269 689c-73 0 -124 -48 -124 -133v-24c0 -84 51 -133 124 -133c77 0 132 54 132 145s-55 145 -132 145z" />
    <glyph glyph-name="q.sups" horiz-adv-x="521" 
d="M239 756c65 0 118 -27 141 -66v58h72v-612h-77v259c-21 -37 -72 -63 -136 -63c-57 0 -105 19 -142 58s-56 90 -56 154s19 115 56 154s85 58 142 58zM251 689c-77 0 -131 -54 -131 -145s54 -145 131 -145c73 0 124 49 124 133v24c0 85 -51 133 -124 133z" />
    <glyph glyph-name="r.sups" horiz-adv-x="274" 
d="M261 753v-74c-69 0 -116 -46 -116 -109v-230h-77v408h74v-50c25 37 64 55 119 55z" />
    <glyph glyph-name="s.sups" horiz-adv-x="400" 
d="M195 756c91 0 145 -50 153 -127l-77 -5c-4 43 -29 65 -76 65c-48 0 -74 -20 -74 -55c0 -18 7 -28 19 -35c7 -4 23 -8 32 -11s32 -7 44 -10c97 -23 141 -49 141 -118c0 -81 -59 -128 -158 -128c-93 0 -153 48 -164 128l78 5c5 -45 34 -67 86 -67c54 0 81 20 81 59
c0 17 -7 30 -20 37s-39 15 -78 24c-49 11 -85 24 -106 39s-32 40 -32 77c0 75 55 122 151 122z" />
    <glyph glyph-name="t.sups" horiz-adv-x="284" 
d="M228 403c14 0 28 1 41 4v-69c-20 -3 -39 -4 -58 -4c-81 0 -130 42 -130 131l1 216h-76v67h76l1 141h78l-1 -141h108v-67h-109l-1 -205c0 -49 23 -73 70 -73z" />
    <glyph glyph-name="u.sups" horiz-adv-x="475" 
d="M407 748v-408h-74v51c-24 -39 -64 -59 -119 -59c-93 0 -150 61 -150 158v258h78v-240c0 -65 32 -103 91 -103s97 43 97 102v241h77z" />
    <glyph glyph-name="v.sups" horiz-adv-x="430" 
d="M422 748l-176 -408h-61l-177 408h85l123 -288l122 288h84z" />
    <glyph glyph-name="w.sups" horiz-adv-x="661" 
d="M653 748l-155 -408h-60l-107 288l-108 -288h-59l-156 408h85l106 -283l105 283h54l105 -283l106 283h84z" />
    <glyph glyph-name="x.sups" horiz-adv-x="417" 
d="M399 748l-135 -199l142 -209h-92l-105 152l-103 -152h-94l142 208l-136 200h93l98 -144l98 144h92z" />
    <glyph glyph-name="y.sups" horiz-adv-x="431" 
d="M418 748l-259 -612h-84l98 232l-161 380h85l119 -288l118 288h84z" />
    <glyph glyph-name="z.sups" horiz-adv-x="362" 
d="M326 748v-54l-210 -292h219v-62h-309v53l210 292h-206v63h296z" />
    <glyph glyph-name="zero.onum" horiz-adv-x="646" 
d="M592 296c0 -94 -24 -169 -73 -224s-114 -82 -196 -82s-148 27 -197 82s-73 130 -73 224s24 168 73 223s115 82 197 82s147 -28 196 -83s73 -129 73 -222zM451 460c-31 40 -73 60 -128 60s-98 -20 -129 -60c-31 -39 -47 -94 -47 -164s16 -125 47 -165
c31 -39 74 -59 129 -59s97 20 128 59c31 40 47 95 47 165s-16 125 -47 164z" />
    <glyph glyph-name="one.onum" horiz-adv-x="372" 
d="M280 590v-590h-90v474l-137 -108l-40 71l200 153h67z" />
    <glyph glyph-name="two.onum" horiz-adv-x="536" 
d="M275 599c140 0 215 -73 215 -197c0 -91 -53 -152 -145 -223l-129 -98h283v-81h-441v70l217 162l49 37c9 8 21 19 35 34c29 31 39 60 39 97c0 79 -40 118 -121 118c-83 0 -131 -53 -132 -145l-91 5c3 139 84 221 221 221z" />
    <glyph glyph-name="three.onum" horiz-adv-x="557" 
d="M276 600c133 0 215 -80 215 -205c0 -84 -44 -142 -107 -166c75 -17 126 -81 126 -176c0 -67 -21 -121 -64 -161c-42 -40 -98 -60 -168 -60c-144 0 -227 83 -236 220l92 5c8 -92 57 -143 144 -143s140 53 140 141c0 87 -59 133 -148 133h-73v81h71c77 0 131 49 131 126
c0 79 -47 123 -123 123c-79 0 -125 -48 -132 -135l-90 5c5 132 86 212 222 212z" />
    <glyph glyph-name="four.onum" horiz-adv-x="596" 
d="M442 590v-489h129v-82h-129v-177h-89v177h-326v75l339 496h76zM353 426l-225 -325h225v325z" />
    <glyph glyph-name="five.onum" horiz-adv-x="559" 
d="M289 301c66 0 120 -21 161 -62s62 -97 62 -168s-21 -129 -63 -173s-99 -66 -172 -66c-140 0 -224 81 -233 214l92 5c8 -87 55 -137 142 -137c91 0 143 63 143 155c0 91 -56 151 -141 151c-46 0 -88 -15 -125 -45h-84v415h413v-81h-323v-244c38 24 81 36 128 36z" />
    <glyph glyph-name="six.onum" horiz-adv-x="592" 
d="M298 478c72 0 132 -23 179 -68s71 -104 71 -177s-24 -131 -71 -176s-107 -67 -179 -67c-73 0 -134 22 -181 67s-70 103 -70 176c0 57 17 109 51 155l269 360h108l-202 -271c5 1 14 1 25 1zM298 72c92 0 158 65 158 164s-66 162 -158 162c-55 0 -97 -19 -126 -56
c-22 -28 -33 -63 -33 -106c0 -100 66 -164 159 -164z" />
    <glyph glyph-name="seven.onum" horiz-adv-x="539" 
d="M515 590v-74l-351 -674h-101l351 667h-391v81h492z" />
    <glyph glyph-name="eight.onum" horiz-adv-x="599" 
d="M299 758c65 0 119 -18 161 -55c43 -36 64 -85 64 -146c0 -76 -41 -134 -101 -162c72 -31 120 -97 120 -186c0 -67 -23 -120 -69 -160c-45 -39 -104 -59 -175 -59s-129 20 -175 59c-45 40 -68 93 -68 160c0 88 47 154 119 185c-61 27 -101 86 -101 163c0 62 21 111 63 147
s96 54 162 54zM300 676c-79 0 -135 -47 -135 -124c0 -75 56 -121 135 -121c77 0 134 46 134 121c0 77 -57 124 -134 124zM408 313c-29 25 -65 38 -109 38s-80 -13 -109 -38s-43 -58 -43 -101s14 -77 43 -102s65 -38 109 -38s80 13 109 38s43 59 43 102s-14 76 -43 101z" />
    <glyph glyph-name="nine.onum" horiz-adv-x="592" 
d="M294 600c73 0 133 -22 180 -67s71 -103 71 -176c0 -57 -17 -109 -51 -155l-269 -360h-108l202 271c-5 -1 -14 -1 -25 -1c-72 0 -132 23 -179 68s-71 104 -71 177s24 131 71 176s107 67 179 67zM294 192c55 0 97 19 126 56c22 28 33 63 33 106c0 100 -66 164 -159 164
c-92 0 -158 -65 -158 -164s66 -162 158 -162z" />
    <glyph glyph-name="zero.slash" horiz-adv-x="645" 
d="M323 758c82 0 147 -34 195 -101c49 -67 73 -161 73 -283s-24 -217 -73 -284c-48 -67 -113 -100 -195 -100c-83 0 -149 33 -198 100c-48 67 -72 162 -72 284s24 216 72 283c49 67 115 101 198 101zM322 676c-115 0 -176 -105 -176 -302c0 -89 12 -158 36 -208l244 469
c-29 27 -63 41 -104 41zM322 72c115 0 177 105 177 302c0 86 -12 154 -35 205l-243 -469c27 -25 61 -38 101 -38z" />
    <glyph glyph-name="zero.subs" horiz-adv-x="370" 
d="M185 337c93 0 152 -78 152 -211c0 -135 -59 -212 -152 -212c-92 0 -152 77 -152 212c0 133 60 211 152 211zM269 126c0 101 -28 151 -84 151s-84 -50 -84 -151s28 -151 84 -151s84 50 84 151z" />
    <glyph glyph-name="one.subs" horiz-adv-x="223" 
d="M175 331v-411h-68v321l-69 -53l-30 53l124 90h43z" />
    <glyph glyph-name="two.subs" horiz-adv-x="314" 
d="M157 337c83 0 126 -50 126 -125c0 -57 -25 -99 -74 -152l-77 -80h155v-60h-256v46l129 135c37 39 55 76 55 112c0 39 -21 64 -57 64c-39 0 -63 -26 -63 -70l-66 4c1 79 49 126 128 126z" />
    <glyph glyph-name="three.subs" horiz-adv-x="323" 
d="M159 337c77 0 124 -44 124 -115c0 -42 -18 -72 -55 -89c36 -11 63 -46 63 -95c0 -76 -52 -124 -131 -124c-83 0 -130 47 -133 123l67 5c4 -45 26 -67 66 -67s64 25 64 65s-28 62 -69 62h-41v58h40c36 0 63 23 63 59s-23 58 -58 58c-36 0 -59 -23 -60 -63l-66 4
c3 75 47 119 126 119z" />
    <glyph glyph-name="four.subs" horiz-adv-x="346" 
d="M264 331v-260h62v-61h-62v-90h-68v90h-178v53l182 268h64zM197 238l-119 -167h119v167z" />
    <glyph glyph-name="five.subs" horiz-adv-x="321" 
d="M168 177c75 0 125 -48 125 -129s-51 -134 -134 -134c-79 0 -127 46 -131 119l67 4c5 -41 26 -62 65 -62c41 0 66 29 66 72c0 63 -65 94 -124 48h-59v236h234v-60h-167v-108c17 9 36 14 58 14z" />
    <glyph glyph-name="six.subs" horiz-adv-x="343" 
d="M201 331h81l-106 -145c79 -1 138 -56 138 -136c0 -81 -60 -136 -141 -136c-83 0 -143 55 -143 136c0 29 10 58 29 87zM172 -25c44 0 74 30 74 77c0 48 -29 75 -74 75c-26 0 -45 -8 -58 -25c-11 -15 -16 -32 -16 -50c0 -47 31 -77 74 -77z" />
    <glyph glyph-name="seven.subs" horiz-adv-x="314" 
d="M293 331v-51l-179 -360h-75l177 351h-197v60h274z" />
    <glyph glyph-name="eight.subs" horiz-adv-x="346" 
d="M173 337c73 0 128 -45 128 -114c0 -36 -15 -64 -44 -85c37 -23 55 -56 55 -100c0 -76 -58 -124 -139 -124s-139 48 -139 124c0 43 18 76 54 99c-29 22 -44 51 -44 86c0 69 53 114 129 114zM173 277c-37 0 -66 -23 -66 -60c-5 -76 138 -76 130 0c0 37 -25 60 -64 60z
M173 -25c43 0 71 24 71 64s-30 64 -71 64s-72 -24 -72 -64s31 -64 72 -64z" />
    <glyph glyph-name="nine.subs" horiz-adv-x="343" 
d="M171 337c83 0 143 -55 143 -136c0 -32 -10 -61 -30 -87l-140 -194h-82l106 145c-79 1 -138 56 -138 136c0 81 60 136 141 136zM172 124c26 0 45 8 58 25c11 14 16 31 16 50c0 47 -30 78 -74 78c-43 0 -74 -31 -74 -78s30 -75 74 -75z" />
    <glyph glyph-name="zero.sups" horiz-adv-x="370" 
d="M185 819c93 0 152 -78 152 -211c0 -135 -59 -212 -152 -212c-92 0 -152 77 -152 212c0 133 60 211 152 211zM269 608c0 101 -28 151 -84 151s-84 -50 -84 -151s28 -151 84 -151s84 50 84 151z" />
    <glyph glyph-name="one.sups" horiz-adv-x="223" 
d="M175 813v-411h-68v321l-69 -53l-30 53l124 90h43z" />
    <glyph glyph-name="two.sups" horiz-adv-x="314" 
d="M157 819c83 0 126 -50 126 -125c0 -57 -25 -99 -74 -152l-77 -80h155v-60h-256v46l129 135c37 39 55 76 55 112c0 39 -21 64 -57 64c-39 0 -63 -26 -63 -70l-66 4c1 79 49 126 128 126z" />
    <glyph glyph-name="three.sups" horiz-adv-x="323" 
d="M159 819c77 0 124 -44 124 -115c0 -42 -18 -72 -55 -89c36 -11 63 -46 63 -95c0 -76 -52 -124 -131 -124c-83 0 -130 47 -133 123l67 5c4 -45 26 -67 66 -67s64 25 64 65s-28 62 -69 62h-41v58h40c36 0 63 23 63 59s-23 58 -58 58c-36 0 -59 -23 -60 -63l-66 4
c3 75 47 119 126 119z" />
    <glyph glyph-name="four.sups" horiz-adv-x="346" 
d="M264 813v-260h62v-61h-62v-90h-68v90h-178v53l182 268h64zM197 720l-119 -167h119v167z" />
    <glyph glyph-name="five.sups" horiz-adv-x="321" 
d="M168 659c75 0 125 -48 125 -129s-51 -134 -134 -134c-79 0 -127 46 -131 119l67 4c5 -41 26 -62 65 -62c41 0 66 29 66 72c0 63 -65 94 -124 48h-59v236h234v-60h-167v-108c17 9 36 14 58 14z" />
    <glyph glyph-name="six.sups" horiz-adv-x="343" 
d="M201 813h81l-106 -145c79 -1 138 -56 138 -136c0 -81 -60 -136 -141 -136c-83 0 -143 55 -143 136c0 29 10 58 29 87zM172 457c44 0 74 30 74 77c0 48 -29 75 -74 75c-26 0 -45 -8 -58 -25c-11 -15 -16 -32 -16 -50c0 -47 31 -77 74 -77z" />
    <glyph glyph-name="seven.sups" horiz-adv-x="314" 
d="M293 813v-51l-179 -360h-75l177 351h-197v60h274z" />
    <glyph glyph-name="eight.sups" horiz-adv-x="346" 
d="M173 819c73 0 128 -45 128 -114c0 -36 -15 -64 -44 -85c37 -23 55 -56 55 -100c0 -76 -58 -124 -139 -124s-139 48 -139 124c0 43 18 76 54 99c-29 22 -44 51 -44 86c0 69 53 114 129 114zM173 759c-37 0 -66 -23 -66 -60c-5 -76 138 -76 130 0c0 37 -25 60 -64 60z
M173 457c43 0 71 24 71 64s-30 64 -71 64s-72 -24 -72 -64s31 -64 72 -64z" />
    <glyph glyph-name="nine.sups" horiz-adv-x="343" 
d="M171 819c83 0 143 -55 143 -136c0 -32 -10 -61 -30 -87l-140 -194h-82l106 145c-79 1 -138 56 -138 136c0 81 60 136 141 136zM172 606c26 0 45 8 58 25c11 14 16 31 16 50c0 47 -30 78 -74 78c-43 0 -74 -31 -74 -78s30 -75 74 -75z" />
    <glyph glyph-name="zero.tnum" horiz-adv-x="650" 
d="M128 657c49 67 114 101 197 101s148 -34 196 -101c49 -67 73 -162 73 -283s-24 -216 -73 -283c-48 -67 -113 -101 -196 -101s-148 33 -197 100s-73 162 -73 284s24 216 73 283zM456 599c-30 51 -74 77 -131 77s-101 -26 -132 -77c-30 -51 -45 -126 -45 -225
s15 -174 45 -225c31 -51 75 -77 132 -77s101 26 131 77s45 126 45 225s-15 174 -45 225z" />
    <glyph glyph-name="one.tnum" horiz-adv-x="650" 
d="M405 748v-667h156v-81h-416v81h169v545l-144 -109l-43 69l211 162h67z" />
    <glyph glyph-name="two.tnum" horiz-adv-x="650" 
d="M328 757c136 0 214 -78 214 -209c0 -57 -12 -109 -37 -154s-61 -92 -110 -143l-162 -170h318v-81h-443v74l220 231c46 49 78 89 96 122s27 72 27 117c0 80 -44 132 -121 132c-87 0 -130 -54 -133 -150l-91 5c3 143 82 226 222 226z" />
    <glyph glyph-name="three.tnum" horiz-adv-x="650" 
d="M323 758c135 0 216 -80 216 -205c0 -84 -44 -142 -107 -166c75 -17 125 -81 125 -176c0 -67 -21 -121 -64 -161c-42 -40 -98 -60 -167 -60c-144 0 -227 83 -236 220l91 5c9 -92 59 -143 144 -143c88 0 140 53 140 141c0 87 -58 133 -147 133h-74v81h72
c77 0 131 49 131 126c0 79 -47 123 -124 123c-79 0 -126 -50 -131 -135l-91 5c7 132 86 212 222 212z" />
    <glyph glyph-name="four.tnum" horiz-adv-x="650" 
d="M465 748v-489h129v-82h-129v-177h-89v177h-327v75l340 496h76zM375 584l-224 -325h224v325z" />
    <glyph glyph-name="five.tnum" horiz-adv-x="650" 
d="M332 459c67 0 121 -21 162 -62s62 -97 62 -168s-21 -129 -63 -173s-100 -66 -173 -66c-140 0 -223 81 -232 214l91 5c8 -87 57 -137 142 -137c92 0 144 63 144 155c0 91 -57 151 -142 151c-46 0 -88 -15 -125 -45h-84v415h413v-81h-323v-244c38 24 81 36 128 36z" />
    <glyph glyph-name="six.tnum" horiz-adv-x="650" 
d="M322 478c72 0 132 -23 179 -68s71 -104 71 -177s-24 -131 -71 -176s-107 -67 -179 -67c-73 0 -133 22 -180 67s-71 103 -71 176c0 57 17 109 51 155l269 360h109l-202 -271c5 1 13 1 24 1zM322 72c92 0 158 64 158 164c0 99 -65 162 -158 162c-55 0 -97 -19 -125 -56
c-22 -28 -33 -63 -33 -106c0 -100 65 -164 158 -164z" />
    <glyph glyph-name="seven.tnum" horiz-adv-x="650" 
d="M566 748v-74l-351 -674h-101l351 667h-391v81h492z" />
    <glyph glyph-name="eight.tnum" horiz-adv-x="650" 
d="M324 758c65 0 119 -18 162 -55c43 -36 64 -85 64 -146c0 -77 -41 -134 -102 -162c72 -31 120 -97 120 -186c0 -67 -23 -120 -69 -160c-45 -39 -103 -59 -174 -59s-129 20 -175 59c-45 40 -68 93 -68 160c0 88 47 154 118 185c-61 27 -101 86 -101 163c0 62 21 111 63 147
s96 54 162 54zM190 552c0 -75 56 -121 135 -121c77 0 134 46 134 121c0 77 -55 124 -134 124s-135 -47 -135 -124zM324 351c-88 0 -152 -54 -152 -139s64 -140 152 -140c89 0 153 53 153 140c0 85 -64 139 -153 139z" />
    <glyph glyph-name="nine.tnum" horiz-adv-x="650" 
d="M328 758c73 0 133 -22 180 -67s71 -103 71 -176c0 -57 -17 -109 -51 -155l-269 -360h-109l202 271c-5 -1 -13 -1 -24 -1c-72 0 -132 23 -179 68s-71 104 -71 177s24 131 71 176s107 67 179 67zM328 350c55 0 97 19 125 56c22 28 33 63 33 106c0 100 -65 164 -158 164
c-92 0 -158 -64 -158 -164c0 -99 65 -162 158 -162z" />
    <glyph glyph-name="zero.dnom" horiz-adv-x="370" 
d="M185 417c93 0 152 -78 152 -211c0 -135 -59 -212 -152 -212c-92 0 -152 77 -152 212c0 133 60 211 152 211zM269 206c0 101 -28 151 -84 151s-84 -50 -84 -151s28 -151 84 -151s84 50 84 151z" />
    <glyph glyph-name="one.dnom" horiz-adv-x="223" 
d="M175 411v-411h-68v321l-69 -53l-30 53l124 90h43z" />
    <glyph glyph-name="two.dnom" horiz-adv-x="314" 
d="M157 417c83 0 126 -50 126 -125c0 -57 -25 -99 -74 -152l-77 -80h155v-60h-256v46l129 135c37 39 55 76 55 112c0 39 -21 64 -57 64c-39 0 -63 -26 -63 -70l-66 4c1 79 49 126 128 126z" />
    <glyph glyph-name="three.dnom" horiz-adv-x="323" 
d="M159 417c77 0 124 -44 124 -115c0 -42 -18 -72 -55 -89c36 -11 63 -46 63 -95c0 -76 -52 -124 -131 -124c-83 0 -130 47 -133 123l67 5c4 -45 26 -67 66 -67s64 25 64 65s-28 62 -69 62h-41v58h40c36 0 63 23 63 59s-23 58 -58 58c-36 0 -59 -23 -60 -63l-66 4
c3 75 47 119 126 119z" />
    <glyph glyph-name="four.dnom" horiz-adv-x="346" 
d="M264 411v-260h62v-61h-62v-90h-68v90h-178v53l182 268h64zM197 318l-119 -167h119v167z" />
    <glyph glyph-name="five.dnom" horiz-adv-x="321" 
d="M168 257c75 0 125 -48 125 -129s-51 -134 -134 -134c-79 0 -127 46 -131 119l67 4c5 -41 26 -62 65 -62c41 0 66 29 66 72c0 63 -65 94 -124 48h-59v236h234v-60h-167v-108c17 9 36 14 58 14z" />
    <glyph glyph-name="six.dnom" horiz-adv-x="343" 
d="M201 411h81l-106 -145c79 -1 138 -56 138 -136c0 -81 -60 -136 -141 -136c-83 0 -143 55 -143 136c0 29 10 58 29 87zM172 55c44 0 74 30 74 77c0 48 -29 75 -74 75c-26 0 -45 -8 -58 -25c-11 -15 -16 -32 -16 -50c0 -47 31 -77 74 -77z" />
    <glyph glyph-name="seven.dnom" horiz-adv-x="314" 
d="M293 411v-51l-179 -360h-75l177 351h-197v60h274z" />
    <glyph glyph-name="eight.dnom" horiz-adv-x="346" 
d="M173 417c73 0 128 -45 128 -114c0 -36 -15 -64 -44 -85c37 -23 55 -56 55 -100c0 -76 -58 -124 -139 -124s-139 48 -139 124c0 43 18 76 54 99c-29 22 -44 51 -44 86c0 69 53 114 129 114zM173 357c-37 0 -66 -23 -66 -60c-5 -76 138 -76 130 0c0 37 -25 60 -64 60z
M173 55c43 0 71 24 71 64s-30 64 -71 64s-72 -24 -72 -64s31 -64 72 -64z" />
    <glyph glyph-name="nine.dnom" horiz-adv-x="343" 
d="M171 417c83 0 143 -55 143 -136c0 -32 -10 -61 -30 -87l-140 -194h-82l106 145c-79 1 -138 56 -138 136c0 81 60 136 141 136zM172 204c26 0 45 8 58 25c11 14 16 31 16 50c0 47 -30 78 -74 78c-43 0 -74 -31 -74 -78s30 -75 74 -75z" />
    <glyph glyph-name="zero.numr" horiz-adv-x="370" 
d="M185 738c93 0 152 -78 152 -211c0 -135 -59 -212 -152 -212c-92 0 -152 77 -152 212c0 133 60 211 152 211zM269 527c0 101 -28 151 -84 151s-84 -50 -84 -151s28 -151 84 -151s84 50 84 151z" />
    <glyph glyph-name="one.numr" horiz-adv-x="223" 
d="M175 733v-411h-68v321l-69 -53l-30 53l124 90h43z" />
    <glyph glyph-name="two.numr" horiz-adv-x="314" 
d="M157 738c83 0 126 -50 126 -125c0 -57 -25 -99 -74 -152l-77 -80h155v-60h-256v46l129 135c37 39 55 76 55 112c0 39 -21 64 -57 64c-39 0 -63 -26 -63 -70l-66 4c1 79 49 126 128 126z" />
    <glyph glyph-name="three.numr" horiz-adv-x="323" 
d="M159 738c77 0 124 -44 124 -115c0 -42 -18 -72 -55 -89c36 -11 63 -46 63 -95c0 -76 -52 -124 -131 -124c-83 0 -130 47 -133 123l67 5c4 -45 26 -67 66 -67s64 24 64 65c0 40 -28 62 -69 62h-41v58h40c36 0 63 23 63 59s-23 58 -58 58c-36 0 -59 -23 -60 -63l-66 4
c3 75 47 119 126 119z" />
    <glyph glyph-name="four.numr" horiz-adv-x="346" 
d="M264 732v-260h62v-61h-62v-90h-68v90h-178v53l182 268h64zM197 639l-119 -167h119v167z" />
    <glyph glyph-name="five.numr" horiz-adv-x="321" 
d="M168 579c75 0 125 -48 125 -129s-51 -134 -134 -134c-79 0 -127 46 -131 119l67 4c5 -41 26 -62 65 -62c41 0 66 29 66 72c0 63 -65 94 -124 48h-59v236h234v-60h-167v-108c17 9 36 14 58 14z" />
    <glyph glyph-name="six.numr" horiz-adv-x="343" 
d="M201 732h81l-106 -145c79 -1 138 -56 138 -136c0 -81 -60 -136 -141 -136c-83 0 -143 55 -143 136c0 29 10 58 29 87zM172 376c44 0 74 30 74 77c0 48 -29 75 -74 75c-26 0 -45 -8 -58 -25c-11 -15 -16 -32 -16 -50c0 -47 31 -77 74 -77z" />
    <glyph glyph-name="seven.numr" horiz-adv-x="314" 
d="M293 733v-51l-179 -360h-75l177 351h-197v60h274z" />
    <glyph glyph-name="eight.numr" horiz-adv-x="346" 
d="M173 738c73 0 128 -45 128 -114c0 -36 -15 -64 -44 -85c37 -23 55 -56 55 -100c0 -76 -58 -124 -139 -124s-139 48 -139 124c0 43 18 76 54 99c-29 22 -44 51 -44 86c0 69 53 114 129 114zM173 678c-37 0 -66 -23 -66 -60c-5 -76 138 -76 130 0c0 37 -25 60 -64 60z
M173 376c43 0 71 24 71 64s-30 64 -71 64s-72 -24 -72 -64s31 -64 72 -64z" />
    <glyph glyph-name="nine.numr" horiz-adv-x="343" 
d="M171 738c83 0 143 -55 143 -136c0 -32 -10 -61 -30 -87l-140 -194h-82l106 145c-79 1 -138 56 -138 136c0 81 60 136 141 136zM172 525c26 0 45 8 58 25c11 14 16 31 16 50c0 47 -30 78 -74 78c-43 0 -74 -31 -74 -78s30 -75 74 -75z" />
    <glyph glyph-name="periodcentered.cap" horiz-adv-x="217" 
d="M103 472c33 0 60 -27 60 -60c0 -32 -27 -59 -60 -59c-32 0 -58 27 -58 59c0 33 26 60 58 60z" />
    <glyph glyph-name="exclamdown.cap" horiz-adv-x="279" 
d="M141 639c-33 0 -60 27 -60 60c0 32 27 59 60 59c32 0 58 -27 58 -59c0 -33 -26 -60 -58 -60zM90 0l5 545h91l5 -545h-101z" />
    <glyph glyph-name="questiondown.cap" horiz-adv-x="501" 
d="M256 639c-33 0 -60 27 -60 60c0 32 27 59 60 59c32 0 58 -27 58 -59c0 -33 -26 -60 -58 -60zM250 -10c-71 0 -128 20 -169 59c-41 40 -61 92 -61 156c0 81 34 124 106 176c60 45 82 78 82 137v27h92v-31c0 -67 -28 -110 -96 -165c-61 -45 -91 -82 -91 -143
c0 -80 52 -136 137 -136c84 0 134 48 143 129l91 -6c-9 -125 -98 -203 -234 -203z" />
    <glyph glyph-name="braceleft.cap" horiz-adv-x="251" 
d="M228 770v-73h-6c-67 0 -87 -49 -66 -161c8 -45 11 -74 7 -106s-22 -52 -54 -57c32 -7 50 -26 54 -58s1 -61 -7 -106c-21 -113 -1 -162 66 -162h6v-72h-6c-121 0 -182 80 -151 227c25 83 21 134 -43 134h-8v72h8c64 0 68 52 43 135c-31 145 31 227 151 227h6z" />
    <glyph glyph-name="braceright.cap" horiz-adv-x="251" 
d="M23 697v73h6c121 0 182 -82 151 -227c-9 -39 -13 -58 -13 -83c0 -34 13 -52 56 -52h8v-72h-8c-28 0 -43 -10 -51 -23c-4 -6 -6 -16 -6 -29c1 -25 5 -43 14 -82c31 -147 -30 -227 -151 -227h-6v72h6c67 0 87 49 66 162c-8 45 -11 74 -7 106s22 51 54 58
c-32 5 -50 25 -54 57s-1 61 7 106c21 112 1 161 -66 161h-6z" />
    <glyph glyph-name="bracketleft.cap" horiz-adv-x="264" 
d="M243 770v-72h-99v-651h99v-72h-185v795h185z" />
    <glyph glyph-name="bracketright.cap" horiz-adv-x="271" 
d="M207 770v-795h-184v72h98v651h-98v72h184z" />
    <glyph glyph-name="parenleft.cap" horiz-adv-x="255" 
d="M161 770l75 -27c-73 -116 -110 -243 -110 -381c0 -137 37 -264 110 -380l-75 -28c-81 121 -121 257 -121 408c0 152 40 288 121 408z" />
    <glyph glyph-name="parenright.cap" horiz-adv-x="253" 
d="M20 743l75 27c81 -120 121 -256 121 -408c0 -151 -40 -287 -121 -408l-75 28c73 116 110 243 110 380c0 138 -37 265 -110 381z" />
    <glyph glyph-name="emdash.cap" horiz-adv-x="795" 
d="M750 417v-81h-705v81h705z" />
    <glyph glyph-name="endash.cap" horiz-adv-x="563" 
d="M518 417v-81h-473v81h473z" />
    <glyph glyph-name="hyphen.cap" horiz-adv-x="403" 
d="M358 417v-81h-313v81h313z" />
    <glyph glyph-name="guillemotleft.cap" horiz-adv-x="531" 
d="M194 602l68 -43l-149 -176l149 -176l-68 -44l-179 220zM442 602l68 -43l-149 -176l149 -176l-68 -44l-179 220z" />
    <glyph glyph-name="guillemotright.cap" horiz-adv-x="531" 
d="M88 602l180 -219l-180 -220l-68 44l150 176l-150 176zM336 602l179 -219l-179 -220l-68 44l149 176l-149 176z" />
    <glyph glyph-name="guilsinglleft.cap" horiz-adv-x="306" 
d="M224 601l63 -55l-167 -163l167 -163l-63 -55l-209 218z" />
    <glyph glyph-name="guilsinglright.cap" horiz-adv-x="306" 
d="M82 601l210 -218l-210 -218l-62 55l167 163l-167 163z" />
    <glyph glyph-name="emdash_guilsinglright" horiz-adv-x="852" 
d="M587 493l230 -235l-230 -236l-61 55l146 146h-627v72h626l-145 143z" />
    <glyph glyph-name="endash_guilsinglright" 
d="M326 493l230 -235l-230 -236l-61 55l147 146h-367v72h365l-145 143z" />
    <glyph glyph-name="guilsinglleft_emdash" horiz-adv-x="852" 
d="M266 493l60 -55l-145 -143h626v-72h-628l147 -146l-60 -55l-231 236z" />
    <glyph glyph-name="guilsinglleft_endash" 
d="M266 493l60 -55l-145 -143h365v-72h-367l147 -146l-60 -55l-231 236z" />
    <glyph glyph-name="at.cap" horiz-adv-x="806" 
d="M403 732c103 0 189 -34 258 -103c69 -68 103 -153 103 -256c0 -131 -55 -203 -144 -203c-51 0 -82 21 -93 62c-30 -43 -77 -65 -141 -65c-112 0 -188 80 -188 208s76 209 188 209c67 0 113 -22 138 -66v54h64v-289c0 -38 16 -57 47 -57c45 0 74 55 74 147
c0 87 -29 160 -88 219c-58 59 -131 88 -218 88c-89 0 -162 -29 -220 -88c-57 -58 -86 -131 -86 -219c0 -89 29 -163 87 -220c59 -57 130 -86 215 -86c70 0 132 17 185 50l15 -50c-57 -35 -124 -53 -200 -53c-101 0 -186 34 -255 101c-68 68 -102 154 -102 258
c0 103 34 189 102 257s154 102 259 102zM521 364v23c0 89 -49 137 -125 137c-77 0 -130 -56 -130 -149s53 -149 130 -149c76 0 125 49 125 138z" />
    <glyph glyph-name="acute.case" horiz-adv-x="306" 
d="M286 938l-187 -141h-82l149 141h120z" />
    <glyph glyph-name="breve.case" horiz-adv-x="353" 
d="M262 940h71c0 -85 -61 -133 -157 -133s-157 48 -157 133h71c0 -45 33 -73 86 -73c52 0 86 28 86 73z" />
    <glyph glyph-name="caron.case" horiz-adv-x="356" 
d="M338 940l-119 -143h-82l-119 143h74l86 -90l85 90h75z" />
    <glyph glyph-name="circumflex.case" horiz-adv-x="356" 
d="M219 940l119 -143h-75l-85 90l-86 -90h-74l119 143h82z" />
    <glyph glyph-name="dieresis.case" horiz-adv-x="294" 
d="M124 871c0 -29 -23 -52 -52 -52s-52 23 -52 52c0 28 23 51 52 51s52 -23 52 -51zM273 871c0 -29 -22 -52 -51 -52s-53 23 -53 52c0 28 24 51 53 51s51 -23 51 -51z" />
    <glyph glyph-name="dotaccent.case" horiz-adv-x="155" 
d="M78 927c31 0 57 -27 57 -58c0 -33 -25 -58 -57 -58s-59 26 -59 58c0 31 27 58 59 58z" />
    <glyph glyph-name="grave.case" horiz-adv-x="306" 
d="M140 938l148 -141h-82l-187 141h121z" />
    <glyph glyph-name="hungarumlaut.case" horiz-adv-x="346" 
d="M159 948l-74 -148h-69l61 148h82zM329 948l-74 -148h-68l60 148h82z" />
    <glyph glyph-name="macron.case" horiz-adv-x="294" 
d="M279 903v-67h-264v67h264z" />
    <glyph glyph-name="ring.case" horiz-adv-x="247" 
d="M124 991c57 0 103 -42 103 -98s-46 -98 -103 -98c-59 0 -103 42 -103 98s44 98 103 98zM71 893c0 -29 22 -51 53 -51s52 22 52 51c6 67 -110 67 -105 0z" />
    <glyph glyph-name="tilde.case" horiz-adv-x="361" 
d="M111 938c22 0 46 -10 73 -31s48 -31 63 -31c32 0 49 22 50 55h49c4 -67 -33 -120 -90 -120c-22 0 -47 10 -74 30c-27 21 -47 31 -62 31c-31 0 -48 -18 -49 -54h-50c-4 67 33 120 90 120z" />
    <glyph glyph-name="anneau" horiz-adv-x="583" 
d="M292 759c73 0 135 -24 185 -73s75 -109 75 -180s-25 -131 -75 -180c-50 -48 -112 -72 -185 -72c-75 0 -137 24 -187 72c-50 49 -75 109 -75 180c0 72 25 132 75 180c50 49 112 73 187 73zM452 664c-43 42 -96 63 -161 63s-118 -21 -161 -63s-64 -95 -64 -158
s21 -116 64 -158c43 -41 96 -62 161 -62s118 21 161 62c43 42 64 95 64 158s-21 116 -64 158z" />
    <glyph glyph-name="_498" horiz-adv-x="600" 
 />
    </font>
</defs>
</svg>
