<?xml version="1.0" standalone="no"?>
<!DOCTYPE svg PUBLIC "-//W3C//DTD SVG 1.1//EN" "http://www.w3.org/Graphics/SVG/1.1/DTD/svg11.dtd" >
<svg>
<metadata>
Created by FontForge 20120731 at Mon Jul  8 07:26:08 2019
 By www-data
Copyright (c) 1981 Linotype AG and/or its subsidiaries.
</metadata>
<defs>
<font id="Cochin" horiz-adv-x="500" >
  <font-face 
    font-family="Cochin"
    font-weight="500"
    font-stretch="normal"
    units-per-em="1000"
    panose-1="2 0 6 3 2 0 0 2 0 3"
    ascent="800"
    descent="-200"
    x-height="372"
    cap-height="654"
    bbox="-167 -250 1019 897"
    underline-thickness="50"
    underline-position="-75"
    unicode-range="U+0020-F002"
  />
<missing-glyph horiz-adv-x="544" 
d="M37 3h475v655h-475v-655zM64 27v607h421v-607h-421z" />
    <glyph glyph-name=".notdef" horiz-adv-x="544" 
d="M37 3h475v655h-475v-655zM64 27v607h421v-607h-421z" />
    <glyph glyph-name=".null" horiz-adv-x="0" 
 />
    <glyph glyph-name="nonmarkingreturn" 
 />
    <glyph glyph-name="space" unicode=" " horiz-adv-x="250" 
 />
    <glyph glyph-name="space" unicode="&#xa0;" horiz-adv-x="250" 
 />
    <glyph glyph-name="exclam" unicode="!" horiz-adv-x="389" 
d="M202 154q0 31 1 61.5t1 61.5q0 26 6 60t13 74t13 85t6 92q0 18 -3.5 36t-5.5 36l-115 -20v-8q14 -10 23 -23t14.5 -30.5t8 -40.5t2.5 -54q0 -23 -3 -47t-3 -47q0 -51 6 -100.5t16 -99.5q2 -11 4 -20t3 -16h13zM196 106q-23 0 -39.5 -16t-16.5 -40t16.5 -40t39.5 -16
t39.5 16t16.5 40t-16.5 40t-39.5 16z" />
    <glyph glyph-name="quotedbl" unicode="&#x22;" horiz-adv-x="333" 
d="M266 589q1 5 1 11v14q0 33 -8.5 44.5t-23.5 11.5t-23.5 -11.5t-8.5 -44.5v-14q0 -6 1 -11l16 -204q0 -3 0.5 -8t2 -10.5t4 -9t8.5 -3.5t8.5 3.5t4 9t2 10.5t0.5 8zM129 589q1 5 1 11v14q0 33 -8.5 44.5t-23.5 11.5t-23.5 -11.5t-8.5 -44.5v-14q0 -6 1 -11l16 -204
q0 -3 0.5 -8t2 -10.5t4 -9t8.5 -3.5t8.5 3.5t4 9t2 10.5t0.5 8z" />
    <glyph glyph-name="numbersign" unicode="#" 
d="M204 440l30 210h-50l-30 -210h-111l3 -44h102l-20 -142h-111l3 -44h102l-29 -210h50l30 210h131l-30 -210h50l30 210h103l-3 44h-94l20 142h103l-3 44h-94l29 210h-50l-30 -210h-131zM330 396l-21 -142h-131l21 142h131z" />
    <glyph glyph-name="dollar" unicode="$" 
d="M218 650q-32 0 -63 -10t-56 -29.5t-40 -47t-15 -63.5q0 -41 16 -70t41 -50t56 -38t61 -34v-278q-33 0 -61.5 14.5t-51.5 37.5t-40 52.5t-28 59.5l-14 -4l38 -184q17 10 33 10q32 0 62 -8t62 -8v-92h34v92q82 14 131 62t49 132q0 56 -46 99t-134 85v242q27 -4 51.5 -16.5
t44 -31t34 -41.5t23.5 -47l11 3l-19 143q-5 -4 -12 -5t-14 -1q-9 0 -24 4t-32.5 9t-34 9t-28.5 4v92h-34v-92zM218 394q-19 11 -37.5 22.5t-32.5 26.5t-23 34t-9 44q0 45 30 72t72 27v-226zM252 295q21 -11 40.5 -24.5t34.5 -30.5t24 -38.5t9 -47.5q0 -49 -29 -84.5
t-79 -39.5v265z" />
    <glyph glyph-name="percent" unicode="%" horiz-adv-x="833" 
d="M477 193q0 -52 14 -89.5t35.5 -62t47 -36t48.5 -11.5t48.5 11.5t47 36t35.5 62t14 89.5t-14 89.5t-35.5 62t-47 36t-48.5 11.5t-48.5 -11.5t-47 -36t-35.5 -62t-14 -89.5zM543 195q0 50 6.5 83.5t17.5 54t25.5 29t30.5 8.5t30.5 -8.5t25 -29t16.5 -54t6 -83.5t-6 -84
t-16.5 -55t-25 -30.5t-30.5 -9.5t-30.5 9.5t-25.5 30.5t-17.5 55t-6.5 84zM566 656l-368 -662h38l369 662h-39zM35 457q0 -52 14 -89.5t35.5 -62t47 -36t48.5 -11.5t48.5 11.5t47 36t35.5 62t14 89.5t-14 89.5t-35.5 62t-47 36t-48.5 11.5t-48.5 -11.5t-47 -36t-35.5 -62
t-14 -89.5zM101 459q0 50 6.5 83.5t17.5 54t25.5 29t30.5 8.5t30.5 -8.5t25 -29t16.5 -54t6 -83.5t-6 -84t-16.5 -55t-25 -30.5t-30.5 -9.5t-30.5 9.5t-25.5 30.5t-17.5 55t-6.5 84z" />
    <glyph glyph-name="ampersand" unicode="&#x26;" horiz-adv-x="741" 
d="M507 438q24 -7 40 -19t16 -37q0 -21 -9 -52.5t-21.5 -64t-26.5 -61.5t-25 -45q-30 57 -62 112.5t-80 100.5q24 11 45.5 21.5t38 25t26.5 35t10 49.5q0 38 -13.5 63.5t-36.5 41.5t-53.5 22.5t-63.5 6.5q-27 0 -53.5 -8.5t-48 -24t-35 -38.5t-13.5 -53q0 -27 11.5 -47.5
t28.5 -37.5t38 -30.5t40 -27.5q-36 -10 -72 -28t-64 -44t-45.5 -59.5t-17.5 -75.5q0 -39 14 -72.5t38.5 -58t58 -38.5t72.5 -14q55 0 102 24t87 60l32 -68q28 2 55 3t55 1q11 0 25.5 -0.5t30.5 -1t31 -1t26 -1.5v12q-65 10 -113.5 38.5t-79.5 88.5q26 39 46 82.5t40 83.5
q14 28 28.5 52.5t32 43t39 29t48.5 10.5v12q-26 -2 -52 -3t-52 -1q-29 0 -59 1t-59 3v-10zM149 183q0 66 37.5 109.5t98.5 60.5q25 -28 44.5 -60.5t35 -66.5t29.5 -69l28 -70q-23 -23 -58 -37t-67 -14q-34 0 -61.5 13t-47 33.5t-29.5 47t-10 53.5zM222 511q0 18 5 35.5
t14.5 31.5t24 22.5t33.5 8.5q23 0 39.5 -9.5t28 -25.5t17 -37.5t5.5 -44.5q0 -26 -8 -43t-19.5 -28t-24.5 -18.5t-22 -13.5q-1 0 -15.5 8.5t-31.5 24t-31.5 38.5t-14.5 51z" />
    <glyph glyph-name="quotesingle" unicode="'" horiz-adv-x="222" 
d="M142 589q1 5 1 11v14q0 33 -8.5 44.5t-23.5 11.5t-23.5 -11.5t-8.5 -44.5v-14q0 -6 1 -11l16 -204q0 -3 0.5 -8t2 -10.5t4 -9t8.5 -3.5t8.5 3.5t4 9t2 10.5t0.5 8z" />
    <glyph glyph-name="parenleft" unicode="(" horiz-adv-x="389" 
d="M360 688q-52 -39 -101.5 -87.5t-87.5 -104.5t-61 -119.5t-23 -132.5q0 -73 23 -135t60.5 -116t87 -101.5t101.5 -91.5l13 10q-43 42 -79.5 89.5t-62.5 101.5t-40.5 114.5t-14.5 128.5q0 65 12 122t36 109.5t60.5 102.5t85.5 100z" />
    <glyph glyph-name="parenright" unicode=")" horiz-adv-x="389" 
d="M12 -200q53 39 102 87.5t87 104.5t61 119.5t23 132.5q0 73 -23 135t-60.5 116t-86.5 101.5t-102 91.5l-13 -10q44 -42 80 -89.5t62 -101.5t40.5 -114.5t14.5 -128.5q0 -65 -12 -122t-36 -109.5t-60.5 -102.5t-85.5 -100z" />
    <glyph glyph-name="asterisk" unicode="*" 
d="M257 547q6 20 14 39.5t11 39.5q2 17 -6.5 30.5t-25.5 13.5t-25.5 -13.5t-6.5 -30.5q3 -20 11 -39.5t14 -39.5h14zM213 535q-9 18 -17.5 37t-20.5 36q-10 14 -25.5 17.5t-28.5 -8.5q-12 -13 -8.5 -28.5t17.5 -25.5q17 -12 36 -20.5t37 -17.5zM191 495q-20 7 -39.5 14.5
t-39.5 10.5q-17 2 -30.5 -6.5t-13.5 -25.5t13.5 -25.5t30.5 -6.5q20 3 39.5 10.5t39.5 14.5v14zM203 451q-18 -9 -37 -17.5t-36 -20.5q-14 -10 -17.5 -25.5t8.5 -28.5q13 -12 28.5 -8.5t25.5 17.5q12 17 20.5 36t17.5 37zM243 429q-7 -20 -14.5 -39.5t-10.5 -39.5
q-2 -17 6.5 -30.5t25.5 -13.5t25.5 13.5t6.5 30.5q-3 20 -10.5 39.5t-14.5 39.5h-14zM287 441q9 -18 17.5 -37t20.5 -36q10 -14 25.5 -17.5t28.5 8.5q12 13 8.5 28.5t-17.5 25.5q-17 12 -36 20.5t-37 17.5zM309 481q20 -7 39.5 -14.5t39.5 -10.5q17 -2 30.5 6.5t13.5 25.5
t-13.5 25.5t-30.5 6.5q-20 -3 -39.5 -10.5t-39.5 -14.5v-14zM297 525q18 9 37 17.5t36 20.5q14 10 17.5 25.5t-8.5 28.5q-13 12 -28.5 8.5t-25.5 -17.5q-12 -17 -20.5 -36t-17.5 -37z" />
    <glyph glyph-name="plus" unicode="+" 
d="M225 209h-158v-50h158v-159h50v159h158v50h-158v159h-50v-159z" />
    <glyph glyph-name="comma" unicode="," horiz-adv-x="250" 
d="M25 -118q24 16 47.5 33.5t42.5 38.5t30.5 46.5t11.5 57.5t-11 49t-37 17q-20 0 -35 -13t-15 -35q0 -10 3 -19t6 -19t6 -21t3 -25q0 -13 -6 -27.5t-15 -28t-20 -25t-22 -18.5z" />
    <glyph glyph-name="hyphen" unicode="-" horiz-adv-x="333" 
d="M30 147q22 6 44 8t45 2q17 0 40.5 -4t47.5 -4q27 0 52 6l11 74q-16 -5 -31.5 -7.5t-32.5 -2.5q-28 0 -55 4t-55 4q-29 0 -59 -8z" />
    <glyph glyph-name="hyphen" unicode="&#xad;" horiz-adv-x="333" 
d="M30 147q22 6 44 8t45 2q17 0 40.5 -4t47.5 -4q27 0 52 6l11 74q-16 -5 -31.5 -7.5t-32.5 -2.5q-28 0 -55 4t-55 4q-29 0 -59 -8z" />
    <glyph glyph-name="period" unicode="." horiz-adv-x="250" 
d="M112 106q-23 0 -39.5 -16t-16.5 -40t16.5 -40t39.5 -16t39.5 16t16.5 40t-16.5 40t-39.5 16z" />
    <glyph glyph-name="slash" unicode="/" horiz-adv-x="278" 
d="M33 -20l263 690h-51l-263 -690h51z" />
    <glyph glyph-name="zero" unicode="0" 
d="M249 666q-37 0 -74 -18t-65.5 -58.5t-46.5 -105.5t-18 -159t18 -159t46.5 -105.5t65.5 -58.5t74 -18q38 0 74.5 18t65.5 58.5t47 105.5t18 159t-18 159t-47 105.5t-65.5 58.5t-74.5 18zM250 636q30 0 51.5 -21.5t36 -62t21.5 -98t7 -128.5t-7 -129t-21.5 -98.5t-36 -62.5
t-51.5 -22t-52 22t-36.5 62.5t-21.5 98.5t-7 129t7 128.5t21.5 98t36.5 62t52 21.5z" />
    <glyph glyph-name="one" unicode="1" 
d="M97 -4q35 2 69 3t69 1q39 0 78 -1t78 -3v12q-30 4 -50.5 8t-32.5 11t-17 18t-5 27v594h-23q-35 -20 -78.5 -29t-82.5 -11v-16q35 -1 55.5 -4.5t31 -15.5t14 -34.5t3.5 -60.5v-377q0 -34 -6 -54t-19.5 -31.5t-34 -16.5t-49.5 -8v-12z" />
    <glyph glyph-name="two" unicode="2" 
d="M20 -4q51 2 101 3t101 1q38 0 76 -1t76 -3l69 139l-12 10q-18 -25 -31 -40t-27.5 -23t-33.5 -11t-49 -3h-180q36 38 88.5 83.5t101.5 96.5t83.5 106t34.5 112q0 96 -53.5 148t-150.5 52q-36 0 -68 -12.5t-56 -35t-38 -53t-14 -67.5q0 -14 3.5 -28t10.5 -25.5t18.5 -19
t27.5 -7.5q20 0 34 11t14 32q0 16 -5.5 27t-12.5 20t-12.5 18.5t-5.5 21.5q0 25 9.5 42t25 27t35.5 14.5t41 4.5q29 0 49.5 -14t34 -35.5t19.5 -48t6 -50.5q0 -48 -14 -91.5t-37 -84t-52.5 -76.5t-61.5 -69l-151 -155z" />
    <glyph glyph-name="three" unicode="3" 
d="M456 654q-17 -1 -41.5 -1.5t-50.5 -1t-50.5 -1t-41.5 -0.5q-42 0 -82 1t-82 3l-35 -160l14 -2q7 14 14 29.5t16 28.5t21.5 21.5t31.5 8.5h181l-221 -262l19 -15q23 23 41.5 34t50.5 11q27 0 47 -14t33.5 -35t20 -46.5t6.5 -48.5q0 -34 -6 -68t-21 -61t-41 -44t-66 -17
q-13 0 -30.5 3.5t-33 11t-26 19.5t-10.5 29q0 9 2.5 18t2.5 18q0 25 -9.5 43.5t-38.5 18.5q-26 0 -37.5 -17.5t-11.5 -41.5q0 -35 17 -60t43.5 -41t58.5 -23.5t62 -7.5q56 0 99.5 17t73 46t45 67t15.5 80q0 48 -13 83.5t-34.5 59.5t-50 35.5t-60.5 11.5q-30 0 -56 -6l-2 2
l241 260z" />
    <glyph glyph-name="four" unicode="4" 
d="M312 201v-201h72v546h-7l-65 -64v-217h-243l380 413v12h-52q-97 -124 -205 -243.5t-207 -228.5l4 -17h323z" />
    <glyph glyph-name="five" unicode="5" 
d="M86 253q16 45 47.5 73t82.5 28q36 0 62 -13.5t43.5 -36.5t25.5 -53.5t8 -64.5q0 -43 -12 -75.5t-31.5 -54t-43 -32t-47.5 -10.5q-13 0 -30.5 3.5t-33.5 10.5t-27 17t-11 23q0 14 4 23t4 29q0 26 -15 40.5t-36 14.5q-26 0 -36.5 -17t-10.5 -45q0 -31 17.5 -55t43.5 -40.5
t56.5 -25t57.5 -8.5q49 0 92.5 14t76 41t51.5 67t19 92q0 51 -15.5 87.5t-43.5 60t-65 35t-81 11.5q-34 0 -62 -9.5t-51 -20.5l63 210q13 -3 26.5 -5.5t26.5 -2.5q60 0 105 22.5t93 55.5l-14 16q-23 -15 -49 -23.5t-53 -8.5q-9 0 -21 1.5t-24 4.5t-22.5 7.5t-16.5 10.5h-73
l-102 -391z" />
    <glyph glyph-name="six" unicode="6" 
d="M31 240q0 -52 12.5 -99t38.5 -81.5t67.5 -55t99.5 -20.5q49 0 86 17.5t62 45t37.5 62.5t12.5 69q0 58 -17 96.5t-45.5 62t-65.5 33.5t-76 10q-15 0 -32.5 -5t-34.5 -12.5t-32.5 -17.5t-27.5 -19q3 50 23.5 102t53.5 94.5t77 70t94 27.5q13 0 22 -2t17 -4l16 -4t17 -2
q12 0 22 9t10 24q0 12 -12.5 18.5t-24.5 6.5q-81 0 -153.5 -35.5t-127 -95t-87 -136t-32.5 -159.5zM119 209q0 24 6.5 48t20 44t34 32.5t47.5 12.5q38 0 63 -16t40.5 -42t22 -58t6.5 -65q0 -27 -6 -54.5t-19.5 -49t-35 -35.5t-53.5 -14q-15 0 -37 9t-41.5 31.5t-33.5 60.5
t-14 96z" />
    <glyph glyph-name="seven" unicode="7" 
d="M68 490q8 13 15 28t16.5 28t22 21.5t30.5 8.5h251v-6q-23 -30 -55.5 -69t-68.5 -85t-73.5 -97t-71 -104.5t-60.5 -108t-42 -106.5h85q12 67 51.5 151t93.5 171t115 169.5t115 146.5l-7 16q-10 -1 -25 -1.5t-31 -1t-31 -1t-25 -0.5h-130q-37 0 -73.5 1t-73.5 3l-40 -163z
" />
    <glyph glyph-name="eight" unicode="8" 
d="M380 133q0 -30 -10.5 -52.5t-29 -37t-43 -22t-52.5 -7.5q-36 0 -64 14.5t-47.5 39t-30 57t-10.5 69.5q0 48 25 87.5t70 59.5q26 -21 59 -41.5t62.5 -44.5t50 -53.5t20.5 -68.5zM354 506q0 -45 -16 -76t-54 -56q-21 14 -48.5 31t-52.5 36.5t-42 42.5t-17 50q0 45 29 73.5
t74 28.5q58 0 92.5 -36t34.5 -94zM452 172q0 32 -14 59t-35.5 50t-47 42.5t-48.5 36.5q25 11 46.5 25t37.5 33t25.5 42.5t9.5 52.5q0 38 -16.5 66.5t-43 47.5t-60 29t-67.5 10q-36 0 -70.5 -10t-61.5 -29.5t-44 -49.5t-17 -70q0 -25 11.5 -47.5t29 -41.5t38 -35t39.5 -28
q-30 -13 -57 -31t-47.5 -40.5t-32.5 -51t-12 -63.5q0 -44 18.5 -78.5t48.5 -58t69 -36t80 -12.5q44 0 83.5 11.5t70.5 35t49 58.5t18 83z" />
    <glyph glyph-name="nine" unicode="9" 
d="M25 -16q115 0 194.5 29t129 82.5t71.5 129.5t22 170q0 52 -10.5 100.5t-35.5 86.5t-65.5 61t-100.5 23q-43 0 -80 -14t-64.5 -39.5t-43 -61t-15.5 -79.5q0 -94 54.5 -148t148.5 -54q34 0 65.5 11t59.5 30q-4 -70 -26 -126t-63 -95.5t-101 -60.5t-140 -21v-24zM221 636
q37 0 62.5 -21t41 -51.5t22.5 -66t7 -65.5q0 -28 -5.5 -52t-18.5 -42t-34 -28t-51 -10q-33 0 -57 18.5t-40.5 46t-24.5 60t-8 59.5q0 25 5 52t17 49t32.5 36.5t51.5 14.5z" />
    <glyph glyph-name="colon" unicode=":" horiz-adv-x="250" 
d="M112 106q-23 0 -39.5 -16t-16.5 -40t16.5 -40t39.5 -16t39.5 16t16.5 40t-16.5 40t-39.5 16zM112 380q-23 0 -39.5 -16t-16.5 -40t16.5 -40t39.5 -16t39.5 16t16.5 40t-16.5 40t-39.5 16z" />
    <glyph glyph-name="semicolon" unicode=";" horiz-adv-x="250" 
d="M25 -118q24 16 47.5 33.5t42.5 38.5t30.5 46.5t11.5 57.5t-11 49t-37 17q-20 0 -35 -13t-15 -35q0 -10 3 -19t6 -19t6 -21t3 -25q0 -13 -6 -27.5t-15 -28t-20 -25t-22 -18.5zM112 380q-23 0 -39.5 -16t-16.5 -40t16.5 -40t39.5 -16t39.5 16t16.5 40t-16.5 40t-39.5 16z
" />
    <glyph glyph-name="semicolon" unicode="&#x37e;" horiz-adv-x="250" 
d="M25 -118q24 16 47.5 33.5t42.5 38.5t30.5 46.5t11.5 57.5t-11 49t-37 17q-20 0 -35 -13t-15 -35q0 -10 3 -19t6 -19t6 -21t3 -25q0 -13 -6 -27.5t-15 -28t-20 -25t-22 -18.5zM112 380q-23 0 -39.5 -16t-16.5 -40t16.5 -40t39.5 -16t39.5 16t16.5 40t-16.5 40t-39.5 16z
" />
    <glyph glyph-name="less" unicode="&#x3c;" 
d="M433 43l-320 135l320 146v50l-366 -171v-50l366 -159v49z" />
    <glyph glyph-name="equal" unicode="=" 
d="M433 280h-366v-50h366v50zM433 139h-366v-50h366v50z" />
    <glyph glyph-name="greater" unicode="&#x3e;" 
d="M67 -6l366 159v50l-366 171v-50l320 -146l-320 -135v-49z" />
    <glyph glyph-name="question" unicode="?" 
d="M226 156q-2 51 15 96q16 42 42 73.5t51 61t43.5 62.5t18.5 78q0 32 -12 58.5t-33 45t-48.5 29t-58.5 10.5q-33 0 -62.5 -9t-52 -26.5t-36 -44.5t-13.5 -63q0 -11 1.5 -22.5t5.5 -21.5l71 19q-2 12 -4 24.5t-2 23.5q0 39 17.5 68.5t61.5 29.5q21 0 36 -9t24 -23t13 -32
t4 -36q0 -33 -7.5 -59.5t-19 -50t-24.5 -46t-24.5 -47.5t-19 -54t-7.5 -65q0 -17 2.5 -34.5t4.5 -35.5h13zM228 104q-23 0 -39.5 -16t-16.5 -40t16.5 -40t39.5 -16t39.5 16t16.5 40t-16.5 40t-39.5 16z" />
    <glyph glyph-name="at" unicode="@" horiz-adv-x="800" 
d="M511 396q-5 -54 -18.5 -94.5t-30.5 -68t-36 -41.5t-34 -14q-28 0 -47.5 19t-19.5 65q0 47 15.5 83.5t37.5 62t46.5 39t42.5 13.5q44 0 44 -64zM526 449q-5 9 -10 18.5t-13 17t-19.5 12t-28.5 4.5q-51 0 -88 -27.5t-61.5 -66t-36.5 -79t-12 -66.5q0 -43 11.5 -68
t27.5 -37.5t32 -15.5t26 -3q22 2 41 11t34 20t25.5 22t14.5 17h2q0 -5 4.5 -16.5t15 -23.5t27.5 -21.5t42 -9.5q45 0 79.5 23t58.5 58.5t36 77.5t12 80q0 63 -25.5 117t-69.5 93t-104 61.5t-129 22.5q-74 0 -140.5 -26t-116.5 -73.5t-79 -113.5t-29 -147q0 -51 22 -108.5
t67.5 -107t116.5 -82t169 -32.5q59 0 110.5 17.5t100.5 38.5l-14 26q-21 -10 -42.5 -18.5t-44.5 -15t-50.5 -10.5t-60.5 -4q-68 0 -123 24.5t-93.5 64.5t-59 91t-20.5 105q0 83 22 147.5t61 108.5t91.5 66.5t112.5 22.5q70 0 125 -26t92.5 -65.5t57 -87t19.5 -90.5
q0 -33 -9 -69.5t-26.5 -66.5t-42.5 -50t-58 -20q-18 0 -26.5 8t-11.5 18.5t-1.5 20.5t2.5 15l65 258h-67z" />
    <glyph glyph-name="A" unicode="A" horiz-adv-x="704" 
d="M427 289l65 -184q2 -7 5.5 -15t3.5 -16q0 -28 -28.5 -44.5t-70.5 -21.5v-12q17 1 31.5 1.5t30.5 1t36 1t47 0.5q41 0 80 -1t79 -3v12q-49 6 -74 28.5t-39 61.5l-208 572q-23 -9 -42 -17t-45 -13q5 -8 8.5 -18t3.5 -15t-2.5 -11t-5.5 -13l-173 -425q-10 -25 -20.5 -49.5
t-24.5 -44.5t-34.5 -34.5t-51.5 -21.5v-12q32 2 60.5 3t58.5 1q31 0 61 -1t60 -3v12q-11 2 -27 7t-31 13.5t-25.5 21.5t-10.5 31q0 7 2.5 13t5.5 14l66 181h209zM416 319h-188l98 254z" />
    <glyph glyph-name="B" unicode="B" horiz-adv-x="685" 
d="M139 158q0 -42 -2.5 -69.5t-12.5 -44.5t-30 -25t-55 -11v-12q23 2 46.5 3t46.5 1q68 0 135.5 -5t135.5 -5q44 0 86 7.5t75 26t53 49t20 76.5q0 75 -38.5 120.5t-107.5 67.5v2q21 7 39 20t31.5 30.5t21 38.5t7.5 43q0 54 -26 90t-65 57.5t-85.5 30.5t-88.5 9q-46 0 -86 -4
t-80 -4q-31 0 -61 1t-61 3v-12q36 -3 56 -11t30.5 -25t13 -44.5t2.5 -69.5v-334zM229 334q29 -11 60 -14.5t62 -3.5q25 0 49 3.5t48 7.5q35 -24 62 -60.5t27 -80.5q0 -81 -45.5 -123.5t-126.5 -42.5q-19 0 -41.5 2.5t-42 7t-34 11t-18.5 13.5v280zM229 616q23 8 46 10t47 2
q33 0 63.5 -10.5t53.5 -30t37 -46.5t14 -61q0 -67 -42.5 -102.5t-106.5 -35.5q-29 0 -57 5t-55 19v250z" />
    <glyph glyph-name="C" unicode="C" horiz-adv-x="704" 
d="M638 426q-3 21 -6 49.5t-5.5 58t-4.5 57.5t-2 49q-27 1 -54.5 5.5t-56.5 10t-61.5 10t-69.5 4.5q-67 0 -127 -25.5t-105 -71t-71.5 -109t-26.5 -139.5t26.5 -139.5t71.5 -109t105 -71t127 -25.5q59 0 106 14t87 41t74 66t68 90l-25 20q-52 -81 -120 -128t-160 -47
q-62 0 -109.5 24.5t-79 65.5t-47.5 95.5t-16 114.5t12.5 114t40 95t71 65t104.5 24q48 0 86.5 -15.5t68 -43.5t51 -66t34.5 -83h14z" />
    <glyph glyph-name="D" unicode="D" horiz-adv-x="833" 
d="M39 -4q34 2 67 3t67 1q21 0 44 -0.5t52 -0.5t68 -0.5t92 -0.5q70 0 134.5 17t114.5 54.5t80 96t30 141.5q0 82 -31 148t-84.5 112.5t-124.5 71.5t-152 25q-32 0 -62 -2t-61 -5t-63 -5t-67 -2q-26 0 -52 1t-52 3v-12q35 -3 54.5 -10t29.5 -19t12.5 -28.5t2.5 -38.5v-462
q0 -12 -3 -24t-13.5 -22.5t-30 -18.5t-52.5 -11v-12zM228 403q0 53 1 105t5 104q32 14 64.5 21t68.5 7q68 0 125.5 -24t99 -66t65 -98.5t23.5 -121.5q0 -150 -70.5 -229t-224.5 -79q-42 0 -83.5 12t-73.5 42v327z" />
    <glyph glyph-name="E" unicode="E" horiz-adv-x="685" 
d="M230 348h64q40 0 68.5 -5t49 -19t33 -40.5t21.5 -68.5h12q0 36 -1 72t-1 72q0 35 1 71t1 72h-12q-9 -73 -49.5 -100.5t-109.5 -27.5q-20 0 -38.5 -1t-38.5 -1v250q71 6 140 6q38 0 72 -6t62.5 -23t50 -47.5t34.5 -78.5l13 4q-2 27 -4 49.5t-2 44.5v40t2 43
q-72 -2 -142 -3t-140 -1q-46 0 -82.5 0.5t-69 1t-63 1t-64.5 1.5v-12q36 -3 57 -11t31 -25t12.5 -44.5t2.5 -69.5v-334q0 -42 -2.5 -69.5t-12.5 -44.5t-30 -25t-56 -11v-12q29 2 58 3t58 1h376q17 0 35 -1t35 -3l91 201l-11 9q-36 -48 -71 -82t-74.5 -56t-87 -32t-107.5 -10
q-28 0 -61 4.5t-50 8.5v309z" />
    <glyph glyph-name="F" unicode="F" horiz-adv-x="630" 
d="M232 348h47q22 0 40 -2q32 -3 54 -10t37.5 -22t26.5 -39t21 -62h12q-2 35 -2.5 65.5t-0.5 66.5q0 69 3 136h-12q-20 -57 -53 -82t-93 -25h-80v248q19 0 36 1t34 1q53 0 96.5 -3t78 -17.5t60 -46t41.5 -88.5h16q-2 26 -3 51.5t-1 51.5q0 20 1 40.5t3 41.5q-43 -1 -82 -2.5
t-90 -1.5h-217q-13 0 -36 0.5t-47.5 1t-47.5 1t-37 1.5v-12q36 -3 56.5 -11t31.5 -25t14 -44.5t3 -69.5v-334q0 -42 -3 -69.5t-14 -44.5t-31.5 -25t-56.5 -11v-12q37 2 73.5 3t73.5 1q43 0 85 -1t85 -3v12q-40 8 -64.5 15t-37 20t-16.5 35.5t-4 62.5v207z" />
    <glyph glyph-name="G" unicode="G" horiz-adv-x="778" 
d="M656 440q-3 17 -7 43t-7.5 54.5t-6.5 55t-3 42.5q-19 5 -41.5 11.5t-49.5 11.5t-60 8.5t-74 3.5q-67 0 -131 -26.5t-114 -72.5t-81 -109t-31 -137q0 -84 31 -148t81 -108t114 -66.5t131 -22.5q63 0 130.5 19.5t136.5 42.5v140q0 24 7.5 39.5t20 24.5t30.5 13t39 5v12
q-37 -2 -74 -3t-74 -1q-40 0 -72 1.5t-70 2.5v-12q103 -3 103 -71v-129q-40 -29 -86.5 -38.5t-93.5 -9.5q-57 0 -101.5 25t-76 67t-48 98.5t-16.5 119.5q0 56 16.5 112t48 101t76 73t101.5 28q49 0 85.5 -17t64.5 -45t49.5 -64t40.5 -74h12z" />
    <glyph glyph-name="H" unicode="H" horiz-adv-x="833" 
d="M602 370h-371v122q0 42 2.5 69.5t12.5 44.5t30 25t55 11v12q-32 -2 -65 -3t-66 -1q-41 0 -81.5 1t-81.5 3v-12q36 -3 57 -11t31.5 -25t13 -44.5t2.5 -69.5v-334q0 -42 -2.5 -69.5t-13 -44.5t-30.5 -25t-56 -11v-12q36 2 72 3t73 1q38 0 76 -1t76 -3v12q-37 3 -58 11
t-31.5 25t-13 44.5t-2.5 69.5v180h371v-180q0 -42 -2.5 -69.5t-13 -44.5t-30.5 -25t-56 -11v-12q36 2 72 3t73 1q38 0 76 -1t76 -3v12q-37 3 -58 11t-31.5 25t-13 44.5t-2.5 69.5v334q0 42 2.5 69.5t12.5 44.5t30 25t55 11v12q-32 -2 -65 -3t-66 -1q-41 0 -81.5 1t-81.5 3
v-12q36 -3 57 -11t31.5 -25t13 -44.5t2.5 -69.5v-122z" />
    <glyph glyph-name="I" unicode="I" horiz-adv-x="389" 
d="M47 -4q36 2 72 3t73 1q38 0 76 -1t76 -3v12q-37 3 -58 11t-31.5 25t-13 44.5t-2.5 69.5v334q0 42 2.5 69.5t12.5 44.5t30 25t55 11v12q-32 -2 -65 -3t-66 -1q-41 0 -81.5 1t-81.5 3v-12q36 -3 57 -11t31.5 -25t13 -44.5t2.5 -69.5v-334q0 -42 -2.5 -69.5t-13 -44.5
t-30.5 -25t-56 -11v-12z" />
    <glyph glyph-name="J" unicode="J" horiz-adv-x="630" 
d="M276 642q32 -3 56 -8t39.5 -16.5t23 -31t7.5 -52.5v-332q0 -31 -4.5 -65t-20.5 -61.5t-46 -45.5t-80 -18q-19 0 -37.5 3.5t-34 13t-26.5 26t-15 42.5q10 11 13.5 30t3.5 33q0 18 -18.5 34.5t-42.5 16.5q-35 0 -51 -24t-16 -51q0 -44 23 -74t56 -48t69 -26t61 -8
q48 0 94 12t82 36t58 60t22 84v380q0 25 5 41t16 25.5t28.5 15t43.5 8.5v12q-42 -2 -82 -3t-82 -1q-37 0 -72.5 1t-72.5 3v-12z" />
    <glyph glyph-name="K" unicode="K" horiz-adv-x="741" 
d="M228 291l96 75l151 -222q20 -29 31 -45t11 -30q0 -33 -26.5 -46t-62.5 -15v-12q39 2 77.5 3t77.5 1q43 0 86 -1t86 -3v12q-26 2 -49 12t-43.5 26t-38 36.5t-32.5 41.5l-202 297l124 106q35 30 61.5 50.5t50 34t46 20.5t48.5 10v12q-40 -2 -79.5 -3t-79.5 -1
q-38 0 -74.5 1t-74.5 3v-12q13 0 26 -3t23.5 -9.5t17 -17t6.5 -25.5q0 -14 -8.5 -31t-23 -36t-33.5 -37.5t-40 -35.5l-152 -124v169q0 42 2.5 69.5t12.5 44.5t30 25t55 11v12q-32 -2 -65 -3t-66 -1q-41 0 -81.5 1t-81.5 3v-12q36 -3 57 -11t31.5 -25t13 -44.5t2.5 -69.5
v-334q0 -42 -2.5 -69.5t-13 -44.5t-30.5 -25t-56 -11v-12q36 2 72 3t73 1q38 0 76 -1t76 -3v12q-37 3 -58 11t-31.5 25t-13 44.5t-2.5 69.5v133z" />
    <glyph glyph-name="L" unicode="L" horiz-adv-x="648" 
d="M361 654q-42 -2 -84.5 -3t-84.5 -1q-39 0 -77.5 1t-77.5 3v-12q36 -3 56 -11t30 -25t12.5 -44.5t2.5 -69.5v-396q0 -19 -3.5 -34.5t-14.5 -26t-30.5 -17.5t-52.5 -10v-12q25 2 50 3t50 1h294q36 0 72.5 -1t72.5 -3l77 224h-15q-30 -49 -59 -85.5t-64.5 -60.5t-79.5 -36
t-103 -12q-26 0 -51.5 4t-52.5 9v480q0 30 3 50.5t15.5 34.5t39.5 22.5t75 15.5v12z" />
    <glyph glyph-name="M" unicode="M" horiz-adv-x="963" 
d="M609 642q16 -5 31 -13t26 -21q-38 -112 -84 -218.5t-97 -212.5l-141 346q-7 17 -12.5 33t-5.5 33q0 25 16 36.5t35 16.5v12q-31 -2 -61.5 -3t-61.5 -1q-43 0 -85.5 1t-85.5 3v-12q29 -5 58 -16t50 -28l-48 -356q-5 -38 -10 -76.5t-11 -73.5q-3 -19 -15 -34t-28.5 -25.5
t-37 -16.5t-41.5 -8v-12q31 2 61.5 3t61.5 1q42 0 82 -1t82 -3v12q-36 2 -58.5 10t-35.5 24t-17.5 40t-4.5 57q0 26 4 78.5t10.5 116t14.5 130.5t16 122h2q68 -143 129.5 -287.5t108.5 -298.5h2q23 75 51.5 148t58.5 144t61 141.5t59 142.5h2l69 -403q5 -26 6 -46t1 -32
q0 -25 -8 -41t-22.5 -25t-33.5 -13.5t-40 -7.5v-12q38 2 74.5 3t74.5 1q40 0 79.5 -1t79.5 -3v12q-33 4 -53 11.5t-31.5 19t-17 27t-10.5 34.5q-7 31 -15.5 72t-16.5 86t-15.5 90.5t-13.5 85t-9.5 71t-3.5 48.5q0 24 7 39.5t20 25.5t30.5 15.5t38.5 8.5v12q-32 -2 -63.5 -3
t-63.5 -1q-36 0 -72 1t-72 3v-12z" />
    <glyph glyph-name="N" unicode="N" horiz-adv-x="815" 
d="M16 642q40 -10 78 -25t70 -41l-12 -459q-1 -34 -9.5 -54t-25 -30.5t-41.5 -15t-60 -9.5v-12q29 2 57 3t57 1q50 0 99 -1t99 -3v12q-46 5 -73 14.5t-40.5 37t-17 79.5t-3.5 140v175q0 26 0.5 51t1.5 51q45 -49 101.5 -111.5t117.5 -135t122 -154t116 -167.5h37v530
q0 30 5.5 51.5t18 36t34 23.5t52.5 13v12q-32 -2 -65 -3t-65 -1q-35 0 -70.5 1t-70.5 3v-12q40 -3 64.5 -20t38 -49t18 -79.5t4.5 -111.5v-116q0 -30 -0.5 -59.5t-0.5 -59.5h-2q-20 28 -54.5 71.5t-75.5 93.5t-85 103.5t-82.5 100.5t-68.5 83.5t-43 54.5q-22 -2 -43 -3
t-43 -1q-42 0 -73.5 1t-66.5 3v-12z" />
    <glyph glyph-name="O" unicode="O" horiz-adv-x="833" 
d="M47 325q0 -81 29.5 -145t79.5 -108.5t117.5 -68t143.5 -23.5t143.5 23.5t117.5 68t79.5 108.5t29.5 145t-29.5 145t-79.5 108.5t-117.5 68t-143.5 23.5t-143.5 -23.5t-117.5 -68t-79.5 -108.5t-29.5 -145zM153 325q0 61 18 117t52 98.5t83 68t111 25.5t111 -25.5t83 -68
t52 -98.5t18 -117t-18 -117t-52 -98.5t-83 -68t-111 -25.5t-111 25.5t-83 68t-52 98.5t-18 117z" />
    <glyph glyph-name="P" unicode="P" horiz-adv-x="630" 
d="M337 8q-36 3 -57 11t-31.5 25t-13 44.5t-2.5 69.5v150q30 -11 62 -14.5t62 -3.5q39 0 80 9t74.5 29.5t55.5 53.5t22 81q0 46 -21.5 82.5t-55.5 62t-74 39t-78 13.5q-48 0 -94.5 -5t-94.5 -5q-33 0 -66 1t-66 3v-12q36 -3 57 -11t31.5 -25t13 -44.5t2.5 -69.5v-334
q0 -42 -2.5 -69.5t-13 -44.5t-32 -25t-58.5 -11v-12q39 2 75.5 3t73.5 1q38 0 75.5 -1t75.5 -3v12zM233 617q23 10 47.5 12.5t42.5 2.5q36 0 66.5 -12t52.5 -34t34.5 -54t12.5 -71q0 -33 -12.5 -59t-33.5 -43.5t-49 -27t-60 -9.5q-26 0 -51.5 4.5t-49.5 17.5v273z" />
    <glyph glyph-name="Q" unicode="Q" horiz-adv-x="833" 
d="M839 -40q-19 -24 -37.5 -42.5t-39.5 -31.5t-46 -19.5t-57 -6.5q-43 0 -92.5 16t-102.5 35.5t-108.5 36t-110.5 16.5q-41 0 -74 -9.5t-68 -31.5l14 -16q21 11 44 19t47 8q56 0 105 -22.5t96 -49.5t96 -49.5t104 -22.5q49 0 83.5 10.5t61.5 30t50.5 48.5t51.5 65zM47 325
q0 -81 29.5 -145t79.5 -108.5t117.5 -68t143.5 -23.5t143.5 23.5t117.5 68t79.5 108.5t29.5 145t-29.5 145t-79.5 108.5t-117.5 68t-143.5 23.5t-143.5 -23.5t-117.5 -68t-79.5 -108.5t-29.5 -145zM153 325q0 61 18 117t52 98.5t83 68t111 25.5t111 -25.5t83 -68t52 -98.5
t18 -117t-18 -117t-52 -98.5t-83 -68t-111 -25.5t-111 25.5t-83 68t-52 98.5t-18 117z" />
    <glyph glyph-name="R" unicode="R" horiz-adv-x="722" 
d="M738 12q-48 5 -94 38t-85.5 77.5t-72 92.5t-53.5 84q32 6 60 19t49 33t33.5 47.5t12.5 61.5q0 51 -23 88t-59 61t-80.5 35t-88.5 11q-19 0 -43 -1.5t-47.5 -3.5t-44.5 -3.5t-35 -1.5q-32 0 -64 1t-64 3v-12q36 -3 56 -11t30.5 -25t13 -44.5t2.5 -69.5v-334
q0 -42 -2.5 -69.5t-13 -44.5t-30.5 -25t-56 -11v-12q36 2 72 3t73 1q38 0 76 -1t76 -3v12q-37 3 -58 11t-31.5 25t-13 44.5t-2.5 69.5v156q10 -3 25.5 -6.5t32 -6.5t32 -4.5t25.5 -1.5q41 -81 95.5 -154t116.5 -141h180v12zM231 416q0 57 1 106t3 97q23 7 47 9t49 2
q32 0 60 -10.5t50 -30t34.5 -46t12.5 -59.5q0 -81 -43 -117t-121 -36q-23 0 -47 4.5t-46 12.5v68z" />
    <glyph glyph-name="S" unicode="S" horiz-adv-x="593" 
d="M505 464q-5 43 -6.5 86t-1.5 87q-32 0 -60 5.5t-57 11.5q-28 6 -57.5 11t-66.5 5t-71 -12t-59.5 -34.5t-40.5 -54.5t-15 -71q0 -52 29 -86t72 -59t93.5 -45t93.5 -43.5t72 -54.5t29 -79q0 -33 -12 -55.5t-32.5 -36.5t-47.5 -20.5t-56 -6.5q-45 0 -83.5 21t-70.5 52.5
t-57.5 70t-43.5 72.5l-13 -7q13 -56 25 -111t21 -112q11 4 21 7.5t21 3.5q12 0 32.5 -4.5t45.5 -10t52 -10t52 -4.5q46 0 86.5 11t71 34t48.5 58.5t18 84.5q0 61 -29 100.5t-72 66.5t-93.5 46.5t-93.5 41t-72 49t-29 70.5q0 54 36.5 75t93.5 21q38 0 71.5 -15t60.5 -39.5
t47.5 -56t33.5 -63.5h14z" />
    <glyph glyph-name="T" unicode="T" horiz-adv-x="648" 
d="M176 -4q36 2 72 3t73 1q38 0 76 -1t76 -3v12q-37 3 -58 11t-31.5 25t-13 44.5t-2.5 69.5v464q53 0 90 -4t63 -20.5t45.5 -50.5t38.5 -93l13 4l-14 196q-40 -2 -79 -3t-79 -1h-235q-42 0 -83 1t-83 3l-14 -196l13 -4q19 59 38 93t45.5 50.5t62.5 20.5t88 4v-464
q0 -42 -2.5 -69.5t-13 -44.5t-30.5 -25t-56 -11v-12z" />
    <glyph glyph-name="U" unicode="U" horiz-adv-x="796" 
d="M128 198q0 -54 22 -95t58.5 -68.5t83.5 -41t98 -13.5q56 0 105.5 14t86.5 43t58.5 72.5t21.5 103.5v299q0 42 6.5 66.5t18.5 37.5t29.5 18t38.5 8v12q-26 -2 -51 -3t-51 -1q-31 0 -61.5 1t-61.5 3v-12q30 -4 49 -13t29.5 -26.5t14 -45t3.5 -67.5v-280q0 -24 -9 -55.5
t-33 -59t-65 -46.5t-105 -19q-40 0 -75.5 9.5t-62.5 30t-42.5 53.5t-15.5 79v326q0 30 5 50.5t17 34t33 20t53 9.5v12q-30 -2 -59.5 -3t-59.5 -1q-42 0 -82.5 1t-82.5 3v-12q21 -4 37 -8t27 -13t16.5 -24.5t5.5 -43.5v-355z" />
    <glyph glyph-name="V" unicode="V" horiz-adv-x="704" 
d="M-13 642q47 -4 73.5 -32.5t44.5 -71.5l233 -548h22l208 467q12 27 24.5 58t29.5 58t41 46t59 23v12q-27 -2 -54 -3t-55 -1q-33 0 -66.5 1t-67.5 3v-12q15 -2 29.5 -5.5t26.5 -10t19 -17t7 -27.5q0 -21 -12.5 -63t-37.5 -102l-130 -307l-157 380q-29 70 -29 90q0 19 9 30
t23 17.5t30 9.5t30 5v12q-40 -2 -80.5 -3t-81.5 -1q-35 0 -69 1t-69 3v-12z" />
    <glyph glyph-name="W" unicode="W" horiz-adv-x="1000" 
d="M-11 642q17 -3 33 -6t31.5 -14t30 -32.5t29.5 -60.5l203 -539h18l167 397l146 -397h17l228 532q8 19 18 38.5t24 36.5t34.5 29.5t50.5 15.5v12q-29 -2 -58 -3t-58 -1q-32 0 -64.5 1t-65.5 3v-12q12 -1 27.5 -4.5t29.5 -10t23.5 -17t9.5 -25.5q0 -6 -1.5 -15.5t-4.5 -20.5
t-6.5 -22.5t-7.5 -21.5l-152 -383l-149 395q-10 26 -14.5 41t-4.5 24q0 17 10 28t24.5 18t31 10t29.5 4v12q-42 -2 -83.5 -3t-83.5 -1q-33 0 -66 1t-66 3v-12q82 -5 113 -83l52 -130l-124 -307l-139 367q-11 28 -19 48.5t-8 34.5q0 21 8.5 34t22 20.5t30.5 10.5t34 5v12
q-39 -2 -78 -3t-79 -1q-35 0 -71 1t-72 3v-12z" />
    <glyph glyph-name="X" unicode="X" horiz-adv-x="741" 
d="M2 -4q28 2 55 3t55 1q45 0 90 -1t90 -3v12q-15 2 -32.5 4t-33 8t-26 17.5t-10.5 31.5q0 12 14.5 38.5t37.5 56.5l106 142l110 -148q22 -30 36.5 -53.5t14.5 -31.5q0 -21 -8.5 -32.5t-22 -17.5t-29.5 -9l-32 -6v-12q40 2 79 3t79 1q45 0 88.5 -1t88.5 -3v12
q-31 2 -58.5 17t-50.5 35t-41.5 42.5t-31.5 40.5l-164 220l101 128q21 27 40 51.5t41 45t49 34.5t64 20v12q-32 -2 -64.5 -3t-64.5 -1q-28 0 -55.5 1t-55.5 3v-12q8 0 19 -2.5t20.5 -7t16.5 -12.5t7 -19q0 -21 -11.5 -43.5t-30.5 -48.5l-92 -125l-100 137q-19 26 -28.5 42.5
t-9.5 27.5q0 13 6 22t15.5 15.5t21 9.5t22.5 4v12q-38 -2 -76.5 -3t-76.5 -1q-36 0 -72.5 1t-72.5 3v-12q49 -8 87 -34.5t76 -79.5l149 -202l-178 -220q-16 -20 -31 -37t-32 -30t-38 -21t-50 -10v-12z" />
    <glyph glyph-name="Y" unicode="Y" horiz-adv-x="722" 
d="M-20 642q32 -7 56 -20.5t42.5 -30t33.5 -35t29 -36.5l181 -232v-157q0 -36 -5.5 -59t-19 -36.5t-36 -19t-55.5 -8.5v-12q37 2 74 3t74 1q45 0 89 -1t89 -3v12q-34 3 -57.5 8.5t-37 19t-19.5 36.5t-6 59v147l137 200q15 21 32.5 46.5t40 49.5t50.5 42.5t64 25.5v12
q-32 -2 -63.5 -3t-63.5 -1q-35 0 -70.5 1t-70.5 3v-12q30 -2 54 -19.5t24 -46.5q0 -17 -6 -36.5t-20 -40.5l-118 -185l-142 192q-20 26 -30.5 44.5t-10.5 29.5q0 16 8 26.5t20.5 18t27 11.5t26.5 6v12q-39 -2 -78.5 -3t-78.5 -1q-42 0 -82 1t-82 3v-12z" />
    <glyph glyph-name="Z" unicode="Z" horiz-adv-x="704" 
d="M652 654q-68 -2 -134.5 -3t-134.5 -1q-25 0 -56.5 0.5t-65 1t-67.5 1t-66 1.5q-11 -64 -11 -127q0 -17 -1.5 -35t-0.5 -36h14q9 50 35 82.5t63 51.5t81 26.5t88 7.5h134l-487 -616l8 -12q46 2 91.5 3t91.5 1q88 0 175.5 -1t175.5 -3l76 224h-20q-21 -59 -57.5 -97
t-83 -59.5t-101 -29.5t-113.5 -8q-44 0 -70.5 1t-41.5 5q48 64 106 139.5t121.5 155.5t129 161t128.5 154z" />
    <glyph glyph-name="bracketleft" unicode="[" horiz-adv-x="389" 
d="M104 -184h262v34h-178v786h178v34h-262v-854z" />
    <glyph glyph-name="backslash" unicode="\" horiz-adv-x="278" 
d="M-60 670l348 -690h50l-348 690h-50z" />
    <glyph glyph-name="bracketright" unicode="]" horiz-adv-x="389" 
d="M269 670h-262v-34h178v-786h-178v-34h262v854z" />
    <glyph glyph-name="asciicircum" unicode="^" 
d="M98 285l152 301l152 -301h55l-184 365h-46l-184 -365h55z" />
    <glyph glyph-name="underscore" unicode="_" 
d="M500 -125v50h-500v-50h500z" />
    <glyph glyph-name="grave" unicode="`" horiz-adv-x="259" 
d="M205 433l-116 130q-17 19 -29.5 30.5t-26.5 11.5q-41 0 -41 -32q0 -11 8.5 -23.5t20.5 -20.5l140 -96h44z" />
    <glyph glyph-name="a" unicode="a" horiz-adv-x="463" 
d="M136 277q0 33 15 59t41 26q35 0 58 -20t23 -57v-76q-47 -1 -93.5 -5t-83 -17.5t-59.5 -38t-23 -65.5q0 -22 9 -40.5t24 -31.5t34.5 -20t40.5 -7q38 0 78 18t72 40q7 -7 16 -17t19.5 -19t21.5 -15.5t21 -6.5q15 0 31 8.5t30.5 21t28 26l23.5 23.5l-10 11
q-14 -11 -29.5 -22.5t-35.5 -11.5q-21 0 -31 14.5t-10 33.5v185q0 31 -12.5 52.5t-32.5 34.5t-46 18.5t-52 5.5q-27 0 -51 -2.5t-43.5 -12t-33.5 -28t-22 -49.5zM271 69q-12 -9 -38.5 -22t-58.5 -13q-29 0 -52.5 14.5t-23.5 48.5q0 22 9.5 37.5t24.5 25.5t34 14.5t38 4.5
q34 0 67 -9v-101z" />
    <glyph glyph-name="b" unicode="b" horiz-adv-x="537" 
d="M-1 681q38 0 57 -13t19 -48v-573q6 -6 24.5 -16.5t45.5 -21t59 -18t65 -7.5q45 0 85 13.5t69 40.5t46 67t17 92q0 41 -15.5 75.5t-43 59t-65 38.5t-81.5 14q-39 0 -71.5 -12t-59.5 -32q2 94 2.5 186t2.5 186l-156 -19v-12zM398 184q0 -37 -9 -68t-25.5 -53.5t-40 -35.5
t-52.5 -13q-32 1 -55.5 9.5t-39 28t-23.5 51.5t-9 81q1 49 9 81.5t23.5 52t39 27.5t55.5 9q29 0 52.5 -13t40 -35.5t25.5 -53.5t9 -68z" />
    <glyph glyph-name="c" unicode="c" horiz-adv-x="444" 
d="M380 216l-13 152q-35 7 -70 11.5t-77 4.5q-39 0 -74.5 -16t-62 -43t-42.5 -63.5t-16 -77.5t16 -77.5t42.5 -63.5t62 -43t74.5 -16q54 0 97.5 18.5t88.5 55.5l-14 16q-30 -21 -63 -34.5t-70 -13.5q-35 0 -63.5 13.5t-48.5 37t-31 53.5t-11 63q0 29 6.5 58.5t20 53
t35.5 38.5t53 15q32 0 55 -13t40 -33t30 -45.5t23 -50.5h12z" />
    <glyph glyph-name="d" unicode="d" horiz-adv-x="537" 
d="M432 712l-163 -16v-12q26 -2 42 -6t26 -13t13.5 -24t3.5 -39v-259q-28 17 -59 29t-64 12q-45 0 -83.5 -15.5t-67 -43.5t-44.5 -66t-16 -83q0 -38 13 -73t36.5 -61.5t57 -42t74.5 -15.5q48 0 89.5 14.5t64.5 34.5v-37q41 2 81 3t80 1v12q-27 0 -43.5 4t-25.5 14.5
t-12 27.5t-3 43v611zM354 84q-3 -9 -14.5 -21t-28.5 -22.5t-38 -17.5t-44 -7q-34 0 -57.5 15t-38.5 39.5t-22 55t-7 60.5t7 60.5t22 55t38.5 39.5t57.5 15q23 0 44 -7.5t38 -19t28.5 -25.5t14.5 -28v-192z" />
    <glyph glyph-name="e" unicode="e" horiz-adv-x="444" 
d="M394 210q-11 87 -59 130.5t-127 43.5q-43 0 -77 -17t-58 -45t-36.5 -64t-12.5 -74t12.5 -74t36.5 -64t58 -45t77 -17q60 0 103 23t84 67l-17 16q-29 -29 -63 -42.5t-76 -13.5q-20 0 -43.5 8t-44 28t-34 54t-13.5 86h290zM106 240q0 20 6.5 40t19 36.5t30 27t38.5 10.5
q28 0 46 -7.5t29 -22t16 -36t8 -48.5h-193z" />
    <glyph glyph-name="f" unicode="f" horiz-adv-x="315" 
d="M7 -4q32 2 63 3t63 1q35 0 69 -1t69 -3v12q-41 1 -63.5 8t-33.5 20t-13.5 31t-2.5 41v225h127v30h-127v191q0 17 3.5 41t13.5 45.5t26.5 36.5t41.5 15q18 0 30.5 -7t20 -17.5t10.5 -21t3 -18.5q0 -32 6 -41t21 -9q23 0 31 9t8 33q0 42 -33.5 67t-81.5 25q-49 0 -83 -25
t-55 -62t-30.5 -79t-9.5 -76v-107h-43l-6 -30h49v-225q0 -23 -1.5 -41t-9 -31t-22 -20t-40.5 -8v-12z" />
    <glyph glyph-name="g" unicode="g" 
d="M470 306q2 5 2 16v24q0 10 -13 22t-31 12q-26 0 -49.5 -11t-46.5 -22q-28 22 -60 29.5t-67 7.5q-32 0 -58.5 -10t-45.5 -28t-29.5 -42.5t-10.5 -53.5t9.5 -53t29.5 -38q-35 -15 -56.5 -42.5t-21.5 -67.5q0 -20 7 -36.5t23 -28.5q-21 -20 -33.5 -45t-12.5 -54
q0 -38 17.5 -64t44.5 -41.5t60 -22.5t64 -7q40 0 81 9.5t74.5 30t55 53t21.5 79.5q0 39 -11.5 64t-31.5 39t-48.5 19.5t-63.5 5.5q-13 0 -29.5 -1t-32.5 -2t-30.5 -2t-24.5 -1q-44 0 -61 8t-17 31t15.5 36.5t32.5 23.5q42 -24 92 -24q38 0 66.5 10t47.5 27.5t29 40.5t10 50
q0 23 -4.5 42t-12.5 40q6 3 17 8t19 5q14 0 24 -5.5t10 -16.5q0 -8 -1 -16.5t-3 -16.5zM219 -188q-23 0 -51 5t-52.5 16.5t-41 30.5t-16.5 48q0 17 3.5 34.5t11.5 30.5q14 0 30.5 0.5t38.5 1t49.5 1t64.5 0.5q66 0 100 -16.5t34 -59.5q0 -29 -19 -47t-45.5 -28t-56 -13.5
t-50.5 -3.5zM135 252q0 21 5 40t14.5 33.5t24.5 23.5t35 9t35 -9t25 -23.5t14.5 -33.5t4.5 -40t-4.5 -40t-14.5 -34t-25 -24t-35 -9t-35 9t-24.5 24t-14.5 34t-5 40z" />
    <glyph glyph-name="h" unicode="h" horiz-adv-x="537" 
d="M502 8q-34 6 -52 16.5t-18 43.5v176q0 40 -12 67t-32 43t-45.5 23t-53.5 7q-32 0 -67 -19t-62 -40v387l-153 -17v-12q22 -1 36.5 -4t23 -13.5t12 -31t3.5 -56.5v-510q0 -33 -18 -43.5t-52 -16.5v-12q23 2 44.5 3t44.5 1q34 0 67.5 -1t67.5 -3v12q-38 6 -57 16.5t-19 43.5
v212q0 9 10 19t25 18.5t33 13.5t35 5q47 0 69 -28t22 -79v-161q0 -33 -17.5 -43.5t-49.5 -16.5v-12q20 2 41.5 3t44.5 1q34 0 67 -1t62 -3v12z" />
    <glyph glyph-name="i" unicode="i" horiz-adv-x="259" 
d="M81 84q0 -24 -4 -39t-13 -23t-23 -10.5t-34 -3.5v-12q23 2 45 3t45 1q35 0 70.5 -1t70.5 -3v12q-22 1 -37 3.5t-24.5 10.5t-13.5 23t-4 39v294l-152 -10v-14q26 -3 41 -11t22.5 -20.5t9 -31t1.5 -42.5v-165zM110 672q-22 0 -37.5 -16.5t-15.5 -38.5t15.5 -38.5
t37.5 -16.5t37.5 16.5t15.5 38.5t-15.5 38.5t-37.5 16.5z" />
    <glyph glyph-name="j" unicode="j" horiz-adv-x="259" 
d="M14 354q42 0 58 -24.5t16 -71.5v-196q0 -53 -5.5 -93t-20.5 -73.5t-41 -65t-66 -66.5l12 -14q37 27 73 57t64 64.5t45 74.5t17 88v344l-152 -10v-14zM117 674q-22 0 -37.5 -16.5t-15.5 -38.5t15.5 -38.5t37.5 -16.5t37.5 16.5t15.5 38.5t-15.5 38.5t-37.5 16.5z" />
    <glyph glyph-name="k" unicode="k" horiz-adv-x="537" 
d="M5 -4q23 2 44.5 3t44.5 1q33 0 65.5 -1t65.5 -3v12q-42 5 -56 18.5t-14 45.5v74l64 48q8 -12 25 -32t33.5 -42t29 -42.5t12.5 -33.5q0 -21 -18 -29t-35 -7v-12q32 2 63 3t63 1q31 0 61.5 -1t60.5 -3v12q-39 5 -73.5 31.5t-64.5 61.5t-56 72t-49 64q22 18 44.5 37
t46.5 35.5t50 29t56 17.5v12h-195v-12q15 -2 22.5 -8.5t7.5 -22.5t-19 -38t-44 -43.5t-49.5 -40t-35.5 -28.5v537l-153 -18v-12q20 -1 34 -5t23 -14.5t13.5 -29t4.5 -47.5v-464q0 -30 -1.5 -50.5t-8 -33.5t-21 -20t-41.5 -10v-12z" />
    <glyph glyph-name="l" unicode="l" horiz-adv-x="259" 
d="M-1 -4q28 2 55.5 3t56.5 1q30 0 60.5 -1t59.5 -3v12q-27 2 -42.5 7.5t-24 16.5t-10.5 30t-2 48v602l-147 -18v-12q45 0 57 -15.5t12 -54.5v-502q0 -29 -2 -48t-10 -30t-22.5 -16.5t-40.5 -7.5v-12z" />
    <glyph glyph-name="m" unicode="m" horiz-adv-x="778" 
d="M158 290q15 14 26.5 23.5t22.5 15.5t22.5 8.5t26.5 2.5q51 0 66 -27.5t15 -76.5v-168q0 -33 -17.5 -43.5t-46.5 -16.5v-12q18 2 39 3t44 1q34 0 66.5 -1t61.5 -3v12q-33 6 -51 16.5t-18 43.5v234q36 32 98 32q32 0 56.5 -24.5t24.5 -73.5v-168q0 -33 -17.5 -43.5
t-46.5 -16.5v-12q18 2 39 3t44 1q34 0 67 -1t65 -3v12q-36 6 -54.5 16.5t-18.5 43.5v178q0 69 -36.5 103.5t-98.5 34.5q-17 0 -35 -5.5t-35 -13.5t-33 -17.5t-29 -18.5q-22 27 -48.5 41t-61.5 14q-41 0 -73 -16.5t-64 -39.5v50l-146 -20v-12q19 -1 32 -3.5t21 -10.5
t11.5 -22t3.5 -38v-204q0 -33 -18.5 -43.5t-54.5 -16.5v-12q25 2 47 3t45 1q34 0 66.5 -1t61.5 -3v12q-33 6 -51 16.5t-18 43.5v222z" />
    <glyph glyph-name="n" unicode="n" horiz-adv-x="537" 
d="M14 344q27 0 47.5 -7t20.5 -37v-232q0 -33 -18 -43.5t-52 -16.5v-12q23 2 44.5 3t44.5 1q34 0 67.5 -1t67.5 -3v12q-38 6 -57 16.5t-19 43.5v212q0 9 10 19t25 18.5t33 13.5t35 5q47 0 69 -28t22 -79v-161q0 -33 -17.5 -43.5t-49.5 -16.5v-12q20 2 41.5 3t44.5 1
q34 0 67 -1t62 -3v12q-34 6 -52 16.5t-18 43.5v176q0 40 -12 67t-32 43t-45.5 23t-53.5 7q-32 0 -67 -19t-62 -40v53l-146 -22v-12z" />
    <glyph glyph-name="o" unicode="o" 
d="M239 384q-48 0 -87.5 -14.5t-68 -40.5t-44 -63t-15.5 -82t15.5 -82t44 -63t68 -40.5t87.5 -14.5t87.5 14.5t68 40.5t44 63t15.5 82t-15.5 82t-44 63t-68 40.5t-87.5 14.5zM221 354q37 0 64 -16.5t45 -43t27 -58.5t9 -64q0 -28 -6.5 -56.5t-20 -51t-34 -36.5t-48.5 -14
q-37 0 -64.5 16.5t-45.5 43t-26.5 59t-8.5 63.5q0 29 6.5 57t20 50.5t34 36.5t48.5 14z" />
    <glyph glyph-name="p" unicode="p" horiz-adv-x="537" 
d="M152 287q11 27 45.5 44t78.5 17q31 0 54 -15t38 -39t22.5 -54t7.5 -60q0 -72 -30 -119t-92 -47q-44 0 -78.5 22.5t-45.5 52.5v198zM152 16q27 -17 57 -24.5t61 -7.5q44 0 83 14t68.5 39.5t47 62t17.5 82.5q0 44 -13 81t-38 64t-60.5 42t-79.5 15t-75.5 -11t-67.5 -37v42
l-153 -15v-11q21 -2 35 -6t23 -12t13 -21.5t4 -34.5v-436q0 -23 -5 -36.5t-15.5 -21t-25.5 -11t-36 -5.5v-12q34 2 67.5 3t67.5 1q37 0 74 -1t74 -3v12q-43 1 -67.5 5t-37 13t-15.5 24t-3 39v167z" />
    <glyph glyph-name="q" unicode="q" horiz-adv-x="537" 
d="M360 61q-27 -41 -100 -41q-71 0 -111.5 51.5t-40.5 137.5q0 25 6 51.5t19.5 48t35 35.5t53.5 14q28 0 52 -9.5t42.5 -24t29.5 -33t14 -36.5v-194zM363 352q-61 32 -129 32q-42 0 -80.5 -13.5t-68.5 -39t-47.5 -63t-17.5 -85.5q0 -40 14.5 -76t42 -63.5t67.5 -43.5t90 -16
q32 0 66 11t60 28v-191q0 -20 -4.5 -32t-18 -18.5t-37 -9.5t-62.5 -4v-12q40 2 79.5 3t79.5 1q32 0 64 -1t64 -3v12q-23 2 -39.5 5.5t-27 11.5t-15.5 21.5t-5 34.5v439q0 29 3 49.5t21 44.5h-87z" />
    <glyph glyph-name="r" unicode="r" horiz-adv-x="389" 
d="M9 -4q23 2 44.5 3t44.5 1q34 0 67.5 -1t67.5 -3v12q-38 6 -57 16.5t-19 43.5v212q9 9 20.5 21t24.5 22.5t27 17.5t28 7q17 0 27 -12.5t10 -26.5q0 -12 -2 -19.5t-4 -14.5l80 42q-2 38 -21.5 59.5t-58.5 21.5q-17 0 -35 -9t-35.5 -21.5t-33 -25.5t-27.5 -21v57l-146 -22
v-12q27 0 47.5 -7t20.5 -37v-232q0 -33 -18 -43.5t-52 -16.5v-12z" />
    <glyph glyph-name="s" unicode="s" horiz-adv-x="389" 
d="M37 11q26 -3 66.5 -15t87.5 -12q30 0 56.5 5.5t46.5 18.5t31.5 36t11.5 57q0 33 -18.5 55.5t-45.5 38t-59.5 26.5t-59.5 22.5t-45.5 25t-18.5 34.5q0 29 20 40t45 11q23 0 43.5 -8.5t39 -22t33.5 -31t25 -36.5h13l-6 106q-38 2 -73.5 12t-73.5 10q-51 0 -84.5 -29
t-33.5 -83q0 -33 18.5 -54t45.5 -35.5t59.5 -25t59.5 -22.5t45.5 -28t18.5 -41q0 -15 -7 -25t-18 -16t-24.5 -8.5t-26.5 -2.5q-27 0 -51 10t-45 26t-38.5 36t-31.5 41h-14z" />
    <glyph glyph-name="t" unicode="t" horiz-adv-x="315" 
d="M75 337v-267q0 -35 15 -60.5t57 -25.5q24 0 44.5 7.5t38 20t34 28t32.5 30.5l-9 10q-20 -20 -40 -33t-50 -13q-15 0 -23.5 6t-13 16t-6 22.5t-1.5 25.5v233h137v30h-137v145h-14q-9 -26 -20.5 -54t-28.5 -51t-40 -38t-55 -16v-16h80z" />
    <glyph glyph-name="u" unicode="u" horiz-adv-x="537" 
d="M156 384l-153 -13v-13q41 -5 58 -16t17 -41v-207q0 -56 34 -83t82 -27q45 0 83.5 19t73.5 45v-52q37 2 75.5 3t76.5 3v10q-35 2 -54.5 14.5t-19.5 50.5v307l-157 -11v-11q27 -4 43 -10.5t24 -15t10 -19.5t2 -24v-211q-15 -17 -46.5 -32.5t-63.5 -15.5q-41 0 -63 23.5
t-22 64.5v262z" />
    <glyph glyph-name="v" unicode="v" 
d="M-18 360q34 -5 57 -28t36 -52q30 -69 67.5 -144.5t69.5 -147.5h36q29 69 64.5 132t69.5 129q17 32 31.5 53t28 33.5t26 18t25.5 6.5v12q-22 -2 -43.5 -3t-43.5 -1q-21 0 -49 1t-47 3v-12q24 -3 40.5 -12t16.5 -38q0 -16 -13.5 -48t-32 -68t-37.5 -70t-29 -52
q-7 14 -24 46.5t-34.5 69.5t-31 71.5t-13.5 51.5q0 24 20 35t41 14v12q-23 -1 -33 -2t-19 -1h-22t-45 -1q-23 1 -32 1h-16q-7 0 -19.5 1t-44.5 2v-12z" />
    <glyph glyph-name="w" unicode="w" horiz-adv-x="741" 
d="M-27 360q31 -6 57 -32t43 -61q14 -29 30.5 -63.5t33.5 -71t33.5 -73t30.5 -71.5h25l129 263l121 -263h22l108 222q11 23 22.5 48t26 46.5t32.5 37t42 18.5v12q-22 -2 -44 -3t-44 -1q-23 0 -45 1t-45 3v-12q29 -4 42 -16.5t13 -42.5q0 -14 -12 -45t-28 -66t-32.5 -67
t-24.5 -47q-6 16 -21.5 49t-32 68.5t-29 67.5t-12.5 45q0 26 18.5 39.5t44.5 14.5v12q-31 -2 -62 -3t-63 -1q-20 0 -34.5 0.5t-25.5 1t-20.5 1t-19.5 1.5v-12q35 -4 56.5 -30t30.5 -52l-101 -198q-7 19 -23 50t-32 65t-28 64.5t-12 48.5q0 23 17.5 36.5t38.5 14.5v13
q-27 -2 -54 -3t-54 -1q-17 0 -30.5 0.5t-26.5 1t-27.5 1t-33.5 1.5v-12z" />
    <glyph glyph-name="x" unicode="x" horiz-adv-x="519" 
d="M-13 -4q25 2 49.5 3t49.5 1q24 0 47.5 -1t47.5 -3v12q-7 0 -16.5 1.5t-17 5t-13 10t-5.5 15.5q0 15 11.5 33t27.5 35.5t32.5 33t26.5 24.5q8 -12 20.5 -27.5t24.5 -32t20.5 -33t8.5 -30.5q0 -9 -6 -15.5t-15 -11t-19 -6.5t-18 -2v-12q33 2 66 3t66 1q32 0 63.5 -1
t63.5 -3v12q-40 6 -73 29t-60 52.5t-49.5 61t-41.5 54.5q25 21 49 45t49 46.5t53 40t62 23.5v12q-23 -3 -47 -3.5t-47 -0.5q-26 0 -52.5 0.5t-52.5 3.5v-13q13 -4 26.5 -12t13.5 -23t-7.5 -28.5t-18 -25.5t-22.5 -23t-22 -21q-7 6 -18 19.5t-21.5 29t-18 30t-7.5 22.5
q0 14 15 22t26 10v13q-28 -3 -55.5 -3.5t-55.5 -0.5q-32 0 -64 0.5t-64 3.5v-12q38 -5 67 -23.5t53.5 -44t46.5 -54t45 -53.5q-27 -23 -52 -49.5t-51.5 -51.5t-56 -45.5t-64.5 -30.5v-12z" />
    <glyph glyph-name="y" unicode="y" 
d="M-25 360q24 -6 37.5 -11t23 -14t17 -22.5t17.5 -36.5q11 -22 25.5 -53.5t30 -65.5t30.5 -67.5t26.5 -60.5t19 -45t7.5 -21q0 -8 -14 -36.5t-36.5 -60t-51.5 -56t-59 -24.5q-14 0 -28.5 1.5t-14.5 7.5q0 5 8 16.5t8 28.5q0 24 -14 35.5t-37 11.5q-20 0 -34.5 -16
t-14.5 -36q0 -22 8.5 -38t22 -26.5t31 -15.5t35.5 -5q32 0 61 9t63.5 46t79 112t107.5 207q9 18 26 55.5t39.5 76.5t49.5 69.5t54 34.5v12q-23 -3 -45 -3.5t-45 -0.5q-24 0 -47 0.5t-46 3.5v-12q11 -3 21.5 -5.5t18.5 -7t13.5 -11.5t5.5 -19q0 -7 -7.5 -28t-18.5 -49
t-25 -60.5t-27 -61.5t-24 -52t-16 -33q-11 34 -29.5 74t-36 78.5t-30.5 72t-13 53.5q0 13 5.5 21.5t14.5 14t20 9t22 4.5v12q-30 -3 -61 -3.5t-61 -0.5q-31 0 -56.5 0.5t-55.5 3.5v-12z" />
    <glyph glyph-name="z" unicode="z" horiz-adv-x="444" 
d="M25 -4q42 2 82.5 3t82.5 1q45 0 90 -1t90 -3l22 129l-15 5q-12 -36 -31.5 -56.5t-44 -31t-55 -13.5t-65.5 -3h-64l272 330l-11 16q-41 -2 -81.5 -3t-81.5 -1q-42 0 -82 1t-82 3l-14 -119l14 -4q26 54 66 73.5t98 19.5h71l-270 -328z" />
    <glyph glyph-name="braceleft" unicode="{" horiz-adv-x="389" 
d="M301 -188q-53 22 -53 126v173q0 27 -2.5 48.5t-10.5 38t-22 27.5t-37 18v2q23 7 37 18t22 27.5t10.5 38t2.5 48.5v173q0 104 53 126v12q-28 0 -52.5 -5t-43.5 -20.5t-30 -44t-11 -74.5v-183q0 -50 -12 -76.5t-49 -40.5q37 -14 49 -40.5t12 -76.5v-183q0 -46 11 -74.5
t30 -44t43.5 -20.5t52.5 -5v12z" />
    <glyph glyph-name="bar" unicode="|" horiz-adv-x="222" 
d="M86 0h50v712h-50v-712z" />
    <glyph glyph-name="braceright" unicode="}" horiz-adv-x="387" 
d="M71 676q53 -22 53 -126v-173q0 -27 2.5 -48.5t10.5 -38t22 -27.5t37 -18v-2q-23 -7 -37 -18t-22 -27.5t-10.5 -38t-2.5 -48.5v-173q0 -104 -53 -126v-12q28 0 53 5t43.5 20.5t29.5 44t11 74.5v183q0 50 12 76.5t49 40.5q-37 14 -49 40.5t-12 76.5v183q0 46 -11 74.5
t-29.5 44t-43.5 20.5t-53 5v-12z" />
    <glyph glyph-name="asciitilde" unicode="~" 
d="M445 247l-18 -26t-19.5 -23t-23 -16.5t-27.5 -6.5q-20 0 -47 12t-55 24q-29 13 -57 22.5t-54 9.5q-25 0 -44.5 -7.5t-34.5 -19.5t-26.5 -27.5t-19.5 -31.5l36 -36q6 13 13.5 26t18 23t23.5 16.5t29 6.5q35 0 63 -10.5t52 -24.5q25 -14 49.5 -23.5t52.5 -9.5
q23 0 41.5 7.5t33 19.5t27 27.5t23.5 31.5z" />
    <glyph glyph-name="exclamdown" unicode="&#xa1;" horiz-adv-x="389" 
d="M187 266q0 -31 -1 -61.5t-1 -61.5q0 -26 -6 -60t-13 -74t-13 -85t-6 -92q0 -18 3.5 -36t5.5 -36l115 20v8q-13 10 -22.5 23t-15 30.5t-8 40.5t-2.5 54q0 23 3 47t3 47q0 51 -6 100.5t-16 100.5q-2 11 -3.5 20t-3.5 15h-13zM193 314q23 0 39.5 16t16.5 40t-16.5 40
t-39.5 16t-39.5 -16t-16.5 -40t16.5 -40t39.5 -16z" />
    <glyph glyph-name="cent" unicode="&#xa2;" 
d="M413 88q-31 -25 -69.5 -35.5t-79.5 -10.5v312q27 -3 47 -17t36 -33.5t27 -42.5t20 -45h11l-11 154q-10 -2 -27 -2q-7 0 -19.5 2t-27 4t-29.5 4t-27 2v108h-28v-108q-39 -4 -73 -19t-59 -40t-39.5 -59t-14.5 -75q0 -38 13 -72t37 -59.5t58.5 -40.5t77.5 -15v-116h28v116
q46 3 88 22t77 47zM236 45q-27 8 -47 24t-33.5 37.5t-20.5 47t-7 52.5q0 26 6.5 51t20 45.5t33.5 34.5t48 17v-309z" />
    <glyph glyph-name="sterling" unicode="&#xa3;" 
d="M193 341q-1 29 -2 59t-1 61q0 85 25.5 131t73.5 46q36 0 57 -21t21 -58q0 -10 -3.5 -19.5t-3.5 -18.5q0 -15 32 -15q49 0 49 56q0 30 -13.5 50t-34.5 32t-47 17t-50 5q-40 0 -73.5 -22t-57 -56.5t-36.5 -76t-13 -81.5v-89h-65l-12 -28h77q1 -17 2.5 -31.5t1.5 -28.5
q0 -72 -9.5 -116.5t-25 -69.5t-36.5 -35.5t-44 -15.5v-20q52 2 103 3t103 1q45 0 88 -1t88 -3l64 130l-10 7q-19 -26 -33 -41t-29.5 -22t-35.5 -8.5t-52 -1.5h-175l-1 7q27 20 42.5 49.5t23.5 63.5t10.5 69t2.5 64h132v28h-133z" />
    <glyph glyph-name="currency" unicode="&#xa4;" 
d="M2 115l38 -38l53 58q35 -31 75 -44.5t84 -13.5q42 0 81.5 14t73.5 44l53 -58l38 38l-53 56q28 35 40.5 74t12.5 81t-12.5 82t-41.5 73l54 54l-38 38l-52 -51q-74 51 -155 51q-42 0 -83 -13.5t-74 -41.5l-56 55l-38 -38l56 -57q-31 -32 -43.5 -72t-12.5 -82q0 -85 54 -152
zM250 523q40 0 75 -15.5t61.5 -42.5t42 -63t15.5 -77t-15.5 -77t-42 -63t-61.5 -42.5t-75 -15.5t-75 15.5t-61.5 42.5t-42 63t-15.5 77t15.5 77t42 63t61.5 42.5t75 15.5z" />
    <glyph glyph-name="yen" unicode="&#xa5;" 
d="M226 131q0 -36 -4 -59t-13.5 -36.5t-24.5 -19t-37 -8.5v-12q26 2 50.5 3t50.5 1q29 0 59.5 -1t60.5 -3v12q-24 3 -39.5 8.5t-24.5 19t-12.5 36.5t-3.5 59v88h134v28h-134v31l25 57h109v28h-95l52 115q10 21 22 47t27 49.5t34 42t43 25.5v12q-22 -2 -43 -3t-42 -1
q-24 0 -48 1t-49 3v-12q21 -2 37 -19.5t16 -46.5q0 -17 -4 -36.5t-13 -40.5l-79 -185l-96 192q-28 54 -28 74q0 16 5.5 26.5t14 18t18 11.5t18.5 6v12q-26 -2 -53 -3t-54 -1q-28 0 -55 1t-55 3v-12q21 -7 37.5 -20.5t29 -30t22.5 -35t19 -36.5l83 -157h-94v-28h109l25 -47
v-41h-134v-28h134v-88z" />
    <glyph glyph-name="brokenbar" horiz-adv-x="222" 
d="M86 0h50v275h-50v-275zM86 437h50v275h-50v-275z" />
    <glyph glyph-name="section" unicode="&#xa7;" 
d="M70 277q0 -40 19.5 -73t48 -61t62.5 -53t62.5 -48.5t48 -47.5t19.5 -50q0 -38 -23 -58.5t-61 -20.5q-6 0 -17 1.5t-21.5 5t-18.5 9.5t-8 16q0 6 4 11.5t8.5 12t8 14.5t3.5 20q0 17 -13.5 32t-39.5 15q-20 0 -34.5 -13.5t-14.5 -42.5q0 -21 12.5 -40t33 -33.5t47 -23
t53.5 -8.5q28 0 53.5 9.5t44.5 26.5t30 41t11 53q0 48 -28 82.5t-64 59.5v3q68 0 101 33.5t33 87.5q0 39 -19.5 72.5t-49 63t-63.5 55.5t-63.5 49.5t-49 45.5t-19.5 44t7 37t18.5 25t26 14t28.5 3q32 0 51 -10t19 -17q0 -5 -5.5 -9.5t-12.5 -10.5t-12.5 -15t-5.5 -24
q0 -17 12 -30.5t37 -13.5q22 0 37.5 12.5t15.5 35.5q0 24 -10.5 43.5t-28 33.5t-39 21.5t-44.5 7.5q-31 0 -58.5 -7t-48.5 -22.5t-33 -39.5t-12 -58q0 -23 8.5 -43t21.5 -38t30 -33t33 -28v-2q-56 0 -93.5 -32t-37.5 -90zM307 140q-24 0 -55.5 16.5t-60 41.5t-48 54
t-19.5 54q0 28 17 48.5t47 20.5q26 0 58.5 -17.5t61 -43.5t48.5 -55.5t20 -54.5q0 -30 -20 -47t-49 -17z" />
    <glyph glyph-name="dieresis" unicode="&#xa8;" horiz-adv-x="259" 
d="M37 553q-23 0 -38 -15t-15 -38t15 -38t38 -15t38 15t15 38t-15 38t-38 15zM222 553q-23 0 -38 -15t-15 -38t15 -38t38 -15t38 15t15 38t-15 38t-38 15z" />
    <glyph glyph-name="copyright" unicode="&#xa9;" horiz-adv-x="800" 
d="M400 -20q71 0 132.5 27t107 73.5t71.5 109t26 134.5t-26 135t-71.5 110t-107 74t-132.5 27q-70 0 -131.5 -27t-107.5 -74t-72 -110t-26 -135t26 -134.5t72 -109t107.5 -73.5t131.5 -27zM400 22q-58 0 -109.5 24.5t-90 66.5t-61 96.5t-22.5 114.5t22.5 115t60.5 97t90 67
t110 25q59 0 110.5 -24.5t90 -66.5t60.5 -97t22 -116q0 -60 -22.5 -114.5t-60.5 -96.5t-89.5 -66.5t-110.5 -24.5zM551 241q-7 -17 -17.5 -32.5t-25.5 -27.5t-34 -19t-44 -7q-38 0 -66 14t-46 38t-26.5 57.5t-8.5 72.5q0 37 9 68t26.5 53.5t44 35t61.5 12.5q29 0 49.5 -8
t33.5 -20.5t19.5 -28.5t7.5 -32h18v70q0 14 -22 21q-20 7 -42.5 12.5t-60.5 5.5q-57 0 -98 -18.5t-67 -47t-38.5 -62t-12.5 -64.5q0 -53 16.5 -90.5t45 -61.5t66.5 -35.5t81 -11.5q35 0 63 6t42 11q12 4 19 7.5t8 12.5l15 69h-16z" />
    <glyph glyph-name="ordfeminine" unicode="&#xaa;" horiz-adv-x="278" 
d="M79 602q-1 20 10 31t31 11t31 -7.5t11 -29.5v-46q-28 0 -57 -2.5t-53 -10.5t-39 -22.5t-15 -39.5q0 -27 22 -43.5t50 -16.5q25 0 51.5 11t46.5 24q9 -8 23 -21.5t28 -13.5q10 0 20 5.5t19.5 13t18 15.5t15.5 14l-7 6q-9 -7 -19 -13.5t-23 -6.5q-14 0 -19.5 9t-5.5 20v104
q0 21 -8.5 35.5t-22 22.5t-30 11.5t-33.5 3.5q-18 0 -34 -1.5t-28.5 -7t-22.5 -16.5t-16 -30zM162 480q-6 -5 -22 -12.5t-35 -7.5q-18 0 -31.5 8t-13.5 27q0 25 20 34.5t43 9.5q11 0 20.5 -0.5t18.5 -3.5v-55z" />
    <glyph glyph-name="guillemotleft" unicode="&#xab;" horiz-adv-x="444" 
d="M222 56l-103 131l94 126l-11 10l-130 -113q-18 -16 -18 -28q0 -11 15 -23l142 -114zM359 56l-103 131l94 126l-11 10l-130 -113q-18 -16 -18 -28q0 -11 15 -23l142 -114z" />
    <glyph glyph-name="logicalnot" unicode="&#xac;" 
d="M383 79h50v201h-366v-50h316v-151z" />
    <glyph glyph-name="registered" unicode="&#xae;" horiz-adv-x="800" 
d="M239 498q18 -1 28 -2.5t14.5 -6t5.5 -13.5t1 -26v-239q0 -16 -1 -25.5t-5.5 -14t-14.5 -6t-28 -3.5v-16h162v16q-19 2 -29 3.5t-14.5 6t-5 14t-0.5 25.5v97h48q24 -35 41.5 -65t31 -51.5t25 -33.5t23.5 -12h64v8q-14 11 -35 34.5t-41 50.5l-58 79q35 12 58 39.5t23 65.5
q0 24 -10 41t-26 28.5t-37 17t-43 5.5h-177v-17zM352 495h41q29 0 50 -16.5t21 -60.5q0 -40 -16 -65t-53 -25h-43v167zM400 -20q71 0 132.5 27t107 73.5t71.5 109t26 134.5t-26 135t-71.5 110t-107 74t-132.5 27q-70 0 -131.5 -27t-107.5 -74t-72 -110t-26 -135t26 -134.5
t72 -109t107.5 -73.5t131.5 -27zM400 22q-58 0 -109.5 24.5t-90 66.5t-61 96.5t-22.5 114.5t22.5 115t60.5 97t90 67t110 25q59 0 110.5 -24.5t90 -66.5t60.5 -97t22 -116q0 -60 -22.5 -114.5t-60.5 -96.5t-89.5 -66.5t-110.5 -24.5z" />
    <glyph glyph-name="macron" unicode="&#x2c9;" horiz-adv-x="259" 
d="M272 472v56h-284v-56h284z" />
    <glyph glyph-name="degree" unicode="&#xb0;" horiz-adv-x="400" 
d="M200 424q-20 0 -37 8t-29.5 21.5t-19.5 31.5t-7 38t7 38t19.5 31.5t29.5 21.5t37 8t37 -8t29.5 -21.5t19.5 -31.5t7 -38t-7 -38t-19.5 -31.5t-29.5 -21.5t-37 -8zM200 380q30 0 56 11t45.5 30.5t30.5 45.5t11 56t-11 56t-30.5 45.5t-45.5 30.5t-56 11t-56 -11
t-45.5 -30.5t-30.5 -45.5t-11 -56t11 -56t30.5 -45.5t45.5 -30.5t56 -11z" />
    <glyph glyph-name="plusminus" unicode="&#xb1;" 
d="M225 257h-158v-50h158v-112h50v112h158v50h-158v111h-50v-111zM67 0h366v50h-366v-50z" />
    <glyph glyph-name="twosuperior" horiz-adv-x="300" 
d="M13 264q33 1 66 1.5t65 0.5q25 0 49.5 -0.5t49.5 -1.5l45 83l-12 6q-11 -15 -19.5 -23.5t-18 -13t-21.5 -5.5t-32 -1h-108q23 21 56.5 48t65.5 57t54.5 63.5t22.5 67.5q0 57 -35.5 88t-98.5 29q-24 0 -45.5 -7.5t-37.5 -21.5t-25 -33.5t-9 -43.5q0 -17 9.5 -32.5
t32.5 -15.5q13 2 22 9t9 20q0 9 -3.5 15.5t-7 12t-7 10t-3.5 10.5q0 30 20.5 41.5t46.5 11.5q18 0 30.5 -8.5t21 -21.5t12.5 -28.5t4 -30.5q0 -25 -9 -49.5t-24 -48t-34.5 -45t-40.5 -41.5l-98 -93z" />
    <glyph glyph-name="threesuperior" horiz-adv-x="300" 
d="M218 611l-146 -149l22 -13q15 11 27 16.5t33 5.5q16 0 28 -7.5t20 -19.5t12 -26.5t4 -28.5q0 -20 -3.5 -39t-12 -33.5t-24 -23t-39.5 -8.5q-9 0 -20 1t-21 4t-17 8.5t-7 14.5q0 5 1.5 11t1.5 11q0 15 -6.5 26t-27.5 11q-19 0 -28 -10.5t-9 -24.5q0 -21 11.5 -36.5
t29.5 -25t40 -14t42 -4.5q38 0 66.5 10.5t48.5 27.5t30 40t10 48q0 29 -8.5 50.5t-22.5 36t-33 22t-39 7.5q-10 0 -19 -1.5t-16 -3.5l-2 2l-1 -1l157 156l-7 8q-11 0 -26.5 -0.5t-32.5 -1t-33 -0.5h-27q-27 0 -53.5 0.5t-53.5 1.5l-35 -96h22q5 8 9 16.5t10 15.5t14.5 11.5
t20.5 4.5h110z" />
    <glyph glyph-name="acute" unicode="&#xb4;" horiz-adv-x="259" 
d="M66 433h44l140 96q12 8 20.5 20.5t8.5 23.5q0 32 -41 32q-14 0 -26.5 -11.5t-29.5 -30.5z" />
    <glyph glyph-name="mu" unicode="&#xb5;" horiz-adv-x="537" 
d="M156 -11q18 -5 38 -5q45 0 83.5 19t73.5 45v-52q37 2 75.5 3t76.5 3v10q-35 2 -54.5 14.5t-19.5 50.5v301l-157 -5v-11q27 -4 43 -10.5t24 -15t10 -19.5t2 -24v-211q-15 -17 -46.5 -32.5t-63.5 -15.5q-41 0 -63 23.5t-22 64.5v256l-153 -7v-13q41 -5 58 -16t17 -41v-437
q0 -31 -2 -49t-9.5 -28.5t-22.5 -15.5t-40 -9v-12q38 2 76 3.5t76 3.5v232z" />
    <glyph glyph-name="paragraph" unicode="&#xb6;" horiz-adv-x="600" 
d="M454 -212v752q0 29 4.5 46.5t15 26.5t26.5 12t39 3v22h-240q-112 0 -160.5 -47t-48.5 -151q0 -47 12 -86.5t36.5 -67.5t63.5 -43.5t93 -15.5v-451h50v832h59v-832h50z" />
    <glyph glyph-name="periodcentered" unicode="&#xb7;" horiz-adv-x="250" 
d="M125 240q-23 0 -39.5 -16t-16.5 -40t16.5 -40t39.5 -16t39.5 16t16.5 40t-16.5 40t-39.5 16z" />
    <glyph glyph-name="periodcentered" unicode="&#x2219;" horiz-adv-x="250" 
d="M125 240q-23 0 -39.5 -16t-16.5 -40t16.5 -40t39.5 -16t39.5 16t16.5 40t-16.5 40t-39.5 16z" />
    <glyph glyph-name="cedilla" unicode="&#xb8;" horiz-adv-x="259" 
d="M13 -202q42 -18 88 -18q21 0 43 4t39 14.5t28 27t11 42.5q0 36 -25 52.5t-57 16.5q-8 0 -16 -1t-16 -3l27 67h-34l-43 -101l13 -6q8 5 18 6.5t19 1.5q20 0 30 -13t10 -33q0 -12 -5.5 -19.5t-14.5 -12t-19.5 -6t-20.5 -1.5q-34 0 -61 15z" />
    <glyph glyph-name="onesuperior" horiz-adv-x="300" 
d="M54 264q23 1 45 1.5t45 0.5q26 0 50.5 -0.5t50.5 -1.5v16q-19 3 -31.5 6t-19.5 8.5t-9.5 14.5t-2.5 24v333h-20q-23 -12 -51 -17.5t-54 -6.5v-16q23 -2 36 -5.5t19 -10.5t7 -19t1 -32v-226q0 -15 -3.5 -24.5t-11 -15t-20 -8.5t-31.5 -5v-16z" />
    <glyph glyph-name="ordmasculine" unicode="&#xba;" horiz-adv-x="300" 
d="M149 666q-63 0 -101.5 -33t-38.5 -87t38.5 -87t101.5 -33q64 0 102.5 33t38.5 87t-38.5 87t-102.5 33zM138 644q23 0 39.5 -9.5t28 -24.5t17 -34t5.5 -37q0 -14 -3.5 -30t-11.5 -29.5t-21 -22.5t-33 -9q-22 0 -39 9.5t-27.5 25t-16 34.5t-5.5 37q0 14 3 30t11 29.5t21 22
t32 8.5z" />
    <glyph glyph-name="guillemotright" unicode="&#xbb;" horiz-adv-x="444" 
d="M233 45l142 114q15 12 15 23q0 12 -18 28l-130 113l-11 -10l94 -126l-103 -131zM96 45l142 114q15 12 15 23q0 12 -18 28l-130 113l-11 -10l94 -126l-103 -131z" />
    <glyph glyph-name="onequarter" horiz-adv-x="750" 
d="M74 264q23 1 45 1.5t45 0.5q26 0 50.5 -0.5t50.5 -1.5v16q-19 3 -31.5 6t-19.5 8.5t-9.5 14.5t-2.5 24v333h-20q-23 -12 -51 -17.5t-54 -6.5v-16q23 -2 36 -5.5t19 -10.5t7 -19t1 -32v-226q0 -15 -3.5 -24.5t-11 -15t-20 -8.5t-31.5 -5v-16zM658 666h-52l-449 -682h48z
M702 414h-51l-268 -283v-16h217v-115h56v316l-56 -51v-106h-141z" />
    <glyph glyph-name="onehalf" horiz-adv-x="750" 
d="M44 264q23 1 45 1.5t45 0.5q26 0 50.5 -0.5t50.5 -1.5v16q-19 3 -31.5 6t-19.5 8.5t-9.5 14.5t-2.5 24v333h-20q-23 -12 -51 -17.5t-54 -6.5v-16q23 -2 36 -5.5t19 -10.5t7 -19t1 -32v-226q0 -15 -3.5 -24.5t-11 -15t-20 -8.5t-31.5 -5v-16zM628 666h-52l-449 -682h48z
M459 -2q33 1 66 1.5t65 0.5q25 0 49.5 -0.5t49.5 -1.5l45 83l-12 6q-11 -15 -19.5 -23.5t-18 -13t-21.5 -5.5t-32 -1h-108q23 21 56.5 48t65.5 57t54.5 63.5t22.5 67.5q0 57 -35.5 88t-98.5 29q-24 0 -45.5 -7.5t-37.5 -21.5t-25 -33.5t-9 -43.5q0 -17 9.5 -32.5t32.5 -15.5
q13 2 22 9t9 20q0 9 -3.5 15.5t-7 12t-7 10t-3.5 10.5q0 30 20.5 41.5t46.5 11.5q18 0 30.5 -8.5t21 -21.5t12.5 -28.5t4 -30.5q0 -25 -9 -49.5t-24 -48t-34.5 -45t-40.5 -41.5l-98 -93z" />
    <glyph glyph-name="threequarters" horiz-adv-x="750" 
d="M658 666h-52l-449 -682h48zM702 414h-51l-268 -283v-16h217v-115h56v316l-56 -51v-106h-141zM254 615l-146 -149l22 -13q15 11 27 16.5t33 5.5q16 0 28 -7.5t20 -19.5t12 -26.5t4 -28.5q0 -20 -3.5 -39t-12 -33.5t-24 -23t-39.5 -8.5q-9 0 -20 1t-21 4t-17 8.5t-7 14.5
q0 5 1.5 11t1.5 11q0 15 -6.5 26t-27.5 11q-19 0 -28 -10.5t-9 -24.5q0 -21 11.5 -36.5t29.5 -25t40 -14t42 -4.5q38 0 66.5 10.5t48.5 27.5t30 40t10 48q0 29 -8.5 50.5t-22.5 36t-33 22t-39 7.5q-10 0 -19 -1.5t-16 -3.5l-2 2l-1 -1l157 156l-7 8q-11 0 -26.5 -0.5
t-32.5 -1t-33 -0.5h-27q-27 0 -53.5 0.5t-53.5 1.5l-35 -96h22q5 8 9 16.5t10 15.5t14.5 11.5t20.5 4.5h110z" />
    <glyph glyph-name="questiondown" unicode="&#xbf;" 
d="M274 264q2 -51 -15 -96q-16 -42 -42 -73.5t-51 -61t-43.5 -62.5t-18.5 -78q0 -32 12 -58.5t33 -45t48.5 -29t58.5 -10.5q33 0 63 9t52.5 26.5t35.5 44.5t13 63q0 11 -1.5 22.5t-5.5 21.5l-71 -19q2 -12 4 -24.5t2 -23.5q0 -39 -17.5 -68.5t-61.5 -29.5q-21 0 -36 9
t-24 23t-13 32t-4 36q0 33 7.5 59.5t19 50t24.5 46t24.5 47.5t19 54t7.5 65q0 17 -2.5 34.5t-4.5 35.5h-13zM272 314q23 0 39.5 16t16.5 40t-16.5 40t-39.5 16t-39.5 -16t-16.5 -40t16.5 -40t39.5 -16z" />
    <glyph glyph-name="Agrave" unicode="&#xc0;" horiz-adv-x="704" 
d="M427 289l65 -184q2 -7 5.5 -15t3.5 -16q0 -28 -28.5 -44.5t-70.5 -21.5v-12q17 1 31.5 1.5t30.5 1t36 1t47 0.5q41 0 80 -1t79 -3v12q-49 6 -74 28.5t-39 61.5l-208 572q-23 -9 -42 -17t-45 -13q5 -8 8.5 -18t3.5 -15t-2.5 -11t-5.5 -13l-173 -425q-10 -25 -20.5 -49.5
t-24.5 -44.5t-34.5 -34.5t-51.5 -21.5v-12q32 2 60.5 3t58.5 1q31 0 61 -1t60 -3v12q-11 2 -27 7t-31 13.5t-25.5 21.5t-10.5 31q0 7 2.5 13t5.5 14l66 181h209zM416 319h-188l98 254zM428 692l-116 130q-17 19 -29.5 30.5t-26.5 11.5q-41 0 -41 -32q0 -11 8.5 -23.5
t20.5 -20.5l140 -96h44z" />
    <glyph glyph-name="Aacute" unicode="&#xc1;" horiz-adv-x="704" 
d="M427 289l65 -184q2 -7 5.5 -15t3.5 -16q0 -28 -28.5 -44.5t-70.5 -21.5v-12q17 1 31.5 1.5t30.5 1t36 1t47 0.5q41 0 80 -1t79 -3v12q-49 6 -74 28.5t-39 61.5l-208 572q-23 -9 -42 -17t-45 -13q5 -8 8.5 -18t3.5 -15t-2.5 -11t-5.5 -13l-173 -425q-10 -25 -20.5 -49.5
t-24.5 -44.5t-34.5 -34.5t-51.5 -21.5v-12q32 2 60.5 3t58.5 1q31 0 61 -1t60 -3v12q-11 2 -27 7t-31 13.5t-25.5 21.5t-10.5 31q0 7 2.5 13t5.5 14l66 181h209zM416 319h-188l98 254zM289 692h44l140 96q12 8 20.5 20.5t8.5 23.5q0 32 -41 32q-14 0 -26.5 -11.5
t-29.5 -30.5z" />
    <glyph glyph-name="Acircumflex" unicode="&#xc2;" horiz-adv-x="704" 
d="M427 289l65 -184q2 -7 5.5 -15t3.5 -16q0 -28 -28.5 -44.5t-70.5 -21.5v-12q17 1 31.5 1.5t30.5 1t36 1t47 0.5q41 0 80 -1t79 -3v12q-49 6 -74 28.5t-39 61.5l-208 572q-23 -9 -42 -17t-45 -13q5 -8 8.5 -18t3.5 -15t-2.5 -11t-5.5 -13l-173 -425q-10 -25 -20.5 -49.5
t-24.5 -44.5t-34.5 -34.5t-51.5 -21.5v-12q32 2 60.5 3t58.5 1q31 0 61 -1t60 -3v12q-11 2 -27 7t-31 13.5t-25.5 21.5t-10.5 31q0 7 2.5 13t5.5 14l66 181h209zM416 319h-188l98 254zM207 692h39l107 110l106 -110h41l-113 172h-69z" />
    <glyph glyph-name="Atilde" unicode="&#xc3;" horiz-adv-x="704" 
d="M427 289l65 -184q2 -7 5.5 -15t3.5 -16q0 -28 -28.5 -44.5t-70.5 -21.5v-12q17 1 31.5 1.5t30.5 1t36 1t47 0.5q41 0 80 -1t79 -3v12q-49 6 -74 28.5t-39 61.5l-208 572q-23 -9 -42 -17t-45 -13q5 -8 8.5 -18t3.5 -15t-2.5 -11t-5.5 -13l-173 -425q-10 -25 -20.5 -49.5
t-24.5 -44.5t-34.5 -34.5t-51.5 -21.5v-12q32 2 60.5 3t58.5 1q31 0 61 -1t60 -3v12q-11 2 -27 7t-31 13.5t-25.5 21.5t-10.5 31q0 7 2.5 13t5.5 14l66 181h209zM416 319h-188l98 254zM477 830q-2 -3 -5 -12t-8.5 -18t-14.5 -16t-23 -7q-16 0 -32 7.5t-32 16.5
q-17 9 -32.5 16.5t-31.5 7.5q-24 0 -41.5 -9t-29 -24t-18.5 -35t-11 -41h29q3 17 16 33t33 16q14 0 29 -7.5t32 -16.5t34.5 -16.5t34.5 -7.5q25 0 42 10t28.5 26t19 36t12.5 41h-31z" />
    <glyph glyph-name="Adieresis" unicode="&#xc4;" horiz-adv-x="704" 
d="M427 289l65 -184q2 -7 5.5 -15t3.5 -16q0 -28 -28.5 -44.5t-70.5 -21.5v-12q17 1 31.5 1.5t30.5 1t36 1t47 0.5q41 0 80 -1t79 -3v12q-49 6 -74 28.5t-39 61.5l-208 572q-23 -9 -42 -17t-45 -13q5 -8 8.5 -18t3.5 -15t-2.5 -11t-5.5 -13l-173 -425q-10 -25 -20.5 -49.5
t-24.5 -44.5t-34.5 -34.5t-51.5 -21.5v-12q32 2 60.5 3t58.5 1q31 0 61 -1t60 -3v12q-11 2 -27 7t-31 13.5t-25.5 21.5t-10.5 31q0 7 2.5 13t5.5 14l66 181h209zM416 319h-188l98 254zM260 812q-23 0 -38 -15t-15 -38t15 -38t38 -15t38 15t15 38t-15 38t-38 15zM445 812
q-23 0 -38 -15t-15 -38t15 -38t38 -15t38 15t15 38t-15 38t-38 15z" />
    <glyph glyph-name="Aring" unicode="&#xc5;" horiz-adv-x="704" 
d="M427 289l65 -184q2 -7 5.5 -15t3.5 -16q0 -28 -28.5 -44.5t-70.5 -21.5v-12q17 1 31.5 1.5t30.5 1t36 1t47 0.5q41 0 80 -1t79 -3v12q-49 6 -74 28.5t-39 61.5l-208 572q-23 -9 -42 -17t-45 -13q5 -8 8.5 -18t3.5 -15t-2.5 -11t-5.5 -13l-173 -425q-10 -25 -20.5 -49.5
t-24.5 -44.5t-34.5 -34.5t-51.5 -21.5v-12q32 2 60.5 3t58.5 1q31 0 61 -1t60 -3v12q-11 2 -27 7t-31 13.5t-25.5 21.5t-10.5 31q0 7 2.5 13t5.5 14l66 181h209zM416 319h-188l98 254zM251 795q0 -43 29.5 -72.5t72.5 -29.5t72.5 29.5t29.5 72.5t-29.5 72.5t-72.5 29.5
t-72.5 -29.5t-29.5 -72.5zM291 795q0 26 18 44t44 18t44 -18t18 -44t-18 -44t-44 -18t-44 18t-18 44z" />
    <glyph glyph-name="AE" unicode="&#xc6;" horiz-adv-x="963" 
d="M880 480q-4 25 -5.5 49.5t-1.5 49.5q0 19 0.5 38t1.5 38q-26 -2 -59.5 -3.5t-67.5 -1.5h-344q-44 0 -85 1t-92 3v-12q16 -3 35 -7t36 -11.5t28.5 -20.5t11.5 -34q0 -27 -14 -53.5t-27 -49.5l-164 -291q-14 -24 -30.5 -52.5t-37.5 -53t-46.5 -41.5t-56.5 -20v-12
q26 2 51 3t51 1q42 0 82.5 -1t82.5 -3v12q-15 2 -31 5t-30 10.5t-23 19.5t-9 30q0 12 6 31t17 42l94 186h168v-197q0 -29 -2 -52t-12 -39t-30 -25t-55 -11v-12q27 2 54.5 3t55.5 1h326q30 0 59.5 -1t59.5 -3l87 195l-13 6q-31 -49 -67 -82t-78 -53t-91 -28t-105 -8
q-26 0 -51 2.5t-48 8.5v311h72q39 0 66.5 -8t45.5 -24.5t29 -43t18 -62.5h12q-2 37 -3 76.5t-1 80.5q0 31 1 62t3 65h-12q-4 -34 -15.5 -55.5t-30.5 -35t-44.5 -19.5t-58.5 -8q-20 -2 -41 -2h-41v250h137q43 0 77 -6t61 -22.5t47 -44t33 -71.5h14zM265 354l152 266h4v-266
h-156z" />
    <glyph glyph-name="Ccedilla" unicode="&#xc7;" horiz-adv-x="704" 
d="M638 426q-3 21 -6 49.5t-5.5 58t-4.5 57.5t-2 49q-27 1 -54.5 5.5t-56.5 10t-61.5 10t-69.5 4.5q-67 0 -127 -25.5t-105 -71t-71.5 -109t-26.5 -139.5t26.5 -139.5t71.5 -109t105 -71t127 -25.5q59 0 106 14t87 41t74 66t68 90l-25 20q-52 -81 -120 -128t-160 -47
q-62 0 -109.5 24.5t-79 65.5t-47.5 95.5t-16 114.5t12.5 114t40 95t71 65t104.5 24q48 0 86.5 -15.5t68 -43.5t51 -66t34.5 -83h14zM282 -202q42 -18 88 -18q21 0 43 4t39 14.5t28 27t11 42.5q0 36 -25 52.5t-57 16.5q-8 0 -16 -1t-16 -3l27 67h-34l-43 -101l13 -6
q8 5 18 6.5t19 1.5q20 0 30 -13t10 -33q0 -12 -5.5 -19.5t-14.5 -12t-19.5 -6t-20.5 -1.5q-34 0 -61 15z" />
    <glyph glyph-name="Egrave" unicode="&#xc8;" horiz-adv-x="685" 
d="M230 348h64q40 0 68.5 -5t49 -19t33 -40.5t21.5 -68.5h12q0 36 -1 72t-1 72q0 35 1 71t1 72h-12q-9 -73 -49.5 -100.5t-109.5 -27.5q-20 0 -38.5 -1t-38.5 -1v250q71 6 140 6q38 0 72 -6t62.5 -23t50 -47.5t34.5 -78.5l13 4q-2 27 -4 49.5t-2 44.5v40t2 43
q-72 -2 -142 -3t-140 -1q-46 0 -82.5 0.5t-69 1t-63 1t-64.5 1.5v-12q36 -3 57 -11t31 -25t12.5 -44.5t2.5 -69.5v-334q0 -42 -2.5 -69.5t-12.5 -44.5t-30 -25t-56 -11v-12q29 2 58 3t58 1h376q17 0 35 -1t35 -3l91 201l-11 9q-36 -48 -71 -82t-74.5 -56t-87 -32t-107.5 -10
q-28 0 -61 4.5t-50 8.5v309zM435 692l-116 130q-17 19 -29.5 30.5t-26.5 11.5q-41 0 -41 -32q0 -11 8.5 -23.5t20.5 -20.5l140 -96h44z" />
    <glyph glyph-name="Eacute" unicode="&#xc9;" horiz-adv-x="685" 
d="M230 348h64q40 0 68.5 -5t49 -19t33 -40.5t21.5 -68.5h12q0 36 -1 72t-1 72q0 35 1 71t1 72h-12q-9 -73 -49.5 -100.5t-109.5 -27.5q-20 0 -38.5 -1t-38.5 -1v250q71 6 140 6q38 0 72 -6t62.5 -23t50 -47.5t34.5 -78.5l13 4q-2 27 -4 49.5t-2 44.5v40t2 43
q-72 -2 -142 -3t-140 -1q-46 0 -82.5 0.5t-69 1t-63 1t-64.5 1.5v-12q36 -3 57 -11t31 -25t12.5 -44.5t2.5 -69.5v-334q0 -42 -2.5 -69.5t-12.5 -44.5t-30 -25t-56 -11v-12q29 2 58 3t58 1h376q17 0 35 -1t35 -3l91 201l-11 9q-36 -48 -71 -82t-74.5 -56t-87 -32t-107.5 -10
q-28 0 -61 4.5t-50 8.5v309zM296 692h44l140 96q12 8 20.5 20.5t8.5 23.5q0 32 -41 32q-14 0 -26.5 -11.5t-29.5 -30.5z" />
    <glyph glyph-name="Ecircumflex" unicode="&#xca;" horiz-adv-x="685" 
d="M230 348h64q40 0 68.5 -5t49 -19t33 -40.5t21.5 -68.5h12q0 36 -1 72t-1 72q0 35 1 71t1 72h-12q-9 -73 -49.5 -100.5t-109.5 -27.5q-20 0 -38.5 -1t-38.5 -1v250q71 6 140 6q38 0 72 -6t62.5 -23t50 -47.5t34.5 -78.5l13 4q-2 27 -4 49.5t-2 44.5v40t2 43
q-72 -2 -142 -3t-140 -1q-46 0 -82.5 0.5t-69 1t-63 1t-64.5 1.5v-12q36 -3 57 -11t31 -25t12.5 -44.5t2.5 -69.5v-334q0 -42 -2.5 -69.5t-12.5 -44.5t-30 -25t-56 -11v-12q29 2 58 3t58 1h376q17 0 35 -1t35 -3l91 201l-11 9q-36 -48 -71 -82t-74.5 -56t-87 -32t-107.5 -10
q-28 0 -61 4.5t-50 8.5v309zM214 692h39l107 110l106 -110h41l-113 172h-69z" />
    <glyph glyph-name="Edieresis" unicode="&#xcb;" horiz-adv-x="685" 
d="M230 348h64q40 0 68.5 -5t49 -19t33 -40.5t21.5 -68.5h12q0 36 -1 72t-1 72q0 35 1 71t1 72h-12q-9 -73 -49.5 -100.5t-109.5 -27.5q-20 0 -38.5 -1t-38.5 -1v250q71 6 140 6q38 0 72 -6t62.5 -23t50 -47.5t34.5 -78.5l13 4q-2 27 -4 49.5t-2 44.5v40t2 43
q-72 -2 -142 -3t-140 -1q-46 0 -82.5 0.5t-69 1t-63 1t-64.5 1.5v-12q36 -3 57 -11t31 -25t12.5 -44.5t2.5 -69.5v-334q0 -42 -2.5 -69.5t-12.5 -44.5t-30 -25t-56 -11v-12q29 2 58 3t58 1h376q17 0 35 -1t35 -3l91 201l-11 9q-36 -48 -71 -82t-74.5 -56t-87 -32t-107.5 -10
q-28 0 -61 4.5t-50 8.5v309zM267 812q-23 0 -38 -15t-15 -38t15 -38t38 -15t38 15t15 38t-15 38t-38 15zM452 812q-23 0 -38 -15t-15 -38t15 -38t38 -15t38 15t15 38t-15 38t-38 15z" />
    <glyph glyph-name="Igrave" unicode="&#xcc;" horiz-adv-x="389" 
d="M47 -4q36 2 72 3t73 1q38 0 76 -1t76 -3v12q-37 3 -58 11t-31.5 25t-13 44.5t-2.5 69.5v334q0 42 2.5 69.5t12.5 44.5t30 25t55 11v12q-32 -2 -65 -3t-66 -1q-41 0 -81.5 1t-81.5 3v-12q36 -3 57 -11t31.5 -25t13 -44.5t2.5 -69.5v-334q0 -42 -2.5 -69.5t-13 -44.5
t-30.5 -25t-56 -11v-12zM270 692l-116 130q-17 19 -29.5 30.5t-26.5 11.5q-41 0 -41 -32q0 -11 8.5 -23.5t20.5 -20.5l140 -96h44z" />
    <glyph glyph-name="Iacute" unicode="&#xcd;" horiz-adv-x="389" 
d="M47 -4q36 2 72 3t73 1q38 0 76 -1t76 -3v12q-37 3 -58 11t-31.5 25t-13 44.5t-2.5 69.5v334q0 42 2.5 69.5t12.5 44.5t30 25t55 11v12q-32 -2 -65 -3t-66 -1q-41 0 -81.5 1t-81.5 3v-12q36 -3 57 -11t31.5 -25t13 -44.5t2.5 -69.5v-334q0 -42 -2.5 -69.5t-13 -44.5
t-30.5 -25t-56 -11v-12zM131 692h44l140 96q12 8 20.5 20.5t8.5 23.5q0 32 -41 32q-14 0 -26.5 -11.5t-29.5 -30.5z" />
    <glyph glyph-name="Icircumflex" unicode="&#xce;" horiz-adv-x="389" 
d="M47 -4q36 2 72 3t73 1q38 0 76 -1t76 -3v12q-37 3 -58 11t-31.5 25t-13 44.5t-2.5 69.5v334q0 42 2.5 69.5t12.5 44.5t30 25t55 11v12q-32 -2 -65 -3t-66 -1q-41 0 -81.5 1t-81.5 3v-12q36 -3 57 -11t31.5 -25t13 -44.5t2.5 -69.5v-334q0 -42 -2.5 -69.5t-13 -44.5
t-30.5 -25t-56 -11v-12zM49 692h39l107 110l106 -110h41l-113 172h-69z" />
    <glyph glyph-name="Idieresis" unicode="&#xcf;" horiz-adv-x="389" 
d="M47 -4q36 2 72 3t73 1q38 0 76 -1t76 -3v12q-37 3 -58 11t-31.5 25t-13 44.5t-2.5 69.5v334q0 42 2.5 69.5t12.5 44.5t30 25t55 11v12q-32 -2 -65 -3t-66 -1q-41 0 -81.5 1t-81.5 3v-12q36 -3 57 -11t31.5 -25t13 -44.5t2.5 -69.5v-334q0 -42 -2.5 -69.5t-13 -44.5
t-30.5 -25t-56 -11v-12zM102 812q-23 0 -38 -15t-15 -38t15 -38t38 -15t38 15t15 38t-15 38t-38 15zM287 812q-23 0 -38 -15t-15 -38t15 -38t38 -15t38 15t15 38t-15 38t-38 15z" />
    <glyph glyph-name="Eth" horiz-adv-x="833" 
d="M40 370v-32h98v-254q0 -12 -3 -24t-13.5 -22.5t-30 -18.5t-52.5 -11v-12q34 2 67 3t67 1q21 0 44 -0.5t52 -0.5t68 -0.5t92 -0.5q70 0 134.5 17t114.5 54.5t80 96t30 141.5q0 82 -31 148t-84.5 112.5t-124.5 71.5t-152 25q-32 0 -62 -2t-61 -5t-63 -5t-67 -2q-26 0 -52 1
t-52 3v-12q35 -3 54.5 -10t29.5 -19t12.5 -28.5t2.5 -38.5v-176h-98zM228 370v33q0 53 1 105t5 104q32 14 64.5 21t68.5 7q68 0 125.5 -24t99 -66t65 -98.5t23.5 -121.5q0 -150 -70.5 -229t-224.5 -79q-42 0 -83.5 12t-73.5 42v262h204v32h-204z" />
    <glyph glyph-name="Ntilde" unicode="&#xd1;" horiz-adv-x="815" 
d="M16 642q40 -10 78 -25t70 -41l-12 -459q-1 -34 -9.5 -54t-25 -30.5t-41.5 -15t-60 -9.5v-12q29 2 57 3t57 1q50 0 99 -1t99 -3v12q-46 5 -73 14.5t-40.5 37t-17 79.5t-3.5 140v175q0 26 0.5 51t1.5 51q45 -49 101.5 -111.5t117.5 -135t122 -154t116 -167.5h37v530
q0 30 5.5 51.5t18 36t34 23.5t52.5 13v12q-32 -2 -65 -3t-65 -1q-35 0 -70.5 1t-70.5 3v-12q40 -3 64.5 -20t38 -49t18 -79.5t4.5 -111.5v-116q0 -30 -0.5 -59.5t-0.5 -59.5h-2q-20 28 -54.5 71.5t-75.5 93.5t-85 103.5t-82.5 100.5t-68.5 83.5t-43 54.5q-22 -2 -43 -3
t-43 -1q-42 0 -73.5 1t-66.5 3v-12zM538 830q-2 -3 -5 -12t-8.5 -18t-14.5 -16t-23 -7q-16 0 -32 7.5t-32 16.5q-17 9 -32.5 16.5t-31.5 7.5q-24 0 -41.5 -9t-29 -24t-18.5 -35t-11 -41h29q3 17 16 33t33 16q14 0 29 -7.5t32 -16.5t34.5 -16.5t34.5 -7.5q25 0 42 10t28.5 26
t19 36t12.5 41h-31z" />
    <glyph glyph-name="Ograve" unicode="&#xd2;" horiz-adv-x="833" 
d="M47 325q0 -81 29.5 -145t79.5 -108.5t117.5 -68t143.5 -23.5t143.5 23.5t117.5 68t79.5 108.5t29.5 145t-29.5 145t-79.5 108.5t-117.5 68t-143.5 23.5t-143.5 -23.5t-117.5 -68t-79.5 -108.5t-29.5 -145zM153 325q0 61 18 117t52 98.5t83 68t111 25.5t111 -25.5t83 -68
t52 -98.5t18 -117t-18 -117t-52 -98.5t-83 -68t-111 -25.5t-111 25.5t-83 68t-52 98.5t-18 117zM492 692l-116 130q-17 19 -29.5 30.5t-26.5 11.5q-41 0 -41 -32q0 -11 8.5 -23.5t20.5 -20.5l140 -96h44z" />
    <glyph glyph-name="Oacute" unicode="&#xd3;" horiz-adv-x="833" 
d="M47 325q0 -81 29.5 -145t79.5 -108.5t117.5 -68t143.5 -23.5t143.5 23.5t117.5 68t79.5 108.5t29.5 145t-29.5 145t-79.5 108.5t-117.5 68t-143.5 23.5t-143.5 -23.5t-117.5 -68t-79.5 -108.5t-29.5 -145zM153 325q0 61 18 117t52 98.5t83 68t111 25.5t111 -25.5t83 -68
t52 -98.5t18 -117t-18 -117t-52 -98.5t-83 -68t-111 -25.5t-111 25.5t-83 68t-52 98.5t-18 117zM353 692h44l140 96q12 8 20.5 20.5t8.5 23.5q0 32 -41 32q-14 0 -26.5 -11.5t-29.5 -30.5z" />
    <glyph glyph-name="Ocircumflex" unicode="&#xd4;" horiz-adv-x="833" 
d="M47 325q0 -81 29.5 -145t79.5 -108.5t117.5 -68t143.5 -23.5t143.5 23.5t117.5 68t79.5 108.5t29.5 145t-29.5 145t-79.5 108.5t-117.5 68t-143.5 23.5t-143.5 -23.5t-117.5 -68t-79.5 -108.5t-29.5 -145zM153 325q0 61 18 117t52 98.5t83 68t111 25.5t111 -25.5t83 -68
t52 -98.5t18 -117t-18 -117t-52 -98.5t-83 -68t-111 -25.5t-111 25.5t-83 68t-52 98.5t-18 117zM271 692h39l107 110l106 -110h41l-113 172h-69z" />
    <glyph glyph-name="Otilde" unicode="&#xd5;" horiz-adv-x="833" 
d="M47 325q0 -81 29.5 -145t79.5 -108.5t117.5 -68t143.5 -23.5t143.5 23.5t117.5 68t79.5 108.5t29.5 145t-29.5 145t-79.5 108.5t-117.5 68t-143.5 23.5t-143.5 -23.5t-117.5 -68t-79.5 -108.5t-29.5 -145zM153 325q0 61 18 117t52 98.5t83 68t111 25.5t111 -25.5t83 -68
t52 -98.5t18 -117t-18 -117t-52 -98.5t-83 -68t-111 -25.5t-111 25.5t-83 68t-52 98.5t-18 117zM541 830q-2 -3 -5 -12t-8.5 -18t-14.5 -16t-23 -7q-16 0 -32 7.5t-32 16.5q-17 9 -32.5 16.5t-31.5 7.5q-24 0 -41.5 -9t-29 -24t-18.5 -35t-11 -41h29q3 17 16 33t33 16
q14 0 29 -7.5t32 -16.5t34.5 -16.5t34.5 -7.5q25 0 42 10t28.5 26t19 36t12.5 41h-31z" />
    <glyph glyph-name="Odieresis" unicode="&#xd6;" horiz-adv-x="833" 
d="M47 325q0 -81 29.5 -145t79.5 -108.5t117.5 -68t143.5 -23.5t143.5 23.5t117.5 68t79.5 108.5t29.5 145t-29.5 145t-79.5 108.5t-117.5 68t-143.5 23.5t-143.5 -23.5t-117.5 -68t-79.5 -108.5t-29.5 -145zM153 325q0 61 18 117t52 98.5t83 68t111 25.5t111 -25.5t83 -68
t52 -98.5t18 -117t-18 -117t-52 -98.5t-83 -68t-111 -25.5t-111 25.5t-83 68t-52 98.5t-18 117zM324 812q-23 0 -38 -15t-15 -38t15 -38t38 -15t38 15t15 38t-15 38t-38 15zM509 812q-23 0 -38 -15t-15 -38t15 -38t38 -15t38 15t15 38t-15 38t-38 15z" />
    <glyph glyph-name="multiply" 
d="M249 219l-147 149l-35 -36l146 -148l-146 -148l35 -36l147 149l149 -149l35 35l-149 149l149 149l-36 35z" />
    <glyph glyph-name="Oslash" unicode="&#xd8;" horiz-adv-x="833" 
d="M220 113q-33 43 -50 97.5t-17 114.5q0 61 18 117t52 98.5t83 68t111 25.5q53 0 95.5 -18t75.5 -50zM611 541q34 -42 52 -98t18 -118q0 -61 -18 -117t-52 -98.5t-83 -68t-111 -25.5q-54 0 -98 19t-76 52zM203 38q92 -58 214 -58q76 0 143.5 23.5t117.5 68t79.5 108.5
t29.5 145q0 90 -35.5 158t-95.5 113l74 91l-26 22l-76 -94q-93 55 -211 55q-76 0 -143.5 -23.5t-117.5 -68t-79.5 -108.5t-29.5 -145q0 -89 34.5 -156t93.5 -111l-82 -101l26 -22z" />
    <glyph glyph-name="Ugrave" unicode="&#xd9;" horiz-adv-x="796" 
d="M128 198q0 -54 22 -95t58.5 -68.5t83.5 -41t98 -13.5q56 0 105.5 14t86.5 43t58.5 72.5t21.5 103.5v299q0 42 6.5 66.5t18.5 37.5t29.5 18t38.5 8v12q-26 -2 -51 -3t-51 -1q-31 0 -61.5 1t-61.5 3v-12q30 -4 49 -13t29.5 -26.5t14 -45t3.5 -67.5v-280q0 -24 -9 -55.5
t-33 -59t-65 -46.5t-105 -19q-40 0 -75.5 9.5t-62.5 30t-42.5 53.5t-15.5 79v326q0 30 5 50.5t17 34t33 20t53 9.5v12q-30 -2 -59.5 -3t-59.5 -1q-42 0 -82.5 1t-82.5 3v-12q21 -4 37 -8t27 -13t16.5 -24.5t5.5 -43.5v-355zM491 692l-116 130q-17 19 -29.5 30.5t-26.5 11.5
q-41 0 -41 -32q0 -11 8.5 -23.5t20.5 -20.5l140 -96h44z" />
    <glyph glyph-name="Uacute" unicode="&#xda;" horiz-adv-x="796" 
d="M128 198q0 -54 22 -95t58.5 -68.5t83.5 -41t98 -13.5q56 0 105.5 14t86.5 43t58.5 72.5t21.5 103.5v299q0 42 6.5 66.5t18.5 37.5t29.5 18t38.5 8v12q-26 -2 -51 -3t-51 -1q-31 0 -61.5 1t-61.5 3v-12q30 -4 49 -13t29.5 -26.5t14 -45t3.5 -67.5v-280q0 -24 -9 -55.5
t-33 -59t-65 -46.5t-105 -19q-40 0 -75.5 9.5t-62.5 30t-42.5 53.5t-15.5 79v326q0 30 5 50.5t17 34t33 20t53 9.5v12q-30 -2 -59.5 -3t-59.5 -1q-42 0 -82.5 1t-82.5 3v-12q21 -4 37 -8t27 -13t16.5 -24.5t5.5 -43.5v-355zM352 692h44l140 96q12 8 20.5 20.5t8.5 23.5
q0 32 -41 32q-14 0 -26.5 -11.5t-29.5 -30.5z" />
    <glyph glyph-name="Ucircumflex" unicode="&#xdb;" horiz-adv-x="796" 
d="M128 198q0 -54 22 -95t58.5 -68.5t83.5 -41t98 -13.5q56 0 105.5 14t86.5 43t58.5 72.5t21.5 103.5v299q0 42 6.5 66.5t18.5 37.5t29.5 18t38.5 8v12q-26 -2 -51 -3t-51 -1q-31 0 -61.5 1t-61.5 3v-12q30 -4 49 -13t29.5 -26.5t14 -45t3.5 -67.5v-280q0 -24 -9 -55.5
t-33 -59t-65 -46.5t-105 -19q-40 0 -75.5 9.5t-62.5 30t-42.5 53.5t-15.5 79v326q0 30 5 50.5t17 34t33 20t53 9.5v12q-30 -2 -59.5 -3t-59.5 -1q-42 0 -82.5 1t-82.5 3v-12q21 -4 37 -8t27 -13t16.5 -24.5t5.5 -43.5v-355zM270 692h39l107 110l106 -110h41l-113 172h-69z
" />
    <glyph glyph-name="Udieresis" unicode="&#xdc;" horiz-adv-x="796" 
d="M128 198q0 -54 22 -95t58.5 -68.5t83.5 -41t98 -13.5q56 0 105.5 14t86.5 43t58.5 72.5t21.5 103.5v299q0 42 6.5 66.5t18.5 37.5t29.5 18t38.5 8v12q-26 -2 -51 -3t-51 -1q-31 0 -61.5 1t-61.5 3v-12q30 -4 49 -13t29.5 -26.5t14 -45t3.5 -67.5v-280q0 -24 -9 -55.5
t-33 -59t-65 -46.5t-105 -19q-40 0 -75.5 9.5t-62.5 30t-42.5 53.5t-15.5 79v326q0 30 5 50.5t17 34t33 20t53 9.5v12q-30 -2 -59.5 -3t-59.5 -1q-42 0 -82.5 1t-82.5 3v-12q21 -4 37 -8t27 -13t16.5 -24.5t5.5 -43.5v-355zM323 812q-23 0 -38 -15t-15 -38t15 -38t38 -15
t38 15t15 38t-15 38t-38 15zM508 812q-23 0 -38 -15t-15 -38t15 -38t38 -15t38 15t15 38t-15 38t-38 15z" />
    <glyph glyph-name="Yacute" horiz-adv-x="722" 
d="M-20 642q32 -7 56 -20.5t42.5 -30t33.5 -35t29 -36.5l181 -232v-157q0 -36 -5.5 -59t-19 -36.5t-36 -19t-55.5 -8.5v-12q37 2 74 3t74 1q45 0 89 -1t89 -3v12q-34 3 -57.5 8.5t-37 19t-19.5 36.5t-6 59v147l137 200q15 21 32.5 46.5t40 49.5t50.5 42.5t64 25.5v12
q-32 -2 -63.5 -3t-63.5 -1q-35 0 -70.5 1t-70.5 3v-12q30 -2 54 -19.5t24 -46.5q0 -17 -6 -36.5t-20 -40.5l-118 -185l-142 192q-20 26 -30.5 44.5t-10.5 29.5q0 16 8 26.5t20.5 18t27 11.5t26.5 6v12q-39 -2 -78.5 -3t-78.5 -1q-42 0 -82 1t-82 3v-12zM298 692h44l140 96
q12 8 20.5 20.5t8.5 23.5q0 32 -41 32q-14 0 -26.5 -11.5t-29.5 -30.5z" />
    <glyph glyph-name="Thorn" horiz-adv-x="630" 
d="M343 8q-37 3 -58 11t-31.5 25t-13 44.5t-2.5 69.5v32q40 -11 67.5 -13.5t51.5 -2.5q39 0 80 9t74.5 29.5t55.5 53.5t22 81q0 46 -21.5 82.5t-55.5 62t-74 39t-78 13.5q-32 0 -64 -2.5t-58 -4.5q0 29 4.5 47.5t16 30.5t31 18t48.5 9v12q-32 -2 -65 -3t-66 -1
q-41 0 -81.5 1t-81.5 3v-12q36 -3 57 -11t31.5 -25t13 -44.5t2.5 -69.5v-334q0 -42 -2.5 -69.5t-13 -44.5t-30.5 -25t-56 -11v-12q36 2 72 3t73 1q38 0 76 -1t76 -3v12zM238 503q23 8 45.5 10.5t39.5 2.5q36 0 66.5 -12t52.5 -34t34.5 -54t12.5 -71q0 -33 -12.5 -59
t-33.5 -43.5t-49 -27t-60 -9.5q-24 0 -48.5 4t-47.5 16v277z" />
    <glyph glyph-name="germandbls" unicode="&#xdf;" horiz-adv-x="556" 
d="M262 14q20 -13 46.5 -19.5t50.5 -6.5q31 0 59 10t49 28.5t33.5 44.5t12.5 57q0 32 -13 59t-33 51.5t-42.5 46t-42.5 43t-33 43t-13 44.5q0 26 14 46t31 43t31.5 47.5t14.5 50.5q0 29 -12.5 50t-32.5 34.5t-46 19.5t-52 6q-47 0 -85.5 -22t-65.5 -56.5t-41.5 -76
t-14.5 -80.5v-114h-34l-6 -30h40v-223q0 -29 -2 -48t-10 -30t-22.5 -16.5t-40.5 -7.5v-12q28 2 55.5 3t56.5 1q30 0 60.5 -1t59.5 -3v12q-27 2 -42.5 8t-24 20.5t-10.5 41t-2 68.5v355q0 27 4.5 58.5t16.5 58.5t32.5 45.5t52.5 18.5q24 0 41.5 -9t28.5 -24t16.5 -34.5
t5.5 -40.5q0 -35 -11 -63t-25 -53t-25.5 -49t-11.5 -53q0 -23 12.5 -44t31.5 -40.5t40.5 -39t40.5 -40.5t31.5 -45t12.5 -53q0 -32 -17.5 -54t-49.5 -22q-18 0 -36 9.5t-33.5 24t-26.5 32t-16 34.5h-16z" />
    <glyph glyph-name="agrave" unicode="&#xe0;" horiz-adv-x="463" 
d="M136 277q0 33 15 59t41 26q35 0 58 -20t23 -57v-76q-47 -1 -93.5 -5t-83 -17.5t-59.5 -38t-23 -65.5q0 -22 9 -40.5t24 -31.5t34.5 -20t40.5 -7q38 0 78 18t72 40q7 -7 16 -17t19.5 -19t21.5 -15.5t21 -6.5q15 0 31 8.5t30.5 21t28 26l23.5 23.5l-10 11
q-14 -11 -29.5 -22.5t-35.5 -11.5q-21 0 -31 14.5t-10 33.5v185q0 31 -12.5 52.5t-32.5 34.5t-46 18.5t-52 5.5q-27 0 -51 -2.5t-43.5 -12t-33.5 -28t-22 -49.5zM271 69q-12 -9 -38.5 -22t-58.5 -13q-29 0 -52.5 14.5t-23.5 48.5q0 22 9.5 37.5t24.5 25.5t34 14.5t38 4.5
q34 0 67 -9v-101zM284 433l-116 130q-17 19 -29.5 30.5t-26.5 11.5q-41 0 -41 -32q0 -11 8.5 -23.5t20.5 -20.5l140 -96h44z" />
    <glyph glyph-name="aacute" unicode="&#xe1;" horiz-adv-x="463" 
d="M136 277q0 33 15 59t41 26q35 0 58 -20t23 -57v-76q-47 -1 -93.5 -5t-83 -17.5t-59.5 -38t-23 -65.5q0 -22 9 -40.5t24 -31.5t34.5 -20t40.5 -7q38 0 78 18t72 40q7 -7 16 -17t19.5 -19t21.5 -15.5t21 -6.5q15 0 31 8.5t30.5 21t28 26l23.5 23.5l-10 11
q-14 -11 -29.5 -22.5t-35.5 -11.5q-21 0 -31 14.5t-10 33.5v185q0 31 -12.5 52.5t-32.5 34.5t-46 18.5t-52 5.5q-27 0 -51 -2.5t-43.5 -12t-33.5 -28t-22 -49.5zM271 69q-12 -9 -38.5 -22t-58.5 -13q-29 0 -52.5 14.5t-23.5 48.5q0 22 9.5 37.5t24.5 25.5t34 14.5t38 4.5
q34 0 67 -9v-101zM145 433h44l140 96q12 8 20.5 20.5t8.5 23.5q0 32 -41 32q-14 0 -26.5 -11.5t-29.5 -30.5z" />
    <glyph glyph-name="acircumflex" unicode="&#xe2;" horiz-adv-x="463" 
d="M136 277q0 33 15 59t41 26q35 0 58 -20t23 -57v-76q-47 -1 -93.5 -5t-83 -17.5t-59.5 -38t-23 -65.5q0 -22 9 -40.5t24 -31.5t34.5 -20t40.5 -7q38 0 78 18t72 40q7 -7 16 -17t19.5 -19t21.5 -15.5t21 -6.5q15 0 31 8.5t30.5 21t28 26l23.5 23.5l-10 11
q-14 -11 -29.5 -22.5t-35.5 -11.5q-21 0 -31 14.5t-10 33.5v185q0 31 -12.5 52.5t-32.5 34.5t-46 18.5t-52 5.5q-27 0 -51 -2.5t-43.5 -12t-33.5 -28t-22 -49.5zM271 69q-12 -9 -38.5 -22t-58.5 -13q-29 0 -52.5 14.5t-23.5 48.5q0 22 9.5 37.5t24.5 25.5t34 14.5t38 4.5
q34 0 67 -9v-101zM63 433h39l107 110l106 -110h41l-113 172h-69z" />
    <glyph glyph-name="atilde" unicode="&#xe3;" horiz-adv-x="463" 
d="M136 277q0 33 15 59t41 26q35 0 58 -20t23 -57v-76q-47 -1 -93.5 -5t-83 -17.5t-59.5 -38t-23 -65.5q0 -22 9 -40.5t24 -31.5t34.5 -20t40.5 -7q38 0 78 18t72 40q7 -7 16 -17t19.5 -19t21.5 -15.5t21 -6.5q15 0 31 8.5t30.5 21t28 26l23.5 23.5l-10 11
q-14 -11 -29.5 -22.5t-35.5 -11.5q-21 0 -31 14.5t-10 33.5v185q0 31 -12.5 52.5t-32.5 34.5t-46 18.5t-52 5.5q-27 0 -51 -2.5t-43.5 -12t-33.5 -28t-22 -49.5zM271 69q-12 -9 -38.5 -22t-58.5 -13q-29 0 -52.5 14.5t-23.5 48.5q0 22 9.5 37.5t24.5 25.5t34 14.5t38 4.5
q34 0 67 -9v-101zM333 571q-2 -3 -5 -12t-8.5 -18t-14.5 -16t-23 -7q-16 0 -32 7.5t-32 16.5q-17 9 -32.5 16.5t-31.5 7.5q-24 0 -41.5 -9t-29 -24t-18.5 -35t-11 -41h29q3 17 16 33t33 16q14 0 29 -7.5t32 -16.5t34.5 -16.5t34.5 -7.5q25 0 42 10t28.5 26t19 36t12.5 41
h-31z" />
    <glyph glyph-name="adieresis" unicode="&#xe4;" horiz-adv-x="463" 
d="M136 277q0 33 15 59t41 26q35 0 58 -20t23 -57v-76q-47 -1 -93.5 -5t-83 -17.5t-59.5 -38t-23 -65.5q0 -22 9 -40.5t24 -31.5t34.5 -20t40.5 -7q38 0 78 18t72 40q7 -7 16 -17t19.5 -19t21.5 -15.5t21 -6.5q15 0 31 8.5t30.5 21t28 26l23.5 23.5l-10 11
q-14 -11 -29.5 -22.5t-35.5 -11.5q-21 0 -31 14.5t-10 33.5v185q0 31 -12.5 52.5t-32.5 34.5t-46 18.5t-52 5.5q-27 0 -51 -2.5t-43.5 -12t-33.5 -28t-22 -49.5zM271 69q-12 -9 -38.5 -22t-58.5 -13q-29 0 -52.5 14.5t-23.5 48.5q0 22 9.5 37.5t24.5 25.5t34 14.5t38 4.5
q34 0 67 -9v-101zM116 553q-23 0 -38 -15t-15 -38t15 -38t38 -15t38 15t15 38t-15 38t-38 15zM301 553q-23 0 -38 -15t-15 -38t15 -38t38 -15t38 15t15 38t-15 38t-38 15z" />
    <glyph glyph-name="aring" unicode="&#xe5;" horiz-adv-x="463" 
d="M136 277q0 33 15 59t41 26q35 0 58 -20t23 -57v-76q-47 -1 -93.5 -5t-83 -17.5t-59.5 -38t-23 -65.5q0 -22 9 -40.5t24 -31.5t34.5 -20t40.5 -7q38 0 78 18t72 40q7 -7 16 -17t19.5 -19t21.5 -15.5t21 -6.5q15 0 31 8.5t30.5 21t28 26l23.5 23.5l-10 11
q-14 -11 -29.5 -22.5t-35.5 -11.5q-21 0 -31 14.5t-10 33.5v185q0 31 -12.5 52.5t-32.5 34.5t-46 18.5t-52 5.5q-27 0 -51 -2.5t-43.5 -12t-33.5 -28t-22 -49.5zM271 69q-12 -9 -38.5 -22t-58.5 -13q-29 0 -52.5 14.5t-23.5 48.5q0 22 9.5 37.5t24.5 25.5t34 14.5t38 4.5
q34 0 67 -9v-101zM107 536q0 -43 29.5 -72.5t72.5 -29.5t72.5 29.5t29.5 72.5t-29.5 72.5t-72.5 29.5t-72.5 -29.5t-29.5 -72.5zM147 536q0 26 18 44t44 18t44 -18t18 -44t-18 -44t-44 -18t-44 18t-18 44z" />
    <glyph glyph-name="ae" unicode="&#xe6;" horiz-adv-x="685" 
d="M350 242q0 20 6.5 40t19 36t30 26t38.5 10q23 0 40 -10t29 -26t17.5 -36t4.5 -40h-185zM132 277q0 13 3 26.5t10.5 25t18.5 18.5t26 7q39 0 60 -19t22 -58v-70q-51 -1 -98 -6t-83 -17.5t-57.5 -35.5t-21.5 -61q0 -48 31.5 -75.5t77.5 -27.5q48 0 91.5 23t81.5 50
q23 -38 62 -55.5t82 -17.5q54 0 104.5 25.5t85.5 63.5l-17 15q-23 -25 -58.5 -39.5t-76.5 -14.5q-33 0 -58 15.5t-41.5 41t-24 57.5t-4.5 64h280q-4 36 -18 67.5t-37 55t-54.5 36.5t-69.5 13q-35 0 -61.5 -14t-51.5 -38q-21 15 -39 25t-37 16t-39.5 8.5t-46.5 2.5
q-47 0 -79.5 -23.5t-44.5 -69.5zM96 98q0 21 8.5 36t22.5 24.5t32 14t37 4.5q20 0 38.5 -2.5t38.5 -8.5q0 -43 12 -84q-26 -19 -55.5 -33.5t-62.5 -14.5q-29 0 -50 16t-21 48z" />
    <glyph glyph-name="ccedilla" unicode="&#xe7;" horiz-adv-x="444" 
d="M380 216l-13 152q-35 7 -70 11.5t-77 4.5q-39 0 -74.5 -16t-62 -43t-42.5 -63.5t-16 -77.5t16 -77.5t42.5 -63.5t62 -43t74.5 -16q54 0 97.5 18.5t88.5 55.5l-14 16q-30 -21 -63 -34.5t-70 -13.5q-35 0 -63.5 13.5t-48.5 37t-31 53.5t-11 63q0 29 6.5 58.5t20 53
t35.5 38.5t53 15q32 0 55 -13t40 -33t30 -45.5t23 -50.5h12zM118 -202q42 -18 88 -18q21 0 43 4t39 14.5t28 27t11 42.5q0 36 -25 52.5t-57 16.5q-8 0 -16 -1t-16 -3l27 67h-34l-43 -101l13 -6q8 5 18 6.5t19 1.5q20 0 30 -13t10 -33q0 -12 -5.5 -19.5t-14.5 -12t-19.5 -6
t-20.5 -1.5q-34 0 -61 15z" />
    <glyph glyph-name="egrave" unicode="&#xe8;" horiz-adv-x="444" 
d="M394 210q-11 87 -59 130.5t-127 43.5q-43 0 -77 -17t-58 -45t-36.5 -64t-12.5 -74t12.5 -74t36.5 -64t58 -45t77 -17q60 0 103 23t84 67l-17 16q-29 -29 -63 -42.5t-76 -13.5q-20 0 -43.5 8t-44 28t-34 54t-13.5 86h290zM106 240q0 20 6.5 40t19 36.5t30 27t38.5 10.5
q28 0 46 -7.5t29 -22t16 -36t8 -48.5h-193zM298 433l-116 130q-17 19 -29.5 30.5t-26.5 11.5q-41 0 -41 -32q0 -11 8.5 -23.5t20.5 -20.5l140 -96h44z" />
    <glyph glyph-name="eacute" unicode="&#xe9;" horiz-adv-x="444" 
d="M394 210q-11 87 -59 130.5t-127 43.5q-43 0 -77 -17t-58 -45t-36.5 -64t-12.5 -74t12.5 -74t36.5 -64t58 -45t77 -17q60 0 103 23t84 67l-17 16q-29 -29 -63 -42.5t-76 -13.5q-20 0 -43.5 8t-44 28t-34 54t-13.5 86h290zM106 240q0 20 6.5 40t19 36.5t30 27t38.5 10.5
q28 0 46 -7.5t29 -22t16 -36t8 -48.5h-193zM159 433h44l140 96q12 8 20.5 20.5t8.5 23.5q0 32 -41 32q-14 0 -26.5 -11.5t-29.5 -30.5z" />
    <glyph glyph-name="ecircumflex" unicode="&#xea;" horiz-adv-x="444" 
d="M394 210q-11 87 -59 130.5t-127 43.5q-43 0 -77 -17t-58 -45t-36.5 -64t-12.5 -74t12.5 -74t36.5 -64t58 -45t77 -17q60 0 103 23t84 67l-17 16q-29 -29 -63 -42.5t-76 -13.5q-20 0 -43.5 8t-44 28t-34 54t-13.5 86h290zM106 240q0 20 6.5 40t19 36.5t30 27t38.5 10.5
q28 0 46 -7.5t29 -22t16 -36t8 -48.5h-193zM77 433h39l107 110l106 -110h41l-113 172h-69z" />
    <glyph glyph-name="edieresis" unicode="&#xeb;" horiz-adv-x="444" 
d="M394 210q-11 87 -59 130.5t-127 43.5q-43 0 -77 -17t-58 -45t-36.5 -64t-12.5 -74t12.5 -74t36.5 -64t58 -45t77 -17q60 0 103 23t84 67l-17 16q-29 -29 -63 -42.5t-76 -13.5q-20 0 -43.5 8t-44 28t-34 54t-13.5 86h290zM106 240q0 20 6.5 40t19 36.5t30 27t38.5 10.5
q28 0 46 -7.5t29 -22t16 -36t8 -48.5h-193zM130 553q-23 0 -38 -15t-15 -38t15 -38t38 -15t38 15t15 38t-15 38t-38 15zM315 553q-23 0 -38 -15t-15 -38t15 -38t38 -15t38 15t15 38t-15 38t-38 15z" />
    <glyph glyph-name="igrave" unicode="&#xec;" horiz-adv-x="259" 
d="M81 84q0 -24 -4 -39t-13 -23t-23 -10.5t-34 -3.5v-12q23 2 45 3t45 1q35 0 70.5 -1t70.5 -3v12q-22 1 -37 3.5t-24.5 10.5t-13.5 23t-4 39v294l-152 -10v-14q26 -3 41 -11t22.5 -20.5t9 -31t1.5 -42.5v-165zM190 433l-116 130q-17 19 -29.5 30.5t-26.5 11.5
q-41 0 -41 -32q0 -11 8.5 -23.5t20.5 -20.5l140 -96h44z" />
    <glyph glyph-name="iacute" unicode="&#xed;" horiz-adv-x="259" 
d="M81 84q0 -24 -4 -39t-13 -23t-23 -10.5t-34 -3.5v-12q23 2 45 3t45 1q35 0 70.5 -1t70.5 -3v12q-22 1 -37 3.5t-24.5 10.5t-13.5 23t-4 39v294l-152 -10v-14q26 -3 41 -11t22.5 -20.5t9 -31t1.5 -42.5v-165zM51 433h44l140 96q12 8 20.5 20.5t8.5 23.5q0 32 -41 32
q-14 0 -26.5 -11.5t-29.5 -30.5z" />
    <glyph glyph-name="icircumflex" unicode="&#xee;" horiz-adv-x="259" 
d="M81 84q0 -24 -4 -39t-13 -23t-23 -10.5t-34 -3.5v-12q23 2 45 3t45 1q35 0 70.5 -1t70.5 -3v12q-22 1 -37 3.5t-24.5 10.5t-13.5 23t-4 39v294l-152 -10v-14q26 -3 41 -11t22.5 -20.5t9 -31t1.5 -42.5v-165zM-31 433h39l107 110l106 -110h41l-113 172h-69z" />
    <glyph glyph-name="idieresis" unicode="&#xef;" horiz-adv-x="259" 
d="M81 84q0 -24 -4 -39t-13 -23t-23 -10.5t-34 -3.5v-12q23 2 45 3t45 1q35 0 70.5 -1t70.5 -3v12q-22 1 -37 3.5t-24.5 10.5t-13.5 23t-4 39v294l-152 -10v-14q26 -3 41 -11t22.5 -20.5t9 -31t1.5 -42.5v-165zM22 553q-23 0 -38 -15t-15 -38t15 -38t38 -15t38 15t15 38
t-15 38t-38 15zM207 553q-23 0 -38 -15t-15 -38t15 -38t38 -15t38 15t15 38t-15 38t-38 15z" />
    <glyph glyph-name="eth" 
d="M221 354q37 0 64 -16.5t45 -43t27 -58.5t9 -64q0 -28 -6.5 -56.5t-20 -51t-34 -36.5t-48.5 -14q-37 0 -64.5 16.5t-45.5 43t-26.5 59t-8.5 63.5q0 29 6.5 57t20 50.5t34 36.5t48.5 14zM94 696q32 -28 61.5 -58.5t59.5 -71.5l-109 -55l16 -28l112 56q30 -42 52 -85.5
t30 -81.5q-30 8 -46.5 10t-30.5 2q-48 0 -87.5 -14.5t-68 -40.5t-44 -63t-15.5 -82t15.5 -82t44 -63t68 -40.5t87.5 -14.5t87.5 14.5t68 42.5t44 68t15.5 91q0 53 -14 102.5t-38 95t-55.5 87t-66.5 77.5l115 57l-16 29l-123 -61q-38 38 -75 69t-69 56z" />
    <glyph glyph-name="ntilde" unicode="&#xf1;" horiz-adv-x="537" 
d="M14 344q27 0 47.5 -7t20.5 -37v-232q0 -33 -18 -43.5t-52 -16.5v-12q23 2 44.5 3t44.5 1q34 0 67.5 -1t67.5 -3v12q-38 6 -57 16.5t-19 43.5v212q0 9 10 19t25 18.5t33 13.5t35 5q47 0 69 -28t22 -79v-161q0 -33 -17.5 -43.5t-49.5 -16.5v-12q20 2 41.5 3t44.5 1
q34 0 67 -1t62 -3v12q-34 6 -52 16.5t-18 43.5v176q0 40 -12 67t-32 43t-45.5 23t-53.5 7q-32 0 -67 -19t-62 -40v53l-146 -22v-12zM387 571q-2 -3 -5 -12t-8.5 -18t-14.5 -16t-23 -7q-16 0 -32 7.5t-32 16.5q-17 9 -32.5 16.5t-31.5 7.5q-24 0 -41.5 -9t-29 -24t-18.5 -35
t-11 -41h29q3 17 16 33t33 16q14 0 29 -7.5t32 -16.5t34.5 -16.5t34.5 -7.5q25 0 42 10t28.5 26t19 36t12.5 41h-31z" />
    <glyph glyph-name="ograve" unicode="&#xf2;" 
d="M239 384q-48 0 -87.5 -14.5t-68 -40.5t-44 -63t-15.5 -82t15.5 -82t44 -63t68 -40.5t87.5 -14.5t87.5 14.5t68 40.5t44 63t15.5 82t-15.5 82t-44 63t-68 40.5t-87.5 14.5zM221 354q37 0 64 -16.5t45 -43t27 -58.5t9 -64q0 -28 -6.5 -56.5t-20 -51t-34 -36.5t-48.5 -14
q-37 0 -64.5 16.5t-45.5 43t-26.5 59t-8.5 63.5q0 29 6.5 57t20 50.5t34 36.5t48.5 14zM320 433l-116 130q-17 19 -29.5 30.5t-26.5 11.5q-41 0 -41 -32q0 -11 8.5 -23.5t20.5 -20.5l140 -96h44z" />
    <glyph glyph-name="oacute" unicode="&#xf3;" 
d="M239 384q-48 0 -87.5 -14.5t-68 -40.5t-44 -63t-15.5 -82t15.5 -82t44 -63t68 -40.5t87.5 -14.5t87.5 14.5t68 40.5t44 63t15.5 82t-15.5 82t-44 63t-68 40.5t-87.5 14.5zM221 354q37 0 64 -16.5t45 -43t27 -58.5t9 -64q0 -28 -6.5 -56.5t-20 -51t-34 -36.5t-48.5 -14
q-37 0 -64.5 16.5t-45.5 43t-26.5 59t-8.5 63.5q0 29 6.5 57t20 50.5t34 36.5t48.5 14zM181 433h44l140 96q12 8 20.5 20.5t8.5 23.5q0 32 -41 32q-14 0 -26.5 -11.5t-29.5 -30.5z" />
    <glyph glyph-name="ocircumflex" unicode="&#xf4;" 
d="M239 384q-48 0 -87.5 -14.5t-68 -40.5t-44 -63t-15.5 -82t15.5 -82t44 -63t68 -40.5t87.5 -14.5t87.5 14.5t68 40.5t44 63t15.5 82t-15.5 82t-44 63t-68 40.5t-87.5 14.5zM221 354q37 0 64 -16.5t45 -43t27 -58.5t9 -64q0 -28 -6.5 -56.5t-20 -51t-34 -36.5t-48.5 -14
q-37 0 -64.5 16.5t-45.5 43t-26.5 59t-8.5 63.5q0 29 6.5 57t20 50.5t34 36.5t48.5 14zM99 433h39l107 110l106 -110h41l-113 172h-69z" />
    <glyph glyph-name="otilde" unicode="&#xf5;" 
d="M239 384q-48 0 -87.5 -14.5t-68 -40.5t-44 -63t-15.5 -82t15.5 -82t44 -63t68 -40.5t87.5 -14.5t87.5 14.5t68 40.5t44 63t15.5 82t-15.5 82t-44 63t-68 40.5t-87.5 14.5zM221 354q37 0 64 -16.5t45 -43t27 -58.5t9 -64q0 -28 -6.5 -56.5t-20 -51t-34 -36.5t-48.5 -14
q-37 0 -64.5 16.5t-45.5 43t-26.5 59t-8.5 63.5q0 29 6.5 57t20 50.5t34 36.5t48.5 14zM369 571q-2 -3 -5 -12t-8.5 -18t-14.5 -16t-23 -7q-16 0 -32 7.5t-32 16.5q-17 9 -32.5 16.5t-31.5 7.5q-24 0 -41.5 -9t-29 -24t-18.5 -35t-11 -41h29q3 17 16 33t33 16q14 0 29 -7.5
t32 -16.5t34.5 -16.5t34.5 -7.5q25 0 42 10t28.5 26t19 36t12.5 41h-31z" />
    <glyph glyph-name="odieresis" unicode="&#xf6;" 
d="M239 384q-48 0 -87.5 -14.5t-68 -40.5t-44 -63t-15.5 -82t15.5 -82t44 -63t68 -40.5t87.5 -14.5t87.5 14.5t68 40.5t44 63t15.5 82t-15.5 82t-44 63t-68 40.5t-87.5 14.5zM221 354q37 0 64 -16.5t45 -43t27 -58.5t9 -64q0 -28 -6.5 -56.5t-20 -51t-34 -36.5t-48.5 -14
q-37 0 -64.5 16.5t-45.5 43t-26.5 59t-8.5 63.5q0 29 6.5 57t20 50.5t34 36.5t48.5 14zM152 553q-23 0 -38 -15t-15 -38t15 -38t38 -15t38 15t15 38t-15 38t-38 15zM337 553q-23 0 -38 -15t-15 -38t15 -38t38 -15t38 15t15 38t-15 38t-38 15z" />
    <glyph glyph-name="divide" unicode="&#xf7;" 
d="M433 209h-366v-50h366v50zM202 337q0 -19 14.5 -33.5t33.5 -14.5q18 0 32.5 14.5t14.5 33.5t-14.5 33t-32.5 14q-19 0 -33.5 -14t-14.5 -33zM202 32q0 -19 14.5 -33.5t33.5 -14.5q18 0 32.5 14.5t14.5 33.5t-14.5 33t-32.5 14q-19 0 -33.5 -14t-14.5 -33z" />
    <glyph glyph-name="oslash" unicode="&#xf8;" 
d="M148 73q-18 27 -27 59t-9 64q0 29 6.5 57t20 50.5t34 36.5t48.5 14q26 0 46 -8.5t37 -22.5zM325 301q20 -26 30.5 -60t10.5 -69q0 -28 -6.5 -56.5t-20 -51t-34 -36.5t-48.5 -14t-50 9.5t-39 26.5zM390 461l-58 -93q-43 16 -93 16q-48 0 -87.5 -14.5t-68 -40.5t-44 -63
t-15.5 -82q0 -56 23.5 -98.5t65.5 -68.5l-59 -94l25 -15l60 96q43 -20 100 -20q48 0 87.5 14.5t68 40.5t44 63t15.5 82q0 58 -25 101.5t-70 69.5l57 91z" />
    <glyph glyph-name="ugrave" unicode="&#xf9;" horiz-adv-x="537" 
d="M156 384l-153 -13v-13q41 -5 58 -16t17 -41v-207q0 -56 34 -83t82 -27q45 0 83.5 19t73.5 45v-52q37 2 75.5 3t76.5 3v10q-35 2 -54.5 14.5t-19.5 50.5v307l-157 -11v-11q27 -4 43 -10.5t24 -15t10 -19.5t2 -24v-211q-15 -17 -46.5 -32.5t-63.5 -15.5q-41 0 -63 23.5
t-22 64.5v262zM332 433l-116 130q-17 19 -29.5 30.5t-26.5 11.5q-41 0 -41 -32q0 -11 8.5 -23.5t20.5 -20.5l140 -96h44z" />
    <glyph glyph-name="uacute" unicode="&#xfa;" horiz-adv-x="537" 
d="M156 384l-153 -13v-13q41 -5 58 -16t17 -41v-207q0 -56 34 -83t82 -27q45 0 83.5 19t73.5 45v-52q37 2 75.5 3t76.5 3v10q-35 2 -54.5 14.5t-19.5 50.5v307l-157 -11v-11q27 -4 43 -10.5t24 -15t10 -19.5t2 -24v-211q-15 -17 -46.5 -32.5t-63.5 -15.5q-41 0 -63 23.5
t-22 64.5v262zM193 433h44l140 96q12 8 20.5 20.5t8.5 23.5q0 32 -41 32q-14 0 -26.5 -11.5t-29.5 -30.5z" />
    <glyph glyph-name="ucircumflex" unicode="&#xfb;" horiz-adv-x="537" 
d="M156 384l-153 -13v-13q41 -5 58 -16t17 -41v-207q0 -56 34 -83t82 -27q45 0 83.5 19t73.5 45v-52q37 2 75.5 3t76.5 3v10q-35 2 -54.5 14.5t-19.5 50.5v307l-157 -11v-11q27 -4 43 -10.5t24 -15t10 -19.5t2 -24v-211q-15 -17 -46.5 -32.5t-63.5 -15.5q-41 0 -63 23.5
t-22 64.5v262zM111 433h39l107 110l106 -110h41l-113 172h-69z" />
    <glyph glyph-name="udieresis" unicode="&#xfc;" horiz-adv-x="537" 
d="M156 384l-153 -13v-13q41 -5 58 -16t17 -41v-207q0 -56 34 -83t82 -27q45 0 83.5 19t73.5 45v-52q37 2 75.5 3t76.5 3v10q-35 2 -54.5 14.5t-19.5 50.5v307l-157 -11v-11q27 -4 43 -10.5t24 -15t10 -19.5t2 -24v-211q-15 -17 -46.5 -32.5t-63.5 -15.5q-41 0 -63 23.5
t-22 64.5v262zM164 553q-23 0 -38 -15t-15 -38t15 -38t38 -15t38 15t15 38t-15 38t-38 15zM349 553q-23 0 -38 -15t-15 -38t15 -38t38 -15t38 15t15 38t-15 38t-38 15z" />
    <glyph glyph-name="yacute" 
d="M-25 360q24 -6 37.5 -11t23 -14t17 -22.5t17.5 -36.5q11 -22 25.5 -53.5t30 -65.5t30.5 -67.5t26.5 -60.5t19 -45t7.5 -21q0 -8 -14 -36.5t-36.5 -60t-51.5 -56t-59 -24.5q-14 0 -28.5 1.5t-14.5 7.5q0 5 8 16.5t8 28.5q0 24 -14 35.5t-37 11.5q-20 0 -34.5 -16
t-14.5 -36q0 -22 8.5 -38t22 -26.5t31 -15.5t35.5 -5q32 0 61 9t63.5 46t79 112t107.5 207q9 18 26 55.5t39.5 76.5t49.5 69.5t54 34.5v12q-23 -3 -45 -3.5t-45 -0.5q-24 0 -47 0.5t-46 3.5v-12q11 -3 21.5 -5.5t18.5 -7t13.5 -11.5t5.5 -19q0 -7 -7.5 -28t-18.5 -49
t-25 -60.5t-27 -61.5t-24 -52t-16 -33q-11 34 -29.5 74t-36 78.5t-30.5 72t-13 53.5q0 13 5.5 21.5t14.5 14t20 9t22 4.5v12q-30 -3 -61 -3.5t-61 -0.5q-31 0 -56.5 0.5t-55.5 3.5v-12zM187 433h44l140 96q12 8 20.5 20.5t8.5 23.5q0 32 -41 32q-14 0 -26.5 -11.5
t-29.5 -30.5z" />
    <glyph glyph-name="thorn" horiz-adv-x="537" 
d="M152 287q11 27 45.5 44t78.5 17q31 0 54 -15t38 -39t22.5 -54t7.5 -60q0 -72 -30 -119t-92 -47q-44 0 -78.5 22.5t-45.5 52.5v198zM152 16q27 -17 57 -24.5t61 -7.5q44 0 83 14t68.5 39.5t47 62t17.5 82.5q0 44 -13 81t-38 64t-60.5 42t-79.5 15t-75.5 -11t-67.5 -37v376
l-147 -18v-12q45 0 57 -15.5t12 -54.5v-770q0 -23 -5 -36.5t-15.5 -21t-25.5 -11t-36 -5.5v-12q34 2 67.5 3t67.5 1q37 0 74 -1t74 -3v12q-43 1 -67.5 5t-37 13t-15.5 24t-3 39v167z" />
    <glyph glyph-name="ydieresis" unicode="&#xff;" 
d="M-25 360q24 -6 37.5 -11t23 -14t17 -22.5t17.5 -36.5q11 -22 25.5 -53.5t30 -65.5t30.5 -67.5t26.5 -60.5t19 -45t7.5 -21q0 -8 -14 -36.5t-36.5 -60t-51.5 -56t-59 -24.5q-14 0 -28.5 1.5t-14.5 7.5q0 5 8 16.5t8 28.5q0 24 -14 35.5t-37 11.5q-20 0 -34.5 -16
t-14.5 -36q0 -22 8.5 -38t22 -26.5t31 -15.5t35.5 -5q32 0 61 9t63.5 46t79 112t107.5 207q9 18 26 55.5t39.5 76.5t49.5 69.5t54 34.5v12q-23 -3 -45 -3.5t-45 -0.5q-24 0 -47 0.5t-46 3.5v-12q11 -3 21.5 -5.5t18.5 -7t13.5 -11.5t5.5 -19q0 -7 -7.5 -28t-18.5 -49
t-25 -60.5t-27 -61.5t-24 -52t-16 -33q-11 34 -29.5 74t-36 78.5t-30.5 72t-13 53.5q0 13 5.5 21.5t14.5 14t20 9t22 4.5v12q-30 -3 -61 -3.5t-61 -0.5q-31 0 -56.5 0.5t-55.5 3.5v-12zM158 553q-23 0 -38 -15t-15 -38t15 -38t38 -15t38 15t15 38t-15 38t-38 15zM343 553
q-23 0 -38 -15t-15 -38t15 -38t38 -15t38 15t15 38t-15 38t-38 15z" />
    <glyph glyph-name="dotlessi" unicode="&#x131;" horiz-adv-x="259" 
d="M81 84q0 -24 -4 -39t-13 -23t-23 -10.5t-34 -3.5v-12q23 2 45 3t45 1q35 0 70.5 -1t70.5 -3v12q-22 1 -37 3.5t-24.5 10.5t-13.5 23t-4 39v294l-152 -10v-14q26 -3 41 -11t22.5 -20.5t9 -31t1.5 -42.5v-165z" />
    <glyph glyph-name="Lslash" horiz-adv-x="648" 
d="M371 396l-143 -39v162q0 30 3 50.5t15.5 34.5t39.5 22.5t75 15.5v12q-42 -2 -84.5 -3t-84.5 -1q-39 0 -77.5 1t-77.5 3v-12q36 -3 56 -11t30 -25t12.5 -44.5t2.5 -69.5v-159l-101 -27v-32l101 27v-205q0 -19 -3.5 -34.5t-14.5 -26t-30.5 -17.5t-52.5 -10v-12q25 2 50 3
t50 1h294q36 0 72.5 -1t72.5 -3l77 224h-15q-30 -49 -59 -85.5t-64.5 -60.5t-79.5 -36t-103 -12q-26 0 -51.5 4t-52.5 9v286l143 39v32z" />
    <glyph glyph-name="lslash" horiz-adv-x="259" 
d="M-1 -4q28 2 55.5 3t56.5 1q30 0 60.5 -1t59.5 -3v12q-27 2 -42.5 7.5t-24 16.5t-10.5 30t-2 48v264l86 29v33l-86 -29v305l-147 -18v-12q45 0 57 -15.5t12 -54.5v-232l-86 -30v-33l86 30v-237q0 -29 -2 -48t-10 -30t-22.5 -16.5t-40.5 -7.5v-12z" />
    <glyph glyph-name="OE" unicode="&#x152;" horiz-adv-x="1000" 
d="M520 158q1 -39 -1 -65.5t-12.5 -43t-33 -24t-62.5 -7.5q-65 0 -114 22t-82 61t-49.5 93.5t-16.5 120.5q0 60 16.5 117t50.5 101.5t86.5 71.5t125.5 27q23 0 40.5 -5t29 -19t17 -39.5t5.5 -66.5v-344zM943 483q0 23 -1.5 44.5t-1.5 38.5v88q-66 -2 -129 -3t-127 -1h-109
q-42 0 -75.5 4t-74.5 4q-75 0 -144 -25t-122 -72t-84.5 -114.5t-31.5 -151.5q0 -77 27.5 -133.5t74.5 -93t108.5 -54.5t129.5 -18q43 0 82 2t77 2h251q30 0 60.5 -1t60.5 -3q17 47 40.5 100.5t52.5 108.5l-12 7q-55 -85 -128 -133.5t-177 -48.5q-19 0 -38 1t-42 5v312
q23 0 48 -1t42 -3q24 -2 41 -9.5t29 -22.5t20.5 -38.5t16.5 -58.5h13q-2 38 -2 75v75v68t2 68h-12q-11 -62 -39 -89.5t-72 -32.5q-20 -2 -41.5 -3.5t-45.5 -1.5v254h61q50 0 90 -4t71.5 -19t55.5 -44.5t40 -80.5z" />
    <glyph glyph-name="oe" unicode="&#x153;" horiz-adv-x="759" 
d="M710 212q-8 78 -56.5 125t-127.5 47q-42 0 -74.5 -18.5t-61.5 -47.5q-40 38 -77.5 52t-90.5 14q-42 0 -78.5 -14.5t-63.5 -40.5t-43 -63t-16 -82t16 -82t43 -63t63.5 -40.5t78.5 -14.5q102 0 166 73q22 -33 57 -53t75 -20q63 0 106.5 24.5t85.5 69.5l-16 16
q-24 -23 -56 -41.5t-70 -18.5q-25 0 -50.5 9t-45 29.5t-32 54.5t-12.5 85h280zM219 354q32 0 57.5 -16t43 -40.5t27 -55t9.5 -59.5q0 -33 -6 -63.5t-20 -54t-36.5 -37.5t-54.5 -14q-36 0 -60.5 20t-40 50t-22.5 65t-7 65q0 25 6.5 50t20 45t34.5 32.5t49 12.5zM430 242
q0 20 6 40t18 36t29.5 26t40.5 10t40.5 -10t29.5 -26t18 -36t6 -40h-188z" />
    <glyph glyph-name="Scaron" horiz-adv-x="593" 
d="M505 464q-5 43 -6.5 86t-1.5 87q-32 0 -60 5.5t-57 11.5q-28 6 -57.5 11t-66.5 5t-71 -12t-59.5 -34.5t-40.5 -54.5t-15 -71q0 -52 29 -86t72 -59t93.5 -45t93.5 -43.5t72 -54.5t29 -79q0 -33 -12 -55.5t-32.5 -36.5t-47.5 -20.5t-56 -6.5q-45 0 -83.5 21t-70.5 52.5
t-57.5 70t-43.5 72.5l-13 -7q13 -56 25 -111t21 -112q11 4 21 7.5t21 3.5q12 0 32.5 -4.5t45.5 -10t52 -10t52 -4.5q46 0 86.5 11t71 34t48.5 58.5t18 84.5q0 61 -29 100.5t-72 66.5t-93.5 46.5t-93.5 41t-72 49t-29 70.5q0 54 36.5 75t93.5 21q38 0 71.5 -15t60.5 -39.5
t47.5 -56t33.5 -63.5h14zM444 864h-41l-106 -114l-107 114h-39l111 -172h69z" />
    <glyph glyph-name="scaron" horiz-adv-x="389" 
d="M37 11q26 -3 66.5 -15t87.5 -12q30 0 56.5 5.5t46.5 18.5t31.5 36t11.5 57q0 33 -18.5 55.5t-45.5 38t-59.5 26.5t-59.5 22.5t-45.5 25t-18.5 34.5q0 29 20 40t45 11q23 0 43.5 -8.5t39 -22t33.5 -31t25 -36.5h13l-6 106q-38 2 -73.5 12t-73.5 10q-51 0 -84.5 -29
t-33.5 -83q0 -33 18.5 -54t45.5 -35.5t59.5 -25t59.5 -22.5t45.5 -28t18.5 -41q0 -15 -7 -25t-18 -16t-24.5 -8.5t-26.5 -2.5q-27 0 -51 10t-45 26t-38.5 36t-31.5 41h-14zM342 605h-41l-106 -114l-107 114h-39l111 -172h69z" />
    <glyph glyph-name="Ydieresis" unicode="&#x178;" horiz-adv-x="722" 
d="M-20 642q32 -7 56 -20.5t42.5 -30t33.5 -35t29 -36.5l181 -232v-157q0 -36 -5.5 -59t-19 -36.5t-36 -19t-55.5 -8.5v-12q37 2 74 3t74 1q45 0 89 -1t89 -3v12q-34 3 -57.5 8.5t-37 19t-19.5 36.5t-6 59v147l137 200q15 21 32.5 46.5t40 49.5t50.5 42.5t64 25.5v12
q-32 -2 -63.5 -3t-63.5 -1q-35 0 -70.5 1t-70.5 3v-12q30 -2 54 -19.5t24 -46.5q0 -17 -6 -36.5t-20 -40.5l-118 -185l-142 192q-20 26 -30.5 44.5t-10.5 29.5q0 16 8 26.5t20.5 18t27 11.5t26.5 6v12q-39 -2 -78.5 -3t-78.5 -1q-42 0 -82 1t-82 3v-12zM269 812
q-23 0 -38 -15t-15 -38t15 -38t38 -15t38 15t15 38t-15 38t-38 15zM454 812q-23 0 -38 -15t-15 -38t15 -38t38 -15t38 15t15 38t-15 38t-38 15z" />
    <glyph glyph-name="Zcaron" horiz-adv-x="704" 
d="M652 654q-68 -2 -134.5 -3t-134.5 -1q-25 0 -56.5 0.5t-65 1t-67.5 1t-66 1.5q-11 -64 -11 -127q0 -17 -1.5 -35t-0.5 -36h14q9 50 35 82.5t63 51.5t81 26.5t88 7.5h134l-487 -616l8 -12q46 2 91.5 3t91.5 1q88 0 175.5 -1t175.5 -3l76 224h-20q-21 -59 -57.5 -97
t-83 -59.5t-101 -29.5t-113.5 -8q-44 0 -70.5 1t-41.5 5q48 64 106 139.5t121.5 155.5t129 161t128.5 154zM500 864h-41l-106 -114l-107 114h-39l111 -172h69z" />
    <glyph glyph-name="zcaron" horiz-adv-x="444" 
d="M25 -4q42 2 82.5 3t82.5 1q45 0 90 -1t90 -3l22 129l-15 5q-12 -36 -31.5 -56.5t-44 -31t-55 -13.5t-65.5 -3h-64l272 330l-11 16q-41 -2 -81.5 -3t-81.5 -1q-42 0 -82 1t-82 3l-14 -119l14 -4q26 54 66 73.5t98 19.5h71l-270 -328zM370 605h-41l-106 -114l-107 114h-39
l111 -172h69z" />
    <glyph glyph-name="florin" unicode="&#x192;" 
d="M231 344l-39 -338q-1 -11 -3.5 -30.5t-6.5 -43t-10 -47.5t-15 -44t-20.5 -32.5t-26.5 -12.5q-18 0 -24.5 11t-6.5 27q0 8 1.5 15.5t1.5 18.5t-10.5 23.5t-27.5 12.5q-20 0 -28 -13.5t-8 -33.5q0 -39 26.5 -62t67.5 -23q38 0 65.5 26t47 66.5t33 90.5t21.5 97t12.5 86.5
t6.5 59.5l19 146h117l4 30h-118l17 148q4 32 10 62t14 53t19.5 37t25.5 14q28 0 28 -27q0 -23 -3 -35.5t-3 -23.5q0 -8 9.5 -12t23.5 -4q27 0 34 9t7 29q0 88 -86 88q-34 0 -58.5 -18.5t-42 -48t-29.5 -66.5t-19.5 -74.5t-12 -72t-8.5 -58.5h-99l-7 -30h101z" />
    <glyph glyph-name="circumflex" unicode="&#x2c6;" horiz-adv-x="259" 
d="M-16 433h39l107 110l106 -110h41l-113 172h-69z" />
    <glyph glyph-name="caron" unicode="&#x2c7;" horiz-adv-x="259" 
d="M277 605h-41l-106 -114l-107 114h-39l111 -172h69z" />
    <glyph glyph-name="breve" unicode="&#x2d8;" horiz-adv-x="259" 
d="M0 581q2 -29 9.5 -56t23 -47.5t39.5 -32.5t58 -12t58 12t39 32.5t22.5 47.5t8.5 56h-32q-5 -42 -32 -64t-65 -22t-65 22t-32 64h-32z" />
    <glyph glyph-name="dotaccent" unicode="&#x2d9;" horiz-adv-x="259" 
d="M129 553q-23 0 -38 -15t-15 -38t15 -38t38 -15t38 15t15 38t-15 38t-38 15z" />
    <glyph glyph-name="ring" unicode="&#x2da;" horiz-adv-x="259" 
d="M28 536q0 -43 29.5 -72.5t72.5 -29.5t72.5 29.5t29.5 72.5t-29.5 72.5t-72.5 29.5t-72.5 -29.5t-29.5 -72.5zM68 536q0 26 18 44t44 18t44 -18t18 -44t-18 -44t-44 -18t-44 18t-18 44z" />
    <glyph glyph-name="ogonek" unicode="&#x2db;" horiz-adv-x="259" 
d="M258 19q-25 -4 -63.5 -14t-75 -27t-62.5 -42.5t-26 -61.5q0 -20 7.5 -35.5t20.5 -27t30.5 -17.5t36.5 -6q42 0 79 17t72 40l-17 32q-23 -16 -48.5 -28.5t-54.5 -12.5q-23 0 -37.5 14.5t-14.5 37.5t17.5 42.5t42.5 35t51 27t42 17.5v9z" />
    <glyph glyph-name="tilde" unicode="&#x2dc;" horiz-adv-x="259" 
d="M254 571q-2 -3 -5 -12t-8.5 -18t-14.5 -16t-23 -7q-16 0 -32 7.5t-32 16.5q-17 9 -32.5 16.5t-31.5 7.5q-24 0 -41.5 -9t-29 -24t-18.5 -35t-11 -41h29q3 17 16 33t33 16q14 0 29 -7.5t32 -16.5t34.5 -16.5t34.5 -7.5q25 0 42 10t28.5 26t19 36t12.5 41h-31z" />
    <glyph glyph-name="hungarumlaut" unicode="&#x2dd;" horiz-adv-x="259" 
d="M150 433l140 96q12 8 20.5 17.5t8.5 26.5q0 32 -41 32q-14 0 -26.5 -11.5t-29.5 -30.5l-114 -130h42zM8 433l125 92q10 8 20 19t10 23q0 17 -11.5 27.5t-31.5 10.5q-18 0 -32 -15t-25 -27l-109 -130h54z" />
    <glyph glyph-name="endash" unicode="&#x2013;" 
d="M489 159l16 50h-500l-16 -50h500z" />
    <glyph glyph-name="emdash" unicode="&#x2014;" horiz-adv-x="1000" 
d="M776 159q15 0 30.5 -1t30.5 -3q6 26 15.5 51.5t19.5 51.5h-13q-14 -26 -29.5 -37.5t-46.5 -11.5h-559q-15 0 -30.5 1t-30.5 3q-6 -26 -15.5 -51.5t-19.5 -51.5h13q14 26 29.5 37.5t46.5 11.5h559z" />
    <glyph glyph-name="quoteleft" unicode="&#x2018;" horiz-adv-x="222" 
d="M159 706q-22 -12 -43.5 -29t-38.5 -38t-28 -45t-11 -51q0 -25 10.5 -44t38.5 -19q17 0 28 14t11 31q0 23 -5.5 43t-5.5 37q0 30 15.5 51t37.5 39z" />
    <glyph glyph-name="quoteright" unicode="&#x2019;" horiz-adv-x="222" 
d="M63 470q22 12 43.5 29t39 38t28 45t10.5 51q0 25 -10.5 44t-38.5 19q-17 0 -28 -14t-11 -31q0 -23 5.5 -43t5.5 -37q0 -30 -15.5 -51t-37.5 -39z" />
    <glyph glyph-name="quotesinglbase" unicode="&#x201a;" horiz-adv-x="222" 
d="M63 -106q22 12 43.5 29t39 38t28 45t10.5 51q0 25 -10.5 44t-38.5 19q-17 0 -28 -14t-11 -31q0 -23 5.5 -43t5.5 -37q0 -30 -15.5 -51t-37.5 -39z" />
    <glyph glyph-name="quotedblleft" unicode="&#x201c;" horiz-adv-x="389" 
d="M326 706q-22 -12 -43.5 -29t-38.5 -38t-28 -45t-11 -51q0 -25 10.5 -44t38.5 -19q17 0 28 14t11 31q0 23 -5.5 43t-5.5 37q0 30 15.5 51t37.5 39zM159 706q-22 -12 -43.5 -29t-38.5 -38t-28 -45t-11 -51q0 -25 10.5 -44t38.5 -19q17 0 28 14t11 31q0 23 -5.5 43t-5.5 37
q0 30 15.5 51t37.5 39z" />
    <glyph glyph-name="quotedblright" unicode="&#x201d;" horiz-adv-x="389" 
d="M63 470q22 12 43.5 29t39 38t28 45t10.5 51q0 25 -10.5 44t-38.5 19q-17 0 -28 -14t-11 -31q0 -23 5.5 -43t5.5 -37q0 -30 -15.5 -51t-37.5 -39zM230 470q22 12 43.5 29t39 38t28 45t10.5 51q0 25 -10.5 44t-38.5 19q-17 0 -28 -14t-11 -31q0 -23 5.5 -43t5.5 -37
q0 -30 -15.5 -51t-37.5 -39z" />
    <glyph glyph-name="quotedblbase" unicode="&#x201e;" horiz-adv-x="389" 
d="M63 -106q22 12 43.5 29t39 38t28 45t10.5 51q0 25 -10.5 44t-38.5 19q-17 0 -28 -14t-11 -31q0 -23 5.5 -43t5.5 -37q0 -30 -15.5 -51t-37.5 -39zM230 -106q22 12 43.5 29t39 38t28 45t10.5 51q0 25 -10.5 44t-38.5 19q-17 0 -28 -14t-11 -31q0 -23 5.5 -43t5.5 -37
q0 -30 -15.5 -51t-37.5 -39z" />
    <glyph glyph-name="dagger" unicode="&#x2020;" 
d="M260 -156q0 46 0.5 101.5t4.5 110.5t12.5 105.5t23.5 86.5q-26 31 -33.5 82t-7.5 105h29q14 0 28 -6t27.5 -13.5t28 -13.5t29.5 -6q21 0 32.5 13.5t11.5 30.5q0 20 -11.5 34.5t-32.5 14.5q-15 0 -29.5 -5.5t-28 -11.5t-27.5 -11.5t-28 -5.5h-29v26q0 30 5.5 51t12.5 36
t12.5 27.5t5.5 25.5q0 49 -43 49q-49 0 -49 -49q0 -13 5.5 -25.5t12.5 -27.5t12.5 -36t5.5 -51v-26h-29q-14 0 -28 5.5t-27.5 11.5t-28 11.5t-29.5 5.5q-21 0 -32.5 -14.5t-11.5 -34.5q0 -17 11.5 -30.5t32.5 -13.5q15 0 29.5 6t28 13.5t27.5 13.5t28 6h29q0 -54 -7.5 -105
t-33.5 -82q15 -36 23.5 -86.5t12.5 -105.5t4.5 -110.5t0.5 -101.5h20z" />
    <glyph glyph-name="daggerdbl" unicode="&#x2021;" 
d="M289 65q14 0 28 -5.5t27.5 -11.5t28 -11.5t29.5 -5.5q21 0 32.5 14.5t11.5 34.5q0 17 -11.5 30.5t-32.5 13.5q-15 0 -29.5 -6t-28 -13.5t-27.5 -13.5t-28 -6h-29q0 18 1.5 40t5 45t10.5 46t18 42q-11 12 -18 31t-10.5 42.5t-5 50t-1.5 53.5h29q14 0 28 -6t27.5 -13.5
t28 -13.5t29.5 -6q21 0 32.5 13.5t11.5 30.5q0 20 -11.5 34.5t-32.5 14.5q-15 0 -29.5 -5.5t-28 -11.5t-27.5 -11.5t-28 -5.5h-29v26q0 30 5.5 51t12.5 36t12.5 27.5t5.5 25.5q0 49 -43 49q-49 0 -49 -49q0 -13 5.5 -25.5t12.5 -27.5t12.5 -36t5.5 -51v-26h-29
q-14 0 -28 5.5t-27.5 11.5t-28 11.5t-29.5 5.5q-21 0 -32.5 -14.5t-11.5 -34.5q0 -17 11.5 -30.5t32.5 -13.5q15 0 29.5 6t28 13.5t27.5 13.5t28 6h29q0 -27 -1.5 -53.5t-5 -50t-10.5 -42.5t-18 -31q11 -19 18 -42t10.5 -46t5 -45t1.5 -40h-29q-14 0 -28 6t-27.5 13.5
t-28 13.5t-29.5 6q-21 0 -32.5 -13.5t-11.5 -30.5q0 -20 11.5 -34.5t32.5 -14.5q15 0 29.5 5.5t28 11.5t27.5 11.5t28 5.5h29v-26q0 -30 -5.5 -51t-12.5 -36t-12.5 -27.5t-5.5 -25.5q0 -49 49 -49q43 0 43 49q0 13 -5.5 25.5t-12.5 27.5t-12.5 36t-5.5 51v26h29z" />
    <glyph glyph-name="bullet" unicode="&#x2022;" 
d="M251 487q-34 0 -64 -12.5t-52 -34.5t-34.5 -51.5t-12.5 -63.5t12.5 -64t34.5 -52t52 -34.5t64 -12.5t63.5 12.5t51.5 34.5t34.5 52t12.5 64t-12.5 63.5t-34.5 51.5t-51.5 34.5t-63.5 12.5z" />
    <glyph glyph-name="ellipsis" unicode="&#x2026;" horiz-adv-x="1000" 
d="M167 106q-23 0 -39.5 -16t-16.5 -40t16.5 -40t39.5 -16t39.5 16t16.5 40t-16.5 40t-39.5 16zM500 106q-23 0 -39.5 -16t-16.5 -40t16.5 -40t39.5 -16t39.5 16t16.5 40t-16.5 40t-39.5 16zM833 106q-23 0 -39.5 -16t-16.5 -40t16.5 -40t39.5 -16t39.5 16t16.5 40t-16.5 40
t-39.5 16z" />
    <glyph glyph-name="fi" unicode="&#xf001;" horiz-adv-x="556" 
d="M436 590q-4 60 -43.5 91t-111.5 31q-52 0 -90.5 -25.5t-64 -63t-38 -80.5t-12.5 -77v-103h-45l-6 -30h51v-225q0 -23 -2 -41t-9.5 -31t-22 -20t-40.5 -8v-12q32 2 63.5 3t64.5 1q35 0 69 -1t69 -3v12q-41 1 -64 8t-34 20t-13.5 31t-2.5 41v225h126v30h-126v140q0 36 7 69
t21.5 59t36 41.5t50.5 15.5q25 0 42 -10.5t27 -28.5t14 -42t4 -51zM532 8q-22 1 -37 3.5t-24.5 10.5t-13.5 23t-4 39v296l-152 -20v-12q26 -1 41 -9t22.5 -21t9 -31t1.5 -38v-165q0 -24 -4 -39t-13 -23t-23 -10.5t-34 -3.5v-12q23 2 45 3t45 1q35 0 70.5 -1t70.5 -3v12z" />
    <glyph glyph-name="fi" unicode="&#xfb01;" horiz-adv-x="556" 
d="M436 590q-4 60 -43.5 91t-111.5 31q-52 0 -90.5 -25.5t-64 -63t-38 -80.5t-12.5 -77v-103h-45l-6 -30h51v-225q0 -23 -2 -41t-9.5 -31t-22 -20t-40.5 -8v-12q32 2 63.5 3t64.5 1q35 0 69 -1t69 -3v12q-41 1 -64 8t-34 20t-13.5 31t-2.5 41v225h126v30h-126v140q0 36 7 69
t21.5 59t36 41.5t50.5 15.5q25 0 42 -10.5t27 -28.5t14 -42t4 -51zM532 8q-22 1 -37 3.5t-24.5 10.5t-13.5 23t-4 39v296l-152 -20v-12q26 -1 41 -9t22.5 -21t9 -31t1.5 -38v-165q0 -24 -4 -39t-13 -23t-23 -10.5t-34 -3.5v-12q23 2 45 3t45 1q35 0 70.5 -1t70.5 -3v12z" />
    <glyph glyph-name="fl" unicode="&#xf002;" horiz-adv-x="574" 
d="M395 668q-24 16 -53 30t-64 14q-53 0 -91 -24.5t-62.5 -63.5t-36 -87.5t-11.5 -96.5v-77h-45l-7 -30h52v-225q0 -23 -2 -41t-9 -31t-21.5 -20t-39.5 -8v-12q32 2 63 3t63 1q35 0 69 -1t69 -3v12q-41 1 -64 8t-34 20t-13.5 31t-2.5 41v225h148v30h-148v95q0 16 0.5 39.5
t3.5 49t9.5 51t17.5 45.5t28.5 32.5t42.5 12.5q23 0 39 -10.5t27 -27t17 -36.5t7 -39l43 21v-486q0 -29 -2 -48t-10 -30t-22.5 -16.5t-40.5 -7.5v-12q28 2 55.5 3t56.5 1q30 0 60.5 -1t59.5 -3v12q-27 2 -42.5 7.5t-24 16.5t-10.5 30t-2 48v595z" />
    <glyph glyph-name="fl" unicode="&#xfb02;" horiz-adv-x="574" 
d="M395 668q-24 16 -53 30t-64 14q-53 0 -91 -24.5t-62.5 -63.5t-36 -87.5t-11.5 -96.5v-77h-45l-7 -30h52v-225q0 -23 -2 -41t-9 -31t-21.5 -20t-39.5 -8v-12q32 2 63 3t63 1q35 0 69 -1t69 -3v12q-41 1 -64 8t-34 20t-13.5 31t-2.5 41v225h148v30h-148v95q0 16 0.5 39.5
t3.5 49t9.5 51t17.5 45.5t28.5 32.5t42.5 12.5q23 0 39 -10.5t27 -27t17 -36.5t7 -39l43 21v-486q0 -29 -2 -48t-10 -30t-22.5 -16.5t-40.5 -7.5v-12q28 2 55.5 3t56.5 1q30 0 60.5 -1t59.5 -3v12q-27 2 -42.5 7.5t-24 16.5t-10.5 30t-2 48v595z" />
    <glyph glyph-name="fraction" horiz-adv-x="167" 
d="M334 666h-52l-449 -682h48z" />
    <glyph glyph-name="guilsinglleft" unicode="&#x2039;" horiz-adv-x="296" 
d="M220 56l-103 131l94 126l-11 10l-130 -113q-18 -16 -18 -28q0 -11 15 -23l142 -114z" />
    <glyph glyph-name="guilsinglright" unicode="&#x203a;" horiz-adv-x="296" 
d="M87 45l142 114q15 12 15 23q0 12 -18 28l-130 113l-11 -10l94 -126l-103 -131z" />
    <glyph glyph-name="minus" 
d="M433 159v50h-366v-50h366z" />
    <glyph glyph-name="perthousand" unicode="&#x2030;" horiz-adv-x="1000" 
d="M168 -6l371 662h-40l-373 -662h42zM716 193q0 -52 14 -89.5t35.5 -62t47 -36t48.5 -11.5t48.5 11.5t47 36t35.5 62t14 89.5t-14 89.5t-35.5 62t-47 36t-48.5 11.5t-48.5 -11.5t-47 -36t-35.5 -62t-14 -89.5zM782 195q0 50 6.5 83.5t17.5 54t25.5 29t30.5 8.5t30.5 -8.5
t25 -29t16.5 -54t6 -83.5t-6 -84t-16.5 -55t-25 -30.5t-30.5 -9.5t-30.5 9.5t-25.5 30.5t-17.5 55t-6.5 84zM2 457q0 -52 14 -89.5t35.5 -62t47 -36t48.5 -11.5t48.5 11.5t47 36t35.5 62t14 89.5t-14 89.5t-35.5 62t-47 36t-48.5 11.5t-48.5 -11.5t-47 -36t-35.5 -62
t-14 -89.5zM68 459q0 50 6.5 83.5t17.5 54t25.5 29t30.5 8.5t30.5 -8.5t25 -29t16.5 -54t6 -83.5t-6 -84t-16.5 -55t-25 -30.5t-30.5 -9.5t-30.5 9.5t-25.5 30.5t-17.5 55t-6.5 84zM375 193q0 -52 14 -89.5t35.5 -62t47 -36t48.5 -11.5t48.5 11.5t47 36t35.5 62t14 89.5
t-14 89.5t-35.5 62t-47 36t-48.5 11.5t-48.5 -11.5t-47 -36t-35.5 -62t-14 -89.5zM441 195q0 50 6.5 83.5t17.5 54t25.5 29t30.5 8.5t30.5 -8.5t25 -29t16.5 -54t6 -83.5t-6 -84t-16.5 -55t-25 -30.5t-30.5 -9.5t-30.5 9.5t-25.5 30.5t-17.5 55t-6.5 84z" />
    <glyph glyph-name="trademark" unicode="&#x2122;" horiz-adv-x="990" 
d="M231 630h52q31 0 46 -20t22 -48h18v88h-340v-88h18q7 28 21.5 48t46.5 20h52v-308q0 -19 -0.5 -29.5t-5 -15.5t-15 -7t-29.5 -4v-20h164v20q-19 2 -29.5 4t-15 7t-5 15.5t-0.5 29.5v308zM662 243h9l155 314h2v-235q0 -19 -0.5 -29.5t-5 -15.5t-14.5 -7t-30 -4v-20h163v20
q-19 2 -29.5 4t-14.5 7t-4.5 15.5t-0.5 29.5v251q0 26 12 40.5t44 16.5v20h-98l-164 -315l-157 315h-115v-20q21 0 40.5 -13.5t27.5 -36.5v-250q0 -32 -9.5 -46t-42.5 -18v-20h130v20q-32 4 -42 18t-10 46v224h2z" />
    <glyph glyph-name="gravecmb" horiz-adv-x="259" 
d="M205 433l-116 130q-17 19 -29.5 30.5t-26.5 11.5q-41 0 -41 -32q0 -11 8.5 -23.5t20.5 -20.5l140 -96h44z" />
    <glyph glyph-name="acutecmb" horiz-adv-x="259" 
d="M66 433h44l140 96q12 8 20.5 20.5t8.5 23.5q0 32 -41 32q-14 0 -26.5 -11.5t-29.5 -30.5z" />
    <glyph glyph-name="circumflexcmb" horiz-adv-x="259" 
d="M-16 433h39l107 110l106 -110h41l-113 172h-69z" />
    <glyph glyph-name="tildecmb" horiz-adv-x="259" 
d="M254 571q-2 -3 -5 -12t-8.5 -18t-14.5 -16t-23 -7q-16 0 -32 7.5t-32 16.5q-17 9 -32.5 16.5t-31.5 7.5q-24 0 -41.5 -9t-29 -24t-18.5 -35t-11 -41h29q3 17 16 33t33 16q14 0 29 -7.5t32 -16.5t34.5 -16.5t34.5 -7.5q25 0 42 10t28.5 26t19 36t12.5 41h-31z" />
    <glyph glyph-name="dieresiscmb" horiz-adv-x="259" 
d="M37 553q-23 0 -38 -15t-15 -38t15 -38t38 -15t38 15t15 38t-15 38t-38 15zM222 553q-23 0 -38 -15t-15 -38t15 -38t38 -15t38 15t15 38t-15 38t-38 15z" />
    <glyph glyph-name="ringcmb" horiz-adv-x="259" 
d="M28 536q0 -43 29.5 -72.5t72.5 -29.5t72.5 29.5t29.5 72.5t-29.5 72.5t-72.5 29.5t-72.5 -29.5t-29.5 -72.5zM68 536q0 26 18 44t44 18t44 -18t18 -44t-18 -44t-44 -18t-44 18t-18 44z" />
    <glyph glyph-name="caroncmb" horiz-adv-x="259" 
d="M277 605h-41l-106 -114l-107 114h-39l111 -172h69z" />
    <glyph glyph-name="cedillacmb" horiz-adv-x="259" 
d="M13 -202q42 -18 88 -18q21 0 43 4t39 14.5t28 27t11 42.5q0 36 -25 52.5t-57 16.5q-8 0 -16 -1t-16 -3l27 67h-34l-43 -101l13 -6q8 5 18 6.5t19 1.5q20 0 30 -13t10 -33q0 -12 -5.5 -19.5t-14.5 -12t-19.5 -6t-20.5 -1.5q-34 0 -61 15z" />
  </font>
</defs>
</svg>
