<?xml version="1.0" standalone="no"?>
<!DOCTYPE svg PUBLIC "-//W3C//DTD SVG 1.1//EN" "http://www.w3.org/Graphics/SVG/1.1/DTD/svg11.dtd" >
<svg xmlns="http://www.w3.org/2000/svg">
<metadata>Generated by IcoMoon</metadata>
<defs>
<font id="ehhc" horiz-adv-x="1024">
<font-face units-per-em="1024" ascent="960" descent="-64" />
<missing-glyph horiz-adv-x="1024" />
<glyph unicode="&#x20;" horiz-adv-x="512" d="" />
<glyph unicode="&#xe900;" glyph-name="add" d="M600.064-64h-178.176v442.368h-421.888v155.648h423.936v425.984h178.176v-425.984h421.888v-155.648h-423.936v-442.368z" />
<glyph unicode="&#xe901;" glyph-name="arrow_double_top" d="M131.072 501.248c-12.288 0-22.528 4.096-32.768 14.336-16.384 18.432-16.384 45.056 2.048 63.488l387.072 368.64c16.384 16.384 45.056 16.384 61.44 0l372.736-370.688c18.432-16.384 18.432-45.056 0-63.488-16.384-18.432-45.056-18.432-63.488 0l-339.968 339.968-356.352-339.968c-8.192-8.192-18.432-12.288-30.72-12.288zM131.072-64c-12.288 0-22.528 4.096-32.768 14.336-16.384 18.432-16.384 45.056 2.048 63.488l387.072 370.688c16.384 16.384 45.056 16.384 61.44 0l372.736-370.688c18.432-16.384 18.432-45.056 0-63.488s-45.056-18.432-63.488 0l-339.968 337.92-356.352-339.968c-8.192-8.192-18.432-12.288-30.72-12.288z" />
<glyph unicode="&#xe902;" glyph-name="arrow_bottom" d="M913.408 777.728c-32.768 0-61.44-14.336-79.872-34.816v0l-321.536-352.256-321.536 350.208c-20.48 22.528-49.152 34.816-79.872 34.816-61.44 0-110.592-49.152-110.592-110.592 0-28.672 10.24-55.296 28.672-73.728v0l401.408-438.272c20.48-22.528 49.152-34.816 81.92-34.816 30.72 0 59.392 12.288 79.872 34.816l401.408 438.272c18.432 18.432 28.672 45.056 28.672 73.728 2.048 63.488-47.104 112.64-108.544 112.64z" />
<glyph unicode="&#xe903;" glyph-name="arrow_circle_right" d="M514.048-64c-282.624 0-512 229.376-512 512s229.376 512 512 512 512-229.376 512-512-229.376-512-512-512zM514.048 904.704c-251.904 0-456.704-204.8-456.704-456.704s204.8-458.752 458.752-458.752 458.752 204.8 458.752 458.752-206.848 456.704-460.8 456.704zM401.408 620.032c0-14.336 6.144-26.624 14.336-34.816v0l149.504-137.216-149.504-137.216c-10.24-8.192-14.336-20.48-14.336-34.816 0-26.624 20.48-47.104 47.104-47.104 12.288 0 22.528 4.096 30.72 12.288v0l188.416 172.032c10.24 8.192 14.336 20.48 14.336 34.816 0 12.288-6.144 26.624-14.336 34.816l-188.416 172.032c-8.192 8.192-18.432 12.288-30.72 12.288-26.624 0-47.104-22.528-47.104-47.104z" />
<glyph unicode="&#xe904;" glyph-name="arrow_dense_bottom" d="M0 697.856h1024l-507.904-512z" />
<glyph unicode="&#xe905;" glyph-name="calendar" d="M937.984 863.744h-139.264v63.488c0 18.432-14.336 32.768-32.768 32.768s-32.768-14.336-32.768-32.768v-63.488h-192.512v63.488c4.096 18.432-10.24 32.768-28.672 32.768s-32.768-14.336-32.768-32.768v-63.488h-192.512v63.488c0 18.432-14.336 32.768-32.768 32.768s-32.768-14.336-32.768-32.768v-63.488h-135.168c-47.104 0-86.016-38.912-86.016-86.016v-757.76c0-45.056 38.912-83.968 86.016-83.968h854.016c47.104 0 86.016 38.912 86.016 86.016v757.76c-2.048 45.056-40.96 83.968-88.064 83.968zM960.512 22.016c0-12.288-10.24-20.48-20.48-20.48h-854.016c-12.288 0-20.48 10.24-20.48 20.48v757.76c0 12.288 10.24 20.48 20.48 20.48h139.264v-63.488c0-18.432 14.336-32.768 32.768-32.768s32.768 14.336 32.768 32.768v63.488h192.512v-63.488c0-18.432 14.336-32.768 32.768-32.768s32.768 14.336 32.768 32.768v63.488h192.512v-63.488c0-18.432 14.336-32.768 32.768-32.768s32.768 14.336 32.768 32.768v63.488h139.264c12.288 0 20.48-10.24 20.48-20.48v-757.76zM223.232 574.976h129.024v-96.256h-129.024v96.256zM223.232 415.232h129.024v-96.256h-129.024v96.256zM223.232 255.488h129.024v-96.256h-129.024v96.256zM448.512 255.488h129.024v-96.256h-129.024v96.256zM448.512 415.232h129.024v-96.256h-129.024v96.256zM448.512 574.976h129.024v-96.256h-129.024v96.256zM671.744 255.488h129.024v-96.256h-129.024v96.256zM671.744 415.232h129.024v-96.256h-129.024v96.256zM671.744 574.976h129.024v-96.256h-129.024v96.256z" />
<glyph unicode="&#xe906;" glyph-name="cancel" d="M1024 34.304l-413.696 413.696 413.696 413.696-98.304 98.304-413.696-413.696-413.696 413.696-98.304-98.304 413.696-413.696-413.696-413.696 100.352-98.304 411.648 413.696 413.696-413.696z" />
<glyph unicode="&#xe907;" glyph-name="check" d="M1024 691.712l-149.504 149.504-487.424-489.472-237.568 239.616-149.504-149.504 387.072-387.072 6.144 8.192v-2.048z" />
<glyph unicode="&#xe908;" glyph-name="delete_symbol" d="M0 534.016h1024v-155.648h-1024v155.648z" />
<glyph unicode="&#xe909;" glyph-name="delete" d="M989.184 660.992l-210.944 208.896c-22.528 22.528-53.248 34.816-83.968 34.816s-61.44-12.288-83.968-34.816l-575.488-573.44c-22.528-20.48-34.816-51.2-34.816-81.92s12.288-61.44 34.816-83.968l135.168-135.168c4.096-4.096 8.192-4.096 12.288-4.096h563.2c8.192 0 16.384 8.192 16.384 16.384s-8.192 16.384-16.384 16.384h-229.376l471.040 468.992c49.152 47.104 49.152 120.832 2.048 167.936zM471.040 24.064h-284.672l-129.024 129.024c-16.384 16.384-24.576 38.912-24.576 61.44s8.192 45.056 24.576 61.44l282.624 280.576 333.824-331.776-202.752-200.704z" />
<glyph unicode="&#xe90a;" glyph-name="dot" d="M223.232 456.192c0-30.72-10.24-57.344-32.768-79.872-20.48-20.48-47.104-30.72-77.824-30.72s-57.344 10.24-79.872 32.768c-22.528 20.48-32.768 47.104-32.768 77.824s10.24 57.344 32.768 79.872c22.528 22.528 49.152 32.768 79.872 32.768s57.344-10.24 79.872-32.768c20.48-22.528 30.72-47.104 30.72-79.872zM624.64 456.192c0-30.72-10.24-57.344-32.768-79.872-22.528-20.48-49.152-30.72-79.872-30.72s-57.344 10.24-79.872 32.768c-22.528 22.528-32.768 49.152-32.768 79.872s10.24 57.344 32.768 79.872c22.528 22.528 49.152 32.768 79.872 32.768s57.344-10.24 79.872-32.768c20.48-24.576 32.768-49.152 32.768-81.92zM1024 456.192c0-30.72-10.24-57.344-32.768-79.872s-47.104-32.768-79.872-32.768c-30.72 0-57.344 10.24-79.872 32.768s-32.768 49.152-32.768 79.872c0 30.72 10.24 57.344 32.768 79.872s49.152 32.768 79.872 32.768c30.72 0 57.344-10.24 79.872-32.768s32.768-47.104 32.768-79.872z" />
<glyph unicode="&#xe90b;" glyph-name="image" d="M962.56 704v-638.976h-768v638.976h768zM1026.048 767.488h-894.976v-768h897.024v768h-2.048zM258.048 192h641.024l-129.024 382.976-192.512-256-126.976 129.024-192.512-256zM321.536 577.024c-34.816 0-63.488-28.672-63.488-63.488s28.672-65.536 63.488-65.536 63.488 28.672 63.488 63.488-26.624 65.536-63.488 65.536zM2.048 896.512v-768h63.488v704.512h831.488v63.488h-894.976z" />
<glyph unicode="&#xe90c;" glyph-name="location" d="M860.16 706.048c-4.096 14.336-10.24 28.672-16.384 40.96-65.536 155.648-208.896 212.992-323.584 212.992-155.648 0-325.632-104.448-348.16-317.44v-43.008c0-2.048 0-18.432 2.048-26.624 12.288-102.4 94.208-210.944 153.6-311.296 65.536-108.544 131.072-217.088 198.656-323.584 40.96 69.632 81.92 141.312 120.832 208.896 10.24 20.48 24.576 40.96 34.816 59.392 8.192 12.288 20.48 24.576 26.624 36.864 65.536 118.784 167.936 237.568 167.936 354.304v49.152c0 10.24-14.336 55.296-16.384 59.392zM522.24 484.864c-45.056 0-96.256 22.528-120.832 86.016-4.096 10.24-4.096 30.72-4.096 32.768v28.672c0 79.872 67.584 116.736 126.976 116.736 73.728 0 129.024-57.344 129.024-131.072 2.048-73.728-57.344-133.12-131.072-133.12z" />
<glyph unicode="&#xe90d;" glyph-name="logout" d="M512 939.52c-270.336 0-491.52-221.184-491.52-491.52s221.184-491.52 491.52-491.52 491.52 221.184 491.52 491.52-221.184 491.52-491.52 491.52zM512 5.632c-235.52 0-425.984 182.272-440.32 415.744l471.040-2.048-77.824-77.824 34.816-34.816 139.264 139.264-141.312 141.312-34.816-34.816 79.872-79.872-471.040-2.048c14.336 237.568 204.8 419.84 440.32 419.84 243.712 0 442.368-198.656 442.368-442.368s-198.656-442.368-442.368-442.368z" />
<glyph unicode="&#xe90e;" glyph-name="save" d="M1015.808 730.624l-223.232 221.184c-4.096 6.144-12.288 8.192-18.432 8.192h-714.752c-32.768 0-59.392-24.576-59.392-57.344v-907.264c0-32.768 26.624-59.392 59.392-59.392h907.264c32.768 0 57.344 26.624 57.344 59.392v714.752c0 8.192-2.048 16.384-8.192 20.48zM630.784 904.704h55.296v-251.904h-55.296v251.904zM309.248 904.704h266.24v-251.904h-266.24v251.904zM790.528-8.704h-561.152v90.112h561.152v-90.112zM790.528 138.752h-561.152v86.016h561.152v-86.016zM790.528 280.064h-561.152v90.112h561.152v-90.112zM966.656-8.704h-120.832v409.6c0 16.384-10.24 26.624-26.624 26.624h-616.448c-16.384 0-28.672-10.24-28.672-26.624v-407.552h-114.688c-2.048 0-4.096 2.048-4.096 4.096v905.216c0 2.048 2.048 0 4.096 0h192.512v-278.528c0-16.384 14.336-28.672 28.672-28.672h436.224c16.384 0 26.624 14.336 26.624 28.672v280.576h18.432l204.8-204.8v-704.512c2.048-2.048 2.048-4.096 0-4.096z" />
<glyph unicode="&#xe90f;" glyph-name="search" d="M899.3 87.149l-168.147 228.603c62.344 64.237 102.022 151.14 102.022 247.493v0c0 196.482-160.59 357.072-358.96 357.072-196.482 0-357.072-160.59-357.072-357.072s160.59-357.072 357.072-357.072c51.011 0 98.241 11.337 141.695 30.228l170.035-230.491c22.671-30.228 66.125-37.785 96.353-15.114 34.009 20.783 39.673 64.237 17.002 96.353zM194.601 563.245c0 154.921 124.693 279.614 279.614 281.502 154.921 0 281.502-126.581 281.502-281.502s-126.581-281.502-281.502-281.502c-154.921 0-279.614 126.581-279.614 281.502z" />
<glyph unicode="&#xe910;" glyph-name="user" d="M1024 448c0 282.624-229.376 512-512 512s-512-229.376-512-512c0-149.504 63.488-282.624 165.888-376.832v0l16.384-14.336c2.048 0 2.048-2.048 4.096-2.048 8.192-8.192 18.432-14.336 26.624-20.48 2.048-2.048 6.144-4.096 8.192-6.144 10.24-6.144 20.48-14.336 30.72-20.48 2.048-2.048 4.096-2.048 6.144-4.096 12.288-6.144 22.528-12.288 34.816-18.432 0 0 2.048 0 2.048-2.048 38.912-18.432 79.872-30.72 122.88-38.912 2.048 0 2.048 0 4.096 0 14.336-2.048 26.624-4.096 40.96-6.144 2.048 0 4.096 0 4.096 0 14.336-2.048 26.624-2.048 40.96-2.048s28.672 0 40.96 2.048c2.048 0 4.096 0 6.144 0 14.336 2.048 26.624 2.048 40.96 6.144 2.048 0 2.048 0 4.096 0 43.008 8.192 83.968 20.48 122.88 38.912 2.048 0 2.048 2.048 4.096 2.048 12.288 6.144 22.528 10.24 32.768 18.432 2.048 2.048 6.144 4.096 8.192 4.096 10.24 6.144 20.48 12.288 28.672 18.432 4.096 2.048 6.144 4.096 10.24 8.192 8.192 6.144 16.384 12.288 24.576 18.432 2.048 2.048 4.096 2.048 6.144 4.096l16.384 14.336c104.448 92.16 169.984 227.328 169.984 376.832zM36.864 448c0 262.144 212.992 475.136 475.136 475.136s475.136-212.992 475.136-475.136c0-141.312-61.44-268.288-159.744-354.304-6.144 4.096-10.24 6.144-16.384 10.24l-157.696 77.824c-14.336 6.144-22.528 20.48-22.528 36.864v55.296c4.096 4.096 8.192 10.24 12.288 14.336 20.48 28.672 36.864 61.44 49.152 96.256 24.576 10.24 38.912 34.816 38.912 61.44v65.536c0 16.384-6.144 32.768-16.384 45.056v86.016c0 10.24 4.096 63.488-34.816 108.544-34.816 38.912-90.112 59.392-165.888 59.392s-131.072-20.48-165.888-59.392c-38.912-45.056-36.864-100.352-34.816-108.544v-86.016c-10.24-12.288-16.384-28.672-16.384-45.056v-65.536c0-20.48 8.192-38.912 24.576-53.248 14.336-59.392 47.104-104.448 57.344-118.784v-53.248c0-14.336-8.192-28.672-22.528-36.864l-147.456-79.872c-4.096-2.048-10.24-6.144-14.336-8.192-96.256 86.016-157.696 212.992-157.696 352.256z" />
<glyph unicode="&#xe911;" glyph-name="export" d="M417.792 95.744c-2.048 4.096-2.048 6.144-2.048 8.192s-2.048 4.096-4.096 6.144-6.144 2.048-6.144 4.096c0 0-2.048 2.048-8.192 2.048-4.096 0-8.192 0-8.192 0h-200.704c-28.672 0-53.248 10.24-73.728 30.72s-30.72 45.056-30.72 73.728v460.8c0 28.672 10.24 53.248 30.72 73.728s45.056 30.72 73.728 30.72h208.896c6.144 0 10.24 2.048 14.336 4.096s6.144 6.144 6.144 12.288c2.048 6.144 2.048 10.24 2.048 14.336s0 10.24 0 16.384c0 6.144 0 12.288 0 12.288 0 6.144-2.048 10.24-6.144 14.336s-8.192 6.144-14.336 6.144h-210.944c-51.2 0-96.256-18.432-133.12-55.296-36.864-32.768-55.296-77.824-55.296-129.024v-458.752c0-51.2 18.432-96.256 55.296-133.12s81.92-55.296 133.12-55.296h208.896c6.144 0 10.24 2.048 14.336 4.096s6.144 6.144 6.144 12.288c2.048 6.144 2.048 10.24 2.048 14.336s0 10.24 0 16.384c-2.048 8.192-2.048 12.288-2.048 14.336zM1011.712 480.768l-356.352 354.304c-8.192 8.192-18.432 12.288-28.672 12.288-12.288 0-20.48-4.096-28.672-12.288s-12.288-18.432-12.288-28.672v-188.416h-292.864c-12.288 0-20.48-4.096-28.672-12.288s-12.288-18.432-12.288-28.672v-251.904c0-12.288 4.096-20.48 12.288-28.672s18.432-12.288 28.672-12.288h292.864v-188.416c0-12.288 4.096-20.48 12.288-28.672s18.432-12.288 28.672-12.288c12.288 0 20.48 4.096 28.672 12.288l354.304 354.304c8.192 8.192 12.288 18.432 12.288 28.672 2.048 12.288-2.048 22.528-10.24 30.72z" />
<glyph unicode="&#xe912;" glyph-name="home" d="M512 687.616l-364.544-301.056c0 0 0-2.048 0-2.048s0-2.048 0-2.048v-305.152c0-10.24 4.096-20.48 12.288-28.672 6.144-6.144 16.384-10.24 26.624-10.24h243.712v243.712h163.84v-243.712h243.712c10.24 0 20.48 4.096 28.672 12.288s12.288 18.432 12.288 28.672v303.104c0 2.048 0 2.048 0 4.096l-366.592 301.056zM1017.856 456.192l-139.264 114.688v260.096c0 6.144-2.048 10.24-6.144 14.336s-8.192 6.144-14.336 6.144h-122.88c-6.144 0-10.24-2.048-14.336-6.144s-6.144-8.192-6.144-14.336v-122.88l-155.648 129.024c-14.336 10.24-28.672 16.384-49.152 16.384-18.432 0-34.816-6.144-49.152-16.384l-454.656-380.928c-4.096-4.096-6.144-8.192-6.144-14.336s2.048-10.24 4.096-14.336l38.912-47.104c4.096-4.096 8.192-6.144 14.336-6.144 4.096 0 10.24 2.048 14.336 4.096l440.32 364.544 440.32-366.592c4.096-2.048 8.192-4.096 14.336-4.096h2.048c6.144 0 10.24 4.096 14.336 6.144l38.912 47.104c4.096 4.096 4.096 10.24 4.096 14.336-2.048 8.192-4.096 12.288-8.192 16.384z" />
<glyph unicode="&#xe913;" glyph-name="import" d="M966.656 818.688c-36.864 36.864-81.92 57.344-135.168 57.344h-212.992c-6.144 0-10.24-2.048-14.336-4.096s-6.144-8.192-6.144-12.288c-2.048-6.144-2.048-10.24-2.048-16.384 0-4.096 0-10.24 0-18.432 0-6.144 0-12.288 0-14.336 2.048-4.096 2.048-6.144 2.048-8.192s2.048-4.096 4.096-6.144c4.096-2.048 6.144-2.048 6.144-4.096 0 0 2.048-2.048 8.192-2.048 4.096 0 8.192 0 8.192 0h208.896c28.672 0 55.296-10.24 75.776-30.72s30.72-45.056 30.72-75.776v-468.992c0-28.672-10.24-55.296-30.72-75.776s-45.056-30.72-75.776-30.72h-215.040c-6.144 0-10.24-2.048-14.336-4.096s-6.144-8.192-6.144-12.288c-2.048-6.144-2.048-10.24-2.048-16.384 0-4.096 0-10.24 0-18.432 0-6.144 0-12.288 0-14.336 0-6.144 2.048-10.24 6.144-14.336s10.24-6.144 14.336-6.144h212.992c53.248 0 98.304 18.432 135.168 57.344 36.864 36.864 57.344 81.92 57.344 135.168v468.992c2.048 51.2-16.384 96.256-55.296 135.168zM788.48 448c0 12.288-4.096 22.528-12.288 30.72l-362.496 362.496c-8.192 8.192-18.432 12.288-30.72 12.288s-22.528-4.096-30.72-12.288c-8.192-8.192-12.288-18.432-12.288-30.72v-192.512h-296.96c-12.288 0-22.528-4.096-30.72-12.288s-12.288-18.432-12.288-28.672v-256c0-12.288 4.096-22.528 12.288-30.72s18.432-12.288 30.72-12.288h299.008v-192.512c0-12.288 4.096-22.528 12.288-30.72s18.432-12.288 30.72-12.288c12.288 0 22.528 4.096 30.72 12.288l362.496 362.496c6.144 8.192 10.24 18.432 10.24 30.72z" />
<glyph unicode="&#xe914;" glyph-name="report" d="M825.344 826.88v133.12h-825.344v-874.496c0-81.92 67.584-149.504 149.504-149.504h727.040c81.92 0 149.504 67.584 149.504 149.504v741.376h-200.704zM149.504 34.304c-26.624 0-49.152 22.528-49.152 49.152v778.24h626.688v-776.192c0-16.384 2.048-34.816 8.192-49.152l-585.728-2.048zM925.696 85.504c0-26.624-22.528-49.152-49.152-49.152s-49.152 22.528-49.152 49.152v643.072h98.304v-643.072zM198.656 761.344h430.080v-198.656h-430.080v198.656zM198.656 497.152h430.080v-98.304h-430.080v98.304zM198.656 333.312h430.080v-98.304h-430.080v98.304z" />
<glyph unicode="&#xe915;" glyph-name="setting" d="M600.064 448c0-48.636-39.428-88.064-88.064-88.064s-88.064 39.428-88.064 88.064c0 48.636 39.428 88.064 88.064 88.064s88.064-39.428 88.064-88.064zM1003.52 536.064l-122.88 22.528c-8.192 24.576-16.384 49.152-28.672 71.68l69.632 104.448c6.144 10.24 6.144 24.576-2.048 32.768l-88.064 88.064c-8.192 8.192-24.576 8.192-32.768 2.048l-104.448-71.68c-22.528 12.288-47.104 22.528-73.728 30.72l-22.528 122.88c-2.048 12.288-14.336 20.48-24.576 20.48h-124.928c-12.288 0-22.528-10.24-24.576-20.48l-22.528-124.928c-24.576-8.192-49.152-16.384-69.632-28.672l-102.4 69.632c-10.24 6.144-24.576 6.144-32.768-2.048l-92.16-88.064c-8.192-8.192-8.192-22.528-2.048-32.768l71.68-104.448c-12.288-22.528-22.528-45.056-28.672-69.632l-122.88-22.528c-12.288-2.048-20.48-14.336-20.48-24.576v-124.928c0-12.288 10.24-22.528 20.48-24.576l122.88-22.528c8.192-24.576 18.432-49.152 28.672-71.68l-69.632-102.4c-6.144-10.24-6.144-24.576 2.048-32.768l88.064-88.064c8.192-8.192 22.528-10.24 32.768-2.048l102.4 69.632c22.528-12.288 45.056-22.528 69.632-28.672l22.528-124.928c2.048-12.288 14.336-20.48 24.576-20.48h124.928c12.288 0 22.528 10.24 24.576 20.48l22.528 122.88c24.576 8.192 49.152 16.384 73.728 28.672l104.448-71.68c10.24-6.144 24.576-6.144 32.768 2.048l88.064 88.064c8.192 8.192 10.24 22.528 2.048 32.768l-69.632 102.4c12.288 22.528 22.528 47.104 30.72 73.728l122.88 22.528c12.288 2.048 20.48 14.336 20.48 24.576v124.928c0 12.288-10.24 24.576-20.48 26.624zM512 235.008c-118.784 0-212.992 96.256-212.992 212.992 0 118.784 96.256 212.992 212.992 212.992 118.784 0 212.992-96.256 212.992-212.992 0-118.784-94.208-212.992-212.992-212.992z" />
<glyph unicode="&#xe916;" glyph-name="visit_plan" d="M897.024 830.976h-63.488v65.536c0 34.816-28.672 63.488-63.488 63.488h-641.024c-36.864 0-65.536-28.672-65.536-63.488v-768c0-34.816 28.672-63.488 63.488-63.488h63.488v-63.488c0-34.816 28.672-63.488 63.488-63.488h641.024c34.816 0 63.488 28.672 63.488 63.488v765.952c2.048 34.816-26.624 63.488-61.44 63.488zM208.896 476.672c-2.048-2.048-6.144-2.048-8.192-2.048s-6.144 2.048-8.192 4.096l-20.48 24.576c-2.048 2.048-2.048 4.096-2.048 8.192s2.048 6.144 4.096 8.192l245.76 204.8c8.192 6.144 16.384 8.192 26.624 8.192s18.432-2.048 26.624-8.192l83.968-69.632v67.584c0 4.096 2.048 6.144 4.096 8.192s4.096 4.096 8.192 4.096h65.536c4.096 0 6.144-2.048 8.192-4.096s4.096-4.096 4.096-8.192v-139.264l75.776-61.44c2.048-2.048 4.096-4.096 4.096-8.192s0-6.144-2.048-8.192l-20.48-24.576c-2.048-2.048-4.096-4.096-8.192-4.096h-2.048c-2.048 0-6.144 0-8.192 2.048l-237.568 198.656-239.616-200.704zM253.952 298.496c-4.096 4.096-6.144 10.24-6.144 16.384v163.84c0 0 0 0 0 0s0 0 0 2.048l196.608 161.792 196.608-161.792c0 0 0-2.048 0-2.048v-163.84c0-6.144-2.048-10.24-6.144-16.384-4.096-4.096-10.24-6.144-16.384-6.144h-131.072v131.072h-88.064v-131.072h-131.072c-4.096 0-8.192 2.048-14.336 6.144zM897.024-0.512h-641.024v63.488h512c34.816 0 63.488 28.672 63.488 63.488v641.024h63.488v-768z" />
<glyph unicode="&#xe917;" glyph-name="warn_symbol" d="M563.2 704h-102.4v-307.2h102.4v307.2zM512-64c281.5 0 512 230.5 512 512s-230.5 512-512 512-512-230.5-512-512 230.5-512 512-512zM512 857.6c225.28 0 409.6-184.32 409.6-409.6s-184.32-409.6-409.6-409.6-409.6 184.32-409.6 409.6 184.32 409.6 409.6 409.6zM563.2 294.4h-102.4v-102.4h102.4v102.4z" />
<glyph unicode="&#xe918;" glyph-name="assessment" d="M149.504 779.776h229.376v-43.008h-229.376v43.008zM149.504 652.8h229.376v-43.008h-229.376v43.008zM149.504 525.824h538.624v-43.008h-538.624v43.008zM149.504 398.848h538.624v-43.008h-538.624v43.008zM997.376 460.288c-34.816 34.816-90.112 34.816-122.88 0l-47.104-47.104v237.568c0 6.144-2.048 10.24-6.144 14.336l-286.72 286.72c-4.096 6.144-8.192 8.192-16.384 8.192h-495.616c-14.336 0-22.528-10.24-22.528-22.528v-980.992c0-12.288 8.192-20.48 22.528-20.48h784.384c12.288 0 22.528 8.192 22.528 24.576v206.848l169.984 169.984c32.768 34.816 32.768 90.112-2.048 122.88v0zM540.672 886.272l212.992-212.992h-212.992v212.992zM784.384-20.992h-741.376v935.936h452.608v-266.24c0-12.288 8.192-22.528 22.528-22.528h266.24v-258.048l-206.848-204.8-18.432-141.312 141.312 18.432 83.968 83.968v-145.408zM966.656 368.128l-286.72-286.72-73.728-12.288 12.288 73.728 286.72 286.72c16.384 16.384 45.056 16.384 61.44 0 18.432-16.384 18.432-43.008 0-61.44z" />
<glyph unicode="&#xe919;" glyph-name="back" d="M702.464 960l-499.712-520.192 501.76-503.808 116.736 114.688-389.12 391.168 389.12 403.456z" />
<glyph unicode="&#xe91a;" glyph-name="careplan" d="M880.64 818.688c-79.872 0-143.36-63.488-143.36-143.36s63.488-143.36 143.36-143.36c79.872 0 143.36 63.488 143.36 143.36s-63.488 143.36-143.36 143.36v0zM880.64 591.36c-45.056 0-83.968 36.864-83.968 83.968 0 45.056 36.864 83.968 83.968 83.968 45.056 0 83.968-36.864 83.968-83.968s-38.912-83.968-83.968-83.968zM36.864 626.176c6.144-6.144 14.336-8.192 20.48-8.192s16.384 2.048 20.48 8.192l77.824 77.824 77.824-77.824c6.144-6.144 14.336-8.192 20.48-8.192 8.192 0 16.384 2.048 20.48 8.192 12.288 12.288 12.288 30.72 0 43.008l-77.824 77.824 77.824 77.824c12.288 12.288 12.288 30.72 0 43.008-8.192 10.24-26.624 10.24-38.912-2.048l-77.824-77.824-77.824 77.824c-12.288 12.288-30.72 12.288-43.008 0s-12.288-30.72 0-43.008l77.824-77.824-77.824-77.824c-12.288-10.24-12.288-30.72 0-40.96zM675.84 269.824c-12.288 12.288-30.72 12.288-43.008 0l-77.824-77.824-77.824 77.824c-12.288 12.288-30.72 12.288-43.008 0s-12.288-30.72 0-43.008l77.824-77.824-77.824-77.824c-12.288-12.288-12.288-30.72 0-43.008 6.144-6.144 14.336-8.192 20.48-8.192s16.384 2.048 20.48 8.192l77.824 77.824 77.824-77.824c6.144-6.144 14.336-8.192 20.48-8.192 8.192 0 16.384 2.048 20.48 8.192 12.288 12.288 12.288 30.72 0 43.008l-77.824 77.824 77.824 77.824c14.336 12.288 14.336 32.768 4.096 43.008v0zM677.888 691.712l-120.832 104.448c-12.288 10.24-30.72 10.24-43.008-2.048-10.24-12.288-10.24-30.72 2.048-43.008l63.488-55.296c-190.464-24.576-301.056-122.88-364.544-206.848-55.296-73.728-79.872-145.408-90.112-182.272-71.68-8.192-126.976-69.632-126.976-143.36 0-79.872 63.488-143.36 143.36-143.36s143.36 63.488 143.36 143.36c0 63.488-40.96 116.736-98.304 137.216 10.24 34.816 34.816 94.208 79.872 153.6 77.824 104.448 186.368 163.84 323.584 182.272l-59.392-69.632c-10.24-12.288-10.24-30.72 2.048-43.008 6.144-4.096 12.288-8.192 20.48-8.192s16.384 4.096 22.528 10.24l104.448 120.832c10.24 14.336 10.24 34.816-2.048 45.056v0zM227.328 165.376c0-45.056-36.864-83.968-83.968-83.968-45.056 0-83.968 36.864-83.968 83.968 0 45.056 36.864 83.968 83.968 83.968s83.968-38.912 83.968-83.968z" />
<glyph unicode="&#xe91b;" glyph-name="diagnose" d="M819.2 824.832c0-14.336-12.288-26.624-26.624-26.624s-26.624 12.288-26.624 26.624c0 14.336 12.288 26.624 26.624 26.624 14.336 2.048 26.624-10.24 26.624-26.624zM927.744 824.832c0-65.536-47.104-120.832-110.592-133.12v-489.472c0-147.456-118.784-266.24-266.24-266.24s-266.24 118.784-266.24 266.24v126.976c-79.872 12.288-141.312 81.92-141.312 163.84v284.672c-26.624 10.24-47.104 36.864-47.104 67.584v43.008c0 38.912 32.768 71.68 71.68 71.68s71.68-32.768 71.68-71.68v-43.008c0-30.72-20.48-57.344-47.104-67.584v-284.672c0-63.488 51.2-114.688 114.688-114.688s114.688 51.2 114.688 114.688v284.672c-26.624 10.24-47.104 36.864-47.104 67.584v43.008c2.048 38.912 34.816 71.68 73.728 71.68s71.68-32.768 71.68-71.68v-43.008c0-30.72-20.48-57.344-47.104-67.584v-284.672c0-81.92-61.44-151.552-139.264-163.84v-126.976c0-118.784 96.256-217.088 217.088-217.088 118.784 0 217.088 96.256 217.088 217.088v489.472c-63.488 12.288-110.592 67.584-110.592 133.12 0 73.728 61.44 135.168 135.168 135.168s135.168-61.44 135.168-135.168zM428.032 845.312c0-12.288 10.24-22.528 22.528-22.528s20.48 10.24 20.48 22.528v43.008c0 12.288-10.24 22.528-22.528 22.528s-22.528-10.24-22.528-22.528v-43.008zM190.464 888.32c0 12.288-10.24 22.528-22.528 22.528s-22.528-10.24-22.528-22.528v-43.008c0-12.288 10.24-22.528 22.528-22.528s22.528 10.24 22.528 22.528v43.008zM876.544 824.832c0 47.104-38.912 83.968-83.968 83.968-47.104 0-83.968-38.912-83.968-83.968 0-47.104 36.864-83.968 83.968-83.968 0 0 0 0 0 0s0 0 0 0c47.104 0 83.968 36.864 83.968 83.968z" />
<glyph unicode="&#xe91c;" glyph-name="drug" d="M911.36 198.144c0 0 0 0 0 0s0 0 0 0c-28.672 28.672-67.584 45.056-108.544 45.056-83.968 0-153.6-69.632-153.6-153.6 0-43.008 16.384-79.872 45.056-108.544 0 0 0 0 0 0s0 0 0 0c28.672-28.672 65.536-45.056 108.544-45.056 83.968 0 153.6 69.632 153.6 153.6 0 43.008-18.432 79.872-45.056 108.544zM681.984 89.6c0 65.536 53.248 118.784 118.784 118.784 26.624 0 51.2-8.192 71.68-24.576l-165.888-165.888c-14.336 20.48-24.576 45.056-24.576 71.68zM802.816-29.184c-26.624 0-51.2 8.192-71.68 24.576l167.936 167.936c14.336-20.48 24.576-45.056 24.576-71.68-2.048-67.584-55.296-120.832-120.832-120.832zM649.216-29.184h-495.616c-28.672 0-51.2 22.528-51.2 51.2v51.2h495.616c10.24 0 16.384 8.192 16.384 16.384s-8.192 16.384-16.384 16.384h-495.616v376.832h716.8v-192.512c0-10.24 8.192-16.384 16.384-16.384s16.384 8.192 16.384 16.384v294.912c0 43.008-32.768 83.968-79.872 102.4l-90.112 30.72v36.864h16.384c10.24 0 16.384 8.192 16.384 16.384v137.216c2.048 28.672-20.48 51.2-49.152 51.2h-409.6c-28.672 0-51.2-22.528-51.2-51.2v-137.216c0-10.24 8.192-16.384 16.384-16.384h374.784c10.24 0 16.384 8.192 16.384 16.384v69.632c2.048 8.192-6.144 16.384-14.336 16.384-10.24 0-16.384-8.192-16.384-16.384v-51.2h-69.632v51.2c0 8.192-8.192 16.384-16.384 16.384-10.24 0-16.384-8.192-16.384-16.384v-51.2h-69.632v51.2c0 8.192-8.192 16.384-16.384 16.384-10.24 0-16.384-8.192-16.384-16.384v-51.2h-69.632v51.2c0 8.192-8.192 16.384-16.384 16.384-10.24 0-16.384-8.192-16.384-16.384v-51.2h-34.816v118.784c0 10.24 8.192 16.384 16.384 16.384h409.6c10.24 0 16.384-8.192 16.384-16.384v-118.784h-16.384c-10.24 0-16.384-8.192-16.384-16.384v-67.584c0-8.192 4.096-14.336 12.288-16.384l102.4-34.816c34.816-12.288 57.344-40.96 57.344-69.632v-67.584h-718.848v67.584c0 26.624 22.528 55.296 57.344 67.584l102.4 34.816c8.192 2.048 14.336 12.288 10.24 22.528-2.048 8.192-12.288 14.336-22.528 10.24l-102.4-34.816c-47.104-18.432-79.872-59.392-79.872-100.352v-563.2c0-47.104 38.912-86.016 86.016-86.016h495.616c10.24 0 16.384 8.192 16.384 16.384 0 10.24-8.192 18.432-16.384 18.432zM425.984 175.616h67.584c10.24 0 16.384 8.192 16.384 16.384v51.2h51.2c10.24 0 16.384 8.192 16.384 16.384v67.584c0 10.24-8.192 16.384-16.384 16.384h-49.152v51.2c0 10.24-8.192 16.384-16.384 16.384h-67.584c-10.24 0-16.384-8.192-16.384-16.384v-49.152h-51.2c-10.24 0-16.384-8.192-16.384-16.384v-67.584c0-10.24 8.192-16.384 16.384-16.384h49.152v-51.2c0-12.288 8.192-18.432 16.384-18.432zM374.784 278.016v34.816h51.2c10.24 0 16.384 8.192 16.384 16.384v51.2h34.816v-51.2c0-10.24 8.192-16.384 16.384-16.384h51.2v-34.816h-51.2c-10.24 0-16.384-8.192-16.384-16.384v-51.2h-34.816v51.2c0 10.24-8.192 16.384-16.384 16.384h-51.2z" />
<glyph unicode="&#xe91d;" glyph-name="edit" d="M849.499 475c-22.383 0-40.501-18.144-40.501-40.501v-337.499h-648v648h337.499c22.383 0 40.501 18.144 40.501 40.501s-18.117 40.499-40.497 40.499h-364.501c-29.808 0-54-24.165-54-54v-702c0-29.835 24.192-54 54-54h702c29.808 0 54 24.165 54 54v364.501c0 22.355-18.117 40.499-40.501 40.499zM934.576 754.422l-116.181 116.181c-6.316 6.318-14.607 9.395-22.896 9.395s-16.578-3.078-22.896-9.423l-449.605-449.576v-162h162l449.576 449.576c6.345 6.345 9.423 14.634 9.423 22.923 0.002 8.317-3.078 16.578-9.423 22.923zM458 340h-54v54l391.499 391.499 54-54-391.499-391.499z" />
<glyph unicode="&#xe91e;" glyph-name="family" d="M147.456 722.432c57.344 0 104.448 47.104 104.448 104.448s-47.104 104.448-104.448 104.448c-59.392 2.048-106.496-45.056-106.496-104.448 0-57.344 47.104-104.448 106.496-104.448zM147.456 898.56c38.912 0 69.632-30.72 69.632-69.632s-30.72-69.632-69.632-69.632c-38.912 0-69.632 30.72-69.632 69.632-2.048 36.864 30.72 69.632 69.632 69.632zM45.056 294.4v-313.344c0-10.24 8.192-16.384 16.384-16.384 10.24 0 16.384 8.192 16.384 16.384v321.536c0 0 0 0 0 0 0 6.144-4.096 12.288-8.192 16.384-22.528 12.288-36.864 34.816-36.864 59.392v190.464c0 36.864 30.72 67.584 67.584 67.584h88.064c36.864 0 67.584-30.72 67.584-67.584v-190.464c0-24.576-14.336-47.104-36.864-59.392-6.144-4.096-10.24-10.24-8.192-16.384 0 0 0 0 0 0v-321.536c0-10.24 8.192-16.384 16.384-16.384s16.384 8.192 16.384 16.384v313.344c28.672 18.432 45.056 51.2 45.056 83.968v190.464c0 57.344-45.056 102.4-102.4 102.4h-83.968c-57.344 0-102.4-45.056-102.4-102.4v-190.464c0-34.816 16.384-65.536 45.056-83.968zM479.232 484.864c57.344 0 104.448 47.104 104.448 104.448s-47.104 104.448-104.448 104.448c-57.344 0-104.448-47.104-104.448-104.448s47.104-104.448 104.448-104.448zM479.232 660.992c38.912 0 69.632-30.72 69.632-69.632s-30.72-69.632-69.632-69.632c-38.912 0-69.632 30.72-69.632 69.632 0 36.864 30.72 69.632 69.632 69.632zM405.504 146.944v-165.888c0-10.24 8.192-16.384 16.384-16.384 10.24 0 16.384 8.192 16.384 16.384v176.128c0 0 0 0 0 0 0 6.144-4.096 12.288-8.192 16.384-22.528 12.288-36.864 34.816-36.864 59.392v100.352c0 36.864 30.72 67.584 67.584 67.584h34.816c36.864 0 67.584-30.72 67.584-67.584v-100.352c0-24.576-14.336-47.104-36.864-59.392-6.144-4.096-10.24-10.24-8.192-16.384 0 0 0 0 0 0v-176.128c0-10.24 8.192-16.384 16.384-16.384 10.24 0 16.384 8.192 16.384 16.384v165.888c28.672 18.432 45.056 51.2 45.056 83.968v100.352c0 57.344-45.056 102.4-102.4 102.4h-34.816c-57.344 0-102.4-45.056-102.4-102.4v-100.352c4.096-32.768 20.48-63.488 49.152-83.968zM831.488 667.136c57.344 0 104.448 47.104 104.448 104.448s-47.104 104.448-104.448 104.448c-57.344 0-104.448-47.104-104.448-104.448-2.048-57.344 47.104-104.448 104.448-104.448zM831.488 843.264c38.912 0 69.632-30.72 69.632-69.632s-30.72-69.632-69.632-69.632c-38.912 0-69.632 30.72-69.632 69.632-2.048 36.864 30.72 69.632 69.632 69.632zM655.36 230.912h102.4v-249.856c0-10.24 8.192-16.384 16.384-16.384s16.384 8.192 16.384 16.384v268.288c0 2.048 0 2.048 0 4.096 0 0 0 2.048 0 2.048-2.048 6.144-8.192 12.288-16.384 12.288v0h-90.112l77.824 157.696c2.048 2.048 2.048 4.096 2.048 8.192v83.968c0 36.864 30.72 67.584 67.584 67.584s67.584-30.72 67.584-67.584v-83.968c0-2.048 0-6.144 2.048-8.192l77.824-157.696h-90.112c-8.192 0-14.336-6.144-16.384-12.288 0 0 0-2.048 0-2.048 0-2.048 0-2.048 0-4.096v-268.288c0-10.24 8.192-16.384 16.384-16.384s16.384 8.192 16.384 16.384v249.856h100.352c6.144 0 12.288 4.096 14.336 8.192 4.096 6.144 4.096 12.288 0 16.384l-90.112 178.176v79.872c0 55.296-45.056 102.4-102.4 102.4-55.296 0-102.4-45.056-102.4-102.4v-79.872l-90.112-178.176c-2.048-6.144-2.048-12.288 0-16.384 8.192-4.096 14.336-8.192 20.48-8.192z" />
<glyph unicode="&#xe91f;" glyph-name="hhc" d="M192.512 671.232v288.768h38.912v-118.784h151.552v118.784h38.912v-288.768h-38.912v135.168h-151.552v-137.216h-38.912zM561.152 671.232v288.768h38.912v-118.784h151.552v118.784h38.912v-288.768h-38.912v135.168h-151.552v-137.216h-38.912zM698.368 183.808l90.112-22.528c-18.432-73.728-53.248-129.024-100.352-167.936-49.152-38.912-108.544-57.344-178.176-57.344-71.68 0-131.072 14.336-178.176 45.056s-79.872 71.68-104.448 129.024c-24.576 55.296-34.816 116.736-34.816 180.224 0 69.632 14.336 131.072 40.96 184.32s65.536 92.16 114.688 118.784c49.152 26.624 104.448 40.96 163.84 40.96 67.584 0 124.928-16.384 169.984-51.2s77.824-81.92 96.256-145.408l-88.064-20.48c-16.384 49.152-38.912 83.968-67.584 106.496-30.72 22.528-67.584 32.768-112.64 32.768-51.2 0-94.208-12.288-129.024-36.864s-59.392-57.344-73.728-100.352c-14.336-40.96-20.48-83.968-20.48-129.024 0-57.344 8.192-106.496 24.576-149.504s43.008-73.728 77.824-96.256c34.816-20.48 73.728-30.72 114.688-30.72 49.152 0 92.16 14.336 126.976 43.008 32.768 26.624 55.296 69.632 67.584 126.976z" />
<glyph unicode="&#xe920;" glyph-name="human" d="M587.776 876.032c0-46.374-37.594-83.968-83.968-83.968s-83.968 37.594-83.968 83.968c0 46.374 37.594 83.968 83.968 83.968s83.968-37.594 83.968-83.968zM761.856 421.376c-24.576 266.24-151.552 319.488-151.552 319.488s-122.88 73.728-251.904-20.48c-83.968-75.776-102.4-192.512-116.736-305.152-6.144-57.344 81.92-57.344 90.112 0 8.192 67.584 18.432 135.168 53.248 192.512v-624.64c0-26.624 18.432-47.104 47.104-47.104 26.624 0 49.152 22.528 49.152 47.104v354.304h43.008c0-81.92 0-274.432 0-358.4 0-57.344 90.112-57.344 90.112 0 0 81.92 0 169.984 0 251.904l4.096 311.296c0 30.72 0 57.344 0 75.776 34.816-59.392 47.104-126.976 55.296-196.608 6.144-57.344 96.256-57.344 88.064 0z" />
<glyph unicode="&#xe921;" glyph-name="lab" d="M987.136 54.784v358.4c28.672 0 51.2 22.528 51.2 51.2s-22.528 51.2-51.2 51.2h-53.248c-4.096 14.336-16.384 26.624-30.72 30.72v294.912h16.384c10.24 0 16.384 6.144 16.384 16.384v67.584c0 10.24-6.144 16.384-16.384 16.384h-204.8c-10.24 0-16.384-6.144-16.384-16.384v-67.584c0-10.24 6.144-16.384 16.384-16.384h16.384v-292.864c-14.336-4.096-26.624-16.384-30.72-30.72h-57.344c-4.096 14.336-16.384 26.624-30.72 30.72v292.864h16.384c10.24 0 16.384 6.144 16.384 16.384v67.584c0 10.24-6.144 16.384-16.384 16.384h-204.8c-10.24 0-16.384-6.144-16.384-16.384v-67.584c0-10.24 6.144-16.384 16.384-16.384h16.384v-292.864c-14.336-4.096-26.624-16.384-30.72-30.72h-57.344c-4.096 14.336-16.384 26.624-30.72 30.72v292.864h16.384c10.24 0 16.384 6.144 16.384 16.384v67.584c0 10.24-6.144 16.384-16.384 16.384h-204.8c-10.24 2.048-16.384-6.144-16.384-16.384v-67.584c0-10.24 6.144-16.384 16.384-16.384h16.384v-292.864c-14.336-4.096-26.624-16.384-30.72-30.72h-53.248c-28.672 0-51.2-22.528-51.2-51.2s22.528-51.2 51.2-51.2v-358.4c-28.672 0-51.2-22.528-51.2-51.2s22.528-51.2 51.2-51.2h921.6c28.672 0 51.2 22.528 51.2 51.2s-22.528 49.152-51.2 49.152zM1003.52 464.384c0-10.24-6.144-16.384-16.384-16.384h-51.2v34.816h51.2c10.24 0 16.384-8.192 16.384-18.432zM731.136 908.8h169.984v-34.816h-169.984v34.816zM866.304 841.216v-290.816h-102.4v290.816h102.4zM747.52 515.584h137.216c8.192 0 16.384-6.144 16.384-16.384v-67.584c0-8.192-6.144-16.384-16.384-16.384h-137.216c-8.192 0-16.384 6.144-16.384 16.384v69.632c0 6.144 6.144 14.336 16.384 14.336zM763.904 243.2h102.4v-67.584c0-28.672-22.528-51.2-51.2-51.2s-51.2 22.528-51.2 51.2v67.584zM763.904 278.016v102.4h102.4v-102.4h-102.4zM696.32 448h-51.2v34.816h51.2v-34.816zM440.32 908.8h169.984v-34.816h-169.984v34.816zM577.536 841.216v-290.816h-102.4v290.816h102.4zM456.704 515.584h137.216c8.192 0 16.384-6.144 16.384-16.384v-67.584c0-8.192-6.144-16.384-16.384-16.384h-137.216c-8.192 0-16.384 6.144-16.384 16.384v69.632c0 6.144 6.144 14.336 16.384 14.336zM475.136 208.384h102.4v-34.816c0-28.672-22.528-51.2-51.2-51.2s-51.2 22.528-51.2 51.2v34.816zM475.136 243.2v137.216h102.4v-137.216h-102.4zM405.504 448h-51.2v34.816h51.2v-34.816zM149.504 908.8h169.984v-34.816h-169.984v34.816zM286.72 841.216v-290.816h-102.4v290.816h102.4zM167.936 515.584h137.216c8.192 0 16.384-6.144 16.384-16.384v-67.584c0-8.192-6.144-16.384-16.384-16.384h-137.216c-8.192 0-16.384 6.144-16.384 16.384v67.584c-2.048 8.192 6.144 16.384 16.384 16.384zM286.72 329.216h-102.4v51.2h102.4v-51.2zM184.32 175.616v118.784h102.4v-118.784c0-28.672-22.528-51.2-51.2-51.2s-51.2 22.528-51.2 51.2zM47.104 464.384c0 10.24 6.144 16.384 16.384 16.384h51.2v-32.768h-49.152c-10.24 0-18.432 6.144-18.432 16.384zM98.304 413.184h20.48c4.096-14.336 16.384-26.624 30.72-30.72v-215.040c0-43.008 36.864-77.824 86.016-77.824 47.104 0 86.016 36.864 86.016 77.824v215.040c14.336 6.144 26.624 16.384 30.72 30.72h57.344c4.096-14.336 16.384-26.624 30.72-30.72v-206.848c0-47.104 36.864-86.016 86.016-86.016 47.104 0 86.016 36.864 86.016 86.016v208.896c14.336 6.144 26.624 16.384 30.72 30.72h57.344c4.096-14.336 16.384-26.624 30.72-30.72v-208.896c0-47.104 36.864-86.016 86.016-86.016 47.104 0 86.016 36.864 86.016 86.016v208.896c14.336 6.144 26.624 16.384 30.72 30.72h20.48v-358.4h-856.064v356.352zM987.136-12.8h-921.6c-10.24 0-16.384 6.144-16.384 16.384s6.144 16.384 16.384 16.384h921.6c10.24 0 16.384-6.144 16.384-16.384s-6.144-16.384-16.384-16.384z" />
<glyph unicode="&#xe922;" glyph-name="list-circle" d="M110.592 677.376c61.44 0 110.592 49.152 110.592 110.592s-49.152 110.592-110.592 110.592-110.592-49.152-110.592-110.592 49.152-110.592 110.592-110.592zM110.592 847.36c32.768 0 59.392-26.624 59.392-59.392s-26.624-57.344-59.392-57.344-59.392 26.624-59.392 57.344 26.624 59.392 59.392 59.392zM110.592 337.408c61.44 0 110.592 49.152 110.592 110.592s-49.152 110.592-110.592 110.592-110.592-49.152-110.592-110.592 49.152-110.592 110.592-110.592zM110.592 507.392c32.768 0 59.392-26.624 59.392-59.392s-26.624-59.392-59.392-59.392-59.392 26.624-59.392 59.392 26.624 59.392 59.392 59.392zM110.592-2.56c61.44 0 110.592 49.152 110.592 110.592s-49.152 110.592-110.592 110.592-110.592-51.2-110.592-110.592c0-61.44 49.152-110.592 110.592-110.592zM110.592 167.424c32.768 0 59.392-26.624 59.392-59.392s-26.624-59.392-59.392-59.392-59.392 26.624-59.392 59.392c0 32.768 26.624 59.392 59.392 59.392zM368.64 763.392h630.784c14.336 0 26.624 12.288 26.624 26.624s-12.288 26.624-26.624 26.624h-630.784c-14.336 0-26.624-12.288-26.624-26.624 0-16.384 12.288-26.624 26.624-26.624zM368.64 421.376h630.784c14.336 0 26.624 12.288 26.624 26.624s-12.288 26.624-26.624 26.624h-630.784c-14.336 0-26.624-12.288-26.624-26.624s12.288-26.624 26.624-26.624zM368.64 81.408h630.784c14.336 0 26.624 12.288 26.624 26.624s-12.288 26.624-26.624 26.624h-630.784c-14.336 0-26.624-12.288-26.624-26.624s12.288-26.624 26.624-26.624z" />
<glyph unicode="&#xe923;" glyph-name="list-history" d="M989.184 845.312h-954.368c-18.432 0-34.816 16.384-34.816 34.816s16.384 34.816 34.816 34.816h954.368c18.432 0 34.816-16.384 34.816-34.816s-16.384-34.816-34.816-34.816zM518.144 413.184h-483.328c-18.432 0-34.816 16.384-34.816 34.816s16.384 34.816 34.816 34.816h483.328c18.432 0 34.816-16.384 34.816-34.816-2.048-18.432-16.384-34.816-34.816-34.816zM989.184-18.944h-954.368c-18.432 0-34.816 16.384-34.816 34.816s16.384 34.816 34.816 34.816h954.368c18.432 0 34.816-16.384 34.816-34.816s-16.384-34.816-34.816-34.816z" />
<glyph unicode="&#xe924;" glyph-name="list-square" d="M43.008 720.384h153.6v153.6h-153.6v-153.6zM219.136 675.328h-196.608c-12.288 0-22.528 10.24-22.528 22.528v198.656c0 12.288 10.24 22.528 22.528 22.528h198.656c12.288 0 22.528-10.24 22.528-22.528v-198.656c-2.048-12.288-12.288-22.528-24.576-22.528v0zM1001.472 775.68h-677.888c-12.288 0-22.528 10.24-22.528 22.528s10.24 22.528 22.528 22.528h677.888c12.288-2.048 22.528-12.288 22.528-24.576s-10.24-20.48-22.528-20.48zM43.008 370.176h153.6v153.6h-153.6v-153.6zM219.136 327.168h-196.608c-12.288 0-22.528 10.24-22.528 22.528v198.656c0 12.288 10.24 22.528 22.528 22.528h198.656c12.288 0 22.528-10.24 22.528-22.528v-198.656c-2.048-12.288-12.288-22.528-24.576-22.528zM1001.472 425.472h-677.888c-12.288 0-22.528 10.24-22.528 22.528s10.24 22.528 22.528 22.528h677.888c12.288 0 22.528-10.24 22.528-22.528s-10.24-22.528-22.528-22.528zM43.008 22.016h153.6v153.6h-153.6v-153.6zM219.136-20.992h-196.608c-12.288 0-22.528 10.24-22.528 22.528v198.656c0 12.288 10.24 22.528 22.528 22.528h198.656c12.288 0 22.528-10.24 22.528-22.528v-198.656c-2.048-12.288-12.288-22.528-24.576-22.528zM1001.472 77.312h-677.888c-12.288 0-22.528 10.24-22.528 22.528s10.24 22.528 22.528 22.528h677.888c12.288 0 22.528-10.24 22.528-22.528s-10.24-22.528-22.528-22.528z" />
<glyph unicode="&#xe925;" glyph-name="location-map" d="M518.144 740.864c-65.536 0-120.832-55.296-120.832-120.832s53.248-120.832 120.832-120.832c65.536 0 120.832 53.248 120.832 120.832-2.048 65.536-55.296 120.832-120.832 120.832zM587.776 622.080c0-38.912-30.72-69.632-69.632-69.632s-69.632 30.72-69.632 69.632 30.72 69.632 69.632 69.632c38.912 0 69.632-30.72 69.632-69.632zM827.392 345.6h-102.4l36.864 53.248c94.208 124.928 79.872 331.776-30.72 440.32-57.344 61.44-135.168 94.208-219.136 94.208-81.92-2.048-161.792-36.864-217.088-94.208-110.592-110.592-122.88-315.392-30.72-438.272l36.864-55.296h-104.448l-184.32-382.976h997.376l-182.272 382.976zM514.048 126.464l-149.504 212.992-59.392 90.112c-77.824 106.496-67.584 280.576 24.576 372.736 49.152 49.152 114.688 75.776 184.32 75.776s135.168-28.672 184.32-75.776c92.16-92.16 104.448-268.288 24.576-372.736l-208.896-303.104zM335.872 294.4l178.176-256 178.176 256h104.448l133.12-280.576h-835.584l133.12 280.576h108.544z" />
<glyph unicode="&#xe926;" glyph-name="patient-history" d="M823.296 896.512h-159.744c-14.336 18.432-36.864 32.768-63.488 32.768h-40.96c-12.288 20.48-32.768 32.768-55.296 32.768s-43.008-12.288-55.296-32.768h-40.96c-26.624 0-49.152-12.288-63.488-32.768v0h-159.744c-45.056 0-79.872-36.864-79.872-79.872v-800.768c0-43.008 34.816-79.872 79.872-79.872h641.024c45.056 0 79.872 36.864 79.872 79.872v800.768c-2.048 43.008-36.864 79.872-81.92 79.872zM360.448 847.36c0 26.624 22.528 47.104 47.104 47.104h51.2c6.144 0 12.288 4.096 14.336 10.24 4.096 12.288 16.384 20.48 30.72 20.48s24.576-8.192 30.72-20.48c2.048-6.144 8.192-10.24 14.336-10.24h51.2c26.624 0 47.104-22.528 47.104-47.104v-47.104h-286.72v47.104zM872.448 15.872c0-26.624-22.528-47.104-47.104-47.104h-641.024c-26.624 0-47.104 22.528-47.104 47.104v800.768c0 26.624 22.528 47.104 47.104 47.104h145.408c-2.048-4.096-2.048-10.24-2.048-16.384v-63.488c0-8.192 6.144-16.384 16.384-16.384h319.488c8.192 0 16.384 6.144 16.384 16.384v63.488c0 6.144 0 10.24-2.048 16.384h145.408c26.624 0 47.104-22.528 47.104-47.104v-800.768zM823.296 830.976h-96.256c-8.192 0-16.384-6.144-16.384-16.384 0-8.192 6.144-16.384 16.384-16.384h79.872v-768h-606.208v770.048h79.872c8.192 0 16.384 6.144 16.384 16.384 0 8.192-6.144 16.384-16.384 16.384h-96.256c-10.24-2.048-16.384-8.192-16.384-16.384v-800.768c0-8.192 6.144-16.384 16.384-16.384h641.024c8.192 0 16.384 6.144 16.384 16.384v800.768c-2.048 8.192-8.192 14.336-18.432 14.336zM503.808 896.512c-4.096 0-8.192-2.048-12.288-4.096-2.048-2.048-4.096-6.144-4.096-12.288 0-4.096 2.048-8.192 4.096-12.288 2.048-2.048 6.144-4.096 12.288-4.096 4.096 0 8.192 2.048 12.288 4.096 2.048 2.048 4.096 6.144 4.096 12.288 0 4.096-2.048 8.192-4.096 12.288-4.096 2.048-8.192 4.096-12.288 4.096zM251.904 587.264c-6.144-6.144-6.144-16.384 0-22.528l47.104-47.104c4.096-4.096 8.192-4.096 12.288-4.096s8.192 2.048 12.288 4.096l79.872 79.872c6.144 6.144 6.144 16.384 0 22.528s-16.384 6.144-22.528 0l-69.632-69.632-36.864 36.864c-6.144 6.144-16.384 6.144-22.528 0zM403.456 443.904c-6.144 6.144-16.384 6.144-22.528 0l-69.632-69.632-36.864 36.864c-6.144 6.144-16.384 6.144-22.528 0s-6.144-16.384 0-22.528l47.104-47.104c4.096-4.096 8.192-4.096 12.288-4.096s8.192 2.048 12.288 4.096l79.872 79.872c6.144 6.144 6.144 16.384 0 22.528zM380.928 267.776l-69.632-69.632-36.864 36.864c-6.144 6.144-16.384 6.144-22.528 0s-6.144-16.384 0-22.528l47.104-47.104c4.096-4.096 8.192-4.096 12.288-4.096s8.192 2.048 12.288 4.096l79.872 79.872c6.144 6.144 6.144 16.384 0 22.528s-16.384 6.144-22.528 0zM471.040 560.64h272.384c8.192 0 16.384 6.144 16.384 16.384 0 8.192-6.144 16.384-16.384 16.384h-272.384c-8.192 0-16.384-6.144-16.384-16.384 2.048-10.24 8.192-16.384 16.384-16.384zM471.040 384.512h272.384c8.192 0 16.384 6.144 16.384 16.384 0 8.192-6.144 16.384-16.384 16.384h-272.384c-8.192 0-16.384-6.144-16.384-16.384 2.048-10.24 8.192-16.384 16.384-16.384zM471.040 208.384h272.384c8.192 0 16.384 6.144 16.384 16.384s-6.144 16.384-16.384 16.384h-272.384c-8.192 0-16.384-6.144-16.384-16.384s8.192-16.384 16.384-16.384z" />
<glyph unicode="&#xe927;" glyph-name="print" d="M910.948 155.584h-158.709c-17.394 0-32.611 15.219-32.611 32.611v126.098h-417.428v-126.098c0-17.394-15.219-32.611-32.611-32.611h-156.536c-63.050 0-113.052 50.005-113.052 113.052v415.252c0 63.050 50.005 113.052 113.052 113.052h797.895c63.050 0 113.052-50.005 113.052-113.052v-415.252c0-63.050-50.005-113.052-113.052-113.052zM784.85 220.806h126.098c26.088 0 47.83 21.74 47.83 47.83v415.252c0 26.088-21.74 47.83-47.83 47.83h-797.895c-26.088 0-47.83-21.74-47.83-47.83v-415.252c0-26.088 21.74-47.83 47.83-47.83h123.923v126.098c0 17.394 15.219 32.611 32.611 32.611h482.65c17.394 0 32.611-15.219 32.611-32.611 0.002 0 0.002-126.098 0.002-126.098zM752.239-55.303h-482.65c-17.394 0-32.611 15.219-32.611 32.611v369.596c0 17.394 15.219 32.611 32.611 32.611h482.65c17.394 0 32.611-15.219 32.611-32.611v-369.596c0-19.568-13.045-32.611-32.611-32.611zM302.2 9.919h417.426v304.374h-417.426v-304.374zM852.246 731.719h-680.492c-17.394 0-32.611 15.219-32.611 32.611v154.362c0 17.394 15.219 32.611 32.611 32.611h680.492c17.394 0 32.611-15.219 32.611-32.611v-154.36c0.002-17.394-15.217-32.613-32.611-32.613zM204.365 796.943h615.27v89.138h-615.27v-89.138zM497.87 229.503h-106.532c-6.523 0-10.871 4.348-10.871 10.871s4.348 10.871 10.871 10.871h106.532c6.523 0 10.871-4.348 10.871-10.871-0.002-4.348-4.35-10.871-10.871-10.871zM630.488 155.584h-239.15c-6.523 0-10.871 4.348-10.871 10.871s4.348 10.871 10.871 10.871h239.15c6.523 0 10.871-4.348 10.871-10.871 0-4.35-4.348-10.871-10.871-10.871zM630.488 83.838h-239.15c-6.523 0-10.871 4.348-10.871 10.871s4.348 10.871 10.871 10.871h239.15c6.523 0 10.871-4.348 10.871-10.871s-4.348-10.871-10.871-10.871zM178.276 575.185c-17.394 0-32.611 15.219-32.611 32.611s15.219 32.611 32.611 32.611 32.611-15.219 32.611-32.611c0-19.566-13.045-32.611-32.611-32.611z" />
<glyph unicode="&#xe928;" glyph-name="refresh" d="M1013.76 622.080c-12.288 8.192-28.672 6.144-36.864-6.144l-65.536-92.16c-34.816 217.088-225.28 385.024-452.608 385.024-251.904-2.048-458.752-206.848-458.752-460.8s206.848-458.752 458.752-458.752c161.792 0 313.344 86.016 395.264 227.328 8.192 12.288 4.096 28.672-10.24 36.864s-28.672 4.096-36.864-10.24c-73.728-122.88-206.848-200.704-350.208-200.704-221.184 0-403.456 182.272-403.456 405.504s182.272 405.504 405.504 405.504c208.896 0 378.88-157.696 403.456-358.4l-120.832 71.68c-12.288 8.192-28.672 4.096-36.864-10.24-8.192-12.288-4.096-28.672 10.24-36.864l163.84-96.256c0 0 2.048 0 2.048 0s2.048 0 2.048 0c2.048-2.048 6.144-2.048 8.192-2.048 4.096 0 6.144 0 8.192 2.048 0 0 2.048 0 2.048 0 2.048 2.048 4.096 2.048 6.144 4.096 0 0 0 0 2.048 2.048 0 0 2.048 2.048 2.048 2.048l106.496 151.552c10.24 14.336 6.144 30.72-4.096 38.912z" />
<glyph unicode="&#xe929;" glyph-name="bin" d="M128 640v-640c0-35.2 28.8-64 64-64h576c35.2 0 64 28.8 64 64v640h-704zM320 64h-64v448h64v-448zM448 64h-64v448h64v-448zM576 64h-64v448h64v-448zM704 64h-64v448h64v-448zM848 832h-208v80c0 26.4-21.6 48-48 48h-224c-26.4 0-48-21.6-48-48v-80h-208c-26.4 0-48-21.6-48-48v-80h832v80c0 26.4-21.6 48-48 48zM576 832h-192v63.198h192v-63.198z" />
<glyph unicode="&#xe92a;" glyph-name="next" d="M321.536-64l499.712 520.192-501.76 503.808-116.736-114.688 389.12-391.168-389.12-403.456z" />
<glyph unicode="&#xe92b;" glyph-name="paper" d="M212.448 917.51l-212.448-191.203v-747.817h722.324v939.021h-509.876zM645.842 46.473h-569.361v607.602h216.697v195.452h348.415v-803.054z" />
<glyph unicode="&#xe92c;" glyph-name="send-data" d="M720.072 917.17h-506.816l-213.255-190.778v-747.562h582.363v67.134h-506.859v607.347h218.779v196.727h350.242v-204.97h75.547zM327.595 209.208h349.605v-204.078l346.8 265.603-346.8 265.73v-204.205h-349.605z" />
<glyph unicode="&#xe92d;" glyph-name="appointment" d="M872.448 843.264h-30.72v28.672c0 49.152-40.96 90.112-90.112 90.112s-90.112-40.96-90.112-90.112v-28.672h-299.008v28.672c0 49.152-40.96 90.112-90.112 90.112s-90.112-40.96-90.112-90.112v-28.672h-30.72c-49.152 0-90.112-40.96-90.112-90.112v-724.992c0-49.152 40.96-90.112 90.112-90.112h720.896c49.152 0 90.112 40.96 90.112 90.112v724.992c0 49.152-40.96 90.112-90.112 90.112zM722.944 869.888c0 16.384 14.336 30.72 30.72 30.72s30.72-14.336 30.72-30.72v-120.832c0-16.384-14.336-30.72-30.72-30.72s-30.72 14.336-30.72 30.72v120.832zM241.664 869.888c0 16.384 14.336 30.72 30.72 30.72s30.72-14.336 30.72-30.72v-120.832c0-16.384-14.336-30.72-30.72-30.72s-30.72 14.336-30.72 30.72c0 0 0 120.832 0 120.832zM903.168 26.112c0-16.384-14.336-30.72-30.72-30.72h-720.896c-16.384 0-30.72 14.336-30.72 30.72v516.096h782.336v-516.096zM903.168 601.6h-782.336v149.504c0 16.384 14.336 30.72 30.72 30.72h30.72v-32.768c0-49.152 40.96-90.112 90.112-90.112s90.112 40.96 90.112 90.112v32.768h301.056v-32.768c0-49.152 40.96-90.112 90.112-90.112s90.112 40.96 90.112 90.112v32.768h30.72c16.384 0 30.72-14.336 30.72-30.72l-2.048-149.504zM229.376 450.048h565.248v-59.392h-565.248v59.392zM229.376 298.496h565.248v-59.392h-565.248v59.392zM229.376 148.992h565.248v-59.392h-565.248v59.392z" />
<glyph unicode="&#xe92e;" glyph-name="xray" d="M845.824 704h-305.152v139.264h145.408c16.384 0 30.72 14.336 30.72 30.72s-14.336 30.72-30.72 30.72h-145.408v24.576c0 16.384-14.336 30.72-30.72 30.72s-30.72-14.336-30.72-30.72v-24.576h-145.408c-16.384 0-30.72-14.336-30.72-30.72s14.336-30.72 30.72-30.72h145.408v-139.264h-303.104c-16.384 0-30.72-14.336-30.72-30.72s14.336-30.72 30.72-30.72h305.152v-139.264h-245.76c-16.384 0-30.72-14.336-30.72-30.72s14.336-30.72 30.72-30.72h245.76v-176.128l-18.432 4.096c-18.432 4.096-34.816 10.24-49.152 16.384-8.192 4.096-12.288 4.096-14.336 6.144-12.288 2.048-20.48 4.096-28.672 4.096-59.392 0-108.544-49.152-108.544-108.544 0-20.48 6.144-40.96 18.432-59.392 30.72-61.44 114.688-198.656 225.28-198.656 75.776 0 153.6 63.488 229.376 188.416 8.192 8.192 12.288 18.432 16.384 26.624l2.048 8.192c4.096 10.24 6.144 22.528 6.144 32.768 0 59.392-49.152 108.544-106.496 108.544-18.432 0-36.864-4.096-53.248-14.336-6.144-4.096-18.432-6.144-40.96-12.288l-18.432-4.096v176.128h245.76c16.384 0 30.72 14.336 30.72 30.72s-14.336 30.72-30.72 30.72h-245.76v139.264h305.152c16.384 0 30.72 14.336 30.72 30.72s-12.288 32.768-30.72 32.768zM393.216 81.408c-36.864 0-67.584 30.72-67.584 67.584s30.72 67.584 67.584 67.584c36.864 0 67.584-30.72 67.584-67.584 2.048-36.864-28.672-67.584-67.584-67.584zM624.64 218.624c36.864 0 67.584-30.72 67.584-67.584s-30.72-67.584-67.584-67.584c-36.864 0-67.584 30.72-67.584 67.584-4.096 36.864 26.624 67.584 67.584 67.584z" />
<glyph unicode="&#xe92f;" glyph-name="patient_info" d="M817.152 960h-692.224c-10.24 0-18.432-8.192-18.432-18.432v-135.168c0-10.24 8.192-18.432 18.432-18.432s16.384 8.192 16.384 18.432v116.736h657.408v-868.352h-657.408v684.032c0 10.24-8.192 18.432-18.432 18.432s-18.432-8.192-18.432-18.432v-702.464c0-10.24 8.192-18.432 18.432-18.432h65.536v-65.536c0-10.24 8.192-18.432 18.432-18.432h49.152c10.24 0 18.432 8.192 18.432 18.432s-8.192 18.432-18.432 18.432h-30.72v47.104h591.872c10.24 0 18.432 8.192 18.432 18.432v905.216c0 10.24-8.192 18.432-18.432 18.432zM899.072 876.032h-26.624c-10.24 0-18.432-8.192-18.432-18.432s8.192-18.432 18.432-18.432h8.192v-868.352h-546.816c-10.24 0-18.432-8.192-18.432-18.432s8.192-18.432 18.432-18.432h565.248c10.24 0 18.432 8.192 18.432 18.432v907.264c0 10.24-8.192 16.384-18.432 16.384zM395.264 822.784h-34.816v34.816c0 10.24-8.192 18.432-18.432 18.432h-83.968c-10.24 0-18.432-8.192-18.432-18.432v-34.816h-34.816c-10.24 0-18.432-8.192-18.432-18.432v-83.968c0-10.24 8.192-18.432 18.432-18.432h34.816v-34.816c0-10.24 8.192-18.432 18.432-18.432h83.968c10.24 0 18.432 8.192 18.432 18.432v34.816h34.816c10.24 0 18.432 8.192 18.432 18.432v83.968c0 10.24-8.192 18.432-18.432 18.432zM376.832 738.816h-34.816c-10.24 0-18.432-8.192-18.432-18.432v-34.816h-47.104v34.816c0 10.24-8.192 18.432-18.432 18.432h-34.816v47.104h34.816c10.24 0 18.432 8.192 18.432 18.432v34.816h47.104v-34.816c0-10.24 8.192-18.432 18.432-18.432h34.816v-47.104zM745.472 599.552h-548.864c-10.24 0-18.432-8.192-18.432-18.432s8.192-18.432 18.432-18.432h548.864c10.24 0 18.432 8.192 18.432 18.432-2.048 10.24-8.192 18.432-18.432 18.432zM698.368 454.144h-456.704c-10.24 0-18.432-8.192-18.432-18.432s8.192-18.432 18.432-18.432h456.704c10.24 0 18.432 8.192 18.432 18.432s-8.192 18.432-18.432 18.432zM745.472 851.456h-165.888c-10.24 0-18.432-8.192-18.432-18.432s8.192-18.432 18.432-18.432h165.888c10.24 0 18.432 8.192 18.432 18.432s-8.192 18.432-18.432 18.432zM745.472 775.68h-165.888c-10.24 0-18.432-8.192-18.432-18.432s8.192-18.432 18.432-18.432h165.888c10.24 0 18.432 8.192 18.432 18.432s-8.192 18.432-18.432 18.432zM698.368 370.176h-456.704c-10.24 0-18.432-8.192-18.432-18.432s8.192-18.432 18.432-18.432h456.704c10.24 0 18.432 8.192 18.432 18.432 0 12.288-8.192 18.432-18.432 18.432zM456.704 288.256h-215.040c-10.24 0-18.432-8.192-18.432-18.432s8.192-18.432 18.432-18.432h215.040c10.24 0 18.432 8.192 18.432 18.432-2.048 10.24-8.192 18.432-18.432 18.432z" />
<glyph unicode="&#xe930;" glyph-name="patient_service" d="M860.16 960h-548.864c-45.056 0-81.92-32.768-90.112-75.776-36.864-6.144-65.536-34.816-73.728-71.68-43.008-8.192-75.776-45.056-75.776-90.112v-694.272c2.048-51.2 43.008-92.16 92.16-92.16h548.864c45.056 0 81.92 32.768 90.112 75.776 36.864 6.144 65.536 36.864 73.728 73.728 43.008 8.192 75.776 45.056 75.776 90.112v692.224c-2.048 51.2-43.008 92.16-92.16 92.16zM768 28.16c0-30.72-24.576-55.296-55.296-55.296h-548.864c-30.72 0-55.296 24.576-55.296 55.296v694.272c0 30.72 24.576 55.296 55.296 55.296h548.864c30.72 0 55.296-24.576 55.296-55.296v-694.272zM841.728 99.84c0-24.576-14.336-43.008-36.864-51.2v673.792c0 51.2-40.96 92.16-92.16 92.16h-526.336c8.192 20.48 28.672 36.864 51.2 36.864h548.864c30.72 0 55.296-24.576 55.296-55.296v-696.32zM913.408 173.568c0-24.576-14.336-43.008-36.864-51.2v673.792c0 51.2-40.96 92.16-92.16 92.16h-524.288c8.192 20.48 28.672 36.864 51.2 36.864h548.864c30.72 0 55.296-24.576 55.296-55.296v-696.32zM268.288 663.040l-26.624-26.624 36.864-36.864c4.096-4.096 8.192-6.144 12.288-6.144s10.24 2.048 12.288 6.144l92.16 92.16-26.624 26.624-77.824-77.824-22.528 22.528zM366.592 558.592h-145.408v145.408h110.592v36.864h-131.072c-10.24 0-18.432-8.192-18.432-18.432v-182.272c0-10.24 8.192-18.432 18.432-18.432h182.272c10.24 0 18.432 8.192 18.432 18.432v92.16h-36.864v-73.728zM268.288 407.040l-26.624-26.624 36.864-36.864c4.096-4.096 8.192-6.144 12.288-6.144s10.24 2.048 12.288 6.144l92.16 92.16-26.624 26.624-77.824-77.824-22.528 22.528zM366.592 302.592h-145.408v145.408h110.592v36.864h-131.072c-10.24 0-18.432-8.192-18.432-18.432v-182.272c0-10.24 8.192-18.432 18.432-18.432h182.272c10.24 0 18.432 8.192 18.432 18.432v92.16h-36.864v-73.728zM268.288 151.040l-26.624-26.624 36.864-36.864c4.096-4.096 8.192-6.144 12.288-6.144s10.24 2.048 12.288 6.144l92.16 92.16-26.624 26.624-77.824-77.824-22.528 22.528zM366.592 46.592h-145.408v145.408h110.592v36.864h-131.072c-10.24 0-18.432-8.192-18.432-18.432v-182.272c0-10.24 8.192-18.432 18.432-18.432h182.272c10.24 0 18.432 8.192 18.432 18.432v92.16h-36.864v-73.728zM438.272 722.432h256v-36.864h-256v36.864zM438.272 648.704h256v-36.864h-256v36.864zM438.272 574.976h256v-36.864h-256v36.864zM438.272 466.432h256v-36.864h-256v36.864zM438.272 392.704h256v-36.864h-256v36.864zM438.272 318.976h256v-36.864h-256v36.864zM438.272 210.432h256v-36.864h-256v36.864zM438.272 136.704h256v-36.864h-256v36.864zM438.272 62.976h256v-36.864h-256v36.864z" />
<glyph unicode="&#xe931;" glyph-name="clock" d="M874.496 810.496c-98.304 96.256-225.28 149.504-362.496 149.504s-264.192-53.248-362.496-149.504c-96.256-96.256-149.504-225.28-149.504-362.496s53.248-266.24 149.504-362.496c96.256-96.256 225.28-149.504 362.496-149.504s264.192 53.248 362.496 149.504c96.256 96.256 149.504 225.28 149.504 362.496s-53.248 264.192-149.504 362.496zM952.32 448c0-116.736-45.056-227.328-129.024-311.296-81.92-81.92-192.512-129.024-311.296-129.024s-227.328 45.056-311.296 129.024c-81.92 83.968-129.024 194.56-129.024 311.296s47.104 227.328 129.024 311.296c81.92 81.92 192.512 129.024 311.296 129.024 116.736 0 227.328-45.056 311.296-129.024v0c81.92-83.968 129.024-194.56 129.024-311.296zM768 484.864h-219.136v290.816c0 20.48-16.384 36.864-36.864 36.864s-36.864-16.384-36.864-36.864v-329.728l2.048-12.288 4.096-6.144c6.144-10.24 18.432-16.384 30.72-16.384h256c20.48 0 36.864 16.384 36.864 36.864s-16.384 36.864-36.864 36.864z" />
<glyph unicode="&#xe932;" glyph-name="camera" d="M0 609.792v-452.608c0-69.632 55.296-124.928 124.928-124.928h774.144c69.632 0 124.928 55.296 124.928 124.928v452.608c0 65.536-53.248 118.784-118.784 118.784h-165.888l-4.096 16.384c-16.384 69.632-77.824 118.784-149.504 118.784h-147.456c-71.68 0-133.12-49.152-149.504-118.784l-4.096-16.384h-165.888c-65.536 0-118.784-53.248-118.784-118.784zM305.152 677.376c12.288 0 22.528 8.192 24.576 20.48l8.192 36.864c10.24 47.104 51.2 77.824 98.304 77.824h147.456c47.104 0 88.064-32.768 98.304-77.824l8.192-36.864c2.048-12.288 12.288-20.48 24.576-20.48h186.368c36.864 0 67.584-30.72 67.584-67.584v-452.608c0-40.96-32.768-73.728-73.728-73.728h-770.048c-40.96 0-73.728 32.768-73.728 73.728v452.608c0 36.864 30.72 67.584 67.584 67.584h186.368zM208.896 566.784c0-19.228-15.588-34.816-34.816-34.816s-34.816 15.588-34.816 34.816c0 19.228 15.588 34.816 34.816 34.816s34.816-15.588 34.816-34.816zM512 163.328c118.784 0 215.040 96.256 215.040 215.040s-96.256 215.040-215.040 215.040-215.040-96.256-215.040-215.040 96.256-215.040 215.040-215.040zM512 542.208c90.112 0 163.84-73.728 163.84-163.84s-73.728-163.84-163.84-163.84-163.84 73.728-163.84 163.84 73.728 163.84 163.84 163.84z" />
<glyph unicode="&#xe933;" glyph-name="cancel-alt" d="M575.488 452.096l434.176 432.128c8.192 8.192 14.336 20.48 14.336 32.768s-4.096 24.576-14.336 32.768c-18.432 18.432-47.104 18.432-65.536 0l-434.176-432.128-432.128 432.128c-18.432 18.432-47.104 18.432-65.536 0s-18.432-47.104 0-65.536l432.128-432.128-432.128-432.128c-18.432-18.432-18.432-47.104 0-65.536s47.104-18.432 65.536 0l432.128 432.128 432.128-432.128c8.192-8.192 20.48-14.336 32.768-14.336s24.576 4.096 32.768 14.336c18.432 18.432 18.432 47.104 0 65.536l-432.128 432.128z" />
<glyph unicode="&#xe934;" glyph-name="community-survey-plan" d="M612.352 617.984c67.584-16.384 118.784-71.68 129.024-141.312 2.048-8.192 8.192-14.336 16.384-14.336 0 0 2.048 0 2.048 0 8.192 2.048 14.336 10.24 12.288 18.432-14.336 79.872-73.728 145.408-153.6 165.888-8.192 2.048-16.384-2.048-20.48-12.288 0-4.096 6.144-14.336 14.336-16.384zM325.632 114.176c12.288 12.288 18.432 28.672 18.432 45.056 0 12.288-4.096 22.528-8.192 32.768l53.248 53.248c47.104-43.008 110.592-69.632 180.224-69.632 149.504 0 272.384 122.88 272.384 272.384s-122.88 272.384-272.384 272.384-272.384-122.88-272.384-272.384c0-69.632 26.624-133.12 69.632-180.224l-53.248-53.248c-10.24 6.144-20.48 8.192-32.768 8.192-16.384 0-32.768-6.144-45.056-18.432l-159.744-159.744c-12.288-12.288-18.432-28.672-18.432-45.056s6.144-32.768 18.432-45.056c12.288-12.288 28.672-18.432 45.056-18.432s32.768 6.144 45.056 18.432l159.744 159.744zM567.296 687.616c133.12 0 239.616-108.544 239.616-239.616s-108.544-239.616-239.616-239.616-239.616 106.496-239.616 239.616 108.544 239.616 239.616 239.616zM303.104 136.704v0l-159.744-159.744c-12.288-12.288-32.768-12.288-45.056 0-6.144 6.144-10.24 14.336-10.24 22.528s4.096 16.384 10.24 22.528l159.744 159.744c6.144 6.144 14.336 10.24 22.528 10.24s16.384-4.096 22.528-10.24c6.144-6.144 10.24-14.336 10.24-22.528-2.048-8.192-4.096-16.384-10.24-22.528zM968.704 736.768c0 2.048 0 2.048 0 0 0 2.048 0 2.048 0 0 0 2.048 0 2.048 0 2.048s0 0 0 0 0 0 0 0 0 0 0 0 0 0 0 0 0 0 0 0 0 0 0 0 0 0 0 0 0 0 0 0 0 0 0 0 0 0 0 2.048c0 0 0 0 0 0l-212.992 215.040c0 0-2.048 0-2.048 2.048 0 0 0 0 0 0s-2.048 0-2.048 2.048c0 0 0 0 0 0s-2.048 0-2.048 0c0 0 0 0 0 0s-2.048 0-2.048 0v0c0 0-2.048 0-2.048 0s0 0 0 0 0 0 0 0h-530.432c-24.576 0-47.104-22.528-47.104-47.104v-688.128c0-8.192 6.144-16.384 16.384-16.384s16.384 6.144 16.384 16.384v688.128c0 8.192 8.192 16.384 16.384 16.384h512v-159.744c0-26.624 22.528-47.104 47.104-47.104h96.256c8.192 0 16.384 6.144 16.384 16.384s-6.144 16.384-16.384 16.384h-96.256c-8.192 0-16.384 8.192-16.384 16.384v133.12l176.128-176.128v-745.472c0-8.192-8.192-16.384-16.384-16.384h-688.128c-8.192 0-16.384-6.144-16.384-16.384s6.144-16.384 16.384-16.384h688.128c26.624 0 47.104 22.528 47.104 47.104l2.048 755.712c0 0 0 0 0 0zM712.704 448c0 8.192-6.144 16.384-16.384 16.384h-319.488c-8.192 0-16.384-6.144-16.384-16.384s6.144-16.384 16.384-16.384h319.488c8.192 0 16.384 8.192 16.384 16.384zM727.040 384.512h-303.104c-8.192 0-16.384-6.144-16.384-16.384s6.144-16.384 16.384-16.384h303.104c8.192 0 16.384 6.144 16.384 16.384s-6.144 16.384-16.384 16.384zM423.936 511.488h239.616c8.192 0 16.384 6.144 16.384 16.384s-6.144 16.384-16.384 16.384h-239.616c-8.192 0-16.384-6.144-16.384-16.384s8.192-16.384 16.384-16.384z" />
<glyph unicode="&#xe935;" d="M651.264-43.52c-4.096-2.048-8.192-2.048-12.288-4.096 4.096 0 8.192 2.048 12.288 4.096z" />
<glyph unicode="&#xe936;" d="M681.984-35.328c-4.096-2.048-8.192-4.096-14.336-4.096 6.144 2.048 10.24 4.096 14.336 4.096z" />
<glyph unicode="&#xe937;" d="M794.624 22.016c-6.144-4.096-12.288-8.192-16.384-10.24 4.096 2.048 10.24 6.144 16.384 10.24z" />
<glyph unicode="&#xe938;" d="M741.376-10.752c-4.096-2.048-10.24-4.096-14.336-6.144 4.096 2.048 8.192 4.096 14.336 6.144z" />
<glyph unicode="&#xe939;" d="M919.552 138.752c-6.144-8.192-12.288-14.336-16.384-22.528 6.144 8.192 10.24 14.336 16.384 22.528z" />
<glyph unicode="&#xe93a;" d="M768 5.632c-6.144-2.048-10.24-6.144-16.384-8.192 6.144 2.048 12.288 4.096 16.384 8.192z" />
<glyph unicode="&#xe93b;" d="M712.704-23.040c-4.096-2.048-10.24-4.096-14.336-6.144 4.096 2.048 8.192 4.096 14.336 6.144z" />
<glyph unicode="&#xe93c;" d="M937.984 163.328c6.144 8.192 10.24 16.384 14.336 24.576v0c-4.096-8.192-10.24-16.384-14.336-24.576z" />
<glyph unicode="&#xe93d;" d="M798.72 24.064c38.912 26.624 73.728 57.344 102.4 92.16-28.672-34.816-63.488-65.536-102.4-92.16z" />
<glyph unicode="&#xe93e;" d="M618.496-51.712c-4.096 0-6.144-2.048-10.24-2.048 4.096 0 6.144 0 10.24 2.048z" />
<glyph unicode="&#xe93f;" d="M935.936 163.328c-6.144-8.192-10.24-14.336-16.384-22.528 6.144 6.144 12.288 14.336 16.384 22.528z" />
<glyph unicode="&#xe940;" d="M436.224 321.024l61.44 202.752 28.672 153.6-24.576 34.816 51.2-51.2 8.192 24.576 428.032-428.032c24.576 59.392 36.864 122.88 36.864 192.512-2.048 280.576-231.424 509.952-514.048 509.952s-512-229.376-512-512c0-282.624 229.376-512 512-512 22.528 0 43.008 2.048 65.536 4.096l-307.2 307.2 165.888 73.728z" />
<glyph unicode="&#xe941;" d="M778.24 9.728c-2.048-2.048-6.144-4.096-8.192-6.144 2.048 4.096 4.096 4.096 8.192 6.144z" />
<glyph unicode="&#xe942;" d="M937.984 163.328c0 0-2.048 0 0 0-2.048 0 0 0 0 0z" />
<glyph unicode="&#xe943;" d="M798.72 24.064c-2.048-2.048-2.048-2.048-4.096-4.096 2.048 2.048 2.048 4.096 4.096 4.096z" />
<glyph unicode="&#xe944;" d="M903.168 118.272c0-2.048-2.048-2.048 0 0-2.048-2.048 0-2.048 0 0z" />
<glyph unicode="&#xe945;" d="M921.6 140.8c-2.048-2.048-2.048-2.048 0 0-2.048-2.048-2.048-2.048 0 0z" />
<glyph unicode="&#xe946;" d="M638.976-47.616c-6.144-2.048-14.336-4.096-20.48-4.096 6.144 0 14.336 2.048 20.48 4.096z" />
<glyph unicode="&#xe947;" d="M669.696-39.424c-6.144-2.048-12.288-4.096-16.384-4.096 4.096 0 10.24 2.048 16.384 4.096z" />
<glyph unicode="&#xe948;" d="M724.992-16.896c-4.096-2.048-8.192-4.096-14.336-6.144 6.144 2.048 10.24 4.096 14.336 6.144z" />
<glyph unicode="&#xe949;" d="M698.368-29.184c-4.096-2.048-10.24-4.096-14.336-6.144 4.096 2.048 8.192 4.096 14.336 6.144z" />
<glyph unicode="&#xe94a;" d="M751.616-4.608c-4.096-2.048-8.192-4.096-12.288-6.144 6.144 2.048 8.192 4.096 12.288 6.144z" />
<glyph unicode="&#xe94b;" d="M987.136 255.488l-428.032 428.032-8.192-24.576-51.2 51.2 24.576-34.816-28.672-153.6-61.44-202.752-165.888-71.68 307.2-307.2c10.24 2.048 20.48 2.048 30.72 4.096 4.096 0 6.144 2.048 10.24 2.048 6.144 2.048 14.336 2.048 20.48 4.096 4.096 2.048 8.192 2.048 12.288 4.096 6.144 2.048 12.288 4.096 16.384 4.096 4.096 2.048 8.192 4.096 14.336 4.096 6.144 2.048 10.24 4.096 14.336 6.144s10.24 4.096 14.336 6.144c4.096 2.048 8.192 4.096 14.336 6.144 4.096 2.048 10.24 4.096 14.336 6.144s8.192 4.096 12.288 6.144c6.144 2.048 10.24 6.144 16.384 8.192 4.096 2.048 6.144 4.096 8.192 6.144 6.144 4.096 12.288 6.144 16.384 10.24 2.048 0 2.048 2.048 4.096 4.096 38.912 26.624 73.728 57.344 102.4 92.16 0 0 0 0 0 0 6.144 6.144 12.288 14.336 16.384 22.528 0 0 0 0 0 2.048 6.144 8.192 10.24 14.336 16.384 22.528 0 0 0 0 0 2.048 6.144 8.192 10.24 16.384 14.336 24.576v0c8.192 14.336 16.384 30.72 24.576 47.104 12.288 6.144 14.336 14.336 18.432 20.48z" />
<glyph unicode="&#xe94c;" d="M428.032 388.608c10.24-16.384 30.72-36.864 69.632-36.864 63.488 0 75.776 40.96 75.776 40.96l43.008-16.384-57.344 20.48-8.192 45.056c0 0 0 0 0 0l2.048-6.144c-10.24-10.24-22.528-22.528-30.72-26.624-8.192-2.048-14.336-2.048-20.48-4.096-6.144 0-12.288 2.048-20.48 4.096-8.192 4.096-18.432 14.336-28.672 24.576l-2.048-36.864-28.672-12.288 6.144 4.096z" />
<glyph unicode="&#xe94d;" d="M395.264 374.272v0l22.528 10.24-40.96-18.432c0 0 0 0-2.048 0 0 0 0 0 2.048 0l18.432 8.192z" />
<glyph unicode="&#xe94e;" d="M499.712 407.040c6.144 0 12.288 2.048 20.48 4.096 8.192 6.144 20.48 16.384 30.72 26.624l-2.048 6.144c-10.24-10.24-22.528-20.48-30.72-24.576-8.192-2.048-14.336-2.048-20.48-4.096-6.144 0-12.288 2.048-20.48 4.096-8.192 4.096-18.432 14.336-28.672 22.528v-6.144c10.24-10.24 20.48-18.432 28.672-24.576 10.24-2.048 16.384-4.096 22.528-4.096z" />
<glyph unicode="&#xe94f;" d="M450.56 454.144h98.304l2.048-10.24c6.144 6.144 12.288 12.288 16.384 16.384 10.24 12.288 12.288 30.72 14.336 59.392 2.048 0 10.24-4.096 14.336 2.048s16.384 53.248 4.096 57.344c-4.096 2.048-6.144 2.048-8.192 2.048l-8.192-8.192-2.048-8.192h-8.192c0 0 0 86.016-14.336 81.92-63.488-20.48-108.544-14.336-139.264-6.144 0 0-2.048-49.152-4.096-55.296s-4.096-20.48-4.096-20.48h-6.144l-2.048 10.24-8.192 8.192c-2.048 0-2.048 0-4.096-2.048-12.288-4.096 0-51.2 4.096-57.344s12.288-2.048 14.336-2.048c4.096-28.672 4.096-47.104 14.336-59.392 4.096-4.096 12.288-12.288 18.432-18.432l8.192 10.24z" />
<glyph unicode="&#xe950;" d="M450.56 454.144v0 0z" />
<glyph unicode="&#xe951;" d="M450.56 454.144v-12.288z" />
<glyph unicode="&#xe952;" d="M450.56 454.144v0 0 0-12.288c10.24-8.192 20.48-18.432 28.672-22.528 8.192-2.048 14.336-2.048 20.48-4.096 6.144 0 12.288 2.048 20.48 4.096 8.192 4.096 20.48 14.336 30.72 24.576l-2.048 10.24h-98.304z" />
<glyph unicode="&#xe953;" d="M413.696 574.976c0 0-12.288 36.864 8.192 73.728 14.336 24.576 45.056 36.864 77.824 38.912 32.768 0 63.488-14.336 77.824-38.912 20.48-36.864 8.192-73.728 8.192-73.728s2.048 4.096 8.192 6.144v0c4.096 32.768 2.048 59.392-6.144 79.872-40.96 90.112-198.656 49.152-190.464-38.912 4.096-36.864 2.048-40.96 2.048-40.96v0c10.24 0 14.336-6.144 14.336-6.144z" />
<glyph unicode="&#xe954;" d="M409.6 562.688h6.144c0 0 2.048 14.336 4.096 20.48s4.096 55.296 4.096 55.296c30.72-6.144 75.776-14.336 139.264 6.144 14.336 4.096 14.336-81.92 14.336-81.92v0h8.192l2.048 8.192 8.192 8.192c-6.144 0-8.192-6.144-8.192-6.144s12.288 36.864-8.192 73.728c-14.336 24.576-45.056 36.864-77.824 38.912-32.768 0-63.488-14.336-77.824-38.912-20.48-36.864-8.192-73.728-8.192-73.728s-4.096 8.192-12.288 6.144l8.192-8.192-2.048-8.192z" />
<glyph unicode="&#xe955;" d="M669.696 333.312l-4.096-86.016h88.064c-10.24 38.912-20.48 73.728-28.672 90.112-22.528 53.248-110.592 36.864-110.592 36.864v0l22.528-8.192 32.768-32.768z" />
<glyph unicode="&#xe956;" d="M378.88 366.080c-86.016 0-100.352-49.152-108.544-118.784h4.096c4.096 67.584 20.48 118.784 104.448 118.784z" />
<glyph unicode="&#xe957;" d="M616.448 376.32l-43.008 16.384c0 0-12.288-40.96-75.776-40.96-38.912 0-59.392 20.48-69.632 36.864l-8.192-4.096 143.36-137.216h104.448l4.096 86.016-30.72 34.816-24.576 8.192z" />
<glyph unicode="&#xe958;" d="M272.384 247.296h143.36l-20.48 124.928-16.384-6.144c0 0 0 0-2.048 0-81.92 0-98.304-51.2-104.448-118.784z" />
<glyph unicode="&#xe959;" d="M419.84 384.512l-24.576-10.24 20.48-126.976h135.168z" />
<glyph unicode="&#xe95a;" d="M419.84 384.512v0 0z" />
<glyph unicode="&#xe95b;" d="M563.2 247.296l-143.36 137.216 131.072-137.216z" />
<glyph unicode="&#xe95c;" glyph-name="home-health-care-alt" d="M964.608 169.472c-47.104 112.64-212.992 92.16-239.616 88.064l-67.584 24.576-34.816 14.336-14.336 73.728c12.288 10.24 22.528 20.48 28.672 28.672 22.528 24.576 26.624 59.392 32.768 102.4l2.048 10.24c8.192-2.048 20.48 2.048 28.672 14.336 8.192 14.336 30.72 88.064 20.48 120.832-4.096 12.288-12.288 18.432-18.432 20.48-2.048 0-2.048 0-4.096 0 6.144 63.488 2.048 116.736-16.384 155.648-49.152 106.496-172.032 129.024-262.144 102.4-83.968-22.528-165.888-90.112-155.648-188.416 4.096-43.008 4.096-61.44 4.096-69.632-6.144-2.048-12.288-8.192-16.384-20.48-10.24-32.768 10.24-108.544 20.48-120.832 8.192-12.288 18.432-16.384 28.672-14.336l2.048-8.192c6.144-45.056 10.24-77.824 32.768-102.4 8.192-8.192 20.48-20.48 34.816-34.816l-4.096-71.68-49.152-22.528c0 0 0 0 0 0v0 0l-47.104-22.528-12.288-6.144-20.48-8.192c0 0 0 0-2.048 0 0 0 0 0 0 0v0c-186.368 0-219.136-120.832-235.52-256 0-4.096 0-10.24 4.096-12.288 4.096-4.096 8.192-6.144 12.288-6.144h991.232c4.096 0 10.24 2.048 12.288 6.144s4.096 10.24 4.096 14.336c-20.48 81.92-43.008 151.552-59.392 188.416zM811.008-6.656h-190.464l-172.032 165.888-18.432 18.432c0 0 0 0 0 0 16.384-4.096 32.768-6.144 53.248-6.144 106.496 0 149.504 53.248 163.84 79.872l71.68-26.624 43.008-16.384 55.296-63.488-6.144-151.552zM321.536 50.688l-26.624 172.032 26.624 12.288 251.904-241.664h-241.664l-10.24 57.344zM428.032 894.464c81.92 22.528 182.272 4.096 223.232-86.016 16.384-34.816 20.48-83.968 12.288-145.408l-6.144-6.144c-2.048 57.344-8.192 124.928-28.672 141.312-6.144 4.096-14.336 6.144-22.528 4.096-116.736-38.912-204.8-28.672-272.384-14.336-4.096 2.048-10.24 0-14.336-4.096-4.096-2.048-6.144-8.192-6.144-12.288-2.048-47.104-4.096-98.304-6.144-106.496 0-2.048-2.048-6.144-2.048-8.192l-4.096 4.096c0 14.336-2.048 40.96-4.096 77.824-8.192 79.872 61.44 135.168 131.072 155.648zM397.312 382.464c-14.336 14.336-28.672 28.672-38.912 36.864-14.336 16.384-18.432 45.056-22.528 83.968l-4.096 26.624c-2.048 8.192-8.192 14.336-18.432 14.336-2.048 0-4.096 0-8.192-2.048-2.048 0-6.144-2.048-6.144-2.048-8.192 12.288-20.48 73.728-18.432 90.112v0l4.096-18.432c0-8.192 8.192-14.336 16.384-14.336 0 0 0 0 2.048 0h14.336c8.192 0 14.336 6.144 14.336 14.336 2.048 8.192 4.096 28.672 8.192 38.912s6.144 61.44 8.192 96.256c69.632-12.288 153.6-18.432 264.192 16.384 6.144-16.384 14.336-69.632 14.336-147.456 0-4.096 2.048-10.24 4.096-12.288 4.096-4.096 6.144-6.144 12.288-6.144h16.384c8.192 0 14.336 4.096 14.336 12.288l4.096 14.336 8.192 8.192c8.192-12.288-8.192-81.92-14.336-96.256 0 0-4.096 0-6.144 2.048-2.048 0-6.144 2.048-8.192 2.048-10.24 0-16.384-6.144-18.432-14.336l-4.096-26.624c-4.096-38.912-8.192-67.584-22.528-83.968-4.096-4.096-8.192-8.192-14.336-14.336-4.096 4.096-10.24 8.192-16.384 6.144-8.192-2.048-14.336-8.192-14.336-16.384 0 0 0-2.048 0-2.048l20.48-114.688c2.048-6.144 4.096-10.24 10.24-12.288l16.384 2.048c-2.048-2.048-4.096-6.144-6.144-10.24 0 0-2.048-2.048-2.048-2.048-2.048-4.096-6.144-6.144-10.24-10.24-2.048-2.048-2.048-2.048-4.096-4.096-4.096-4.096-8.192-8.192-14.336-10.24 0 0-2.048 0-2.048-2.048-6.144-4.096-14.336-6.144-22.528-10.24-2.048 0-4.096-2.048-6.144-2.048-6.144-2.048-14.336-4.096-20.48-6.144-2.048 0-6.144-2.048-8.192-2.048-10.24-2.048-22.528-2.048-34.816-2.048-16.384 0-30.72 2.048-43.008 6.144-4.096 2.048-8.192 2.048-12.288 4.096-8.192 2.048-16.384 6.144-22.528 10.24-4.096 2.048-8.192 4.096-10.24 6.144-6.144 4.096-10.24 8.192-16.384 12.288-2.048 2.048-6.144 6.144-8.192 8.192s-2.048 2.048-4.096 4.096l22.528 10.24c6.144 2.048 8.192 8.192 10.24 14.336l6.144 88.064c-2.048 8.192-4.096 14.336-8.192 16.384zM43.008-6.656c0 6.144 2.048 10.24 2.048 16.384 0 8.192 2.048 16.384 4.096 22.528 2.048 8.192 2.048 16.384 4.096 22.528s2.048 14.336 4.096 20.48c2.048 6.144 4.096 12.288 6.144 18.432s4.096 12.288 8.192 18.432c2.048 4.096 4.096 8.192 8.192 12.288 4.096 6.144 8.192 12.288 12.288 18.432 2.048 2.048 6.144 6.144 8.192 8.192 6.144 6.144 10.24 12.288 18.432 16.384 2.048 2.048 4.096 2.048 8.192 4.096 8.192 4.096 16.384 10.24 24.576 14.336 2.048 0 4.096 2.048 6.144 2.048 10.24 4.096 20.48 6.144 34.816 8.192 6.144 2.048 14.336 2.048 22.528 2.048s16.384 2.048 26.624 2.048c0 0 2.048 0 2.048 0v0 0c0 0 0 0 0 0s0 0 0 0 0 0 0 0 0 0 0 0c2.048 0 4.096 0 6.144 2.048l14.336 6.144 34.816-215.040h-256zM845.824-6.656l6.144 155.648c0 4.096-2.048 8.192-4.096 12.288l-57.344 65.536c51.2 0 120.832-14.336 145.408-71.68 14.336-32.768 32.768-92.16 51.2-161.792h-141.312z" />
<glyph unicode="&#xe95d;" glyph-name="person-alt" d="M512 458.24c114.688 0 206.848 112.64 206.848 249.856 0 139.264-30.72 251.904-206.848 251.904s-206.848-112.64-206.848-249.856c0-139.264 92.16-251.904 206.848-251.904zM122.88 77.312c0 8.192 0 2.048 0 0v0zM901.12 71.168c0 2.048 0 14.336 0 0v0zM901.12 87.552c-4.096 241.664-34.816 309.248-276.48 352.256 0 0-34.816-43.008-112.64-43.008s-112.64 43.008-112.64 43.008c-237.568-43.008-272.384-110.592-276.48-344.064 0-18.432 0-20.48 0-18.432 0-4.096 0-12.288 0-24.576 0 0 57.344-114.688 389.12-114.688s389.12 114.688 389.12 114.688c0 8.192 0 14.336 0 18.432 0-2.048 0 0 0 16.384z" />
<glyph unicode="&#xe95e;" glyph-name="community" d="M1015.808 493.056l-165.888 165.888v108.544c0 16.384-14.336 30.72-30.72 30.72s-30.72-14.336-30.72-30.72v-49.152l-110.592 110.592c-12.288 12.288-30.72 12.288-43.008 0l-131.072-131.072-53.248 53.248c-12.288 12.288-30.72 12.288-43.008 0l-399.36-403.456c-12.288-12.288-12.288-30.72 0-43.008s30.72-12.288 43.008 0l380.928 380.928 380.928-380.928c6.144-6.144 14.336-8.192 20.48-8.192 8.192 0 14.336 2.048 20.48 8.192 12.288 12.288 12.288 30.72 0 43.008l-198.656 200.704v133.12c0 16.384-14.336 30.72-30.72 30.72s-30.72-14.336-30.72-30.72v-73.728l-47.104 47.104 110.592 110.592 315.392-313.344c6.144-6.144 14.336-8.192 20.48-8.192 8.192 0 14.336 2.048 20.48 8.192 12.288 12.288 12.288 30.72 2.048 40.96zM770.048 312.832l-317.44 317.44c-6.144 6.144-12.288 8.192-20.48 8.192s-16.384-4.096-20.48-8.192l-317.44-317.44c-4.096-4.096-6.144-10.24-8.192-16.384 0-4.096-2.048-8.192-2.048-14.336v-155.648c0-38.912 32.768-71.68 71.68-71.68h155.648c20.48 0 38.912 8.192 53.248 22.528 12.288 14.336 18.432 30.72 18.432 49.152v116.736c0 26.624 20.48 51.2 49.152 53.248 26.624-2.048 49.152-26.624 49.152-53.248v-112.64c0-18.432 6.144-34.816 18.432-49.152 14.336-14.336 32.768-22.528 53.248-22.528h155.648c38.912 0 71.68 32.768 71.68 71.68v153.6c0 4.096 0 8.192-2.048 14.336 0 6.144-4.096 10.24-8.192 14.336z" />
<glyph unicode="&#xe95f;" glyph-name="trash" d="M808.96 835.072h-159.744c-8.192 69.632-67.584 122.88-137.216 122.88-71.68 0-129.024-53.248-137.216-122.88h-159.744c-63.488 0-116.736-53.248-116.736-116.736v-6.144c0-49.152 30.72-92.16 73.728-108.544v-552.96c0-63.488 53.248-116.736 116.736-116.736h446.464c63.488 0 116.736 53.248 116.736 116.736v552.96c43.008 16.384 73.728 59.392 73.728 108.544v6.144c0 65.536-51.2 116.736-116.736 116.736zM512 902.656c40.96 0 73.728-28.672 81.92-67.584h-163.84c8.192 38.912 40.96 67.584 81.92 67.584zM796.672 50.688c0-34.816-26.624-61.44-61.44-61.44h-446.464c-34.816 0-61.44 26.624-61.44 61.44v544.768h569.344v-544.768zM870.4 712.192c0-34.816-26.624-61.44-61.44-61.44h-593.92c-34.816 0-61.44 26.624-61.44 61.44v6.144c0 34.816 26.624 61.44 61.44 61.44h593.92c34.816 0 61.44-26.624 61.44-61.44v-6.144zM362.496 60.928c14.336 0 28.672 12.288 28.672 28.672v311.296c0 14.336-12.288 28.672-28.672 28.672s-28.672-12.288-28.672-28.672v-313.344c2.048-14.336 14.336-26.624 28.672-26.624zM512 60.928c14.336 0 28.672 12.288 28.672 28.672v311.296c0 14.336-12.288 28.672-28.672 28.672-14.336 0-28.672-12.288-28.672-28.672v-313.344c0-14.336 14.336-26.624 28.672-26.624zM661.504 60.928c14.336 0 28.672 12.288 28.672 28.672v311.296c0 14.336-12.288 28.672-28.672 28.672-14.336 0-28.672-12.288-28.672-28.672v-313.344c0-14.336 12.288-26.624 28.672-26.624z" />
<glyph unicode="&#xe960;" glyph-name="community-register" d="M929.792 960h-673.792c-8.192 0-14.336-6.144-14.336-14.336v-65.536h-65.536c-8.192 0-14.336-6.144-14.336-14.336v-65.536h-67.584c-8.192 0-14.336-6.144-14.336-14.336v-833.536c0-8.192 6.144-14.336 14.336-14.336h673.792c8.192 0 14.336 6.144 14.336 14.336v65.536h65.536c8.192 0 14.336 6.144 14.336 14.336v65.536h65.536c8.192 0 14.336 6.144 14.336 14.336v833.536c2.048 8.192-4.096 14.336-12.288 14.336zM753.664-33.28h-643.072v802.816h452.608v-176.128c0-8.192 6.144-14.336 14.336-14.336h176.128v-612.352zM593.92 609.792v139.264l139.264-139.264h-139.264zM913.408 126.464h-49.152v311.296c0 8.192-6.144 14.336-14.336 14.336s-14.336-6.144-14.336-14.336v-391.168h-49.152v546.816c0 4.096-2.048 8.192-4.096 10.24l-194.56 192.512c-2.048 2.048-6.144 4.096-10.24 4.096h-387.072v49.152h643.072v-337.92c0-8.192 6.144-14.336 14.336-14.336s14.336 6.144 14.336 14.336v354.304c0 8.192-6.144 14.336-14.336 14.336h-577.536v49.152h643.072v-802.816z" />
<glyph unicode="&#xe961;" glyph-name="add-alt" d="M940.032 531.968h-344.064v344.064c0 47.104-36.864 83.968-83.968 83.968s-83.968-36.864-83.968-83.968v-344.064h-344.064c-47.104 0-83.968-36.864-83.968-83.968s36.864-83.968 83.968-83.968h344.064v-344.064c0-47.104 36.864-83.968 83.968-83.968s83.968 36.864 83.968 83.968v344.064h344.064c47.104 0 83.968 36.864 83.968 83.968s-36.864 83.968-83.968 83.968z" />
<glyph unicode="&#xe962;" glyph-name="community-survey-icon" d="M247.808 482.816h-94.208c-8.192 0-16.384-8.192-16.384-16.384v-163.84c0-8.192 8.192-16.384 16.384-16.384h96.256c8.192 0 16.384 8.192 16.384 16.384v163.84c-2.048 10.24-8.192 16.384-18.432 16.384zM231.424 318.976h-61.44v131.072h63.488v-131.072zM247.808 732.672h-94.208c-8.192 0-16.384-8.192-16.384-16.384v-163.84c0-8.192 8.192-16.384 16.384-16.384h96.256c8.192 0 16.384 8.192 16.384 16.384v163.84c-2.048 10.24-8.192 16.384-18.432 16.384zM231.424 568.832h-61.44v131.072h63.488v-131.072zM475.136 429.568h-96.256c-8.192 0-16.384-8.192-16.384-16.384v-163.84c0-8.192 8.192-16.384 16.384-16.384h96.256c8.192 0 16.384 8.192 16.384 16.384v163.84c0 10.24-6.144 16.384-16.384 16.384zM458.752 265.728h-63.488v131.072h63.488v-131.072zM1017.856 794.112l-184.32 133.12c-6.144 4.096-14.336 4.096-18.432 0l-184.32-133.12c-6.144-4.096-8.192-12.288-6.144-18.432s8.192-12.288 16.384-12.288h12.288v-176.128l-131.072 73.728c-4.096 2.048-10.24 2.048-16.384 0l-131.072-73.728v178.176h12.288c8.192 0 14.336 4.096 16.384 12.288 2.048 6.144 0 14.336-6.144 18.432l-184.32 133.12c-6.144 4.096-14.336 4.096-18.432 0l-184.32-133.12c-8.192-6.144-12.288-12.288-10.24-20.48 2.048-6.144 8.192-12.288 16.384-12.288h12.288v-784.384c0-8.192 8.192-16.384 16.384-16.384h106.496c8.192 0 16.384 8.192 16.384 16.384v178.176h63.488v-178.176c0-8.192 8.192-16.384 16.384-16.384h184.32c8.192 0 16.384 8.192 16.384 16.384v178.176h124.928v-178.176c0-8.192 8.192-16.384 16.384-16.384h71.68c2.048 0 4.096-2.048 6.144-2.048h106.496c8.192 0 16.384 8.192 16.384 16.384v178.176h63.488v-178.176c0-8.192 8.192-16.384 16.384-16.384h106.496c8.192 0 16.384 8.192 16.384 16.384v788.48h12.288c8.192 0 14.336 4.096 16.384 12.288 4.096 6.144 0 12.288-4.096 16.384zM962.56 769.536v-774.144h-73.728v178.176c0 8.192-8.192 16.384-16.384 16.384h-96.256c-8.192 0-16.384-8.192-16.384-16.384v-178.176h-83.968c-2.048 0-4.096 2.048-6.144 2.048h-61.44v178.176c0 8.192-8.192 16.384-16.384 16.384h-157.696c-8.192 0-16.384-8.192-16.384-16.384v-178.176h-151.552v178.176c0 8.192-8.192 16.384-16.384 16.384h-96.256c-8.192 0-16.384-8.192-16.384-16.384v-178.176h-75.776v784.384c0 4.096 0 6.144-2.048 10.24l141.312 102.4 141.312-102.4c-2.048-2.048-4.096-6.144-4.096-10.24v-221.184c0-6.144 4.096-12.288 8.192-14.336s12.288-2.048 16.384 0l147.456 83.968 147.456-83.968c6.144-2.048 12.288-2.048 16.384 0s8.192 8.192 8.192 14.336v208.896c4.096 4.096 6.144 8.192 4.096 14.336 0 4.096-2.048 8.192-6.144 10.24l139.264 100.352 143.36-100.352c-2.048-2.048-4.096-6.144-6.144-10.24 0-6.144 2.048-10.24 6.144-14.336zM645.12 429.568h-96.256c-8.192 0-16.384-8.192-16.384-16.384v-163.84c0-8.192 8.192-16.384 16.384-16.384h96.256c8.192 0 16.384 8.192 16.384 16.384v163.84c0 10.24-8.192 16.384-16.384 16.384zM628.736 265.728h-63.488v131.072h63.488v-131.072zM872.448 732.672h-96.256c-8.192 0-16.384-8.192-16.384-16.384v-163.84c0-8.192 8.192-16.384 16.384-16.384h96.256c8.192 0 16.384 8.192 16.384 16.384v163.84c0 8.192-8.192 16.384-16.384 16.384zM854.016 568.832h-63.488v131.072h63.488v-131.072zM872.448 482.816h-96.256c-8.192 0-16.384-8.192-16.384-16.384v-163.84c0-8.192 8.192-16.384 16.384-16.384h96.256c8.192 0 16.384 8.192 16.384 16.384v163.84c0 8.192-8.192 16.384-16.384 16.384zM854.016 316.928h-63.488v131.072h63.488v-131.072z" />
<glyph unicode="&#xe963;" glyph-name="family-health-survey-icon" d="M528.384 378.368c-59.392 0-102.4-43.008-102.4-102.4v-16.384c0-83.968 47.104-137.216 118.784-137.216s118.784 53.248 118.784 137.216v16.384c0 59.392-43.008 102.4-102.4 102.4h-32.768zM630.784 275.968v-16.384c0-30.72-8.192-102.4-86.016-102.4s-86.016 71.68-86.016 102.4v16.384c0 40.96 26.624 67.584 67.584 67.584h34.816c43.008 2.048 69.632-24.576 69.632-67.584zM512 275.968v0c-10.24 0-16.384-8.192-16.384-16.384s8.192-16.384 16.384-16.384c10.24 0 16.384 8.192 16.384 16.384s-6.144 16.384-16.384 16.384zM595.968 499.2c10.24 0 18.432 6.144 18.432 16.384l16.384 221.184c4.096 40.96 59.392 86.016 102.4 86.016h34.816c45.056 0 100.352-47.104 102.4-86.016l16.384-221.184c0-8.192 8.192-16.384 16.384-16.384 0 0 0 0 2.048 0 10.24 0 16.384 8.192 16.384 18.432l-16.384 221.184c-6.144 63.488-79.872 118.784-137.216 118.784h-34.816c-61.44 0-131.072-59.392-137.216-118.784l-16.384-221.184c0-10.24 6.144-18.432 16.384-18.432zM749.568 742.912c-2.048 6.144-8.192 12.288-16.384 12.288s-14.336-4.096-16.384-12.288c-12.288-38.912-51.2-38.912-51.2-38.912-10.24 0-16.384-8.192-16.384-16.384v-67.584c0-57.344 38.912-137.216 102.4-137.216s102.4 79.872 102.4 137.216v67.584c0 10.24-8.192 16.384-16.384 16.384-2.048 0-73.728 0-88.064 38.912zM819.2 617.984c0-47.104-30.72-102.4-67.584-102.4s-67.584 55.296-67.584 102.4v53.248c16.384 4.096 36.864 14.336 53.248 32.768 24.576-24.576 61.44-30.72 83.968-32.768l-2.048-53.248zM342.016 720.384h16.384c10.24 0 16.384 8.192 16.384 16.384 0 10.24-8.192 16.384-16.384 16.384h-16.384c-10.24 0-16.384-8.192-16.384-16.384-2.048-8.192 6.144-16.384 16.384-16.384zM581.632 243.2c10.24 0 16.384 8.192 16.384 16.384s-8.192 16.384-16.384 16.384v0c-10.24 0-16.384-8.192-16.384-16.384-2.048-10.24 6.144-16.384 16.384-16.384zM172.032 689.664c4.096-32.768 18.432-61.44 18.432-63.488 14.336-28.672 38.912-75.776 116.736-75.776s102.4 47.104 116.736 77.824c0 2.048 14.336 30.72 18.432 63.488 10.24 6.144 18.432 16.384 18.432 30.72v32.768c0 12.288-6.144 24.576-16.384 28.672v4.096c0 57.344-45.056 102.4-102.4 102.4h-67.584c-57.344 0-102.4-45.056-102.4-102.4v-4.096c-12.288-6.144-18.432-16.384-18.432-28.672v-34.816c0-12.288 8.192-24.576 18.432-30.72zM188.416 755.2c8.192 0 16.384 6.144 16.384 16.384v16.384c0 38.912 30.72 69.632 67.584 69.632h67.584c38.912 0 69.632-30.72 69.632-69.632v-16.384c0-10.24 8.192-16.384 16.384-16.384v-34.816c-10.24 0-16.384-8.192-16.384-16.384 0-28.672-14.336-59.392-14.336-61.44-18.432-34.816-32.768-59.392-88.064-59.392-53.248 0-69.632 22.528-88.064 59.392 0 0-14.336 30.72-14.336 61.44 0 10.24-8.192 16.384-16.384 16.384v34.816zM598.016 105.984c-4.096 0-6.144 0-10.24-2.048l-40.96-28.672-40.96 28.672c-2.048 2.048-6.144 2.048-10.24 2.048-98.304 0-118.784-47.104-118.784-86.016 0-10.24 8.192-16.384 16.384-16.384 10.24 0 16.384 8.192 16.384 16.384 0 14.336 0 49.152 79.872 51.2l47.104-30.72c6.144-4.096 12.288-4.096 18.432 0l47.104 30.72c79.872-2.048 79.872-36.864 79.872-51.2 0-10.24 8.192-16.384 16.384-16.384 10.24 0 16.384 8.192 16.384 16.384 2.048 38.912-18.432 86.016-116.736 86.016zM905.216 310.784v0c-10.24 0-16.384-8.192-16.384-16.384l-2.048-272.384c0-10.24 8.192-16.384 16.384-16.384v0c10.24 0 16.384 8.192 16.384 16.384l2.048 272.384c2.048 8.192-6.144 16.384-16.384 16.384zM256 720.384h16.384c10.24 0 16.384 8.192 16.384 16.384 0 10.24-8.192 16.384-16.384 16.384h-16.384c-10.24 0-16.384-8.192-16.384-16.384s6.144-16.384 16.384-16.384zM391.168 409.088l14.336 71.68c86.016-2.048 147.456-22.528 167.936-57.344 4.096-8.192 14.336-12.288 22.528-6.144 8.192 4.096 12.288 14.336 6.144 22.528-26.624 49.152-100.352 75.776-210.944 75.776-8.192 0-16.384-6.144-18.432-14.336l-16.384-86.016c-2.048-10.24 4.096-18.432 14.336-20.48 2.048 0 2.048 0 4.096 0 8.192 2.048 16.384 6.144 16.384 14.336zM983.040 429.568c-32.768 32.768-83.968 51.2-145.408 51.2-10.24 0-18.432-8.192-18.432-16.384 0-4.096-2.048-86.016-67.584-86.016-67.584 0-67.584 81.92-67.584 86.016 0 10.24-8.192 16.384-16.384 16.384-10.24 0-16.384-8.192-16.384-16.384 0-38.912 18.432-108.544 86.016-118.784v-86.016c0-10.24 8.192-16.384 16.384-16.384 10.24 0 16.384 8.192 16.384 16.384v86.016c57.344 8.192 79.872 61.44 83.968 100.352 45.056-2.048 81.92-16.384 106.496-40.96 20.48-20.48 32.768-49.152 32.768-77.824v-272.384c0-10.24 8.192-16.384 16.384-16.384 10.24 0 16.384 8.192 16.384 16.384v272.384c-2.048 38.912-16.384 75.776-43.008 102.4zM307.2 515.584c-18.432 0-34.816-14.336-34.816-34.816 0-12.288 6.144-22.528 16.384-28.672v-124.928c0-10.24 8.192-16.384 16.384-16.384 10.24 0 16.384 8.192 16.384 16.384v124.928c10.24 6.144 16.384 16.384 16.384 28.672 4.096 20.48-12.288 34.816-30.72 34.816zM118.784 310.784c-10.24 0-16.384-8.192-16.384-16.384v-272.384c0-10.24 8.192-16.384 16.384-16.384 10.24 0 16.384 8.192 16.384 16.384v272.384c2.048 8.192-6.144 16.384-16.384 16.384zM237.568 501.248c-2.048 8.192-10.24 14.336-18.432 14.336-90.112 0-157.696-18.432-192.512-53.248-18.432-18.432-26.624-40.96-26.624-65.536v-342.016c0-10.24 8.192-16.384 16.384-16.384 10.24 0 16.384 8.192 16.384 16.384v342.016c0 16.384 6.144 28.672 18.432 40.96 26.624 26.624 83.968 43.008 155.648 43.008l81.92-395.264c2.048-10.24 10.24-14.336 20.48-12.288s14.336 10.24 12.288 20.48l-83.968 407.552z" />
<glyph unicode="&#xe964;" glyph-name="next-alt" d="M288.768-64c-16.384 0-32.768 6.144-47.104 18.432-24.576 24.576-24.576 67.584 0 92.16l401.408 401.408-399.36 399.36c-24.576 24.576-24.576 67.584 0 92.16s67.584 24.576 92.16 0l446.464-446.464c24.576-24.576 24.576-67.584 0-92.16l-448.512-446.464c-12.288-12.288-28.672-18.432-45.056-18.432z" />
<glyph unicode="&#xe965;" glyph-name="arrow-up-alt" d="M1024 224.768c0-16.384-6.144-32.768-18.432-47.104-24.576-24.576-67.584-24.576-92.16 0l-401.408 401.408-399.36-399.36c-24.576-24.576-67.584-24.576-92.16 0s-24.576 67.584 0 92.16l446.464 446.464c24.576 24.576 67.584 24.576 92.16 0l448.512-448.512c10.24-12.288 16.384-28.672 16.384-45.056z" />
<glyph unicode="&#xe966;" glyph-name="back-alt" d="M735.232 960c16.384 0 32.768-6.144 47.104-18.432 24.576-24.576 24.576-67.584 0-92.16l-401.408-401.408 399.36-399.36c24.576-24.576 24.576-67.584 0-92.16s-67.584-24.576-92.16 0l-446.464 444.416c-24.576 24.576-24.576 67.584 0 92.16l448.512 448.512c12.288 12.288 28.672 18.432 45.056 18.432z" />
<glyph unicode="&#xe967;" glyph-name="arrow-down-alt" d="M0 671.232c0 16.384 6.144 32.768 18.432 47.104 24.576 24.576 67.584 24.576 92.16 0l401.408-401.408 399.36 399.36c24.576 24.576 67.584 24.576 92.16 0s24.576-67.584 0-92.16l-444.416-446.464c-24.576-24.576-67.584-24.576-92.16 0l-448.512 448.512c-12.288 12.288-18.432 28.672-18.432 45.056z" />
<glyph unicode="&#xe968;" d="M665.6 421.376l6.144 245.76 337.92-337.92c10.24 36.864 14.336 77.824 14.336 118.784 0 282.624-229.376 512-512 512s-512-229.376-512-512c0-282.624 229.376-512 512-512 26.624 0 53.248 2.048 79.872 6.144l-307.2 307.2 380.928 172.032z" />
<glyph unicode="&#xe969;" d="M1009.664 329.216l-337.92 337.92-6.144-245.76-380.928-169.984 307.2-307.2c204.8 30.72 370.688 184.32 417.792 385.024z" />
<glyph unicode="&#xe96a;" d="M358.4 660.992l-75.776-18.432v-393.216h53.248l22.528 24.576 24.576-24.576h34.816l18.432 262.144v131.072z" />
<glyph unicode="&#xe96b;" d="M665.6 660.992l-77.824-18.432v-131.072l18.432-262.144h34.816l24.576 22.528 22.528-22.528h53.248v393.216z" />
<glyph unicode="&#xe96c;" d="M575.488 642.56h180.224l-90.112 65.536z" />
<glyph unicode="&#xe96d;" d="M448.512 642.56h-180.224l90.112 65.536z" />
<glyph unicode="&#xe96e;" d="M358.4 708.096l-90.112-65.536h45.056z" />
<glyph unicode="&#xe96f;" d="M335.872 611.84v-55.296l22.528-12.288 24.576 12.288v55.296z" />
<glyph unicode="&#xe970;" d="M335.872 488.96v-55.296l22.528-12.288 24.576 12.288v55.296z" />
<glyph unicode="&#xe971;" d="M335.872 556.544h47.104v-26.624h-47.104v26.624z" />
<glyph unicode="&#xe972;" d="M335.872 433.664h47.104v-26.624h-47.104v26.624z" />
<glyph unicode="&#xe973;" d="M688.128 611.84v-55.296l-22.528-12.288-24.576 12.288v55.296z" />
<glyph unicode="&#xe974;" d="M688.128 488.96v-55.296l-22.528-12.288-24.576 12.288v55.296z" />
<glyph unicode="&#xe975;" d="M641.024 556.544h47.104v-26.624h-47.104v26.624z" />
<glyph unicode="&#xe976;" d="M641.024 433.664h47.104v-26.624h-47.104v26.624z" />
<glyph unicode="&#xe977;" d="M335.872 345.6h47.104v-96.256h-47.104v96.256z" />
<glyph unicode="&#xe978;" d="M641.024 345.6h47.104v-96.256h-47.104v96.256z" />
<glyph unicode="&#xe979;" d="M282.624 642.56h30.72v-393.216h-30.72v393.216z" />
<glyph unicode="&#xe97a;" d="M665.6 708.096l-90.112-65.536h43.008z" />
<glyph unicode="&#xe97b;" d="M587.776 642.56h30.72v-393.216h-30.72v393.216z" />
<glyph unicode="&#xe97c;" d="M606.208 249.344h-188.416v262.144l94.208 24.576 94.208-24.576z" />
<glyph unicode="&#xe97d;" d="M628.736 511.488h-233.472l116.736 65.536z" />
<glyph unicode="&#xe97e;" d="M466.944 511.488h-71.68l116.736 65.536z" />
<glyph unicode="&#xe97f;" d="M473.088 345.6h77.824v-96.256h-77.824v96.256z" />
<glyph unicode="&#xe980;" d="M446.464 462.336v-55.296l24.576-12.288 22.528 12.288v55.296z" />
<glyph unicode="&#xe981;" d="M446.464 407.040h47.104v-26.624h-47.104v26.624z" />
<glyph unicode="&#xe982;" d="M530.432 462.336v-55.296l22.528-12.288 24.576 12.288v55.296z" />
<glyph unicode="&#xe983;" d="M530.432 407.040h47.104v-26.624h-47.104v26.624z" />
<glyph unicode="&#xe984;" d="M417.792 511.488h49.152v-262.144h-49.152v262.144z" />
<glyph unicode="&#xe985;" glyph-name="community-alt" d="M247.808 482.816h-94.208c-8.192 0-16.384-8.192-16.384-16.384v-163.84c0-8.192 8.192-16.384 16.384-16.384h96.256c8.192 0 16.384 8.192 16.384 16.384v163.84c-2.048 10.24-8.192 16.384-18.432 16.384zM231.424 318.976h-61.44v131.072h63.488v-131.072zM247.808 734.72h-94.208c-8.192 0-16.384-8.192-16.384-16.384v-163.84c0-8.192 8.192-16.384 16.384-16.384h96.256c8.192 0 16.384 8.192 16.384 16.384v163.84c-2.048 8.192-8.192 16.384-18.432 16.384zM231.424 568.832h-61.44v131.072h63.488v-131.072zM475.136 431.616h-96.256c-8.192 0-16.384-8.192-16.384-16.384v-163.84c0-8.192 8.192-16.384 16.384-16.384h96.256c8.192 0 16.384 8.192 16.384 16.384v163.84c0 8.192-6.144 16.384-16.384 16.384zM458.752 265.728h-63.488v131.072h63.488v-131.072zM1017.856 796.16l-184.32 133.12c-6.144 4.096-14.336 4.096-18.432 0l-184.32-133.12c-6.144-4.096-8.192-12.288-6.144-18.432s8.192-12.288 16.384-12.288h12.288v-176.128l-131.072 73.728c-4.096 2.048-10.24 2.048-16.384 0l-131.072-73.728v176.128h12.288c8.192 0 14.336 4.096 16.384 12.288 2.048 6.144 0 14.336-6.144 18.432l-184.32 133.12c-6.144 4.096-14.336 4.096-18.432 0l-188.416-133.12c-4.096-4.096-8.192-12.288-6.144-18.432s8.192-12.288 16.384-12.288h12.288v-784.384c0-8.192 8.192-16.384 16.384-16.384h106.496c8.192 0 16.384 8.192 16.384 16.384v180.224h63.488v-178.176c0-8.192 8.192-16.384 16.384-16.384h184.32c8.192 0 16.384 8.192 16.384 16.384v178.176h124.928v-178.176c0-8.192 8.192-16.384 16.384-16.384h71.68c2.048 0 4.096-2.048 6.144-2.048h106.496c8.192 0 16.384 8.192 16.384 16.384v178.176h63.488v-178.176c0-8.192 8.192-16.384 16.384-16.384h106.496c8.192 0 16.384 8.192 16.384 16.384v784.384h12.288c8.192 0 14.336 4.096 16.384 12.288 4.096 6.144 0 14.336-4.096 18.432zM962.56 769.536v-772.096h-73.728v178.176c0 8.192-8.192 16.384-16.384 16.384h-96.256c-8.192 0-16.384-8.192-16.384-16.384v-178.176h-83.968c-2.048 0-4.096 2.048-6.144 2.048h-61.44v178.176c0 8.192-8.192 16.384-16.384 16.384h-157.696c-8.192 0-16.384-8.192-16.384-16.384v-180.224h-151.552v178.176c0 8.192-8.192 16.384-16.384 16.384h-96.256c-8.192 0-16.384-8.192-16.384-16.384v-178.176h-75.776v784.384c0 4.096 0 8.192-2.048 10.24l141.312 102.4 141.312-102.4c-2.048-2.048-4.096-6.144-4.096-10.24v-221.184c0-6.144 4.096-12.288 8.192-14.336s12.288-2.048 16.384 0l147.456 83.968 147.456-83.968c6.144-2.048 12.288-2.048 16.384 0s8.192 8.192 8.192 14.336v208.896c4.096 4.096 6.144 8.192 4.096 14.336 0 4.096-2.048 8.192-6.144 10.24l139.264 100.352 143.36-100.352c-2.048-2.048-4.096-6.144-6.144-10.24 0-4.096 2.048-10.24 6.144-14.336zM645.12 431.616h-96.256c-8.192 0-16.384-8.192-16.384-16.384v-163.84c0-8.192 8.192-16.384 16.384-16.384h96.256c8.192 0 16.384 8.192 16.384 16.384v163.84c0 8.192-8.192 16.384-16.384 16.384zM628.736 265.728h-63.488v131.072h63.488v-131.072zM872.448 732.672h-96.256c-8.192 0-16.384-8.192-16.384-16.384v-163.84c0-8.192 8.192-16.384 16.384-16.384h96.256c8.192 0 16.384 8.192 16.384 16.384v163.84c0 10.24-8.192 16.384-16.384 16.384zM854.016 568.832h-63.488v131.072h63.488v-131.072zM872.448 482.816h-96.256c-8.192 0-16.384-8.192-16.384-16.384v-163.84c0-8.192 8.192-16.384 16.384-16.384h96.256c8.192 0 16.384 8.192 16.384 16.384v163.84c0 8.192-8.192 16.384-16.384 16.384zM854.016 316.928h-63.488v131.072h63.488v-131.072z" />
<glyph unicode="&#xe986;" d="M741.376 521.728l251.904-251.904c20.48 55.296 32.768 114.688 32.768 178.176-2.048 282.624-231.424 512-514.048 512s-512-229.376-512-512c0-282.624 229.376-512 512-512 20.48 0 40.96 2.048 59.392 4.096l-303.104 303.104 473.088 278.528z" />
<glyph unicode="&#xe987;" d="M991.232 269.824l-276.48 276.48-446.464-303.104 303.104-303.104c194.56 22.528 354.304 153.6 419.84 329.728z" />
<glyph unicode="&#xe988;" d="M688.128 558.592l-169.984 139.264c-2.048 2.048-6.144 2.048-10.24 0l-169.984-139.264c-2.048-2.048-2.048-4.096-2.048-6.144v-309.248h356.352v309.248c-2.048 2.048-2.048 4.096-4.096 6.144z" />
<glyph unicode="&#xe989;" d="M552.96 669.184l-34.816 28.672c-2.048 2.048-6.144 2.048-10.24 0l-141.312-114.688-28.672-24.576c-2.048-2.048-2.048-4.096-2.048-4.096s0 0 0 0v-311.296c0-4.096 4.096-8.192 8.192-8.192h24.576v286.72l184.32 147.456z" />
<glyph unicode="&#xe98a;" d="M757.76 534.016c0 2.048-2.048 4.096-2.048 4.096l-227.328 178.176c-8.192 6.144-20.48 6.144-28.672 0l-227.328-178.176c-2.048-2.048-2.048-4.096-2.048-4.096s0-4.096 2.048-6.144l18.432-24.576c2.048-4.096 8.192-4.096 10.24-2.048l210.944 169.984 212.992-167.936c2.048-2.048 2.048-2.048 4.096-2.048s4.096 0 6.144 2.048l18.432 24.576c2.048 2.048 4.096 4.096 4.096 6.144z" />
<glyph unicode="&#xe98b;" d="M471.040 390.656h81.92v-147.456h-81.92v147.456z" />
<glyph unicode="&#xe98c;" d="M471.040 390.656h24.576v-147.456h-24.576v147.456z" />
<glyph unicode="&#xe98d;" d="M561.152 390.656c0 4.096-4.096 8.192-8.192 8.192h-81.92c-4.096 0-8.192-4.096-8.192-8.192v-145.408h96.256v145.408zM544.768 251.392h-65.536v131.072h65.536v-131.072z" />
<glyph unicode="&#xe98e;" d="M317.44 323.072c-22.528 0-40.96-18.432-40.96-40.96s18.432-40.96 40.96-40.96 40.96 18.432 40.96 40.96c-2.048 24.576-20.48 40.96-40.96 40.96z" />
<glyph unicode="&#xe98f;" d="M329.728 255.488c-22.528 0-40.96 18.432-40.96 40.96 0 8.192 2.048 14.336 6.144 20.48-12.288-6.144-18.432-20.48-18.432-34.816 0-22.528 18.432-40.96 40.96-40.96 14.336 0 26.624 8.192 34.816 18.432-8.192 0-14.336-4.096-22.528-4.096z" />
<glyph unicode="&#xe990;" d="M405.504 323.072c-22.528 0-40.96-18.432-40.96-40.96s18.432-40.96 40.96-40.96c22.528 0 40.96 18.432 40.96 40.96 0 24.576-18.432 40.96-40.96 40.96z" />
<glyph unicode="&#xe991;" d="M417.792 255.488c-22.528 0-40.96 18.432-40.96 40.96 0 8.192 2.048 16.384 6.144 22.528-10.24-8.192-18.432-20.48-18.432-32.768 0-22.528 18.432-40.96 40.96-40.96 14.336 0 26.624 8.192 32.768 18.432-4.096-6.144-12.288-8.192-20.48-8.192z" />
<glyph unicode="&#xe992;" d="M618.496 323.072c-22.528 0-40.96-18.432-40.96-40.96s18.432-40.96 40.96-40.96 40.96 18.432 40.96 40.96c-2.048 24.576-20.48 40.96-40.96 40.96z" />
<glyph unicode="&#xe993;" d="M626.688 255.488c-18.432 2.048-34.816 16.384-36.864 36.864 0 10.24 2.048 18.432 6.144 24.576-10.24-6.144-18.432-20.48-18.432-34.816 0-22.528 18.432-40.96 40.96-40.96 14.336 0 26.624 8.192 34.816 18.432-8.192-2.048-18.432-4.096-26.624-4.096z" />
<glyph unicode="&#xe994;" d="M706.56 323.072c-22.528 0-40.96-18.432-40.96-40.96s18.432-40.96 40.96-40.96c22.528 0 40.96 18.432 40.96 40.96 0 24.576-18.432 40.96-40.96 40.96z" />
<glyph unicode="&#xe995;" d="M718.848 255.488c-22.528 0-40.96 18.432-40.96 40.96 0 8.192 2.048 16.384 6.144 22.528-10.24-6.144-18.432-20.48-18.432-34.816 0-22.528 18.432-40.96 40.96-40.96 14.336 0 26.624 8.192 34.816 18.432-6.144-4.096-14.336-6.144-22.528-6.144z" />
<glyph unicode="&#xe996;" d="M552.96 511.488h98.304v-81.92h-98.304v81.92z" />
<glyph unicode="&#xe997;" d="M626.688 511.488l-73.728-71.68v-8.192h40.96l57.344 55.296v24.576z" />
<glyph unicode="&#xe998;" d="M552.96 511.488v-45.056l45.056 45.056z" />
<glyph unicode="&#xe999;" d="M612.352 431.616h38.912v36.864z" />
<glyph unicode="&#xe99a;" d="M651.264 519.68h-98.304c-4.096 0-8.192-4.096-8.192-8.192v-81.92c0-4.096 4.096-8.192 8.192-8.192h98.304c4.096 0 8.192 4.096 8.192 8.192v81.92c-2.048 4.096-4.096 8.192-8.192 8.192zM561.152 505.344h32.768v-65.536h-32.768v65.536zM643.072 437.76h-32.768v65.536h32.768v-65.536z" />
<glyph unicode="&#xe99b;" d="M372.736 511.488h98.304v-81.92h-98.304v81.92z" />
<glyph unicode="&#xe99c;" d="M446.464 511.488l-73.728-71.68v-8.192h43.008l55.296 55.296v24.576z" />
<glyph unicode="&#xe99d;" d="M372.736 511.488v-45.056l47.104 45.056z" />
<glyph unicode="&#xe99e;" d="M434.176 431.616h36.864v36.864z" />
<glyph unicode="&#xe99f;" d="M471.040 519.68h-98.304c-4.096 0-8.192-4.096-8.192-8.192v-81.92c0-4.096 4.096-8.192 8.192-8.192h98.304c4.096 0 8.192 4.096 8.192 8.192v81.92c0 4.096-4.096 8.192-8.192 8.192zM380.928 505.344h32.768v-65.536h-32.768v65.536zM462.848 437.76h-32.768v65.536h32.768v-65.536z" />
<glyph unicode="&#xe9a0;" d="M479.232 617.984h65.536v-65.536h-65.536v65.536z" />
<glyph unicode="&#xe9a1;" d="M544.768 626.176h-65.536c-4.096 0-8.192-4.096-8.192-8.192v-65.536c0-4.096 4.096-8.192 8.192-8.192h65.536c4.096 0 8.192 4.096 8.192 8.192v65.536c0 4.096-4.096 8.192-8.192 8.192zM536.576 593.408h-16.384v16.384h16.384v-16.384zM503.808 609.792v-16.384h-16.384v16.384h16.384zM487.424 577.024h16.384v-16.384h-16.384v16.384zM520.192 560.64v16.384h16.384v-16.384h-16.384z" />
<glyph unicode="&#xe9a2;" d="M495.616 308.736c-4.096 0-8.192 4.096-8.192 8.192v8.192c0 4.096 4.096 8.192 8.192 8.192s8.192-4.096 8.192-8.192v-8.192c0-4.096-4.096-8.192-8.192-8.192z" />
<glyph unicode="&#xe9a3;" d="M747.52 237.056h-471.040c-4.096 0-8.192 4.096-8.192 8.192s4.096 8.192 8.192 8.192h473.088c4.096 0 8.192-4.096 8.192-8.192s-6.144-8.192-10.24-8.192z" />
<glyph unicode="&#xe9a4;" glyph-name="home-alt" d="M413.696 531.968h-165.888c-16.384 0-28.672-12.288-28.672-28.672v-137.216c0-16.384 12.288-28.672 28.672-28.672h165.888c16.384 0 28.672 12.288 28.672 28.672v137.216c0 14.336-14.336 28.672-28.672 28.672zM409.6 368.128h-159.744v131.072h159.744v-131.072zM989.184 3.584h-100.352v514.048l45.056-34.816c12.288-10.24 34.816-8.192 45.056 6.144l38.912 49.152c6.144 6.144 8.192 14.336 6.144 22.528 0 8.192-6.144 16.384-12.288 20.48l-460.8 362.496c-22.528 18.432-55.296 18.432-77.824 0l-460.8-362.496c-6.144-6.144-10.24-12.288-12.288-20.48s2.048-16.384 6.144-22.528l38.912-49.152c6.144-6.144 12.288-10.24 20.48-12.288 2.048 0 2.048 0 4.096 0 6.144 0 14.336 2.048 20.48 6.144l45.056 34.816v-514.048h-100.352c-18.432 0-32.768-14.336-32.768-32.768s14.336-32.768 32.768-32.768h954.368c18.432 0 32.768 14.336 32.768 32.768s-14.336 32.768-32.768 32.768zM71.68 507.392l-38.912 47.104 460.8 362.496c6.144 4.096 12.288 6.144 18.432 6.144s12.288-2.048 18.432-6.144l460.8-362.496-36.864-45.056-65.536 51.2-376.832 294.912-370.688-290.816-6.144-4.096-63.488-53.248zM593.92-6.656h-163.84v274.432h163.84v-274.432zM626.688-27.136v294.912c0 18.432-14.336 32.768-32.768 32.768h-163.84c-18.432 0-32.768-14.336-32.768-32.768v-294.912h-229.376v571.392l344.064 270.336 344.064-270.336v-571.392h-229.376zM776.192 531.968h-165.888c-16.384 0-28.672-12.288-28.672-28.672v-137.216c0-16.384 12.288-28.672 28.672-28.672h165.888c16.384 0 28.672 12.288 28.672 28.672v137.216c0 14.336-12.288 28.672-28.672 28.672zM772.096 368.128h-157.696v131.072h159.744v-131.072z" />
</font>
</defs>
</svg>
