<?xml version="1.0" standalone="no"?>
<!DOCTYPE svg PUBLIC "-//W3C//DTD SVG 1.1//EN" "http://www.w3.org/Graphics/SVG/1.1/DTD/svg11.dtd" >
<svg>
<metadata>
Created by FontForge 20090914 at Thu Nov 22 10:30:39 2018
 By www-data
Copyright 2012 Google Inc. All Rights Reserved.
</metadata>
<defs>
<font id="NotoSans" horiz-adv-x="0" >
  <font-face 
    font-family="Noto Sans"
    font-weight="400"
    font-stretch="normal"
    units-per-em="2048"
    panose-1="2 11 5 2 4 5 4 2 2 4"
    ascent="1638"
    descent="-410"
    x-height="1098"
    cap-height="1462"
    bbox="-1139 -559.002 2706 2146"
    underline-thickness="102"
    underline-position="-103"
    unicode-range="U+000D-U+FFFD"
  />
<missing-glyph horiz-adv-x="1229" 
d="M193 1462h841v-1462h-841v1462zM297 104h633v1254h-633v-1254z" />
    <glyph glyph-name="uniFB01" unicode="fi" horiz-adv-x="1233" 
d="M680 958h-276.999v-958h-180v958h-192v84l192 62v63c0 133.333 29.167 233.333 87.5 300s148.166 100 269.499 100c70 0 141 -12.333 213 -37l-48 -141c-62 20 -116.333 30 -163 30c-60.667 0 -105.667 -20 -135 -60s-44 -103.333 -44 -190v-71h277v-140zM1059 0h-180
v1098h180v-1098zM865.001 1395c0 40 10.167 69 30.5 87s45.5 27 75.5 27c28 0 52.5 -9 73.5 -27s31.5 -47 31.5 -87c0 -39.333 -10.5 -68.333 -31.5 -87s-45.5 -28 -73.5 -28c-30 0 -55.167 9.33301 -75.5 28s-30.5 47.667 -30.5 87z" />
    <glyph glyph-name="uniFB02" unicode="fl" horiz-adv-x="1233" 
d="M680 958h-276.999v-958h-180v958h-192v84l192 62v63c0 133.333 29.167 233.333 87.5 300s148.166 100 269.499 100c70 0 141 -12.333 213 -37l-48 -141c-62 20 -116.333 30 -163 30c-60.667 0 -105.667 -20 -135 -60s-44 -103.333 -44 -190v-71h277v-140zM1059 0h-180
v1556h180v-1556z" />
    <glyph glyph-name="uniFB03" unicode="ffi" horiz-adv-x="1937" 
d="M680 958h-276.999v-958h-180v958h-192v84l192 62v63c0 133.333 29.167 233.333 87.5 300s148.166 100 269.499 100c70 0 141 -12.333 213 -37l-48 -141c-62 20 -116.333 30 -163 30c-60.667 0 -105.667 -20 -135 -60s-44 -103.333 -44 -190v-71h277v-140zM1385 958
h-276.999v-958h-180v958h-192v84l192 62v63c0 133.333 29.167 233.333 87.5 300s148.166 100 269.499 100c70 0 141 -12.333 213 -37l-48 -141c-62 20 -116.333 30 -163 30c-60.667 0 -105.667 -20 -135 -60s-44 -103.333 -44 -190v-71h277v-140zM1763 0h-180v1098h180
v-1098zM1569 1395c0 40 10.167 69 30.5 87s45.5 27 75.5 27c28 0 52.5 -9 73.5 -27s31.5 -47 31.5 -87c0 -39.333 -10.5 -68.333 -31.5 -87s-45.5 -28 -73.5 -28c-30 0 -55.167 9.33301 -75.5 28s-30.5 47.667 -30.5 87z" />
    <glyph glyph-name="uniFB04" unicode="ffl" horiz-adv-x="1937" 
d="M680 958h-276.999v-958h-180v958h-192v84l192 62v63c0 133.333 29.167 233.333 87.5 300s148.166 100 269.499 100c70 0 141 -12.333 213 -37l-48 -141c-62 20 -116.333 30 -163 30c-60.667 0 -105.667 -20 -135 -60s-44 -103.333 -44 -190v-71h277v-140zM1385 958
h-276.999v-958h-180v958h-192v84l192 62v63c0 133.333 29.167 233.333 87.5 300s148.166 100 269.499 100c70 0 141 -12.333 213 -37l-48 -141c-62 20 -116.333 30 -163 30c-60.667 0 -105.667 -20 -135 -60s-44 -103.333 -44 -190v-71h277v-140zM1763 0h-180v1556h180
v-1556z" />
    <glyph glyph-name=".notdef" horiz-adv-x="1229" 
d="M193 1462h841v-1462h-841v1462zM297 104h633v1254h-633v-1254z" />
    <glyph glyph-name="glyph1" 
 />
    <glyph glyph-name="glyph1" 
 />
    <glyph glyph-name="uni000D" unicode="&#xd;" horiz-adv-x="1044" 
 />
    <glyph glyph-name="space" unicode=" " horiz-adv-x="532" 
 />
    <glyph glyph-name="exclam" unicode="!" horiz-adv-x="551" 
d="M334 412h-117l-51 1050h219zM147 111c0 44 10.833 77.833 32.5 101.5s53.167 35.5 94.5 35.5s72.833 -12.167 94.5 -36.5s32.5 -57.833 32.5 -100.5s-11.167 -76.667 -33.5 -102s-53.5 -38 -93.5 -38c-40.667 0 -72 12.333 -94 37s-33 59 -33 103z" />
    <glyph glyph-name="quotedbl" unicode="&#x22;" horiz-adv-x="836" 
d="M328 1462l-41 -528h-113l-41 528h195zM702 1462l-40 -528h-113l-41 528h194z" />
    <glyph glyph-name="numbersign" unicode="#" horiz-adv-x="1323" 
d="M983 893l-63 -328h280v-137h-307l-84 -428h-145l84 428h-293l-80 -428h-144l78 428h-258v137h285l65 328h-274v135h299l82 434h147l-82 -434h295l82 434h142l-82 -434h260v-135h-287zM481 565h293l64 328h-293z" />
    <glyph glyph-name="dollar" unicode="$" horiz-adv-x="1171" 
d="M1040 449c0 -91.333 -33.8311 -167.001 -101.498 -227.001s-164.167 -97.667 -289.5 -113v-228h-131v219c-76 1.33301 -148.833 7.83301 -218.5 19.5s-127.167 27.834 -172.5 48.501v168c50 -23.333 111.167 -43.5 183.5 -60.5s141.5 -26.167 207.5 -27.5v428
c-136.667 43.333 -233.334 94.166 -290.001 152.499s-85 133.166 -85 224.499c0 88 33.667 160.333 101 217s158.666 91.334 273.999 104.001v180h131v-178c126.667 -3.33301 247 -28.666 361 -75.999l-56 -141c-103.333 40.667 -205 64.667 -305 72v-422
c106.667 -36 186.167 -70 238.5 -102s90.833 -68.5 115.5 -109.5s37 -90.5 37 -148.5zM858.002 435.999c0 48 -15.667 86.168 -47 114.501s-85.333 55.833 -162 82.5v-375c139.333 21.333 209 80.666 209 177.999zM326.002 1055c0 -48.667 14.333 -88 43 -118
s78.334 -57.667 149.001 -83v373c-62.667 -10.667 -110.334 -31 -143.001 -61s-49 -67 -49 -111z" />
    <glyph glyph-name="percent" unicode="%" horiz-adv-x="1702" 
d="M250 1026c0 -110 11.833 -192.833 35.5 -248.5s61.5 -83.5 113.5 -83.5c105.333 0 158 110.667 158 332c0 220 -52.667 330 -158 330c-52 0 -89.833 -27.5 -113.5 -82.5s-35.5 -137.5 -35.5 -247.5zM707 1026c0 -152 -26.167 -266.833 -78.5 -344.5
s-128.833 -116.5 -229.5 -116.5c-94.667 0 -168.167 39.833 -220.5 119.5s-78.5 193.5 -78.5 341.5c0 152.667 25.5 267 76.5 343s125.167 114 222.5 114c98 0 173.833 -39.5 227.5 -118.5s80.5 -191.833 80.5 -338.5zM1145 440c0 -111.333 11.833 -194.333 35.5 -249
s61.5 -82 113.5 -82c54 0 93.833 27.167 119.5 81.5s38.5 137.5 38.5 249.5c0 218.667 -52.667 328 -158 328c-52 0 -89.833 -27.167 -113.5 -81.5s-35.5 -136.5 -35.5 -246.5zM1602 440c0 -151.333 -26.333 -265.833 -79 -343.5s-129 -116.5 -229 -116.5
c-94.667 0 -168.167 39.833 -220.5 119.5s-78.5 193.167 -78.5 340.5c0 152.667 25.333 267 76 343s125 114 223 114s173.833 -39.5 227.5 -118.5s80.5 -191.833 80.5 -338.5zM1335 1462l-811 -1462h-157l811 1462h157z" />
    <glyph glyph-name="ampersand" unicode="&#x26;" horiz-adv-x="1499" 
d="M422 1167c0 -43.333 11.833 -86.668 35.5 -130.001s62.167 -91.333 115.5 -144c82.667 46 141 90 175 132s51 90 51 144c0 50.667 -17 91.334 -51 122.001s-78 46 -132 46c-59.333 0 -106.5 -15.667 -141.5 -47s-52.5 -72.333 -52.5 -123zM575 138.998
c151.333 0 279 48.665 383 145.998l-426 413c-92 -55.333 -154.167 -105.666 -186.5 -150.999s-48.5 -98.666 -48.5 -159.999c0 -75.333 25.667 -135.5 77 -180.5s118.333 -67.5 201 -67.5zM109 380.996c0 86.667 22.332 162.668 66.999 228.001
s127.334 132.666 248.001 201.999c-51.333 58 -87.833 103.833 -109.5 137.5s-38.5 68.334 -50.5 104.001s-18 73.167 -18 112.5c0 98.667 33 176.667 99 234s158.667 86 278 86c110 0 196.5 -28 259.5 -84s94.5 -133.333 94.5 -232
c0 -72.667 -22.833 -139.334 -68.5 -200.001s-120.5 -121.667 -224.5 -183l395 -380c62 72 110 180.333 144 325h182c-46 -190 -115.667 -336.667 -209 -440l299 -291h-244l-178 172c-76 -68 -154.5 -117 -235.5 -147s-170.5 -45 -268.5 -45
c-143.333 0 -255.833 35 -337.5 105s-122.5 168.667 -122.5 296z" />
    <glyph glyph-name="quotesingle" unicode="'" horiz-adv-x="461" 
d="M328 1462l-41 -528h-113l-41 528h195z" />
    <glyph glyph-name="parenleft" unicode="(" horiz-adv-x="614" 
d="M82 561c0 176.667 25.833 342.001 77.5 496.001s126.167 289 223.5 405h170c-96 -128.667 -168.167 -270 -216.5 -424s-72.5 -312.333 -72.5 -475c0 -160 24.667 -316.333 74 -469s120.333 -292 213 -418h-168c-98 113.333 -172.667 245.666 -224 396.999
s-77 314 -77 488z" />
    <glyph glyph-name="parenright" unicode=")" horiz-adv-x="614" 
d="M532 561c0 -175.333 -25.833 -338.668 -77.5 -490.001s-126.167 -283 -223.5 -395h-168c92.667 125.333 163.667 264.5 213 417.5s74 309.5 74 469.5c0 162.667 -24.167 321 -72.5 475s-120.5 295.333 -216.5 424h170c98 -116.667 172.667 -252.167 224 -406.5
s77 -319.166 77 -494.499z" />
    <glyph glyph-name="asterisk" unicode="*" horiz-adv-x="1128" 
d="M659 1556l-41 -393l394 111l28 -189l-376 -30l243 -324l-176 -96l-174 358l-158 -358l-182 96l240 324l-373 30l29 189l389 -111l-43 393h200z" />
    <glyph glyph-name="plus" unicode="+" horiz-adv-x="1171" 
d="M657 795h408v-146h-408v-422h-147v422h-408v146h408v424h147v-424z" />
    <glyph glyph-name="comma" unicode="," horiz-adv-x="549" 
d="M379 238l14.001 -22.999c-36.667 -142.667 -95.334 -302.334 -176.001 -479.001h-133c43.333 166.667 77.333 334 102 502h193z" />
    <glyph glyph-name="hyphen" unicode="-" horiz-adv-x="659" 
d="M82 469v160h496v-160h-496z" />
    <glyph glyph-name="period" unicode="." horiz-adv-x="549" 
d="M147 111c0 44 10.833 77.833 32.5 101.5s52.5 35.5 92.5 35.5c40.667 0 72.334 -11.833 95.001 -35.5s34 -57.5 34 -101.5c0 -43.333 -11.333 -77.5 -34 -102.5s-54.334 -37.5 -95.001 -37.5c-39.333 0 -70 12.333 -92 37s-33 59 -33 103z" />
    <glyph glyph-name="slash" unicode="/" horiz-adv-x="762" 
d="M741 1462l-544 -1462h-177l545 1462h176z" />
    <glyph glyph-name="zero" unicode="0" horiz-adv-x="1171" 
d="M1071 733c0 -254 -40.167 -443.001 -120.5 -567.001s-202.5 -186 -366.5 -186c-158.667 0 -279 63.833 -361 191.5s-123 314.834 -123 561.501c0 254.667 39.5 443.667 118.5 567s200.833 185 365.5 185c158.667 0 279.5 -64 362.5 -192s124.5 -314.667 124.5 -560z
M281 732.999c0 -212 24.1689 -364.999 72.502 -458.999s125.166 -141 230.499 -141c106.667 0 184.167 48.167 232.5 144.5s72.5 248.166 72.5 455.499c0 205.333 -24.167 356.333 -72.5 453s-125.833 145 -232.5 145s-183.834 -47.333 -231.501 -142
s-71.5 -246.667 -71.5 -456z" />
    <glyph glyph-name="one" unicode="1" horiz-adv-x="1171" 
d="M727 0h-176v1022c0 90.667 2.66699 174.667 8 252c-18.667 -20 -38.667 -38.667 -60 -56l-223 -184l-94 121l396 307h149v-1462z" />
    <glyph glyph-name="two" unicode="2" horiz-adv-x="1171" 
d="M1065 0l-966.998 0.00195312v150l383 387c115.333 116.667 191.666 200 228.999 250s65.166 98.333 83.499 145s27.5 97 27.5 151c0 77.333 -23 137.666 -69 180.999s-109 65 -189 65c-60 0 -116.833 -10 -170.5 -30s-114.167 -56.333 -181.5 -109l-96 121
c136.667 114.667 286 172 448 172c136 0 243.833 -34.833 323.5 -104.5s119.5 -164.5 119.5 -284.5c0 -64 -11.667 -125.833 -35 -185.5s-58.333 -120.334 -105 -182.001s-125 -146.167 -235 -253.5l-305 -301v-8h739v-164z" />
    <glyph glyph-name="three" unicode="3" horiz-adv-x="1171" 
d="M1010 1120c0 -93.333 -26.1699 -169.998 -78.5029 -229.998s-127.166 -100 -224.499 -120v-8c116.667 -14.667 203.834 -52 261.501 -112s86.5 -138 86.5 -234c0 -139.333 -48.333 -246.833 -145 -322.5s-235.334 -113.5 -416.001 -113.5
c-77.333 0 -148.5 5.66699 -213.5 17s-127.833 32 -188.5 62v168c62 -30.667 128.333 -54.334 199 -71.001s139 -25 205 -25c246.667 0 370 96.333 370 289c0 172 -136.333 258 -409 258h-142v153h144c114.667 0 204.334 24.5 269.001 73.5s97 116.833 97 203.5
c0 70 -23.5 124.667 -70.5 164s-112.167 59 -195.5 59c-64.667 0 -124.5 -8.83301 -179.5 -26.5s-118.167 -49.834 -189.5 -96.501l-90 123c60 47.333 129.167 84.5 207.5 111.5s161.5 40.5 249.5 40.5c142.667 0 253.834 -32.5 333.501 -97.5s119.5 -153.5 119.5 -265.5z
" />
    <glyph glyph-name="four" unicode="4" horiz-adv-x="1171" 
d="M1130 332h-212v-332h-175v332h-700v153l688 985h187v-976h212v-162zM743 494l-0.000976562 460c0 91.333 3.66699 199.333 11 324h-9c-7.33301 -17.333 -20.166 -43.333 -38.499 -78s-34.833 -62 -49.5 -82l-438 -624h524z" />
    <glyph glyph-name="five" unicode="5" horiz-adv-x="1171" 
d="M563 897c152.667 0 272.832 -38.334 360.499 -115.001s131.5 -181.667 131.5 -315c0 -152 -48.333 -271.167 -145 -357.5s-230.667 -129.5 -402 -129.5c-163.333 0 -289.666 26.333 -378.999 79v170c49.333 -29.333 108.666 -52.666 177.999 -69.999s137 -26 203 -26
c114.667 0 203.334 27.333 266.001 82s94 132.667 94 234c0 197.333 -122 296 -366 296c-78.667 0 -162 -10 -250 -30l-90 57l55 690h733v-164h-579l-35 -424c76.667 15.333 151.667 23 225 23z" />
    <glyph glyph-name="six" unicode="6" horiz-adv-x="1171" 
d="M113 625c0 572 223 857.999 669 857.999c77.333 0 137.666 -6.33301 180.999 -19v-153c-50.667 16 -109.667 24 -177 24c-155.333 0 -274.166 -47.333 -356.499 -142s-127.833 -244.667 -136.5 -450h12c73.333 114.667 188.666 172 345.999 172
c132 0 235.667 -40 311 -120s113 -188 113 -324c0 -151.333 -41.667 -271 -125 -359s-196.666 -132 -339.999 -132c-100 0 -187.5 25.333 -262.5 76s-132.833 124.834 -173.5 222.501s-61 213.167 -61 346.5zM608 130.999c92.667 0 164 29.667 214 89s75 143 75 251
c0 97.333 -24.333 172.166 -73 224.499s-118.667 78.5 -210 78.5c-58 0 -111.167 -12 -159.5 -36s-87 -57.333 -116 -100s-43.5 -86.667 -43.5 -132c0 -66.667 13.333 -129.167 40 -187.5s63.667 -104.166 111 -137.499s101.333 -50 162 -50z" />
    <glyph glyph-name="seven" unicode="7" horiz-adv-x="1171" 
d="M279 0l600 1298h-789v164h981v-139l-594 -1323h-198z" />
    <glyph glyph-name="eight" unicode="8" horiz-adv-x="1171" 
d="M584 1483c133.333 0 239.666 -31.0029 318.999 -93.0029s119 -147.667 119 -257c0 -73.333 -22.167 -139 -66.5 -197s-115.166 -112 -212.499 -162c118 -57.333 201.833 -117.166 251.5 -179.499s74.5 -134.166 74.5 -215.499c0 -121.333 -43 -218.166 -129 -290.499
s-202.667 -108.5 -350 -108.5c-156 0 -276.667 34 -362 102s-128 165 -128 291c0 166.667 101 297 303 391c-90.667 52 -156 108 -196 168s-60 127.667 -60 203c0 106 39.833 190.5 119.5 253.5s185.5 94.5 317.5 94.5zM276 370.997c0 -77.333 27.5 -138 82.5 -182
s130.833 -66 227.5 -66c95.333 0 170.333 22.5 225 67.5s82 107.167 82 186.5c0 64 -26 121 -78 171s-139.333 97.333 -262 142c-96.667 -41.333 -167 -87.333 -211 -138s-66 -111 -66 -181zM582 1337c-78.667 0 -141.332 -18.667 -187.999 -56s-70 -89 -70 -155
c0 -42 9 -79 27 -111s44 -60.667 78 -86s88.333 -53.666 163 -84.999c91.333 38 156.166 79.667 194.499 125s57.5 97.666 57.5 156.999c0 66.667 -23.667 118.5 -71 155.5s-111 55.5 -191 55.5z" />
    <glyph glyph-name="nine" unicode="9" horiz-adv-x="1171" 
d="M1065 838c0 -572 -224.001 -858.001 -672.001 -858.001c-77.333 0 -138.666 6.66699 -183.999 20v154c51.333 -18 111.333 -27 180 -27c108.667 0 198.334 21.833 269.001 65.5s124.5 107.334 161.5 191.001s58.167 194.834 63.5 333.501h-13
c-74.667 -113.333 -190.667 -170 -348 -170c-128.667 0 -230.834 39.167 -306.501 117.5s-113.5 186.5 -113.5 324.5c0 150.667 42.333 270.667 127 360s198 134 340 134c100 0 187.5 -25.5 262.5 -76.5s132.667 -125.333 173 -223s60.5 -212.834 60.5 -345.501z
M568.999 1331c-90.667 0 -161.334 -29.666 -212.001 -88.999s-76 -143 -76 -251c0 -97.333 23.833 -171.833 71.5 -223.5s117.167 -77.5 208.5 -77.5c60 0 114.667 12.167 164 36.5s88 57.166 116 98.499s42 85 42 131c0 66.667 -13.167 129 -39.5 187
s-63.166 103.833 -110.499 137.5s-102 50.5 -164 50.5z" />
    <glyph glyph-name="colon" unicode=":" horiz-adv-x="549" 
d="M147 111c0 44 10.833 77.833 32.5 101.5s52.5 35.5 92.5 35.5c40.667 0 72.334 -11.833 95.001 -35.5s34 -57.5 34 -101.5c0 -43.333 -11.333 -77.5 -34 -102.5s-54.334 -37.5 -95.001 -37.5c-39.333 0 -70 12.333 -92 37s-33 59 -33 103zM147 987
c0 44 10.501 78.167 31.501 102.5s52.167 36.5 93.5 36.5c42 0 74 -12 96 -36s33 -58.333 33 -103c0 -42.667 -11.333 -76.5 -34 -101.5s-54.334 -37.5 -95.001 -37.5c-39.333 0 -70 12.333 -92 37s-33 58.667 -33 102z" />
    <glyph glyph-name="semicolon" unicode=";" horiz-adv-x="549" 
d="M360 238l15 -22.999c-34.667 -132.667 -93.334 -292.334 -176.001 -479.001h-136c18 69.333 37.833 155 59.5 257s36.834 183.667 45.501 245h192zM143 987.001c0 44 10.501 78.167 31.501 102.5s52.167 36.5 93.5 36.5c86 0 129 -46.333 129 -139
c0 -44 -11.333 -78.167 -34 -102.5s-54.334 -36.5 -95.001 -36.5c-39.333 0 -70 12.333 -92 37s-33 58.667 -33 102z" />
    <glyph glyph-name="less" unicode="&#x3c;" horiz-adv-x="1171" 
d="M1067 238l-965 424v102l965 481v-160l-772 -364l772 -324v-159z" />
    <glyph glyph-name="equal" unicode="=" horiz-adv-x="1171" 
d="M115 852v145h938v-145h-938zM115 444v146h938v-146h-938z" />
    <glyph glyph-name="greater" unicode="&#x3e;" horiz-adv-x="1171" 
d="M102 397l772 322l-772 366v160l965 -481v-102l-965 -424v159z" />
    <glyph glyph-name="question" unicode="?" horiz-adv-x="889" 
d="M287 412l-0.00195312 54.999c0 79.333 12.667 143.833 38 193.5s70 101.167 134 154.5c72.667 61.333 120.334 105.333 143.001 132s38.667 53.334 48 80.001s14 57.667 14 93c0 66 -21.333 116.667 -64 152s-104 53 -184 53c-53.333 0 -105.5 -6.66699 -156.5 -20
s-108.167 -35.333 -171.5 -66l-63 143c126.667 67.333 261 101 403 101c126.667 0 226.334 -31.5 299.001 -94.5s109 -151.167 109 -264.5c0 -49.333 -6.66699 -93 -20 -131s-33.5 -74 -60.5 -108s-80.833 -84.667 -161.5 -152c-66 -56.667 -109.833 -103.5 -131.5 -140.5
s-32.5 -85.833 -32.5 -146.5v-34h-143zM239.998 110.999c0 91.333 42.333 137 127 137c38.667 0 69.167 -11.5 91.5 -34.5s33.5 -57.167 33.5 -102.5c0 -44.667 -11.333 -79.167 -34 -103.5s-53 -36.5 -91 -36.5c-37.333 0 -67.833 11 -91.5 33s-35.5 57.667 -35.5 107z" />
    <glyph glyph-name="at" unicode="@" horiz-adv-x="1841" 
d="M1722 731c0 -93.333 -14.8311 -179.337 -44.498 -258.004s-71.167 -140 -124.5 -184s-115 -66 -185 -66c-56.667 0 -104.334 16.5 -143.001 49.5s-62.667 75.833 -72 128.5h-10c-26 -55.333 -64 -98.833 -114 -130.5s-108.333 -47.5 -175 -47.5
c-101.333 0 -181 33.833 -239 101.5s-87 160.834 -87 279.501c0 88.667 17.833 168.167 53.5 238.5s86.834 125 153.501 164s142.667 58.5 228 58.5c46 0 98.5 -4.16699 157.5 -12.5s110.833 -20.5 155.5 -36.5l-23 -468v-22c0 -117.333 42.333 -176 127 -176
c59.333 0 107.333 35 144 105s55 162.667 55 278c0 119.333 -24.5 224 -73.5 314s-118.667 159.167 -209 207.5s-193.5 72.5 -309.5 72.5c-146.667 0 -274.5 -30.5 -383.5 -91.5s-192.5 -148 -250.5 -261s-87 -244.5 -87 -394.5c0 -201.333 53 -356.166 159 -464.499
s260 -162.5 462 -162.5c141.333 0 288 29.333 440 88v-139c-133.333 -56 -280 -84 -440 -84c-242.667 0 -431.334 66.5 -566.001 199.5s-202 318.167 -202 555.5c0 172.667 35.833 326.834 107.5 462.501s173.5 240.667 305.5 315s283.667 111.5 455 111.5
c143.333 0 271.166 -30.333 383.499 -91s199 -146.667 260 -258s91.5 -238.666 91.5 -381.999zM688.002 599.996c0 -166.667 64.333 -250.001 193 -250.001c136.667 0 211 103 223 309l12 256c-48.667 14 -99 21 -151 21c-86 0 -153.667 -29.667 -203 -89
s-74 -141.666 -74 -246.999z" />
    <glyph glyph-name="A" unicode="A" horiz-adv-x="1309" 
d="M1116 0l-176 453h-580l-174 -453h-186l571 1468h166l570 -1468h-191zM885 616l-164 443l-70 219c-20 -80 -41 -153 -63 -219l-166 -443h463z" />
    <glyph glyph-name="B" unicode="B" horiz-adv-x="1331" 
d="M199 1462l417 0.000976562c196 0 337.5 -29.167 424.5 -87.5s130.5 -149.833 130.5 -274.5c0 -86.667 -23.667 -158.167 -71 -214.5s-116.333 -92.833 -207 -109.5v-10c112.667 -19.333 195.5 -58.333 248.5 -117s79.5 -136.334 79.5 -233.001
c0 -130.667 -44.667 -232.667 -134 -306s-214 -110 -374 -110h-514v1462zM383 840.001h270c114.667 0 198 18.333 250 55s78 98 78 184c0 80 -28.5 137.667 -85.5 173s-147.167 53 -270.5 53h-242v-465zM383 686.001v-530h295c117.333 0 204.333 22.667 261 68
s85 114 85 206c0 87.333 -30 151.833 -90 193.5s-150 62.5 -270 62.5h-281z" />
    <glyph glyph-name="C" unicode="C" horiz-adv-x="1294" 
d="M825 1321c-157.333 0 -281 -52.666 -371 -157.999s-135 -249.333 -135 -432c0 -188.667 43.667 -334.167 131 -436.5s211.666 -153.5 372.999 -153.5c104 0 221 19.333 351 58v-160c-62 -22.667 -121.667 -38.167 -179 -46.5s-123.333 -12.5 -198 -12.5
c-215.333 0 -381.166 65.5 -497.499 196.5s-174.5 316.5 -174.5 556.5c0 150.667 27.833 282.667 83.5 396s136.667 200.666 243 261.999s231.5 92 375.5 92c154.667 0 289.334 -28.667 404.001 -86l-74 -156c-116.667 53.333 -227.334 80 -332.001 80z" />
    <glyph glyph-name="D" unicode="D" horiz-adv-x="1495" 
d="M1370 745c0 -241.333 -65.833 -425.833 -197.5 -553.5s-320.5 -191.5 -566.5 -191.5h-407v1462h450c227.333 0 404.333 -62.5 531 -187.5s190 -301.5 190 -529.5zM1176 739c0 186 -45.833 326.833 -137.5 422.5s-230.167 143.5 -415.5 143.5h-240v-1147h199
c396 0 594 193.667 594 581z" />
    <glyph glyph-name="E" unicode="E" horiz-adv-x="1139" 
d="M1016 0h-817v1462h817v-162h-633v-456h596v-160h-596v-522h633v-162z" />
    <glyph glyph-name="F" unicode="F" horiz-adv-x="1063" 
d="M383 0h-184v1462h817v-162h-633v-518h594v-161h-594v-621z" />
    <glyph glyph-name="G" unicode="G" horiz-adv-x="1491" 
d="M834 772l505.002 0.000976562v-717c-77.333 -24.667 -156 -43.334 -236 -56.001s-172.667 -19 -278 -19c-222.667 0 -395 66 -517 198s-183 316.333 -183 553c0 152.667 30.333 286 91 400s148.167 201.167 262.5 261.5s249.166 90.5 404.499 90.5
c156 0 301.333 -28.667 436 -86l-70 -160c-128.667 56 -254.334 84 -377.001 84c-174 0 -310 -52.667 -408 -158s-147 -249.333 -147 -432c0 -193.333 47 -340.333 141 -441s230.667 -151 410 -151c98 0 193.667 11.667 287 35v434h-321v164z" />
    <glyph glyph-name="H" unicode="H" horiz-adv-x="1518" 
d="M1317 0h-184v682h-750v-682h-184v1462h184v-618h750v618h184v-1462z" />
    <glyph glyph-name="I" unicode="I" horiz-adv-x="694" 
d="M610 0h-528v106l172 39v1170l-172 41v106h528v-106l-172 -41v-1170l172 -39v-106z" />
    <glyph glyph-name="J" unicode="J" horiz-adv-x="559" 
d="M-8 -389c-62.667 0 -113.331 9 -151.998 27v155c47.333 -13.333 96.666 -20 147.999 -20c66.667 0 116.667 20.167 150 60.5s50 98.5 50 174.5v1454h185v-1439c0 -132 -32.833 -233.667 -98.5 -305s-159.834 -107 -282.501 -107z" />
    <glyph glyph-name="K" unicode="K" horiz-adv-x="1268" 
d="M1268 0h-217l-519 698l-149 -131v-567h-184v1462h184v-721l126 139l521 582h215l-579 -637z" />
    <glyph glyph-name="L" unicode="L" horiz-adv-x="1073" 
d="M199 0v1462h184v-1298h639v-164h-823z" />
    <glyph glyph-name="M" unicode="M" horiz-adv-x="1858" 
d="M844 0l-482 1282h-8c10 -106.667 15 -238.334 15 -395.001v-887h-170v1462h272l451 -1198h8l459 1198h270v-1462h-182v899c0 100 4.66699 227 14 381h-8l-488 -1280h-151z" />
    <glyph glyph-name="N" unicode="N" horiz-adv-x="1556" 
d="M1358 0l-215 -0.000976562l-783 1214h-8l5 -81c8 -121.333 12 -226.666 12 -315.999v-817h-170v1462h213l45 -71l480 -742l255 -397h8c-1.33301 16 -4 73.167 -8 171.5s-6 169.5 -6 213.5v825h172v-1462z" />
    <glyph glyph-name="O" unicode="O" horiz-adv-x="1599" 
d="M1475 733c0 -234 -59.167 -418 -177.5 -552s-283.833 -201 -496.5 -201c-215.333 0 -381.833 65.833 -499.5 197.5s-176.5 317.5 -176.5 557.5c0 238 58.5 422.5 175.5 553.5s284.5 196.5 502.5 196.5c212 0 377 -66.5 495 -199.5s177 -317.167 177 -552.5zM319 733
c0 -193.333 41.001 -340.667 123.001 -442s201.667 -152 359 -152c156.667 0 275.667 50 357 150s122 248 122 444c0 195.333 -40.333 342.5 -121 441.5s-199.334 148.5 -356.001 148.5c-158.667 0 -279 -50.167 -361 -150.5s-123 -246.833 -123 -439.5z" />
    <glyph glyph-name="P" unicode="P" horiz-adv-x="1239" 
d="M1135 1032c0 -149.333 -51 -263.833 -153 -343.5s-245.667 -119.5 -431 -119.5h-168v-569h-184v1462h387c366 0 549 -143.333 549 -430zM383 727h147.002c145.333 0 250.666 23.5 315.999 70.5s98 122.5 98 226.5c0 94 -30.333 164.333 -91 211s-155.334 70 -284.001 70
h-186v-578z" />
    <glyph glyph-name="Q" unicode="Q" horiz-adv-x="1599" 
d="M1475 733c0 -184.667 -37 -338.667 -111 -462s-179 -208.333 -315 -255l350 -364h-264l-283 330l-51 -2c-215.333 0 -381.833 65.833 -499.5 197.5s-176.5 317.5 -176.5 557.5c0 238 58.5 422.5 175.5 553.5s284.5 196.5 502.5 196.5c212 0 377 -66.5 495 -199.5
s177 -317.167 177 -552.5zM319 733c0 -193.333 41.001 -340.667 123.001 -442s201.667 -152 359 -152c156.667 0 275.667 50 357 150s122 248 122 444c0 195.333 -40.333 342.5 -121 441.5s-199.334 148.5 -356.001 148.5c-158.667 0 -279 -50.167 -361 -150.5
s-123 -246.833 -123 -439.5z" />
    <glyph glyph-name="R" unicode="R" horiz-adv-x="1274" 
d="M383 760h218.999c118.667 0 205.334 23.333 260.001 70s82 116 82 208s-27.667 159.167 -83 201.5s-145 63.5 -269 63.5h-209v-543zM382.999 604v-604h-184v1462h403c181.333 0 315.5 -34.5 402.5 -103.5s130.5 -172.833 130.5 -311.5c0 -194 -97.667 -324.667 -293 -392
l401 -655h-215l-354 604h-291z" />
    <glyph glyph-name="S" unicode="S" horiz-adv-x="1124" 
d="M1028 391c0 -127.333 -45.998 -227.667 -137.998 -301s-220 -110 -384 -110c-173.333 0 -307.333 23 -402 69v176c62 -26.667 129.833 -47.667 203.5 -63s142.5 -23 206.5 -23c109.333 0 191.666 21 246.999 63s83 99.667 83 173c0 48.667 -10 88.667 -30 120
s-53.5 60.666 -100.5 87.999s-118.167 58.333 -213.5 93c-135.333 49.333 -232 107.5 -290 174.5s-87 153.5 -87 259.5c0 114 42.833 204.667 128.5 272s198.5 101 338.5 101c146 0 280.333 -27.333 403 -82l-57 -158c-125.333 52 -242 78 -350 78
c-86.667 0 -154.5 -18.667 -203.5 -56s-73.5 -89.666 -73.5 -156.999c0 -48 9.5 -87.833 28.5 -119.5s49.667 -60.5 92 -86.5s108.833 -55.667 199.5 -89c108.667 -40 189.667 -78.833 243 -116.5s92.666 -81 117.999 -130s38 -107.5 38 -175.5z" />
    <glyph glyph-name="T" unicode="T" horiz-adv-x="1139" 
d="M662 0h-185v1300h-457v162h1096v-162h-454v-1300z" />
    <glyph glyph-name="U" unicode="U" horiz-adv-x="1497" 
d="M1311 1462l0.000976562 -946c0 -166.667 -50.333 -297.667 -151 -393s-240.334 -143 -419.001 -143c-176.667 0 -313.667 48.167 -411 144.5s-146 228.166 -146 395.499v942h185v-948c0 -119.333 31.833 -211.666 95.5 -276.999s159.5 -98 287.5 -98
c120.667 0 213.5 32.333 278.5 97s97.5 158 97.5 280v946h183z" />
    <glyph glyph-name="V" unicode="V" horiz-adv-x="1229" 
d="M0 1462h193l329 -938c42 -118.667 72.667 -225 92 -319c16.667 84 47.667 191.667 93 323l327 934h195l-522 -1462h-185z" />
    <glyph glyph-name="W" unicode="W" horiz-adv-x="1905" 
d="M1489 0l-186.002 -0.000976562l-285 958c-42 142.667 -66.667 239 -74 289c-10.667 -76.667 -34 -175 -70 -295l-276 -952h-186l-387 1462h192l227 -893c30.667 -116.667 54 -232.667 70 -348c14.667 109.333 40.667 229 78 359l258 882h190l269 -889
c34.667 -115.333 61.334 -232.666 80.001 -351.999c10.667 92 34.334 208.667 71.001 350l226 891h192z" />
    <glyph glyph-name="X" unicode="X" horiz-adv-x="1200" 
d="M1192 0h-209l-387 635l-393 -635h-195l486 762l-455 700h205l358 -573l361 573h194l-452 -696z" />
    <glyph glyph-name="Y" unicode="Y" horiz-adv-x="1159" 
d="M580 743l381 719h198l-487 -895v-567h-185v559l-487 903h201z" />
    <glyph glyph-name="Z" unicode="Z" horiz-adv-x="1171" 
d="M1092 0h-1014v139l770 1159h-746v164h969v-139l-770 -1159h791v-164z" />
    <glyph glyph-name="bracketleft" unicode="[" horiz-adv-x="674" 
d="M623 -324h-459v1786h459v-147h-283v-1491h283v-148z" />
    <glyph glyph-name="backslash" unicode="\" horiz-adv-x="762" 
d="M197 1462l546 -1462h-178l-545 1462h177z" />
    <glyph glyph-name="bracketright" unicode="]" horiz-adv-x="674" 
d="M51 -176h283v1491h-283v147h459v-1786h-459v148z" />
    <glyph glyph-name="asciicircum" unicode="^" horiz-adv-x="1171" 
d="M78 547l434 926h102l480 -926h-160l-369 735l-327 -735h-160z" />
    <glyph glyph-name="underscore" unicode="_" horiz-adv-x="909" 
d="M913 -315h-917v131h917v-131z" />
    <glyph glyph-name="grave" unicode="`" horiz-adv-x="1188" 
d="M799 1241h-120.997c-50 40 -104.833 91.833 -164.5 155.5s-101.834 114.167 -126.501 151.5v21h215c21.333 -44 51.666 -96.5 90.999 -157.5s74.666 -109.5 105.999 -145.5v-25z" />
    <glyph glyph-name="a" unicode="a" horiz-adv-x="1149" 
d="M852 0l-35 155.998h-8c-54.667 -68.667 -109.167 -115.167 -163.5 -139.5s-122.833 -36.5 -205.5 -36.5c-108 0 -192.667 28.333 -254 85s-92 136.667 -92 240c0 222.667 175.667 339.334 527 350.001l186 7v65c0 83.333 -18 144.833 -54 184.5s-93.667 59.5 -173 59.5
c-58 0 -112.833 -8.66699 -164.5 -26s-100.167 -36.666 -145.5 -57.999l-55 135c55.333 29.333 115.666 52.333 180.999 69s130 25 194 25c132.667 0 231.334 -29.333 296.001 -88s97 -152 97 -280v-748h-131zM481 124.998c100.667 0 179.833 27.167 237.5 81.5
s86.5 131.5 86.5 231.5v99l-162 -7c-126 -4.66699 -217.833 -24.667 -275.5 -60s-86.5 -91 -86.5 -167c0 -57.333 17.5 -101.333 52.5 -132s84.167 -46 147.5 -46z" />
    <glyph glyph-name="b" unicode="b" horiz-adv-x="1260" 
d="M694 1116c144.667 0 256.333 -49.834 335 -149.501s118 -238.834 118 -417.501c0 -181.333 -40 -321.5 -120 -420.5s-191 -148.5 -333 -148.5c-74 0 -140 13.333 -198 40s-105.333 66.334 -142 119.001h-14c-20.667 -80 -33 -126.333 -37 -139h-129v1556h180v-378
c0 -75.333 -3.33301 -150.666 -10 -225.999h10c74 109.333 187.333 164 340 164zM663.999 966.999c-110.667 0 -189.999 -31.333 -237.999 -94s-72 -168.667 -72 -318v-8c0 -150 24.5 -257.167 73.5 -321.5s129.167 -96.5 240.5 -96.5c98.667 0 172.167 36.167 220.5 108.5
s72.5 176.833 72.5 313.5c0 138.667 -24.333 242.667 -73 312s-123.334 104 -224.001 104z" />
    <glyph glyph-name="c" unicode="c" horiz-adv-x="983" 
d="M614 -20c-158 0 -280.998 48.5 -368.998 145.5s-132 236.167 -132 417.5c0 184 44.5 325.833 133.5 425.5s215.833 149.5 380.5 149.5c53.333 0 106.166 -5.5 158.499 -16.5s95.5 -25.167 129.5 -42.5l-55 -150c-92.667 34.667 -171.667 52 -237 52
c-110.667 0 -192.334 -34.833 -245.001 -104.5s-79 -173.5 -79 -311.5c0 -132.667 26.333 -234.167 79 -304.5s130.667 -105.5 234 -105.5c96.667 0 191.667 21.333 285 64v-160c-76 -39.333 -170.333 -59 -283 -59z" />
    <glyph glyph-name="d" unicode="d" horiz-adv-x="1260" 
d="M563 -20c-142.667 0 -253.332 49.333 -331.999 148s-118 238.334 -118 419.001c0 179.333 39.5 319.333 118.5 420s190.167 151 333.5 151c147.333 0 260.666 -54 339.999 -162h13c-2 13.333 -4.66699 40.166 -8 80.499s-5 67.5 -5 81.5v438h180v-1556h-145l-27 147h-8
c-76.667 -111.333 -190.667 -167 -342 -167zM592.002 129c109.333 0 189.168 29.834 239.501 89.501s75.5 157.5 75.5 293.5v33c0 152.667 -25.5 261.5 -76.5 326.5s-131.167 97.5 -240.5 97.5c-92.667 0 -164.334 -36.833 -215.001 -110.5s-76 -178.834 -76 -315.501
c0 -136 25.167 -239 75.5 -309s122.833 -105 217.5 -105z" />
    <glyph glyph-name="e" unicode="e" horiz-adv-x="1155" 
d="M641 -20c-164.667 0 -293.835 49.833 -387.502 149.5s-140.5 236.834 -140.5 411.501c0 176 43.667 316.167 131 420.5s205.333 156.5 354 156.5c138 0 248 -44.5 330 -133.5s123 -209.5 123 -361.5v-109h-752c3.33301 -124.667 35 -219.334 95 -284.001s145 -97 255 -97
c58.667 0 114.334 5.16699 167.001 15.5s114.334 30.5 185.001 60.5v-158c-60.667 -26 -117.667 -44.333 -171 -55s-116.333 -16 -189 -16zM595.999 971c-86 0 -154 -27.667 -204 -83s-79.667 -132.333 -89 -231h559c-1.33301 102.667 -25 180.667 -71 234s-111 80 -195 80z
" />
    <glyph glyph-name="f" unicode="f" horiz-adv-x="705" 
d="M680 958h-276.999v-958h-180v958h-192v84l192 62v63c0 133.333 29.167 233.333 87.5 300s148.166 100 269.499 100c70 0 141 -12.333 213 -37l-48 -141c-62 20 -116.333 30 -163 30c-60.667 0 -105.667 -20 -135 -60s-44 -103.333 -44 -190v-71h277v-140z" />
    <glyph glyph-name="g" unicode="g" horiz-adv-x="1260" 
d="M592 127c110.667 0 191.168 29.832 241.501 89.499s75.5 155.5 75.5 287.5v43c0 146.667 -25.333 253.334 -76 320.001s-132.334 100 -245.001 100c-92 0 -163.167 -36.5 -213.5 -109.5s-75.5 -177.167 -75.5 -312.5c0 -136 24.5 -239.667 73.5 -311
s122.167 -107 219.5 -107zM907.001 9.99902l6.00098 134.998h-8c-74 -110 -187.333 -165 -340 -165c-142 0 -252.833 49.5 -332.5 148.5s-119.5 238.5 -119.5 418.5c0 176.667 40.167 316 120.5 418s190.166 153 329.499 153c148.667 0 263.334 -55.333 344.001 -166h11
l24 146h143v-1116c0 -157.333 -39.833 -275.666 -119.5 -354.999s-203.5 -119 -371.5 -119c-160 0 -291.667 23.333 -395 70v166c106.667 -57.333 241.667 -86 405 -86c93.333 0 167.166 27.333 221.499 82s81.5 130.334 81.5 227.001v43z" />
    <glyph glyph-name="h" unicode="h" horiz-adv-x="1266" 
d="M922 0l0.00195312 702c0 89.333 -19.833 155.833 -59.5 199.5s-101.834 65.5 -186.501 65.5c-111.333 0 -192.833 -31 -244.5 -93s-77.5 -164.333 -77.5 -307v-567h-180v1556h180v-456c0 -60 -3.33301 -111.333 -10 -154h12c32.667 53.333 79 95 139 125
s127.667 45 203 45c133.333 0 233.666 -31.833 300.999 -95.5s101 -165.5 101 -305.5v-715h-178z" />
    <glyph glyph-name="i" unicode="i" horiz-adv-x="528" 
d="M354 0h-180v1098h180v-1098zM160 1395c0 40 10.167 69 30.5 87s45.5 27 75.5 27c28 0 52.5 -9 73.5 -27s31.5 -47 31.5 -87c0 -39.333 -10.5 -68.333 -31.5 -87s-45.5 -28 -73.5 -28c-30 0 -55.167 9.33301 -75.5 28s-30.5 47.667 -30.5 87z" />
    <glyph glyph-name="j" unicode="j" horiz-adv-x="528" 
d="M45 -492c-62.667 0 -115.334 8.33301 -158.001 25v145c46 -13.333 91.333 -20 136 -20c52 0 90.167 14.167 114.5 42.5s36.5 71.5 36.5 129.5v1268h180v-1262c0 -109.333 -26.167 -191.333 -78.5 -246s-129.166 -82 -230.499 -82zM160 1395c0 40 10.167 69 30.5 87
s45.5 27 75.5 27c28 0 52.5 -9 73.5 -27s31.5 -47 31.5 -87c0 -39.333 -10.5 -68.333 -31.5 -87s-45.5 -28 -73.5 -28c-30 0 -55.167 9.33301 -75.5 28s-30.5 47.667 -30.5 87z" />
    <glyph glyph-name="k" unicode="k" horiz-adv-x="1094" 
d="M352 565l61 78l70 84l351 371h210l-444 -469l475 -629h-217l-381 512l-125 -109v-403h-178v1556h178v-813l-8 -178h8z" />
    <glyph glyph-name="l" unicode="l" horiz-adv-x="528" 
d="M354 0h-180v1556h180v-1556z" />
    <glyph glyph-name="m" unicode="m" horiz-adv-x="1915" 
d="M1571 0l-0.000976562 707c0 173.333 -74.333 260 -223 260c-102 0 -177 -29.667 -225 -89s-72 -150 -72 -272v-606h-179v707c0 86.667 -18.167 151.667 -54.5 195s-93.166 65 -170.499 65c-101.333 0 -175.5 -31 -222.5 -93s-70.5 -163.667 -70.5 -305v-569h-180v1098
h145l27 -150h10c31.333 53.333 75.5 95 132.5 125s120.833 45 191.5 45c172 0 284 -61.333 336 -184h10c35.333 58.667 83.5 104 144.5 136s130.167 48 207.5 48c124 0 216.833 -32 278.5 -96s92.5 -166.333 92.5 -307v-715h-178z" />
    <glyph glyph-name="n" unicode="n" horiz-adv-x="1266" 
d="M922 0l0.000976562 702c0 89.333 -19.833 155.833 -59.5 199.5s-101.834 65.5 -186.501 65.5c-112.667 0 -194.5 -31.167 -245.5 -93.5s-76.5 -163.833 -76.5 -304.5v-569h-180v1098h145l27 -150h10c34 54 81.667 95.833 143 125.5s129 44.5 203 44.5
c134.667 0 234.667 -32.667 300 -98s98 -167 98 -305v-715h-178z" />
    <glyph glyph-name="o" unicode="o" horiz-adv-x="1239" 
d="M1128 551c0 -179.333 -45.332 -319.334 -135.999 -420.001s-216 -151 -376 -151c-99.333 0 -187.333 23.167 -264 69.5s-135.667 112.833 -177 199.5s-62 187.334 -62 302.001c0 178.667 44.667 317.834 134 417.501s214.666 149.5 375.999 149.5
c154.667 0 277.5 -50.833 368.5 -152.5s136.5 -239.834 136.5 -414.501zM299.001 550.999c0 -138 27.166 -242.833 81.499 -314.5s134.5 -107.5 240.5 -107.5c104.667 0 184.334 35.833 239.001 107.5s82 176.5 82 314.5s-27.5 241.833 -82.5 311.5
s-135.5 104.5 -241.5 104.5c-212.667 0 -319 -138.667 -319 -416z" />
    <glyph glyph-name="p" unicode="p" horiz-adv-x="1260" 
d="M694 -20c-147.333 0 -260.668 53 -340.001 159h-12l4 -41c5.33301 -52 8 -98.333 8 -139v-451h-180v1590h148l24 -150h8c42.667 60 92 103.333 148 130s120.667 40 194 40c142.667 0 253.5 -49.5 332.5 -148.5s118.5 -238.5 118.5 -418.5
c0 -179.333 -39.667 -319.333 -119 -420s-190.666 -151 -333.999 -151zM663.998 967c-108.667 0 -187.167 -30.668 -235.5 -92.001s-73.166 -157.666 -74.499 -288.999v-35c0 -148.667 24.667 -256.167 74 -322.5s129.333 -99.5 240 -99.5c92 0 163.833 37.333 215.5 112
s77.5 178.667 77.5 312c0 134 -25.833 236.5 -77.5 307.5s-124.834 106.5 -219.501 106.5z" />
    <glyph glyph-name="q" unicode="q" horiz-adv-x="1260" 
d="M594 129c107.333 0 185.667 29.333 235 88s75.333 155.667 78 291v37c0 151.333 -25.333 259.833 -76 325.5s-131 98.5 -241 98.5c-94 0 -166 -37 -216 -111s-75 -179 -75 -315c0 -134 24.833 -236.5 74.5 -307.5s123.167 -106.5 220.5 -106.5zM559.001 -20
c-141.333 0 -250.999 50 -328.999 150s-117 239 -117 417c0 178.667 39.833 318.5 119.5 419.5s190.5 151.5 332.5 151.5c150 0 264 -56.667 342 -170h8l27 150h143v-1590h-180v469c0 73.333 3.33301 130 10 170h-12c-76.667 -111.333 -191.334 -167 -344.001 -167z" />
    <glyph glyph-name="r" unicode="r" horiz-adv-x="846" 
d="M686 1118c48.667 0 91.6689 -4 129.002 -12l-22 -166c-40.667 9.33301 -80.334 14 -119.001 14c-58 0 -111.833 -16 -161.5 -48s-88.5 -76.167 -116.5 -132.5s-42 -118.833 -42 -187.5v-586h-180v1098h148l20 -201h8c42 72.667 91.667 127.667 149 165
s119.666 56 186.999 56z" />
    <glyph glyph-name="s" unicode="s" horiz-adv-x="981" 
d="M889 303c0 -102.667 -38.334 -182.165 -115.001 -238.498s-184.334 -84.5 -323.001 -84.5c-144.667 0 -259.667 23 -345 69v164c120.667 -58.667 237 -88 349 -88c90.667 0 156.667 14.667 198 44s62 68.666 62 117.999c0 43.333 -19.833 80 -59.5 110
s-110.167 64.333 -211.5 103c-103.333 40 -176 74.167 -218 102.5s-72.833 60.166 -92.5 95.499s-29.5 78.333 -29.5 129c0 90 36.667 161 110 213s174 78 302 78c124.667 0 241.334 -24.667 350.001 -74l-61 -143c-111.333 46.667 -211.666 70 -300.999 70
c-74.667 0 -131.334 -11.833 -170.001 -35.5s-58 -56.167 -58 -97.5c0 -40 16.667 -73.167 50 -99.5s111 -62.833 233 -109.5c91.333 -34 158.833 -65.667 202.5 -95s75.834 -62.333 96.501 -99s31 -80.667 31 -132z" />
    <glyph glyph-name="t" unicode="t" horiz-adv-x="739" 
d="M541 127c23.333 0 50.667 2.33301 82 7s55 10 71 16v-138c-16.667 -7.33301 -42.5 -14.5 -77.5 -21.5s-70.5 -10.5 -106.5 -10.5c-214.667 0 -322 113 -322 339v639h-155v86l157 72l72 234h107v-252h317v-140h-317v-634c0 -63.333 15.167 -112 45.5 -146
s72.5 -51 126.5 -51z" />
    <glyph glyph-name="u" unicode="u" horiz-adv-x="1266" 
d="M344 1098v-706.998c0 -88.667 19.833 -154.5 59.5 -197.5s101.167 -64.5 184.5 -64.5c112.667 0 194.667 31.333 246 94s77 163.667 77 303v572h181v-1098h-148l-26 145h-9c-32.667 -52.667 -79 -93.334 -139 -122.001s-129.667 -43 -209 -43
c-132 0 -231.5 31.667 -298.5 95s-100.5 164.666 -100.5 303.999v719h182z" />
    <glyph glyph-name="v" unicode="v" horiz-adv-x="1040" 
d="M416 0l-416 1098h193l233 -647c46 -130 75.333 -227 88 -291h8c2 8.66699 4.5 18.5 7.5 29.5s6.5 23 10.5 36s28.667 88.167 74 225.5l234 647h192l-417 -1098h-207z" />
    <glyph glyph-name="w" unicode="w" horiz-adv-x="1610" 
d="M1071 0l-188.002 617.998c-17.333 51.333 -42.666 148.333 -75.999 291h-8c-28 -130 -52.667 -227.667 -74 -293l-197 -616h-204l-301 1098h186l158.5 -616c36.333 -140.667 57.833 -240 64.5 -298h8l14 62c20.667 95.333 40.667 173 60 233l195 619h196l189 -619
l21.5 -74.5c7.66699 -26.333 14.834 -52.333 21.501 -78s12.667 -50.667 18 -75s9.33301 -46.166 12 -65.499h9c6 50.667 30.333 159.334 73 326.001l154 586h184l-305 -1098h-211z" />
    <glyph glyph-name="x" unicode="x" horiz-adv-x="1083" 
d="M434 561l-379 537h205l283 -414l280 414h203l-379 -537l400 -561h-205l-299 438l-303 -438h-203z" />
    <glyph glyph-name="y" unicode="y" horiz-adv-x="1044" 
d="M2 1098l192.999 -0.00195312l237 -625c50 -136 80.667 -235.667 92 -299h8c6 24.667 19.667 70.834 41 138.501s39.333 121.834 54 162.501l223 623h194l-473 -1250c-46 -121.333 -100.667 -208.333 -164 -261s-141.666 -79 -234.999 -79c-50 0 -99.667 5.66699 -149 17
v143c33.333 -8 73.333 -12 120 -12c57.333 0 106 15.833 146 47.5s72.667 80.5 98 146.5l57 146z" />
    <glyph glyph-name="z" unicode="z" horiz-adv-x="963" 
d="M883 0h-803v119l590 839h-555v140h753v-135l-581 -824h596v-139z" />
    <glyph glyph-name="braceleft" unicode="{" horiz-adv-x="778" 
d="M57 645c88 1.33301 151.667 17.4971 191 48.4971s59 78.5 59 142.5v303c0 103.333 35.833 183 107.5 239s171.167 84 298.5 84v-147c-77.333 -2.66699 -134.666 -19.667 -171.999 -51s-56 -78.666 -56 -141.999v-295c0 -140 -74.333 -223 -223 -249v-13
c76.667 -13.333 133 -40.666 169 -81.999s54 -97.333 54 -168v-301c0 -66.667 19.667 -114.667 59 -144s95.666 -44.666 168.999 -45.999v-148c-133.333 1.33301 -234.333 30 -303 86s-103 136 -103 240v301c0 69.333 -21.5 118.833 -64.5 148.5s-104.833 44.5 -185.5 44.5
v149z" />
    <glyph glyph-name="bar" unicode="|" horiz-adv-x="1128" 
d="M489 1556h150v-2050h-150v2050z" />
    <glyph glyph-name="braceright" unicode="}" horiz-adv-x="778" 
d="M721 496c-81.333 -1.33301 -143.333 -16.332 -186 -44.999s-64 -77.334 -64 -146.001v-305c0 -102.667 -35.5 -182.334 -106.5 -239.001s-170.5 -85 -298.5 -85v148c151.333 2.66699 227 66.667 227 192v297c0 140.667 74.333 224 223 250v12
c-148.667 26 -223 109.333 -223 250v299c0 66.667 -19.667 114.834 -59 144.501s-95.333 45.167 -168 46.5v147c132 -1.33301 232.5 -29.5 301.5 -84.5s103.5 -135.167 103.5 -240.5v-299c0 -70 21.333 -119.667 64 -149s104.667 -44 186 -44v-149z" />
    <glyph glyph-name="asciitilde" unicode="~" horiz-adv-x="1171" 
d="M336 709c-35.333 0 -74.168 -11.167 -116.501 -33.5s-81.5 -51.5 -117.5 -87.5v160c66.667 72 148.667 108 246 108c46.667 0 89.834 -5.16699 129.501 -15.5s86.5 -26.833 140.5 -49.5c48.667 -20.667 88.667 -35.167 120 -43.5s62.333 -12.5 93 -12.5
c36 0 75.333 10.667 118 32s82 51 118 89v-158c-68 -73.333 -150 -110 -246 -110c-48 0 -93 5.5 -135 16.5s-87 27.167 -135 48.5c-48.667 21.333 -88.667 36 -120 44s-63 12 -95 12z" />
    <glyph glyph-name="uni00A0" unicode="&#xa0;" horiz-adv-x="532" 
 />
    <glyph glyph-name="exclamdown" unicode="&#xa1;" horiz-adv-x="551" 
d="M213 676h119l51 -1049h-221zM401 979c0 -44.667 -10.833 -78.667 -32.5 -102s-53.167 -35 -94.5 -35s-72.833 11.5 -94.5 34.5s-32.5 57.167 -32.5 102.5c0 44 11.333 78.167 34 102.5s53.667 36.5 93 36.5s70.333 -12 93 -36s34 -58.333 34 -103z" />
    <glyph glyph-name="cent" unicode="&#xa2;" horiz-adv-x="1171" 
d="M975 240c-75.333 -38 -160.001 -58.668 -254.001 -62.001v-198h-137v204c-136 20.667 -236.333 77.167 -301 169.5s-97 221.5 -97 387.5c0 338.667 132.667 528.667 398 570v172h139v-164c101.333 -4 191.333 -23.667 270 -59l-53 -150
c-95.333 35.333 -176.666 53 -243.999 53c-111.333 0 -193.333 -34.667 -246 -104s-79 -174.666 -79 -315.999c0 -142 26.667 -245.333 80 -310s132.333 -97 237 -97c59.333 0 111.5 5.83301 156.5 17.5s88.5 26.167 130.5 43.5v-157z" />
    <glyph glyph-name="sterling" unicode="&#xa3;" horiz-adv-x="1171" 
d="M684 1481c126.667 0 247.666 -28.001 362.999 -84.001l-64 -144c-111.333 52 -209.666 78 -294.999 78c-78 0 -137.333 -20.167 -178 -60.5s-61 -105.5 -61 -195.5v-284h417v-136h-417v-213c0 -64 -10.833 -118.833 -32.5 -164.5s-57.5 -83.5 -107.5 -113.5h787v-164
h-1030v152c134.667 31.333 202 127.333 202 288v215h-196v136h196v303c0 120.667 37.5 215.334 112.5 284.001s176.167 103 303.5 103z" />
    <glyph glyph-name="currency" unicode="&#xa4;" horiz-adv-x="1171" 
d="M184 723c0 78 23.999 153 71.999 225l-135 139l100 97l135 -131c66.667 47.333 143.334 71 230.001 71c80.667 0 155.667 -23.667 225 -71l137 131l99 -97l-132 -137c48 -74 72 -149.667 72 -227c0 -86.667 -24 -163 -72 -229l129 -136l-96 -96l-137 131
c-68.667 -46 -143.667 -69 -225 -69c-88 0 -164.667 23.667 -230 71l-135 -131l-98 96l133 136c-48 72 -72 147.667 -72 227zM321.999 723c0 -74 25.499 -136.501 76.499 -187.501s113.5 -76.5 187.5 -76.5s136.833 25.333 188.5 76s77.5 113.334 77.5 188.001
c0 76 -25.833 139.667 -77.5 191s-114.5 77 -188.5 77c-73.333 0 -135.666 -25.833 -186.999 -77.5s-77 -115.167 -77 -190.5z" />
    <glyph glyph-name="yen" unicode="&#xa5;" horiz-adv-x="1171" 
d="M584 748l366 714h189l-412 -768h254v-131h-309v-168h309v-131h-309v-264h-176v264h-310v131h310v168h-310v131h250l-407 768h190z" />
    <glyph glyph-name="brokenbar" unicode="&#xa6;" horiz-adv-x="1128" 
d="M489 1556h150v-780h-150v780zM489 287h150v-781h-150v781z" />
    <glyph glyph-name="section" unicode="&#xa7;" horiz-adv-x="1051" 
d="M137 809c0 58 14.333 109.502 43 154.502s68.334 79.5 119.001 103.5c-49.333 26.667 -87.666 58.667 -114.999 96s-41 84 -41 140c0 82 34.667 146.5 104 193.5s169.333 70.5 300 70.5c61.333 0 117.166 -4.66699 167.499 -14s111.166 -28 182.499 -56l-55 -137
c-64.667 26 -119.667 43.667 -165 53s-92.666 14 -141.999 14c-76.667 0 -133.167 -9.83301 -169.5 -29.5s-54.5 -49.834 -54.5 -90.501c0 -37.333 19.333 -70 58 -98s109.667 -60.333 213 -97c121.333 -44.667 207.166 -92.5 257.499 -143.5s75.5 -112.5 75.5 -184.5
c0 -120 -51 -210.667 -153 -272c100.667 -53.333 151 -128.333 151 -225c0 -94.667 -39.333 -167.834 -118 -219.501s-188 -77.5 -328 -77.5s-255.333 22.333 -346 67v154c58 -26 118.667 -46.5 182 -61.5s120.666 -22.5 171.999 -22.5c85.333 0 151 12.333 197 37
s69 60.667 69 108c0 40.667 -17.667 74.167 -53 100.5s-105.666 59.833 -210.999 100.5c-131.333 48.667 -220.833 98 -268.5 148s-71.5 112.667 -71.5 188zM291 829.002c0 -34 8.99902 -63.501 26.999 -88.501s47.167 -49.167 87.5 -72.5s114.833 -55.666 223.5 -96.999
c87.333 50.667 131 113 131 187c0 54 -23.333 99.167 -70 135.5s-130.667 73.833 -252 112.5c-43.333 -12 -78.666 -34.5 -105.999 -67.5s-41 -69.5 -41 -109.5z" />
    <glyph glyph-name="dieresis" unicode="&#xa8;" horiz-adv-x="1188" 
d="M305 1395c0 35.333 9.33301 60.833 28 76.5s41.334 23.5 68.001 23.5c26 0 48.667 -7.83301 68 -23.5s29 -41.167 29 -76.5s-9.66699 -61.333 -29 -78s-42 -25 -68 -25c-26.667 0 -49.334 8.33301 -68.001 25s-28 42.667 -28 78zM690 1395
c0 35.333 9.33301 60.833 28 76.5s40.667 23.5 66 23.5c26 0 48.667 -7.83301 68 -23.5s29 -41.167 29 -76.5s-9.66699 -61.333 -29 -78s-42 -25 -68 -25c-25.333 0 -47.333 8.33301 -66 25s-28 42.667 -28 78z" />
    <glyph glyph-name="copyright" unicode="&#xa9;" horiz-adv-x="1704" 
d="M893 1055c-79.333 0 -141.5 -28.5 -186.5 -85.5s-67.5 -136.5 -67.5 -238.5c0 -104.667 19.5 -185 58.5 -241s103.5 -84 193.5 -84c63.333 0 135 15.667 215 47v-131c-40 -18 -76.333 -30.833 -109 -38.5s-70.667 -11.5 -114 -11.5c-128.667 0 -228.167 40 -298.5 120
s-105.5 193 -105.5 339c0 139.333 37 250.333 111 333s174.333 124 301 124c86.667 0 170.667 -20.667 252 -62l-60 -125c-70.667 36 -134 54 -190 54zM100 731c0 133.333 33.333 258.333 100 375s158.334 208.667 275.001 276s242.334 101 377.001 101
c133.333 0 258.333 -33.333 375 -100s208.667 -158.334 276 -275.001s101 -242.334 101 -377.001c0 -131.333 -32.333 -254.666 -97 -369.999s-155.334 -207.666 -272.001 -276.999s-244.334 -104 -383.001 -104c-138 0 -265.333 34.5 -382 103.5
s-207.5 161.167 -272.5 276.5s-97.5 239 -97.5 371zM209 731c0 -114.667 28.667 -221.667 86 -321s135.833 -177.833 235.5 -235.5s206.834 -86.5 321.501 -86.5s221.667 28.667 321 86s177.833 135.833 235.5 235.5s86.5 206.834 86.5 321.501s-28.667 221.667 -86 321
s-135.833 177.833 -235.5 235.5s-206.834 86.5 -321.501 86.5s-221.667 -28.667 -321 -86s-177.833 -135.833 -235.5 -235.5s-86.5 -206.834 -86.5 -321.501z" />
    <glyph glyph-name="ordfeminine" unicode="&#xaa;" horiz-adv-x="731" 
d="M535 797l-24.998 86.001c-62.667 -66 -140.667 -99 -234 -99c-64.667 0 -115.834 16.667 -153.501 50s-56.5 84.333 -56.5 153s26.333 120.667 79 156s134 55 244 59l115 4v45c0 40.667 -13 71 -39 91s-61.667 30 -107 30c-66.667 0 -135.334 -17.667 -206.001 -53
c-17.333 41.333 -32.666 74.666 -45.999 99.999c81.333 40 166.666 60 255.999 60s156.5 -18.333 201.5 -55s67.5 -95.667 67.5 -177v-450h-96zM197.002 987.001c0 -65.333 36.667 -98 110 -98c131.333 0 197 59.333 197 178v47l-98 -4
c-74 -2.66699 -127.333 -13.5 -160 -32.5s-49 -49.167 -49 -90.5z" />
    <glyph glyph-name="guillemotleft" unicode="&#xab;" horiz-adv-x="1042" 
d="M82 553l344 412l129 -74l-287 -350l287 -351l-129 -75l-344 411v27zM487 553l349 412l127 -74l-287 -350l287 -351l-127 -75l-349 411v27z" />
    <glyph glyph-name="logicalnot" unicode="&#xac;" horiz-adv-x="1171" 
d="M1065 795v-533h-145v387h-818v146h963z" />
    <glyph glyph-name="uni00AD" unicode="&#xad;" horiz-adv-x="659" 
d="M82 469v160h496v-160h-496z" />
    <glyph glyph-name="registered" unicode="&#xae;" horiz-adv-x="1704" 
d="M727 764l102 -0.000976562c54 0 95.833 13.333 125.5 40s44.5 61.667 44.5 105c0 48.667 -13.667 83.834 -41 105.501s-71 32.5 -131 32.5h-100v-283zM1157 912.999c0 -55.333 -14.333 -103.168 -43 -143.501s-67.667 -70.166 -117 -89.499l238 -397h-176l-205 354h-127
v-354h-156v895h263c112 0 193.833 -21.833 245.5 -65.5s77.5 -110.167 77.5 -199.5zM100 730.997c0 133.333 33.333 258.333 100 375s158.334 208.667 275.001 276s242.334 101 377.001 101c133.333 0 258.333 -33.333 375 -100s208.667 -158.334 276 -275.001
s101 -242.334 101 -377.001c0 -131.333 -32.333 -254.666 -97 -369.999s-155.334 -207.666 -272.001 -276.999s-244.334 -104 -383.001 -104c-138 0 -265.333 34.5 -382 103.5s-207.5 161.167 -272.5 276.5s-97.5 239 -97.5 371zM209 730.997
c0 -114.667 28.667 -221.667 86 -321s135.833 -177.833 235.5 -235.5s206.834 -86.5 321.501 -86.5s221.667 28.667 321 86s177.833 135.833 235.5 235.5s86.5 206.834 86.5 321.501s-28.667 221.667 -86 321s-135.833 177.833 -235.5 235.5s-206.834 86.5 -321.501 86.5
s-221.667 -28.667 -321 -86s-177.833 -135.833 -235.5 -235.5s-86.5 -206.834 -86.5 -321.501z" />
    <glyph glyph-name="macron" unicode="&#xaf;" horiz-adv-x="1024" 
d="M1030 1556h-1036v136h1036v-136z" />
    <glyph glyph-name="degree" unicode="&#xb0;" horiz-adv-x="877" 
d="M123 1167c0 90 30.6689 165.167 92.002 225.5s135.666 90.5 222.999 90.5c88.667 0 163.5 -30.667 224.5 -92s91.5 -136 91.5 -224c0 -87.333 -30.667 -161.333 -92 -222s-136 -91 -224 -91c-86.667 0 -160.834 29.833 -222.501 89.5s-92.5 134.167 -92.5 223.5z
M246.002 1167c0 -52.667 19.167 -97.833 57.5 -135.5s83.833 -56.5 136.5 -56.5c54 0 99.333 19 136 57s55 83 55 135c0 53.333 -18.333 98.833 -55 136.5s-82 56.5 -136 56.5c-53.333 0 -99 -18.667 -137 -56s-57 -83 -57 -137z" />
    <glyph glyph-name="plusminus" unicode="&#xb1;" horiz-adv-x="1171" 
d="M657 801h408v-146h-408v-422h-147v422h-408v146h408v424h147v-424zM102 0v145h963v-145h-963z" />
    <glyph glyph-name="uni00B2" unicode="&#xb2;" horiz-adv-x="717" 
d="M627 586h-578.004v110l236 230c84.667 82 138.834 141.833 162.501 179.5s35.5 79.5 35.5 125.5c0 43.333 -12.5 76 -37.5 98s-58.167 33 -99.5 33s-78.666 -8 -111.999 -24s-67.666 -37.333 -102.999 -64l-72 94c88.667 75.333 185 113 289 113
c88 0 156.833 -21.833 206.5 -65.5s74.5 -102.5 74.5 -176.5c0 -30.667 -4.16699 -59.167 -12.5 -85.5s-21.166 -53 -38.499 -80s-39.833 -55.833 -67.5 -86.5s-122.167 -122 -283.5 -274h400v-127z" />
    <glyph glyph-name="uni00B3" unicode="&#xb3;" horiz-adv-x="717" 
d="M631 1255c0 -100.667 -50.6699 -170 -152.003 -208c118.667 -29.333 178 -99 178 -209c0 -84.667 -30.667 -150.667 -92 -198s-148.666 -71 -261.999 -71c-101.333 0 -190.666 19.333 -267.999 58v129c94.667 -46.667 184.667 -70 270 -70c136.667 0 205 52 205 156
c0 94 -75 141 -225 141h-117v113h117c68.667 0 118.834 13 150.501 39s47.5 60.667 47.5 104c0 39.333 -12.833 70 -38.5 92s-60.5 33 -104.5 33c-69.333 0 -145 -26 -227 -78l-74 94c49.333 36.667 98 62.667 146 78s99 23 153 23c90.667 0 162.167 -20.167 214.5 -60.5
s78.5 -95.5 78.5 -165.5z" />
    <glyph glyph-name="acute" unicode="&#xb4;" horiz-adv-x="1188" 
d="M387 1266c25.333 32 57.5 77.502 96.5 136.502s71.833 114.5 98.5 166.5h217v-21c-29.333 -42.667 -75 -96.334 -137 -161.001s-114 -113.334 -156 -146.001h-119v25z" />
    <glyph glyph-name="uni00B5" unicode="&#xb5;" horiz-adv-x="1276" 
d="M354 389c0 -173.333 82 -260.001 246 -260.001c112.667 0 194.5 31.167 245.5 93.5s76.5 163.5 76.5 303.5v572h180v-1098h-146l-28 147h-10c-72.667 -111.333 -182.667 -167 -330 -167c-97.333 0 -176 30.667 -236 92h-8c6.66699 -49.333 10 -130.666 10 -243.999v-320
h-180v1590h180v-709z" />
    <glyph glyph-name="paragraph" unicode="&#xb6;" horiz-adv-x="1341" 
d="M1124 -260l-118.001 0.000976562v1702h-209v-1702h-119v819c-41.333 -12 -90 -18 -146 -18c-144 0 -249.833 41.667 -317.5 125s-101.5 208.666 -101.5 375.999c0 173.333 36.333 302.333 109 387s186.334 127 341.001 127h561v-1816z" />
    <glyph glyph-name="periodcentered" unicode="&#xb7;" horiz-adv-x="549" 
d="M147 723c0 43.333 10.835 77.333 32.502 102s52.5 37 92.5 37c41.333 0 73.166 -12.5 95.499 -37.5s33.5 -58.833 33.5 -101.5s-11.333 -76.5 -34 -101.5s-54.334 -37.5 -95.001 -37.5c-39.333 0 -70 12.333 -92 37s-33 58.667 -33 102z" />
    <glyph glyph-name="cedilla" unicode="&#xb8;" horiz-adv-x="461" 
d="M434 -285c0 -66 -25.168 -117 -75.501 -153s-126.166 -54 -227.499 -54c-43.333 0 -77.333 3.66699 -102 11v112c24 -6.66699 60 -10 108 -10c50 0 87.833 6.5 113.5 19.5s38.5 36.5 38.5 70.5c0 59.333 -62.333 97 -187 113l88 176h119l-53 -109
c118.667 -25.333 178 -84 178 -176z" />
    <glyph glyph-name="uni00B9" unicode="&#xb9;" horiz-adv-x="717" 
d="M342 1462h150v-876h-146v565c0 44.667 2.66699 105.334 8 182.001c-20.667 -18.667 -38.667 -34.334 -54 -47.001s-66.333 -50 -153 -112l-71 100z" />
    <glyph glyph-name="ordmasculine" unicode="&#xba;" horiz-adv-x="770" 
d="M707 1133c0 -108.667 -28.832 -194 -86.499 -256s-136.834 -93 -237.501 -93c-96.667 0 -173.667 30.833 -231 92.5s-86 147.167 -86 256.5c0 110 28 195.167 84 255.5s135 90.5 237 90.5c99.333 0 177.5 -30.333 234.5 -91s85.5 -145.667 85.5 -255zM195.001 1133
c0 -80.667 14.667 -140.834 44 -180.501s78 -59.5 146 -59.5c66.667 0 115 19.833 145 59.5s45 99.834 45 180.501s-15 140.334 -45 179.001s-78.333 58 -145 58s-115 -19.333 -145 -58s-45 -98.334 -45 -179.001z" />
    <glyph glyph-name="guillemotright" unicode="&#xbb;" horiz-adv-x="1042" 
d="M961 526l-349 -411l-127 75l287 351l-287 350l127 74l349 -412v-27zM553 526l-346 -411l-127 75l287 351l-287 350l127 74l346 -412v-27z" />
    <glyph glyph-name="onequarter" unicode="&#xbc;" horiz-adv-x="1618" 
d="M1304 1462l-893 -1462h-153l893 1462h153zM337 1462h150v-876h-146v565c0 44.667 2.66699 105.334 8 182.001c-20.667 -18.667 -38.667 -34.334 -54 -47.001s-66.333 -50 -153 -112l-71 100zM1507 197h-125v-196h-153v196h-400v107l404 579h149v-563h125v-123zM1229 320
v191c0 71.333 2 140.333 6 207c-5.33301 -12 -38 -64.667 -98 -158l-164 -240h256z" />
    <glyph glyph-name="onehalf" unicode="&#xbd;" horiz-adv-x="1618" 
d="M1243 1462l-893 -1462h-153l893 1462h153zM312 1462h150v-876h-146v565c0 44.667 2.66699 105.334 8 182.001c-20.667 -18.667 -38.667 -34.334 -54 -47.001s-66.333 -50 -153 -112l-71 100zM1489 1h-578.004v110l236 230c84.667 82 138.834 141.833 162.501 179.5
s35.5 79.5 35.5 125.5c0 43.333 -12.5 76 -37.5 98s-58.167 33 -99.5 33s-78.666 -8 -111.999 -24s-67.666 -37.333 -102.999 -64l-72 94c88.667 75.333 185 113 289 113c88 0 156.833 -21.833 206.5 -65.5s74.5 -102.5 74.5 -176.5c0 -30.667 -4.16699 -59.167 -12.5 -85.5
s-21.166 -53 -38.499 -80s-39.833 -55.833 -67.5 -86.5s-122.167 -122 -283.5 -274h400v-127z" />
    <glyph glyph-name="threequarters" unicode="&#xbe;" horiz-adv-x="1618" 
d="M1394 1462l-893 -1462h-153l893 1462h153zM1581 197h-125v-196h-153v196h-400v107l404 579h149v-563h125v-123zM1303 320v191c0 71.333 2 140.333 6 207c-5.33301 -12 -38 -64.667 -98 -158l-164 -240h256zM628 1255c0 -100.667 -50.6699 -170 -152.003 -208
c118.667 -29.333 178 -99 178 -209c0 -84.667 -30.667 -150.667 -92 -198s-148.666 -71 -261.999 -71c-101.333 0 -190.666 19.333 -267.999 58v129c94.667 -46.667 184.667 -70 270 -70c136.667 0 205 52 205 156c0 94 -75 141 -225 141h-117v113h117
c68.667 0 118.834 13 150.501 39s47.5 60.667 47.5 104c0 39.333 -12.833 70 -38.5 92s-60.5 33 -104.5 33c-69.333 0 -145 -26 -227 -78l-74 94c49.333 36.667 98 62.667 146 78s99 23 153 23c90.667 0 162.167 -20.167 214.5 -60.5s78.5 -95.5 78.5 -165.5z" />
    <glyph glyph-name="questiondown" unicode="&#xbf;" horiz-adv-x="889" 
d="M602 676l0.00195312 -53.001c0 -78 -12.333 -142 -37 -192s-70.334 -103 -137.001 -159c-88.667 -74 -144.667 -129.333 -168 -166s-35 -83 -35 -139c0 -64 21.167 -114.167 63.5 -150.5s103.166 -54.5 182.499 -54.5c106 0 216 29.333 330 88l63 -145
c-132 -65.333 -265 -98 -399 -98c-129.333 0 -230.666 31.167 -303.999 93.5s-110 149.833 -110 262.5c0 48.667 6.66699 91.834 20 129.501s33.666 73.5 60.999 107.5s81 85.333 161 154c68.667 60 113.167 108.5 133.5 145.5s30.5 84.833 30.5 143.5v33h145z
M649.002 978.999c0 -91.333 -42.333 -137 -127 -137c-41.333 0 -72.5 11.833 -93.5 35.5s-31.5 57.5 -31.5 101.5c0 48.667 12.167 84 36.5 106s53.833 33 88.5 33c36 0 66.167 -11 90.5 -33s36.5 -57.333 36.5 -106z" />
    <glyph glyph-name="Agrave" unicode="&#xc0;" horiz-adv-x="1309" 
d="M1116 0l-176 453h-580l-174 -453h-186l571 1468h166l570 -1468h-191zM885 616l-164 443l-70 219c-20 -80 -41 -153 -63 -219l-166 -443h463zM745 1579h-120.997c-50 40 -104.833 91.833 -164.5 155.5s-101.834 114.167 -126.501 151.5v21h215
c21.333 -44 51.666 -96.5 90.999 -157.5s74.666 -109.5 105.999 -145.5v-25z" />
    <glyph glyph-name="Aacute" unicode="&#xc1;" horiz-adv-x="1309" 
d="M1116 0l-176 453h-580l-174 -453h-186l571 1468h166l570 -1468h-191zM885 616l-164 443l-70 219c-20 -80 -41 -153 -63 -219l-166 -443h463zM526 1604c25.333 32 57.5 77.502 96.5 136.502s71.833 114.5 98.5 166.5h217v-21c-29.333 -42.667 -75 -96.334 -137 -161.001
s-114 -113.334 -156 -146.001h-119v25z" />
    <glyph glyph-name="Acircumflex" unicode="&#xc2;" horiz-adv-x="1309" 
d="M1116 0l-176 453h-580l-174 -453h-186l571 1468h166l570 -1468h-191zM885 616l-164 443l-70 219c-20 -80 -41 -153 -63 -219l-166 -443h463zM299 1602c83.333 89.333 142.167 155.332 176.5 197.999s59.5 78.334 75.5 107.001h184c34.667 -67.333 120 -169 256 -305v-23
h-127c-60 35.333 -134.333 96.666 -223 183.999c-87.333 -85.333 -160.333 -146.666 -219 -183.999h-123v23z" />
    <glyph glyph-name="Atilde" unicode="&#xc3;" horiz-adv-x="1309" 
d="M1116 0l-176 453h-580l-174 -453h-186l571 1468h166l570 -1468h-191zM885 616l-164 443l-70 219c-20 -80 -41 -153 -63 -219l-166 -443h463zM798 1581c-28.667 0 -56.668 6.16699 -84.001 18.5s-54.166 25.666 -80.499 39.999l-76 40
c-24.333 12.333 -47.833 18.5 -70.5 18.5c-32.667 0 -57.334 -9.83301 -74.001 -29.5s-29.667 -49.5 -39 -89.5h-104c8 81.333 31.333 145.333 70 192s90.334 70 155.001 70c30 0 59.167 -6.16699 87.5 -18.5s55.5 -25.666 81.5 -39.999l75 -40
c24 -12.333 46.667 -18.5 68 -18.5c32 0 56.167 9.83301 72.5 29.5s29.5 49.5 39.5 89.5h103c-8 -79.333 -31.333 -142.833 -70 -190.5s-90 -71.5 -154 -71.5z" />
    <glyph glyph-name="Adieresis" unicode="&#xc4;" horiz-adv-x="1309" 
d="M1116 0l-176 453h-580l-174 -453h-186l571 1468h166l570 -1468h-191zM885 616l-164 443l-70 219c-20 -80 -41 -153 -63 -219l-166 -443h463zM362 1733c0 35.333 9.33301 60.833 28 76.5s41.334 23.5 68.001 23.5c26 0 48.667 -7.83301 68 -23.5s29 -41.167 29 -76.5
s-9.66699 -61.333 -29 -78s-42 -25 -68 -25c-26.667 0 -49.334 8.33301 -68.001 25s-28 42.667 -28 78zM747 1733c0 35.333 9.33301 60.833 28 76.5s40.667 23.5 66 23.5c26 0 48.667 -7.83301 68 -23.5s29 -41.167 29 -76.5s-9.66699 -61.333 -29 -78s-42 -25 -68 -25
c-25.333 0 -47.333 8.33301 -66 25s-28 42.667 -28 78z" />
    <glyph glyph-name="Aring" unicode="&#xc5;" horiz-adv-x="1309" 
d="M877 1585c0 -46 -10 -85.501 -30 -118.501s-47 -57.5 -81 -73.5l541 -1393h-191l-176 453h-580l-174 -453h-186l539 1386c-35.333 16.667 -63 41.667 -83 75s-30 74 -30 122c0 65.333 20 117.5 60 156.5s94.333 58.5 163 58.5c68 0 123 -19.667 165 -59
s63 -90.666 63 -153.999zM885 615.999l-164 443l-70 219c-20 -80 -41 -153 -63 -219l-166 -443h463zM764 1583c0 36 -10.8311 64.167 -32.498 84.5s-49.167 30.5 -82.5 30.5c-32.667 0 -59.834 -10.167 -81.501 -30.5s-32.5 -48.5 -32.5 -84.5s9.66699 -64.167 29 -84.5
s47.666 -30.5 84.999 -30.5c34 0 61.667 10.167 83 30.5s32 48.5 32 84.5z" />
    <glyph glyph-name="AE" unicode="&#xc6;" horiz-adv-x="1804" 
d="M1681 0h-761v453h-512l-220 -453h-190l694 1462h989v-162h-577v-456h538v-160h-538v-522h577v-162zM479 616h441v682h-119z" />
    <glyph glyph-name="Ccedilla" unicode="&#xc7;" horiz-adv-x="1294" 
d="M825 1321c-157.333 0 -281 -52.666 -371 -157.999s-135 -249.333 -135 -432c0 -188.667 43.667 -334.167 131 -436.5s211.666 -153.5 372.999 -153.5c104 0 221 19.333 351 58v-160c-62 -22.667 -121.667 -38.167 -179 -46.5s-123.333 -12.5 -198 -12.5
c-215.333 0 -381.166 65.5 -497.499 196.5s-174.5 316.5 -174.5 556.5c0 150.667 27.833 282.667 83.5 396s136.667 200.666 243 261.999s231.5 92 375.5 92c154.667 0 289.334 -28.667 404.001 -86l-74 -156c-116.667 53.333 -227.334 80 -332.001 80zM950 -284.999
c0 -66 -25.168 -117 -75.501 -153s-126.166 -54 -227.499 -54c-43.333 0 -77.333 3.66699 -102 11v112c24 -6.66699 60 -10 108 -10c50 0 87.833 6.5 113.5 19.5s38.5 36.5 38.5 70.5c0 59.333 -62.333 97 -187 113l88 176h119l-53 -109c118.667 -25.333 178 -84 178 -176z
" />
    <glyph glyph-name="Egrave" unicode="&#xc8;" horiz-adv-x="1139" 
d="M1016 0h-817v1462h817v-162h-633v-456h596v-160h-596v-522h633v-162zM726 1579h-120.997c-50 40 -104.833 91.833 -164.5 155.5s-101.834 114.167 -126.501 151.5v21h215c21.333 -44 51.666 -96.5 90.999 -157.5s74.666 -109.5 105.999 -145.5v-25z" />
    <glyph glyph-name="Eacute" unicode="&#xc9;" horiz-adv-x="1139" 
d="M1016 0h-817v1462h817v-162h-633v-456h596v-160h-596v-522h633v-162zM453 1604c25.333 32 57.5 77.502 96.5 136.502s71.833 114.5 98.5 166.5h217v-21c-29.333 -42.667 -75 -96.334 -137 -161.001s-114 -113.334 -156 -146.001h-119v25z" />
    <glyph glyph-name="Ecircumflex" unicode="&#xca;" horiz-adv-x="1139" 
d="M1016 0h-817v1462h817v-162h-633v-456h596v-160h-596v-522h633v-162zM255 1602c83.333 89.333 142.167 155.332 176.5 197.999s59.5 78.334 75.5 107.001h184c34.667 -67.333 120 -169 256 -305v-23h-127c-60 35.333 -134.333 96.666 -223 183.999
c-87.333 -85.333 -160.333 -146.666 -219 -183.999h-123v23z" />
    <glyph glyph-name="Edieresis" unicode="&#xcb;" horiz-adv-x="1139" 
d="M1016 0h-817v1462h817v-162h-633v-456h596v-160h-596v-522h633v-162zM319 1733c0 35.333 9.33301 60.833 28 76.5s41.334 23.5 68.001 23.5c26 0 48.667 -7.83301 68 -23.5s29 -41.167 29 -76.5s-9.66699 -61.333 -29 -78s-42 -25 -68 -25
c-26.667 0 -49.334 8.33301 -68.001 25s-28 42.667 -28 78zM704 1733c0 35.333 9.33301 60.833 28 76.5s40.667 23.5 66 23.5c26 0 48.667 -7.83301 68 -23.5s29 -41.167 29 -76.5s-9.66699 -61.333 -29 -78s-42 -25 -68 -25c-25.333 0 -47.333 8.33301 -66 25
s-28 42.667 -28 78z" />
    <glyph glyph-name="Igrave" unicode="&#xcc;" horiz-adv-x="694" 
d="M610 0h-528v106l172 39v1170l-172 41v106h528v-106l-172 -41v-1170l172 -39v-106zM472 1579h-120.997c-50 40 -104.833 91.833 -164.5 155.5s-101.834 114.167 -126.501 151.5v21h215c21.333 -44 51.666 -96.5 90.999 -157.5s74.666 -109.5 105.999 -145.5v-25z" />
    <glyph glyph-name="Iacute" unicode="&#xcd;" horiz-adv-x="694" 
d="M610 0h-528v106l172 39v1170l-172 41v106h528v-106l-172 -41v-1170l172 -39v-106zM236 1604c25.333 32 57.5 77.502 96.5 136.502s71.833 114.5 98.5 166.5h217v-21c-29.333 -42.667 -75 -96.334 -137 -161.001s-114 -113.334 -156 -146.001h-119v25z" />
    <glyph glyph-name="Icircumflex" unicode="&#xce;" horiz-adv-x="694" 
d="M610 0h-528v106l172 39v1170l-172 41v106h528v-106l-172 -41v-1170l172 -39v-106zM-3 1602c83.333 89.333 142.167 155.332 176.5 197.999s59.5 78.334 75.5 107.001h184c34.667 -67.333 120 -169 256 -305v-23h-127c-60 35.333 -134.333 96.666 -223 183.999
c-87.333 -85.333 -160.333 -146.666 -219 -183.999h-123v23z" />
    <glyph glyph-name="Idieresis" unicode="&#xcf;" horiz-adv-x="694" 
d="M610 0h-528v106l172 39v1170l-172 41v106h528v-106l-172 -41v-1170l172 -39v-106zM60 1733c0 35.333 9.33301 60.833 28 76.5s41.334 23.5 68.001 23.5c26 0 48.667 -7.83301 68 -23.5s29 -41.167 29 -76.5s-9.66699 -61.333 -29 -78s-42 -25 -68 -25
c-26.667 0 -49.334 8.33301 -68.001 25s-28 42.667 -28 78zM445 1733c0 35.333 9.33301 60.833 28 76.5s40.667 23.5 66 23.5c26 0 48.667 -7.83301 68 -23.5s29 -41.167 29 -76.5s-9.66699 -61.333 -29 -78s-42 -25 -68 -25c-25.333 0 -47.333 8.33301 -66 25
s-28 42.667 -28 78z" />
    <glyph glyph-name="Eth" unicode="&#xd0;" horiz-adv-x="1495" 
d="M1370 745c0 -239.333 -65.5 -423.332 -196.5 -551.999s-320.833 -193 -569.5 -193h-391v643h-152v160h152v659h436c227.333 0 404.333 -62.833 531 -188.5s190 -301.834 190 -528.501zM1176 739.001c0 186.667 -46.333 327.667 -139 423s-230.667 143 -414 143h-226v-502
h365v-160h-365v-485h185c396 0 594 193.667 594 581z" />
    <glyph glyph-name="Ntilde" unicode="&#xd1;" horiz-adv-x="1556" 
d="M1358 0l-215 -0.000976562l-783 1214h-8l5 -81c8 -121.333 12 -226.666 12 -315.999v-817h-170v1462h213l45 -71l480 -742l255 -397h8c-1.33301 16 -4 73.167 -8 171.5s-6 169.5 -6 213.5v825h172v-1462zM940 1581c-28.667 0 -56.668 6.16699 -84.001 18.5
s-54.166 25.666 -80.499 39.999l-76 40c-24.333 12.333 -47.833 18.5 -70.5 18.5c-32.667 0 -57.334 -9.83301 -74.001 -29.5s-29.667 -49.5 -39 -89.5h-104c8 81.333 31.333 145.333 70 192s90.334 70 155.001 70c30 0 59.167 -6.16699 87.5 -18.5
s55.5 -25.666 81.5 -39.999l75 -40c24 -12.333 46.667 -18.5 68 -18.5c32 0 56.167 9.83301 72.5 29.5s29.5 49.5 39.5 89.5h103c-8 -79.333 -31.333 -142.833 -70 -190.5s-90 -71.5 -154 -71.5z" />
    <glyph glyph-name="Ograve" unicode="&#xd2;" horiz-adv-x="1599" 
d="M1475 733c0 -234 -59.167 -418 -177.5 -552s-283.833 -201 -496.5 -201c-215.333 0 -381.833 65.833 -499.5 197.5s-176.5 317.5 -176.5 557.5c0 238 58.5 422.5 175.5 553.5s284.5 196.5 502.5 196.5c212 0 377 -66.5 495 -199.5s177 -317.167 177 -552.5zM319 733
c0 -193.333 41.001 -340.667 123.001 -442s201.667 -152 359 -152c156.667 0 275.667 50 357 150s122 248 122 444c0 195.333 -40.333 342.5 -121 441.5s-199.334 148.5 -356.001 148.5c-158.667 0 -279 -50.167 -361 -150.5s-123 -246.833 -123 -439.5zM918.001 1579
h-120.997c-50 40 -104.833 91.833 -164.5 155.5s-101.834 114.167 -126.501 151.5v21h215c21.333 -44 51.666 -96.5 90.999 -157.5s74.666 -109.5 105.999 -145.5v-25z" />
    <glyph glyph-name="Oacute" unicode="&#xd3;" horiz-adv-x="1599" 
d="M1475 733c0 -234 -59.167 -418 -177.5 -552s-283.833 -201 -496.5 -201c-215.333 0 -381.833 65.833 -499.5 197.5s-176.5 317.5 -176.5 557.5c0 238 58.5 422.5 175.5 553.5s284.5 196.5 502.5 196.5c212 0 377 -66.5 495 -199.5s177 -317.167 177 -552.5zM319 733
c0 -193.333 41.001 -340.667 123.001 -442s201.667 -152 359 -152c156.667 0 275.667 50 357 150s122 248 122 444c0 195.333 -40.333 342.5 -121 441.5s-199.334 148.5 -356.001 148.5c-158.667 0 -279 -50.167 -361 -150.5s-123 -246.833 -123 -439.5zM657.001 1604
c25.333 32 57.5 77.502 96.5 136.502s71.833 114.5 98.5 166.5h217v-21c-29.333 -42.667 -75 -96.334 -137 -161.001s-114 -113.334 -156 -146.001h-119v25z" />
    <glyph glyph-name="Ocircumflex" unicode="&#xd4;" horiz-adv-x="1599" 
d="M1475 733c0 -234 -59.167 -418 -177.5 -552s-283.833 -201 -496.5 -201c-215.333 0 -381.833 65.833 -499.5 197.5s-176.5 317.5 -176.5 557.5c0 238 58.5 422.5 175.5 553.5s284.5 196.5 502.5 196.5c212 0 377 -66.5 495 -199.5s177 -317.167 177 -552.5zM319 733
c0 -193.333 41.001 -340.667 123.001 -442s201.667 -152 359 -152c156.667 0 275.667 50 357 150s122 248 122 444c0 195.333 -40.333 342.5 -121 441.5s-199.334 148.5 -356.001 148.5c-158.667 0 -279 -50.167 -361 -150.5s-123 -246.833 -123 -439.5zM440.001 1602
c83.333 89.333 142.167 155.332 176.5 197.999s59.5 78.334 75.5 107.001h184c34.667 -67.333 120 -169 256 -305v-23h-127c-60 35.333 -134.333 96.666 -223 183.999c-87.333 -85.333 -160.333 -146.666 -219 -183.999h-123v23z" />
    <glyph glyph-name="Otilde" unicode="&#xd5;" horiz-adv-x="1599" 
d="M1475 733c0 -234 -59.167 -418 -177.5 -552s-283.833 -201 -496.5 -201c-215.333 0 -381.833 65.833 -499.5 197.5s-176.5 317.5 -176.5 557.5c0 238 58.5 422.5 175.5 553.5s284.5 196.5 502.5 196.5c212 0 377 -66.5 495 -199.5s177 -317.167 177 -552.5zM319 733
c0 -193.333 41.001 -340.667 123.001 -442s201.667 -152 359 -152c156.667 0 275.667 50 357 150s122 248 122 444c0 195.333 -40.333 342.5 -121 441.5s-199.334 148.5 -356.001 148.5c-158.667 0 -279 -50.167 -361 -150.5s-123 -246.833 -123 -439.5zM944.001 1581
c-28.667 0 -56.668 6.16699 -84.001 18.5s-54.166 25.666 -80.499 39.999l-76 40c-24.333 12.333 -47.833 18.5 -70.5 18.5c-32.667 0 -57.334 -9.83301 -74.001 -29.5s-29.667 -49.5 -39 -89.5h-104c8 81.333 31.333 145.333 70 192s90.334 70 155.001 70
c30 0 59.167 -6.16699 87.5 -18.5s55.5 -25.666 81.5 -39.999l75 -40c24 -12.333 46.667 -18.5 68 -18.5c32 0 56.167 9.83301 72.5 29.5s29.5 49.5 39.5 89.5h103c-8 -79.333 -31.333 -142.833 -70 -190.5s-90 -71.5 -154 -71.5z" />
    <glyph glyph-name="Odieresis" unicode="&#xd6;" horiz-adv-x="1599" 
d="M1475 733c0 -234 -59.167 -418 -177.5 -552s-283.833 -201 -496.5 -201c-215.333 0 -381.833 65.833 -499.5 197.5s-176.5 317.5 -176.5 557.5c0 238 58.5 422.5 175.5 553.5s284.5 196.5 502.5 196.5c212 0 377 -66.5 495 -199.5s177 -317.167 177 -552.5zM319 733
c0 -193.333 41.001 -340.667 123.001 -442s201.667 -152 359 -152c156.667 0 275.667 50 357 150s122 248 122 444c0 195.333 -40.333 342.5 -121 441.5s-199.334 148.5 -356.001 148.5c-158.667 0 -279 -50.167 -361 -150.5s-123 -246.833 -123 -439.5zM516.001 1733
c0 35.333 9.33301 60.833 28 76.5s41.334 23.5 68.001 23.5c26 0 48.667 -7.83301 68 -23.5s29 -41.167 29 -76.5s-9.66699 -61.333 -29 -78s-42 -25 -68 -25c-26.667 0 -49.334 8.33301 -68.001 25s-28 42.667 -28 78zM901.001 1733c0 35.333 9.33301 60.833 28 76.5
s40.667 23.5 66 23.5c26 0 48.667 -7.83301 68 -23.5s29 -41.167 29 -76.5s-9.66699 -61.333 -29 -78s-42 -25 -68 -25c-25.333 0 -47.333 8.33301 -66 25s-28 42.667 -28 78z" />
    <glyph glyph-name="multiply" unicode="&#xd7;" horiz-adv-x="1171" 
d="M584 825l350 351l102 -105l-348 -348l346 -348l-102 -105l-350 346l-342 -346l-107 105l346 348l-348 346l107 107z" />
    <glyph glyph-name="Oslash" unicode="&#xd8;" horiz-adv-x="1599" 
d="M1475 733c0 -234 -59.167 -418.001 -177.5 -552.001s-283.833 -201 -496.5 -201c-154.667 0 -281 32 -379 96l-98 -139l-125 81l106 152c-120 132 -180 320.333 -180 565c0 238 58.5 422.5 175.5 553.5s284.5 196.5 502.5 196.5c136 0 257.333 -30.667 364 -92l95 135
l124 -84l-104 -146c128.667 -135.333 193 -323.666 193 -564.999zM1280 732.999c0 176 -34.667 314 -104 414l-656 -930c76 -52 169.667 -78 281 -78c156.667 0 275.667 50 357 150s122 248 122 444zM319 732.999c0 -172.667 32.334 -307.667 97.001 -405l653 923
c-72.667 48 -161.334 72 -266.001 72c-158.667 0 -279 -50.167 -361 -150.5s-123 -246.833 -123 -439.5z" />
    <glyph glyph-name="Ugrave" unicode="&#xd9;" horiz-adv-x="1497" 
d="M1311 1462l0.000976562 -946c0 -166.667 -50.333 -297.667 -151 -393s-240.334 -143 -419.001 -143c-176.667 0 -313.667 48.167 -411 144.5s-146 228.166 -146 395.499v942h185v-948c0 -119.333 31.833 -211.666 95.5 -276.999s159.5 -98 287.5 -98
c120.667 0 213.5 32.333 278.5 97s97.5 158 97.5 280v946h183zM865.001 1579h-120.997c-50 40 -104.833 91.833 -164.5 155.5s-101.834 114.167 -126.501 151.5v21h215c21.333 -44 51.666 -96.5 90.999 -157.5s74.666 -109.5 105.999 -145.5v-25z" />
    <glyph glyph-name="Uacute" unicode="&#xda;" horiz-adv-x="1497" 
d="M1311 1462l0.000976562 -946c0 -166.667 -50.333 -297.667 -151 -393s-240.334 -143 -419.001 -143c-176.667 0 -313.667 48.167 -411 144.5s-146 228.166 -146 395.499v942h185v-948c0 -119.333 31.833 -211.666 95.5 -276.999s159.5 -98 287.5 -98
c120.667 0 213.5 32.333 278.5 97s97.5 158 97.5 280v946h183zM600.001 1604c25.333 32 57.5 77.502 96.5 136.502s71.833 114.5 98.5 166.5h217v-21c-29.333 -42.667 -75 -96.334 -137 -161.001s-114 -113.334 -156 -146.001h-119v25z" />
    <glyph glyph-name="Ucircumflex" unicode="&#xdb;" horiz-adv-x="1497" 
d="M1311 1462l0.000976562 -946c0 -166.667 -50.333 -297.667 -151 -393s-240.334 -143 -419.001 -143c-176.667 0 -313.667 48.167 -411 144.5s-146 228.166 -146 395.499v942h185v-948c0 -119.333 31.833 -211.666 95.5 -276.999s159.5 -98 287.5 -98
c120.667 0 213.5 32.333 278.5 97s97.5 158 97.5 280v946h183zM387.001 1602c83.333 89.333 142.167 155.332 176.5 197.999s59.5 78.334 75.5 107.001h184c34.667 -67.333 120 -169 256 -305v-23h-127c-60 35.333 -134.333 96.666 -223 183.999
c-87.333 -85.333 -160.333 -146.666 -219 -183.999h-123v23z" />
    <glyph glyph-name="Udieresis" unicode="&#xdc;" horiz-adv-x="1497" 
d="M1311 1462l0.000976562 -946c0 -166.667 -50.333 -297.667 -151 -393s-240.334 -143 -419.001 -143c-176.667 0 -313.667 48.167 -411 144.5s-146 228.166 -146 395.499v942h185v-948c0 -119.333 31.833 -211.666 95.5 -276.999s159.5 -98 287.5 -98
c120.667 0 213.5 32.333 278.5 97s97.5 158 97.5 280v946h183zM457.001 1733c0 35.333 9.33301 60.833 28 76.5s41.334 23.5 68.001 23.5c26 0 48.667 -7.83301 68 -23.5s29 -41.167 29 -76.5s-9.66699 -61.333 -29 -78s-42 -25 -68 -25
c-26.667 0 -49.334 8.33301 -68.001 25s-28 42.667 -28 78zM842.001 1733c0 35.333 9.33301 60.833 28 76.5s40.667 23.5 66 23.5c26 0 48.667 -7.83301 68 -23.5s29 -41.167 29 -76.5s-9.66699 -61.333 -29 -78s-42 -25 -68 -25c-25.333 0 -47.333 8.33301 -66 25
s-28 42.667 -28 78z" />
    <glyph glyph-name="Yacute" unicode="&#xdd;" horiz-adv-x="1159" 
d="M580 743l381 719h198l-487 -895v-567h-185v559l-487 903h201zM442 1604c25.333 32 57.5 77.502 96.5 136.502s71.833 114.5 98.5 166.5h217v-21c-29.333 -42.667 -75 -96.334 -137 -161.001s-114 -113.334 -156 -146.001h-119v25z" />
    <glyph glyph-name="Thorn" unicode="&#xde;" horiz-adv-x="1239" 
d="M1135 782c0 -150.667 -50.166 -265.834 -150.499 -345.501s-245.5 -119.5 -435.5 -119.5h-166v-317h-184v1462h184v-254h197c187.333 0 326.666 -35.167 417.999 -105.5s137 -177.166 137 -320.499zM383.001 473h147.001c147.333 0 253.166 23.667 317.499 71
s96.5 123.333 96.5 228c0 96 -30.333 166.5 -91 211.5s-156.667 67.5 -288 67.5h-182v-578z" />
    <glyph glyph-name="germandbls" unicode="&#xdf;" horiz-adv-x="1292" 
d="M1069 1264c0 -92.667 -47.6641 -176.338 -142.997 -251.005c-52.667 -41.333 -89.834 -74.166 -111.501 -98.499s-32.5 -47.833 -32.5 -70.5c0 -26.667 10.667 -51 32 -73s71 -58.333 149 -109c91.333 -61.333 153.666 -118.166 186.999 -170.499s50 -111.833 50 -178.5
c0 -107.333 -32.833 -189.666 -98.5 -246.999s-159.834 -86 -282.501 -86c-124.667 0 -223.667 23 -297 69v162c42.667 -26.667 90.5 -47.667 143.5 -63s102.167 -23 147.5 -23c140.667 0 211 58.667 211 176c0 47.333 -13.5 88.333 -40.5 123s-77.833 75.667 -152.5 123
c-78.667 50 -135.5 95.833 -170.5 137.5s-52.5 91.5 -52.5 149.5c0 42 11.333 80.5 34 115.5s58 70.167 106 105.5c49.333 36.667 84.833 70.334 106.5 101.001s32.5 63 32.5 97c0 52 -22.167 92.333 -66.5 121s-108.833 43 -193.5 43c-182 0 -273 -73.667 -273 -221v-1196
h-180v1196c0 120.667 38 212.667 114 276s189 95 339 95c140 0 248.667 -26.667 326 -80s116 -127.666 116 -222.999z" />
    <glyph glyph-name="agrave" unicode="&#xe0;" horiz-adv-x="1149" 
d="M852 0l-35 155.998h-8c-54.667 -68.667 -109.167 -115.167 -163.5 -139.5s-122.833 -36.5 -205.5 -36.5c-108 0 -192.667 28.333 -254 85s-92 136.667 -92 240c0 222.667 175.667 339.334 527 350.001l186 7v65c0 83.333 -18 144.833 -54 184.5s-93.667 59.5 -173 59.5
c-58 0 -112.833 -8.66699 -164.5 -26s-100.167 -36.666 -145.5 -57.999l-55 135c55.333 29.333 115.666 52.333 180.999 69s130 25 194 25c132.667 0 231.334 -29.333 296.001 -88s97 -152 97 -280v-748h-131zM481 124.998c100.667 0 179.833 27.167 237.5 81.5
s86.5 131.5 86.5 231.5v99l-162 -7c-126 -4.66699 -217.833 -24.667 -275.5 -60s-86.5 -91 -86.5 -167c0 -57.333 17.5 -101.333 52.5 -132s84.167 -46 147.5 -46zM686.999 1241h-120.997c-50 40 -104.833 91.833 -164.5 155.5s-101.834 114.167 -126.501 151.5v21h215
c21.333 -44 51.666 -96.5 90.999 -157.5s74.666 -109.5 105.999 -145.5v-25z" />
    <glyph glyph-name="aacute" unicode="&#xe1;" horiz-adv-x="1149" 
d="M852 0l-35 155.998h-8c-54.667 -68.667 -109.167 -115.167 -163.5 -139.5s-122.833 -36.5 -205.5 -36.5c-108 0 -192.667 28.333 -254 85s-92 136.667 -92 240c0 222.667 175.667 339.334 527 350.001l186 7v65c0 83.333 -18 144.833 -54 184.5s-93.667 59.5 -173 59.5
c-58 0 -112.833 -8.66699 -164.5 -26s-100.167 -36.666 -145.5 -57.999l-55 135c55.333 29.333 115.666 52.333 180.999 69s130 25 194 25c132.667 0 231.334 -29.333 296.001 -88s97 -152 97 -280v-748h-131zM481 124.998c100.667 0 179.833 27.167 237.5 81.5
s86.5 131.5 86.5 231.5v99l-162 -7c-126 -4.66699 -217.833 -24.667 -275.5 -60s-86.5 -91 -86.5 -167c0 -57.333 17.5 -101.333 52.5 -132s84.167 -46 147.5 -46zM435.999 1266c25.333 32 57.5 77.502 96.5 136.502s71.833 114.5 98.5 166.5h217v-21
c-29.333 -42.667 -75 -96.334 -137 -161.001s-114 -113.334 -156 -146.001h-119v25z" />
    <glyph glyph-name="acircumflex" unicode="&#xe2;" horiz-adv-x="1149" 
d="M852 0l-35 155.998h-8c-54.667 -68.667 -109.167 -115.167 -163.5 -139.5s-122.833 -36.5 -205.5 -36.5c-108 0 -192.667 28.333 -254 85s-92 136.667 -92 240c0 222.667 175.667 339.334 527 350.001l186 7v65c0 83.333 -18 144.833 -54 184.5s-93.667 59.5 -173 59.5
c-58 0 -112.833 -8.66699 -164.5 -26s-100.167 -36.666 -145.5 -57.999l-55 135c55.333 29.333 115.666 52.333 180.999 69s130 25 194 25c132.667 0 231.334 -29.333 296.001 -88s97 -152 97 -280v-748h-131zM481 124.998c100.667 0 179.833 27.167 237.5 81.5
s86.5 131.5 86.5 231.5v99l-162 -7c-126 -4.66699 -217.833 -24.667 -275.5 -60s-86.5 -91 -86.5 -167c0 -57.333 17.5 -101.333 52.5 -132s84.167 -46 147.5 -46zM223.999 1264c83.333 89.333 142.167 155.332 176.5 197.999s59.5 78.334 75.5 107.001h184
c34.667 -67.333 120 -169 256 -305v-23h-127c-60 35.333 -134.333 96.666 -223 183.999c-87.333 -85.333 -160.333 -146.666 -219 -183.999h-123v23z" />
    <glyph glyph-name="atilde" unicode="&#xe3;" horiz-adv-x="1149" 
d="M852 0l-35 155.998h-8c-54.667 -68.667 -109.167 -115.167 -163.5 -139.5s-122.833 -36.5 -205.5 -36.5c-108 0 -192.667 28.333 -254 85s-92 136.667 -92 240c0 222.667 175.667 339.334 527 350.001l186 7v65c0 83.333 -18 144.833 -54 184.5s-93.667 59.5 -173 59.5
c-58 0 -112.833 -8.66699 -164.5 -26s-100.167 -36.666 -145.5 -57.999l-55 135c55.333 29.333 115.666 52.333 180.999 69s130 25 194 25c132.667 0 231.334 -29.333 296.001 -88s97 -152 97 -280v-748h-131zM481 124.998c100.667 0 179.833 27.167 237.5 81.5
s86.5 131.5 86.5 231.5v99l-162 -7c-126 -4.66699 -217.833 -24.667 -275.5 -60s-86.5 -91 -86.5 -167c0 -57.333 17.5 -101.333 52.5 -132s84.167 -46 147.5 -46zM727.999 1243c-28.667 0 -56.668 6.16699 -84.001 18.5s-54.166 25.666 -80.499 39.999l-76 40
c-24.333 12.333 -47.833 18.5 -70.5 18.5c-32.667 0 -57.334 -9.83301 -74.001 -29.5s-29.667 -49.5 -39 -89.5h-104c8 81.333 31.333 145.333 70 192s90.334 70 155.001 70c30 0 59.167 -6.16699 87.5 -18.5s55.5 -25.666 81.5 -39.999l75 -40
c24 -12.333 46.667 -18.5 68 -18.5c32 0 56.167 9.83301 72.5 29.5s29.5 49.5 39.5 89.5h103c-8 -79.333 -31.333 -142.833 -70 -190.5s-90 -71.5 -154 -71.5z" />
    <glyph glyph-name="adieresis" unicode="&#xe4;" horiz-adv-x="1149" 
d="M852 0l-35 155.998h-8c-54.667 -68.667 -109.167 -115.167 -163.5 -139.5s-122.833 -36.5 -205.5 -36.5c-108 0 -192.667 28.333 -254 85s-92 136.667 -92 240c0 222.667 175.667 339.334 527 350.001l186 7v65c0 83.333 -18 144.833 -54 184.5s-93.667 59.5 -173 59.5
c-58 0 -112.833 -8.66699 -164.5 -26s-100.167 -36.666 -145.5 -57.999l-55 135c55.333 29.333 115.666 52.333 180.999 69s130 25 194 25c132.667 0 231.334 -29.333 296.001 -88s97 -152 97 -280v-748h-131zM481 124.998c100.667 0 179.833 27.167 237.5 81.5
s86.5 131.5 86.5 231.5v99l-162 -7c-126 -4.66699 -217.833 -24.667 -275.5 -60s-86.5 -91 -86.5 -167c0 -57.333 17.5 -101.333 52.5 -132s84.167 -46 147.5 -46zM278.999 1395c0 35.333 9.33301 60.833 28 76.5s41.334 23.5 68.001 23.5c26 0 48.667 -7.83301 68 -23.5
s29 -41.167 29 -76.5s-9.66699 -61.333 -29 -78s-42 -25 -68 -25c-26.667 0 -49.334 8.33301 -68.001 25s-28 42.667 -28 78zM663.999 1395c0 35.333 9.33301 60.833 28 76.5s40.667 23.5 66 23.5c26 0 48.667 -7.83301 68 -23.5s29 -41.167 29 -76.5
s-9.66699 -61.333 -29 -78s-42 -25 -68 -25c-25.333 0 -47.333 8.33301 -66 25s-28 42.667 -28 78z" />
    <glyph glyph-name="aring" unicode="&#xe5;" horiz-adv-x="1149" 
d="M852 0l-35 155.998h-8c-54.667 -68.667 -109.167 -115.167 -163.5 -139.5s-122.833 -36.5 -205.5 -36.5c-108 0 -192.667 28.333 -254 85s-92 136.667 -92 240c0 222.667 175.667 339.334 527 350.001l186 7v65c0 83.333 -18 144.833 -54 184.5s-93.667 59.5 -173 59.5
c-58 0 -112.833 -8.66699 -164.5 -26s-100.167 -36.666 -145.5 -57.999l-55 135c55.333 29.333 115.666 52.333 180.999 69s130 25 194 25c132.667 0 231.334 -29.333 296.001 -88s97 -152 97 -280v-748h-131zM481 124.998c100.667 0 179.833 27.167 237.5 81.5
s86.5 131.5 86.5 231.5v99l-162 -7c-126 -4.66699 -217.833 -24.667 -275.5 -60s-86.5 -91 -86.5 -167c0 -57.333 17.5 -101.333 52.5 -132s84.167 -46 147.5 -46zM811.999 1460c0 -67.333 -20.833 -120.668 -62.5 -160.001s-96.5 -59 -164.5 -59
c-68.667 0 -123 19.5 -163 58.5s-60 91.833 -60 158.5c0 65.333 20 117.5 60 156.5s94.333 58.5 163 58.5c67.333 0 122 -19.667 164 -59s63 -90.666 63 -153.999zM698.999 1458c0 36 -10.832 64.167 -32.499 84.5s-48.834 30.5 -81.501 30.5
c-33.333 0 -60.833 -10.167 -82.5 -30.5s-32.5 -48.5 -32.5 -84.5s9.83301 -64.167 29.5 -84.5s48.167 -30.5 85.5 -30.5c34 0 61.5 10.167 82.5 30.5s31.5 48.5 31.5 84.5z" />
    <glyph glyph-name="ae" unicode="&#xe6;" horiz-adv-x="1769" 
d="M94 305c0 222.667 166.665 339.335 499.998 350.002l184 7v69c0 81.333 -18.833 141.666 -56.5 180.999s-95.167 59 -172.5 59c-92.667 0 -195 -28 -307 -84l-56 135c47.333 26.667 104.833 49 172.5 67s135.834 27 204.501 27c85.333 0 155.5 -13.833 210.5 -41.5
s96.833 -72.5 125.5 -134.5c36 56.667 82.333 100.5 139 131.5s122.334 46.5 197.001 46.5c131.333 0 235.833 -45 313.5 -135s116.5 -208.667 116.5 -356v-111h-702c5.33301 -255.333 111 -383 317 -383c58.667 0 113.667 5.5 165 16.5s108.333 30.833 171 59.5v-158
c-58.667 -26 -113.334 -44.333 -164.001 -55s-110 -16 -178 -16c-194 0 -332.667 77 -416 231c-54.667 -82.667 -115 -141.834 -181 -177.501s-144.333 -53.5 -235 -53.5c-109.333 0 -194.666 28.5 -255.999 85.5s-92 136.833 -92 239.5zM280.998 303.001
c0 -61.333 17.334 -106.333 52.001 -135s80.667 -43 138 -43c93.333 0 167.166 27.167 221.499 81.5s81.5 131.5 81.5 231.5v99l-153 -7c-118 -4.66699 -204.167 -24.667 -258.5 -60s-81.5 -91 -81.5 -167zM1233 971.001c-79.333 0 -141.668 -26.833 -187.001 -80.5
s-71.666 -131.5 -78.999 -233.5h508c0 101.333 -20.833 179 -62.5 233s-101.5 81 -179.5 81z" />
    <glyph glyph-name="ccedilla" unicode="&#xe7;" horiz-adv-x="983" 
d="M614 -20c-158 0 -280.998 48.5 -368.998 145.5s-132 236.167 -132 417.5c0 184 44.5 325.833 133.5 425.5s215.833 149.5 380.5 149.5c53.333 0 106.166 -5.5 158.499 -16.5s95.5 -25.167 129.5 -42.5l-55 -150c-92.667 34.667 -171.667 52 -237 52
c-110.667 0 -192.334 -34.833 -245.001 -104.5s-79 -173.5 -79 -311.5c0 -132.667 26.333 -234.167 79 -304.5s130.667 -105.5 234 -105.5c96.667 0 191.667 21.333 285 64v-160c-76 -39.333 -170.333 -59 -283 -59zM766.002 -285c0 -66 -25.168 -117 -75.501 -153
s-126.166 -54 -227.499 -54c-43.333 0 -77.333 3.66699 -102 11v112c24 -6.66699 60 -10 108 -10c50 0 87.833 6.5 113.5 19.5s38.5 36.5 38.5 70.5c0 59.333 -62.333 97 -187 113l88 176h119l-53 -109c118.667 -25.333 178 -84 178 -176z" />
    <glyph glyph-name="egrave" unicode="&#xe8;" horiz-adv-x="1155" 
d="M641 -20c-164.667 0 -293.835 49.833 -387.502 149.5s-140.5 236.834 -140.5 411.501c0 176 43.667 316.167 131 420.5s205.333 156.5 354 156.5c138 0 248 -44.5 330 -133.5s123 -209.5 123 -361.5v-109h-752c3.33301 -124.667 35 -219.334 95 -284.001s145 -97 255 -97
c58.667 0 114.334 5.16699 167.001 15.5s114.334 30.5 185.001 60.5v-158c-60.667 -26 -117.667 -44.333 -171 -55s-116.333 -16 -189 -16zM595.999 971c-86 0 -154 -27.667 -204 -83s-79.667 -132.333 -89 -231h559c-1.33301 102.667 -25 180.667 -71 234s-111 80 -195 80z
M723.999 1241h-120.997c-50 40 -104.833 91.833 -164.5 155.5s-101.834 114.167 -126.501 151.5v21h215c21.333 -44 51.666 -96.5 90.999 -157.5s74.666 -109.5 105.999 -145.5v-25z" />
    <glyph glyph-name="eacute" unicode="&#xe9;" horiz-adv-x="1155" 
d="M641 -20c-164.667 0 -293.835 49.833 -387.502 149.5s-140.5 236.834 -140.5 411.501c0 176 43.667 316.167 131 420.5s205.333 156.5 354 156.5c138 0 248 -44.5 330 -133.5s123 -209.5 123 -361.5v-109h-752c3.33301 -124.667 35 -219.334 95 -284.001s145 -97 255 -97
c58.667 0 114.334 5.16699 167.001 15.5s114.334 30.5 185.001 60.5v-158c-60.667 -26 -117.667 -44.333 -171 -55s-116.333 -16 -189 -16zM595.999 971c-86 0 -154 -27.667 -204 -83s-79.667 -132.333 -89 -231h559c-1.33301 102.667 -25 180.667 -71 234s-111 80 -195 80z
M466.999 1266c25.333 32 57.5 77.502 96.5 136.502s71.833 114.5 98.5 166.5h217v-21c-29.333 -42.667 -75 -96.334 -137 -161.001s-114 -113.334 -156 -146.001h-119v25z" />
    <glyph glyph-name="ecircumflex" unicode="&#xea;" horiz-adv-x="1155" 
d="M641 -20c-164.667 0 -293.835 49.833 -387.502 149.5s-140.5 236.834 -140.5 411.501c0 176 43.667 316.167 131 420.5s205.333 156.5 354 156.5c138 0 248 -44.5 330 -133.5s123 -209.5 123 -361.5v-109h-752c3.33301 -124.667 35 -219.334 95 -284.001s145 -97 255 -97
c58.667 0 114.334 5.16699 167.001 15.5s114.334 30.5 185.001 60.5v-158c-60.667 -26 -117.667 -44.333 -171 -55s-116.333 -16 -189 -16zM595.999 971c-86 0 -154 -27.667 -204 -83s-79.667 -132.333 -89 -231h559c-1.33301 102.667 -25 180.667 -71 234s-111 80 -195 80z
M252.999 1264c83.333 89.333 142.167 155.332 176.5 197.999s59.5 78.334 75.5 107.001h184c34.667 -67.333 120 -169 256 -305v-23h-127c-60 35.333 -134.333 96.666 -223 183.999c-87.333 -85.333 -160.333 -146.666 -219 -183.999h-123v23z" />
    <glyph glyph-name="edieresis" unicode="&#xeb;" horiz-adv-x="1155" 
d="M641 -20c-164.667 0 -293.835 49.833 -387.502 149.5s-140.5 236.834 -140.5 411.501c0 176 43.667 316.167 131 420.5s205.333 156.5 354 156.5c138 0 248 -44.5 330 -133.5s123 -209.5 123 -361.5v-109h-752c3.33301 -124.667 35 -219.334 95 -284.001s145 -97 255 -97
c58.667 0 114.334 5.16699 167.001 15.5s114.334 30.5 185.001 60.5v-158c-60.667 -26 -117.667 -44.333 -171 -55s-116.333 -16 -189 -16zM595.999 971c-86 0 -154 -27.667 -204 -83s-79.667 -132.333 -89 -231h559c-1.33301 102.667 -25 180.667 -71 234s-111 80 -195 80z
M314.999 1395c0 35.333 9.33301 60.833 28 76.5s41.334 23.5 68.001 23.5c26 0 48.667 -7.83301 68 -23.5s29 -41.167 29 -76.5s-9.66699 -61.333 -29 -78s-42 -25 -68 -25c-26.667 0 -49.334 8.33301 -68.001 25s-28 42.667 -28 78zM699.999 1395
c0 35.333 9.33301 60.833 28 76.5s40.667 23.5 66 23.5c26 0 48.667 -7.83301 68 -23.5s29 -41.167 29 -76.5s-9.66699 -61.333 -29 -78s-42 -25 -68 -25c-25.333 0 -47.333 8.33301 -66 25s-28 42.667 -28 78z" />
    <glyph glyph-name="igrave" unicode="&#xec;" horiz-adv-x="528" 
d="M354 0h-180v1098h180v-1098zM368 1241h-120.997c-50 40 -104.833 91.833 -164.5 155.5s-101.834 114.167 -126.501 151.5v21h215c21.333 -44 51.666 -96.5 90.999 -157.5s74.666 -109.5 105.999 -145.5v-25z" />
    <glyph glyph-name="iacute" unicode="&#xed;" horiz-adv-x="528" 
d="M354 0h-180v1098h180v-1098zM167 1266c25.333 32 57.5 77.502 96.5 136.502s71.833 114.5 98.5 166.5h217v-21c-29.333 -42.667 -75 -96.334 -137 -161.001s-114 -113.334 -156 -146.001h-119v25z" />
    <glyph glyph-name="icircumflex" unicode="&#xee;" horiz-adv-x="528" 
d="M354 0h-180v1098h180v-1098zM-81 1264c83.333 89.333 142.167 155.332 176.5 197.999s59.5 78.334 75.5 107.001h184c34.667 -67.333 120 -169 256 -305v-23h-127c-60 35.333 -134.333 96.666 -223 183.999c-87.333 -85.333 -160.333 -146.666 -219 -183.999h-123v23z
" />
    <glyph glyph-name="idieresis" unicode="&#xef;" horiz-adv-x="528" 
d="M354 0h-180v1098h180v-1098zM-22 1395c0 35.333 9.33301 60.833 28 76.5s41.334 23.5 68.001 23.5c26 0 48.667 -7.83301 68 -23.5s29 -41.167 29 -76.5s-9.66699 -61.333 -29 -78s-42 -25 -68 -25c-26.667 0 -49.334 8.33301 -68.001 25s-28 42.667 -28 78zM363 1395
c0 35.333 9.33301 60.833 28 76.5s40.667 23.5 66 23.5c26 0 48.667 -7.83301 68 -23.5s29 -41.167 29 -76.5s-9.66699 -61.333 -29 -78s-42 -25 -68 -25c-25.333 0 -47.333 8.33301 -66 25s-28 42.667 -28 78z" />
    <glyph glyph-name="eth" unicode="&#xf0;" horiz-adv-x="1239" 
d="M1128 563c0 -188 -44.334 -332.168 -133.001 -432.501s-215 -150.5 -379 -150.5c-150 0 -271.333 45.167 -364 135.5s-139 210.833 -139 361.5c0 152.667 43.167 272.834 129.5 360.501s203.5 131.5 351.5 131.5c150 0 256.333 -39.667 319 -119l9 4
c-39.333 142.667 -124 273 -254 391l-267 -153l-77 112l229 131c-57.333 38.667 -118.666 75 -183.999 109l73 123c104 -48.667 190 -98 258 -148l236 137l78 -110l-203 -117c100.667 -93.333 178.667 -205.833 234 -337.5s83 -274.5 83 -428.5zM945.999 513.999
c0 95.333 -29.167 170.667 -87.5 226s-137.5 83 -237.5 83c-110.667 0 -192.667 -28.833 -246 -86.5s-80 -146.167 -80 -265.5c0 -110 28 -194.833 84 -254.5s136.667 -89.5 242 -89.5c112.667 0 195 33 247 99s78 162 78 288z" />
    <glyph glyph-name="ntilde" unicode="&#xf1;" horiz-adv-x="1266" 
d="M922 0l0.000976562 702c0 89.333 -19.833 155.833 -59.5 199.5s-101.834 65.5 -186.501 65.5c-112.667 0 -194.5 -31.167 -245.5 -93.5s-76.5 -163.833 -76.5 -304.5v-569h-180v1098h145l27 -150h10c34 54 81.667 95.833 143 125.5s129 44.5 203 44.5
c134.667 0 234.667 -32.667 300 -98s98 -167 98 -305v-715h-178zM802.001 1243c-28.667 0 -56.668 6.16699 -84.001 18.5s-54.166 25.666 -80.499 39.999l-76 40c-24.333 12.333 -47.833 18.5 -70.5 18.5c-32.667 0 -57.334 -9.83301 -74.001 -29.5s-29.667 -49.5 -39 -89.5
h-104c8 81.333 31.333 145.333 70 192s90.334 70 155.001 70c30 0 59.167 -6.16699 87.5 -18.5s55.5 -25.666 81.5 -39.999l75 -40c24 -12.333 46.667 -18.5 68 -18.5c32 0 56.167 9.83301 72.5 29.5s29.5 49.5 39.5 89.5h103c-8 -79.333 -31.333 -142.833 -70 -190.5
s-90 -71.5 -154 -71.5z" />
    <glyph glyph-name="ograve" unicode="&#xf2;" horiz-adv-x="1239" 
d="M1128 551c0 -179.333 -45.332 -319.334 -135.999 -420.001s-216 -151 -376 -151c-99.333 0 -187.333 23.167 -264 69.5s-135.667 112.833 -177 199.5s-62 187.334 -62 302.001c0 178.667 44.667 317.834 134 417.501s214.666 149.5 375.999 149.5
c154.667 0 277.5 -50.833 368.5 -152.5s136.5 -239.834 136.5 -414.501zM299.001 550.999c0 -138 27.166 -242.833 81.499 -314.5s134.5 -107.5 240.5 -107.5c104.667 0 184.334 35.833 239.001 107.5s82 176.5 82 314.5s-27.5 241.833 -82.5 311.5
s-135.5 104.5 -241.5 104.5c-212.667 0 -319 -138.667 -319 -416zM751 1241h-120.997c-50 40 -104.833 91.833 -164.5 155.5s-101.834 114.167 -126.501 151.5v21h215c21.333 -44 51.666 -96.5 90.999 -157.5s74.666 -109.5 105.999 -145.5v-25z" />
    <glyph glyph-name="oacute" unicode="&#xf3;" horiz-adv-x="1239" 
d="M1128 551c0 -179.333 -45.332 -319.334 -135.999 -420.001s-216 -151 -376 -151c-99.333 0 -187.333 23.167 -264 69.5s-135.667 112.833 -177 199.5s-62 187.334 -62 302.001c0 178.667 44.667 317.834 134 417.501s214.666 149.5 375.999 149.5
c154.667 0 277.5 -50.833 368.5 -152.5s136.5 -239.834 136.5 -414.501zM299.001 550.999c0 -138 27.166 -242.833 81.499 -314.5s134.5 -107.5 240.5 -107.5c104.667 0 184.334 35.833 239.001 107.5s82 176.5 82 314.5s-27.5 241.833 -82.5 311.5
s-135.5 104.5 -241.5 104.5c-212.667 0 -319 -138.667 -319 -416zM477 1266c25.333 32 57.5 77.502 96.5 136.502s71.833 114.5 98.5 166.5h217v-21c-29.333 -42.667 -75 -96.334 -137 -161.001s-114 -113.334 -156 -146.001h-119v25z" />
    <glyph glyph-name="ocircumflex" unicode="&#xf4;" horiz-adv-x="1239" 
d="M1128 551c0 -179.333 -45.332 -319.334 -135.999 -420.001s-216 -151 -376 -151c-99.333 0 -187.333 23.167 -264 69.5s-135.667 112.833 -177 199.5s-62 187.334 -62 302.001c0 178.667 44.667 317.834 134 417.501s214.666 149.5 375.999 149.5
c154.667 0 277.5 -50.833 368.5 -152.5s136.5 -239.834 136.5 -414.501zM299.001 550.999c0 -138 27.166 -242.833 81.499 -314.5s134.5 -107.5 240.5 -107.5c104.667 0 184.334 35.833 239.001 107.5s82 176.5 82 314.5s-27.5 241.833 -82.5 311.5
s-135.5 104.5 -241.5 104.5c-212.667 0 -319 -138.667 -319 -416zM272 1264c83.333 89.333 142.167 155.332 176.5 197.999s59.5 78.334 75.5 107.001h184c34.667 -67.333 120 -169 256 -305v-23h-127c-60 35.333 -134.333 96.666 -223 183.999
c-87.333 -85.333 -160.333 -146.666 -219 -183.999h-123v23z" />
    <glyph glyph-name="otilde" unicode="&#xf5;" horiz-adv-x="1239" 
d="M1128 551c0 -179.333 -45.332 -319.334 -135.999 -420.001s-216 -151 -376 -151c-99.333 0 -187.333 23.167 -264 69.5s-135.667 112.833 -177 199.5s-62 187.334 -62 302.001c0 178.667 44.667 317.834 134 417.501s214.666 149.5 375.999 149.5
c154.667 0 277.5 -50.833 368.5 -152.5s136.5 -239.834 136.5 -414.501zM299.001 550.999c0 -138 27.166 -242.833 81.499 -314.5s134.5 -107.5 240.5 -107.5c104.667 0 184.334 35.833 239.001 107.5s82 176.5 82 314.5s-27.5 241.833 -82.5 311.5
s-135.5 104.5 -241.5 104.5c-212.667 0 -319 -138.667 -319 -416zM775 1243c-28.667 0 -56.668 6.16699 -84.001 18.5s-54.166 25.666 -80.499 39.999l-76 40c-24.333 12.333 -47.833 18.5 -70.5 18.5c-32.667 0 -57.334 -9.83301 -74.001 -29.5s-29.667 -49.5 -39 -89.5
h-104c8 81.333 31.333 145.333 70 192s90.334 70 155.001 70c30 0 59.167 -6.16699 87.5 -18.5s55.5 -25.666 81.5 -39.999l75 -40c24 -12.333 46.667 -18.5 68 -18.5c32 0 56.167 9.83301 72.5 29.5s29.5 49.5 39.5 89.5h103c-8 -79.333 -31.333 -142.833 -70 -190.5
s-90 -71.5 -154 -71.5z" />
    <glyph glyph-name="odieresis" unicode="&#xf6;" horiz-adv-x="1239" 
d="M1128 551c0 -179.333 -45.332 -319.334 -135.999 -420.001s-216 -151 -376 -151c-99.333 0 -187.333 23.167 -264 69.5s-135.667 112.833 -177 199.5s-62 187.334 -62 302.001c0 178.667 44.667 317.834 134 417.501s214.666 149.5 375.999 149.5
c154.667 0 277.5 -50.833 368.5 -152.5s136.5 -239.834 136.5 -414.501zM299.001 550.999c0 -138 27.166 -242.833 81.499 -314.5s134.5 -107.5 240.5 -107.5c104.667 0 184.334 35.833 239.001 107.5s82 176.5 82 314.5s-27.5 241.833 -82.5 311.5
s-135.5 104.5 -241.5 104.5c-212.667 0 -319 -138.667 -319 -416zM330 1395c0 35.333 9.33301 60.833 28 76.5s41.334 23.5 68.001 23.5c26 0 48.667 -7.83301 68 -23.5s29 -41.167 29 -76.5s-9.66699 -61.333 -29 -78s-42 -25 -68 -25
c-26.667 0 -49.334 8.33301 -68.001 25s-28 42.667 -28 78zM715 1395c0 35.333 9.33301 60.833 28 76.5s40.667 23.5 66 23.5c26 0 48.667 -7.83301 68 -23.5s29 -41.167 29 -76.5s-9.66699 -61.333 -29 -78s-42 -25 -68 -25c-25.333 0 -47.333 8.33301 -66 25
s-28 42.667 -28 78z" />
    <glyph glyph-name="divide" unicode="&#xf7;" horiz-adv-x="1171" 
d="M102 649v146h965v-146h-965zM469 373c0 82 38.333 123 115 123c74.667 0 112 -41 112 -123c0 -44 -11 -75.833 -33 -95.5s-48.333 -29.5 -79 -29.5c-32 0 -59.167 9.83301 -81.5 29.5s-33.5 51.5 -33.5 95.5zM469 1071c0 82 38.333 123 115 123
c74.667 0 112 -41 112 -123c0 -44 -11 -75.833 -33 -95.5s-48.333 -29.5 -79 -29.5c-32 0 -59.167 9.83301 -81.5 29.5s-33.5 51.5 -33.5 95.5z" />
    <glyph glyph-name="oslash" unicode="&#xf8;" horiz-adv-x="1239" 
d="M1128 551c0 -179.333 -45.332 -319.334 -135.999 -420.001s-216 -151 -376 -151c-100.667 0 -188.667 22.333 -264 67l-82 -115l-118 80l92 127c-87.333 104 -131 241.333 -131 412c0 178.667 44.667 317.834 134 417.501s214.666 149.5 375.999 149.5
c100.667 0 190 -24.667 268 -74l80 115l121 -78l-93 -129c86 -103.333 129 -237 129 -401zM299.001 550.999c0 -110.667 16.333 -198 49 -262l451 626c-48.667 34.667 -109 52 -181 52c-212.667 0 -319 -138.667 -319 -416zM942.001 550.999
c0 101.333 -15.668 185.333 -47.001 252l-451 -627c46 -31.333 105 -47 177 -47c104.667 0 184.334 35.833 239.001 107.5s82 176.5 82 314.5z" />
    <glyph glyph-name="ugrave" unicode="&#xf9;" horiz-adv-x="1266" 
d="M344 1098v-706.998c0 -88.667 19.833 -154.5 59.5 -197.5s101.167 -64.5 184.5 -64.5c112.667 0 194.667 31.333 246 94s77 163.667 77 303v572h181v-1098h-148l-26 145h-9c-32.667 -52.667 -79 -93.334 -139 -122.001s-129.667 -43 -209 -43
c-132 0 -231.5 31.667 -298.5 95s-100.5 164.666 -100.5 303.999v719h182zM737 1241h-120.997c-50 40 -104.833 91.833 -164.5 155.5s-101.834 114.167 -126.501 151.5v21h215c21.333 -44 51.666 -96.5 90.999 -157.5s74.666 -109.5 105.999 -145.5v-25z" />
    <glyph glyph-name="uacute" unicode="&#xfa;" horiz-adv-x="1266" 
d="M344 1098v-706.998c0 -88.667 19.833 -154.5 59.5 -197.5s101.167 -64.5 184.5 -64.5c112.667 0 194.667 31.333 246 94s77 163.667 77 303v572h181v-1098h-148l-26 145h-9c-32.667 -52.667 -79 -93.334 -139 -122.001s-129.667 -43 -209 -43
c-132 0 -231.5 31.667 -298.5 95s-100.5 164.666 -100.5 303.999v719h182zM504 1266c25.333 32 57.5 77.502 96.5 136.502s71.833 114.5 98.5 166.5h217v-21c-29.333 -42.667 -75 -96.334 -137 -161.001s-114 -113.334 -156 -146.001h-119v25z" />
    <glyph glyph-name="ucircumflex" unicode="&#xfb;" horiz-adv-x="1266" 
d="M344 1098v-706.998c0 -88.667 19.833 -154.5 59.5 -197.5s101.167 -64.5 184.5 -64.5c112.667 0 194.667 31.333 246 94s77 163.667 77 303v572h181v-1098h-148l-26 145h-9c-32.667 -52.667 -79 -93.334 -139 -122.001s-129.667 -43 -209 -43
c-132 0 -231.5 31.667 -298.5 95s-100.5 164.666 -100.5 303.999v719h182zM280 1264c83.333 89.333 142.167 155.332 176.5 197.999s59.5 78.334 75.5 107.001h184c34.667 -67.333 120 -169 256 -305v-23h-127c-60 35.333 -134.333 96.666 -223 183.999
c-87.333 -85.333 -160.333 -146.666 -219 -183.999h-123v23z" />
    <glyph glyph-name="udieresis" unicode="&#xfc;" horiz-adv-x="1266" 
d="M344 1098v-706.998c0 -88.667 19.833 -154.5 59.5 -197.5s101.167 -64.5 184.5 -64.5c112.667 0 194.667 31.333 246 94s77 163.667 77 303v572h181v-1098h-148l-26 145h-9c-32.667 -52.667 -79 -93.334 -139 -122.001s-129.667 -43 -209 -43
c-132 0 -231.5 31.667 -298.5 95s-100.5 164.666 -100.5 303.999v719h182zM338 1395c0 35.333 9.33301 60.833 28 76.5s41.334 23.5 68.001 23.5c26 0 48.667 -7.83301 68 -23.5s29 -41.167 29 -76.5s-9.66699 -61.333 -29 -78s-42 -25 -68 -25
c-26.667 0 -49.334 8.33301 -68.001 25s-28 42.667 -28 78zM723 1395c0 35.333 9.33301 60.833 28 76.5s40.667 23.5 66 23.5c26 0 48.667 -7.83301 68 -23.5s29 -41.167 29 -76.5s-9.66699 -61.333 -29 -78s-42 -25 -68 -25c-25.333 0 -47.333 8.33301 -66 25
s-28 42.667 -28 78z" />
    <glyph glyph-name="yacute" unicode="&#xfd;" horiz-adv-x="1044" 
d="M2 1098l192.999 -0.00195312l237 -625c50 -136 80.667 -235.667 92 -299h8c6 24.667 19.667 70.834 41 138.501s39.333 121.834 54 162.501l223 623h194l-473 -1250c-46 -121.333 -100.667 -208.333 -164 -261s-141.666 -79 -234.999 -79c-50 0 -99.667 5.66699 -149 17
v143c33.333 -8 73.333 -12 120 -12c57.333 0 106 15.833 146 47.5s72.667 80.5 98 146.5l57 146zM409.999 1266c25.333 32 57.5 77.502 96.5 136.502s71.833 114.5 98.5 166.5h217v-21c-29.333 -42.667 -75 -96.334 -137 -161.001s-114 -113.334 -156 -146.001h-119v25z" />
    <glyph glyph-name="thorn" unicode="&#xfe;" horiz-adv-x="1260" 
d="M356 950c44.667 60.667 94.832 103.834 150.499 129.501s118.834 38.5 189.501 38.5c142 0 252.667 -49.833 332 -149.5s119 -238.834 119 -417.501c0 -179.333 -39.667 -319.333 -119 -420s-190 -151 -332 -151c-148 0 -262 53 -342 159h-12c8 -88 12 -145.333 12 -172
v-459h-180v2048h180v-458c0 -46.667 -2 -96 -6 -148h8zM665.998 967c-107.333 0 -185.833 -29.834 -235.5 -89.501s-75.167 -155.5 -76.5 -287.5v-39c0 -148.667 24.667 -256.167 74 -322.5s129.333 -99.5 240 -99.5c195.333 0 293 141.333 293 424
c0 138.667 -23.833 242.334 -71.5 311.001s-122.167 103 -223.5 103z" />
    <glyph glyph-name="ydieresis" unicode="&#xff;" horiz-adv-x="1044" 
d="M2 1098l192.999 -0.00195312l237 -625c50 -136 80.667 -235.667 92 -299h8c6 24.667 19.667 70.834 41 138.501s39.333 121.834 54 162.501l223 623h194l-473 -1250c-46 -121.333 -100.667 -208.333 -164 -261s-141.666 -79 -234.999 -79c-50 0 -99.667 5.66699 -149 17
v143c33.333 -8 73.333 -12 120 -12c57.333 0 106 15.833 146 47.5s72.667 80.5 98 146.5l57 146zM233.999 1395c0 35.333 9.33301 60.833 28 76.5s41.334 23.5 68.001 23.5c26 0 48.667 -7.83301 68 -23.5s29 -41.167 29 -76.5s-9.66699 -61.333 -29 -78s-42 -25 -68 -25
c-26.667 0 -49.334 8.33301 -68.001 25s-28 42.667 -28 78zM618.999 1395c0 35.333 9.33301 60.833 28 76.5s40.667 23.5 66 23.5c26 0 48.667 -7.83301 68 -23.5s29 -41.167 29 -76.5s-9.66699 -61.333 -29 -78s-42 -25 -68 -25c-25.333 0 -47.333 8.33301 -66 25
s-28 42.667 -28 78z" />
    <glyph glyph-name="Amacron" unicode="&#x100;" horiz-adv-x="1309" 
d="M1116 0l-176 453h-580l-174 -453h-186l571 1468h166l570 -1468h-191zM885 616l-164 443l-70 219c-20 -80 -41 -153 -63 -219l-166 -443h463zM365 1724h608v-145h-608v145z" />
    <glyph glyph-name="amacron" unicode="&#x101;" horiz-adv-x="1149" 
d="M852 0l-35 155.998h-8c-54.667 -68.667 -109.167 -115.167 -163.5 -139.5s-122.833 -36.5 -205.5 -36.5c-108 0 -192.667 28.333 -254 85s-92 136.667 -92 240c0 222.667 175.667 339.334 527 350.001l186 7v65c0 83.333 -18 144.833 -54 184.5s-93.667 59.5 -173 59.5
c-58 0 -112.833 -8.66699 -164.5 -26s-100.167 -36.666 -145.5 -57.999l-55 135c55.333 29.333 115.666 52.333 180.999 69s130 25 194 25c132.667 0 231.334 -29.333 296.001 -88s97 -152 97 -280v-748h-131zM481 124.998c100.667 0 179.833 27.167 237.5 81.5
s86.5 131.5 86.5 231.5v99l-162 -7c-126 -4.66699 -217.833 -24.667 -275.5 -60s-86.5 -91 -86.5 -167c0 -57.333 17.5 -101.333 52.5 -132s84.167 -46 147.5 -46zM291.999 1386h608v-145h-608v145z" />
    <glyph glyph-name="Abreve" unicode="&#x102;" horiz-adv-x="1309" 
d="M1116 0l-176 453h-580l-174 -453h-186l571 1468h166l570 -1468h-191zM885 616l-164 443l-70 219c-20 -80 -41 -153 -63 -219l-166 -443h463zM647 1579c-94 0 -168.167 23 -222.5 69s-84.5 114.667 -90.5 206h110c5.33301 -47.333 22 -80.833 50 -100.5
s80.333 -29.5 157 -29.5c67.333 0 117.333 10.5 150 31.5s51.667 53.833 57 98.5h113c-8.66699 -87.333 -41.667 -155 -99 -203s-132.333 -72 -225 -72z" />
    <glyph glyph-name="abreve" unicode="&#x103;" horiz-adv-x="1149" 
d="M852 0l-35 155.998h-8c-54.667 -68.667 -109.167 -115.167 -163.5 -139.5s-122.833 -36.5 -205.5 -36.5c-108 0 -192.667 28.333 -254 85s-92 136.667 -92 240c0 222.667 175.667 339.334 527 350.001l186 7v65c0 83.333 -18 144.833 -54 184.5s-93.667 59.5 -173 59.5
c-58 0 -112.833 -8.66699 -164.5 -26s-100.167 -36.666 -145.5 -57.999l-55 135c55.333 29.333 115.666 52.333 180.999 69s130 25 194 25c132.667 0 231.334 -29.333 296.001 -88s97 -152 97 -280v-748h-131zM481 124.998c100.667 0 179.833 27.167 237.5 81.5
s86.5 131.5 86.5 231.5v99l-162 -7c-126 -4.66699 -217.833 -24.667 -275.5 -60s-86.5 -91 -86.5 -167c0 -57.333 17.5 -101.333 52.5 -132s84.167 -46 147.5 -46zM575.999 1241c-94 0 -168.167 23 -222.5 69s-84.5 114.667 -90.5 206h110
c5.33301 -47.333 22 -80.833 50 -100.5s80.333 -29.5 157 -29.5c67.333 0 117.333 10.5 150 31.5s51.667 53.833 57 98.5h113c-8.66699 -87.333 -41.667 -155 -99 -203s-132.333 -72 -225 -72z" />
    <glyph glyph-name="Aogonek" unicode="&#x104;" horiz-adv-x="1309" 
d="M1116 0l-176 453h-580l-174 -453h-186l571 1468h166l570 -1468h-191zM885 616l-164 443l-70 219c-20 -80 -41 -153 -63 -219l-166 -443h463zM1106 -238c0 -30.667 8.16699 -53.667 24.5 -69s38.833 -23 67.5 -23c29.333 0 62.333 4.33301 99 13v-115
c-46 -12.667 -88.333 -19 -127 -19c-140.667 0 -211 64.333 -211 193c0 92.667 53.333 178.667 160 258h127c-46.667 -44 -81.667 -84.167 -105 -120.5s-35 -75.5 -35 -117.5z" />
    <glyph glyph-name="aogonek" unicode="&#x105;" horiz-adv-x="1149" 
d="M852 0l-35 155.998h-8c-54.667 -68.667 -109.167 -115.167 -163.5 -139.5s-122.833 -36.5 -205.5 -36.5c-108 0 -192.667 28.333 -254 85s-92 136.667 -92 240c0 222.667 175.667 339.334 527 350.001l186 7v65c0 83.333 -18 144.833 -54 184.5s-93.667 59.5 -173 59.5
c-58 0 -112.833 -8.66699 -164.5 -26s-100.167 -36.666 -145.5 -57.999l-55 135c55.333 29.333 115.666 52.333 180.999 69s130 25 194 25c132.667 0 231.334 -29.333 296.001 -88s97 -152 97 -280v-748h-131zM481 124.998c100.667 0 179.833 27.167 237.5 81.5
s86.5 131.5 86.5 231.5v99l-162 -7c-126 -4.66699 -217.833 -24.667 -275.5 -60s-86.5 -91 -86.5 -167c0 -57.333 17.5 -101.333 52.5 -132s84.167 -46 147.5 -46zM838.999 -238.002c0 -30.667 8.16699 -53.667 24.5 -69s38.833 -23 67.5 -23c29.333 0 62.333 4.33301 99 13
v-115c-46 -12.667 -88.333 -19 -127 -19c-140.667 0 -211 64.333 -211 193c0 92.667 53.333 178.667 160 258h127c-46.667 -44 -81.667 -84.167 -105 -120.5s-35 -75.5 -35 -117.5z" />
    <glyph glyph-name="Cacute" unicode="&#x106;" horiz-adv-x="1294" 
d="M825 1321c-157.333 0 -281 -52.666 -371 -157.999s-135 -249.333 -135 -432c0 -188.667 43.667 -334.167 131 -436.5s211.666 -153.5 372.999 -153.5c104 0 221 19.333 351 58v-160c-62 -22.667 -121.667 -38.167 -179 -46.5s-123.333 -12.5 -198 -12.5
c-215.333 0 -381.166 65.5 -497.499 196.5s-174.5 316.5 -174.5 556.5c0 150.667 27.833 282.667 83.5 396s136.667 200.666 243 261.999s231.5 92 375.5 92c154.667 0 289.334 -28.667 404.001 -86l-74 -156c-116.667 53.333 -227.334 80 -332.001 80zM651 1604
c25.333 32 57.5 77.502 96.5 136.502s71.833 114.5 98.5 166.5h217v-21c-29.333 -42.667 -75 -96.334 -137 -161.001s-114 -113.334 -156 -146.001h-119v25z" />
    <glyph glyph-name="cacute" unicode="&#x107;" horiz-adv-x="983" 
d="M614 -20c-158 0 -280.998 48.5 -368.998 145.5s-132 236.167 -132 417.5c0 184 44.5 325.833 133.5 425.5s215.833 149.5 380.5 149.5c53.333 0 106.166 -5.5 158.499 -16.5s95.5 -25.167 129.5 -42.5l-55 -150c-92.667 34.667 -171.667 52 -237 52
c-110.667 0 -192.334 -34.833 -245.001 -104.5s-79 -173.5 -79 -311.5c0 -132.667 26.333 -234.167 79 -304.5s130.667 -105.5 234 -105.5c96.667 0 191.667 21.333 285 64v-160c-76 -39.333 -170.333 -59 -283 -59zM459.002 1266c25.333 32 57.5 77.502 96.5 136.502
s71.833 114.5 98.5 166.5h217v-21c-29.333 -42.667 -75 -96.334 -137 -161.001s-114 -113.334 -156 -146.001h-119v25z" />
    <glyph glyph-name="Ccircumflex" unicode="&#x108;" horiz-adv-x="1294" 
d="M825 1321c-157.333 0 -281 -52.666 -371 -157.999s-135 -249.333 -135 -432c0 -188.667 43.667 -334.167 131 -436.5s211.666 -153.5 372.999 -153.5c104 0 221 19.333 351 58v-160c-62 -22.667 -121.667 -38.167 -179 -46.5s-123.333 -12.5 -198 -12.5
c-215.333 0 -381.166 65.5 -497.499 196.5s-174.5 316.5 -174.5 556.5c0 150.667 27.833 282.667 83.5 396s136.667 200.666 243 261.999s231.5 92 375.5 92c154.667 0 289.334 -28.667 404.001 -86l-74 -156c-116.667 53.333 -227.334 80 -332.001 80zM450 1602
c83.333 89.333 142.167 155.332 176.5 197.999s59.5 78.334 75.5 107.001h184c34.667 -67.333 120 -169 256 -305v-23h-127c-60 35.333 -134.333 96.666 -223 183.999c-87.333 -85.333 -160.333 -146.666 -219 -183.999h-123v23z" />
    <glyph glyph-name="ccircumflex" unicode="&#x109;" horiz-adv-x="983" 
d="M614 -20c-158 0 -280.998 48.5 -368.998 145.5s-132 236.167 -132 417.5c0 184 44.5 325.833 133.5 425.5s215.833 149.5 380.5 149.5c53.333 0 106.166 -5.5 158.499 -16.5s95.5 -25.167 129.5 -42.5l-55 -150c-92.667 34.667 -171.667 52 -237 52
c-110.667 0 -192.334 -34.833 -245.001 -104.5s-79 -173.5 -79 -311.5c0 -132.667 26.333 -234.167 79 -304.5s130.667 -105.5 234 -105.5c96.667 0 191.667 21.333 285 64v-160c-76 -39.333 -170.333 -59 -283 -59zM241.002 1264
c83.333 89.333 142.167 155.332 176.5 197.999s59.5 78.334 75.5 107.001h184c34.667 -67.333 120 -169 256 -305v-23h-127c-60 35.333 -134.333 96.666 -223 183.999c-87.333 -85.333 -160.333 -146.666 -219 -183.999h-123v23z" />
    <glyph glyph-name="Cdotaccent" unicode="&#x10a;" horiz-adv-x="1294" 
d="M825 1321c-157.333 0 -281 -52.666 -371 -157.999s-135 -249.333 -135 -432c0 -188.667 43.667 -334.167 131 -436.5s211.666 -153.5 372.999 -153.5c104 0 221 19.333 351 58v-160c-62 -22.667 -121.667 -38.167 -179 -46.5s-123.333 -12.5 -198 -12.5
c-215.333 0 -381.166 65.5 -497.499 196.5s-174.5 316.5 -174.5 556.5c0 150.667 27.833 282.667 83.5 396s136.667 200.666 243 261.999s231.5 92 375.5 92c154.667 0 289.334 -28.667 404.001 -86l-74 -156c-116.667 53.333 -227.334 80 -332.001 80zM690 1733
c0 40 10.167 69 30.5 87s45.5 27 75.5 27c28 0 52.5 -9 73.5 -27s31.5 -47 31.5 -87c0 -39.333 -10.5 -68.333 -31.5 -87s-45.5 -28 -73.5 -28c-30 0 -55.167 9.33301 -75.5 28s-30.5 47.667 -30.5 87z" />
    <glyph glyph-name="cdotaccent" unicode="&#x10b;" horiz-adv-x="983" 
d="M614 -20c-158 0 -280.998 48.5 -368.998 145.5s-132 236.167 -132 417.5c0 184 44.5 325.833 133.5 425.5s215.833 149.5 380.5 149.5c53.333 0 106.166 -5.5 158.499 -16.5s95.5 -25.167 129.5 -42.5l-55 -150c-92.667 34.667 -171.667 52 -237 52
c-110.667 0 -192.334 -34.833 -245.001 -104.5s-79 -173.5 -79 -311.5c0 -132.667 26.333 -234.167 79 -304.5s130.667 -105.5 234 -105.5c96.667 0 191.667 21.333 285 64v-160c-76 -39.333 -170.333 -59 -283 -59zM494.002 1395c0 40 10.167 69 30.5 87s45.5 27 75.5 27
c28 0 52.5 -9 73.5 -27s31.5 -47 31.5 -87c0 -39.333 -10.5 -68.333 -31.5 -87s-45.5 -28 -73.5 -28c-30 0 -55.167 9.33301 -75.5 28s-30.5 47.667 -30.5 87z" />
    <glyph glyph-name="Ccaron" unicode="&#x10c;" horiz-adv-x="1294" 
d="M825 1321c-157.333 0 -281 -52.666 -371 -157.999s-135 -249.333 -135 -432c0 -188.667 43.667 -334.167 131 -436.5s211.666 -153.5 372.999 -153.5c104 0 221 19.333 351 58v-160c-62 -22.667 -121.667 -38.167 -179 -46.5s-123.333 -12.5 -198 -12.5
c-215.333 0 -381.166 65.5 -497.499 196.5s-174.5 316.5 -174.5 556.5c0 150.667 27.833 282.667 83.5 396s136.667 200.666 243 261.999s231.5 92 375.5 92c154.667 0 289.334 -28.667 404.001 -86l-74 -156c-116.667 53.333 -227.334 80 -332.001 80zM450 1907h123
c76 -49.333 149 -112.333 219 -189c84 84 158.333 147 223 189h127v-27c-136.667 -136.667 -222 -237 -256 -301h-184c-40 68 -124 168.333 -252 301v27z" />
    <glyph glyph-name="ccaron" unicode="&#x10d;" horiz-adv-x="983" 
d="M614 -20c-158 0 -280.998 48.5 -368.998 145.5s-132 236.167 -132 417.5c0 184 44.5 325.833 133.5 425.5s215.833 149.5 380.5 149.5c53.333 0 106.166 -5.5 158.499 -16.5s95.5 -25.167 129.5 -42.5l-55 -150c-92.667 34.667 -171.667 52 -237 52
c-110.667 0 -192.334 -34.833 -245.001 -104.5s-79 -173.5 -79 -311.5c0 -132.667 26.333 -234.167 79 -304.5s130.667 -105.5 234 -105.5c96.667 0 191.667 21.333 285 64v-160c-76 -39.333 -170.333 -59 -283 -59zM249.002 1569h123c76 -49.333 149 -112.333 219 -189
c84 84 158.333 147 223 189h127v-27c-136.667 -136.667 -222 -237 -256 -301h-184c-40 68 -124 168.333 -252 301v27z" />
    <glyph glyph-name="Dcaron" unicode="&#x10e;" horiz-adv-x="1495" 
d="M1370 745c0 -241.333 -65.833 -425.833 -197.5 -553.5s-320.5 -191.5 -566.5 -191.5h-407v1462h450c227.333 0 404.333 -62.5 531 -187.5s190 -301.5 190 -529.5zM1176 739c0 186 -45.833 326.833 -137.5 422.5s-230.167 143.5 -415.5 143.5h-240v-1147h199
c396 0 594 193.667 594 581zM348 1907h123c76 -49.333 149 -112.333 219 -189c84 84 158.333 147 223 189h127v-27c-136.667 -136.667 -222 -237 -256 -301h-184c-40 68 -124 168.333 -252 301v27z" />
    <glyph glyph-name="dcaron" unicode="&#x10f;" horiz-adv-x="1260" 
d="M563 -20c-142.667 0 -253.332 49.333 -331.999 148s-118 238.334 -118 419.001c0 179.333 39.5 319.333 118.5 420s190.167 151 333.5 151c147.333 0 260.666 -54 339.999 -162h13c-2 13.333 -4.66699 40.166 -8 80.499s-5 67.5 -5 81.5v438h180v-1556h-145l-27 147h-8
c-76.667 -111.333 -190.667 -167 -342 -167zM592.002 129c109.333 0 189.168 29.834 239.501 89.501s75.5 157.5 75.5 293.5v33c0 152.667 -25.5 261.5 -76.5 326.5s-131.167 97.5 -240.5 97.5c-92.667 0 -164.334 -36.833 -215.001 -110.5s-76 -178.834 -76 -315.501
c0 -136 25.167 -239 75.5 -309s122.833 -105 217.5 -105zM1177 1253c15.333 44 29.502 96.999 42.502 158.999s21.5 110 25.5 144h178v-18c-8.66699 -35.333 -27.334 -83.666 -56.001 -144.999s-59.334 -116 -92.001 -164h-98v24z" />
    <glyph glyph-name="Dcroat" unicode="&#x110;" horiz-adv-x="1495" 
d="M1370 745c0 -239.333 -65.5 -423.332 -196.5 -551.999s-320.833 -193 -569.5 -193h-391v643h-152v160h152v659h436c227.333 0 404.333 -62.833 531 -188.5s190 -301.834 190 -528.501zM1176 739.001c0 186.667 -46.333 327.667 -139 423s-230.667 143 -414 143h-226v-502
h365v-160h-365v-485h185c396 0 594 193.667 594 581z" />
    <glyph glyph-name="dcroat" unicode="&#x111;" horiz-adv-x="1264" 
d="M563 -20c-142.667 0 -253.332 48.999 -331.999 146.999s-118 236.667 -118 416c0 180.667 39.167 320.667 117.5 420s189.166 149 332.499 149c148.667 0 262.667 -54 342 -162h13c-2 9.33301 -4.66699 32.333 -8 69s-5 68.334 -5 95.001v125h-436v135h436v182h180v-182
h156v-135h-156v-1239h-147l-27 147h-8c-76.667 -111.333 -190 -167 -340 -167zM594.002 128.999c108.667 0 188 29.501 238 88.501s75 155.833 75 290.5v35c0 153.333 -25.333 261.666 -76 324.999s-131 95 -241 95c-93.333 0 -164.833 -35.667 -214.5 -107
s-74.5 -176.333 -74.5 -315c0 -131.333 24 -232.833 72 -304.5s121.667 -107.5 221 -107.5z" />
    <glyph glyph-name="Emacron" unicode="&#x112;" horiz-adv-x="1139" 
d="M1016 0h-817v1462h817v-162h-633v-456h596v-160h-596v-522h633v-162zM303 1724h608v-145h-608v145z" />
    <glyph glyph-name="emacron" unicode="&#x113;" horiz-adv-x="1155" 
d="M641 -20c-164.667 0 -293.835 49.833 -387.502 149.5s-140.5 236.834 -140.5 411.501c0 176 43.667 316.167 131 420.5s205.333 156.5 354 156.5c138 0 248 -44.5 330 -133.5s123 -209.5 123 -361.5v-109h-752c3.33301 -124.667 35 -219.334 95 -284.001s145 -97 255 -97
c58.667 0 114.334 5.16699 167.001 15.5s114.334 30.5 185.001 60.5v-158c-60.667 -26 -117.667 -44.333 -171 -55s-116.333 -16 -189 -16zM595.999 971c-86 0 -154 -27.667 -204 -83s-79.667 -132.333 -89 -231h559c-1.33301 102.667 -25 180.667 -71 234s-111 80 -195 80z
M306.999 1386h608v-145h-608v145z" />
    <glyph glyph-name="Ebreve" unicode="&#x114;" horiz-adv-x="1139" 
d="M1016 0h-817v1462h817v-162h-633v-456h596v-160h-596v-522h633v-162zM612 1579c-94 0 -168.167 23 -222.5 69s-84.5 114.667 -90.5 206h110c5.33301 -47.333 22 -80.833 50 -100.5s80.333 -29.5 157 -29.5c67.333 0 117.333 10.5 150 31.5s51.667 53.833 57 98.5h113
c-8.66699 -87.333 -41.667 -155 -99 -203s-132.333 -72 -225 -72z" />
    <glyph glyph-name="ebreve" unicode="&#x115;" horiz-adv-x="1155" 
d="M641 -20c-164.667 0 -293.835 49.833 -387.502 149.5s-140.5 236.834 -140.5 411.501c0 176 43.667 316.167 131 420.5s205.333 156.5 354 156.5c138 0 248 -44.5 330 -133.5s123 -209.5 123 -361.5v-109h-752c3.33301 -124.667 35 -219.334 95 -284.001s145 -97 255 -97
c58.667 0 114.334 5.16699 167.001 15.5s114.334 30.5 185.001 60.5v-158c-60.667 -26 -117.667 -44.333 -171 -55s-116.333 -16 -189 -16zM595.999 971c-86 0 -154 -27.667 -204 -83s-79.667 -132.333 -89 -231h559c-1.33301 102.667 -25 180.667 -71 234s-111 80 -195 80z
M596.999 1241c-94 0 -168.167 23 -222.5 69s-84.5 114.667 -90.5 206h110c5.33301 -47.333 22 -80.833 50 -100.5s80.333 -29.5 157 -29.5c67.333 0 117.333 10.5 150 31.5s51.667 53.833 57 98.5h113c-8.66699 -87.333 -41.667 -155 -99 -203s-132.333 -72 -225 -72z" />
    <glyph glyph-name="Edotaccent" unicode="&#x116;" horiz-adv-x="1139" 
d="M1016 0h-817v1462h817v-162h-633v-456h596v-160h-596v-522h633v-162zM518 1704c0 40 10.167 69 30.5 87s45.5 27 75.5 27c28 0 52.5 -9 73.5 -27s31.5 -47 31.5 -87c0 -39.333 -10.5 -68.333 -31.5 -87s-45.5 -28 -73.5 -28c-30 0 -55.167 9.33301 -75.5 28
s-30.5 47.667 -30.5 87z" />
    <glyph glyph-name="edotaccent" unicode="&#x117;" horiz-adv-x="1155" 
d="M641 -20c-164.667 0 -293.835 49.833 -387.502 149.5s-140.5 236.834 -140.5 411.501c0 176 43.667 316.167 131 420.5s205.333 156.5 354 156.5c138 0 248 -44.5 330 -133.5s123 -209.5 123 -361.5v-109h-752c3.33301 -124.667 35 -219.334 95 -284.001s145 -97 255 -97
c58.667 0 114.334 5.16699 167.001 15.5s114.334 30.5 185.001 60.5v-158c-60.667 -26 -117.667 -44.333 -171 -55s-116.333 -16 -189 -16zM595.999 971c-86 0 -154 -27.667 -204 -83s-79.667 -132.333 -89 -231h559c-1.33301 102.667 -25 180.667 -71 234s-111 80 -195 80z
M497.999 1395c0 40 10.167 69 30.5 87s45.5 27 75.5 27c28 0 52.5 -9 73.5 -27s31.5 -47 31.5 -87c0 -39.333 -10.5 -68.333 -31.5 -87s-45.5 -28 -73.5 -28c-30 0 -55.167 9.33301 -75.5 28s-30.5 47.667 -30.5 87z" />
    <glyph glyph-name="Eogonek" unicode="&#x118;" horiz-adv-x="1139" 
d="M1016 0h-817v1462h817v-162h-633v-456h596v-160h-596v-522h633v-162zM803 -238c0 -30.667 8.16699 -53.667 24.5 -69s38.833 -23 67.5 -23c29.333 0 62.333 4.33301 99 13v-115c-46 -12.667 -88.333 -19 -127 -19c-140.667 0 -211 64.333 -211 193
c0 92.667 53.333 178.667 160 258h127c-46.667 -44 -81.667 -84.167 -105 -120.5s-35 -75.5 -35 -117.5z" />
    <glyph glyph-name="eogonek" unicode="&#x119;" horiz-adv-x="1155" 
d="M641 -20c-164.667 0 -293.835 49.833 -387.502 149.5s-140.5 236.834 -140.5 411.501c0 176 43.667 316.167 131 420.5s205.333 156.5 354 156.5c138 0 248 -44.5 330 -133.5s123 -209.5 123 -361.5v-109h-752c3.33301 -124.667 35 -219.334 95 -284.001s145 -97 255 -97
c58.667 0 114.334 5.16699 167.001 15.5s114.334 30.5 185.001 60.5v-158c-60.667 -26 -117.667 -44.333 -171 -55s-116.333 -16 -189 -16zM595.999 971c-86 0 -154 -27.667 -204 -83s-79.667 -132.333 -89 -231h559c-1.33301 102.667 -25 180.667 -71 234s-111 80 -195 80z
M791.999 -209c0 -30.667 8.16699 -53.667 24.5 -69s38.833 -23 67.5 -23c29.333 0 62.333 4.33301 99 13v-115c-46 -12.667 -88.333 -19 -127 -19c-140.667 0 -211 64.333 -211 193c0 92.667 53.333 178.667 160 258h127c-46.667 -44 -81.667 -84.167 -105 -120.5
s-35 -75.5 -35 -117.5z" />
    <glyph glyph-name="Ecaron" unicode="&#x11a;" horiz-adv-x="1139" 
d="M1016 0h-817v1462h817v-162h-633v-456h596v-160h-596v-522h633v-162zM272 1907h123c76 -49.333 149 -112.333 219 -189c84 84 158.333 147 223 189h127v-27c-136.667 -136.667 -222 -237 -256 -301h-184c-40 68 -124 168.333 -252 301v27z" />
    <glyph glyph-name="ecaron" unicode="&#x11b;" horiz-adv-x="1155" 
d="M641 -20c-164.667 0 -293.835 49.833 -387.502 149.5s-140.5 236.834 -140.5 411.501c0 176 43.667 316.167 131 420.5s205.333 156.5 354 156.5c138 0 248 -44.5 330 -133.5s123 -209.5 123 -361.5v-109h-752c3.33301 -124.667 35 -219.334 95 -284.001s145 -97 255 -97
c58.667 0 114.334 5.16699 167.001 15.5s114.334 30.5 185.001 60.5v-158c-60.667 -26 -117.667 -44.333 -171 -55s-116.333 -16 -189 -16zM595.999 971c-86 0 -154 -27.667 -204 -83s-79.667 -132.333 -89 -231h559c-1.33301 102.667 -25 180.667 -71 234s-111 80 -195 80z
M256.999 1569h123c76 -49.333 149 -112.333 219 -189c84 84 158.333 147 223 189h127v-27c-136.667 -136.667 -222 -237 -256 -301h-184c-40 68 -124 168.333 -252 301v27z" />
    <glyph glyph-name="Gcircumflex" unicode="&#x11c;" horiz-adv-x="1491" 
d="M834 772l505.002 0.000976562v-717c-77.333 -24.667 -156 -43.334 -236 -56.001s-172.667 -19 -278 -19c-222.667 0 -395 66 -517 198s-183 316.333 -183 553c0 152.667 30.333 286 91 400s148.167 201.167 262.5 261.5s249.166 90.5 404.499 90.5
c156 0 301.333 -28.667 436 -86l-70 -160c-128.667 56 -254.334 84 -377.001 84c-174 0 -310 -52.667 -408 -158s-147 -249.333 -147 -432c0 -193.333 47 -340.333 141 -441s230.667 -151 410 -151c98 0 193.667 11.667 287 35v434h-321v164zM508.002 1602
c83.333 89.333 142.167 155.332 176.5 197.999s59.5 78.334 75.5 107.001h184c34.667 -67.333 120 -169 256 -305v-23h-127c-60 35.333 -134.333 96.666 -223 183.999c-87.333 -85.333 -160.333 -146.666 -219 -183.999h-123v23z" />
    <glyph glyph-name="gcircumflex" unicode="&#x11d;" horiz-adv-x="1260" 
d="M592 127c110.667 0 191.168 29.832 241.501 89.499s75.5 155.5 75.5 287.5v43c0 146.667 -25.333 253.334 -76 320.001s-132.334 100 -245.001 100c-92 0 -163.167 -36.5 -213.5 -109.5s-75.5 -177.167 -75.5 -312.5c0 -136 24.5 -239.667 73.5 -311
s122.167 -107 219.5 -107zM907.001 9.99902l6.00098 134.998h-8c-74 -110 -187.333 -165 -340 -165c-142 0 -252.833 49.5 -332.5 148.5s-119.5 238.5 -119.5 418.5c0 176.667 40.167 316 120.5 418s190.166 153 329.499 153c148.667 0 263.334 -55.333 344.001 -166h11
l24 146h143v-1116c0 -157.333 -39.833 -275.666 -119.5 -354.999s-203.5 -119 -371.5 -119c-160 0 -291.667 23.333 -395 70v166c106.667 -57.333 241.667 -86 405 -86c93.333 0 167.166 27.333 221.499 82s81.5 130.334 81.5 227.001v43zM270.002 1264
c83.333 89.333 142.167 155.332 176.5 197.999s59.5 78.334 75.5 107.001h184c34.667 -67.333 120 -169 256 -305v-23h-127c-60 35.333 -134.333 96.666 -223 183.999c-87.333 -85.333 -160.333 -146.666 -219 -183.999h-123v23z" />
    <glyph glyph-name="Gbreve" unicode="&#x11e;" horiz-adv-x="1491" 
d="M834 772l505.002 0.000976562v-717c-77.333 -24.667 -156 -43.334 -236 -56.001s-172.667 -19 -278 -19c-222.667 0 -395 66 -517 198s-183 316.333 -183 553c0 152.667 30.333 286 91 400s148.167 201.167 262.5 261.5s249.166 90.5 404.499 90.5
c156 0 301.333 -28.667 436 -86l-70 -160c-128.667 56 -254.334 84 -377.001 84c-174 0 -310 -52.667 -408 -158s-147 -249.333 -147 -432c0 -193.333 47 -340.333 141 -441s230.667 -151 410 -151c98 0 193.667 11.667 287 35v434h-321v164zM848.002 1579
c-94 0 -168.167 23 -222.5 69s-84.5 114.667 -90.5 206h110c5.33301 -47.333 22 -80.833 50 -100.5s80.333 -29.5 157 -29.5c67.333 0 117.333 10.5 150 31.5s51.667 53.833 57 98.5h113c-8.66699 -87.333 -41.667 -155 -99 -203s-132.333 -72 -225 -72z" />
    <glyph glyph-name="gbreve" unicode="&#x11f;" horiz-adv-x="1260" 
d="M592 127c110.667 0 191.168 29.832 241.501 89.499s75.5 155.5 75.5 287.5v43c0 146.667 -25.333 253.334 -76 320.001s-132.334 100 -245.001 100c-92 0 -163.167 -36.5 -213.5 -109.5s-75.5 -177.167 -75.5 -312.5c0 -136 24.5 -239.667 73.5 -311
s122.167 -107 219.5 -107zM907.001 9.99902l6.00098 134.998h-8c-74 -110 -187.333 -165 -340 -165c-142 0 -252.833 49.5 -332.5 148.5s-119.5 238.5 -119.5 418.5c0 176.667 40.167 316 120.5 418s190.166 153 329.499 153c148.667 0 263.334 -55.333 344.001 -166h11
l24 146h143v-1116c0 -157.333 -39.833 -275.666 -119.5 -354.999s-203.5 -119 -371.5 -119c-160 0 -291.667 23.333 -395 70v166c106.667 -57.333 241.667 -86 405 -86c93.333 0 167.166 27.333 221.499 82s81.5 130.334 81.5 227.001v43zM614.002 1241
c-94 0 -168.167 23 -222.5 69s-84.5 114.667 -90.5 206h110c5.33301 -47.333 22 -80.833 50 -100.5s80.333 -29.5 157 -29.5c67.333 0 117.333 10.5 150 31.5s51.667 53.833 57 98.5h113c-8.66699 -87.333 -41.667 -155 -99 -203s-132.333 -72 -225 -72z" />
    <glyph glyph-name="Gdotaccent" unicode="&#x120;" horiz-adv-x="1491" 
d="M834 772l505.002 0.000976562v-717c-77.333 -24.667 -156 -43.334 -236 -56.001s-172.667 -19 -278 -19c-222.667 0 -395 66 -517 198s-183 316.333 -183 553c0 152.667 30.333 286 91 400s148.167 201.167 262.5 261.5s249.166 90.5 404.499 90.5
c156 0 301.333 -28.667 436 -86l-70 -160c-128.667 56 -254.334 84 -377.001 84c-174 0 -310 -52.667 -408 -158s-147 -249.333 -147 -432c0 -193.333 47 -340.333 141 -441s230.667 -151 410 -151c98 0 193.667 11.667 287 35v434h-321v164zM760.002 1733
c0 40 10.167 69 30.5 87s45.5 27 75.5 27c28 0 52.5 -9 73.5 -27s31.5 -47 31.5 -87c0 -39.333 -10.5 -68.333 -31.5 -87s-45.5 -28 -73.5 -28c-30 0 -55.167 9.33301 -75.5 28s-30.5 47.667 -30.5 87z" />
    <glyph glyph-name="gdotaccent" unicode="&#x121;" horiz-adv-x="1260" 
d="M592 127c110.667 0 191.168 29.832 241.501 89.499s75.5 155.5 75.5 287.5v43c0 146.667 -25.333 253.334 -76 320.001s-132.334 100 -245.001 100c-92 0 -163.167 -36.5 -213.5 -109.5s-75.5 -177.167 -75.5 -312.5c0 -136 24.5 -239.667 73.5 -311
s122.167 -107 219.5 -107zM907.001 9.99902l6.00098 134.998h-8c-74 -110 -187.333 -165 -340 -165c-142 0 -252.833 49.5 -332.5 148.5s-119.5 238.5 -119.5 418.5c0 176.667 40.167 316 120.5 418s190.166 153 329.499 153c148.667 0 263.334 -55.333 344.001 -166h11
l24 146h143v-1116c0 -157.333 -39.833 -275.666 -119.5 -354.999s-203.5 -119 -371.5 -119c-160 0 -291.667 23.333 -395 70v166c106.667 -57.333 241.667 -86 405 -86c93.333 0 167.166 27.333 221.499 82s81.5 130.334 81.5 227.001v43zM506.002 1395
c0 40 10.167 69 30.5 87s45.5 27 75.5 27c28 0 52.5 -9 73.5 -27s31.5 -47 31.5 -87c0 -39.333 -10.5 -68.333 -31.5 -87s-45.5 -28 -73.5 -28c-30 0 -55.167 9.33301 -75.5 28s-30.5 47.667 -30.5 87z" />
    <glyph glyph-name="Gcommaaccent" unicode="&#x122;" horiz-adv-x="1491" 
d="M834 772l505.002 0.000976562v-717c-77.333 -24.667 -156 -43.334 -236 -56.001s-172.667 -19 -278 -19c-222.667 0 -395 66 -517 198s-183 316.333 -183 553c0 152.667 30.333 286 91 400s148.167 201.167 262.5 261.5s249.166 90.5 404.499 90.5
c156 0 301.333 -28.667 436 -86l-70 -160c-128.667 56 -254.334 84 -377.001 84c-174 0 -310 -52.667 -408 -158s-147 -249.333 -147 -432c0 -193.333 47 -340.333 141 -441s230.667 -151 410 -151c98 0 193.667 11.667 287 35v434h-321v164zM660.002 -427.999
c14.667 34 31 82 49 144s29.667 115 35 159h178v-18c-10.667 -42 -32.167 -94.167 -64.5 -156.5s-65.5 -113.5 -99.5 -153.5h-98v25z" />
    <glyph glyph-name="gcommaaccent" unicode="&#x123;" horiz-adv-x="1260" 
d="M592 127c110.667 0 191.168 29.832 241.501 89.499s75.5 155.5 75.5 287.5v43c0 146.667 -25.333 253.334 -76 320.001s-132.334 100 -245.001 100c-92 0 -163.167 -36.5 -213.5 -109.5s-75.5 -177.167 -75.5 -312.5c0 -136 24.5 -239.667 73.5 -311
s122.167 -107 219.5 -107zM907.001 9.99902l6.00098 134.998h-8c-74 -110 -187.333 -165 -340 -165c-142 0 -252.833 49.5 -332.5 148.5s-119.5 238.5 -119.5 418.5c0 176.667 40.167 316 120.5 418s190.166 153 329.499 153c148.667 0 263.334 -55.333 344.001 -166h11
l24 146h143v-1116c0 -157.333 -39.833 -275.666 -119.5 -354.999s-203.5 -119 -371.5 -119c-160 0 -291.667 23.333 -395 70v166c106.667 -57.333 241.667 -86 405 -86c93.333 0 167.166 27.333 221.499 82s81.5 130.334 81.5 227.001v43zM776.002 1544
c-18 -39.333 -35.667 -90 -53 -152s-28.333 -112.333 -33 -151h-178v19c10 37.333 31.5 88 64.5 152s66.167 116.333 99.5 157h100v-25z" />
    <glyph glyph-name="Hcircumflex" unicode="&#x124;" horiz-adv-x="1518" 
d="M1317 0h-184v682h-750v-682h-184v1462h184v-618h750v618h184v-1462zM410 1602c83.333 89.333 142.167 155.332 176.5 197.999s59.5 78.334 75.5 107.001h184c34.667 -67.333 120 -169 256 -305v-23h-127c-60 35.333 -134.333 96.666 -223 183.999
c-87.333 -85.333 -160.333 -146.666 -219 -183.999h-123v23z" />
    <glyph glyph-name="hcircumflex" unicode="&#x125;" horiz-adv-x="1266" 
d="M922 0l0.00195312 702c0 89.333 -19.833 155.833 -59.5 199.5s-101.834 65.5 -186.501 65.5c-111.333 0 -192.833 -31 -244.5 -93s-77.5 -164.333 -77.5 -307v-567h-180v1556h180v-456c0 -60 -3.33301 -111.333 -10 -154h12c32.667 53.333 79 95 139 125
s127.667 45 203 45c133.333 0 233.666 -31.833 300.999 -95.5s101 -165.5 101 -305.5v-715h-178zM293.002 1657c83.333 89.333 142.167 155.332 176.5 197.999s59.5 78.334 75.5 107.001h184c34.667 -67.333 120 -169 256 -305v-23h-127
c-60 35.333 -134.333 96.666 -223 183.999c-87.333 -85.333 -160.333 -146.666 -219 -183.999h-123v23z" />
    <glyph glyph-name="Hbar" unicode="&#x126;" horiz-adv-x="1518" 
d="M199 1219v243h184v-243h750v243h184v-243h199v-148h-199v-1071h-184v682h-750v-682h-184v1071h-199v148h199zM1133 844v227h-750v-227h750z" />
    <glyph glyph-name="hbar" unicode="&#x127;" horiz-adv-x="1266" 
d="M922 0l0.000976562 662c0 88.667 -19.833 154.834 -59.5 198.501s-101.834 65.5 -186.501 65.5c-112.667 0 -194.5 -30.833 -245.5 -92.5s-76.5 -163.5 -76.5 -305.5v-528h-180v1237h-156v135h156v184h180v-184h434v-135h-434v-178
c0 -58.667 -3.33301 -109.334 -10 -152.001h12c35.333 56.667 83.5 99.167 144.5 127.5s127.5 42.5 199.5 42.5c132.667 0 232.5 -32.167 299.5 -96.5s100.5 -166.5 100.5 -306.5v-674h-178z" />
    <glyph glyph-name="Itilde" unicode="&#x128;" horiz-adv-x="694" 
d="M610 0h-528v106l172 39v1170l-172 41v106h528v-106l-172 -41v-1170l172 -39v-106zM500 1581c-28.667 0 -56.668 6.16699 -84.001 18.5s-54.166 25.666 -80.499 39.999l-76 40c-24.333 12.333 -47.833 18.5 -70.5 18.5c-32.667 0 -57.334 -9.83301 -74.001 -29.5
s-29.667 -49.5 -39 -89.5h-104c8 81.333 31.333 145.333 70 192s90.334 70 155.001 70c30 0 59.167 -6.16699 87.5 -18.5s55.5 -25.666 81.5 -39.999l75 -40c24 -12.333 46.667 -18.5 68 -18.5c32 0 56.167 9.83301 72.5 29.5s29.5 49.5 39.5 89.5h103
c-8 -79.333 -31.333 -142.833 -70 -190.5s-90 -71.5 -154 -71.5z" />
    <glyph glyph-name="itilde" unicode="&#x129;" horiz-adv-x="528" 
d="M354 0h-180v1098h180v-1098zM418 1243c-28.667 0 -56.668 6.16699 -84.001 18.5s-54.166 25.666 -80.499 39.999l-76 40c-24.333 12.333 -47.833 18.5 -70.5 18.5c-32.667 0 -57.334 -9.83301 -74.001 -29.5s-29.667 -49.5 -39 -89.5h-104
c8 81.333 31.333 145.333 70 192s90.334 70 155.001 70c30 0 59.167 -6.16699 87.5 -18.5s55.5 -25.666 81.5 -39.999l75 -40c24 -12.333 46.667 -18.5 68 -18.5c32 0 56.167 9.83301 72.5 29.5s29.5 49.5 39.5 89.5h103c-8 -79.333 -31.333 -142.833 -70 -190.5
s-90 -71.5 -154 -71.5z" />
    <glyph glyph-name="Imacron" unicode="&#x12a;" horiz-adv-x="694" 
d="M610 0h-528v106l172 39v1170l-172 41v106h528v-106l-172 -41v-1170l172 -39v-106zM44 1724h608v-145h-608v145z" />
    <glyph glyph-name="imacron" unicode="&#x12b;" horiz-adv-x="528" 
d="M354 0h-180v1098h180v-1098zM-36 1386h608v-145h-608v145z" />
    <glyph glyph-name="Ibreve" unicode="&#x12c;" horiz-adv-x="694" 
d="M610 0h-528v106l172 39v1170l-172 41v106h528v-106l-172 -41v-1170l172 -39v-106zM343 1579c-94 0 -168.167 23 -222.5 69s-84.5 114.667 -90.5 206h110c5.33301 -47.333 22 -80.833 50 -100.5s80.333 -29.5 157 -29.5c67.333 0 117.333 10.5 150 31.5
s51.667 53.833 57 98.5h113c-8.66699 -87.333 -41.667 -155 -99 -203s-132.333 -72 -225 -72z" />
    <glyph glyph-name="ibreve" unicode="&#x12d;" horiz-adv-x="528" 
d="M354 0h-180v1098h180v-1098zM259 1241c-94 0 -168.167 23 -222.5 69s-84.5 114.667 -90.5 206h110c5.33301 -47.333 22 -80.833 50 -100.5s80.333 -29.5 157 -29.5c67.333 0 117.333 10.5 150 31.5s51.667 53.833 57 98.5h113c-8.66699 -87.333 -41.667 -155 -99 -203
s-132.333 -72 -225 -72z" />
    <glyph glyph-name="Iogonek" unicode="&#x12e;" horiz-adv-x="694" 
d="M610 0h-528v106l172 39v1170l-172 41v106h528v-106l-172 -41v-1170l172 -39v-106zM327 -238c0 -30.667 8.16699 -53.667 24.5 -69s38.833 -23 67.5 -23c29.333 0 62.333 4.33301 99 13v-115c-46 -12.667 -88.333 -19 -127 -19c-140.667 0 -211 64.333 -211 193
c0 92.667 53.333 178.667 160 258h127c-46.667 -44 -81.667 -84.167 -105 -120.5s-35 -75.5 -35 -117.5z" />
    <glyph glyph-name="iogonek" unicode="&#x12f;" horiz-adv-x="528" 
d="M354 0h-180v1098h180v-1098zM160 1395c0 40 10.167 69 30.5 87s45.5 27 75.5 27c28 0 52.5 -9 73.5 -27s31.5 -47 31.5 -87c0 -39.333 -10.5 -68.333 -31.5 -87s-45.5 -28 -73.5 -28c-30 0 -55.167 9.33301 -75.5 28s-30.5 47.667 -30.5 87zM198 -238
c0 -30.667 8.16699 -53.667 24.5 -69s38.833 -23 67.5 -23c29.333 0 62.333 4.33301 99 13v-115c-46 -12.667 -88.333 -19 -127 -19c-140.667 0 -211 64.333 -211 193c0 92.667 53.333 178.667 160 258h127c-46.667 -44 -81.667 -84.167 -105 -120.5s-35 -75.5 -35 -117.5z
" />
    <glyph glyph-name="Idotaccent" unicode="&#x130;" horiz-adv-x="694" 
d="M610 0h-528v106l172 39v1170l-172 41v106h528v-106l-172 -41v-1170l172 -39v-106zM240 1733c0 40 10.167 69 30.5 87s45.5 27 75.5 27c28 0 52.5 -9 73.5 -27s31.5 -47 31.5 -87c0 -39.333 -10.5 -68.333 -31.5 -87s-45.5 -28 -73.5 -28c-30 0 -55.167 9.33301 -75.5 28
s-30.5 47.667 -30.5 87z" />
    <glyph glyph-name="dotlessi" unicode="&#x131;" horiz-adv-x="528" 
d="M354 0h-180v1098h180v-1098z" />
    <glyph glyph-name="IJ" unicode="&#x132;" horiz-adv-x="1253" 
d="M610 0h-528v106l172 39v1170l-172 41v106h528v-106l-172 -41v-1170l172 -39v-106zM686 -389c-62.667 0 -113.331 9 -151.998 27v155c47.333 -13.333 96.666 -20 147.999 -20c66.667 0 116.667 20.167 150 60.5s50 98.5 50 174.5v1454h185v-1439
c0 -132 -32.833 -233.667 -98.5 -305s-159.834 -107 -282.501 -107z" />
    <glyph glyph-name="ij" unicode="&#x133;" horiz-adv-x="1053" 
d="M354 0h-180v1098h180v-1098zM160 1395c0 40 10.167 69 30.5 87s45.5 27 75.5 27c28 0 52.5 -9 73.5 -27s31.5 -47 31.5 -87c0 -39.333 -10.5 -68.333 -31.5 -87s-45.5 -28 -73.5 -28c-30 0 -55.167 9.33301 -75.5 28s-30.5 47.667 -30.5 87zM569 -492
c-62.667 0 -115.334 8.33301 -158.001 25v145c46 -13.333 91.333 -20 136 -20c52 0 90.167 14.167 114.5 42.5s36.5 71.5 36.5 129.5v1268h180v-1262c0 -109.333 -26.167 -191.333 -78.5 -246s-129.166 -82 -230.499 -82zM684 1395c0 40 10.167 69 30.5 87s45.5 27 75.5 27
c28 0 52.5 -9 73.5 -27s31.5 -47 31.5 -87c0 -39.333 -10.5 -68.333 -31.5 -87s-45.5 -28 -73.5 -28c-30 0 -55.167 9.33301 -75.5 28s-30.5 47.667 -30.5 87z" />
    <glyph glyph-name="Jcircumflex" unicode="&#x134;" horiz-adv-x="559" 
d="M-8 -389c-62.667 0 -113.331 9 -151.998 27v155c47.333 -13.333 96.666 -20 147.999 -20c66.667 0 116.667 20.167 150 60.5s50 98.5 50 174.5v1454h185v-1439c0 -132 -32.833 -233.667 -98.5 -305s-159.834 -107 -282.501 -107zM-62.9971 1602
c83.333 89.333 142.167 155.332 176.5 197.999s59.5 78.334 75.5 107.001h184c34.667 -67.333 120 -169 256 -305v-23h-127c-60 35.333 -134.333 96.666 -223 183.999c-87.333 -85.333 -160.333 -146.666 -219 -183.999h-123v23z" />
    <glyph glyph-name="jcircumflex" unicode="&#x135;" horiz-adv-x="528" 
d="M45 -492c-62.667 0 -115.334 8.33301 -158.001 25v145c46 -13.333 91.333 -20 136 -20c52 0 90.167 14.167 114.5 42.5s36.5 71.5 36.5 129.5v1268h180v-1262c0 -109.333 -26.167 -191.333 -78.5 -246s-129.166 -82 -230.499 -82zM-87 1264
c83.333 89.333 142.167 155.332 176.5 197.999s59.5 78.334 75.5 107.001h184c34.667 -67.333 120 -169 256 -305v-23h-127c-60 35.333 -134.333 96.666 -223 183.999c-87.333 -85.333 -160.333 -146.666 -219 -183.999h-123v23z" />
    <glyph glyph-name="Kcommaaccent" unicode="&#x136;" horiz-adv-x="1268" 
d="M1268 0h-217l-519 698l-149 -131v-567h-184v1462h184v-721l126 139l521 582h215l-579 -637zM504 -428c14.667 34 31 82 49 144s29.667 115 35 159h178v-18c-10.667 -42 -32.167 -94.167 -64.5 -156.5s-65.5 -113.5 -99.5 -153.5h-98v25z" />
    <glyph glyph-name="kcommaaccent" unicode="&#x137;" horiz-adv-x="1094" 
d="M352 565l61 78l70 84l351 371h210l-444 -469l475 -629h-217l-381 512l-125 -109v-403h-178v1556h178v-813l-8 -178h8zM416 -428c14.667 34 31 82 49 144s29.667 115 35 159h178v-18c-10.667 -42 -32.167 -94.167 -64.5 -156.5s-65.5 -113.5 -99.5 -153.5h-98v25z" />
    <glyph glyph-name="kgreenlandic" unicode="&#x138;" horiz-adv-x="1094" 
d="M825 1098h217l-415 -486l448 -612h-215l-360 496l-135 -111v-385h-191v1098h191v-285c0 -92.667 -4.33301 -184.667 -13 -276l84 102z" />
    <glyph glyph-name="Lacute" unicode="&#x139;" horiz-adv-x="1073" 
d="M199 0v1462h184v-1298h639v-164h-823zM241 1604c25.333 32 57.5 77.502 96.5 136.502s71.833 114.5 98.5 166.5h217v-21c-29.333 -42.667 -75 -96.334 -137 -161.001s-114 -113.334 -156 -146.001h-119v25z" />
    <glyph glyph-name="lacute" unicode="&#x13a;" horiz-adv-x="528" 
d="M354 0h-180v1556h180v-1556zM165 1661c25.333 32 57.5 77.502 96.5 136.502s71.833 114.5 98.5 166.5h217v-21c-29.333 -42.667 -75 -96.334 -137 -161.001s-114 -113.334 -156 -146.001h-119v25z" />
    <glyph glyph-name="Lcommaaccent" unicode="&#x13b;" horiz-adv-x="1073" 
d="M199 0v1462h184v-1298h639v-164h-823zM418 -428c14.667 34 31 82 49 144s29.667 115 35 159h178v-18c-10.667 -42 -32.167 -94.167 -64.5 -156.5s-65.5 -113.5 -99.5 -153.5h-98v25z" />
    <glyph glyph-name="lcommaaccent" unicode="&#x13c;" horiz-adv-x="528" 
d="M354 0h-180v1556h180v-1556zM92 -428c14.667 34 31 82 49 144s29.667 115 35 159h178v-18c-10.667 -42 -32.167 -94.167 -64.5 -156.5s-65.5 -113.5 -99.5 -153.5h-98v25z" />
    <glyph glyph-name="Lcaron" unicode="&#x13d;" horiz-adv-x="1073" 
d="M199 0v1462h184v-1298h639v-164h-823zM682 1160c15.333 44 29.502 96.999 42.502 158.999s21.5 110 25.5 144h178v-18c-8.66699 -35.333 -27.334 -83.666 -56.001 -144.999s-59.334 -116 -92.001 -164h-98v24z" />
    <glyph glyph-name="lcaron" unicode="&#x13e;" horiz-adv-x="528" 
d="M354 0h-180v1556h180v-1556zM448 1253c15.333 44 29.502 96.999 42.502 158.999s21.5 110 25.5 144h178v-18c-8.66699 -35.333 -27.334 -83.666 -56.001 -144.999s-59.334 -116 -92.001 -164h-98v24z" />
    <glyph glyph-name="Ldot" unicode="&#x13f;" horiz-adv-x="1073" 
d="M199 0v1462h184v-1298h639v-164h-823zM680 732c0 40 10.167 69 30.5 87s45.5 27 75.5 27c28 0 52.5 -9 73.5 -27s31.5 -47 31.5 -87c0 -39.333 -10.5 -68.333 -31.5 -87s-45.5 -28 -73.5 -28c-30 0 -55.167 9.33301 -75.5 28s-30.5 47.667 -30.5 87z" />
    <glyph glyph-name="ldot" unicode="&#x140;" horiz-adv-x="666" 
d="M354 0h-180v1556h180v-1556zM492 683c0 40 10.167 69 30.5 87s45.5 27 75.5 27c28 0 52.5 -9 73.5 -27s31.5 -47 31.5 -87c0 -39.333 -10.5 -68.333 -31.5 -87s-45.5 -28 -73.5 -28c-30 0 -55.167 9.33301 -75.5 28s-30.5 47.667 -30.5 87z" />
    <glyph glyph-name="Lslash" unicode="&#x141;" horiz-adv-x="1073" 
d="M199 0v506l-101 -57l-71 122l172 103v788h184v-680l281 166l73 -129l-354 -205v-450h639v-164h-823z" />
    <glyph glyph-name="lslash" unicode="&#x142;" horiz-adv-x="528" 
d="M340 870l131 91l76 -121l-207 -140v-700h-180v584l-105 -66l-73 121l178 115v802h180v-686z" />
    <glyph glyph-name="Nacute" unicode="&#x143;" horiz-adv-x="1556" 
d="M1358 0l-215 -0.000976562l-783 1214h-8l5 -81c8 -121.333 12 -226.666 12 -315.999v-817h-170v1462h213l45 -71l480 -742l255 -397h8c-1.33301 16 -4 73.167 -8 171.5s-6 169.5 -6 213.5v825h172v-1462zM651 1604c25.333 32 57.5 77.502 96.5 136.502
s71.833 114.5 98.5 166.5h217v-21c-29.333 -42.667 -75 -96.334 -137 -161.001s-114 -113.334 -156 -146.001h-119v25z" />
    <glyph glyph-name="nacute" unicode="&#x144;" horiz-adv-x="1266" 
d="M922 0l0.000976562 702c0 89.333 -19.833 155.833 -59.5 199.5s-101.834 65.5 -186.501 65.5c-112.667 0 -194.5 -31.167 -245.5 -93.5s-76.5 -163.833 -76.5 -304.5v-569h-180v1098h145l27 -150h10c34 54 81.667 95.833 143 125.5s129 44.5 203 44.5
c134.667 0 234.667 -32.667 300 -98s98 -167 98 -305v-715h-178zM512.001 1266c25.333 32 57.5 77.502 96.5 136.502s71.833 114.5 98.5 166.5h217v-21c-29.333 -42.667 -75 -96.334 -137 -161.001s-114 -113.334 -156 -146.001h-119v25z" />
    <glyph glyph-name="Ncommaaccent" unicode="&#x145;" horiz-adv-x="1556" 
d="M1358 0l-215 -0.000976562l-783 1214h-8l5 -81c8 -121.333 12 -226.666 12 -315.999v-817h-170v1462h213l45 -71l480 -742l255 -397h8c-1.33301 16 -4 73.167 -8 171.5s-6 169.5 -6 213.5v825h172v-1462zM576 -428.001c14.667 34 31 82 49 144s29.667 115 35 159h178v-18
c-10.667 -42 -32.167 -94.167 -64.5 -156.5s-65.5 -113.5 -99.5 -153.5h-98v25z" />
    <glyph glyph-name="ncommaaccent" unicode="&#x146;" horiz-adv-x="1266" 
d="M922 0l0.000976562 702c0 89.333 -19.833 155.833 -59.5 199.5s-101.834 65.5 -186.501 65.5c-112.667 0 -194.5 -31.167 -245.5 -93.5s-76.5 -163.833 -76.5 -304.5v-569h-180v1098h145l27 -150h10c34 54 81.667 95.833 143 125.5s129 44.5 203 44.5
c134.667 0 234.667 -32.667 300 -98s98 -167 98 -305v-715h-178zM455.001 -428c14.667 34 31 82 49 144s29.667 115 35 159h178v-18c-10.667 -42 -32.167 -94.167 -64.5 -156.5s-65.5 -113.5 -99.5 -153.5h-98v25z" />
    <glyph glyph-name="Ncaron" unicode="&#x147;" horiz-adv-x="1556" 
d="M1358 0l-215 -0.000976562l-783 1214h-8l5 -81c8 -121.333 12 -226.666 12 -315.999v-817h-170v1462h213l45 -71l480 -742l255 -397h8c-1.33301 16 -4 73.167 -8 171.5s-6 169.5 -6 213.5v825h172v-1462zM432 1907h123c76 -49.333 149 -112.333 219 -189
c84 84 158.333 147 223 189h127v-27c-136.667 -136.667 -222 -237 -256 -301h-184c-40 68 -124 168.333 -252 301v27z" />
    <glyph glyph-name="ncaron" unicode="&#x148;" horiz-adv-x="1266" 
d="M922 0l0.000976562 702c0 89.333 -19.833 155.833 -59.5 199.5s-101.834 65.5 -186.501 65.5c-112.667 0 -194.5 -31.167 -245.5 -93.5s-76.5 -163.833 -76.5 -304.5v-569h-180v1098h145l27 -150h10c34 54 81.667 95.833 143 125.5s129 44.5 203 44.5
c134.667 0 234.667 -32.667 300 -98s98 -167 98 -305v-715h-178zM295.001 1569h123c76 -49.333 149 -112.333 219 -189c84 84 158.333 147 223 189h127v-27c-136.667 -136.667 -222 -237 -256 -301h-184c-40 68 -124 168.333 -252 301v27z" />
    <glyph glyph-name="napostrophe" unicode="&#x149;" horiz-adv-x="1415" 
d="M1067 0l0.000976562 702c0 89.333 -19.833 155.833 -59.5 199.5s-101.834 65.5 -186.501 65.5c-112.667 0 -194.5 -31.167 -245.5 -93.5s-76.5 -163.833 -76.5 -304.5v-569h-180v1098h145l27 -150h10c34 54 81.667 95.833 143 125.5s129 44.5 203 44.5
c134.667 0 234.667 -32.667 300 -98s98 -167 98 -305v-715h-178zM297.001 1462l15.001 -21.999c-34.667 -132.667 -93.334 -292.334 -176.001 -479.001h-133c46.667 190 80.667 357 102 501h192z" />
    <glyph glyph-name="Eng" unicode="&#x14a;" horiz-adv-x="1556" 
d="M973 -389c-65.333 0 -117.332 9 -155.999 27v155c47.333 -13.333 99.333 -20 156 -20c68 0 120.167 19.5 156.5 58.5s55.166 95.167 56.499 168.5l-826 1214h-8c11.333 -170 17 -310.333 17 -421v-793h-170v1462h213l780 -1171h8c-9.33301 102.667 -14 239 -14 409v762
h172v-1450c0 -130.667 -33.167 -230.167 -99.5 -298.5s-161.5 -102.5 -285.5 -102.5z" />
    <glyph glyph-name="eng" unicode="&#x14b;" horiz-adv-x="1266" 
d="M807 -492c-57.333 0 -105.669 8.33203 -145.002 24.999v145c40 -13.333 80.667 -20 122 -20c92 0 138 57.333 138 172v875c0 88.667 -19.833 154.5 -59.5 197.5s-101.167 64.5 -184.5 64.5c-113.333 0 -195.666 -31.167 -246.999 -93.5s-77 -163.166 -77 -302.499v-571
h-180v1098h145l29 -150h10c34.667 54.667 82 96.667 142 126s126.667 44 200 44c134.667 0 235.334 -31.833 302.001 -95.5s100 -165.5 100 -305.5v-881c0 -102.667 -23.833 -183 -71.5 -241s-122.167 -87 -223.5 -87z" />
    <glyph glyph-name="Omacron" unicode="&#x14c;" horiz-adv-x="1599" 
d="M1475 733c0 -234 -59.167 -418 -177.5 -552s-283.833 -201 -496.5 -201c-215.333 0 -381.833 65.833 -499.5 197.5s-176.5 317.5 -176.5 557.5c0 238 58.5 422.5 175.5 553.5s284.5 196.5 502.5 196.5c212 0 377 -66.5 495 -199.5s177 -317.167 177 -552.5zM319 733
c0 -193.333 41.001 -340.667 123.001 -442s201.667 -152 359 -152c156.667 0 275.667 50 357 150s122 248 122 444c0 195.333 -40.333 342.5 -121 441.5s-199.334 148.5 -356.001 148.5c-158.667 0 -279 -50.167 -361 -150.5s-123 -246.833 -123 -439.5zM496.001 1724h608
v-145h-608v145z" />
    <glyph glyph-name="omacron" unicode="&#x14d;" horiz-adv-x="1239" 
d="M1128 551c0 -179.333 -45.332 -319.334 -135.999 -420.001s-216 -151 -376 -151c-99.333 0 -187.333 23.167 -264 69.5s-135.667 112.833 -177 199.5s-62 187.334 -62 302.001c0 178.667 44.667 317.834 134 417.501s214.666 149.5 375.999 149.5
c154.667 0 277.5 -50.833 368.5 -152.5s136.5 -239.834 136.5 -414.501zM299.001 550.999c0 -138 27.166 -242.833 81.499 -314.5s134.5 -107.5 240.5 -107.5c104.667 0 184.334 35.833 239.001 107.5s82 176.5 82 314.5s-27.5 241.833 -82.5 311.5
s-135.5 104.5 -241.5 104.5c-212.667 0 -319 -138.667 -319 -416zM315 1386h608v-145h-608v145z" />
    <glyph glyph-name="Obreve" unicode="&#x14e;" horiz-adv-x="1599" 
d="M1475 733c0 -234 -59.167 -418 -177.5 -552s-283.833 -201 -496.5 -201c-215.333 0 -381.833 65.833 -499.5 197.5s-176.5 317.5 -176.5 557.5c0 238 58.5 422.5 175.5 553.5s284.5 196.5 502.5 196.5c212 0 377 -66.5 495 -199.5s177 -317.167 177 -552.5zM319 733
c0 -193.333 41.001 -340.667 123.001 -442s201.667 -152 359 -152c156.667 0 275.667 50 357 150s122 248 122 444c0 195.333 -40.333 342.5 -121 441.5s-199.334 148.5 -356.001 148.5c-158.667 0 -279 -50.167 -361 -150.5s-123 -246.833 -123 -439.5zM793.001 1579
c-94 0 -168.167 23 -222.5 69s-84.5 114.667 -90.5 206h110c5.33301 -47.333 22 -80.833 50 -100.5s80.333 -29.5 157 -29.5c67.333 0 117.333 10.5 150 31.5s51.667 53.833 57 98.5h113c-8.66699 -87.333 -41.667 -155 -99 -203s-132.333 -72 -225 -72z" />
    <glyph glyph-name="obreve" unicode="&#x14f;" horiz-adv-x="1239" 
d="M1128 551c0 -179.333 -45.332 -319.334 -135.999 -420.001s-216 -151 -376 -151c-99.333 0 -187.333 23.167 -264 69.5s-135.667 112.833 -177 199.5s-62 187.334 -62 302.001c0 178.667 44.667 317.834 134 417.501s214.666 149.5 375.999 149.5
c154.667 0 277.5 -50.833 368.5 -152.5s136.5 -239.834 136.5 -414.501zM299.001 550.999c0 -138 27.166 -242.833 81.499 -314.5s134.5 -107.5 240.5 -107.5c104.667 0 184.334 35.833 239.001 107.5s82 176.5 82 314.5s-27.5 241.833 -82.5 311.5
s-135.5 104.5 -241.5 104.5c-212.667 0 -319 -138.667 -319 -416zM612 1241c-94 0 -168.167 23 -222.5 69s-84.5 114.667 -90.5 206h110c5.33301 -47.333 22 -80.833 50 -100.5s80.333 -29.5 157 -29.5c67.333 0 117.333 10.5 150 31.5s51.667 53.833 57 98.5h113
c-8.66699 -87.333 -41.667 -155 -99 -203s-132.333 -72 -225 -72z" />
    <glyph glyph-name="Ohungarumlaut" unicode="&#x150;" horiz-adv-x="1599" 
d="M1475 733c0 -234 -59.167 -418 -177.5 -552s-283.833 -201 -496.5 -201c-215.333 0 -381.833 65.833 -499.5 197.5s-176.5 317.5 -176.5 557.5c0 238 58.5 422.5 175.5 553.5s284.5 196.5 502.5 196.5c212 0 377 -66.5 495 -199.5s177 -317.167 177 -552.5zM319 733
c0 -193.333 41.001 -340.667 123.001 -442s201.667 -152 359 -152c156.667 0 275.667 50 357 150s122 248 122 444c0 195.333 -40.333 342.5 -121 441.5s-199.334 148.5 -356.001 148.5c-158.667 0 -279 -50.167 -361 -150.5s-123 -246.833 -123 -439.5zM504.001 1604
c23.333 30.667 52.333 75.499 87 134.499s65 115.167 91 168.5h197v-21c-22 -37.333 -61.833 -88.666 -119.5 -153.999s-108.5 -116.333 -152.5 -153h-103v25zM865.001 1604c31.333 43.333 64.667 95.332 100 155.999s61.333 109.667 78 147h196v-21
c-22 -37.333 -61.833 -88.666 -119.5 -153.999s-108.5 -116.333 -152.5 -153h-102v25z" />
    <glyph glyph-name="ohungarumlaut" unicode="&#x151;" horiz-adv-x="1239" 
d="M1128 551c0 -179.333 -45.332 -319.334 -135.999 -420.001s-216 -151 -376 -151c-99.333 0 -187.333 23.167 -264 69.5s-135.667 112.833 -177 199.5s-62 187.334 -62 302.001c0 178.667 44.667 317.834 134 417.501s214.666 149.5 375.999 149.5
c154.667 0 277.5 -50.833 368.5 -152.5s136.5 -239.834 136.5 -414.501zM299.001 550.999c0 -138 27.166 -242.833 81.499 -314.5s134.5 -107.5 240.5 -107.5c104.667 0 184.334 35.833 239.001 107.5s82 176.5 82 314.5s-27.5 241.833 -82.5 311.5
s-135.5 104.5 -241.5 104.5c-212.667 0 -319 -138.667 -319 -416zM315 1266c23.333 30.667 52.333 75.499 87 134.499s65 115.167 91 168.5h197v-21c-22 -37.333 -61.833 -88.666 -119.5 -153.999s-108.5 -116.333 -152.5 -153h-103v25zM676 1266
c31.333 43.333 64.667 95.332 100 155.999s61.333 109.667 78 147h196v-21c-22 -37.333 -61.833 -88.666 -119.5 -153.999s-108.5 -116.333 -152.5 -153h-102v25z" />
    <glyph glyph-name="OE" unicode="&#x152;" horiz-adv-x="1901" 
d="M1778 0l-779 0.000976562c-68 -13.333 -134 -20 -198 -20c-216.667 0 -383.5 65.667 -500.5 197s-175.5 317.333 -175.5 558c0 239.333 57.5 424.166 172.5 554.499s279.5 195.5 493.5 195.5c70.667 0 136 -7.66699 196 -23h791v-162h-588v-456h549v-160h-549v-522h588
v-162zM807 1323c-161.333 0 -283.333 -50.332 -366 -150.999s-124 -247 -124 -439c0 -192.667 41.333 -339.834 124 -441.501s204 -152.5 364 -152.5c78 0 145.667 11.667 203 35v1116c-56.667 22 -123.667 33 -201 33z" />
    <glyph glyph-name="oe" unicode="&#x153;" horiz-adv-x="1937" 
d="M1432 -20c-193.333 0 -332.664 75.666 -417.997 226.999c-42 -75.333 -97.833 -132 -167.5 -170s-149.834 -57 -240.501 -57c-150.667 0 -270.834 51.333 -360.501 154s-134.5 241.667 -134.5 417c0 177.333 44 315.833 132 415.5s211 149.5 369 149.5
c86.667 0 164 -19 232 -57s122.667 -94 164 -168c40 72.667 92 128.334 156 167.001s138 58 222 58c136.667 0 245 -44.167 325 -132.5s120 -208.5 120 -360.5v-109h-729c5.33301 -254 116 -381 332 -381c60 0 115.667 5.16699 167 15.5s111.666 30.5 180.999 60.5v-158
c-62 -26.667 -118.667 -45.167 -170 -55.5s-111.333 -15.5 -180 -15.5zM299.002 550.999c0 -138.667 24.332 -243.668 72.999 -315.001s127.334 -107 236.001 -107c106.667 0 184.5 34.833 233.5 104.5s73.5 172.834 73.5 309.501c0 142.667 -24.833 249 -74.5 319
s-128.5 105 -236.5 105c-107.333 0 -185 -35.167 -233 -105.5s-72 -173.833 -72 -310.5zM1384 968.998c-82 0 -146.833 -26.501 -194.5 -79.501s-75.5 -130.5 -83.5 -232.5h534c0 100.667 -21.5 177.834 -64.5 231.501s-106.833 80.5 -191.5 80.5z" />
    <glyph glyph-name="Racute" unicode="&#x154;" horiz-adv-x="1274" 
d="M383 760h218.999c118.667 0 205.334 23.333 260.001 70s82 116 82 208s-27.667 159.167 -83 201.5s-145 63.5 -269 63.5h-209v-543zM382.999 604v-604h-184v1462h403c181.333 0 315.5 -34.5 402.5 -103.5s130.5 -172.833 130.5 -311.5c0 -194 -97.667 -324.667 -293 -392
l401 -655h-215l-354 604h-291zM509.999 1604c25.333 32 57.5 77.502 96.5 136.502s71.833 114.5 98.5 166.5h217v-21c-29.333 -42.667 -75 -96.334 -137 -161.001s-114 -113.334 -156 -146.001h-119v25z" />
    <glyph glyph-name="racute" unicode="&#x155;" horiz-adv-x="846" 
d="M686 1118c48.667 0 91.6689 -4 129.002 -12l-22 -166c-40.667 9.33301 -80.334 14 -119.001 14c-58 0 -111.833 -16 -161.5 -48s-88.5 -76.167 -116.5 -132.5s-42 -118.833 -42 -187.5v-586h-180v1098h148l20 -201h8c42 72.667 91.667 127.667 149 165
s119.666 56 186.999 56zM357.002 1266c25.333 32 57.5 77.502 96.5 136.502s71.833 114.5 98.5 166.5h217v-21c-29.333 -42.667 -75 -96.334 -137 -161.001s-114 -113.334 -156 -146.001h-119v25z" />
    <glyph glyph-name="Rcommaaccent" unicode="&#x156;" horiz-adv-x="1274" 
d="M383 760h218.999c118.667 0 205.334 23.333 260.001 70s82 116 82 208s-27.667 159.167 -83 201.5s-145 63.5 -269 63.5h-209v-543zM382.999 604v-604h-184v1462h403c181.333 0 315.5 -34.5 402.5 -103.5s130.5 -172.833 130.5 -311.5c0 -194 -97.667 -324.667 -293 -392
l401 -655h-215l-354 604h-291zM495.999 -428c14.667 34 31 82 49 144s29.667 115 35 159h178v-18c-10.667 -42 -32.167 -94.167 -64.5 -156.5s-65.5 -113.5 -99.5 -153.5h-98v25z" />
    <glyph glyph-name="rcommaaccent" unicode="&#x157;" horiz-adv-x="846" 
d="M686 1118c48.667 0 91.6689 -4 129.002 -12l-22 -166c-40.667 9.33301 -80.334 14 -119.001 14c-58 0 -111.833 -16 -161.5 -48s-88.5 -76.167 -116.5 -132.5s-42 -118.833 -42 -187.5v-586h-180v1098h148l20 -201h8c42 72.667 91.667 127.667 149 165
s119.666 56 186.999 56zM98.002 -428c14.667 34 31 82 49 144s29.667 115 35 159h178v-18c-10.667 -42 -32.167 -94.167 -64.5 -156.5s-65.5 -113.5 -99.5 -153.5h-98v25z" />
    <glyph glyph-name="Rcaron" unicode="&#x158;" horiz-adv-x="1274" 
d="M383 760h218.999c118.667 0 205.334 23.333 260.001 70s82 116 82 208s-27.667 159.167 -83 201.5s-145 63.5 -269 63.5h-209v-543zM382.999 604v-604h-184v1462h403c181.333 0 315.5 -34.5 402.5 -103.5s130.5 -172.833 130.5 -311.5c0 -194 -97.667 -324.667 -293 -392
l401 -655h-215l-354 604h-291zM288.999 1907h123c76 -49.333 149 -112.333 219 -189c84 84 158.333 147 223 189h127v-27c-136.667 -136.667 -222 -237 -256 -301h-184c-40 68 -124 168.333 -252 301v27z" />
    <glyph glyph-name="rcaron" unicode="&#x159;" horiz-adv-x="846" 
d="M686 1118c48.667 0 91.6689 -4 129.002 -12l-22 -166c-40.667 9.33301 -80.334 14 -119.001 14c-58 0 -111.833 -16 -161.5 -48s-88.5 -76.167 -116.5 -132.5s-42 -118.833 -42 -187.5v-586h-180v1098h148l20 -201h8c42 72.667 91.667 127.667 149 165
s119.666 56 186.999 56zM126.002 1569h123c76 -49.333 149 -112.333 219 -189c84 84 158.333 147 223 189h127v-27c-136.667 -136.667 -222 -237 -256 -301h-184c-40 68 -124 168.333 -252 301v27z" />
    <glyph glyph-name="Sacute" unicode="&#x15a;" horiz-adv-x="1124" 
d="M1028 391c0 -127.333 -45.998 -227.667 -137.998 -301s-220 -110 -384 -110c-173.333 0 -307.333 23 -402 69v176c62 -26.667 129.833 -47.667 203.5 -63s142.5 -23 206.5 -23c109.333 0 191.666 21 246.999 63s83 99.667 83 173c0 48.667 -10 88.667 -30 120
s-53.5 60.666 -100.5 87.999s-118.167 58.333 -213.5 93c-135.333 49.333 -232 107.5 -290 174.5s-87 153.5 -87 259.5c0 114 42.833 204.667 128.5 272s198.5 101 338.5 101c146 0 280.333 -27.333 403 -82l-57 -158c-125.333 52 -242 78 -350 78
c-86.667 0 -154.5 -18.667 -203.5 -56s-73.5 -89.666 -73.5 -156.999c0 -48 9.5 -87.833 28.5 -119.5s49.667 -60.5 92 -86.5s108.833 -55.667 199.5 -89c108.667 -40 189.667 -78.833 243 -116.5s92.666 -81 117.999 -130s38 -107.5 38 -175.5zM465.002 1604
c25.333 32 57.5 77.502 96.5 136.502s71.833 114.5 98.5 166.5h217v-21c-29.333 -42.667 -75 -96.334 -137 -161.001s-114 -113.334 -156 -146.001h-119v25z" />
    <glyph glyph-name="sacute" unicode="&#x15b;" horiz-adv-x="981" 
d="M889 303c0 -102.667 -38.334 -182.165 -115.001 -238.498s-184.334 -84.5 -323.001 -84.5c-144.667 0 -259.667 23 -345 69v164c120.667 -58.667 237 -88 349 -88c90.667 0 156.667 14.667 198 44s62 68.666 62 117.999c0 43.333 -19.833 80 -59.5 110
s-110.167 64.333 -211.5 103c-103.333 40 -176 74.167 -218 102.5s-72.833 60.166 -92.5 95.499s-29.5 78.333 -29.5 129c0 90 36.667 161 110 213s174 78 302 78c124.667 0 241.334 -24.667 350.001 -74l-61 -143c-111.333 46.667 -211.666 70 -300.999 70
c-74.667 0 -131.334 -11.833 -170.001 -35.5s-58 -56.167 -58 -97.5c0 -40 16.667 -73.167 50 -99.5s111 -62.833 233 -109.5c91.333 -34 158.833 -65.667 202.5 -95s75.834 -62.333 96.501 -99s31 -80.667 31 -132zM369.999 1266c25.333 32 57.5 77.502 96.5 136.502
s71.833 114.5 98.5 166.5h217v-21c-29.333 -42.667 -75 -96.334 -137 -161.001s-114 -113.334 -156 -146.001h-119v25z" />
    <glyph glyph-name="Scircumflex" unicode="&#x15c;" horiz-adv-x="1124" 
d="M1028 391c0 -127.333 -45.998 -227.667 -137.998 -301s-220 -110 -384 -110c-173.333 0 -307.333 23 -402 69v176c62 -26.667 129.833 -47.667 203.5 -63s142.5 -23 206.5 -23c109.333 0 191.666 21 246.999 63s83 99.667 83 173c0 48.667 -10 88.667 -30 120
s-53.5 60.666 -100.5 87.999s-118.167 58.333 -213.5 93c-135.333 49.333 -232 107.5 -290 174.5s-87 153.5 -87 259.5c0 114 42.833 204.667 128.5 272s198.5 101 338.5 101c146 0 280.333 -27.333 403 -82l-57 -158c-125.333 52 -242 78 -350 78
c-86.667 0 -154.5 -18.667 -203.5 -56s-73.5 -89.666 -73.5 -156.999c0 -48 9.5 -87.833 28.5 -119.5s49.667 -60.5 92 -86.5s108.833 -55.667 199.5 -89c108.667 -40 189.667 -78.833 243 -116.5s92.666 -81 117.999 -130s38 -107.5 38 -175.5zM238.002 1602
c83.333 89.333 142.167 155.332 176.5 197.999s59.5 78.334 75.5 107.001h184c34.667 -67.333 120 -169 256 -305v-23h-127c-60 35.333 -134.333 96.666 -223 183.999c-87.333 -85.333 -160.333 -146.666 -219 -183.999h-123v23z" />
    <glyph glyph-name="scircumflex" unicode="&#x15d;" horiz-adv-x="981" 
d="M889 303c0 -102.667 -38.334 -182.165 -115.001 -238.498s-184.334 -84.5 -323.001 -84.5c-144.667 0 -259.667 23 -345 69v164c120.667 -58.667 237 -88 349 -88c90.667 0 156.667 14.667 198 44s62 68.666 62 117.999c0 43.333 -19.833 80 -59.5 110
s-110.167 64.333 -211.5 103c-103.333 40 -176 74.167 -218 102.5s-72.833 60.166 -92.5 95.499s-29.5 78.333 -29.5 129c0 90 36.667 161 110 213s174 78 302 78c124.667 0 241.334 -24.667 350.001 -74l-61 -143c-111.333 46.667 -211.666 70 -300.999 70
c-74.667 0 -131.334 -11.833 -170.001 -35.5s-58 -56.167 -58 -97.5c0 -40 16.667 -73.167 50 -99.5s111 -62.833 233 -109.5c91.333 -34 158.833 -65.667 202.5 -95s75.834 -62.333 96.501 -99s31 -80.667 31 -132zM156.999 1264
c83.333 89.333 142.167 155.332 176.5 197.999s59.5 78.334 75.5 107.001h184c34.667 -67.333 120 -169 256 -305v-23h-127c-60 35.333 -134.333 96.666 -223 183.999c-87.333 -85.333 -160.333 -146.666 -219 -183.999h-123v23z" />
    <glyph glyph-name="Scedilla" unicode="&#x15e;" horiz-adv-x="1124" 
d="M1028 391c0 -127.333 -45.998 -227.667 -137.998 -301s-220 -110 -384 -110c-173.333 0 -307.333 23 -402 69v176c62 -26.667 129.833 -47.667 203.5 -63s142.5 -23 206.5 -23c109.333 0 191.666 21 246.999 63s83 99.667 83 173c0 48.667 -10 88.667 -30 120
s-53.5 60.666 -100.5 87.999s-118.167 58.333 -213.5 93c-135.333 49.333 -232 107.5 -290 174.5s-87 153.5 -87 259.5c0 114 42.833 204.667 128.5 272s198.5 101 338.5 101c146 0 280.333 -27.333 403 -82l-57 -158c-125.333 52 -242 78 -350 78
c-86.667 0 -154.5 -18.667 -203.5 -56s-73.5 -89.666 -73.5 -156.999c0 -48 9.5 -87.833 28.5 -119.5s49.667 -60.5 92 -86.5s108.833 -55.667 199.5 -89c108.667 -40 189.667 -78.833 243 -116.5s92.666 -81 117.999 -130s38 -107.5 38 -175.5zM733.002 -285.001
c0 -66 -25.168 -117 -75.501 -153s-126.166 -54 -227.499 -54c-43.333 0 -77.333 3.66699 -102 11v112c24 -6.66699 60 -10 108 -10c50 0 87.833 6.5 113.5 19.5s38.5 36.5 38.5 70.5c0 59.333 -62.333 97 -187 113l88 176h119l-53 -109c118.667 -25.333 178 -84 178 -176z
" />
    <glyph glyph-name="scedilla" unicode="&#x15f;" horiz-adv-x="981" 
d="M889 303c0 -102.667 -38.334 -182.165 -115.001 -238.498s-184.334 -84.5 -323.001 -84.5c-144.667 0 -259.667 23 -345 69v164c120.667 -58.667 237 -88 349 -88c90.667 0 156.667 14.667 198 44s62 68.666 62 117.999c0 43.333 -19.833 80 -59.5 110
s-110.167 64.333 -211.5 103c-103.333 40 -176 74.167 -218 102.5s-72.833 60.166 -92.5 95.499s-29.5 78.333 -29.5 129c0 90 36.667 161 110 213s174 78 302 78c124.667 0 241.334 -24.667 350.001 -74l-61 -143c-111.333 46.667 -211.666 70 -300.999 70
c-74.667 0 -131.334 -11.833 -170.001 -35.5s-58 -56.167 -58 -97.5c0 -40 16.667 -73.167 50 -99.5s111 -62.833 233 -109.5c91.333 -34 158.833 -65.667 202.5 -95s75.834 -62.333 96.501 -99s31 -80.667 31 -132zM654.999 -284.998c0 -66 -25.168 -117 -75.501 -153
s-126.166 -54 -227.499 -54c-43.333 0 -77.333 3.66699 -102 11v112c24 -6.66699 60 -10 108 -10c50 0 87.833 6.5 113.5 19.5s38.5 36.5 38.5 70.5c0 59.333 -62.333 97 -187 113l88 176h119l-53 -109c118.667 -25.333 178 -84 178 -176z" />
    <glyph glyph-name="Scaron" unicode="&#x160;" horiz-adv-x="1124" 
d="M1028 391c0 -127.333 -45.998 -227.667 -137.998 -301s-220 -110 -384 -110c-173.333 0 -307.333 23 -402 69v176c62 -26.667 129.833 -47.667 203.5 -63s142.5 -23 206.5 -23c109.333 0 191.666 21 246.999 63s83 99.667 83 173c0 48.667 -10 88.667 -30 120
s-53.5 60.666 -100.5 87.999s-118.167 58.333 -213.5 93c-135.333 49.333 -232 107.5 -290 174.5s-87 153.5 -87 259.5c0 114 42.833 204.667 128.5 272s198.5 101 338.5 101c146 0 280.333 -27.333 403 -82l-57 -158c-125.333 52 -242 78 -350 78
c-86.667 0 -154.5 -18.667 -203.5 -56s-73.5 -89.666 -73.5 -156.999c0 -48 9.5 -87.833 28.5 -119.5s49.667 -60.5 92 -86.5s108.833 -55.667 199.5 -89c108.667 -40 189.667 -78.833 243 -116.5s92.666 -81 117.999 -130s38 -107.5 38 -175.5zM234.002 1907h123
c76 -49.333 149 -112.333 219 -189c84 84 158.333 147 223 189h127v-27c-136.667 -136.667 -222 -237 -256 -301h-184c-40 68 -124 168.333 -252 301v27z" />
    <glyph glyph-name="scaron" unicode="&#x161;" horiz-adv-x="981" 
d="M889 303c0 -102.667 -38.334 -182.165 -115.001 -238.498s-184.334 -84.5 -323.001 -84.5c-144.667 0 -259.667 23 -345 69v164c120.667 -58.667 237 -88 349 -88c90.667 0 156.667 14.667 198 44s62 68.666 62 117.999c0 43.333 -19.833 80 -59.5 110
s-110.167 64.333 -211.5 103c-103.333 40 -176 74.167 -218 102.5s-72.833 60.166 -92.5 95.499s-29.5 78.333 -29.5 129c0 90 36.667 161 110 213s174 78 302 78c124.667 0 241.334 -24.667 350.001 -74l-61 -143c-111.333 46.667 -211.666 70 -300.999 70
c-74.667 0 -131.334 -11.833 -170.001 -35.5s-58 -56.167 -58 -97.5c0 -40 16.667 -73.167 50 -99.5s111 -62.833 233 -109.5c91.333 -34 158.833 -65.667 202.5 -95s75.834 -62.333 96.501 -99s31 -80.667 31 -132zM168.999 1569h123c76 -49.333 149 -112.333 219 -189
c84 84 158.333 147 223 189h127v-27c-136.667 -136.667 -222 -237 -256 -301h-184c-40 68 -124 168.333 -252 301v27z" />
    <glyph glyph-name="Tcommaaccent" unicode="&#x162;" horiz-adv-x="1139" 
d="M662 0h-185v1300h-457v162h1096v-162h-454v-1300zM760 -285c0 -66 -25.168 -117 -75.501 -153s-126.166 -54 -227.499 -54c-43.333 0 -77.333 3.66699 -102 11v112c24 -6.66699 60 -10 108 -10c50 0 87.833 6.5 113.5 19.5s38.5 36.5 38.5 70.5
c0 59.333 -62.333 97 -187 113l88 176h119l-53 -109c118.667 -25.333 178 -84 178 -176z" />
    <glyph glyph-name="tcommaaccent" unicode="&#x163;" horiz-adv-x="739" 
d="M541 127c23.333 0 50.667 2.33301 82 7s55 10 71 16v-138c-16.667 -7.33301 -42.5 -14.5 -77.5 -21.5s-70.5 -10.5 -106.5 -10.5c-214.667 0 -322 113 -322 339v639h-155v86l157 72l72 234h107v-252h317v-140h-317v-634c0 -63.333 15.167 -112 45.5 -146
s72.5 -51 126.5 -51zM639.001 -285c0 -66 -25.168 -117 -75.501 -153s-126.166 -54 -227.499 -54c-43.333 0 -77.333 3.66699 -102 11v112c24 -6.66699 60 -10 108 -10c50 0 87.833 6.5 113.5 19.5s38.5 36.5 38.5 70.5c0 59.333 -62.333 97 -187 113l88 176h119l-53 -109
c118.667 -25.333 178 -84 178 -176z" />
    <glyph glyph-name="Tcaron" unicode="&#x164;" horiz-adv-x="1139" 
d="M662 0h-185v1300h-457v162h1096v-162h-454v-1300zM226 1907h123c76 -49.333 149 -112.333 219 -189c84 84 158.333 147 223 189h127v-27c-136.667 -136.667 -222 -237 -256 -301h-184c-40 68 -124 168.333 -252 301v27z" />
    <glyph glyph-name="tcaron" unicode="&#x165;" horiz-adv-x="739" 
d="M541 127c23.333 0 50.667 2.33301 82 7s55 10 71 16v-138c-16.667 -7.33301 -42.5 -14.5 -77.5 -21.5s-70.5 -10.5 -106.5 -10.5c-214.667 0 -322 113 -322 339v639h-155v86l157 72l72 234h107v-252h317v-140h-317v-634c0 -63.333 15.167 -112 45.5 -146
s72.5 -51 126.5 -51zM504.001 1253c15.333 44 29.502 96.999 42.502 158.999s21.5 110 25.5 144h178v-18c-8.66699 -35.333 -27.334 -83.666 -56.001 -144.999s-59.334 -116 -92.001 -164h-98v24z" />
    <glyph glyph-name="Tbar" unicode="&#x166;" horiz-adv-x="1139" 
d="M475 817v481h-455v164h1096v-164h-457v-481h304v-151h-304v-666h-184v666h-305v151h305z" />
    <glyph glyph-name="tbar" unicode="&#x167;" horiz-adv-x="739" 
d="M545 127c56.667 0 106.333 7.66797 149 23.001v-138c-17.333 -8 -43.833 -15.333 -79.5 -22s-72.5 -10 -110.5 -10c-210.667 0 -316 116.667 -316 350v243h-139v136h139v249h-155v86l157 72l72 234h107v-252h317v-140h-317v-249h299v-136h-299v-233
c0 -70.667 14.167 -123.834 42.5 -159.501s72.833 -53.5 133.5 -53.5z" />
    <glyph glyph-name="Utilde" unicode="&#x168;" horiz-adv-x="1497" 
d="M1311 1462l0.000976562 -946c0 -166.667 -50.333 -297.667 -151 -393s-240.334 -143 -419.001 -143c-176.667 0 -313.667 48.167 -411 144.5s-146 228.166 -146 395.499v942h185v-948c0 -119.333 31.833 -211.666 95.5 -276.999s159.5 -98 287.5 -98
c120.667 0 213.5 32.333 278.5 97s97.5 158 97.5 280v946h183zM901.001 1581c-28.667 0 -56.668 6.16699 -84.001 18.5s-54.166 25.666 -80.499 39.999l-76 40c-24.333 12.333 -47.833 18.5 -70.5 18.5c-32.667 0 -57.334 -9.83301 -74.001 -29.5s-29.667 -49.5 -39 -89.5
h-104c8 81.333 31.333 145.333 70 192s90.334 70 155.001 70c30 0 59.167 -6.16699 87.5 -18.5s55.5 -25.666 81.5 -39.999l75 -40c24 -12.333 46.667 -18.5 68 -18.5c32 0 56.167 9.83301 72.5 29.5s29.5 49.5 39.5 89.5h103c-8 -79.333 -31.333 -142.833 -70 -190.5
s-90 -71.5 -154 -71.5z" />
    <glyph glyph-name="utilde" unicode="&#x169;" horiz-adv-x="1266" 
d="M344 1098v-706.998c0 -88.667 19.833 -154.5 59.5 -197.5s101.167 -64.5 184.5 -64.5c112.667 0 194.667 31.333 246 94s77 163.667 77 303v572h181v-1098h-148l-26 145h-9c-32.667 -52.667 -79 -93.334 -139 -122.001s-129.667 -43 -209 -43
c-132 0 -231.5 31.667 -298.5 95s-100.5 164.666 -100.5 303.999v719h182zM783 1243c-28.667 0 -56.668 6.16699 -84.001 18.5s-54.166 25.666 -80.499 39.999l-76 40c-24.333 12.333 -47.833 18.5 -70.5 18.5c-32.667 0 -57.334 -9.83301 -74.001 -29.5
s-29.667 -49.5 -39 -89.5h-104c8 81.333 31.333 145.333 70 192s90.334 70 155.001 70c30 0 59.167 -6.16699 87.5 -18.5s55.5 -25.666 81.5 -39.999l75 -40c24 -12.333 46.667 -18.5 68 -18.5c32 0 56.167 9.83301 72.5 29.5s29.5 49.5 39.5 89.5h103
c-8 -79.333 -31.333 -142.833 -70 -190.5s-90 -71.5 -154 -71.5z" />
    <glyph glyph-name="Umacron" unicode="&#x16a;" horiz-adv-x="1497" 
d="M1311 1462l0.000976562 -946c0 -166.667 -50.333 -297.667 -151 -393s-240.334 -143 -419.001 -143c-176.667 0 -313.667 48.167 -411 144.5s-146 228.166 -146 395.499v942h185v-948c0 -119.333 31.833 -211.666 95.5 -276.999s159.5 -98 287.5 -98
c120.667 0 213.5 32.333 278.5 97s97.5 158 97.5 280v946h183zM444.001 1724h608v-145h-608v145z" />
    <glyph glyph-name="umacron" unicode="&#x16b;" horiz-adv-x="1266" 
d="M344 1098v-706.998c0 -88.667 19.833 -154.5 59.5 -197.5s101.167 -64.5 184.5 -64.5c112.667 0 194.667 31.333 246 94s77 163.667 77 303v572h181v-1098h-148l-26 145h-9c-32.667 -52.667 -79 -93.334 -139 -122.001s-129.667 -43 -209 -43
c-132 0 -231.5 31.667 -298.5 95s-100.5 164.666 -100.5 303.999v719h182zM326 1386h608v-145h-608v145z" />
    <glyph glyph-name="Ubreve" unicode="&#x16c;" horiz-adv-x="1497" 
d="M1311 1462l0.000976562 -946c0 -166.667 -50.333 -297.667 -151 -393s-240.334 -143 -419.001 -143c-176.667 0 -313.667 48.167 -411 144.5s-146 228.166 -146 395.499v942h185v-948c0 -119.333 31.833 -211.666 95.5 -276.999s159.5 -98 287.5 -98
c120.667 0 213.5 32.333 278.5 97s97.5 158 97.5 280v946h183zM739.001 1579c-94 0 -168.167 23 -222.5 69s-84.5 114.667 -90.5 206h110c5.33301 -47.333 22 -80.833 50 -100.5s80.333 -29.5 157 -29.5c67.333 0 117.333 10.5 150 31.5s51.667 53.833 57 98.5h113
c-8.66699 -87.333 -41.667 -155 -99 -203s-132.333 -72 -225 -72z" />
    <glyph glyph-name="ubreve" unicode="&#x16d;" horiz-adv-x="1266" 
d="M344 1098v-706.998c0 -88.667 19.833 -154.5 59.5 -197.5s101.167 -64.5 184.5 -64.5c112.667 0 194.667 31.333 246 94s77 163.667 77 303v572h181v-1098h-148l-26 145h-9c-32.667 -52.667 -79 -93.334 -139 -122.001s-129.667 -43 -209 -43
c-132 0 -231.5 31.667 -298.5 95s-100.5 164.666 -100.5 303.999v719h182zM620 1241c-94 0 -168.167 23 -222.5 69s-84.5 114.667 -90.5 206h110c5.33301 -47.333 22 -80.833 50 -100.5s80.333 -29.5 157 -29.5c67.333 0 117.333 10.5 150 31.5s51.667 53.833 57 98.5h113
c-8.66699 -87.333 -41.667 -155 -99 -203s-132.333 -72 -225 -72z" />
    <glyph glyph-name="Uring" unicode="&#x16e;" horiz-adv-x="1497" 
d="M1311 1462l0.000976562 -946c0 -166.667 -50.333 -297.667 -151 -393s-240.334 -143 -419.001 -143c-176.667 0 -313.667 48.167 -411 144.5s-146 228.166 -146 395.499v942h185v-948c0 -119.333 31.833 -211.666 95.5 -276.999s159.5 -98 287.5 -98
c120.667 0 213.5 32.333 278.5 97s97.5 158 97.5 280v946h183zM973.001 1798c0 -67.333 -20.833 -120.668 -62.5 -160.001s-96.5 -59 -164.5 -59c-68.667 0 -123 19.5 -163 58.5s-60 91.833 -60 158.5c0 65.333 20 117.5 60 156.5s94.333 58.5 163 58.5
c67.333 0 122 -19.667 164 -59s63 -90.666 63 -153.999zM860.001 1796c0 36 -10.832 64.167 -32.499 84.5s-48.834 30.5 -81.501 30.5c-33.333 0 -60.833 -10.167 -82.5 -30.5s-32.5 -48.5 -32.5 -84.5s9.83301 -64.167 29.5 -84.5s48.167 -30.5 85.5 -30.5
c34 0 61.5 10.167 82.5 30.5s31.5 48.5 31.5 84.5z" />
    <glyph glyph-name="uring" unicode="&#x16f;" horiz-adv-x="1266" 
d="M344 1098v-706.998c0 -88.667 19.833 -154.5 59.5 -197.5s101.167 -64.5 184.5 -64.5c112.667 0 194.667 31.333 246 94s77 163.667 77 303v572h181v-1098h-148l-26 145h-9c-32.667 -52.667 -79 -93.334 -139 -122.001s-129.667 -43 -209 -43
c-132 0 -231.5 31.667 -298.5 95s-100.5 164.666 -100.5 303.999v719h182zM854 1460c0 -67.333 -20.833 -120.668 -62.5 -160.001s-96.5 -59 -164.5 -59c-68.667 0 -123 19.5 -163 58.5s-60 91.833 -60 158.5c0 65.333 20 117.5 60 156.5s94.333 58.5 163 58.5
c67.333 0 122 -19.667 164 -59s63 -90.666 63 -153.999zM741 1458c0 36 -10.832 64.167 -32.499 84.5s-48.834 30.5 -81.501 30.5c-33.333 0 -60.833 -10.167 -82.5 -30.5s-32.5 -48.5 -32.5 -84.5s9.83301 -64.167 29.5 -84.5s48.167 -30.5 85.5 -30.5
c34 0 61.5 10.167 82.5 30.5s31.5 48.5 31.5 84.5z" />
    <glyph glyph-name="Uhungarumlaut" unicode="&#x170;" horiz-adv-x="1497" 
d="M1311 1462l0.000976562 -946c0 -166.667 -50.333 -297.667 -151 -393s-240.334 -143 -419.001 -143c-176.667 0 -313.667 48.167 -411 144.5s-146 228.166 -146 395.499v942h185v-948c0 -119.333 31.833 -211.666 95.5 -276.999s159.5 -98 287.5 -98
c120.667 0 213.5 32.333 278.5 97s97.5 158 97.5 280v946h183zM452.001 1604c23.333 30.667 52.333 75.499 87 134.499s65 115.167 91 168.5h197v-21c-22 -37.333 -61.833 -88.666 -119.5 -153.999s-108.5 -116.333 -152.5 -153h-103v25zM813.001 1604
c31.333 43.333 64.667 95.332 100 155.999s61.333 109.667 78 147h196v-21c-22 -37.333 -61.833 -88.666 -119.5 -153.999s-108.5 -116.333 -152.5 -153h-102v25z" />
    <glyph glyph-name="uhungarumlaut" unicode="&#x171;" horiz-adv-x="1266" 
d="M344 1098v-706.998c0 -88.667 19.833 -154.5 59.5 -197.5s101.167 -64.5 184.5 -64.5c112.667 0 194.667 31.333 246 94s77 163.667 77 303v572h181v-1098h-148l-26 145h-9c-32.667 -52.667 -79 -93.334 -139 -122.001s-129.667 -43 -209 -43
c-132 0 -231.5 31.667 -298.5 95s-100.5 164.666 -100.5 303.999v719h182zM336 1266c23.333 30.667 52.333 75.499 87 134.499s65 115.167 91 168.5h197v-21c-22 -37.333 -61.833 -88.666 -119.5 -153.999s-108.5 -116.333 -152.5 -153h-103v25zM697 1266
c31.333 43.333 64.667 95.332 100 155.999s61.333 109.667 78 147h196v-21c-22 -37.333 -61.833 -88.666 -119.5 -153.999s-108.5 -116.333 -152.5 -153h-102v25z" />
    <glyph glyph-name="Uogonek" unicode="&#x172;" horiz-adv-x="1497" 
d="M1311 1462l0.000976562 -946c0 -166.667 -50.333 -297.667 -151 -393s-240.334 -143 -419.001 -143c-176.667 0 -313.667 48.167 -411 144.5s-146 228.166 -146 395.499v942h185v-948c0 -119.333 31.833 -211.666 95.5 -276.999s159.5 -98 287.5 -98
c120.667 0 213.5 32.333 278.5 97s97.5 158 97.5 280v946h183zM729.001 -238c0 -30.667 8.16699 -53.667 24.5 -69s38.833 -23 67.5 -23c29.333 0 62.333 4.33301 99 13v-115c-46 -12.667 -88.333 -19 -127 -19c-140.667 0 -211 64.333 -211 193
c0 92.667 53.333 178.667 160 258h127c-46.667 -44 -81.667 -84.167 -105 -120.5s-35 -75.5 -35 -117.5z" />
    <glyph glyph-name="uogonek" unicode="&#x173;" horiz-adv-x="1266" 
d="M344 1098v-706.998c0 -88.667 19.833 -154.5 59.5 -197.5s101.167 -64.5 184.5 -64.5c112.667 0 194.667 31.333 246 94s77 163.667 77 303v572h181v-1098h-148l-26 145h-9c-32.667 -52.667 -79 -93.334 -139 -122.001s-129.667 -43 -209 -43
c-132 0 -231.5 31.667 -298.5 95s-100.5 164.666 -100.5 303.999v719h182zM938 -237.998c0 -30.667 8.16699 -53.667 24.5 -69s38.833 -23 67.5 -23c29.333 0 62.333 4.33301 99 13v-115c-46 -12.667 -88.333 -19 -127 -19c-140.667 0 -211 64.333 -211 193
c0 92.667 53.333 178.667 160 258h127c-46.667 -44 -81.667 -84.167 -105 -120.5s-35 -75.5 -35 -117.5z" />
    <glyph glyph-name="Wcircumflex" unicode="&#x174;" horiz-adv-x="1905" 
d="M1489 0l-186.002 -0.000976562l-285 958c-42 142.667 -66.667 239 -74 289c-10.667 -76.667 -34 -175 -70 -295l-276 -952h-186l-387 1462h192l227 -893c30.667 -116.667 54 -232.667 70 -348c14.667 109.333 40.667 229 78 359l258 882h190l269 -889
c34.667 -115.333 61.334 -232.666 80.001 -351.999c10.667 92 34.334 208.667 71.001 350l226 891h192zM601.998 1602c83.333 89.333 142.167 155.332 176.5 197.999s59.5 78.334 75.5 107.001h184c34.667 -67.333 120 -169 256 -305v-23h-127
c-60 35.333 -134.333 96.666 -223 183.999c-87.333 -85.333 -160.333 -146.666 -219 -183.999h-123v23z" />
    <glyph glyph-name="wcircumflex" unicode="&#x175;" horiz-adv-x="1610" 
d="M1071 0l-188.002 617.998c-17.333 51.333 -42.666 148.333 -75.999 291h-8c-28 -130 -52.667 -227.667 -74 -293l-197 -616h-204l-301 1098h186l158.5 -616c36.333 -140.667 57.833 -240 64.5 -298h8l14 62c20.667 95.333 40.667 173 60 233l195 619h196l189 -619
l21.5 -74.5c7.66699 -26.333 14.834 -52.333 21.501 -78s12.667 -50.667 18 -75s9.33301 -46.166 12 -65.499h9c6 50.667 30.333 159.334 73 326.001l154 586h184l-305 -1098h-211zM458.998 1264c83.333 89.333 142.167 155.332 176.5 197.999s59.5 78.334 75.5 107.001h184
c34.667 -67.333 120 -169 256 -305v-23h-127c-60 35.333 -134.333 96.666 -223 183.999c-87.333 -85.333 -160.333 -146.666 -219 -183.999h-123v23z" />
    <glyph glyph-name="Ycircumflex" unicode="&#x176;" horiz-adv-x="1159" 
d="M580 743l381 719h198l-487 -895v-567h-185v559l-487 903h201zM234 1602c83.333 89.333 142.167 155.332 176.5 197.999s59.5 78.334 75.5 107.001h184c34.667 -67.333 120 -169 256 -305v-23h-127c-60 35.333 -134.333 96.666 -223 183.999
c-87.333 -85.333 -160.333 -146.666 -219 -183.999h-123v23z" />
    <glyph glyph-name="ycircumflex" unicode="&#x177;" horiz-adv-x="1044" 
d="M2 1098l192.999 -0.00195312l237 -625c50 -136 80.667 -235.667 92 -299h8c6 24.667 19.667 70.834 41 138.501s39.333 121.834 54 162.501l223 623h194l-473 -1250c-46 -121.333 -100.667 -208.333 -164 -261s-141.666 -79 -234.999 -79c-50 0 -99.667 5.66699 -149 17
v143c33.333 -8 73.333 -12 120 -12c57.333 0 106 15.833 146 47.5s72.667 80.5 98 146.5l57 146zM182.999 1264c83.333 89.333 142.167 155.332 176.5 197.999s59.5 78.334 75.5 107.001h184c34.667 -67.333 120 -169 256 -305v-23h-127
c-60 35.333 -134.333 96.666 -223 183.999c-87.333 -85.333 -160.333 -146.666 -219 -183.999h-123v23z" />
    <glyph glyph-name="Ydieresis" unicode="&#x178;" horiz-adv-x="1159" 
d="M580 743l381 719h198l-487 -895v-567h-185v559l-487 903h201zM294 1733c0 35.333 9.33301 60.833 28 76.5s41.334 23.5 68.001 23.5c26 0 48.667 -7.83301 68 -23.5s29 -41.167 29 -76.5s-9.66699 -61.333 -29 -78s-42 -25 -68 -25c-26.667 0 -49.334 8.33301 -68.001 25
s-28 42.667 -28 78zM679 1733c0 35.333 9.33301 60.833 28 76.5s40.667 23.5 66 23.5c26 0 48.667 -7.83301 68 -23.5s29 -41.167 29 -76.5s-9.66699 -61.333 -29 -78s-42 -25 -68 -25c-25.333 0 -47.333 8.33301 -66 25s-28 42.667 -28 78z" />
    <glyph glyph-name="Zacute" unicode="&#x179;" horiz-adv-x="1171" 
d="M1092 0h-1014v139l770 1159h-746v164h969v-139l-770 -1159h791v-164zM453 1604c25.333 32 57.5 77.502 96.5 136.502s71.833 114.5 98.5 166.5h217v-21c-29.333 -42.667 -75 -96.334 -137 -161.001s-114 -113.334 -156 -146.001h-119v25z" />
    <glyph glyph-name="zacute" unicode="&#x17a;" horiz-adv-x="963" 
d="M883 0h-803v119l590 839h-555v140h753v-135l-581 -824h596v-139zM370 1266c25.333 32 57.5 77.502 96.5 136.502s71.833 114.5 98.5 166.5h217v-21c-29.333 -42.667 -75 -96.334 -137 -161.001s-114 -113.334 -156 -146.001h-119v25z" />
    <glyph glyph-name="Zdotaccent" unicode="&#x17b;" horiz-adv-x="1171" 
d="M1092 0h-1014v139l770 1159h-746v164h969v-139l-770 -1159h791v-164zM477 1733c0 40 10.167 69 30.5 87s45.5 27 75.5 27c28 0 52.5 -9 73.5 -27s31.5 -47 31.5 -87c0 -39.333 -10.5 -68.333 -31.5 -87s-45.5 -28 -73.5 -28c-30 0 -55.167 9.33301 -75.5 28
s-30.5 47.667 -30.5 87z" />
    <glyph glyph-name="zdotaccent" unicode="&#x17c;" horiz-adv-x="963" 
d="M883 0h-803v119l590 839h-555v140h753v-135l-581 -824h596v-139zM379 1395c0 40 10.167 69 30.5 87s45.5 27 75.5 27c28 0 52.5 -9 73.5 -27s31.5 -47 31.5 -87c0 -39.333 -10.5 -68.333 -31.5 -87s-45.5 -28 -73.5 -28c-30 0 -55.167 9.33301 -75.5 28
s-30.5 47.667 -30.5 87z" />
    <glyph glyph-name="Zcaron" unicode="&#x17d;" horiz-adv-x="1171" 
d="M1092 0h-1014v139l770 1159h-746v164h969v-139l-770 -1159h791v-164zM243 1907h123c76 -49.333 149 -112.333 219 -189c84 84 158.333 147 223 189h127v-27c-136.667 -136.667 -222 -237 -256 -301h-184c-40 68 -124 168.333 -252 301v27z" />
    <glyph glyph-name="zcaron" unicode="&#x17e;" horiz-adv-x="963" 
d="M883 0h-803v119l590 839h-555v140h753v-135l-581 -824h596v-139zM140 1569h123c76 -49.333 149 -112.333 219 -189c84 84 158.333 147 223 189h127v-27c-136.667 -136.667 -222 -237 -256 -301h-184c-40 68 -124 168.333 -252 301v27z" />
    <glyph glyph-name="longs" unicode="&#x17f;" horiz-adv-x="668" 
d="M535 1417c-62.667 0 -108.5 -19.5 -137.5 -58.5s-43.5 -97.833 -43.5 -176.5v-1182h-180v1182c0 256.667 121 385 363 385c66.667 0 134.667 -13 204 -39l-47 -142c-60 20.667 -113 31 -159 31z" />
    <glyph glyph-name="uni0180" unicode="&#x180;" horiz-adv-x="1260" 
d="M694 1116c144.667 0 256.333 -49.834 335 -149.501s118 -238.834 118 -417.501c0 -181.333 -40 -321.5 -120 -420.5s-191 -148.5 -333 -148.5c-74 0 -140 13.333 -198 40s-105.333 66.334 -142 119.001h-14c-20.667 -80 -33 -126.333 -37 -139h-129v1239h-156v135h156
v182h180v-182h437v-135h-437v-61c0 -75.333 -3.33301 -150.666 -10 -225.999h10c74 109.333 187.333 164 340 164zM663.999 966.999c-110.667 0 -189.999 -31.333 -237.999 -94s-72 -168.667 -72 -318v-8c0 -150 24.5 -257.167 73.5 -321.5s129.167 -96.5 240.5 -96.5
c98.667 0 172.167 36.167 220.5 108.5s72.5 176.833 72.5 313.5c0 138.667 -24.333 242.667 -73 312s-123.334 104 -224.001 104z" />
    <glyph glyph-name="uni0181" unicode="&#x181;" horiz-adv-x="1495" 
d="M309 1305c-83.333 0 -124.998 -34.335 -124.998 -103.002c0 -40.667 7 -77.334 21 -110.001h-162c-6 14 -11.333 32 -16 54s-7 41.333 -7 58c0 88.667 23.5 153.834 70.5 195.501s119.833 62.5 218.5 62.5h471c196 0 337.5 -29.167 424.5 -87.5
s130.5 -149.833 130.5 -274.5c0 -86.667 -23.667 -158.167 -71 -214.5s-116.333 -92.833 -207 -109.5v-10c111.333 -19.333 193.666 -58.166 246.999 -116.499s80 -136.166 80 -233.499c0 -131.333 -44.833 -233.5 -134.5 -306.5s-213.834 -109.5 -372.501 -109.5h-515v1305
h-53zM547.002 839.998h270c114.667 0 198 18.333 250 55s78 98 78 184c0 80 -28.5 137.667 -85.5 173s-147.5 53 -271.5 53h-241v-465zM547.002 685.998v-530h295c117.333 0 204.333 22.667 261 68s85 114 85 206c0 87.333 -30 151.833 -90 193.5s-150.333 62.5 -271 62.5
h-280z" />
    <glyph glyph-name="uni0182" unicode="&#x182;" horiz-adv-x="1260" 
d="M1155 428c0 -144 -43.333 -251.333 -130 -322s-219.334 -106 -398.001 -106h-428v1462h868v-162h-684v-456h217c186.667 0 325.834 -33 417.501 -99s137.5 -171.667 137.5 -317zM383 158l225.002 0.000976562c125.333 0 216.166 21.167 272.499 63.5
s84.5 111.166 84.5 206.499c0 93.333 -29.333 159.333 -88 198s-158.334 58 -299.001 58h-195v-526z" />
    <glyph glyph-name="uni0183" unicode="&#x183;" horiz-adv-x="1260" 
d="M694 1116c144.667 0 256.333 -49.834 335 -149.501s118 -238.834 118 -417.501c0 -181.333 -40 -321.5 -120 -420.5s-191 -148.5 -333 -148.5c-74 0 -140 13.333 -198 40s-105.333 66.334 -142 119.001h-14c-20.667 -80 -33 -126.333 -37 -139h-129v1556h862v-151h-682
v-227c0 -75.333 -3.33301 -150.666 -10 -225.999h10c74 109.333 187.333 164 340 164zM663.999 966.999c-110.667 0 -189.999 -31.333 -237.999 -94s-72 -168.667 -72 -318v-8c0 -150 24.5 -257.167 73.5 -321.5s129.167 -96.5 240.5 -96.5
c98.667 0 172.167 36.167 220.5 108.5s72.5 176.833 72.5 313.5c0 138.667 -24.333 242.667 -73 312s-123.334 104 -224.001 104z" />
    <glyph glyph-name="uni0184" unicode="&#x184;" horiz-adv-x="1300" 
d="M369 430c0 -105.333 25.5 -180.5 76.5 -225.5s134.5 -67.5 250.5 -67.5c108.667 0 187.5 24.333 236.5 73s73.5 118.667 73.5 210c0 94 -32.833 161.5 -98.5 202.5s-161.167 61.5 -286.5 61.5h-252v-254zM184 1462h185v-618h274c176.667 0 313 -36.167 409 -108.5
s144 -177.5 144 -315.5s-43.5 -245.833 -130.5 -323.5s-209.5 -116.5 -367.5 -116.5c-342.667 0 -514 150 -514 450v1032z" />
    <glyph glyph-name="uni0185" unicode="&#x185;" horiz-adv-x="1253" 
d="M659 -20c-156.667 0 -277.668 49.332 -363.001 147.999s-128 238.334 -128 419.001v1009h180v-378c0 -75.333 -3.33301 -150.666 -10 -225.999h10c74 109.333 187.333 164 340 164c144.667 0 256.334 -49.833 335.001 -149.5s118 -238.834 118 -417.501
c0 -182.667 -41.833 -323.167 -125.5 -421.5s-202.5 -147.5 -356.5 -147.5zM347.999 542.999c0 -130.667 27.832 -232.333 83.499 -305s132.5 -109 230.5 -109s171.167 36.333 219.5 109s72.5 177 72.5 313c0 138.667 -24.167 242.667 -72.5 312s-123.166 104 -224.499 104
c-110 0 -189 -31.5 -237 -94.5s-72 -168.833 -72 -317.5v-12z" />
    <glyph glyph-name="uni0186" unicode="&#x186;" horiz-adv-x="1294" 
d="M498 1483c216 0 381.834 -65.667 497.501 -197s173.5 -317 173.5 -557c0 -150 -27 -281.5 -81 -394.5s-132.167 -200.333 -234.5 -262s-220.833 -92.5 -355.5 -92.5c-75.333 0 -142.5 4.33301 -201.5 13s-117.5 24 -175.5 46v160c128.667 -38.667 244.667 -58 348 -58
c157.333 0 281 52.667 371 158s135 249.333 135 432c0 187.333 -43.5 332.5 -130.5 435.5s-212.167 154.5 -375.5 154.5c-104.667 0 -215.334 -26.667 -332.001 -80l-74 156c114.667 57.333 259.667 86 435 86z" />
    <glyph glyph-name="uni0187" unicode="&#x187;" horiz-adv-x="1294" 
d="M825 1321c-157.333 0 -281.001 -52.666 -371.001 -157.999s-135 -249.333 -135 -432c0 -188.667 43.667 -334.167 131 -436.5s211.666 -153.5 372.999 -153.5c104 0 221 19.333 351 58v-160c-62 -22.667 -121.667 -38.167 -179 -46.5s-123.333 -12.5 -198 -12.5
c-215.333 0 -381.166 65.5 -497.499 196.5s-174.5 316.5 -174.5 556.5c0 150.667 27.833 282.667 83.5 396s136.667 200.666 243 261.999s231.5 92 375.5 92c82.667 0 162.667 -9.66699 240 -29v29c0 88 18.333 155.667 55 203s97 71 181 71
c40.667 0 81.334 -8.66699 122.001 -26v-148c-32.667 14 -68 21 -106 21c-64 0 -96 -33 -96 -99v-104l-74 -160c-45.333 20.667 -94.333 39.167 -147 55.5s-111.667 24.5 -177 24.5z" />
    <glyph glyph-name="uni0188" unicode="&#x188;" horiz-adv-x="1030" 
d="M614 -20c-158 0 -280.999 48.5 -368.999 145.5s-132 236.167 -132 417.5c0 184 44.5 325.833 133.5 425.5s215.833 149.5 380.5 149.5c37.333 0 81.666 -4 132.999 -12v186c0 88 18.167 155.833 54.5 203.5s96.5 71.5 180.5 71.5c40 0 81 -9 123 -27v-149
c-31.333 13.333 -66.666 20 -105.999 20c-64.667 0 -97 -32.667 -97 -98v-254l-55 -150c-92.667 34.667 -171.667 52 -237 52c-110.667 0 -192.334 -34.833 -245.001 -104.5s-79 -173.5 -79 -311.5c0 -132.667 26.333 -234.167 79 -304.5s130.667 -105.5 234 -105.5
c96.667 0 191.667 21.333 285 64v-160c-76 -39.333 -170.333 -59 -283 -59z" />
    <glyph glyph-name="uni0189" unicode="&#x189;" horiz-adv-x="1495" 
d="M1370 745c0 -239.333 -65.5 -423.332 -196.5 -551.999s-320.833 -193 -569.5 -193h-391v643h-152v160h152v659h436c227.333 0 404.333 -62.833 531 -188.5s190 -301.834 190 -528.501zM1176 739.001c0 186.667 -46.333 327.667 -139 423s-230.667 143 -414 143h-226v-502
h365v-160h-365v-485h185c396 0 594 193.667 594 581z" />
    <glyph glyph-name="uni018A" unicode="&#x18a;" horiz-adv-x="1659" 
d="M1339 739c0 186 -45.833 326.833 -137.5 422.5s-230.167 143.5 -415.5 143.5h-239v-1147h198c396 0 594 193.667 594 581zM813 1462c229.333 0 406.833 -63.168 532.5 -189.501s188.5 -302.166 188.5 -527.499c0 -241.333 -65.833 -425.833 -197.5 -553.5
s-320.5 -191.5 -566.5 -191.5h-408v1305h-53c-83.333 0 -125 -34.333 -125 -103c0 -40.667 7 -77.334 21 -110.001h-162c-6 14 -11.333 32 -16 54s-7 41.333 -7 58c0 88.667 23.5 153.834 70.5 195.501s119.833 62.5 218.5 62.5h504z" />
    <glyph glyph-name="uni018B" unicode="&#x18b;" horiz-adv-x="1260" 
d="M877 686h-167.998c-144.667 0 -249.834 -21.667 -315.501 -65s-98.5 -112.333 -98.5 -207c0 -86 30.167 -150.167 90.5 -192.5s155.166 -63.5 284.499 -63.5h207v528zM1061 1462v-1462h-408c-366 -0 -549 135.333 -549 406c0 140 50.333 248 151 324s245 114 433 114h189
v456h-684v162h868z" />
    <glyph glyph-name="uni018C" unicode="&#x18c;" horiz-adv-x="1260" 
d="M592 129c109.333 0 189.168 29.834 239.501 89.501s75.5 157.5 75.5 293.5v33c0 152.667 -25.5 261.5 -76.5 326.5s-131.167 97.5 -240.5 97.5c-92.667 0 -164.334 -36.833 -215.001 -110.5s-76 -178.834 -76 -315.501c0 -136 25.167 -239 75.5 -309
s122.833 -105 217.5 -105zM1085 0.000976562h-144.998l-27 147h-8c-76.667 -111.333 -190.667 -167 -342 -167c-142.667 0 -253.334 49.333 -332.001 148s-118 238.334 -118 419.001c0 179.333 39.5 319.333 118.5 420s190.167 151 333.5 151
c147.333 0 260.666 -54 339.999 -162h13c-2 13.333 -4.66699 40.166 -8 80.499s-5 67.5 -5 81.5v287h-682v151h862v-1556z" />
    <glyph glyph-name="uni018D" unicode="&#x18d;" horiz-adv-x="1237" 
d="M698 602c90.667 -51.333 155.666 -103.668 194.999 -157.001s59 -113 59 -179c0 -88 -32.667 -157.667 -98 -209s-155.333 -77 -270 -77c-69.333 0 -135.666 7.66699 -198.999 23s-137.666 44.333 -222.999 87l78 141c50.667 -28.667 104.667 -53.167 162 -73.5
s120.666 -30.5 189.999 -30.5c54.667 0 98 12.667 130 38s48 59.666 48 102.999c0 46 -18.167 86.833 -54.5 122.5s-109.5 83.834 -219.5 144.501c-142 78 -241.667 157.667 -299 239s-86 174.333 -86 279c0 157.333 45 280.5 135 369.5s215.667 133.5 377 133.5
c152.667 0 274.667 -41.333 366 -124s137 -194 137 -334c0 -119.333 -37 -221.666 -111 -306.999s-179.667 -148.333 -317 -189zM296.999 1055c0 -84 20.501 -155.999 61.501 -215.999s106.5 -113 196.5 -159c126 30 221.333 80.667 286 152s97 160.666 97 267.999
c0 92 -28.333 166.167 -85 222.5s-133.334 84.5 -230.001 84.5c-105.333 0 -186 -30.167 -242 -90.5s-84 -147.5 -84 -261.5z" />
    <glyph glyph-name="uni018E" unicode="&#x18e;" horiz-adv-x="1139" 
d="M123 162h633v522h-596v160h596v456h-633v162h817v-1462h-817v162z" />
    <glyph glyph-name="uni018F" unicode="&#x18f;" horiz-adv-x="1513" 
d="M680 1323c-150 0 -305.665 -28.001 -466.998 -84.001v168c83.333 29.333 161.333 49.666 234 60.999s151.667 17 237 17c221.333 0 393.666 -66.667 516.999 -200s185 -318.666 185 -555.999c0 -233.333 -57.833 -416.5 -173.5 -549.5s-277.5 -199.5 -485.5 -199.5
c-200.667 0 -351.834 62.833 -453.501 188.5s-152.5 313.167 -152.5 562.5v70h1071c-11.333 172.667 -60 302.834 -146 390.501s-208 131.5 -366 131.5zM727.002 140.999c136.667 0 245.667 43.5 327 130.5s127.333 209.5 138 367.5h-875c0 -170 33.5 -295.5 100.5 -376.5
s170.167 -121.5 309.5 -121.5z" />
    <glyph glyph-name="uni0190" unicode="&#x190;" horiz-adv-x="1204" 
d="M178 1120c0 111.333 41.498 199.667 124.498 265s196.5 98 340.5 98c88 0 172.833 -12.833 254.5 -38.5s155.834 -63.5 222.501 -113.5l-88 -125c-71.333 48.667 -135.666 81.667 -192.999 99s-121.333 26 -192 26c-86.667 0 -154.667 -20.833 -204 -62.5
s-74 -97.167 -74 -166.5c0 -82 32.833 -147.167 98.5 -195.5s164.5 -72.5 296.5 -72.5h199v-154h-209c-150 0 -262.667 -22.5 -338 -67.5s-113 -111.167 -113 -198.5c0 -91.333 33 -161.333 99 -210s161.333 -73 286 -73c143.333 0 289.333 35.667 438 107v-168
c-122.667 -60 -272 -90 -448 -90c-184 0 -324.5 35.333 -421.5 106s-145.5 175 -145.5 313c0 104 31.833 186.667 95.5 248s157.167 100.333 280.5 117v8c-98 16.667 -174 55.167 -228 115.5s-81 137.833 -81 232.5z" />
    <glyph glyph-name="uni0191" unicode="&#x191;" horiz-adv-x="1063" 
d="M92 -492c-44 0 -82.333 8.99902 -115 26.999v156c28 -14 59 -21 93 -21c48 0 81.5 13.833 100.5 41.5s28.5 69.834 28.5 126.501v1624h817v-162h-633v-518h594v-161h-594v-791c0 -214.667 -97 -322 -291 -322z" />
    <glyph glyph-name="florin" unicode="&#x192;" horiz-adv-x="1171" 
d="M330 -492c-48.667 0 -95.3311 6.33301 -139.998 19v149c46.667 -12 89.667 -18 129 -18c61.333 0 104.666 16 129.999 48s38 86.333 38 163v962h-215v84l215 62v133c0 128.667 27 223 81 283s142.667 90 266 90c62 0 132 -14.333 210 -43l-45 -140
c-68 22 -121 33 -159 33c-62.667 0 -107 -16.667 -133 -50s-39 -90.333 -39 -171v-141h276v-140h-272v-962c0 -124.667 -27.333 -216 -82 -274s-141.334 -87 -260.001 -87z" />
    <glyph glyph-name="uni0193" unicode="&#x193;" horiz-adv-x="1491" 
d="M834 772l505.004 0.000976562v-717c-77.333 -24.667 -156 -43.334 -236 -56.001s-172.667 -19 -278 -19c-222.667 0 -395 66 -517 198s-183 316.333 -183 553c0 152.667 30.333 286 91 400s148.167 201.167 262.5 261.5s249.166 90.5 404.499 90.5
c97.333 0 190.666 -11.667 279.999 -35v35c0 88 18.333 155.667 55 203s97 71 181 71c39.333 0 80.333 -8.66699 123 -26v-148c-32.667 14 -68.334 21 -107.001 21c-64 0 -96 -33 -96 -99v-108l-70 -160c-128.667 56 -254.334 84 -377.001 84c-174 0 -310 -52.667 -408 -158
s-147 -249.333 -147 -432c0 -193.333 47 -340.333 141 -441s230.667 -151 410 -151c98 0 193.667 11.667 287 35v434h-321v164z" />
    <glyph glyph-name="uni0194" unicode="&#x194;" horiz-adv-x="1167" 
d="M684 221c45.333 -89.333 79.501 -172.167 102.501 -248.5s34.5 -140.166 34.5 -191.499c0 -80.667 -21.833 -146.334 -65.5 -197.001s-100.834 -76 -171.501 -76c-73.333 0 -131.333 25.833 -174 77.5s-64 116.834 -64 195.501c0 106 45.667 252 137 438l-483 1243h193
l279.5 -742c64.333 -170.667 101.5 -284.334 111.5 -341.001c13.333 69.333 47.333 177 102 323l287 760h194zM653.001 -215.001c0 36 -5.83203 78.5 -17.499 127.5s-28.834 95.167 -51.501 138.5c-26 -51.333 -44.167 -100.333 -54.5 -147s-15.5 -85 -15.5 -115
c0 -42 6.5 -72.667 19.5 -92s29.833 -29 50.5 -29c46 0 69 39 69 117z" />
    <glyph glyph-name="uni0195" unicode="&#x195;" horiz-adv-x="1913" 
d="M1309 129c91.333 0 157.165 24.501 197.498 73.501s60.5 126.167 60.5 231.5v664h180v-670c0 -156 -34.667 -269.667 -104 -341s-180.666 -107 -333.999 -107c-150.667 0 -261.5 33.167 -332.5 99.5s-106.5 166.833 -106.5 301.5v321
c0 89.333 -17.833 155.833 -53.5 199.5s-92.167 65.5 -169.5 65.5c-101.333 0 -175.5 -31.167 -222.5 -93.5s-70.5 -164.5 -70.5 -306.5v-567h-180v1556h180v-456c0 -60 -3.33301 -111.333 -10 -154h12c33.333 56.667 78.5 99.167 135.5 127.5s118.5 42.5 184.5 42.5
c124 0 217.5 -31.833 280.5 -95.5s94.5 -165.5 94.5 -305.5v-322c0 -88.667 20.833 -154.834 62.5 -198.501s106.834 -65.5 195.501 -65.5z" />
    <glyph glyph-name="uni0196" unicode="&#x196;" horiz-adv-x="713" 
d="M367 1462l-0.000976562 -1124c0 -66 12.333 -115.333 37 -148s64.667 -49 120 -49c29.333 0 59.666 2.33301 90.999 7s57 10 77 16v-152c-17.333 -8 -44.666 -15.333 -81.999 -22s-74.666 -10 -111.999 -10c-109.333 0 -189 28.167 -239 84.5s-75 142.166 -75 257.499
v1140h183z" />
    <glyph glyph-name="uni0197" unicode="&#x197;" horiz-adv-x="694" 
d="M610 0h-528v106l172 39v525h-184v159h184v486l-172 41v106h528v-106l-172 -41v-486h185v-159h-185v-525l172 -39v-106z" />
    <glyph glyph-name="uni0198" unicode="&#x198;" horiz-adv-x="1268" 
d="M670 829l598.002 -829h-217c-40.667 54 -123.334 171.667 -248.001 353c-97.333 140.667 -183.333 256.334 -258 347.001l-162 -157v-543h-184v1462h184v-737l123 148c29.333 33.333 155.666 186.666 378.999 459.999c39.333 51.333 76.5 87.833 111.5 109.5
s80.5 32.5 136.5 32.5c41.333 0 75.333 -5.66699 102 -17v-143c-28 4 -58 6 -90 6c-22.667 0 -44 -6.66699 -64 -20s-45 -38 -75 -74z" />
    <glyph glyph-name="uni0199" unicode="&#x199;" horiz-adv-x="1094" 
d="M352 743l-8.00098 -178h8l61 78l70 84l351 371h210l-444 -469l475 -629h-217l-381 512l-125 -109v-403h-178v1280c0 191.333 82.667 287 248 287c44.667 0 89 -9 133 -27v-149c-31.333 13.333 -66.666 20 -105.999 20c-31.333 0 -55.333 -9 -72 -27s-25 -48.667 -25 -92
v-549z" />
    <glyph glyph-name="uni019A" unicode="&#x19a;" horiz-adv-x="528" 
d="M354 860h144v-135h-144v-725h-180v725h-143v135h143v696h180v-696z" />
    <glyph glyph-name="uni019B" unicode="&#x19b;" horiz-adv-x="1110" 
d="M-12 0l472.999 1077l-47 131l-217 -65l-39 129l202 61c-17.333 30.667 -37.333 52.667 -60 66s-53.667 20 -93 20c-41.333 0 -79.666 -4 -114.999 -12v145c45.333 11.333 90.333 17 135 17c72.667 0 132.167 -14.333 178.5 -43s86.5 -76 120.5 -142l224 68l38 -129
l-208 -66l366 -1019c13.333 -38 27.833 -66 43.5 -84s35.5 -27 59.5 -27c16 0 36.333 3.33301 61 10v-133c-33.333 -16 -72.333 -24 -117 -24c-49.333 0 -89 12.333 -119 37s-55.667 67.334 -77 128.001l-150 420c-56.667 162 -90.667 270.667 -102 326h-8
c-22 -84 -59.667 -189.333 -113 -316l-250 -575h-186z" />
    <glyph glyph-name="uni019C" unicode="&#x19c;" horiz-adv-x="2109" 
d="M369 1462l-0.00195312 -1036c0 -95.333 19.667 -167 59 -215s102 -72 188 -72c115.333 0 200.5 32.167 255.5 96.5s82.5 164.833 82.5 301.5v925h185v-1036c0 -95.333 19.833 -167 59.5 -215s103.834 -72 192.501 -72c114.667 0 198.834 34 252.501 102
s80.5 180.333 80.5 337v884h185v-1462h-146l-30 168h-11c-34 -58 -84.333 -103.833 -151 -137.5s-139.667 -50.5 -219 -50.5c-92.667 0 -168.167 16.667 -226.5 50s-102.5 84.666 -132.5 153.999h-10c-38.667 -65.333 -93.167 -115.666 -163.5 -150.999
s-147.5 -53 -231.5 -53c-140.667 0 -243.167 36 -307.5 108s-96.5 184.667 -96.5 338v1036h185z" />
    <glyph glyph-name="uni019D" unicode="&#x19d;" horiz-adv-x="1556" 
d="M199 1462l213 -0.00195312l45 -71l480 -742l255 -397h8c-1.33301 16 -4 73.167 -8 171.5s-6 169.5 -6 213.5v825h172v-1462h-215l-783 1214h-8l5 -81c8 -121.333 12 -226.666 12 -315.999v-987c0 -112.667 -23.167 -194.5 -69.5 -245.5s-115.5 -76.5 -207.5 -76.5
c-44 0 -82.333 9 -115 27v156c28 -14 59 -21 93 -21c48 0 81.5 13.833 100.5 41.5s28.5 69.834 28.5 126.501v1624z" />
    <glyph glyph-name="uni019E" unicode="&#x19e;" horiz-adv-x="1266" 
d="M922 -492l-0.000976562 1194c0 88 -19.667 154.167 -59 198.5s-101.666 66.5 -186.999 66.5c-112.667 0 -194.5 -31.833 -245.5 -95.5s-76.5 -164.5 -76.5 -302.5v-569h-180v1098h145l27 -150h10c34 54 81.667 95.833 143 125.5s129 44.5 203 44.5
c134.667 0 234.667 -32.667 300 -98s98 -167 98 -305v-1207h-178z" />
    <glyph glyph-name="uni019F" unicode="&#x19f;" horiz-adv-x="1602" 
d="M1475 733c0 -234 -59.167 -418 -177.5 -552s-283.833 -201 -496.5 -201c-215.333 0 -381.833 65.833 -499.5 197.5s-176.5 317.5 -176.5 557.5c0 238 58.5 422.5 175.5 553.5s284.5 196.5 502.5 196.5c212 0 377 -66.5 495 -199.5s177 -317.167 177 -552.5zM801 139
c148 0 262.5 44.5 343.5 133.5s125.5 220.167 133.5 393.5h-956c8.66699 -173.333 53.5 -304.5 134.5 -393.5s195.833 -133.5 344.5 -133.5zM803 1323c-145.333 0 -258.666 -41.8311 -339.999 -125.498s-128.333 -207.834 -141 -372.501h954
c-12.667 165.333 -58.834 289.666 -138.501 372.999s-191.167 125 -334.5 125z" />
    <glyph glyph-name="Ohorn" unicode="&#x1a0;" horiz-adv-x="1606" 
d="M1473 733c0 -236 -59.1689 -420.5 -177.502 -553.5s-283.166 -199.5 -494.499 -199.5c-215.333 0 -381.833 65.5 -499.5 196.5s-176.5 317.167 -176.5 558.5c0 240 58.833 425 176.5 555s284.834 195 501.501 195s385.334 -71 506.001 -213
c45.333 12.667 78.5 39.667 99.5 81s31.5 109 31.5 203h194l15 -22c-20.667 -106.667 -53.334 -189 -98.001 -247s-101.667 -100 -171 -126c62 -116 93 -258.667 93 -428zM318.998 733c0 -194 40.667 -341.501 122 -442.501s201.333 -151.5 360 -151.5
c158 0 277 49.833 357 149.5s120 247.834 120 444.501c0 194.667 -39.833 341.667 -119.5 441s-198.167 149 -355.5 149c-160.667 0 -281.5 -50.333 -362.5 -151s-121.5 -247 -121.5 -439z" />
    <glyph glyph-name="ohorn" unicode="&#x1a1;" horiz-adv-x="1262" 
d="M1128 551c0 -179.333 -45.332 -319.338 -135.999 -420.005s-216 -151 -376 -151c-99.333 0 -187.333 23.167 -264 69.5s-135.667 112.833 -177 199.5s-62 187.334 -62 302.001c0 178.667 44.667 317.834 134 417.501s214.666 149.5 375.999 149.5
c72 0 138.333 -12.167 199 -36.5s113 -59.166 157 -104.499c33.333 10 59.833 26.167 79.5 48.5s34.167 50.333 43.5 84s14 85.834 14 156.501h193l14 -23c-21.333 -107.333 -53 -190.166 -95 -248.499s-98.333 -100.5 -169 -126.5c46 -93.333 69 -199 69 -317z
M299.001 550.995c0 -144 26.333 -250.333 79 -319s133.667 -103 243 -103c112.667 0 194.334 35.667 245.001 107s76 176.333 76 315c0 136.667 -25.833 240.167 -77.5 310.5s-133.834 105.5 -246.501 105.5s-194 -35.167 -244 -105.5s-75 -173.833 -75 -310.5z" />
    <glyph glyph-name="uni01A2" unicode="&#x1a2;" horiz-adv-x="2202" 
d="M1409 733c0 -236 -56.334 -420.5 -169.001 -553.5s-270 -199.5 -472 -199.5c-204.667 0 -363 65.667 -475 197s-168 317.333 -168 558c0 238 55.833 422.5 167.5 553.5s270.834 196.5 477.501 196.5c194 0 347 -62.333 459 -187c38 58.667 91.167 104.5 159.5 137.5
s143.5 49.5 225.5 49.5c139.333 0 241.333 -36 306 -108s97 -185 97 -339v-1038h-184v1038c0 96 -19.667 167.833 -59 215.5s-102.333 71.5 -189 71.5c-72 0 -131 -10.333 -177 -31s-82 -52 -108 -94c72.667 -126 109 -281.667 109 -467zM318.999 733
c0 -193.333 38.167 -340.667 114.5 -442s187.833 -152 334.5 -152c146 0 256.833 50 332.5 150s113.5 248 113.5 444c0 195.333 -37.5 342.5 -112.5 441.5s-185.5 148.5 -331.5 148.5c-148 0 -260.167 -50.167 -336.5 -150.5s-114.5 -246.833 -114.5 -439.5z" />
    <glyph glyph-name="uni01A3" unicode="&#x1a3;" horiz-adv-x="1731" 
d="M1077 551c0 -180 -43.167 -320.164 -129.5 -420.497s-204.833 -150.5 -355.5 -150.5c-94.667 0 -178.5 23.167 -251.5 69.5s-129.167 113.166 -168.5 200.499s-59 187.666 -59 300.999c0 178 42.5 317 127.5 417s203.5 150 355.5 150c144.667 0 260 -49 346 -147
c35.333 50 78.833 87 130.5 111s106.5 36 164.5 36c109.333 0 191.333 -32 246 -96s82 -166.333 82 -307v-1207h-179v1199c0 173.333 -62.667 260 -188 260c-86.667 0 -150.667 -30 -192 -90c47.333 -86.667 71 -195.334 71 -326.001zM299 551.003
c0 -138 24.998 -242.833 74.998 -314.5s123.333 -107.5 220 -107.5s170.334 35.667 221.001 107s76 176.333 76 315c0 137.333 -25.167 241 -75.5 311s-124.166 105 -221.499 105c-196.667 0 -295 -138.667 -295 -416z" />
    <glyph glyph-name="uni01A4" unicode="&#x1a4;" horiz-adv-x="1403" 
d="M547 727h147.002c145.333 0 250.666 23.5 315.999 70.5s98 122.5 98 226.5c0 94 -30.333 164.333 -91 211s-155.334 70 -284.001 70h-186v-578zM750.002 1462c365.333 0 548 -143.333 548 -430c0 -148.667 -50.667 -263 -152 -343s-245 -120 -431 -120h-168v-569h-185
v1305h-53c-83.333 0 -125 -34.333 -125 -103c0 -40.667 7 -77.334 21 -110.001h-162c-6 14 -11.333 32 -16 54s-7 41.333 -7 58c0 88.667 23.5 153.834 70.5 195.501s119.833 62.5 218.5 62.5h441z" />
    <glyph glyph-name="uni01A5" unicode="&#x1a5;" horiz-adv-x="1260" 
d="M424 1567c44.667 0 88.9971 -9 132.997 -27v-149c-31.333 13.333 -66.666 20 -105.999 20c-31.333 0 -55.333 -9 -72 -27s-25 -48.667 -25 -92v-164c0 -40.667 -2.66699 -87 -8 -139l-4 -41h12c42.667 60 92 103.333 148 130s120.667 40 194 40
c142.667 0 253.5 -49.5 332.5 -148.5s118.5 -238.5 118.5 -418.5c0 -179.333 -39.667 -319.333 -119 -420s-190.666 -151 -333.999 -151c-147.333 0 -260.666 53 -339.999 159h-12l4 -41c5.33301 -52 8 -98.333 8 -139v-451h-180l2 1772c0 191.333 82.667 287 248 287z
M663.997 967c-108.667 0 -187.167 -30.668 -235.5 -92.001s-73.166 -157.666 -74.499 -288.999v-35c0 -148.667 24.667 -256.167 74 -322.5s129.333 -99.5 240 -99.5c92 0 163.833 37.333 215.5 112s77.5 178.667 77.5 312c0 134 -25.833 236.5 -77.5 307.5
s-124.834 106.5 -219.501 106.5z" />
    <glyph glyph-name="uni01A6" unicode="&#x1a6;" horiz-adv-x="1274" 
d="M383 555l218.999 -0.000976562c118.667 0 205.334 23.333 260.001 70s82 116.334 82 209.001c0 92 -27.667 159 -83 201s-145 63 -269 63h-209v-543zM382.999 398.999v-399.001h-184v1462h184v-205h219c181.333 0 315.5 -34.5 402.5 -103.5s130.5 -172.833 130.5 -311.5
c0 -193.333 -97.667 -323.666 -293 -390.999l401 -656h-215l-354 604h-291z" />
    <glyph glyph-name="uni01A7" unicode="&#x1a7;" horiz-adv-x="1124" 
d="M96 391c0 66 13.667 123.332 41 171.999s69 92 125 130s140.667 78 254 120c93.333 34.667 160.833 64.834 202.5 90.501s71.667 54.334 90 86.001s27.5 71.167 27.5 118.5c0 67.333 -24.5 119.666 -73.5 156.999s-116.833 56 -203.5 56c-98 0 -203 -26 -315 -78l-58 158
c116.667 54.667 239.667 82 369 82c139.333 0 252 -33.667 338 -101s129 -158 129 -272c0 -104 -28.333 -189.833 -85 -257.5s-154 -126.5 -292 -176.5c-106 -38.667 -182.833 -71.667 -230.5 -99s-81.834 -56.666 -102.501 -87.999s-31 -69.333 -31 -114
c0 -73.333 27.5 -131 82.5 -173s137.167 -63 246.5 -63c124 0 260.667 32.333 410 97v-177c-46 -22.667 -104 -41.5 -174 -56.5s-146 -22.5 -228 -22.5c-163.333 0 -291.166 36.667 -383.499 110s-138.5 173.666 -138.5 300.999z" />
    <glyph glyph-name="uni01A8" unicode="&#x1a8;" horiz-adv-x="981" 
d="M92 303c0 50.667 10.334 94.3301 31.001 130.997s52.5 69.667 95.5 99s110.833 61.333 203.5 96c120.667 46 198 82.167 232 108.5s51 59.833 51 100.5c0 41.333 -19.333 73.833 -58 97.5s-95.334 35.5 -170.001 35.5c-68.667 0 -158.667 -23.333 -270 -70l-62 143
c110 49.333 216.667 74 320 74c134 0 236.167 -25 306.5 -75s105.5 -122 105.5 -216c0 -50.667 -9.83301 -93.667 -29.5 -129s-50.5 -67.166 -92.5 -95.499s-114.667 -62.5 -218 -102.5c-72 -27.333 -127.167 -51.666 -165.5 -72.999s-65.5 -42.5 -81.5 -63.5
s-24 -46.5 -24 -76.5c0 -53.333 21.833 -93.666 65.5 -120.999s108.5 -41 194.5 -41c114.667 0 230.667 29.333 348 88v-164c-85.333 -46 -200 -69 -344 -69c-292 0 -438 107.667 -438 323z" />
    <glyph glyph-name="uni01A9" unicode="&#x1a9;" horiz-adv-x="1167" 
d="M74 0v152l479 612l-467 545v153h973v-164h-666l-96 2l461 -534l-482 -606l334 2h508v-162h-1044z" />
    <glyph glyph-name="uni01AA" unicode="&#x1aa;" horiz-adv-x="633" 
d="M137 1110c-82 0 -144.501 20.001 -187.501 60.001s-64.5 96.333 -64.5 169c0 73.333 22.333 129.666 67 168.999s107.667 59 189 59c86.667 0 152.834 -24.667 198.501 -74s68.5 -121 68.5 -215v-1425c0 -66.667 12.333 -116.167 37 -148.5s64.667 -48.5 120 -48.5
c26 0 55.833 2.16699 89.5 6.5s59.834 9.5 78.501 15.5v-137c-20.667 -9.33301 -49.167 -17.166 -85.5 -23.499s-71.833 -9.5 -106.5 -9.5c-108.667 0 -187.834 28.167 -237.501 84.5s-74.5 142.166 -74.5 257.499v1260h-92zM128.999 1419c-29.333 0 -50 -8.16699 -62 -24.5
s-18 -34.833 -18 -55.5c0 -54.667 33.667 -82 101 -82h79v27c0 48 -8.33301 82.5 -25 103.5s-41.667 31.5 -75 31.5z" />
    <glyph glyph-name="uni01AB" unicode="&#x1ab;" horiz-adv-x="739" 
d="M455 -492c-40 0 -80.999 8.33301 -122.999 25v150c30.667 -12.667 64.667 -19 102 -19c65.333 0 98 35.667 98 107v209h-22c-214.667 0 -322 113 -322 339v639h-155v86l157 72l72 234h107v-252h317v-140h-317v-634c0 -63.333 15.167 -112 45.5 -146s72.5 -51 126.5 -51
c23.333 0 50.666 2.33301 81.999 7s55 10 71 16v-369c0 -182 -79.667 -273 -239 -273z" />
    <glyph glyph-name="uni01AC" unicode="&#x1ac;" horiz-adv-x="1180" 
d="M309 1300c-83.333 0 -125 -32.667 -125 -98c0 -40.667 7 -77.334 21 -110.001h-162c-6 14 -11.333 32 -16 54s-7 41.333 -7 58c0 88.667 23.5 153.834 70.5 195.501s119.833 62.5 218.5 62.5h848v-162h-455v-1300h-184v1300h-209z" />
    <glyph glyph-name="uni01AD" unicode="&#x1ad;" horiz-adv-x="739" 
d="M369 1098h317v-140h-317v-634c0 -63.333 15.167 -112 45.5 -146s72.5 -51 126.5 -51c23.333 0 50.666 2.33301 81.999 7s55 10 71 16v-138c-16.667 -7.33301 -42.5 -14.5 -77.5 -21.5s-70.5 -10.5 -106.5 -10.5c-214.667 0 -322 113 -322 339v639h-155v86l157 72v135
c0 210.667 100.667 316 302 316c52.667 0 105 -9 157 -27v-149c-15.333 5.33301 -38.833 10 -70.5 14s-60.5 6 -86.5 6c-43.333 0 -74.666 -11.667 -93.999 -35s-29 -58 -29 -104v-174z" />
    <glyph glyph-name="uni01AE" unicode="&#x1ae;" horiz-adv-x="1139" 
d="M477 1300h-456.999v162h1096v-162h-454v-1462c0 -58 9.66699 -100.5 29 -127.5s52.666 -40.5 99.999 -40.5c33.333 0 64 7 92 21v-156c-32.667 -18 -75.667 -27 -129 -27c-92.667 0 -162 25.5 -208 76.5s-69 132.833 -69 245.5v1470z" />
    <glyph glyph-name="Uhorn" unicode="&#x1af;" horiz-adv-x="1597" 
d="M1311 1462l-0.00195312 -197.999c54.667 7.33301 94.834 32.5 120.501 75.5s38.5 115.167 38.5 216.5h191l14 -22c-22 -123.333 -62.333 -216 -121 -278s-139.667 -101.667 -243 -119v-621c0 -170.667 -48.167 -302.667 -144.5 -396s-233.166 -140 -410.499 -140
c-181.333 0 -322 48 -422 144s-150 228 -150 396v942h185v-950c0 -118 32.333 -209.667 97 -275s162.667 -98 294 -98c120 0 211.333 31.667 274 95s94 156.666 94 279.999v948h183z" />
    <glyph glyph-name="uhorn" unicode="&#x1b0;" horiz-adv-x="1380" 
d="M344 1096l-0.000976562 -704.999c0 -88.667 19.833 -154.5 59.5 -197.5s101.167 -64.5 184.5 -64.5c112.667 0 194.667 31.333 246 94s77 163.667 77 303v570h181v-121c53.333 8.66699 92.166 34.334 116.499 77.001s36.5 114.667 36.5 216h191l14 -23
c-21.333 -127.333 -61.5 -222.5 -120.5 -285.5s-138.167 -100.167 -237.5 -111.5v-848h-148l-26 145h-9c-33.333 -52.667 -79.666 -93.334 -138.999 -122.001s-127.666 -43 -204.999 -43c-134 0 -234.667 31.667 -302 95s-101 164.666 -101 303.999v717h182z" />
    <glyph glyph-name="uni01B1" unicode="&#x1b1;" horiz-adv-x="1602" 
d="M801 139c156 0 274.166 42.502 354.499 127.502s120.5 209.833 120.5 374.5c0 150 -27.667 278.833 -83 386.5s-141.666 203.5 -258.999 287.5v147h590v-162h-365c100.667 -77.333 177.667 -173.333 231 -288s80 -240.334 80 -377.001
c0 -205.333 -59.167 -366.333 -177.5 -483s-282.166 -175 -491.499 -175c-212 0 -377 58 -495 174s-177 276.667 -177 482c0 136.667 26.667 263 80 379s129.666 212 228.999 288h-362v162h590v-147c-119.333 -85.333 -206.5 -182.333 -261.5 -291
s-82.5 -236.334 -82.5 -383.001c0 -164 40.5 -288.667 121.5 -374s200.167 -128 357.5 -128z" />
    <glyph glyph-name="uni01B2" unicode="&#x1b2;" horiz-adv-x="1229" 
d="M1169 1188c0 -72.667 -30.666 -180.001 -91.999 -322.001l-370 -866h-185l-522 1462h193l331 -954c42 -120 72.667 -226.667 92 -320c11.333 40.667 29.666 90.334 54.999 149.001c28.667 68 50.667 123.667 66 167l174 416c49.333 120.667 74 206 74 256
c0 53.333 -11 90.833 -33 112.5s-54 32.5 -96 32.5c-33.333 0 -64 -7 -92 -21v156c30.667 18 73.667 27 129 27c184 0 276 -98.333 276 -295z" />
    <glyph glyph-name="uni01B3" unicode="&#x1b3;" horiz-adv-x="1159" 
d="M80 1329c-28.667 0 -55.333 -5.33301 -80 -16v149c38.667 15.333 79.667 23 123 23c50 0 90.333 -11.833 121 -35.5s58.667 -63.167 84 -118.5l262 -588l371 719h198l-477 -895v-567h-184v559l-332 698c-24 48 -52.667 72 -86 72z" />
    <glyph glyph-name="uni01B4" unicode="&#x1b4;" horiz-adv-x="1110" 
d="M993 1118c44.667 0 83.667 -8 117 -24v-133c-24.667 6.66699 -45 10 -61 10c-24 0 -43.5 -9 -58.5 -27s-29.833 -46 -44.5 -84l-375 -1012c-43.333 -119.333 -97.166 -205.833 -161.499 -259.5s-143.5 -80.5 -237.5 -80.5c-50 0 -99.667 5.66699 -149 17v143
c33.333 -8 73.333 -12 120 -12c116 0 198.667 64.667 248 194l53 146l-442 1102h193l237 -625c50 -136 80.667 -235.667 92 -299h8c11.333 48.667 44.333 149 99 301l155 445c26 74 54.167 125.5 84.5 154.5s71.166 43.5 122.499 43.5z" />
    <glyph glyph-name="uni01B5" unicode="&#x1b5;" horiz-adv-x="1171" 
d="M162 834h377l309 464h-746v164h969v-139l-326 -489h250v-146h-346l-348 -524h791v-164h-1014v139l364 549h-280v146z" />
    <glyph glyph-name="uni01B6" unicode="&#x1b6;" horiz-adv-x="963" 
d="M117 641h329l224 317h-555v140h753v-135l-227 -322h207v-143h-309l-252 -359h596v-139h-803v119l266 379h-229v143z" />
    <glyph glyph-name="uni01B7" unicode="&#x1b7;" horiz-adv-x="1196" 
d="M596 901c92.667 -2.66699 176.335 -23.002 251.002 -61.002s132.667 -90.167 174 -156.5s62 -143.166 62 -230.499c0 -149.333 -51.667 -265.5 -155 -348.5s-248 -124.5 -434 -124.5c-172.667 0 -313.334 26.333 -422.001 79v168c66.667 -32 137.667 -56 213 -72
s145.666 -24 210.999 -24c132.667 0 231.667 28 297 84s98 136 98 240c0 94.667 -33.667 167.834 -101 219.501s-165.333 77.5 -294 77.5h-127v133l422 413h-678v164h909v-145z" />
    <glyph glyph-name="uni01B8" unicode="&#x1b8;" horiz-adv-x="1196" 
d="M174 1317v144.999h909v-164h-675l419 -413v-133h-159c-115.333 0 -204.666 -27.667 -267.999 -83s-95 -133 -95 -233c0 -96.667 33.667 -171.667 101 -225s165.333 -80 294 -80c66.667 0 137.5 8 212.5 24s145.5 40 211.5 72v-168
c-61.333 -29.333 -128.333 -49.833 -201 -61.5s-154.334 -17.5 -245.001 -17.5c-119.333 0 -221.333 18.5 -306 55.5s-149 89.5 -193 157.5s-66 147.667 -66 239c0 92.667 20.5 173.834 61.5 243.501s98.5 124 172.5 163s158.333 59.833 253 62.5z" />
    <glyph glyph-name="uni01B9" unicode="&#x1b9;" horiz-adv-x="1020" 
d="M125 967v130.999h838v-152h-627l448 -497v-125h-120c-137.333 0 -240.666 -29 -309.999 -87s-104 -143 -104 -255c0 -97.333 32.167 -175.666 96.5 -234.999s150.166 -89 257.499 -89c136 0 265 28.667 387 86v-164c-93.333 -48 -227 -72 -401 -72
c-154.667 0 -280 43.167 -376 129.5s-144 199.5 -144 339.5c0 144 43.833 258.833 131.5 344.5s211.5 134.167 371.5 145.5z" />
    <glyph glyph-name="uni01BA" unicode="&#x1ba;" horiz-adv-x="1020" 
d="M442 -342c114.667 0 224 24.6699 328 74.0029v-164c-81.333 -40 -191.333 -60 -330 -60c-123.333 0 -218 21.333 -284 64s-99 102.667 -99 180c0 85.333 31.667 148 95 188s157.333 60 282 60c108.667 0 186.667 18.667 234 56s71 102 71 194
c0 81.333 -30.333 141.166 -91 179.499s-158 57.5 -292 57.5h-120v125l374 334h-553v152h807v-131l-383 -336c141.333 -6.66699 249.833 -41.834 325.5 -105.501s113.5 -154.834 113.5 -273.501c0 -130 -40.667 -229.5 -122 -298.5s-201.333 -103.5 -360 -103.5
c-72 0 -125.167 -7 -159.5 -21s-51.5 -39.667 -51.5 -77c0 -28.667 18.167 -51.5 54.5 -68.5s89.833 -25.5 160.5 -25.5z" />
    <glyph glyph-name="uni01BB" unicode="&#x1bb;" horiz-adv-x="1167" 
d="M160 858l493.001 0.00195312c37.333 60 64.166 115.833 80.499 167.5s24.5 107.167 24.5 166.5c0 68.667 -20.333 122 -61 160s-97 57 -169 57c-62 0 -117.833 -11.333 -167.5 -34s-99.5 -56.334 -149.5 -101.001l-96 121c127.333 114.667 266.333 172 417 172
c128 0 228.667 -33.167 302 -99.5s110 -156.833 110 -271.5c0 -57.333 -7.16699 -112.833 -21.5 -166.5s-38.5 -110.834 -72.5 -171.501h205v-143h-295c-14.667 -22 -30.667 -44.167 -48 -66.5s-155 -187.833 -413 -496.5v-9h766v-143h-967v150l359 440l96 125h-393v143z
" />
    <glyph glyph-name="uni01BC" unicode="&#x1bc;" horiz-adv-x="1196" 
d="M459 1298l0.00195312 -395.001h86c105.333 0 199 -18.333 281 -55s145.333 -89 190 -157s67 -147.333 67 -238c0 -149.333 -51.667 -265.5 -155 -348.5s-248 -124.5 -434 -124.5c-172.667 0 -313.334 26.333 -422.001 79v168c66.667 -32 137.667 -56 213 -72
s145.666 -24 210.999 -24c132.667 0 231.667 28 297 84s98 136 98 240c0 92.667 -32 165.334 -96 218.001s-153 79 -267 79h-254v546h-161v164h909v-164h-563z" />
    <glyph glyph-name="uni01BD" unicode="&#x1bd;" horiz-adv-x="1004" 
d="M406 946v-239.001h47c146 0 258.833 -31.667 338.5 -95s119.5 -156 119.5 -278c0 -111.333 -41.333 -198.166 -124 -260.499s-197.667 -93.5 -345 -93.5c-161.333 0 -286 23.667 -374 71v162c122 -57.333 246 -86 372 -86c94 0 166.333 18.167 217 54.5s76 90.5 76 162.5
c0 72.667 -25.667 126.667 -77 162s-130 53 -236 53h-195v387h-127v152h746v-152h-438z" />
    </font>
</defs>
</svg>
