<?xml version="1.0" standalone="no"?>
<!DOCTYPE svg PUBLIC "-//W3C//DTD SVG 1.1//EN" "http://www.w3.org/Graphics/SVG/1.1/DTD/svg11.dtd" >
<svg>
<metadata>
Created by FontForge 20090622 at Tue Mar 12 05:52:33 2019
 By deploy user
Copyright &#194;&#169; 2015 by Radomir Tinkov. All rights reserved.
</metadata>
<defs>
<font id="Gilroy-RegularItalic" horiz-adv-x="570" >
  <font-face 
    font-family="Gilroy Italic"
    font-weight="400"
    font-style="italic"
    font-stretch="normal"
    units-per-em="1000"
    panose-1="0 0 5 0 0 0 0 0 0 0"
    ascent="800"
    descent="-200"
    x-height="500"
    cap-height="700"
    bbox="-307 -240 1049 960"
    underline-thickness="50"
    underline-position="-50"
    slope="-10"
    unicode-range="U+0020-U+FB02"
  />
<missing-glyph horiz-adv-x="500" 
d="M410 800v-1000h-317v1000h317zM333 733h-165v-33h65v-37h-66v-33h166v33h-66v37h66v33zM267 604h-100v-104h166v34h-66v70zM233 570v-36h-33v36h33zM333 473h-166v-33h66v-37h-66v-33h100v70h66v33zM333 413h-33v-66h-133v-34h166v100zM333 291h-100v-56h34v23h33v-47
h-100v80h-33v-113h166v113zM333 118h-166v-113h166v113zM300 85v-47h-100v47h100zM333 -18h-166v-33h70l-70 -47v-33h166v33h-102l70 47h32v33z" />
    <glyph glyph-name="fi" unicode="fi" horiz-adv-x="516" 
d="M490 500l-88 -500h-66l77 436h-204l-77 -436h-66l77 436h-85l11 64h85l4 20q33 192 244 192q42 0 93 -12l-10 -60q-45 8 -95 8q-75 0 -114.5 -29t-51.5 -99l-4 -20h270z" />
    <glyph glyph-name="fl" unicode="fl" horiz-adv-x="516" 
d="M402 712q58 0 123 -12l-123 -700h-66l114 649q-30 3 -59 3q-74 0 -114 -30.5t-53 -101.5l-4 -20h114l-11 -64h-114l-77 -436h-66l77 436h-85l11 64h85l4 20q33 192 244 192z" />
    <glyph glyph-name="f_f" unicode="ff" horiz-adv-x="590" 
d="M429 530q17 101 80.5 150.5t163.5 41.5l-11 -64q-142 12 -167 -128l-5 -30h144l-11 -64h-144l-77 -436h-66l77 436h-204l-77 -436h-66l77 436h-85l11 64h85l4 20q17 101 80 150.5t164 41.5l-12 -64q-141 12 -166 -128l-4 -20h204z" />
    <glyph glyph-name="f_f_i" unicode="ffi" horiz-adv-x="786" 
d="M760 500l-88 -500h-66l77 436h-204l-77 -436h-66l77 436h-204l-77 -436h-66l77 436h-85l11 64h85l4 20q17 101 80 150.5t164 41.5l-12 -64q-141 12 -166 -128l-4 -20h204l5 30q33 192 244 192q43 0 94 -12l-10 -60q-45 8 -95 8q-75 0 -115 -29t-52 -99l-5 -30h270z" />
    <glyph glyph-name="f_f_l" unicode="ffl" horiz-adv-x="786" 
d="M673 722q59 0 124 -12l-125 -710h-66l116 659q-30 3 -59 3q-74 0 -114.5 -30.5t-53.5 -101.5l-5 -30h114l-11 -64h-114l-77 -436h-66l77 436h-204l-77 -436h-66l77 436h-85l11 64h85l4 20q17 101 80 150.5t164 41.5l-12 -64q-141 12 -166 -128l-4 -20h204l5 30
q33 192 244 192z" />
    <glyph glyph-name=".notdef" horiz-adv-x="500" 
d="M410 800v-1000h-317v1000h317zM333 733h-165v-33h65v-37h-66v-33h166v33h-66v37h66v33zM267 604h-100v-104h166v34h-66v70zM233 570v-36h-33v36h33zM333 473h-166v-33h66v-37h-66v-33h100v70h66v33zM333 413h-33v-66h-133v-34h166v100zM333 291h-100v-56h34v23h33v-47
h-100v80h-33v-113h166v113zM333 118h-166v-113h166v113zM300 85v-47h-100v47h100zM333 -18h-166v-33h70l-70 -47v-33h166v33h-102l70 47h32v33z" />
    <glyph glyph-name=".null" horiz-adv-x="0" 
 />
    <glyph glyph-name="nonmarkingreturn" horiz-adv-x="333" 
 />
    <glyph glyph-name="space" unicode=" " horiz-adv-x="250" 
 />
    <glyph glyph-name="exclam" unicode="!" horiz-adv-x="230" 
d="M80 190l39 310l35 200h80l-35 -200l-69 -310h-50zM69 -10q-23 0 -36 16.5t-9 39.5t21.5 38.5t42.5 15.5q23 0 36.5 -16.5t9.5 -39.5q-5 -24 -22 -39t-43 -15z" />
    <glyph glyph-name="quotedbl" unicode="&#x22;" horiz-adv-x="310" 
d="M104 500l25 200h70l-45 -200h-50zM244 500l25 200h70l-45 -200h-50z" />
    <glyph glyph-name="numbersign" unicode="#" horiz-adv-x="599" 
d="M587 410h-118l-42 -120h120l-20 -60h-120l-62 -180h-64l62 180h-132l-62 -180h-64l62 180h-120l20 60h120l42 120h-122l21 60h121l62 180h64l-62 -180h132l62 180h64l-62 -180h119zM363 290l42 120h-132l-42 -120h132z" />
    <glyph glyph-name="dollar" unicode="$" horiz-adv-x="561" 
d="M344 376q86 -38 118 -68q61 -56 44 -144q-16 -81 -80 -126t-150 -50l-16 -88h-60l16 90q-74 9 -124 48t-71 102l63 31q29 -100 144 -113l48 272q-14 6 -24.5 11l-24.5 12t-24.5 14l-23 16t-21 18.5l-17.5 20.5t-14 24t-8 27.5t-3 31.5t4 35q17 82 83 126.5t140 45.5
l16 88h60l-16 -93q108 -22 152 -126l-63 -31q-36 73 -101 89zM190 533q-10 -50 16.5 -78.5t81.5 -53.5l43 243q-49 -4 -89.5 -33t-51.5 -78zM436 172q11 51 -17.5 80t-86.5 54l-44 -249q58 6 98 36.5t50 78.5z" />
    <glyph glyph-name="percent" unicode="%" horiz-adv-x="710" 
d="M243 412q-64 0 -101 45.5t-26 108.5t62 104.5t118 41.5q64 0 100.5 -45.5t25.5 -108.5t-61 -104.5t-118 -41.5zM253 472q39 0 68.5 26t36.5 64t-13.5 64t-59.5 26t-68.5 -26t-36.5 -64t13.5 -64t59.5 -26zM66 96l562 527l43 -26l-563 -527zM451 -12q-64 0 -101 45.5
t-26 108.5t62 104.5t118 41.5q64 0 100.5 -45.5t25.5 -108.5t-61.5 -104.5t-117.5 -41.5zM461 48q39 0 68.5 26t36.5 64t-13.5 64t-59.5 26t-69 -26t-36 -64t14 -64t59 -26z" />
    <glyph glyph-name="ampersand" unicode="&#x26;" horiz-adv-x="663" 
d="M594 272q-30 -84 -80 -147l83 -107l-61 -30l-67 87q-96 -87 -219 -87q-104 0 -160 58t-39 153q24 129 174 194q-40 67 -28 141q13 80 74.5 129t146.5 49q73 0 124.5 -37.5t72.5 -101.5l-61 -33q-13 49 -50.5 76.5t-87.5 27.5q-54 0 -97 -30.5t-52 -85.5q-11 -67 42 -137
l165 -214q41 55 66 131zM255 56q98 0 174 70l-164 213q-125 -47 -144 -146q-11 -63 25.5 -100t108.5 -37z" />
    <glyph glyph-name="quotesingle" unicode="'" horiz-adv-x="170" 
d="M104 500l25 200h70l-45 -200h-50z" />
    <glyph glyph-name="parenleft" unicode="(" horiz-adv-x="267" 
d="M109 -100q-71 221 -30 456q39 223 189 444h66q-149 -219 -189 -450t30 -450h-66z" />
    <glyph glyph-name="parenright" unicode=")" horiz-adv-x="266" 
d="M193 800q71 -221 30 -456q-39 -223 -189 -444h-66q149 219 189 450t-30 450h66z" />
    <glyph glyph-name="asterisk" unicode="*" horiz-adv-x="393" 
d="M396 610l-10 -56l-91 3l39 -75l-53 -30l-32 81l-60 -81l-49 30l65 75l-91 -3l10 56l90 -3l-39 75l54 30l31 -81l61 81l48 -30l-65 -75z" />
    <glyph glyph-name="plus" unicode="+" horiz-adv-x="540" 
d="M503 382l-11 -64h-178l-31 -178h-64l31 178h-178l11 64h179l31 178h64l-31 -178h177z" />
    <glyph glyph-name="comma" unicode="," horiz-adv-x="240" 
d="M151 85l-100 -225h-60l80 225h80z" />
    <glyph glyph-name="hyphen" unicode="-" horiz-adv-x="520" 
d="M85 277l11 64h360l-11 -64h-360z" />
    <glyph glyph-name="period" unicode="." horiz-adv-x="230" 
d="M69 -10q-23 0 -36 16.5t-9 39.5t21.5 38.5t42.5 15.5q23 0 36.5 -16.5t9.5 -39.5q-5 -24 -22 -39t-43 -15z" />
    <glyph glyph-name="slash" unicode="/" horiz-adv-x="530" 
d="M31 -100h-53l556 900h53z" />
    <glyph glyph-name="zero" unicode="0" horiz-adv-x="633" 
d="M270 -12q-121 0 -175.5 103t-25.5 267q29 166 113.5 260t215.5 94q121 0 175.5 -103t25.5 -267q-29 -166 -113.5 -260t-215.5 -94zM282 56q92 0 157 77t90 217t-13 217t-130 77t-157 -77t-90 -217t13 -217t130 -77z" />
    <glyph glyph-name="one" unicode="1" horiz-adv-x="340" 
d="M279 700h60l-123 -700h-70l109 622v-1l-165 -47l-7 62z" />
    <glyph glyph-name="two" unicode="2" horiz-adv-x="525" 
d="M-4 0l11 63l297 254q125 106 140 185q13 67 -22.5 104.5t-93.5 37.5q-102 0 -172 -100l-55 36q90 132 235 132q86 0 141 -60t37 -158q-11 -61 -52.5 -113.5t-114.5 -113.5l-236 -199h342l-12 -68h-445z" />
    <glyph glyph-name="three" unicode="3" horiz-adv-x="530" 
d="M538 700l-11 -66l-200 -226q79 -13 124 -68.5t30 -142.5q-18 -99 -94.5 -154t-174.5 -55q-78 0 -132.5 36t-71.5 103l60 33q25 -104 152 -104q72 0 125.5 38.5t65.5 108.5t-27.5 108.5t-111.5 38.5h-20l-23 48l210 236h-322l11 66h410z" />
    <glyph glyph-name="four" unicode="4" 
d="M547 206l-11 -66h-90l-25 -140h-70l25 140h-370l11 66l347 494h80l-347 -494h290l38 214h70l-38 -214h90z" />
    <glyph glyph-name="five" unicode="5" horiz-adv-x="545" 
d="M547 634h-311l-54 -216h117q90 0 152 -61t45 -160q-18 -100 -93.5 -154.5t-175.5 -54.5q-78 0 -134.5 38.5t-72.5 110.5l62 33q9 -56 50 -85t103 -29q72 0 125.5 38.5t65.5 108.5t-27.5 108.5t-111.5 38.5h-190l86 350h375z" />
    <glyph glyph-name="six" unicode="6" horiz-adv-x="531" 
d="M300 450q101 0 156.5 -67.5t37.5 -169.5q-19 -103 -93.5 -164t-181.5 -61q-101 0 -156.5 67.5t-36.5 169.5q15 86 73 144l279 331h85l-215 -254q23 4 52 4zM424 219q13 74 -24 118.5t-112 44.5t-127 -44.5t-65 -118.5q-14 -74 23 -118.5t112 -44.5t127 44.5t66 118.5z
" />
    <glyph glyph-name="seven" unicode="7" horiz-adv-x="490" 
d="M99 700h430l-11 -66l-372 -634h-77l372 634h-353z" />
    <glyph glyph-name="eight" unicode="8" horiz-adv-x="550" 
d="M532 512q-18 -102 -120 -154q48 -26 71.5 -71.5t14.5 -102.5q-17 -95 -92 -145.5t-178 -50.5q-95 0 -155 57t-43 151q9 58 48.5 101.5t98.5 66.5q-85 58 -67 160q17 93 87.5 140.5t158.5 47.5q82 0 137.5 -53.5t38.5 -146.5zM462 518q11 64 -24 95t-94 31t-106 -31.5
t-58 -94.5q-11 -60 26 -93t93 -33q61 0 106.5 32.5t56.5 93.5zM428 190q11 64 -30 99t-111 35q-72 0 -124 -34.5t-63 -99.5q-12 -65 28 -99.5t112 -34.5q74 0 125 34.5t63 99.5z" />
    <glyph glyph-name="nine" unicode="9" horiz-adv-x="533" 
d="M348 712q101 0 156.5 -68t37.5 -171q-15 -85 -72 -142l-279 -331h-85l214 254q-36 -4 -54 -4q-101 0 -156.5 68t-37.5 171q18 102 93.5 162.5t182.5 60.5zM142 481q-13 -74 24 -118.5t112 -44.5q76 0 128.5 44.5t65.5 118.5t-24 118.5t-112 44.5q-76 0 -128.5 -44.5
t-65.5 -118.5z" />
    <glyph glyph-name="colon" unicode=":" horiz-adv-x="230" 
d="M141 400q-23 0 -36 16.5t-9 39.5t21.5 38.5t42.5 15.5q23 0 36.5 -16.5t9.5 -39.5q-5 -24 -22 -39t-43 -15zM69 -10q-23 0 -36 16.5t-9 39.5t21.5 38.5t42.5 15.5q23 0 36.5 -16.5t9.5 -39.5q-5 -24 -22 -39t-43 -15z" />
    <glyph glyph-name="semicolon" unicode=";" horiz-adv-x="246" 
d="M157 400q-23 0 -36 16.5t-9 39.5t21.5 38.5t42.5 15.5q23 0 36.5 -16.5t9.5 -39.5q-5 -24 -22 -39t-43 -15zM151 85l-100 -225h-60l80 225h80z" />
    <glyph glyph-name="less" unicode="&#x3c;" horiz-adv-x="520" 
d="M515 560l-14 -78l-348 -136l300 -136l-12 -70l-369 175l12 70z" />
    <glyph glyph-name="equal" unicode="=" horiz-adv-x="540" 
d="M90 418l11 64h420l-11 -64h-420zM54 218l12 64h420l-12 -64h-420z" />
    <glyph glyph-name="greater" unicode="&#x3e;" horiz-adv-x="520" 
d="M115 560l368 -175l-12 -70l-430 -175l14 78l347 136l-299 136z" />
    <glyph glyph-name="question" unicode="?" horiz-adv-x="531" 
d="M199 190q9 49 35.5 89.5t59.5 68.5l65.5 54t58 57.5t31.5 67.5q10 58 -24 87.5t-95 29.5q-51 0 -95 -25.5t-69 -77.5l-59 35q35 67 98.5 101.5t136.5 34.5q83 0 138 -52t39 -139q-7 -43 -33.5 -79.5t-59.5 -63l-66 -53t-58.5 -61t-32.5 -74.5h-70zM199 -10
q-23 0 -36 16.5t-9 39.5t21.5 38.5t42.5 15.5q23 0 36.5 -16.5t9.5 -39.5q-5 -24 -22 -39t-43 -15z" />
    <glyph glyph-name="at" unicode="@" horiz-adv-x="795" 
d="M469 612q102 0 174.5 -53t100.5 -132t13 -163q-19 -106 -69 -156t-111 -50q-39 0 -65.5 21t-30.5 63q-52 -52 -121 -52q-67 0 -106.5 48.5t-27.5 115.5q12 68 65 112t125 44q63 0 97 -52l8 45h62l-38 -216q-16 -96 48 -96q44 0 81 43.5t53 135.5q23 134 -52.5 224
t-210.5 90q-141 0 -254 -93.5t-138 -236.5q-26 -145 57.5 -241.5t234.5 -96.5q101 0 179 29l-5 -30q-79 -27 -179 -27q-162 0 -253.5 107t-63.5 265q26 150 148.5 251t278.5 101zM374 150q43 0 77.5 27.5t42.5 72.5t-16.5 72.5t-67.5 27.5t-78.5 -27.5t-43.5 -72.5
t17.5 -72.5t68.5 -27.5z" />
    <glyph glyph-name="A" unicode="A" horiz-adv-x="630" 
d="M504 0l-34 172h-332l-96 -172h-76l392 700h72l146 -700h-72zM174 238h283l-74 375z" />
    <glyph glyph-name="B" unicode="B" horiz-adv-x="620" 
d="M595 507q-15 -97 -107 -146q45 -23 67.5 -68.5t13.5 -102.5q-12 -79 -76 -134.5t-152 -55.5h-305l123 700h267q82 0 131.5 -57t37.5 -136zM526 512q9 51 -20.5 86.5t-81.5 35.5h-207l-42 -244h211q49 0 90 35.5t50 86.5zM500 195q9 53 -20.5 91t-81.5 38h-235l-45 -258
h229q56 0 100 38t53 91z" />
    <glyph glyph-name="C" unicode="C" horiz-adv-x="745" 
d="M360 -12q-158 0 -243 110t-58 262q27 151 145 251.5t267 100.5q102 0 176 -46.5t111 -127.5l-62 -33q-63 139 -226 139q-128 0 -225 -85t-118 -209q-21 -126 47 -210t194 -84q81 0 151.5 38t115.5 105l59 -37q-56 -80 -145 -127t-189 -47z" />
    <glyph glyph-name="D" unicode="D" horiz-adv-x="722" 
d="M429 700q139 0 217 -106.5t52 -253.5q-26 -146 -135.5 -243t-256.5 -97h-270l123 700h270zM630 350q21 120 -38 202t-174 82h-201l-99 -568h200q115 0 203 82t109 202z" />
    <glyph glyph-name="E" unicode="E" horiz-adv-x="530" 
d="M553 634h-336l-43 -248h310l-12 -66h-310l-44 -254h340l-12 -66h-410l123 700h405z" />
    <glyph glyph-name="F" unicode="F" horiz-adv-x="515" 
d="M542 634h-325l-45 -258h310l-12 -66h-310l-54 -310h-70l123 700h395z" />
    <glyph glyph-name="G" unicode="G" horiz-adv-x="790" 
d="M764 333l-6 -35q-23 -131 -128.5 -220.5t-255.5 -89.5q-166 0 -254 110.5t-60 266.5q27 150 145 248.5t271 98.5q101 0 174.5 -46t113.5 -128l-62 -33q-70 139 -228 139q-131 0 -228 -83t-118 -208q-22 -126 46 -211.5t203 -85.5q114 0 195.5 60t108.5 151h-279l12 66
h350z" />
    <glyph glyph-name="H" unicode="H" horiz-adv-x="680" 
d="M609 700h70l-123 -700h-70l57 327h-380l-57 -327h-70l123 700h70l-54 -307h380z" />
    <glyph glyph-name="I" unicode="I" horiz-adv-x="230" 
d="M159 700h70l-123 -700h-70z" />
    <glyph glyph-name="J" unicode="J" horiz-adv-x="553" 
d="M215 -12q-157 0 -199 124l63 34q27 -90 141 -90q72 0 121 35t62 107l88 502h70l-88 -504q-19 -107 -91 -157.5t-167 -50.5z" />
    <glyph glyph-name="K" unicode="K" horiz-adv-x="578" 
d="M641 700l-397 -345l280 -355h-83l-274 346l-61 -346h-70l123 700h70l-56 -322l374 322h94z" />
    <glyph glyph-name="L" unicode="L" horiz-adv-x="490" 
d="M118 66h320l-12 -66h-390l123 700h70z" />
    <glyph glyph-name="M" unicode="M" horiz-adv-x="800" 
d="M799 700l-123 -700h-70l103 589l-312 -405h-10l-176 416l-105 -600h-70l123 700h82l166 -394l304 394h88z" />
    <glyph glyph-name="N" unicode="N" horiz-adv-x="680" 
d="M36 0l123 700h54l297 -569l99 569h70l-123 -700h-54l-296 569l-100 -569h-70z" />
    <glyph glyph-name="O" unicode="O" horiz-adv-x="808" 
d="M360 -12q-151 0 -239.5 110.5t-61.5 261.5q26 151 145.5 251.5t275.5 100.5q100 0 176 -52.5t110 -139t17 -185.5q-27 -151 -146 -249t-277 -98zM372 56q128 0 223.5 82.5t117.5 206.5q21 124 -48.5 211.5t-196.5 87.5q-126 0 -222 -85t-117 -209q-22 -123 47.5 -208.5
t195.5 -85.5z" />
    <glyph glyph-name="P" unicode="P" horiz-adv-x="589" 
d="M404 700q99 0 150.5 -63t35.5 -157q-16 -95 -90 -157.5t-189 -62.5h-159l-46 -260h-70l123 700h245zM522 490q11 66 -23 105t-102 39h-180l-54 -308h156q83 0 137 46.5t66 117.5z" />
    <glyph glyph-name="Q" unicode="Q" horiz-adv-x="813" 
d="M783 335q-27 -151 -146 -249l58 -70l-50 -43l-63 75q-103 -60 -222 -60q-151 0 -239.5 110.5t-61.5 261.5q26 151 145.5 251.5t275.5 100.5q100 0 176 -52.5t110 -139t17 -185.5zM539 99l-128 153l51 43l132 -158q96 82 119 208q21 124 -48.5 211.5t-196.5 87.5
q-126 0 -222 -85t-117 -209q-22 -123 47.5 -208.5t195.5 -85.5q89 0 167 43z" />
    <glyph glyph-name="R" unicode="R" horiz-adv-x="610" 
d="M439 700q83 0 136 -66.5t37 -153.5q-12 -70 -63 -122.5t-122 -69.5l119 -288h-73l-115 280h-203l-49 -280h-70l123 700h280zM544 490q11 60 -23.5 102t-92.5 42h-211l-50 -288h210q59 0 107.5 42.5t59.5 101.5z" />
    <glyph glyph-name="S" unicode="S" horiz-adv-x="584" 
d="M267 -12q-97 0 -160 45t-83 126l61 32q12 -63 58.5 -99t125.5 -36q74 0 124 31t62 85q16 75 -71 118q-26 13 -84 33q-43 15 -72.5 29.5t-62 40t-45 62.5t-2.5 85q17 84 85.5 128t151.5 44q87 0 140.5 -42t76.5 -107l-62 -32q-37 113 -159 113q-58 0 -105 -29t-58 -82
q-7 -32 2 -56.5t36 -42.5t50 -28.5t64 -24.5q103 -37 143 -75q58 -56 41 -142t-88 -131t-169 -45z" />
    <glyph glyph-name="T" unicode="T" horiz-adv-x="540" 
d="M599 700l-11 -66h-216l-111 -634h-70l111 634h-214l11 66h500z" />
    <glyph glyph-name="U" unicode="U" horiz-adv-x="660" 
d="M294 -12q-118 0 -181.5 69.5t-44.5 180.5l81 462h70l-81 -462q-15 -83 26 -132.5t130 -49.5q91 0 150.5 50.5t73.5 131.5l81 462h70l-81 -462q-21 -117 -101 -183.5t-193 -66.5z" />
    <glyph glyph-name="V" unicode="V" horiz-adv-x="608" 
d="M224 0l-135 700h70l112 -611l328 611h78l-381 -700h-72z" />
    <glyph glyph-name="W" unicode="W" horiz-adv-x="1000" 
d="M189 0l-80 700h69l68 -608l289 608h82l76 -608l282 608h74l-326 -700h-84l-76 608l-290 -608h-84z" />
    <glyph glyph-name="X" unicode="X" horiz-adv-x="580" 
d="M624 700l-277 -342l169 -358h-72l-142 302l-244 -302h-82l296 366l-158 334h72l131 -278l225 278h82z" />
    <glyph glyph-name="Y" unicode="Y" horiz-adv-x="575" 
d="M644 700l-309 -374l-57 -326h-70l57 327l-176 373h72l146 -309l255 309h82z" />
    <glyph glyph-name="Z" unicode="Z" horiz-adv-x="520" 
d="M559 700l-11 -66l-461 -568h371l-12 -66h-450l12 66l460 568h-350l11 66h430z" />
    <glyph glyph-name="bracketleft" unicode="[" horiz-adv-x="280" 
d="M346 736h-134l-137 -772h135l-12 -64h-200l159 900h200z" />
    <glyph glyph-name="backslash" unicode="\" horiz-adv-x="530" 
d="M378 -100l-241 900h50l241 -900h-50z" />
    <glyph glyph-name="bracketright" unicode="]" horiz-adv-x="280" 
d="M317 800l-159 -900h-200l12 64h133l137 772h-134l11 64h200z" />
    <glyph glyph-name="asciicircum" unicode="^" horiz-adv-x="500" 
d="M362 700l124 -300h-72l-93 227l-173 -227h-82l228 300h68z" />
    <glyph glyph-name="underscore" unicode="_" horiz-adv-x="520" 
d="M-29 -141l11 64h440l-11 -64h-440z" />
    <glyph glyph-name="grave" unicode="`" horiz-adv-x="201" 
d="M237 570l-58 130h-80l74 -130h64z" />
    <glyph glyph-name="a" unicode="a" horiz-adv-x="638" 
d="M546 500h66l-88 -500h-66l15 85q-81 -97 -217 -97q-105 0 -169 81t-45 191q21 120 103.5 186t182.5 66q65 0 119 -30.5t80 -87.5zM272 52q82 0 147 52.5t81 133.5l2 12q14 92 -37.5 145t-131.5 53q-78 0 -143.5 -51t-81.5 -142q-14 -84 33 -143.5t131 -59.5z" />
    <glyph glyph-name="b" unicode="b" horiz-adv-x="636" 
d="M384 512q104 0 167.5 -77.5t44.5 -186.5q-20 -112 -104.5 -186t-199.5 -74q-63 0 -110.5 31.5t-71.5 85.5l-18 -105h-66l123 700h66l-51 -291q85 103 220 103zM530 255q15 83 -31.5 138t-130.5 55q-83 0 -150 -57.5t-82 -140.5q-14 -83 32.5 -140.5t129.5 -57.5
q86 0 151.5 59t80.5 144z" />
    <glyph glyph-name="c" unicode="c" horiz-adv-x="553" 
d="M258 -12q-109 0 -172.5 80.5t-43.5 192.5q19 110 105 180.5t198 70.5q73 0 128 -35t76 -95l-57 -29q-16 44 -56 69.5t-97 25.5q-85 0 -150.5 -55.5t-80.5 -138.5q-14 -85 31 -143.5t130 -58.5q57 0 105.5 27t77.5 73l53 -35q-38 -61 -103 -95t-144 -34z" />
    <glyph glyph-name="d" unicode="d" horiz-adv-x="638" 
d="M581 700h66l-123 -700h-66l15 85q-81 -97 -217 -97q-105 0 -169 81t-45 191q21 120 103.5 186t182.5 66q65 0 119 -30.5t80 -87.5zM272 52q82 0 146.5 52.5t81.5 132.5l2 16q13 91 -38 143t-131 52q-78 0 -143.5 -51t-81.5 -142q-14 -84 33 -143.5t131 -59.5z" />
    <glyph glyph-name="e" unicode="e" horiz-adv-x="584" 
d="M339 512q113 0 172.5 -78t37.5 -186q-3 -18 -8 -31h-437q-3 -76 42.5 -120.5t124.5 -44.5q115 0 177 86l52 -34q-36 -55 -101.5 -85.5t-136.5 -30.5q-116 0 -178 78t-42 194q19 110 103.5 181t193.5 71zM114 281h372q6 82 -36 124.5t-115 42.5q-79 0 -138.5 -45.5
t-82.5 -121.5z" />
    <glyph glyph-name="f" unicode="f" horiz-adv-x="321" 
d="M158 520q18 101 80.5 150.5t163.5 41.5l-12 -64q-141 13 -166 -128l-4 -20h144l-11 -64h-144l-77 -436h-66l77 436h-85l11 64h85z" />
    <glyph glyph-name="g" unicode="g" horiz-adv-x="639" 
d="M546 500h66l-84 -480q-20 -111 -98 -171.5t-189 -60.5q-79 0 -136 32t-84 90l59 30q36 -88 164 -88q91 0 147.5 44t70.5 124l12 67q-82 -99 -211 -99q-113 0 -175.5 79t-45.5 193q17 115 101.5 183.5t184.5 68.5q64 0 118.5 -30.5t80.5 -87.5zM501 243v2l1 5
q15 91 -38 144.5t-131 53.5t-144.5 -52.5t-80.5 -140.5q-14 -87 33.5 -145t133.5 -58q81 0 145 52.5t81 138.5z" />
    <glyph glyph-name="h" unicode="h" horiz-adv-x="558" 
d="M345 512q91 0 136 -56t29 -149l-54 -307h-66l54 307q11 68 -16.5 104.5t-94.5 36.5q-71 0 -123.5 -44t-70.5 -135l-47 -269h-66l123 700h66l-47 -270q69 82 177 82z" />
    <glyph glyph-name="i" unicode="i" horiz-adv-x="206" 
d="M165 606q-20 0 -31 14t-8 34t19 34t37 14q20 0 32 -14t8 -34t-19.5 -34t-37.5 -14zM26 0l88 500h66l-88 -500h-66z" />
    <glyph glyph-name="j" unicode="j" horiz-adv-x="230" 
d="M206 702q20 0 32 -14t8 -34t-19.5 -34t-37.5 -14q-20 0 -31 14t-8 34t19 34t37 14zM43 -40l95 540h66l-95 -540q-17 -100 -69.5 -140t-140.5 -32l11 64q57 -6 89.5 19.5t43.5 88.5z" />
    <glyph glyph-name="k" unicode="k" horiz-adv-x="494" 
d="M508 500l-302 -240l224 -260h-80l-214 249l-44 -249h-66l123 700h66l-73 -418l274 218h92z" />
    <glyph glyph-name="l" unicode="l" horiz-adv-x="207" 
d="M27 0l52 299l76 431h66l-76 -431l-52 -299h-66z" />
    <glyph glyph-name="m" unicode="m" horiz-adv-x="848" 
d="M648 512q79 0 124 -54t29 -146l-55 -312h-66l55 312q11 65 -16 100.5t-84 35.5q-59 0 -103.5 -38t-61.5 -120l-51 -290h-66l55 312q11 66 -14 101t-79 35q-60 0 -108 -39.5t-65 -121.5l-50 -287h-66l88 500h66l-11 -65q67 77 163 77q50 0 86 -24t51 -69q70 93 179 93z
" />
    <glyph glyph-name="n" unicode="n" horiz-adv-x="558" 
d="M345 512q91 0 136 -56t29 -149l-54 -307h-66l54 307q11 68 -16.5 104.5t-94.5 36.5q-70 0 -122.5 -43t-70.5 -133l-48 -272h-66l88 500h66l-12 -70q68 82 177 82z" />
    <glyph glyph-name="o" unicode="o" horiz-adv-x="607" 
d="M263 -12q-106 0 -174.5 73t-47.5 194t112.5 189t197.5 68q103 0 169.5 -73.5t45.5 -192.5q-14 -84 -63 -144t-110.5 -87t-129.5 -27zM269 52q80 0 148 53t84 148q16 91 -33.5 143t-128.5 52q-80 -1 -147.5 -53t-84.5 -145q-16 -94 33.5 -146.5t128.5 -51.5z" />
    <glyph glyph-name="p" unicode="p" horiz-adv-x="638" 
d="M382 512q105 0 169 -81t45 -191q-21 -120 -103.5 -186t-182.5 -66q-65 0 -119 30.5t-80 87.5l-54 -306h-66l123 700h66l-15 -85q81 97 217 97zM530 245q14 84 -33 143.5t-131 59.5q-82 0 -146.5 -52.5t-81.5 -132.5l-2 -16q-13 -91 38 -143t131 -52q78 0 143.5 51
t81.5 142z" />
    <glyph glyph-name="q" unicode="q" horiz-adv-x="638" 
d="M546 500h66l-123 -700h-66l50 286q-82 -98 -217 -98q-105 0 -169 81t-45 191q21 120 103.5 186t182.5 66q65 0 119.5 -30.5t79.5 -87.5zM272 52q81 0 145.5 51.5t81.5 130.5l4 19q12 90 -39.5 142.5t-130.5 52.5q-78 0 -143.5 -51t-81.5 -142q-14 -84 33 -143.5
t131 -59.5z" />
    <glyph glyph-name="r" unicode="r" horiz-adv-x="315" 
d="M168 430q67 85 172 78l-12 -64q-68 0 -120 -40t-67 -126l-49 -278h-66l88 500h66z" />
    <glyph glyph-name="s" unicode="s" horiz-adv-x="475" 
d="M205 -12q-73 0 -119 33t-61 86l59 31q8 -38 41.5 -62t84.5 -24t85 21t41 58q5 28 -13 48t-49 29.5t-66.5 23t-65 28t-46 45.5t-8.5 74q10 56 61 94.5t122 38.5q125 0 169 -102l-58 -31q-11 35 -42 52t-71 17t-74 -19.5t-41 -58.5q-6 -33 20.5 -53.5t67 -33t80.5 -28
t64.5 -49t15.5 -84.5q-11 -63 -63.5 -98.5t-133.5 -35.5z" />
    <glyph glyph-name="t" unicode="t" horiz-adv-x="376" 
d="M224 436l-53 -303q-7 -41 6.5 -59t45.5 -18t79 2l-10 -58q-216 -33 -187 133l54 303h-106l12 64h105l21 120l69 20l-25 -140h145l-12 -64h-144z" />
    <glyph glyph-name="u" unicode="u" horiz-adv-x="558" 
d="M466 500h66l-88 -500h-66l12 70q-68 -82 -177 -82q-91 0 -136 56t-29 149l54 307h66l-54 -307q-11 -68 16.5 -104.5t94.5 -36.5q70 0 122.5 43t70.5 133z" />
    <glyph glyph-name="v" unicode="v" horiz-adv-x="470" 
d="M430 500h74l-273 -500h-80l-97 500h67l79 -428z" />
    <glyph glyph-name="w" unicode="w" horiz-adv-x="770" 
d="M713 500h71l-242 -500h-72l-58 403l-200 -403h-72l-66 500h65l50 -415l204 415h67l-1 -2l58 -413z" />
    <glyph glyph-name="x" unicode="x" horiz-adv-x="510" 
d="M521 500l-225 -245l150 -255h-74l-122 206l-189 -206h-85l241 262l-140 238h74l111 -189l174 189h85z" />
    <glyph glyph-name="y" unicode="y" horiz-adv-x="510" 
d="M470 500h74l-310 -546q-45 -79 -104 -119t-125 -35l11 62q83 -9 151 104l21 35l-134 499h67l111 -425z" />
    <glyph glyph-name="z" unicode="z" horiz-adv-x="450" 
d="M454 500l-8 -44l-344 -392h285l-11 -64h-380l8 44l344 392h-265l11 64h360z" />
    <glyph glyph-name="braceleft" unicode="{" horiz-adv-x="355" 
d="M271 -108q-88 -8 -127 34t-24 128l29 167q11 60 -10 79t-77 19l12 64q56 0 83 19t38 79l29 167q17 94 69 132t140 30l-11 -64q-60 6 -90.5 -15t-41.5 -83l-29 -167q-11 -61 -35.5 -92t-65.5 -43q73 -23 55 -125l-29 -167q-12 -62 11.5 -83t84.5 -15z" />
    <glyph glyph-name="bar" unicode="|" horiz-adv-x="226" 
d="M1 -200l162 920h66l-162 -920h-66z" />
    <glyph glyph-name="braceright" unicode="}" horiz-adv-x="355" 
d="M119 810q88 8 127 -34t24 -128l-29 -167q-11 -60 10 -79t77 -19l-12 -64q-56 0 -83 -19t-38 -79l-29 -167q-17 -94 -69 -132t-140 -30l11 64q60 -6 90.5 15t41.5 83l29 167q11 61 35.5 92t65.5 43q-73 23 -55 125l29 167q12 62 -11.5 83t-84.5 15z" />
    <glyph glyph-name="asciitilde" unicode="~" horiz-adv-x="594" 
d="M126 286l-55 28q36 87 106 105.5t158 -41.5q44 -31 76.5 -34.5t53 14t38.5 56.5l55 -28q-36 -87 -104.5 -105.5t-158.5 41.5q-44 31 -76.5 34.5t-54 -14.5t-38.5 -56z" />
    <glyph glyph-name="exclamdown" unicode="&#xa1;" horiz-adv-x="230" 
d="M161 510q23 0 36 -16.5t9 -39.5t-21.5 -38.5t-42.5 -15.5q-23 0 -36.5 16.5t-9.5 39.5q5 24 22 39t43 15zM150 310l-39 -310l-35 -200h-80l35 200l69 310h50z" />
    <glyph glyph-name="cent" unicode="&#xa2;" horiz-adv-x="554" 
d="M287 152q57 0 105.5 27t77.5 73l53 -35q-38 -61 -103 -95t-144 -34q-31 0 -63 8l-47 -96h-54l56 114q-62 34 -92 101t-16 146q19 110 105 180.5t198 70.5q28 0 48 -4l46 92h54l-52 -106q81 -35 108 -112l-57 -29q-22 60 -80 82l-187 -378q23 -5 44 -5zM126 354
q-10 -58 9.5 -106t62.5 -73l183 372q-7 1 -24 1q-85 0 -150.5 -55.5t-80.5 -138.5z" />
    <glyph glyph-name="sterling" unicode="&#xa3;" horiz-adv-x="585" 
d="M211 289l-39 -221h366l-12 -68h-530l12 68h94l39 221h-74l11 62h74l27 151q18 104 79 157t149 53q64 0 112 -36t68 -98l-58 -30q-36 96 -130 96q-56 0 -97 -35t-53 -107l-27 -151h231l-11 -62h-231z" />
    <glyph glyph-name="currency" unicode="&#xa4;" horiz-adv-x="552" 
d="M566 554l-84 -72q38 -59 25 -136q-13 -75 -69 -131l56 -69l-38 -32l-57 69q-67 -45 -143 -45q-71 0 -121 45l-83 -70l-30 33l84 72q-38 59 -25 136q13 75 69 132l-56 68l37 32l58 -69q64 45 142 45q73 0 122 -46l83 71zM441 350q11 62 -24 105t-97 43t-112.5 -43
t-60.5 -105q-11 -62 24 -105t97 -43t112 43t61 105z" />
    <glyph glyph-name="yen" unicode="&#xa5;" horiz-adv-x="575" 
d="M644 700l-292 -353h168l-10 -58h-181l-11 -60h181l-10 -58h-181l-30 -171h-70l30 171h-179l10 58h179l11 60h-179l10 58h166l-167 353h72l146 -309l255 309h82z" />
    <glyph glyph-name="brokenbar" unicode="&#xa6;" horiz-adv-x="226" 
d="M98 350l65 370h66l-65 -370h-66zM1 -200l65 370h66l-65 -370h-66z" />
    <glyph glyph-name="section" unicode="&#xa7;" horiz-adv-x="515" 
d="M350 436q67 -32 102 -74t24 -107q-13 -73 -89 -119q40 -48 29 -109q-11 -63 -63.5 -101t-134.5 -38q-149 0 -198 133l60 32q27 -101 145 -101q50 0 84.5 20.5t41.5 60.5q7 43 -31 72.5t-113 61.5q-146 63 -126 178q13 74 95 122q-36 44 -25 106t62.5 100.5t126.5 38.5
q61 0 106.5 -31.5t65.5 -88.5l-58 -31q-33 87 -121 87q-43 0 -76.5 -20.5t-40.5 -60.5q-4 -23 4.5 -41.5t32.5 -35.5t42 -26.5t55 -27.5zM410 261q7 41 -19 68t-79 50q-66 29 -94 49q-63 -33 -71 -89q-11 -73 95 -115q65 -27 101 -50q59 35 67 87z" />
    <glyph glyph-name="dieresis" unicode="&#xa8;" horiz-adv-x="320" 
d="M123 575q-19 0 -30 13t-7 32q3 19 18.5 32t34.5 13t29.5 -13t7.5 -32q-4 -19 -19 -32t-34 -13zM313 575q-19 0 -30 13t-7 32q3 19 18.5 32t34.5 13t29.5 -13t7.5 -32q-4 -19 -19 -32t-34 -13z" />
    <glyph glyph-name="copyright" unicode="&#xa9;" horiz-adv-x="804" 
d="M356 -12q-148 0 -236 109t-61 259q26 150 149.5 253t275.5 103q148 0 235.5 -109t61.5 -259q-27 -150 -150 -253t-275 -103zM361 16q139 0 252 97.5t138 236.5q24 139 -55.5 236.5t-216.5 97.5q-139 0 -252.5 -97.5t-137.5 -236.5q-25 -139 55 -236.5t217 -97.5zM389 158
q-79 0 -126.5 59t-33.5 139q14 81 77 133.5t147 52.5q50 0 90.5 -26t61.5 -68l-55 -28q-35 60 -108 60q-57 0 -97.5 -38.5t-50.5 -91.5q-9 -52 19 -91t83 -39q36 0 69.5 16.5t54.5 48.5l51 -34q-31 -43 -79 -68t-103 -25z" />
    <glyph glyph-name="guillemotleft" unicode="&#xab;" horiz-adv-x="497" 
d="M309 489l-145 -185l77 -175h-82l-79 180l142 180h87zM469 489l-145 -185l77 -175h-82l-79 180l142 180h87z" />
    <glyph glyph-name="logicalnot" unicode="&#xac;" horiz-adv-x="520" 
d="M483 382l-31 -180h-66l20 116h-334l11 64h400z" />
    <glyph glyph-name="registered" unicode="&#xae;" horiz-adv-x="804" 
d="M484 712q148 0 235.5 -109t61.5 -259q-27 -150 -150 -253t-275 -103q-148 0 -236 109t-61 259q26 150 149.5 253t275.5 103zM751 350q24 139 -55.5 236.5t-216.5 97.5q-139 0 -252.5 -97.5t-137.5 -236.5q-25 -139 55 -236.5t217 -97.5q139 0 252 97.5t138 236.5z
M460 535q63 0 93.5 -36.5t21.5 -86.5q-14 -81 -88 -105l54 -142h-65l-48 132h-10h-56l-23 -132h-62l65 370h118zM513 416q11 59 -59 59h-61l-20 -118h60q70 0 80 59z" />
    <glyph glyph-name="macron" unicode="&#xaf;" horiz-adv-x="300" 
d="M78 580l10 58h260l-10 -58h-260z" />
    <glyph glyph-name="degree" unicode="&#xb0;" horiz-adv-x="386" 
d="M239 510q-64 0 -100.5 45.5t-25.5 108.5t61.5 104.5t117.5 41.5q64 0 100.5 -45.5t25.5 -108.5q-11 -64 -59 -105t-120 -41zM250 570q39 0 68.5 26t35.5 64q7 38 -13.5 64t-59.5 26t-68 -26t-36 -64q-6 -39 13 -64.5t60 -25.5z" />
    <glyph glyph-name="plusminus" unicode="&#xb1;" horiz-adv-x="541" 
d="M337 447h178l-11 -64h-178l-29 -163h-64l29 163h-178l11 64h178l29 163h64zM32 90l11 64h420l-11 -64h-420z" />
    <glyph glyph-name="acute" unicode="&#xb4;" horiz-adv-x="199" 
d="M76 570h66l116 130h-82z" />
    <glyph glyph-name="uni00B5" unicode="&#xb5;" horiz-adv-x="606" 
d="M474 100q-3 -16 5 -26t25 -10h39l-11 -64h-47q-33 0 -54.5 19t-24.5 51q-68 -82 -177 -82q-89 0 -128 62l-44 -250h-66l123 700h66l-55 -311q-10 -66 18 -101.5t94 -35.5q72 0 125.5 45.5t69.5 140.5l46 262h66z" />
    <glyph glyph-name="paragraph" unicode="&#xb6;" horiz-adv-x="580" 
d="M619 700l-11 -62h-60l-147 -838h-64l147 838h-112l-147 -838h-64l88 500q-83 1 -130.5 61t-33.5 143q15 83 82.5 139.5t151.5 56.5h300z" />
    <glyph glyph-name="periodcentered" unicode="&#xb7;" horiz-adv-x="231" 
d="M123 295q-23 0 -36 16.5t-9 39.5t21.5 38.5t42.5 15.5q23 0 36.5 -16.5t9.5 -39.5q-5 -24 -22 -39t-43 -15z" />
    <glyph glyph-name="cedilla" unicode="&#xb8;" horiz-adv-x="245" 
d="M80 -45q40 -8 61.5 -31.5t16.5 -54.5q-8 -45 -56 -69t-164 -16l10 54q144 -12 152 36q4 21 -19.5 31.5t-66.5 9.5l15 85h59z" />
    <glyph glyph-name="guillemotright" unicode="&#xbb;" horiz-adv-x="498" 
d="M199 489l79 -180l-142 -180h-87l145 185l-77 175h82zM359 489l79 -180l-142 -180h-87l145 185l-77 175h82z" />
    <glyph glyph-name="onequarter" unicode="&#xbc;" horiz-adv-x="821" 
d="M184 628l-95 -27l-7 57l124 42h53l-71 -400h-62zM601 700h65l-518 -700h-65zM780 133l-10 -58h-51l-13 -75h-62l13 75h-206l10 58l196 267h71l-195 -267h134l17 96h62l-17 -96h51z" />
    <glyph glyph-name="onehalf" unicode="&#xbd;" horiz-adv-x="807" 
d="M184 628l-95 -27l-7 57l124 42h53l-71 -400h-62zM601 700h65l-518 -700h-65zM777 286q-9 -59 -87 -122l-129 -104h182l-10 -60h-280l9 51l193 158q53 43 60 80q5 28 -11 45.5t-49 17.5q-53 0 -93 -64l-50 31q24 43 64.5 68t87.5 25q57 0 89 -36t24 -90z" />
    <glyph glyph-name="threequarters" unicode="&#xbe;" horiz-adv-x="927" 
d="M341 411q-10 -57 -55.5 -90t-112.5 -33q-94 0 -127 84l54 28q18 -52 83 -52q40 0 65.5 18.5t30.5 50.5q6 31 -13 50t-58 19h-4l-23 47l104 107h-179l10 60h258l-10 -60l-106 -108q45 -11 68 -44t15 -77zM707 700h65l-518 -700h-65zM886 133l-10 -58h-51l-13 -75h-62
l13 75h-206l10 58l196 267h71l-195 -267h134l17 96h62l-17 -96h51z" />
    <glyph glyph-name="questiondown" unicode="&#xbf;" horiz-adv-x="531" 
d="M332 510q23 0 36 -16.5t9 -39.5t-21.5 -38.5t-42.5 -15.5q-23 0 -36.5 16.5t-9.5 39.5q5 24 22 39t43 15zM332 310q-9 -49 -35.5 -89.5t-59.5 -68.5l-65.5 -54t-58 -57.5t-31.5 -67.5q-10 -58 24 -87.5t95 -29.5q51 0 95 25.5t69 77.5l59 -35q-35 -67 -98.5 -101.5
t-136.5 -34.5q-83 0 -138 52t-39 139q7 43 33.5 79.5t59.5 63l66 53t58.5 61t32.5 74.5h70z" />
    <glyph glyph-name="Agrave" unicode="&#xc0;" horiz-adv-x="630" 
d="M447 770h-64l-74 130h80zM504 0l-34 172h-332l-96 -172h-76l392 700h72l146 -700h-72zM174 238h283l-74 375z" />
    <glyph glyph-name="Aacute" unicode="&#xc1;" horiz-adv-x="630" 
d="M539 900l-116 -130h-66l100 130h82zM504 0l-34 172h-332l-96 -172h-76l392 700h72l146 -700h-72zM174 238h283l-74 375z" />
    <glyph glyph-name="Acircumflex" unicode="&#xc2;" horiz-adv-x="630" 
d="M425 857l-85 -87h-78l128 130h78l84 -130h-72zM504 0l-34 172h-332l-96 -172h-76l392 700h72l146 -700h-72zM174 238h283l-74 375z" />
    <glyph glyph-name="Atilde" unicode="&#xc3;" horiz-adv-x="630" 
d="M412 803q-20 17 -31.5 24.5t-23 8.5t-19 -13t-12.5 -43h-58q10 60 36.5 89t58 27t62.5 -29q16 -14 25.5 -21t20 -11t17 1t12.5 18t10 36h58q-10 -60 -36 -89t-57.5 -27t-62.5 29zM504 0l-34 172h-332l-96 -172h-76l392 700h72l146 -700h-72zM174 238h283l-74 375z" />
    <glyph glyph-name="Adieresis" unicode="&#xc4;" horiz-adv-x="630" 
d="M312 775q-19 0 -30 13t-7 32q3 19 18.5 32t34.5 13t29.5 -13t7.5 -32q-4 -19 -19 -32t-34 -13zM502 775q-19 0 -30 13t-7 32q3 19 18.5 32t34.5 13t29.5 -13t7.5 -32q-4 -19 -19 -32t-34 -13zM504 0l-34 172h-332l-96 -172h-76l392 700h72l146 -700h-72zM174 238h283
l-74 375z" />
    <glyph glyph-name="Aring" unicode="&#xc5;" horiz-adv-x="630" 
d="M504 0l-34 172h-332l-96 -172h-76l375 670q-25 13 -36.5 38t-6.5 55q7 43 41 70t80 27q49 0 73 -30.5t18 -72.5q-11 -65 -73 -88l139 -669h-72zM353 760q-4 -22 7.5 -35.5t34.5 -13.5q24 0 40.5 14t20.5 35q4 22 -8 35.5t-35 13.5q-22 0 -39 -13t-21 -36zM174 238h283
l-74 375z" />
    <glyph glyph-name="AE" unicode="&#xc6;" horiz-adv-x="880" 
d="M903 634h-316l-43 -248h300l-12 -66h-300l-44 -254h320l-12 -66h-390l30 172h-262l-135 -172h-83l187 237v1h1l364 462h406zM226 238h222l64 364z" />
    <glyph glyph-name="Ccedilla" unicode="&#xc7;" horiz-adv-x="745" 
d="M470 644q-128 0 -225 -85t-118 -209q-21 -126 47 -210t194 -84q81 0 151.5 38t115.5 105l59 -37q-52 -75 -133 -121t-174 -52l-6 -34q40 -8 61.5 -31.5t16.5 -54.5q-8 -45 -56 -69t-164 -16l10 54q144 -12 152 36q4 21 -19.5 31.5t-66.5 9.5l13 74q-144 13 -219 120
t-50 251q27 151 145 251.5t267 100.5q102 0 176 -46.5t111 -127.5l-62 -33q-63 139 -226 139z" />
    <glyph glyph-name="Egrave" unicode="&#xc8;" horiz-adv-x="530" 
d="M415 770h-64l-74 130h80zM553 634h-336l-43 -248h310l-12 -66h-310l-44 -254h340l-12 -66h-410l123 700h405z" />
    <glyph glyph-name="Eacute" unicode="&#xc9;" horiz-adv-x="530" 
d="M507 900l-116 -130h-66l100 130h82zM553 634h-336l-43 -248h310l-12 -66h-310l-44 -254h340l-12 -66h-410l123 700h405z" />
    <glyph glyph-name="Ecircumflex" unicode="&#xca;" horiz-adv-x="530" 
d="M393 857l-85 -87h-78l128 130h78l84 -130h-72zM553 634h-336l-43 -248h310l-12 -66h-310l-44 -254h340l-12 -66h-410l123 700h405z" />
    <glyph glyph-name="Edieresis" unicode="&#xcb;" horiz-adv-x="530" 
d="M280 775q-19 0 -30 13t-7 32q3 19 18.5 32t34.5 13t29.5 -13t7.5 -32q-4 -19 -19 -32t-34 -13zM470 775q-19 0 -30 13t-7 32q3 19 18.5 32t34.5 13t29.5 -13t7.5 -32q-4 -19 -19 -32t-34 -13zM553 634h-336l-43 -248h310l-12 -66h-310l-44 -254h340l-12 -66h-410l123 700
h405z" />
    <glyph glyph-name="Igrave" unicode="&#xcc;" horiz-adv-x="230" 
d="M247 770l-58 130h-80l74 -130h64zM159 700h70l-123 -700h-70z" />
    <glyph glyph-name="Iacute" unicode="&#xcd;" horiz-adv-x="230" 
d="M157 770h66l116 130h-82zM159 700h70l-123 -700h-70z" />
    <glyph glyph-name="Icircumflex" unicode="&#xce;" horiz-adv-x="230" 
d="M268 900l84 -130h-72l-55 87l-85 -87h-78l128 130h78zM36 0l123 700h70l-123 -700h-70z" />
    <glyph glyph-name="Idieresis" unicode="&#xcf;" horiz-adv-x="230" 
d="M112 775q-19 0 -30 13t-7 32q3 19 18.5 32t34.5 13t29.5 -13t7.5 -32q-4 -19 -19 -32t-34 -13zM302 775q-19 0 -30 13t-7 32q3 19 18.5 32t34.5 13t29.5 -13t7.5 -32q-4 -19 -19 -32t-34 -13zM159 700h70l-123 -700h-70z" />
    <glyph glyph-name="Eth" unicode="&#xd0;" horiz-adv-x="742" 
d="M449 700q139 0 217 -106.5t52 -253.5q-26 -146 -135.5 -243t-256.5 -97h-270l56 318h-70l11 64h70l56 318h270zM650 350q21 120 -38 202t-174 82h-201l-44 -252h220l-11 -64h-220l-44 -252h200q115 0 203 82t109 202z" />
    <glyph glyph-name="Ntilde" unicode="&#xd1;" horiz-adv-x="680" 
d="M293 780q10 60 36.5 89t58 27t62.5 -29q16 -14 25.5 -21t20 -11t17 1t12.5 18t10 36h58q-10 -60 -36 -89t-57.5 -27t-62.5 29q-20 17 -31.5 24.5t-23 8.5t-19 -13t-12.5 -43h-58zM36 0l123 700h54l297 -569l99 569h70l-123 -700h-54l-296 569l-100 -569h-70z" />
    <glyph glyph-name="Ograve" unicode="&#xd2;" horiz-adv-x="808" 
d="M535 770l-58 130h-80l74 -130h64zM360 -12q-151 0 -239.5 110.5t-61.5 261.5q26 151 145.5 251.5t275.5 100.5q100 0 176 -52.5t110 -139t17 -185.5q-27 -151 -146 -249t-277 -98zM372 56q128 0 223.5 82.5t117.5 206.5q21 124 -48.5 211.5t-196.5 87.5q-126 0 -222 -85
t-117 -209q-22 -123 47.5 -208.5t195.5 -85.5z" />
    <glyph glyph-name="Oacute" unicode="&#xd3;" horiz-adv-x="808" 
d="M445 770h66l116 130h-82zM360 -12q-151 0 -239.5 110.5t-61.5 261.5q26 151 145.5 251.5t275.5 100.5q100 0 176 -52.5t110 -139t17 -185.5q-27 -151 -146 -249t-277 -98zM372 56q128 0 223.5 82.5t117.5 206.5q21 124 -48.5 211.5t-196.5 87.5q-126 0 -222 -85
t-117 -209q-22 -123 47.5 -208.5t195.5 -85.5z" />
    <glyph glyph-name="Ocircumflex" unicode="&#xd4;" horiz-adv-x="808" 
d="M513 857l-85 -87h-78l128 130h78l84 -130h-72zM480 712q100 0 176 -52.5t110 -139t17 -185.5q-27 -151 -146 -249t-277 -98q-151 0 -239.5 110.5t-61.5 261.5q26 151 145.5 251.5t275.5 100.5zM713 345q21 124 -48.5 211.5t-196.5 87.5q-126 0 -222 -85t-117 -209
q-22 -123 47.5 -208.5t195.5 -85.5q128 0 223.5 82.5t117.5 206.5z" />
    <glyph glyph-name="Otilde" unicode="&#xd5;" horiz-adv-x="808" 
d="M356 780q10 60 36.5 89t58 27t62.5 -29q16 -14 25.5 -21t20 -11t17 1t12.5 18t10 36h58q-10 -60 -36 -89t-57.5 -27t-62.5 29q-20 17 -31.5 24.5t-23 8.5t-19 -13t-12.5 -43h-58zM360 -12q-151 0 -239.5 110.5t-61.5 261.5q26 151 145.5 251.5t275.5 100.5
q100 0 176 -52.5t110 -139t17 -185.5q-27 -151 -146 -249t-277 -98zM372 56q128 0 223.5 82.5t117.5 206.5q21 124 -48.5 211.5t-196.5 87.5q-126 0 -222 -85t-117 -209q-22 -123 47.5 -208.5t195.5 -85.5z" />
    <glyph glyph-name="Odieresis" unicode="&#xd6;" horiz-adv-x="808" 
d="M400 775q-19 0 -30 13t-7 32q3 19 18.5 32t34.5 13t29.5 -13t7.5 -32q-4 -19 -19 -32t-34 -13zM590 775q-19 0 -30 13t-7 32q3 19 18.5 32t34.5 13t29.5 -13t7.5 -32q-4 -19 -19 -32t-34 -13zM360 -12q-151 0 -239.5 110.5t-61.5 261.5q26 151 145.5 251.5t275.5 100.5
q100 0 176 -52.5t110 -139t17 -185.5q-27 -151 -146 -249t-277 -98zM372 56q128 0 223.5 82.5t117.5 206.5q21 124 -48.5 211.5t-196.5 87.5q-126 0 -222 -85t-117 -209q-22 -123 47.5 -208.5t195.5 -85.5z" />
    <glyph glyph-name="multiply" unicode="&#xd7;" horiz-adv-x="471" 
d="M464 492l-167 -144l117 -140l-49 -42l-117 140l-163 -140l-42 42l167 144l-117 140l48 42l117 -140l163 140z" />
    <glyph glyph-name="Oslash" unicode="&#xd8;" horiz-adv-x="818" 
d="M726 605q94 -114 67 -270q-27 -151 -146 -249t-277 -98q-117 0 -200 70l-59 -58l-45 28l68 67q-92 110 -65 265q26 151 145.5 251.5t275.5 100.5q116 0 199 -70l59 58l45 -29zM139 350q-21 -122 45 -206l454 448q-65 52 -160 52q-126 0 -222 -85t-117 -209zM723 345
q22 125 -48 210l-454 -447q65 -52 161 -52q128 0 223.5 82.5t117.5 206.5z" />
    <glyph glyph-name="Ugrave" unicode="&#xd9;" horiz-adv-x="660" 
d="M461 770l-58 130h-80l74 -130h64zM294 -12q-118 0 -181.5 69.5t-44.5 180.5l81 462h70l-81 -462q-15 -83 26 -132.5t130 -49.5q91 0 150.5 50.5t73.5 131.5l81 462h70l-81 -462q-21 -117 -101 -183.5t-193 -66.5z" />
    <glyph glyph-name="Uacute" unicode="&#xda;" horiz-adv-x="660" 
d="M371 770h66l116 130h-82zM294 -12q-118 0 -181.5 69.5t-44.5 180.5l81 462h70l-81 -462q-15 -83 26 -132.5t130 -49.5q91 0 150.5 50.5t73.5 131.5l81 462h70l-81 -462q-21 -117 -101 -183.5t-193 -66.5z" />
    <glyph glyph-name="Ucircumflex" unicode="&#xdb;" horiz-adv-x="660" 
d="M439 857l-85 -87h-78l128 130h78l84 -130h-72zM599 700h70l-81 -462q-21 -117 -101 -183.5t-193 -66.5q-118 0 -181.5 69.5t-44.5 180.5l81 462h70l-81 -462q-15 -83 26 -132.5t130 -49.5q91 0 150.5 50.5t73.5 131.5z" />
    <glyph glyph-name="Udieresis" unicode="&#xdc;" horiz-adv-x="660" 
d="M326 775q-19 0 -30 13t-7 32q3 19 18.5 32t34.5 13t29.5 -13t7.5 -32q-4 -19 -19 -32t-34 -13zM516 775q-19 0 -30 13t-7 32q3 19 18.5 32t34.5 13t29.5 -13t7.5 -32q-4 -19 -19 -32t-34 -13zM294 -12q-118 0 -181.5 69.5t-44.5 180.5l81 462h70l-81 -462
q-15 -83 26 -132.5t130 -49.5q91 0 150.5 50.5t73.5 131.5l81 462h70l-81 -462q-21 -117 -101 -183.5t-193 -66.5z" />
    <glyph glyph-name="Yacute" unicode="&#xdd;" horiz-adv-x="575" 
d="M508 900l-116 -130h-66l100 130h82zM644 700l-309 -374l-57 -326h-70l57 327l-176 373h72l146 -309l255 309h82z" />
    <glyph glyph-name="Thorn" unicode="&#xde;" horiz-adv-x="590" 
d="M382 570q99 0 150.5 -63t35.5 -157q-16 -95 -90 -157.5t-189 -62.5h-160l-23 -130h-70l123 700h70l-23 -130h176zM500 360q11 66 -23 105t-102 39h-180l-55 -308h157q83 0 137 46.5t66 117.5z" />
    <glyph glyph-name="germandbls" unicode="&#xdf;" horiz-adv-x="516" 
d="M244 -3l11 60q139 -8 156 84q6 32 -10.5 68t-39 62.5t-39 60t-11.5 62.5q4 25 31 51.5l55 55.5t33 60q7 41 -19.5 64t-75.5 23q-50 0 -95 -32t-58 -106l-90 -510h-66l91 515q17 98 79.5 147.5t146.5 49.5q79 0 122.5 -45.5t30.5 -110.5q-7 -37 -35 -70t-54 -58t-29 -41
q-4 -20 13.5 -48.5t39.5 -55t37 -67t8 -81.5q-12 -71 -70 -108t-162 -30z" />
    <glyph glyph-name="agrave" unicode="&#xe0;" horiz-adv-x="638" 
d="M399 570h-64l-74 130h80zM546 500h66l-88 -500h-66l15 85q-81 -97 -217 -97q-105 0 -169 81t-45 191q21 120 103.5 186t182.5 66q65 0 119 -30.5t80 -87.5zM272 52q82 0 147 52.5t81 133.5l2 12q14 92 -37.5 145t-131.5 53q-78 0 -143.5 -51t-81.5 -142
q-14 -84 33 -143.5t131 -59.5z" />
    <glyph glyph-name="aacute" unicode="&#xe1;" horiz-adv-x="638" 
d="M491 700l-116 -130h-66l100 130h82zM546 500h66l-88 -500h-66l15 85q-81 -97 -217 -97q-105 0 -169 81t-45 191q21 120 103.5 186t182.5 66q65 0 119 -30.5t80 -87.5zM272 52q82 0 147 52.5t81 133.5l2 12q14 92 -37.5 145t-131.5 53q-78 0 -143.5 -51t-81.5 -142
q-14 -84 33 -143.5t131 -59.5z" />
    <glyph glyph-name="acircumflex" unicode="&#xe2;" horiz-adv-x="638" 
d="M377 657l-85 -87h-78l128 130h78l84 -130h-72zM546 500h66l-88 -500h-66l15 85q-81 -97 -217 -97q-105 0 -169 81t-45 191q21 120 103.5 186t182.5 66q65 0 119 -30.5t80 -87.5zM272 52q82 0 147 52.5t81 133.5l2 12q14 92 -37.5 145t-131.5 53q-78 0 -143.5 -51
t-81.5 -142q-14 -84 33 -143.5t131 -59.5z" />
    <glyph glyph-name="atilde" unicode="&#xe3;" horiz-adv-x="638" 
d="M364 603q-20 17 -31.5 24.5t-23 8.5t-19 -13t-12.5 -43h-58q10 60 36.5 89t58 27t62.5 -29q16 -14 25.5 -21t20 -11t17 1t12.5 18t10 36h58q-10 -60 -36 -89t-57.5 -27t-62.5 29zM546 500h66l-88 -500h-66l15 85q-81 -97 -217 -97q-105 0 -169 81t-45 191
q21 120 103.5 186t182.5 66q65 0 119 -30.5t80 -87.5zM272 52q82 0 147 52.5t81 133.5l2 12q14 92 -37.5 145t-131.5 53q-78 0 -143.5 -51t-81.5 -142q-14 -84 33 -143.5t131 -59.5z" />
    <glyph glyph-name="adieresis" unicode="&#xe4;" horiz-adv-x="638" 
d="M264 575q-19 0 -30 13t-7 32q3 19 18.5 32t34.5 13t29.5 -13t7.5 -32q-4 -19 -19 -32t-34 -13zM454 575q-19 0 -30 13t-7 32q3 19 18.5 32t34.5 13t29.5 -13t7.5 -32q-4 -19 -19 -32t-34 -13zM546 500h66l-88 -500h-66l15 85q-81 -97 -217 -97q-105 0 -169 81t-45 191
q21 120 103.5 186t182.5 66q65 0 119 -30.5t80 -87.5zM272 52q82 0 147 52.5t81 133.5l2 12q14 92 -37.5 145t-131.5 53q-78 0 -143.5 -51t-81.5 -142q-14 -84 33 -143.5t131 -59.5z" />
    <glyph glyph-name="aring" unicode="&#xe5;" horiz-adv-x="638" 
d="M358 550q-49 0 -73.5 30t-17.5 73t41 70t80 27q49 0 73 -30.5t18 -72.5q-7 -43 -40.5 -70t-80.5 -27zM322 650q-4 -22 7.5 -35.5t34.5 -13.5q24 0 40.5 14t20.5 35q4 22 -8 35.5t-35 13.5q-22 0 -39 -13t-21 -36zM546 500h66l-88 -500h-66l15 85q-81 -97 -217 -97
q-105 0 -169 81t-45 191q21 120 103.5 186t182.5 66q65 0 119 -30.5t80 -87.5zM272 52q82 0 147 52.5t81 133.5l2 12q14 92 -37.5 145t-131.5 53q-78 0 -143.5 -51t-81.5 -142q-14 -84 33 -143.5t131 -59.5z" />
    <glyph glyph-name="ae" unicode="&#xe6;" horiz-adv-x="1044" 
d="M811 512q105 0 162 -79.5t36 -184.5q-3 -13 -8 -31h-437q-3 -76 41.5 -120.5t123.5 -44.5q116 0 180 85l52 -34q-42 -53 -104 -84t-131 -31t-116 30t-68 84l-18 -102h-66l15 85q-81 -97 -217 -97q-105 0 -169 81t-45 191q21 120 103.5 186t182.5 66q65 0 119 -30.5
t80 -87.5l19 106h66l-17 -97q81 109 216 109zM272 52q82 0 147 52.5t81 133.5l2 12q14 92 -37.5 145t-131.5 53q-78 0 -143.5 -51t-81.5 -142q-14 -84 33 -143.5t131 -59.5zM575 281h371q6 79 -36.5 123t-112.5 44q-80 0 -139.5 -46t-82.5 -121z" />
    <glyph glyph-name="ccedilla" unicode="&#xe7;" horiz-adv-x="553" 
d="M269 52q57 0 105.5 27t77.5 73l53 -35q-36 -57 -95 -90t-131 -38l-6 -34q40 -8 61.5 -31.5t16.5 -54.5q-8 -45 -56 -69t-164 -16l10 54q144 -12 152 36q4 21 -19.5 31.5t-66.5 9.5l13 76q-93 14 -144.5 91.5t-33.5 178.5q19 110 105 180.5t198 70.5q73 0 128 -35t76 -95
l-57 -29q-16 44 -56 69.5t-97 25.5q-85 0 -150.5 -55.5t-80.5 -138.5q-14 -85 31 -143.5t130 -58.5z" />
    <glyph glyph-name="egrave" unicode="&#xe8;" horiz-adv-x="584" 
d="M398 570h-64l-74 130h80zM339 512q113 0 172.5 -78t37.5 -186q-3 -18 -8 -31h-437q-3 -76 42.5 -120.5t124.5 -44.5q115 0 177 86l52 -34q-36 -55 -101.5 -85.5t-136.5 -30.5q-116 0 -178 78t-42 194q19 110 103.5 181t193.5 71zM114 281h372q6 82 -36 124.5t-115 42.5
q-79 0 -138.5 -45.5t-82.5 -121.5z" />
    <glyph glyph-name="eacute" unicode="&#xe9;" horiz-adv-x="584" 
d="M490 700l-116 -130h-66l100 130h82zM339 512q113 0 172.5 -78t37.5 -186q-3 -18 -8 -31h-437q-3 -76 42.5 -120.5t124.5 -44.5q115 0 177 86l52 -34q-36 -55 -101.5 -85.5t-136.5 -30.5q-116 0 -178 78t-42 194q19 110 103.5 181t193.5 71zM114 281h372q6 82 -36 124.5
t-115 42.5q-79 0 -138.5 -45.5t-82.5 -121.5z" />
    <glyph glyph-name="ecircumflex" unicode="&#xea;" horiz-adv-x="584" 
d="M376 657l-85 -87h-78l128 130h78l84 -130h-72zM339 512q113 0 172.5 -78t37.5 -186q-3 -18 -8 -31h-437q-3 -76 42.5 -120.5t124.5 -44.5q115 0 177 86l52 -34q-36 -55 -101.5 -85.5t-136.5 -30.5q-116 0 -178 78t-42 194q19 110 103.5 181t193.5 71zM114 281h372
q6 82 -36 124.5t-115 42.5q-79 0 -138.5 -45.5t-82.5 -121.5z" />
    <glyph glyph-name="edieresis" unicode="&#xeb;" horiz-adv-x="584" 
d="M263 575q-19 0 -30 13t-7 32q3 19 18.5 32t34.5 13t29.5 -13t7.5 -32q-4 -19 -19 -32t-34 -13zM453 575q-19 0 -30 13t-7 32q3 19 18.5 32t34.5 13t29.5 -13t7.5 -32q-4 -19 -19 -32t-34 -13zM339 512q113 0 172.5 -78t37.5 -186q-3 -18 -8 -31h-437q-3 -76 42.5 -120.5
t124.5 -44.5q115 0 177 86l52 -34q-36 -55 -101.5 -85.5t-136.5 -30.5q-116 0 -178 78t-42 194q19 110 103.5 181t193.5 71zM114 281h372q6 82 -36 124.5t-115 42.5q-79 0 -138.5 -45.5t-82.5 -121.5z" />
    <glyph glyph-name="igrave" unicode="&#xec;" horiz-adv-x="206" 
d="M191 570l-28 130h-80l44 -130h64zM92 0h-66l88 500h66z" />
    <glyph glyph-name="iacute" unicode="&#xed;" horiz-adv-x="206" 
d="M130 570h64l88 130h-80zM26 0l88 500h66l-88 -500h-66z" />
    <glyph glyph-name="icircumflex" unicode="&#xee;" horiz-adv-x="206" 
d="M221 700l64 -130h-75l-37 76l-63 -76h-75l108 130h78zM26 0l88 500h66l-88 -500h-66z" />
    <glyph glyph-name="idieresis" unicode="&#xef;" horiz-adv-x="206" 
d="M91 575q-19 0 -30 13t-7 32q3 19 18.5 32t34.5 13t29.5 -13t7.5 -32q-4 -19 -19 -32t-34 -13zM229 575q-19 0 -29.5 13t-7.5 32t18.5 32t34.5 13t30 -13t7 -32t-19 -32t-34 -13zM26 0l88 500h66l-88 -500h-66z" />
    <glyph glyph-name="eth" unicode="&#xf0;" horiz-adv-x="587" 
d="M513 372q17 -30 25.5 -74t2.5 -83q-20 -108 -98.5 -167.5t-185.5 -59.5q-47 0 -91 19.5t-75.5 53t-46.5 82t-5 102.5q17 101 92.5 159t173.5 58q54 0 96 -22l-76 135l-134 -75l11 60l100 56l-47 84h68l32 -55l121 67l-11 -60l-86 -48zM475 220q12 68 -14 113
q-42 71 -149 71q-82 0 -138 -43t-69 -121q-15 -81 34 -134.5t129 -53.5q78 0 135.5 44t71.5 124z" />
    <glyph glyph-name="ntilde" unicode="&#xf1;" horiz-adv-x="558" 
d="M337 603q-20 17 -31.5 24.5t-23 8.5t-19 -13t-12.5 -43h-58q10 60 36.5 89t58 27t62.5 -29q16 -14 25.5 -21t20 -11t17 1t12.5 18t10 36h58q-10 -60 -36 -89t-57.5 -27t-62.5 29zM345 512q91 0 136 -56t29 -149l-54 -307h-66l54 307q11 68 -16.5 104.5t-94.5 36.5
q-70 0 -122.5 -43t-70.5 -133l-48 -272h-66l88 500h66l-12 -70q68 82 177 82z" />
    <glyph glyph-name="ograve" unicode="&#xf2;" horiz-adv-x="607" 
d="M401 570l-58 130h-80l74 -130h64zM263 -12q-106 0 -174.5 73t-47.5 194t112.5 189t197.5 68q103 0 169.5 -73.5t45.5 -192.5q-14 -84 -63 -144t-110.5 -87t-129.5 -27zM269 52q80 0 148 53t84 148q16 91 -33.5 143t-128.5 52q-80 -1 -147.5 -53t-84.5 -145
q-16 -94 33.5 -146.5t128.5 -51.5z" />
    <glyph glyph-name="oacute" unicode="&#xf3;" horiz-adv-x="607" 
d="M311 570h66l116 130h-82zM263 -12q-106 0 -174.5 73t-47.5 194t112.5 189t197.5 68q103 0 169.5 -73.5t45.5 -192.5q-14 -84 -63 -144t-110.5 -87t-129.5 -27zM269 52q80 0 148 53t84 148q16 91 -33.5 143t-128.5 52q-80 -1 -147.5 -53t-84.5 -145q-16 -94 33.5 -146.5
t128.5 -51.5z" />
    <glyph glyph-name="ocircumflex" unicode="&#xf4;" horiz-adv-x="607" 
d="M379 657l-85 -87h-78l128 130h78l84 -130h-72zM351 512q103 0 169.5 -73.5t45.5 -192.5q-14 -84 -63 -144t-110.5 -87t-129.5 -27q-106 0 -174.5 73t-47.5 194t112.5 189t197.5 68zM501 253q16 91 -33.5 143t-128.5 52q-80 -1 -147.5 -53t-84.5 -145q-16 -94 33.5 -146.5
t128.5 -51.5q80 0 148 53t84 148z" />
    <glyph glyph-name="otilde" unicode="&#xf5;" horiz-adv-x="607" 
d="M222 580q10 60 36.5 89t58 27t62.5 -29q16 -14 25.5 -21t20 -11t17 1t12.5 18t10 36h58q-10 -60 -36 -89t-57.5 -27t-62.5 29q-20 17 -31.5 24.5t-23 8.5t-19 -13t-12.5 -43h-58zM263 -12q-106 0 -174.5 73t-47.5 194t112.5 189t197.5 68q103 0 169.5 -73.5t45.5 -192.5
q-14 -84 -63 -144t-110.5 -87t-129.5 -27zM269 52q80 0 148 53t84 148q16 91 -33.5 143t-128.5 52q-80 -1 -147.5 -53t-84.5 -145q-16 -94 33.5 -146.5t128.5 -51.5z" />
    <glyph glyph-name="odieresis" unicode="&#xf6;" horiz-adv-x="607" 
d="M266 575q-19 0 -30 13t-7 32q3 19 18.5 32t34.5 13t29.5 -13t7.5 -32q-4 -19 -19 -32t-34 -13zM456 575q-19 0 -30 13t-7 32q3 19 18.5 32t34.5 13t29.5 -13t7.5 -32q-4 -19 -19 -32t-34 -13zM263 -12q-106 0 -174.5 73t-47.5 194t112.5 189t197.5 68q103 0 169.5 -73.5
t45.5 -192.5q-14 -84 -63 -144t-110.5 -87t-129.5 -27zM269 52q80 0 148 53t84 148q16 91 -33.5 143t-128.5 52q-80 -1 -147.5 -53t-84.5 -145q-16 -94 33.5 -146.5t128.5 -51.5z" />
    <glyph glyph-name="divide" unicode="&#xf7;" horiz-adv-x="580" 
d="M331 482q-23 0 -36 17t-9 40t22 38t42 15q23 0 36.5 -17t9.5 -40q-5 -23 -22.5 -38t-42.5 -15zM72 318l11 64h460l-11 -64h-460zM265 108q-23 0 -36 17t-9 40t22 38t42 15q23 0 36.5 -17t9.5 -40q-5 -23 -22.5 -38t-42.5 -15z" />
    <glyph glyph-name="oslash" unicode="&#xf8;" horiz-adv-x="607" 
d="M583 480l-55 -51q57 -73 38 -183q-14 -84 -63 -144t-110.5 -87t-129.5 -27q-88 0 -150 50l-46 -43l-40 25l53 50q-59 75 -39 185q21 121 112.5 189t197.5 68q83 0 146 -50l46 43zM107 250q-13 -81 23 -133l317 298q-45 33 -108 33q-80 -1 -147.5 -53t-84.5 -145zM501 253
q14 76 -22 129l-317 -298q42 -32 107 -32q80 0 148 53t84 148z" />
    <glyph glyph-name="ugrave" unicode="&#xf9;" horiz-adv-x="558" 
d="M367 570h-64l-74 130h80zM466 500h66l-88 -500h-66l12 70q-68 -82 -177 -82q-91 0 -136 56t-29 149l54 307h66l-54 -307q-11 -68 16.5 -104.5t94.5 -36.5q70 0 122.5 43t70.5 133z" />
    <glyph glyph-name="uacute" unicode="&#xfa;" horiz-adv-x="558" 
d="M459 700l-116 -130h-66l100 130h82zM466 500h66l-88 -500h-66l12 70q-68 -82 -177 -82q-91 0 -136 56t-29 149l54 307h66l-54 -307q-11 -68 16.5 -104.5t94.5 -36.5q70 0 122.5 43t70.5 133z" />
    <glyph glyph-name="ucircumflex" unicode="&#xfb;" horiz-adv-x="558" 
d="M345 657l-85 -87h-78l128 130h78l84 -130h-72zM466 500h66l-88 -500h-66l12 70q-68 -82 -177 -82q-91 0 -136 56t-29 149l54 307h66l-54 -307q-11 -68 16.5 -104.5t94.5 -36.5q70 0 122.5 43t70.5 133z" />
    <glyph glyph-name="udieresis" unicode="&#xfc;" horiz-adv-x="558" 
d="M232 575q-19 0 -30 13t-7 32q3 19 18.5 32t34.5 13t29.5 -13t7.5 -32q-4 -19 -19 -32t-34 -13zM422 575q-19 0 -30 13t-7 32q3 19 18.5 32t34.5 13t29.5 -13t7.5 -32q-4 -19 -19 -32t-34 -13zM466 500h66l-88 -500h-66l12 70q-68 -82 -177 -82q-91 0 -136 56t-29 149
l54 307h66l-54 -307q-11 -68 16.5 -104.5t94.5 -36.5q70 0 122.5 43t70.5 133z" />
    <glyph glyph-name="yacute" unicode="&#xfd;" horiz-adv-x="510" 
d="M427 700l-116 -130h-66l100 130h82zM470 500h74l-310 -546q-45 -79 -104 -119t-125 -35l11 62q83 -9 151 104l21 35l-134 499h67l111 -425z" />
    <glyph glyph-name="thorn" unicode="&#xfe;" horiz-adv-x="638" 
d="M382 512q105 0 169 -81t45 -191q-21 -120 -103.5 -186t-182.5 -66q-65 0 -119.5 30.5t-79.5 87.5l-54 -306h-66l158 900h66l-50 -286q82 98 217 98zM530 245q14 84 -33 143.5t-131 59.5q-83 0 -147.5 -53t-80.5 -135l-2 -10q-14 -92 37.5 -145t131.5 -53q78 0 143.5 51
t81.5 142z" />
    <glyph glyph-name="ydieresis" unicode="&#xff;" horiz-adv-x="510" 
d="M200 575q-19 0 -30 13t-7 32q3 19 18.5 32t34.5 13t29.5 -13t7.5 -32q-4 -19 -19 -32t-34 -13zM390 575q-19 0 -30 13t-7 32q3 19 18.5 32t34.5 13t29.5 -13t7.5 -32q-4 -19 -19 -32t-34 -13zM470 500h74l-310 -546q-45 -79 -104 -119t-125 -35l11 62q83 -9 151 104
l21 35l-134 499h67l111 -425z" />
    <glyph glyph-name="Amacron" unicode="&#x100;" horiz-adv-x="630" 
d="M548 838l-10 -58h-260l10 58h260zM504 0l-34 172h-332l-96 -172h-76l392 700h72l146 -700h-72zM174 238h283l-74 375z" />
    <glyph glyph-name="amacron" unicode="&#x101;" horiz-adv-x="638" 
d="M500 638l-10 -58h-260l10 58h260zM546 500h66l-88 -500h-66l15 85q-81 -97 -217 -97q-105 0 -169 81t-45 191q21 120 103.5 186t182.5 66q65 0 119 -30.5t80 -87.5zM272 52q82 0 147 52.5t81 133.5l2 12q14 92 -37.5 145t-131.5 53q-78 0 -143.5 -51t-81.5 -142
q-14 -84 33 -143.5t131 -59.5z" />
    <glyph glyph-name="Abreve" unicode="&#x102;" horiz-adv-x="630" 
d="M406 762q-61 0 -95 35t-23 95h64q-7 -39 9 -55.5t54 -16.5q76 0 89 72h64q-11 -63 -52.5 -96.5t-109.5 -33.5zM504 0l-34 172h-332l-96 -172h-76l392 700h72l146 -700h-72zM174 238h283l-74 375z" />
    <glyph glyph-name="abreve" unicode="&#x103;" horiz-adv-x="638" 
d="M358 562q-61 0 -95 35t-23 95h64q-7 -39 9 -55.5t54 -16.5q76 0 89 72h64q-11 -63 -52.5 -96.5t-109.5 -33.5zM546 500h66l-88 -500h-66l15 85q-81 -97 -217 -97q-105 0 -169 81t-45 191q21 120 103.5 186t182.5 66q65 0 119 -30.5t80 -87.5zM272 52q82 0 147 52.5
t81 133.5l2 12q14 92 -37.5 145t-131.5 53q-78 0 -143.5 -51t-81.5 -142q-14 -84 33 -143.5t131 -59.5z" />
    <glyph glyph-name="Aogonek" unicode="&#x104;" horiz-adv-x="630" 
d="M478 -124q-6 -31 29 -31q22 0 43 7l-9 -52q-27 -12 -61 -12q-36 0 -55.5 23.5t-13.5 57.5q11 61 93 131l-34 172h-332l-96 -172h-76l392 700h72l146 -700q-88 -70 -98 -124zM174 238h283l-74 375z" />
    <glyph glyph-name="aogonek" unicode="&#x105;" horiz-adv-x="639" 
d="M524 0q-92 -73 -98 -124q-4 -31 29 -31q21 0 43 9l-9 -55q-30 -11 -61 -11q-39 0 -57 23t-12 58q11 60 101 143l13 73q-81 -97 -217 -97q-105 0 -169 81t-45 191q21 120 103.5 186t182.5 66q65 0 119 -30.5t80 -87.5l19 106h66zM272 52q82 0 147 52.5t81 133.5l2 12
q14 92 -37.5 145t-131.5 53q-78 0 -143.5 -51t-81.5 -142q-14 -84 33 -143.5t131 -59.5z" />
    <glyph glyph-name="Cacute" unicode="&#x106;" horiz-adv-x="745" 
d="M448 770h66l116 130h-82zM360 -12q-158 0 -243 110t-58 262q27 151 145 251.5t267 100.5q102 0 176 -46.5t111 -127.5l-62 -33q-63 139 -226 139q-128 0 -225 -85t-118 -209q-21 -126 47 -210t194 -84q81 0 151.5 38t115.5 105l59 -37q-56 -80 -145 -127t-189 -47z" />
    <glyph glyph-name="cacute" unicode="&#x107;" horiz-adv-x="553" 
d="M295 570h66l116 130h-82zM258 -12q-109 0 -172.5 80.5t-43.5 192.5q19 110 105 180.5t198 70.5q73 0 128 -35t76 -95l-57 -29q-16 44 -56 69.5t-97 25.5q-85 0 -150.5 -55.5t-80.5 -138.5q-14 -85 31 -143.5t130 -58.5q57 0 105.5 27t77.5 73l53 -35q-38 -61 -103 -95
t-144 -34z" />
    <glyph glyph-name="Cdotaccent" unicode="&#x10a;" horiz-adv-x="745" 
d="M497 770q-23 0 -36 16t-9 39t22.5 39t41.5 16t36.5 -16t9.5 -39q-5 -23 -23.5 -39t-41.5 -16zM360 -12q-158 0 -243 110t-58 262q27 151 145 251.5t267 100.5q102 0 176 -46.5t111 -127.5l-62 -33q-63 139 -226 139q-128 0 -225 -85t-118 -209q-21 -126 47 -210t194 -84
q81 0 151.5 38t115.5 105l59 -37q-56 -80 -145 -127t-189 -47z" />
    <glyph glyph-name="cdotaccent" unicode="&#x10b;" horiz-adv-x="553" 
d="M344 570q-23 0 -36 16t-9 39t22.5 39t41.5 16t36.5 -16t9.5 -39q-5 -23 -23.5 -39t-41.5 -16zM258 -12q-109 0 -172.5 80.5t-43.5 192.5q19 110 105 180.5t198 70.5q73 0 128 -35t76 -95l-57 -29q-16 44 -56 69.5t-97 25.5q-85 0 -150.5 -55.5t-80.5 -138.5
q-14 -85 31 -143.5t130 -58.5q57 0 105.5 27t77.5 73l53 -35q-38 -61 -103 -95t-144 -34z" />
    <glyph glyph-name="Ccaron" unicode="&#x10c;" horiz-adv-x="745" 
d="M459 770l-84 130h71l55 -86l85 86h79l-128 -130h-78zM470 644q-128 0 -225 -85t-118 -209q-21 -126 47 -210t194 -84q81 0 151.5 38t115.5 105l59 -37q-56 -80 -145 -127t-189 -47q-158 0 -243 110t-58 262q27 151 145 251.5t267 100.5q102 0 176 -46.5t111 -127.5
l-62 -33q-63 139 -226 139z" />
    <glyph glyph-name="ccaron" unicode="&#x10d;" horiz-adv-x="553" 
d="M306 570l-84 130h71l55 -86l85 86h79l-128 -130h-78zM269 52q57 0 105.5 27t77.5 73l53 -35q-38 -61 -103 -95t-144 -34q-109 0 -172.5 80.5t-43.5 192.5q19 110 105 180.5t198 70.5q73 0 128 -35t76 -95l-57 -29q-16 44 -56 69.5t-97 25.5q-85 0 -150.5 -55.5
t-80.5 -138.5q-14 -85 31 -143.5t130 -58.5z" />
    <glyph glyph-name="Dcaron" unicode="&#x10e;" horiz-adv-x="722" 
d="M393 770l-84 130h71l55 -86l85 86h79l-128 -130h-78zM429 700q139 0 217 -106.5t52 -253.5q-26 -146 -135.5 -243t-256.5 -97h-270l123 700h270zM630 350q21 120 -38 202t-174 82h-201l-99 -568h200q115 0 203 82t109 202z" />
    <glyph glyph-name="dcaron" unicode="&#x10f;" horiz-adv-x="703" 
d="M527 394l54 306h66l-123 -700h-66l15 85q-81 -97 -217 -97q-105 0 -169 81t-45 191q21 120 103.5 186t182.5 66q65 0 119 -30.5t80 -87.5zM726 700h66l-60 -170h-46zM272 52q82 0 146.5 52.5t81.5 132.5l2 16q13 91 -38 143t-131 52q-78 0 -143.5 -51t-81.5 -142
q-14 -84 33 -143.5t131 -59.5z" />
    <glyph glyph-name="Dcroat" unicode="&#x110;" horiz-adv-x="742" 
d="M449 700q139 0 217 -106.5t52 -253.5q-26 -146 -135.5 -243t-256.5 -97h-270l56 318h-70l11 64h70l56 318h270zM650 350q21 120 -38 202t-174 82h-201l-44 -252h220l-11 -64h-220l-44 -252h200q115 0 203 82t109 202z" />
    <glyph glyph-name="dcroat" unicode="&#x111;" horiz-adv-x="646" 
d="M703 630l-9 -54h-70l-101 -576h-66l15 84q-83 -96 -216 -96q-105 0 -169 81t-45 191q21 120 103.5 186t182.5 66q65 0 118.5 -30t79.5 -86l32 180h-184l9 54h185l12 70h66l-12 -70h69zM272 52q77 0 139.5 46.5t83.5 120.5l9 50q6 83 -45 131t-126 48q-78 0 -143.5 -51
t-81.5 -142q-14 -84 33 -143.5t131 -59.5z" />
    <glyph glyph-name="Emacron" unicode="&#x112;" horiz-adv-x="530" 
d="M516 838l-10 -58h-260l10 58h260zM553 634h-336l-43 -248h310l-12 -66h-310l-44 -254h340l-12 -66h-410l123 700h405z" />
    <glyph glyph-name="emacron" unicode="&#x113;" horiz-adv-x="584" 
d="M499 638l-10 -58h-260l10 58h260zM339 512q113 0 172.5 -78t37.5 -186q-3 -18 -8 -31h-437q-3 -76 42.5 -120.5t124.5 -44.5q115 0 177 86l52 -34q-36 -55 -101.5 -85.5t-136.5 -30.5q-116 0 -178 78t-42 194q19 110 103.5 181t193.5 71zM114 281h372q6 82 -36 124.5
t-115 42.5q-79 0 -138.5 -45.5t-82.5 -121.5z" />
    <glyph glyph-name="Edotaccent" unicode="&#x116;" horiz-adv-x="530" 
d="M374 770q-23 0 -36 16t-9 39t22.5 39t41.5 16t36.5 -16t9.5 -39q-5 -23 -23.5 -39t-41.5 -16zM553 634h-336l-43 -248h310l-12 -66h-310l-44 -254h340l-12 -66h-410l123 700h405z" />
    <glyph glyph-name="edotaccent" unicode="&#x117;" horiz-adv-x="584" 
d="M357 570q-23 0 -36 16t-9 39t22.5 39t41.5 16t36.5 -16t9.5 -39q-5 -23 -23.5 -39t-41.5 -16zM339 512q113 0 172.5 -78t37.5 -186q-3 -18 -8 -31h-437q-3 -76 42.5 -120.5t124.5 -44.5q115 0 177 86l52 -34q-36 -55 -101.5 -85.5t-136.5 -30.5q-116 0 -178 78t-42 194
q19 110 103.5 181t193.5 71zM114 281h372q6 82 -36 124.5t-115 42.5q-79 0 -138.5 -45.5t-82.5 -121.5z" />
    <glyph glyph-name="Eogonek" unicode="&#x118;" horiz-adv-x="530" 
d="M553 634h-336l-43 -248h310l-12 -66h-310l-44 -254h340l-12 -66q-91 -72 -98 -120q-2 -15 6 -25t23 -10q21 0 43 9l-10 -56q-23 -10 -59 -10q-40 0 -58 25.5t-12 60.5q10 62 96 126h-341l123 700h405z" />
    <glyph glyph-name="eogonek" unicode="&#x119;" horiz-adv-x="584" 
d="M339 512q113 0 172.5 -78t37.5 -186q-3 -18 -8 -31h-437q-3 -76 42.5 -120.5t124.5 -44.5q115 0 177 86l52 -34q-21 -31 -55 -57q-133 -107 -145 -171q-6 -31 30 -31q20 0 42 9l-9 -55q-30 -11 -58 -11q-42 0 -60 23t-12 58q12 65 87 124q-32 -5 -58 -5q-116 0 -178 78
t-42 194q19 110 103.5 181t193.5 71zM114 281h372q6 82 -36 124.5t-115 42.5q-79 0 -138.5 -45.5t-82.5 -121.5z" />
    <glyph glyph-name="Ecaron" unicode="&#x11a;" horiz-adv-x="530" 
d="M336 770l-84 130h71l55 -86l85 86h79l-128 -130h-78zM553 634h-336l-43 -248h310l-12 -66h-310l-44 -254h340l-12 -66h-410l123 700h405z" />
    <glyph glyph-name="ecaron" unicode="&#x11b;" horiz-adv-x="584" 
d="M319 570l-84 130h71l55 -86l85 86h79l-128 -130h-78zM339 512q113 0 172.5 -78t37.5 -186q-3 -18 -8 -31h-437q-3 -76 42.5 -120.5t124.5 -44.5q115 0 177 86l52 -34q-36 -55 -101.5 -85.5t-136.5 -30.5q-116 0 -178 78t-42 194q19 110 103.5 181t193.5 71zM114 281h372
q6 82 -36 124.5t-115 42.5q-79 0 -138.5 -45.5t-82.5 -121.5z" />
    <glyph glyph-name="Gbreve" unicode="&#x11e;" horiz-adv-x="790" 
d="M484 762q-61 0 -95 35t-23 95h64q-7 -39 9 -55.5t54 -16.5q76 0 89 72h64q-11 -63 -52.5 -96.5t-109.5 -33.5zM764 333l-6 -35q-23 -131 -128.5 -220.5t-255.5 -89.5q-166 0 -254 110.5t-60 266.5q27 150 145 248.5t271 98.5q101 0 174.5 -46t113.5 -128l-62 -33
q-70 139 -228 139q-131 0 -228 -83t-118 -208q-22 -126 46 -211.5t203 -85.5q114 0 195.5 60t108.5 151h-279l12 66h350z" />
    <glyph glyph-name="gbreve" unicode="&#x11f;" horiz-adv-x="639" 
d="M366 562q-61 0 -95 35t-23 95h64q-7 -39 9 -55.5t54 -16.5q76 0 89 72h64q-11 -63 -52.5 -96.5t-109.5 -33.5zM546 500h66l-84 -480q-20 -111 -98 -171.5t-189 -60.5q-79 0 -136 32t-84 90l59 30q36 -88 164 -88q91 0 147.5 44t70.5 124l12 67q-82 -99 -211 -99
q-113 0 -175.5 79t-45.5 193q17 115 101.5 183.5t184.5 68.5q64 0 118.5 -30.5t80.5 -87.5zM501 243v2l1 5q15 91 -38 144.5t-131 53.5t-144.5 -52.5t-80.5 -140.5q-14 -87 33.5 -145t133.5 -58q81 0 145 52.5t81 138.5z" />
    <glyph glyph-name="Gdotaccent" unicode="&#x120;" horiz-adv-x="790" 
d="M484 770q-23 0 -36 16t-9 39t22.5 39t41.5 16t36.5 -16t9.5 -39q-5 -23 -23.5 -39t-41.5 -16zM764 333l-6 -35q-23 -131 -128.5 -220.5t-255.5 -89.5q-166 0 -254 110.5t-60 266.5q27 150 145 248.5t271 98.5q101 0 174.5 -46t113.5 -128l-62 -33q-70 139 -228 139
q-131 0 -228 -83t-118 -208q-22 -126 46 -211.5t203 -85.5q114 0 195.5 60t108.5 151h-279l12 66h350z" />
    <glyph glyph-name="gdotaccent" unicode="&#x121;" horiz-adv-x="639" 
d="M366 570q-23 0 -36 16t-9 39t22.5 39t41.5 16t36.5 -16t9.5 -39q-5 -23 -23.5 -39t-41.5 -16zM546 500h66l-84 -480q-20 -111 -98 -171.5t-189 -60.5q-79 0 -136 32t-84 90l59 30q36 -88 164 -88q91 0 147.5 44t70.5 124l12 67q-82 -99 -211 -99q-113 0 -175.5 79
t-45.5 193q17 115 101.5 183.5t184.5 68.5q64 0 118.5 -30.5t80.5 -87.5zM501 243v2l1 5q15 91 -38 144.5t-131 53.5t-144.5 -52.5t-80.5 -140.5q-14 -87 33.5 -145t133.5 -58q81 0 145 52.5t81 138.5z" />
    <glyph glyph-name="Gcommaaccent" unicode="&#x122;" horiz-adv-x="790" 
d="M764 333l-6 -35q-23 -131 -128.5 -220.5t-255.5 -89.5q-166 0 -254 110.5t-60 266.5q27 150 145 248.5t271 98.5q101 0 174.5 -46t113.5 -128l-62 -33q-70 139 -228 139q-131 0 -228 -83t-118 -208q-22 -126 46 -211.5t203 -85.5q114 0 195.5 60t108.5 151h-279l12 66
h350zM300 -240l40 170h66l-60 -170h-46z" />
    <glyph glyph-name="gcommaaccent" unicode="&#x123;" horiz-adv-x="639" 
d="M437 760l-40 -170h-66l60 170h46zM546 500h66l-84 -480q-20 -111 -98 -171.5t-189 -60.5q-79 0 -136 32t-84 90l59 30q36 -88 164 -88q91 0 147.5 44t70.5 124l12 67q-82 -99 -211 -99q-113 0 -175.5 79t-45.5 193q17 115 101.5 183.5t184.5 68.5q64 0 118.5 -30.5
t80.5 -87.5zM501 243v2l1 5q15 91 -38 144.5t-131 53.5t-144.5 -52.5t-80.5 -140.5q-14 -87 33.5 -145t133.5 -58q81 0 145 52.5t81 138.5z" />
    <glyph glyph-name="Hbar" unicode="&#x126;" horiz-adv-x="730" 
d="M746 568l-10 -56h-65l-90 -512h-70l57 327h-380l-57 -327h-70l90 512h-65l10 56h65l23 132h70l-23 -132h380l23 132h70l-23 -132h65zM580 393l21 119h-380l-21 -119h380z" />
    <glyph glyph-name="hbar" unicode="&#x127;" horiz-adv-x="568" 
d="M355 512q91 0 136 -56t29 -149l-54 -307h-66l54 307q11 68 -16.5 104.5t-94.5 36.5q-71 0 -123.5 -44t-70.5 -135l-47 -269h-66l101 576h-69l9 54h70l12 70h66l-12 -70h144l-9 -54h-145l-25 -146q69 82 177 82z" />
    <glyph glyph-name="Imacron" unicode="&#x12a;" horiz-adv-x="230" 
d="M78 780l10 58h260l-10 -58h-260zM159 700h70l-123 -700h-70z" />
    <glyph glyph-name="imacron" unicode="&#x12b;" horiz-adv-x="206" 
d="M61 580l10 58h200l-10 -58h-200zM26 0l88 500h66l-88 -500h-66z" />
    <glyph glyph-name="Iogonek" unicode="&#x12e;" horiz-adv-x="230" 
d="M40 -119q-7 -36 28 -36q20 0 43 9l-9 -55q-25 -11 -61 -11t-54.5 24.5t-12.5 61.5q9 58 63 130l122 696h70l-123 -700q-58 -76 -66 -119z" />
    <glyph glyph-name="iogonek" unicode="&#x12f;" horiz-adv-x="206" 
d="M182 702q20 0 32 -14t8 -34t-19.5 -34t-37.5 -14q-20 0 -31 14t-8 34t19 34t37 14zM92 0q-52 -67 -61 -114q-3 -17 4.5 -29t22.5 -12q20 0 43 9l-9 -55q-30 -11 -61 -11q-38 0 -55.5 27t-11.5 63q9 53 63 127l87 495h66z" />
    <glyph glyph-name="Idotaccent" unicode="&#x130;" horiz-adv-x="230" 
d="M206 770q-23 0 -36 16t-9 39t22.5 39t41.5 16t36.5 -16t9.5 -39q-5 -23 -23.5 -39t-41.5 -16zM159 700h70l-123 -700h-70z" />
    <glyph glyph-name="dotlessi" unicode="&#x131;" horiz-adv-x="206" 
d="M26 0l88 500h66l-88 -500h-66z" />
    <glyph glyph-name="Kcommaaccent" unicode="&#x136;" horiz-adv-x="578" 
d="M641 700l-397 -345l280 -355h-83l-274 346l-61 -346h-70l123 700h70l-56 -322l374 322h94zM179 -240l40 170h66l-60 -170h-46z" />
    <glyph glyph-name="kcommaaccent" unicode="&#x137;" horiz-adv-x="494" 
d="M508 500l-302 -240l224 -260h-80l-214 249l-44 -249h-66l123 700h66l-73 -418l274 218h92zM137 -240l40 170h66l-60 -170h-46z" />
    <glyph glyph-name="Lacute" unicode="&#x139;" horiz-adv-x="490" 
d="M356 900l-116 -130h-66l100 130h82zM118 66h320l-12 -66h-390l123 700h70z" />
    <glyph glyph-name="lacute" unicode="&#x13a;" horiz-adv-x="207" 
d="M162 770h66l116 130h-82zM27 0l52 299l76 431h66l-76 -431l-52 -299h-66z" />
    <glyph glyph-name="Lcommaaccent" unicode="&#x13b;" horiz-adv-x="490" 
d="M118 66h320l-12 -66h-390l123 700h70zM157 -240l40 170h66l-60 -170h-46z" />
    <glyph glyph-name="lcommaaccent" unicode="&#x13c;" horiz-adv-x="207" 
d="M27 0l52 299l76 431h66l-76 -431l-52 -299h-66zM21 -240l60 170h-66l-40 -170h46z" />
    <glyph glyph-name="Lcaron" unicode="&#x13d;" horiz-adv-x="490" 
d="M118 66h320l-12 -66h-390l123 700h70zM415 700l-60 -170h-46l40 170h66z" />
    <glyph glyph-name="lcaron" unicode="&#x13e;" horiz-adv-x="262" 
d="M27 0l52 299l76 431h66l-76 -431l-52 -299h-66zM297 560l60 170h-66l-40 -170h46z" />
    <glyph glyph-name="Lslash" unicode="&#x141;" horiz-adv-x="520" 
d="M148 66h320l-12 -66h-390l44 248l-78 -46l12 69l78 46l67 383h70l-59 -337l179 105l-12 -69l-179 -106z" />
    <glyph glyph-name="lslash" unicode="&#x142;" horiz-adv-x="240" 
d="M257 460l-12 -68l-76 -46l-8 -47l-52 -299h-66l52 299v1l-74 -45l12 68l74 45l64 362h66l-56 -316z" />
    <glyph glyph-name="Nacute" unicode="&#x143;" horiz-adv-x="680" 
d="M382 770h66l116 130h-82zM36 0l123 700h54l297 -569l99 569h70l-123 -700h-54l-296 569l-100 -569h-70z" />
    <glyph glyph-name="nacute" unicode="&#x144;" horiz-adv-x="558" 
d="M464 700l-116 -130h-66l100 130h82zM345 512q91 0 136 -56t29 -149l-54 -307h-66l54 307q11 68 -16.5 104.5t-94.5 36.5q-70 0 -122.5 -43t-70.5 -133l-48 -272h-66l88 500h66l-12 -70q68 82 177 82z" />
    <glyph glyph-name="Ncommaaccent" unicode="&#x145;" horiz-adv-x="680" 
d="M36 0l123 700h54l297 -569l99 569h70l-123 -700h-54l-296 569l-100 -569h-70zM258 -240l60 170h-66l-40 -170h46z" />
    <glyph glyph-name="ncommaaccent" unicode="&#x146;" horiz-adv-x="558" 
d="M345 512q91 0 136 -56t29 -149l-54 -307h-66l54 307q11 68 -16.5 104.5t-94.5 36.5q-70 0 -122.5 -43t-70.5 -133l-48 -272h-66l88 500h66l-12 -70q68 82 177 82zM170 -240l40 170h66l-60 -170h-46z" />
    <glyph glyph-name="Ncaron" unicode="&#x147;" horiz-adv-x="680" 
d="M393 770l-84 130h71l55 -86l85 86h79l-128 -130h-78zM609 700h70l-123 -700h-54l-296 569l-100 -569h-70l123 700h54l297 -569z" />
    <glyph glyph-name="ncaron" unicode="&#x148;" horiz-adv-x="558" 
d="M293 570l-84 130h71l55 -86l85 86h79l-128 -130h-78zM345 512q91 0 136 -56t29 -149l-54 -307h-66l54 307q11 68 -16.5 104.5t-94.5 36.5q-70 0 -122.5 -43t-70.5 -133l-48 -272h-66l88 500h66l-12 -70q68 82 177 82z" />
    <glyph glyph-name="Eng" unicode="&#x14a;" horiz-adv-x="680" 
d="M609 700h70l-123 -700q-20 -115 -83 -158.5t-162 -41.5l12 68q69 -2 109 26.5t54 105.5l4 23l-284 546l-100 -569h-70l123 700h54l297 -569z" />
    <glyph glyph-name="eng" unicode="&#x14b;" horiz-adv-x="558" 
d="M345 512q91 0 136 -56t29 -149l-61 -347q-16 -90 -70.5 -135t-139.5 -37l11 64q57 -6 89.5 19.5t43.5 88.5l61 347q11 68 -16.5 104.5t-94.5 36.5q-70 0 -122.5 -43t-70.5 -133l-48 -272h-66l88 500h66l-12 -70q68 82 177 82z" />
    <glyph glyph-name="Omacron" unicode="&#x14c;" horiz-adv-x="808" 
d="M366 780l10 58h260l-10 -58h-260zM360 -12q-151 0 -239.5 110.5t-61.5 261.5q26 151 145.5 251.5t275.5 100.5q100 0 176 -52.5t110 -139t17 -185.5q-27 -151 -146 -249t-277 -98zM372 56q128 0 223.5 82.5t117.5 206.5q21 124 -48.5 211.5t-196.5 87.5q-126 0 -222 -85
t-117 -209q-22 -123 47.5 -208.5t195.5 -85.5z" />
    <glyph glyph-name="omacron" unicode="&#x14d;" horiz-adv-x="607" 
d="M232 580l10 58h260l-10 -58h-260zM263 -12q-106 0 -174.5 73t-47.5 194t112.5 189t197.5 68q103 0 169.5 -73.5t45.5 -192.5q-14 -84 -63 -144t-110.5 -87t-129.5 -27zM269 52q80 0 148 53t84 148q16 91 -33.5 143t-128.5 52q-80 -1 -147.5 -53t-84.5 -145
q-16 -94 33.5 -146.5t128.5 -51.5z" />
    <glyph glyph-name="Ohungarumlaut" unicode="&#x150;" horiz-adv-x="808" 
d="M365 770h70l96 130h-76zM508 770h70l106 130h-76zM360 -12q-151 0 -239.5 110.5t-61.5 261.5q26 151 145.5 251.5t275.5 100.5q100 0 176 -52.5t110 -139t17 -185.5q-27 -151 -146 -249t-277 -98zM372 56q128 0 223.5 82.5t117.5 206.5q21 124 -48.5 211.5t-196.5 87.5
q-126 0 -222 -85t-117 -209q-22 -123 47.5 -208.5t195.5 -85.5z" />
    <glyph glyph-name="ohungarumlaut" unicode="&#x151;" horiz-adv-x="607" 
d="M231 570h70l96 130h-76zM374 570h70l106 130h-76zM263 -12q-106 0 -174.5 73t-47.5 194t112.5 189t197.5 68q103 0 169.5 -73.5t45.5 -192.5q-14 -84 -63 -144t-110.5 -87t-129.5 -27zM269 52q80 0 148 53t84 148q16 91 -33.5 143t-128.5 52q-80 -1 -147.5 -53
t-84.5 -145q-16 -94 33.5 -146.5t128.5 -51.5z" />
    <glyph glyph-name="OE" unicode="&#x152;" horiz-adv-x="916" 
d="M939 634h-316l-43 -248h300l-12 -66h-300l-44 -254h320l-12 -66h-390q-45 -12 -95 -12q-148 0 -231.5 108t-56.5 259q27 152 144 254.5t272 102.5q49 0 90 -12h385zM454 71l99 558q-41 15 -90 15q-123 0 -218 -85t-116 -209q-22 -124 42.5 -209t187.5 -85q50 0 95 15z
" />
    <glyph glyph-name="oe" unicode="&#x153;" horiz-adv-x="1044" 
d="M804 512q107 0 166.5 -79t38.5 -185q-3 -17 -8 -31h-437q-3 -76 42.5 -120.5t124.5 -44.5q115 0 177 86l52 -34q-36 -54 -101 -85t-132 -31q-79 0 -134 39t-76 106q-40 -67 -108 -106t-151 -39q-111 0 -174 78t-43 189q20 112 106.5 184.5t202.5 72.5q73 0 127 -39.5
t75 -104.5q39 67 106 105.5t146 38.5zM501 250q15 83 -32 140.5t-130 57.5q-87 0 -152 -57t-80 -141q-14 -85 30.5 -141.5t131.5 -56.5q83 0 150.5 57.5t81.5 140.5zM574 281h372q6 82 -36 124.5t-115 42.5q-79 0 -138.5 -45.5t-82.5 -121.5z" />
    <glyph glyph-name="Racute" unicode="&#x154;" horiz-adv-x="610" 
d="M514 900l-116 -130h-66l100 130h82zM439 700q83 0 136 -66.5t37 -153.5q-12 -70 -63 -122.5t-122 -69.5l119 -288h-73l-115 280h-203l-49 -280h-70l123 700h280zM544 490q11 60 -23.5 102t-92.5 42h-211l-50 -288h210q59 0 107.5 42.5t59.5 101.5z" />
    <glyph glyph-name="racute" unicode="&#x155;" horiz-adv-x="315" 
d="M371 700l-116 -130h-66l100 130h82zM168 430q67 85 172 78l-12 -64q-68 0 -120 -40t-67 -126l-49 -278h-66l88 500h66z" />
    <glyph glyph-name="Rcommaaccent" unicode="&#x156;" horiz-adv-x="610" 
d="M439 700q83 0 136 -66.5t37 -153.5q-12 -70 -63 -122.5t-122 -69.5l119 -288h-73l-115 280h-203l-49 -280h-70l123 700h280zM544 490q11 60 -23.5 102t-92.5 42h-211l-50 -288h210q59 0 107.5 42.5t59.5 101.5zM207 -240l40 170h66l-60 -170h-46z" />
    <glyph glyph-name="rcommaaccent" unicode="&#x157;" horiz-adv-x="315" 
d="M168 430q67 85 172 78l-12 -64q-68 0 -120 -40t-67 -126l-49 -278h-66l88 500h66zM-25 -240l40 170h66l-60 -170h-46z" />
    <glyph glyph-name="Rcaron" unicode="&#x158;" horiz-adv-x="610" 
d="M343 770l-84 130h71l55 -86l85 86h79l-128 -130h-78zM439 700q83 0 136 -66.5t37 -153.5q-12 -70 -63 -122.5t-122 -69.5l119 -288h-73l-115 280h-203l-49 -280h-70l123 700h280zM544 490q11 60 -23.5 102t-92.5 42h-211l-50 -288h210q59 0 107.5 42.5t59.5 101.5z" />
    <glyph glyph-name="rcaron" unicode="&#x159;" horiz-adv-x="315" 
d="M200 570l-84 130h71l55 -86l85 86h79l-128 -130h-78zM168 430q67 85 172 78l-12 -64q-68 0 -120 -40t-67 -126l-49 -278h-66l88 500h66z" />
    <glyph glyph-name="Sacute" unicode="&#x15a;" horiz-adv-x="584" 
d="M332 770h66l116 130h-82zM267 -12q-97 0 -160 45t-83 126l61 32q12 -63 58.5 -99t125.5 -36q74 0 124 31t62 85q16 75 -71 118q-26 13 -84 33q-43 15 -72.5 29.5t-62 40t-45 62.5t-2.5 85q17 84 85.5 128t151.5 44q87 0 140.5 -42t76.5 -107l-62 -32q-37 113 -159 113
q-58 0 -105 -29t-58 -82q-7 -32 2 -56.5t36 -42.5t50 -28.5t64 -24.5q103 -37 143 -75q58 -56 41 -142t-88 -131t-169 -45z" />
    <glyph glyph-name="sacute" unicode="&#x15b;" horiz-adv-x="475" 
d="M245 570h66l116 130h-82zM205 -12q-73 0 -119 33t-61 86l59 31q8 -38 41.5 -62t84.5 -24t85 21t41 58q5 28 -13 48t-49 29.5t-66.5 23t-65 28t-46 45.5t-8.5 74q10 56 61 94.5t122 38.5q125 0 169 -102l-58 -31q-11 35 -42 52t-71 17t-74 -19.5t-41 -58.5
q-6 -33 20.5 -53.5t67 -33t80.5 -28t64.5 -49t15.5 -84.5q-11 -63 -63.5 -98.5t-133.5 -35.5z" />
    <glyph glyph-name="Scedilla" unicode="&#x15e;" horiz-adv-x="584" 
d="M340 381q103 -37 143 -75q58 -56 41 -142q-17 -83 -84 -128t-161 -48l-6 -33q40 -8 61.5 -31.5t16.5 -54.5q-8 -45 -56 -69t-164 -16l10 54q144 -12 152 36q4 21 -19.5 31.5t-66.5 9.5l13 76q-78 10 -128.5 53.5t-67.5 114.5l61 32q12 -63 58.5 -99t125.5 -36
q74 0 124 31t62 85q16 75 -71 118q-26 13 -84 33q-43 15 -72.5 29.5t-62 40t-45 62.5t-2.5 85q17 84 85.5 128t151.5 44q87 0 140.5 -42t76.5 -107l-62 -32q-37 113 -159 113q-58 0 -105 -29t-58 -82q-7 -32 2 -56.5t36 -42.5t50 -28.5t64 -24.5z" />
    <glyph glyph-name="scedilla" unicode="&#x15f;" horiz-adv-x="475" 
d="M154 370q-6 -33 20.5 -53.5t67 -33t80.5 -28t64.5 -49t15.5 -84.5q-10 -60 -58.5 -95t-122.5 -39l-6 -33q40 -8 61.5 -31.5t16.5 -54.5q-8 -45 -56 -69t-164 -16l10 54q144 -12 152 36q4 21 -19.5 31.5t-66.5 9.5l13 76q-55 9 -89.5 40t-47.5 76l59 31q8 -38 41.5 -62
t84.5 -24t85 21t41 58q5 28 -13 48t-49 29.5t-66.5 23t-65 28t-46 45.5t-8.5 74q10 56 61 94.5t122 38.5q125 0 169 -102l-58 -31q-11 35 -42 52t-71 17t-74 -19.5t-41 -58.5z" />
    <glyph glyph-name="Scaron" unicode="&#x160;" horiz-adv-x="584" 
d="M343 770l-84 130h71l55 -86l85 86h79l-128 -130h-78zM340 381q103 -37 143 -75q58 -56 41 -142t-88 -131t-169 -45q-97 0 -160 45t-83 126l61 32q12 -63 58.5 -99t125.5 -36q74 0 124 31t62 85q16 75 -71 118q-26 13 -84 33q-43 15 -72.5 29.5t-62 40t-45 62.5t-2.5 85
q17 84 85.5 128t151.5 44q87 0 140.5 -42t76.5 -107l-62 -32q-37 113 -159 113q-58 0 -105 -29t-58 -82q-7 -32 2 -56.5t36 -42.5t50 -28.5t64 -24.5z" />
    <glyph glyph-name="scaron" unicode="&#x161;" horiz-adv-x="475" 
d="M256 570l-84 130h71l55 -86l85 86h79l-128 -130h-78zM269 448q-40 0 -74 -19.5t-41 -58.5q-6 -33 20.5 -53.5t67 -33t80.5 -28t64.5 -49t15.5 -84.5q-11 -63 -63.5 -98.5t-133.5 -35.5q-73 0 -119 33t-61 86l59 31q8 -38 41.5 -62t84.5 -24t85 21t41 58q5 28 -13 48
t-49 29.5t-66.5 23t-65 28t-46 45.5t-8.5 74q10 56 61 94.5t122 38.5q125 0 169 -102l-58 -31q-11 35 -42 52t-71 17z" />
    <glyph glyph-name="uni0162" unicode="&#x162;" horiz-adv-x="540" 
d="M599 700l-11 -66h-216l-111 -634h-70l111 634h-214l11 66h500zM142 -240l40 170h66l-60 -170h-46z" />
    <glyph glyph-name="uni0163" unicode="&#x163;" horiz-adv-x="376" 
d="M224 436l-53 -303q-7 -41 6.5 -59t45.5 -18t79 2l-10 -58q-216 -33 -187 133l54 303h-106l12 64h105l21 120l69 20l-25 -140h145l-12 -64h-144zM109 -240l40 170h66l-60 -170h-46z" />
    <glyph glyph-name="Tcaron" unicode="&#x164;" horiz-adv-x="540" 
d="M323 770l-84 130h71l55 -86l85 86h79l-128 -130h-78zM599 700l-11 -66h-216l-111 -634h-70l111 634h-214l11 66h500z" />
    <glyph glyph-name="tcaron" unicode="&#x165;" horiz-adv-x="376" 
d="M405 715l-59 -160h-46l39 160h66zM260 640l-25 -140h145l-12 -64h-144l-53 -303q-7 -41 6.5 -59t45.5 -18t79 2l-10 -58q-216 -33 -187 133l54 303h-106l12 64h105l21 120z" />
    <glyph glyph-name="Tbar" unicode="&#x166;" horiz-adv-x="540" 
d="M588 634h-216l-44 -252h145l-11 -64h-145l-56 -318h-70l56 318h-145l11 64h145l44 252h-214l11 66h500z" />
    <glyph glyph-name="tbar" unicode="&#x167;" horiz-adv-x="376" 
d="M368 436h-144l-26 -149h97l-9 -54h-97l-18 -100q-7 -41 6.5 -59t45.5 -18t79 2l-10 -58q-216 -33 -187 133l18 100h-67l9 54h67l27 149h-106l12 64h105l21 120l69 20l-25 -140h145z" />
    <glyph glyph-name="Umacron" unicode="&#x16a;" horiz-adv-x="660" 
d="M292 780l10 58h260l-10 -58h-260zM294 -12q-118 0 -181.5 69.5t-44.5 180.5l81 462h70l-81 -462q-15 -83 26 -132.5t130 -49.5q91 0 150.5 50.5t73.5 131.5l81 462h70l-81 -462q-21 -117 -101 -183.5t-193 -66.5z" />
    <glyph glyph-name="umacron" unicode="&#x16b;" horiz-adv-x="558" 
d="M468 638l-10 -58h-260l10 58h260zM466 500h66l-88 -500h-66l12 70q-68 -82 -177 -82q-91 0 -136 56t-29 149l54 307h66l-54 -307q-11 -68 16.5 -104.5t94.5 -36.5q70 0 122.5 43t70.5 133z" />
    <glyph glyph-name="Uring" unicode="&#x16e;" horiz-adv-x="660" 
d="M415 720q-49 0 -73.5 30t-17.5 73t41 70t80 27q49 0 73 -30.5t18 -72.5q-7 -43 -40.5 -70t-80.5 -27zM421 771q24 0 40.5 14t20.5 35q4 22 -8 35.5t-35 13.5q-22 0 -39 -13t-21 -36q-4 -22 7.5 -35.5t34.5 -13.5zM294 -12q-118 0 -181.5 69.5t-44.5 180.5l81 462h70
l-81 -462q-15 -83 26 -132.5t130 -49.5q91 0 150.5 50.5t73.5 131.5l81 462h70l-81 -462q-21 -117 -101 -183.5t-193 -66.5z" />
    <glyph glyph-name="uring" unicode="&#x16f;" horiz-adv-x="558" 
d="M326 550q-49 0 -73.5 30t-17.5 73t41 70t80 27q49 0 73 -30.5t18 -72.5q-7 -43 -40.5 -70t-80.5 -27zM290 650q-4 -22 7.5 -35.5t34.5 -13.5q24 0 40.5 14t20.5 35q4 22 -8 35.5t-35 13.5q-22 0 -39 -13t-21 -36zM466 500h66l-88 -500h-66l12 70q-68 -82 -177 -82
q-91 0 -136 56t-29 149l54 307h66l-54 -307q-11 -68 16.5 -104.5t94.5 -36.5q70 0 122.5 43t70.5 133z" />
    <glyph glyph-name="Uhungarumlaut" unicode="&#x170;" horiz-adv-x="660" 
d="M291 770h70l96 130h-76zM434 770h70l106 130h-76zM294 -12q-118 0 -181.5 69.5t-44.5 180.5l81 462h70l-81 -462q-15 -83 26 -132.5t130 -49.5q91 0 150.5 50.5t73.5 131.5l81 462h70l-81 -462q-21 -117 -101 -183.5t-193 -66.5z" />
    <glyph glyph-name="uhungarumlaut" unicode="&#x171;" horiz-adv-x="558" 
d="M363 700l-96 -130h-70l90 130h76zM410 570h-70l100 130h76zM466 500h66l-88 -500h-66l12 70q-68 -82 -177 -82q-91 0 -136 56t-29 149l54 307h66l-54 -307q-11 -68 16.5 -104.5t94.5 -36.5q70 0 122.5 43t70.5 133z" />
    <glyph glyph-name="Uogonek" unicode="&#x172;" horiz-adv-x="660" 
d="M599 700h70l-81 -462q-25 -141 -136 -209q-132 -92 -141 -152q-3 -18 5.5 -25t26.5 -7q20 0 40 8l-9 -55q-24 -10 -55 -10q-42 0 -61.5 22.5t-13.5 58.5q9 57 84 121q-22 -2 -34 -2q-118 0 -181.5 69.5t-44.5 180.5l81 462h70l-81 -462q-15 -83 26 -132.5t130 -49.5
q91 0 150.5 50.5t73.5 131.5z" />
    <glyph glyph-name="uogonek" unicode="&#x173;" horiz-adv-x="559" 
d="M444 0q-40 -32 -67 -66t-31 -58q-4 -31 29 -31q21 0 43 9l-9 -55q-30 -11 -61 -11q-39 0 -57 23t-12 58q10 54 101 142l10 59q-68 -82 -177 -82q-91 0 -136 56t-29 149l54 307h66l-54 -307q-11 -68 16.5 -104.5t94.5 -36.5q70 0 122.5 43t70.5 133l48 272h66z" />
    <glyph glyph-name="Wcircumflex" unicode="&#x174;" horiz-adv-x="1000" 
d="M610 857l-85 -87h-78l128 130h78l84 -130h-72zM975 700h74l-326 -700h-84l-76 608l-290 -608h-84l-80 700h69l68 -608l289 608h82l76 -608z" />
    <glyph glyph-name="wcircumflex" unicode="&#x175;" horiz-adv-x="770" 
d="M460 657l-85 -87h-78l128 130h78l84 -130h-72zM713 500h71l-242 -500h-72l-58 403l-200 -403h-72l-66 500h65l50 -415l204 415h67l-1 -2l58 -413z" />
    <glyph glyph-name="Ycircumflex" unicode="&#x176;" horiz-adv-x="575" 
d="M394 857l-85 -87h-78l128 130h78l84 -130h-72zM644 700l-309 -374l-57 -326h-70l57 327l-176 373h72l146 -309l255 309h82z" />
    <glyph glyph-name="ycircumflex" unicode="&#x177;" horiz-adv-x="510" 
d="M313 657l-85 -87h-78l128 130h78l84 -130h-72zM470 500h74l-310 -546q-45 -79 -104 -119t-125 -35l11 62q83 -9 151 104l21 35l-134 499h67l111 -425z" />
    <glyph glyph-name="Ydieresis" unicode="&#x178;" horiz-adv-x="575" 
d="M281 775q-19 0 -30 13t-7 32q3 19 18.5 32t34.5 13t29.5 -13t7.5 -32q-4 -19 -19 -32t-34 -13zM471 775q-19 0 -30 13t-7 32q3 19 18.5 32t34.5 13t29.5 -13t7.5 -32q-4 -19 -19 -32t-34 -13zM644 700l-309 -374l-57 -326h-70l57 327l-176 373h72l146 -309l255 309h82z
" />
    <glyph glyph-name="Zacute" unicode="&#x179;" horiz-adv-x="520" 
d="M489 900l-116 -130h-66l100 130h82zM559 700l-11 -66l-461 -568h371l-12 -66h-450l12 66l460 568h-350l11 66h430z" />
    <glyph glyph-name="zacute" unicode="&#x17a;" horiz-adv-x="450" 
d="M421 700l-116 -130h-66l100 130h82zM454 500l-8 -44l-344 -392h285l-11 -64h-380l8 44l344 392h-265l11 64h360z" />
    <glyph glyph-name="Zdotaccent" unicode="&#x17b;" horiz-adv-x="520" 
d="M356 770q-23 0 -36 16t-9 39t22.5 39t41.5 16t36.5 -16t9.5 -39q-5 -23 -23.5 -39t-41.5 -16zM559 700l-11 -66l-461 -568h371l-12 -66h-450l12 66l460 568h-350l11 66h430z" />
    <glyph glyph-name="zdotaccent" unicode="&#x17c;" horiz-adv-x="450" 
d="M288 570q-23 0 -36 16t-9 39t22.5 39t41.5 16t36.5 -16t9.5 -39q-5 -23 -23.5 -39t-41.5 -16zM454 500l-8 -44l-344 -392h285l-11 -64h-380l8 44l344 392h-265l11 64h360z" />
    <glyph glyph-name="Zcaron" unicode="&#x17d;" horiz-adv-x="520" 
d="M318 770l-84 130h71l55 -86l85 86h79l-128 -130h-78zM559 700l-11 -66l-461 -568h371l-12 -66h-450l12 66l460 568h-350l11 66h430z" />
    <glyph glyph-name="zcaron" unicode="&#x17e;" horiz-adv-x="450" 
d="M250 570l-84 130h71l55 -86l85 86h79l-128 -130h-78zM83 436l11 64h360l-8 -44l-344 -392h285l-11 -64h-380l8 44l344 392h-265z" />
    <glyph glyph-name="florin" unicode="&#x192;" horiz-adv-x="439" 
d="M295 571q31 91 91 123.5t133 8.5l-11 -64q-51 20 -88.5 1t-55.5 -69l-64 -188h114l-12 -64h-124l-133 -388q-31 -91 -91.5 -123.5t-132.5 -8.5l11 64q51 -20 88.5 -1t55.5 69l133 388h-108l12 64h118z" />
    <glyph glyph-name="Scommaaccent" unicode="&#x218;" horiz-adv-x="584" 
d="M267 -12q-97 0 -160 45t-83 126l61 32q12 -63 58.5 -99t125.5 -36q74 0 124 31t62 85q16 75 -71 118q-26 13 -84 33q-43 15 -72.5 29.5t-62 40t-45 62.5t-2.5 85q17 84 85.5 128t151.5 44q87 0 140.5 -42t76.5 -107l-62 -32q-37 113 -159 113q-58 0 -105 -29t-58 -82
q-7 -32 2 -56.5t36 -42.5t50 -28.5t64 -24.5q103 -37 143 -75q58 -56 41 -142t-88 -131t-169 -45zM231 -240l60 170h-66l-40 -170h46z" />
    <glyph glyph-name="scommaaccent" unicode="&#x219;" horiz-adv-x="475" 
d="M205 -12q-73 0 -119 33t-61 86l59 31q8 -38 41.5 -62t84.5 -24t85 21t41 58q5 28 -13 48t-49 29.5t-66.5 23t-65 28t-46 45.5t-8.5 74q10 56 61 94.5t122 38.5q125 0 169 -102l-58 -31q-11 35 -42 52t-71 17t-74 -19.5t-41 -58.5q-6 -33 20.5 -53.5t67 -33t80.5 -28
t64.5 -49t15.5 -84.5q-11 -63 -63.5 -98.5t-133.5 -35.5zM173 -240l60 170h-66l-40 -170h46z" />
    <glyph glyph-name="uni021A" unicode="&#x21a;" horiz-adv-x="540" 
d="M599 700l-11 -66h-216l-111 -634h-70l111 634h-214l11 66h500zM142 -240l40 170h66l-60 -170h-46z" />
    <glyph glyph-name="uni021B" unicode="&#x21b;" horiz-adv-x="376" 
d="M224 436l-53 -303q-7 -41 6.5 -59t45.5 -18t79 2l-10 -58q-216 -33 -187 133l54 303h-106l12 64h105l21 120l69 20l-25 -140h145l-12 -64h-144zM109 -240l40 170h66l-60 -170h-46z" />
    <glyph glyph-name="circumflex" unicode="&#x2c6;" horiz-adv-x="330" 
d="M366 570h-72l-55 87l-85 -87h-78l128 130h78z" />
    <glyph glyph-name="caron" unicode="&#x2c7;" horiz-adv-x="330" 
d="M310 700h79l-128 -130h-78l-84 130h71l55 -86z" />
    <glyph glyph-name="breve" unicode="&#x2d8;" horiz-adv-x="320" 
d="M216 562q-61 0 -95 35t-23 95h64q-7 -39 9 -55.5t54 -16.5q76 0 89 72h64q-11 -63 -52.5 -96.5t-109.5 -33.5z" />
    <glyph glyph-name="dotaccent" unicode="&#x2d9;" horiz-adv-x="130" 
d="M126 570q-23 0 -36 16t-9 39t22.5 39t41.5 16t36.5 -16t9.5 -39q-5 -23 -23.5 -39t-41.5 -16z" />
    <glyph glyph-name="ring" unicode="&#x2da;" horiz-adv-x="253" 
d="M182 550q-49 0 -73.5 30t-17.5 73t41 70t80 27q49 0 73 -30.5t18 -72.5q-7 -43 -40.5 -70t-80.5 -27zM188 601q24 0 40.5 14t20.5 35q4 22 -8 35.5t-35 13.5q-22 0 -39 -13t-21 -36q-4 -22 7.5 -35.5t34.5 -13.5z" />
    <glyph glyph-name="ogonek" unicode="&#x2db;" horiz-adv-x="183" 
d="M24 -212q-40 0 -58 25.5t-12 60.5q10 62 96 126h69q-91 -72 -98 -120q-2 -15 5.5 -25t23.5 -10q20 0 43 9l-10 -56q-23 -10 -59 -10z" />
    <glyph glyph-name="tilde" unicode="&#x2dc;" horiz-adv-x="320" 
d="M78 580q10 60 36.5 89t58 27t62.5 -29q16 -14 25.5 -21t20 -11t17 1t12.5 18t10 36h58q-10 -60 -36 -89t-57.5 -27t-62.5 29q-20 17 -31.5 24.5t-23 8.5t-19 -13t-12.5 -43h-58z" />
    <glyph glyph-name="hungarumlaut" unicode="&#x2dd;" horiz-adv-x="336" 
d="M76 570h70l96 130h-76zM219 570h70l106 130h-76z" />
    <glyph glyph-name="gravecomb" unicode="&#x300;" horiz-adv-x="0" 
d="M37 570l-58 130h-80l74 -130h64z" />
    <glyph glyph-name="acutecomb" unicode="&#x301;" horiz-adv-x="0" 
d="M-123 570h66l116 130h-82z" />
    <glyph glyph-name="uni0302" unicode="&#x302;" horiz-adv-x="0" 
d="M36 570h-72l-55 87l-85 -87h-78l128 130h78z" />
    <glyph glyph-name="tildecomb" unicode="&#x303;" horiz-adv-x="0" 
d="M-242 580q10 60 36.5 89t58 27t62.5 -29q16 -14 25.5 -21t20 -11t17 1t12.5 18t10 36h58q-10 -60 -36 -89t-57.5 -27t-62.5 29q-20 17 -31.5 24.5t-23 8.5t-19 -13t-12.5 -43h-58z" />
    <glyph glyph-name="uni0304" unicode="&#x304;" horiz-adv-x="0" 
d="M-222 580l10 58h260l-10 -58h-260z" />
    <glyph glyph-name="uni0306" unicode="&#x306;" horiz-adv-x="0" 
d="M-104 562q-61 0 -95 35t-23 95h64q-7 -39 9 -55.5t54 -16.5q76 0 89 72h64q-11 -63 -52.5 -96.5t-109.5 -33.5z" />
    <glyph glyph-name="uni0307" unicode="&#x307;" horiz-adv-x="0" 
d="M-19 570q-23 0 -36 16t-9 39t22.5 39t41.5 16t36.5 -16t9.5 -39q-5 -23 -23.5 -39t-41.5 -16z" />
    <glyph glyph-name="uni0308" unicode="&#x308;" horiz-adv-x="0" 
d="M-197 575q-19 0 -30 13t-7 32q3 19 18.5 32t34.5 13t29.5 -13t7.5 -32q-4 -19 -19 -32t-34 -13zM-7 575q-19 0 -30 13t-7 32q3 19 18.5 32t34.5 13t29.5 -13t7.5 -32q-4 -19 -19 -32t-34 -13z" />
    <glyph glyph-name="uni030A" unicode="&#x30a;" horiz-adv-x="0" 
d="M-71 550q-49 0 -73.5 30t-17.5 73t41 70t80 27q49 0 73 -30.5t18 -72.5q-7 -43 -40.5 -70t-80.5 -27zM-65 601q24 0 40.5 14t20.5 35q4 22 -8 35.5t-35 13.5q-22 0 -39 -13t-21 -36q-4 -22 7.5 -35.5t34.5 -13.5z" />
    <glyph glyph-name="uni030B" unicode="&#x30b;" horiz-adv-x="0" 
d="M-260 570h70l96 130h-76zM-117 570h70l106 130h-76z" />
    <glyph glyph-name="uni030C" unicode="&#x30c;" horiz-adv-x="0" 
d="M-20 700h79l-128 -130h-78l-84 130h71l55 -86z" />
    <glyph glyph-name="uni0312" unicode="&#x312;" horiz-adv-x="0" 
d="M59 960l-60 -170h66l40 170h-46z" />
    <glyph glyph-name="uni0326" unicode="&#x326;" horiz-adv-x="0" 
d="M-136 -240l60 170h-66l-40 -170h46z" />
    <glyph glyph-name="uni0327" unicode="&#x327;" horiz-adv-x="0" 
d="M-165 -45q40 -8 61.5 -31.5t16.5 -54.5q-8 -45 -56 -69t-164 -16l10 54q144 -12 152 36q4 21 -19.5 31.5t-66.5 9.5l15 85h59z" />
    <glyph glyph-name="uni0328" unicode="&#x328;" horiz-adv-x="0" 
d="M-159 -212q-40 0 -58 25.5t-12 60.5q10 62 96 126h69q-91 -72 -98 -120q-2 -15 6 -25t23 -10q21 0 43 9l-10 -56q-23 -10 -59 -10z" />
    <glyph glyph-name="uni0394" unicode="&#x394;" horiz-adv-x="630" 
d="M430 700l146 -700h-610l392 700h72zM80 66h413l-111 547z" />
    <glyph glyph-name="uni03A9" unicode="&#x3a9;" horiz-adv-x="807" 
d="M783 342q-16 -89 -68.5 -160.5t-129.5 -115.5h136l-12 -66h-273l12 66q99 25 173 103.5t92 180.5q21 123 -47.5 208.5t-192.5 85.5q-125 0 -224 -85.5t-120 -208.5q-18 -103 27.5 -181t137.5 -103l-9 -50l-3 -16h-273l12 66h141q-64 46 -91.5 123.5t-11.5 168.5
q26 151 147 252.5t279 101.5q148 0 236 -110t62 -260z" />
    <glyph glyph-name="pi" unicode="&#x3c0;" horiz-adv-x="650" 
d="M664 500l-11 -64h-83l-77 -436h-66l77 436h-288l-77 -436h-66l77 436h-87l11 64h590z" />
    <glyph glyph-name="uni0401" unicode="&#x401;" horiz-adv-x="530" 
d="M280 775q-19 0 -30 13t-7 32q3 19 18.5 32t34.5 13t29.5 -13t7.5 -32q-4 -19 -19 -32t-34 -13zM470 775q-19 0 -30 13t-7 32q3 19 18.5 32t34.5 13t29.5 -13t7.5 -32q-4 -19 -19 -32t-34 -13zM553 634h-336l-43 -248h310l-12 -66h-310l-44 -254h340l-12 -66h-410l123 700
h405z" />
    <glyph glyph-name="uni0402" unicode="&#x402;" horiz-adv-x="688" 
d="M474 472q87 0 133.5 -48t31.5 -142l-21 -118q-33 -186 -210 -172l11 64q57 -6 87.5 19t41.5 89l21 118q11 68 -15.5 97t-86.5 29q-77 0 -161 -38l-65 -370h-70l111 634h-194l11 66h490l-11 -66h-226l-34 -196q80 34 156 34z" />
    <glyph glyph-name="uni0403" unicode="&#x403;" horiz-adv-x="490" 
d="M500 899l-116 -130h-66l100 130h82zM549 700l-11 -66h-321l-111 -634h-70l123 700h390z" />
    <glyph glyph-name="uni0404" unicode="&#x404;" horiz-adv-x="745" 
d="M470 644q-119 0 -212 -74t-124 -187h386l-12 -66h-385q-8 -114 59.5 -187.5t185.5 -73.5q81 0 151.5 38t115.5 105l59 -37q-56 -80 -145 -127t-189 -47q-158 0 -243 110t-58 262q27 151 145 251.5t267 100.5q102 0 176 -46.5t111 -127.5l-62 -33q-63 139 -226 139z" />
    <glyph glyph-name="uni0405" unicode="&#x405;" horiz-adv-x="584" 
d="M267 -12q-97 0 -160 45t-83 126l61 32q12 -63 58.5 -99t125.5 -36q74 0 124 31t62 85q16 75 -71 118q-26 13 -84 33q-43 15 -72.5 29.5t-62 40t-45 62.5t-2.5 85q17 84 85.5 128t151.5 44q87 0 140.5 -42t76.5 -107l-62 -32q-37 113 -159 113q-58 0 -105 -29t-58 -82
q-7 -32 2 -56.5t36 -42.5t50 -28.5t64 -24.5q103 -37 143 -75q58 -56 41 -142t-88 -131t-169 -45z" />
    <glyph glyph-name="uni0406" unicode="&#x406;" horiz-adv-x="230" 
d="M159 700h70l-123 -700h-70z" />
    <glyph glyph-name="uni0407" unicode="&#x407;" horiz-adv-x="230" 
d="M112 775q-19 0 -30 13t-7 32q3 19 18.5 32t34.5 13t29.5 -13t7.5 -32q-4 -19 -19 -32t-34 -13zM302 775q-19 0 -30 13t-7 32q3 19 18.5 32t34.5 13t29.5 -13t7.5 -32q-4 -19 -19 -32t-34 -13zM159 700h70l-123 -700h-70z" />
    <glyph glyph-name="uni0408" unicode="&#x408;" horiz-adv-x="553" 
d="M215 -12q-157 0 -199 124l63 34q27 -90 141 -90q72 0 121 35t62 107l88 502h70l-88 -504q-19 -107 -91 -157.5t-167 -50.5z" />
    <glyph glyph-name="uni0409" unicode="&#x409;" horiz-adv-x="996" 
d="M772 400q86 0 137.5 -60t36.5 -146t-85 -140t-160 -54h-230l112 634h-284l-58 -325q-17 -98 -43 -162t-61 -97t-74.5 -44t-91.5 -7l11 62q71 -10 117 45.5t73 204.5l68 389h424l-53 -300h161zM876 202q10 58 -23.5 95t-92.5 37h-160l-47 -268h160q59 0 106 38.5t57 97.5z
" />
    <glyph glyph-name="uni040A" unicode="&#x40a;" horiz-adv-x="981" 
d="M757 400q86 0 137.5 -60t36.5 -146t-85 -140t-160 -54h-230l59 334h-350l-59 -334h-70l123 700h70l-53 -300h350l53 300h70l-53 -300h161zM861 202q10 58 -23.5 95t-92.5 37h-160l-47 -268h160q59 0 106 38.5t57 97.5z" />
    <glyph glyph-name="uni040B" unicode="&#x40b;" horiz-adv-x="693" 
d="M474 472q87 0 133.5 -48t31.5 -142l-50 -282h-70l50 282q11 68 -15.5 97t-86.5 29q-77 0 -161 -38l-65 -370h-70l111 634h-194l11 66h490l-11 -66h-226l-34 -196q80 34 156 34z" />
    <glyph glyph-name="uni040C" unicode="&#x40c;" horiz-adv-x="578" 
d="M510 899l-116 -130h-66l100 130h82zM641 700l-397 -345l280 -355h-83l-274 346l-61 -346h-70l123 700h70l-56 -322l374 322h94z" />
    <glyph glyph-name="uni040E" unicode="&#x40e;" 
d="M525 837l-10 -58h-260l10 58h260zM567 700h72l-319 -547q-50 -86 -109 -122t-141 -31l11 62q56 -5 95.5 18t72.5 79l21 35l-161 506h68l137 -431z" />
    <glyph glyph-name="uni040F" unicode="&#x40f;" horiz-adv-x="660" 
d="M589 700h70l-123 -700h-215l-24 -134h-70l24 134h-215l123 700h70l-111 -634h360z" />
    <glyph glyph-name="uni0410" unicode="&#x410;" horiz-adv-x="630" 
d="M504 0l-34 172h-332l-96 -172h-76l392 700h72l146 -700h-72zM174 238h283l-74 375z" />
    <glyph glyph-name="uni0411" unicode="&#x411;" horiz-adv-x="587" 
d="M558 634h-341l-37 -214h190q83 0 136 -66.5t37 -153.5q-15 -86 -85.5 -143t-161.5 -57h-260l123 700h410zM358 354h-190l-50 -288h190q59 0 107.5 42.5t59.5 101.5q12 63 -23 103.5t-94 40.5z" />
    <glyph glyph-name="uni0412" unicode="&#x412;" horiz-adv-x="620" 
d="M595 507q-15 -97 -107 -146q45 -23 67.5 -68.5t13.5 -102.5q-12 -79 -76 -134.5t-152 -55.5h-305l123 700h267q82 0 131.5 -57t37.5 -136zM526 512q9 51 -20.5 86.5t-81.5 35.5h-207l-42 -244h211q49 0 90 35.5t50 86.5zM500 195q9 53 -20.5 91t-81.5 38h-235l-45 -258
h229q56 0 100 38t53 91z" />
    <glyph glyph-name="uni0413" unicode="&#x413;" horiz-adv-x="490" 
d="M549 700l-11 -66h-321l-111 -634h-70l123 700h390z" />
    <glyph glyph-name="uni0414" unicode="&#x414;" horiz-adv-x="690" 
d="M548 66h75l-35 -200h-70l23 134h-500l-23 -134h-70l35 200h56q84 81 114 250l67 384h439zM126 66h352l100 568h-299l-57 -320q-29 -164 -96 -248z" />
    <glyph glyph-name="uni0415" unicode="&#x415;" horiz-adv-x="530" 
d="M553 634h-336l-43 -248h310l-12 -66h-310l-44 -254h340l-12 -66h-410l123 700h405z" />
    <glyph glyph-name="uni0416" unicode="&#x416;" horiz-adv-x="850" 
d="M899 700l-354 -347l241 -353h-74l-236 342l-60 -342h-70l60 342l-341 -342h-89l367 367l-234 333h74l229 -323l57 323h70l-57 -322l330 322h87z" />
    <glyph glyph-name="uni0417" unicode="&#x417;" horiz-adv-x="567" 
d="M547 513q-18 -106 -123 -153q53 -23 77 -69.5t14 -106.5q-16 -89 -85.5 -142.5t-188.5 -53.5q-94 0 -147.5 45t-71.5 113l63 32q16 -58 51.5 -91t116.5 -33t131.5 39t61.5 100q10 59 -25 95t-108 36h-80l11 66h55q71 0 120 38t59 95q10 54 -26 88.5t-104 34.5
q-117 0 -185 -113l-56 37q85 142 253 142q97 0 149.5 -58t37.5 -141z" />
    <glyph glyph-name="uni0418" unicode="&#x418;" horiz-adv-x="680" 
d="M36 0l123 700h70l-100 -564l490 564h60l-123 -700h-70l99 564l-489 -564h-60z" />
    <glyph glyph-name="uni0419" unicode="&#x419;" horiz-adv-x="680" 
d="M303 780l10 58h260l-10 -58h-260zM36 0l123 700h70l-100 -564l490 564h60l-123 -700h-70l99 564l-489 -564h-60z" />
    <glyph glyph-name="uni041A" unicode="&#x41a;" horiz-adv-x="578" 
d="M641 700l-397 -345l280 -355h-83l-274 346l-61 -346h-70l123 700h70l-56 -322l374 322h94z" />
    <glyph glyph-name="uni041B" unicode="&#x41b;" horiz-adv-x="695" 
d="M-29 -1l11 62q71 -10 117 45.5t73 204.5l68 389h454l-123 -700h-70l112 634h-314l-58 -325q-18 -99 -44 -163.5t-62 -97t-74.5 -43t-89.5 -6.5z" />
    <glyph glyph-name="uni041C" unicode="&#x41c;" horiz-adv-x="800" 
d="M799 700l-123 -700h-70l103 589l-312 -405h-10l-176 416l-105 -600h-70l123 700h82l166 -394l304 394h88z" />
    <glyph glyph-name="uni041D" unicode="&#x41d;" horiz-adv-x="680" 
d="M609 700h70l-123 -700h-70l57 327h-380l-57 -327h-70l123 700h70l-54 -307h380z" />
    <glyph glyph-name="uni041E" unicode="&#x41e;" horiz-adv-x="808" 
d="M360 -12q-151 0 -239.5 110.5t-61.5 261.5q26 151 145.5 251.5t275.5 100.5q100 0 176 -52.5t110 -139t17 -185.5q-27 -151 -146 -249t-277 -98zM372 56q128 0 223.5 82.5t117.5 206.5q21 124 -48.5 211.5t-196.5 87.5q-126 0 -222 -85t-117 -209q-22 -123 47.5 -208.5
t195.5 -85.5z" />
    <glyph glyph-name="uni041F" unicode="&#x41f;" horiz-adv-x="660" 
d="M659 700l-123 -700h-70l111 634h-360l-111 -634h-70l123 700h500z" />
    <glyph glyph-name="uni0420" unicode="&#x420;" horiz-adv-x="589" 
d="M404 700q99 0 150.5 -63t35.5 -157q-16 -95 -90 -157.5t-189 -62.5h-159l-46 -260h-70l123 700h245zM522 490q11 66 -23 105t-102 39h-180l-54 -308h156q83 0 137 46.5t66 117.5z" />
    <glyph glyph-name="uni0421" unicode="&#x421;" horiz-adv-x="745" 
d="M360 -12q-158 0 -243 110t-58 262q27 151 145 251.5t267 100.5q102 0 176 -46.5t111 -127.5l-62 -33q-63 139 -226 139q-128 0 -225 -85t-118 -209q-21 -126 47 -210t194 -84q81 0 151.5 38t115.5 105l59 -37q-56 -80 -145 -127t-189 -47z" />
    <glyph glyph-name="uni0422" unicode="&#x422;" horiz-adv-x="540" 
d="M599 700l-11 -66h-216l-111 -634h-70l111 634h-214l11 66h500z" />
    <glyph glyph-name="uni0423" unicode="&#x423;" 
d="M567 700h72l-319 -547q-50 -86 -109 -122t-141 -31l11 62q56 -5 95.5 18t72.5 79l21 35l-161 506h68l137 -431z" />
    <glyph glyph-name="uni0424" unicode="&#x424;" horiz-adv-x="806" 
d="M503 621q146 -9 229 -82t61 -194q-22 -123 -126 -191.5t-259 -74.5l-14 -79h-70l14 79q-95 6 -164.5 39t-104.5 94.5t-20 142.5q21 122 125.5 191t258.5 75l14 79h70zM119 350q-17 -96 45.5 -148.5t184.5 -58.5l73 414q-124 -6 -205 -58.5t-98 -148.5zM723 350
q17 96 -46 148.5t-185 58.5l-73 -414q124 6 205.5 58.5t98.5 148.5z" />
    <glyph glyph-name="uni0425" unicode="&#x425;" horiz-adv-x="580" 
d="M624 700l-277 -342l169 -358h-72l-142 302l-244 -302h-82l296 366l-158 334h72l131 -278l225 278h82z" />
    <glyph glyph-name="uni0426" unicode="&#x426;" horiz-adv-x="690" 
d="M548 66h75l-35 -200h-70l23 134h-505l123 700h70l-111 -634h360l111 634h70z" />
    <glyph glyph-name="uni0427" unicode="&#x427;" horiz-adv-x="625" 
d="M554 700h70l-123 -700h-70l50 282q-85 -32 -174 -32q-116 0 -169.5 56t-37.5 144l44 250h70l-44 -250q-11 -64 23.5 -99t123.5 -35q86 0 176 35z" />
    <glyph glyph-name="uni0428" unicode="&#x428;" horiz-adv-x="950" 
d="M879 700h70l-123 -700h-790l123 700h70l-111 -634h290l111 634h70l-111 -634h290z" />
    <glyph glyph-name="uni0429" unicode="&#x429;" horiz-adv-x="980" 
d="M838 66h74l-35 -200h-70l24 134h-795l123 700h70l-111 -634h290l111 634h70l-111 -634h290l111 634h70z" />
    <glyph glyph-name="uni042A" unicode="&#x42a;" horiz-adv-x="701" 
d="M146 0l111 634h-189l11 66h260l-46 -260h175q91 0 146.5 -68.5t39.5 -161.5q-16 -94 -87.5 -152t-170.5 -58h-250zM228 66h179q65 0 115 43.5t62 110.5t-23 110.5t-104 43.5h-175z" />
    <glyph glyph-name="uni042B" unicode="&#x42b;" horiz-adv-x="775" 
d="M36 0l123 700h70l-46 -260h175q91 0 146.5 -68.5t39.5 -161.5q-16 -94 -87.5 -152t-170.5 -58h-250zM581 0l123 700h70l-123 -700h-70zM118 66h179q65 0 115 43.5t62 110.5t-23 110.5t-104 43.5h-175z" />
    <glyph glyph-name="uni042C" unicode="&#x42c;" horiz-adv-x="591" 
d="M358 440q91 0 146.5 -68.5t39.5 -161.5q-16 -94 -87.5 -152t-170.5 -58h-250l123 700h70l-46 -260h175zM474 220q12 67 -23 110.5t-104 43.5h-175l-54 -308h179q65 0 115 43.5t62 110.5z" />
    <glyph glyph-name="uni042D" unicode="&#x42d;" horiz-adv-x="739" 
d="M421 712q104 0 178 -52t103.5 -136t12.5 -182q-25 -149 -138.5 -251.5t-273.5 -102.5q-105 0 -178 47t-104 129l64 34q24 -66 81.5 -104t141.5 -38q119 0 209 73.5t121 187.5h-384l12 66h383q10 115 -54 188t-182 73q-85 0 -155.5 -39.5t-113.5 -106.5l-59 37
q54 80 144 128.5t192 48.5z" />
    <glyph glyph-name="uni042E" unicode="&#x42e;" horiz-adv-x="1042" 
d="M714 712q100 0 176 -52.5t110 -139t17 -185.5q-27 -151 -146 -249t-277 -98q-142 0 -227.5 99t-72.5 240h-131l-57 -327h-70l123 700h70l-54 -307h130q36 139 149.5 229t259.5 90zM947 345q21 124 -48.5 211.5t-196.5 87.5q-126 0 -222 -85t-117 -209
q-22 -123 47.5 -208.5t195.5 -85.5q128 0 223.5 82.5t117.5 206.5z" />
    <glyph glyph-name="uni042F" unicode="&#x42f;" horiz-adv-x="620" 
d="M619 700l-123 -700h-70l49 280h-163l-241 -280h-85l246 285q-73 16 -113 76.5t-27 136.5q16 87 86.5 144.5t164.5 57.5h276zM287 346h200l50 288h-205q-61 0 -110 -40.5t-60 -100.5q-11 -61 24.5 -104t100.5 -43z" />
    <glyph glyph-name="uni0430" unicode="&#x430;" horiz-adv-x="638" 
d="M546 500h66l-88 -500h-66l15 85q-81 -97 -217 -97q-105 0 -169 81t-45 191q21 120 103.5 186t182.5 66q65 0 119 -30.5t80 -87.5zM272 52q82 0 147 52.5t81 133.5l2 12q14 92 -37.5 145t-131.5 53q-78 0 -143.5 -51t-81.5 -142q-14 -84 33 -143.5t131 -59.5z" />
    <glyph glyph-name="uni0431" unicode="&#x431;" horiz-adv-x="568" 
d="M250 -12q-103 0 -167 72.5t-44 184.5q22 129 71.5 198t174.5 125q24 11 62.5 26t58.5 23.5t44 22.5t38.5 32t22.5 43l50 -30q-8 -24 -24 -45t-30.5 -34t-43.5 -28.5t-44.5 -22t-54 -21.5l-51.5 -20q-72 -29 -110 -59t-61 -78q78 78 198 78q93 0 151.5 -69t40.5 -169
q-18 -102 -96 -165.5t-186 -63.5zM257 54q79 0 137.5 47.5t71.5 120.5t-28 121t-116 48q-74 0 -139 -42.5t-78 -116.5q-13 -76 31 -127t121 -51z" />
    <glyph glyph-name="uni0432" unicode="&#x432;" horiz-adv-x="499" 
d="M465 360q-13 -74 -77 -105q36 -16 52.5 -48t8.5 -73q-10 -61 -56 -97.5t-124 -36.5h-243l88 500h223q66 0 102.5 -41t25.5 -99zM399 362q7 35 -12.5 54.5t-61.5 19.5h-156l-27 -152h151q44 0 72 20.5t34 57.5zM385 144q6 35 -14 55.5t-64 20.5h-176l-28 -156h177
q42 0 70 21.5t35 58.5z" />
    <glyph glyph-name="uni0433" unicode="&#x433;" horiz-adv-x="395" 
d="M434 500l-11 -64h-254l-77 -436h-66l88 500h320z" />
    <glyph glyph-name="uni0434" unicode="&#x434;" horiz-adv-x="590" 
d="M457 64h70l-35 -198h-66l24 134h-408l-24 -134h-66l35 198h61q62 65 85 189l43 247h358zM131 64h260l66 372h-226l-32 -183q-19 -113 -68 -189z" />
    <glyph glyph-name="uni0435" unicode="&#x435;" horiz-adv-x="584" 
d="M339 512q113 0 172.5 -78t37.5 -186q-3 -18 -8 -31h-437q-3 -76 42.5 -120.5t124.5 -44.5q115 0 177 86l52 -34q-36 -55 -101.5 -85.5t-136.5 -30.5q-116 0 -178 78t-42 194q19 110 103.5 181t193.5 71zM114 281h372q6 82 -36 124.5t-115 42.5q-79 0 -138.5 -45.5
t-82.5 -121.5z" />
    <glyph glyph-name="uni0436" unicode="&#x436;" horiz-adv-x="672" 
d="M686 500l-254 -246l176 -254h-72l-169 244l-43 -244h-66l43 243l-247 -243h-78l269 266l-173 234h75l160 -222l39 222h66l-40 -226l234 226h80z" />
    <glyph glyph-name="uni0437" unicode="&#x437;" horiz-adv-x="446" 
d="M411 359q-14 -77 -81 -106q36 -19 53.5 -52.5t10.5 -73.5q-11 -61 -65 -100t-144 -39q-81 0 -125 33.5t-55 86.5l58 31q16 -87 130 -87q58 0 94 25t42 64q7 35 -15.5 57t-66.5 22h-73l12 64h53q43 0 71 21.5t35 59.5q6 36 -19.5 59.5t-77.5 23.5q-94 0 -136 -77l-52 34
q69 107 195 107q82 0 124 -46t32 -107z" />
    <glyph glyph-name="uni0438" unicode="&#x438;" horiz-adv-x="560" 
d="M478 500h56l-88 -500h-66l66 380l-364 -380h-56l88 500h66l-67 -380z" />
    <glyph glyph-name="uni0439" unicode="&#x439;" horiz-adv-x="560" 
d="M208 580l10 58h260l-10 -58h-260zM478 500h56l-88 -500h-66l66 380l-364 -380h-56l88 500h66l-67 -380z" />
    <glyph glyph-name="uni043A" unicode="&#x43a;" horiz-adv-x="494" 
d="M508 500l-302 -240l224 -260h-80l-214 249l-44 -249h-66l88 500h66l-38 -218l274 218h92z" />
    <glyph glyph-name="uni043B" unicode="&#x43b;" horiz-adv-x="550" 
d="M524 500l-88 -500h-66l77 436h-226l-39 -223q-23 -131 -76.5 -175t-139.5 -38l11 62q56 -6 89.5 27t49.5 124l50 287h358z" />
    <glyph glyph-name="uni043C" unicode="&#x43c;" horiz-adv-x="630" 
d="M604 500l-88 -500h-66l70 397l-224 -282h-8l-126 285l-70 -400h-66l88 500h72l120 -274l218 274h80z" />
    <glyph glyph-name="uni043D" unicode="&#x43d;" horiz-adv-x="560" 
d="M468 500h66l-88 -500h-66l38 218h-288l-38 -218h-66l88 500h66l-38 -218h288z" />
    <glyph glyph-name="uni043E" unicode="&#x43e;" horiz-adv-x="607" 
d="M263 -12q-106 0 -174.5 73t-47.5 194t112.5 189t197.5 68q103 0 169.5 -73.5t45.5 -192.5q-14 -84 -63 -144t-110.5 -87t-129.5 -27zM269 52q80 0 148 53t84 148q16 91 -33.5 143t-128.5 52q-80 -1 -147.5 -53t-84.5 -145q-16 -94 33.5 -146.5t128.5 -51.5z" />
    <glyph glyph-name="uni043F" unicode="&#x43f;" horiz-adv-x="560" 
d="M534 500l-88 -500h-66l77 436h-288l-77 -436h-66l88 500h420z" />
    <glyph glyph-name="uni0440" unicode="&#x440;" horiz-adv-x="638" 
d="M382 512q105 0 169 -81t45 -191q-21 -120 -103.5 -186t-182.5 -66q-65 0 -119 30.5t-80 87.5l-54 -306h-66l123 700h66l-15 -85q81 97 217 97zM530 245q14 84 -33 143.5t-131 59.5q-82 0 -146.5 -52.5t-81.5 -132.5l-2 -16q-13 -91 38 -143t131 -52q78 0 143.5 51
t81.5 142z" />
    <glyph glyph-name="uni0441" unicode="&#x441;" horiz-adv-x="553" 
d="M258 -12q-109 0 -172.5 80.5t-43.5 192.5q19 110 105 180.5t198 70.5q73 0 128 -35t76 -95l-57 -29q-16 44 -56 69.5t-97 25.5q-85 0 -150.5 -55.5t-80.5 -138.5q-14 -85 31 -143.5t130 -58.5q57 0 105.5 27t77.5 73l53 -35q-38 -61 -103 -95t-144 -34z" />
    <glyph glyph-name="uni0442" unicode="&#x442;" horiz-adv-x="440" 
d="M474 500l-11 -64h-177l-77 -436h-66l77 436h-177l11 64h420z" />
    <glyph glyph-name="uni0443" unicode="&#x443;" horiz-adv-x="510" 
d="M470 500h74l-310 -546q-45 -79 -104 -119t-125 -35l11 62q83 -9 151 104l21 35l-134 499h67l111 -425z" />
    <glyph glyph-name="uni0444" unicode="&#x444;" horiz-adv-x="672" 
d="M415 511q114 -11 174 -87t42 -180q-18 -105 -101.5 -175t-206.5 -80l-33 -189h-66l33 189q-114 11 -174 87t-42 180q18 105 102 175t206 80l33 189h66zM565 250q14 78 -29 132.5t-133 63.5l-68 -392q92 9 154.5 63.5t75.5 132.5zM107 250q-14 -78 29.5 -132.5
t132.5 -63.5l68 392q-92 -9 -154 -63.5t-76 -132.5z" />
    <glyph glyph-name="uni0445" unicode="&#x445;" horiz-adv-x="510" 
d="M521 500l-225 -245l150 -255h-74l-122 206l-189 -206h-85l241 262l-140 238h74l111 -189l174 189h85z" />
    <glyph glyph-name="uni0446" unicode="&#x446;" horiz-adv-x="590" 
d="M447 64h80l-35 -198h-66l24 134h-424l88 500h66l-77 -436h278l77 436h66z" />
    <glyph glyph-name="uni0447" unicode="&#x447;" horiz-adv-x="530" 
d="M438 500h66l-88 -500h-66l33 187q-73 -27 -147 -27q-97 0 -141 49t-29 131l28 160h66l-28 -160q-21 -118 107 -118q73 0 155 30z" />
    <glyph glyph-name="uni0448" unicode="&#x448;" horiz-adv-x="810" 
d="M718 500h66l-88 -500h-670l88 500h66l-77 -436h236l77 436h66l-77 -436h236z" />
    <glyph glyph-name="uni0449" unicode="&#x449;" horiz-adv-x="840" 
d="M707 64h70l-35 -198h-66l24 134h-674l88 500h66l-77 -436h236l77 436h66l-77 -436h236l77 436h66z" />
    <glyph glyph-name="uni044A" unicode="&#x44a;" horiz-adv-x="541" 
d="M354 310q67 0 109 -47t30 -114q-12 -68 -66.5 -108.5t-127.5 -40.5h-203l77 436h-140l11 64h206l-33 -190h137zM427 155q7 41 -18 66t-67 25h-137l-32 -182h137q42 0 76 25t41 66z" />
    <glyph glyph-name="uni044B" unicode="&#x44b;" horiz-adv-x="646" 
d="M284 310q67 0 109 -47t30 -114q-12 -68 -66.5 -108.5t-127.5 -40.5h-203l88 500h66l-33 -190h137zM554 500h66l-88 -500h-66zM357 155q7 41 -18 66t-67 25h-137l-32 -182h137q42 0 76 25t41 66z" />
    <glyph glyph-name="uni044C" unicode="&#x44c;" horiz-adv-x="471" 
d="M284 310q67 0 109 -47t30 -114q-12 -68 -66.5 -108.5t-127.5 -40.5h-203l88 500h66l-33 -190h137zM357 155q7 41 -18 66t-67 25h-137l-32 -182h137q42 0 76 25t41 66z" />
    <glyph glyph-name="uni044D" unicode="&#x44d;" horiz-adv-x="553" 
d="M295 512q112 0 174 -80t42 -193q-19 -111 -104 -181t-199 -70q-73 0 -128 35t-76 95l57 29q32 -95 153 -95q77 0 139.5 46.5t84.5 119.5h-249l12 64h247q2 73 -41.5 119.5t-122.5 46.5q-57 0 -105.5 -27t-77.5 -73l-53 35q38 61 103 95t144 34z" />
    <glyph glyph-name="uni044E" unicode="&#x44e;" horiz-adv-x="800" 
d="M544 512q103 0 169.5 -73.5t45.5 -192.5q-14 -84 -63 -144t-110.5 -87t-129.5 -27q-96 0 -161.5 62t-59.5 168h-105l-38 -218h-66l88 500h66l-38 -218h103q28 109 114 169.5t185 60.5zM694 253q16 91 -33.5 143t-128.5 52q-80 -1 -147.5 -53t-84.5 -145
q-16 -94 33.5 -146.5t128.5 -51.5q80 0 148 53t84 148z" />
    <glyph glyph-name="uni044F" unicode="&#x44f;" horiz-adv-x="500" 
d="M474 500l-88 -500h-66l34 192h-91l-186 -192h-81l191 195q-55 12 -87.5 55t-22.5 101q12 67 67 108t127 41h203zM228 254h137l32 182h-137q-42 0 -76 -25t-41 -66t18 -66t67 -25z" />
    <glyph glyph-name="uni0451" unicode="&#x451;" horiz-adv-x="584" 
d="M263 575q-19 0 -30 13t-7 32q3 19 18.5 32t34.5 13t29.5 -13t7.5 -32q-4 -19 -19 -32t-34 -13zM453 575q-19 0 -30 13t-7 32q3 19 18.5 32t34.5 13t29.5 -13t7.5 -32q-4 -19 -19 -32t-34 -13zM339 512q113 0 172.5 -78t37.5 -186q-3 -18 -8 -31h-437q-3 -76 42.5 -120.5
t124.5 -44.5q115 0 177 86l52 -34q-36 -55 -101.5 -85.5t-136.5 -30.5q-116 0 -178 78t-42 194q19 110 103.5 181t193.5 71zM114 281h372q6 82 -36 124.5t-115 42.5q-79 0 -138.5 -45.5t-82.5 -121.5z" />
    <glyph glyph-name="uni0452" unicode="&#x452;" horiz-adv-x="568" 
d="M355 512q91 0 136 -56t29 -149l-61 -347q-32 -184 -210 -172l11 64q111 -12 133 108l61 347q11 68 -16.5 104.5t-94.5 36.5q-71 0 -123.5 -44t-70.5 -135l-47 -269h-66l101 576h-69l9 54h70l12 70h66l-12 -70h144l-9 -54h-145l-25 -146q69 82 177 82z" />
    <glyph glyph-name="uni0453" unicode="&#x453;" horiz-adv-x="395" 
d="M395 700l-116 -130h-66l100 130h82zM434 500l-11 -64h-254l-77 -436h-66l88 500h320z" />
    <glyph glyph-name="uni0454" unicode="&#x454;" horiz-adv-x="553" 
d="M269 52q57 0 105.5 27t77.5 73l53 -35q-38 -61 -103 -95t-144 -34q-109 0 -172.5 80.5t-43.5 192.5q19 110 105 180.5t198 70.5q73 0 128 -35t76 -95l-57 -29q-16 44 -56 69.5t-97 25.5q-77 0 -139 -46.5t-85 -119.5h249l-12 -64h-247q-1 -72 44 -119t120 -47z" />
    <glyph glyph-name="uni0455" unicode="&#x455;" horiz-adv-x="475" 
d="M205 -12q-73 0 -119 33t-61 86l59 31q8 -38 41.5 -62t84.5 -24t85 21t41 58q5 28 -13 48t-49 29.5t-66.5 23t-65 28t-46 45.5t-8.5 74q10 56 61 94.5t122 38.5q125 0 169 -102l-58 -31q-11 35 -42 52t-71 17t-74 -19.5t-41 -58.5q-6 -33 20.5 -53.5t67 -33t80.5 -28
t64.5 -49t15.5 -84.5q-11 -63 -63.5 -98.5t-133.5 -35.5z" />
    <glyph glyph-name="uni0456" unicode="&#x456;" horiz-adv-x="206" 
d="M165 606q-20 0 -31 14t-8 34t19 34t37 14q20 0 32 -14t8 -34t-19.5 -34t-37.5 -14zM26 0l88 500h66l-88 -500h-66z" />
    <glyph glyph-name="uni0457" unicode="&#x457;" horiz-adv-x="206" 
d="M65 575q-19 0 -30 13t-7 32q3 19 18.5 32t34.5 13t29.5 -13t7.5 -32q-4 -19 -19 -32t-34 -13zM255 575q-19 0 -30 13t-7 32q3 19 18.5 32t34.5 13t29.5 -13t7.5 -32q-4 -19 -19 -32t-34 -13zM26 0l88 500h66l-88 -500h-66z" />
    <glyph glyph-name="uni0458" unicode="&#x458;" horiz-adv-x="230" 
d="M206 702q20 0 32 -14t8 -34t-19.5 -34t-37.5 -14q-20 0 -31 14t-8 34t19 34t37 14zM43 -40l95 540h66l-95 -540q-17 -100 -69.5 -140t-140.5 -32l11 64q57 -6 89.5 19.5t43.5 88.5z" />
    <glyph glyph-name="uni0459" unicode="&#x459;" horiz-adv-x="791" 
d="M609 290q64 0 104 -42t28 -109t-62.5 -103t-120.5 -36h-198l77 436h-216l-39 -223q-22 -128 -76.5 -173.5t-139.5 -39.5l11 62q56 -7 89 26t50 125l50 287h348l-37 -210h132zM675 145q7 40 -15 60.5t-62 20.5h-132l-29 -162h132q40 0 69.5 20.5t36.5 60.5z" />
    <glyph glyph-name="uni045A" unicode="&#x45a;" horiz-adv-x="791" 
d="M609 290q64 0 104 -42t28 -109t-62.5 -103t-120.5 -36h-198l40 226h-268l-40 -226h-66l88 500h66l-37 -210h268l37 210h66l-37 -210h132zM675 145q7 40 -15 60.5t-62 20.5h-132l-29 -162h132q40 0 69.5 20.5t36.5 60.5z" />
    <glyph glyph-name="uni045B" unicode="&#x45b;" horiz-adv-x="568" 
d="M355 512q91 0 136 -56t29 -149l-54 -307h-66l54 307q11 68 -16.5 104.5t-94.5 36.5q-71 0 -123.5 -44t-70.5 -135l-47 -269h-66l101 576h-69l9 54h70l12 70h66l-12 -70h144l-9 -54h-145l-25 -146q69 82 177 82z" />
    <glyph glyph-name="uni045C" unicode="&#x45c;" horiz-adv-x="494" 
d="M435 700l-116 -130h-66l100 130h82zM508 500l-302 -240l224 -260h-80l-214 249l-44 -249h-66l88 500h66l-38 -218l274 218h92z" />
    <glyph glyph-name="uni045E" unicode="&#x45e;" horiz-adv-x="510" 
d="M436 638l-10 -58h-260l10 58h260zM470 500h74l-310 -546q-45 -79 -104 -119t-125 -35l11 62q83 -9 151 104l21 35l-134 499h67l111 -425z" />
    <glyph glyph-name="uni045F" unicode="&#x45f;" horiz-adv-x="560" 
d="M468 500h66l-88 -500h-177l-24 -134h-66l24 134h-177l88 500h66l-77 -436h288z" />
    <glyph glyph-name="uni0490" unicode="&#x490;" horiz-adv-x="490" 
d="M501 820h70l-33 -186h-321l-111 -634h-70l123 700h321z" />
    <glyph glyph-name="uni0491" unicode="&#x491;" horiz-adv-x="395" 
d="M386 604h66l-29 -168h-254l-77 -436h-66l88 500h254z" />
    <glyph glyph-name="Wgrave" unicode="&#x1e80;" horiz-adv-x="1000" 
d="M632 770l-58 130h-80l74 -130h64zM189 0l-80 700h69l68 -608l289 608h82l76 -608l282 608h74l-326 -700h-84l-76 608l-290 -608h-84z" />
    <glyph glyph-name="wgrave" unicode="&#x1e81;" horiz-adv-x="770" 
d="M482 570h-64l-74 130h80zM713 500h71l-242 -500h-72l-58 403l-200 -403h-72l-66 500h65l50 -415l204 415h67l-1 -2l58 -413z" />
    <glyph glyph-name="Wacute" unicode="&#x1e82;" horiz-adv-x="1000" 
d="M542 770h66l116 130h-82zM189 0l-80 700h69l68 -608l289 608h82l76 -608l282 608h74l-326 -700h-84l-76 608l-290 -608h-84z" />
    <glyph glyph-name="wacute" unicode="&#x1e83;" horiz-adv-x="770" 
d="M574 700l-116 -130h-66l100 130h82zM713 500h71l-242 -500h-72l-58 403l-200 -403h-72l-66 500h65l50 -415l204 415h67l-1 -2l58 -413z" />
    <glyph glyph-name="Wdieresis" unicode="&#x1e84;" horiz-adv-x="1000" 
d="M497 775q-19 0 -30 13t-7 32q3 19 18.5 32t34.5 13t29.5 -13t7.5 -32q-4 -19 -19 -32t-34 -13zM687 775q-19 0 -30 13t-7 32q3 19 18.5 32t34.5 13t29.5 -13t7.5 -32q-4 -19 -19 -32t-34 -13zM189 0l-80 700h69l68 -608l289 608h82l76 -608l282 608h74l-326 -700h-84
l-76 608l-290 -608h-84z" />
    <glyph glyph-name="wdieresis" unicode="&#x1e85;" horiz-adv-x="770" 
d="M347 575q-19 0 -30 13t-7 32q3 19 18.5 32t34.5 13t29.5 -13t7.5 -32q-4 -19 -19 -32t-34 -13zM537 575q-19 0 -30 13t-7 32q3 19 18.5 32t34.5 13t29.5 -13t7.5 -32q-4 -19 -19 -32t-34 -13zM713 500h71l-242 -500h-72l-58 403l-200 -403h-72l-66 500h65l50 -415
l204 415h67l-1 -2l58 -413z" />
    <glyph glyph-name="Ygrave" unicode="&#x1ef2;" horiz-adv-x="575" 
d="M416 770h-64l-74 130h80zM644 700l-309 -374l-57 -326h-70l57 327l-176 373h72l146 -309l255 309h82z" />
    <glyph glyph-name="ygrave" unicode="&#x1ef3;" horiz-adv-x="510" 
d="M335 570h-64l-74 130h80zM470 500h74l-310 -546q-45 -79 -104 -119t-125 -35l11 62q83 -9 151 104l21 35l-134 499h67l111 -425z" />
    <glyph glyph-name="endash" unicode="&#x2013;" horiz-adv-x="649" 
d="M85 277l11 64h489l-11 -64h-489z" />
    <glyph glyph-name="emdash" unicode="&#x2014;" horiz-adv-x="749" 
d="M85 277l11 64h589l-11 -64h-589z" />
    <glyph glyph-name="quoteleft" unicode="&#x2018;" horiz-adv-x="241" 
d="M100 475l100 225h60l-80 -225h-80z" />
    <glyph glyph-name="quoteright" unicode="&#x2019;" horiz-adv-x="241" 
d="M260 700l-100 -225h-60l80 225h80z" />
    <glyph glyph-name="quotesinglbase" unicode="&#x201a;" horiz-adv-x="240" 
d="M151 85l-100 -225h-60l80 225h80z" />
    <glyph glyph-name="quotedblleft" unicode="&#x201c;" horiz-adv-x="381" 
d="M100 475l100 225h60l-80 -225h-80zM240 475l100 225h60l-80 -225h-80z" />
    <glyph glyph-name="quotedblright" unicode="&#x201d;" horiz-adv-x="381" 
d="M260 700l-100 -225h-60l80 225h80zM400 700l-100 -225h-60l80 225h80z" />
    <glyph glyph-name="quotedblbase" unicode="&#x201e;" horiz-adv-x="380" 
d="M151 85l-100 -225h-60l80 225h80zM291 85l-100 -225h-60l80 225h80z" />
    <glyph glyph-name="dagger" unicode="&#x2020;" horiz-adv-x="480" 
d="M470 535l-11 -64h-147l-83 -471h-66l83 471h-147l11 64h147l29 165h66l-29 -165h147z" />
    <glyph glyph-name="daggerdbl" unicode="&#x2021;" horiz-adv-x="480" 
d="M459 471h-147l-43 -242h147l-11 -64h-147l-29 -165h-66l29 165h-147l11 64h147l43 242h-147l11 64h147l29 165h66l-29 -165h147z" />
    <glyph glyph-name="bullet" unicode="&#x2022;" horiz-adv-x="300" 
d="M151 250q-42 0 -66 31.5t-16 73.5q8 41 41 68t76 27q41 0 65 -30.5t16 -72.5t-40.5 -69.5t-75.5 -27.5z" />
    <glyph glyph-name="ellipsis" unicode="&#x2026;" horiz-adv-x="610" 
d="M69 -10q-23 0 -36 16.5t-9 39.5t21.5 38.5t42.5 15.5q23 0 36.5 -16.5t9.5 -39.5q-5 -24 -22 -39t-43 -15zM259 -10q-23 0 -36 16.5t-9 39.5t21.5 38.5t42.5 15.5q23 0 36.5 -16.5t9.5 -39.5q-5 -24 -22 -39t-43 -15zM449 -10q-23 0 -36 16.5t-9 39.5t21.5 38.5
t42.5 15.5q23 0 36.5 -16.5t9.5 -39.5q-5 -24 -22 -39t-43 -15z" />
    <glyph glyph-name="perthousand" unicode="&#x2030;" horiz-adv-x="1065" 
d="M243 412q-64 0 -101 45.5t-26 108.5t62 104.5t118 41.5q64 0 100.5 -45.5t25.5 -108.5t-61 -104.5t-118 -41.5zM253 472q39 0 68.5 26t36.5 64t-13.5 64t-59.5 26t-68.5 -26t-36.5 -64t13.5 -64t59.5 -26zM66 96l562 527l43 -26l-563 -527zM451 -12q-64 0 -101 45.5
t-26 108.5t62 104.5t118 41.5q64 0 100.5 -45.5t25.5 -108.5t-61.5 -104.5t-117.5 -41.5zM806 -12q-64 0 -101 45.5t-26 108.5t62 104.5t118 41.5q64 0 100.5 -45.5t25.5 -108.5t-61.5 -104.5t-117.5 -41.5zM461 48q39 0 68.5 26t36.5 64t-13.5 64t-59.5 26t-69 -26t-36 -64
t14 -64t59 -26zM816 48q39 0 68.5 26t36.5 64t-13.5 64t-59.5 26t-69 -26t-36 -64t14 -64t59 -26z" />
    <glyph glyph-name="guilsinglleft" unicode="&#x2039;" horiz-adv-x="337" 
d="M309 489l-145 -185l77 -175h-82l-79 180l142 180h87z" />
    <glyph glyph-name="guilsinglright" unicode="&#x203a;" horiz-adv-x="338" 
d="M199 489l79 -180l-142 -180h-87l145 185l-77 175h82z" />
    <glyph glyph-name="fraction" unicode="&#x2044;" horiz-adv-x="220" 
d="M-99 0h-65l518 700h65z" />
    <glyph glyph-name="Euro" unicode="&#x20ac;" horiz-adv-x="595" 
d="M425 644q-76 0 -134 -52.5t-90 -149.5h253l-10 -58h-259q-3 -13 -7 -34q-2 -8 -4 -26h259l-10 -58h-254q-4 -101 35.5 -155.5t116.5 -54.5q109 0 171 102l56 -35q-86 -135 -239 -135q-104 0 -159.5 75.5t-51.5 202.5h-75l10 58h70q1 10 5 32q1 5 2.5 14.5t2.5 13.5h-69
l10 58h75q40 127 119.5 198.5t188.5 71.5q70 0 118.5 -35t70.5 -99l-64 -33q-29 99 -137 99z" />
    <glyph glyph-name="uni20BD" unicode="&#x20bd;" horiz-adv-x="591" 
d="M439 700q84 0 136.5 -64.5t36.5 -151.5q-15 -86 -86 -145t-161 -59h-180l-16 -94h260l-10 -58h-261l-22 -128h-70l22 128h-89l10 58h90l16 94h-90l12 66h90l62 354h250zM542 490q11 60 -22.5 102t-91.5 42h-181l-50 -288h180q58 0 106 42.5t59 101.5z" />
    <glyph glyph-name="uni2116" unicode="&#x2116;" horiz-adv-x="1017" 
d="M852 412q-64 0 -100.5 45.5t-25.5 108.5t61.5 104.5t117.5 41.5q64 0 100.5 -45.5t25.5 -108.5q-11 -64 -59 -105t-120 -41zM36 0l123 700h54l297 -569l99 569h70l-123 -700h-54l-296 569l-100 -569h-70zM863 472q39 0 68.5 26t35.5 64q7 38 -13.5 64t-59.5 26t-68 -26
t-36 -64q-6 -39 13 -64.5t60 -25.5zM687 278l11 64h282l-11 -64h-282z" />
    <glyph glyph-name="trademark" unicode="&#x2122;" horiz-adv-x="466" 
d="M268 663h-56l-29 -163h-40l29 163h-59l7 37h155zM505 700l-35 -200h-40l23 134l-80 -100h-4l-42 98l-23 -132h-40l35 200h40l41 -102l80 102h45z" />
    <glyph glyph-name="estimated" unicode="&#x212e;" horiz-adv-x="820" 
d="M491 710q161 0 247.5 -104.5t59.5 -255.5q-3 -15 -18 -15h-560q-15 0 -18 -15l-33 -192q-3 -11 3 -19q69 -89 218 -89q143 0 250 97q9 9 19 9h35q10 0 12 -6t-6 -13q-130 -117 -316 -117q-173 0 -262.5 108t-62.5 262q27 152 146.5 251t285.5 99zM688 574q1 11 -4 19
q-67 87 -198 87q-129 0 -229 -89q-9 -9 -10 -19l-34 -192q-3 -15 12 -15h410q15 0 18 15z" />
    <glyph glyph-name="oneeighth" unicode="&#x215b;" horiz-adv-x="803" 
d="M184 628l-95 -27l-7 57l124 42h53l-71 -400h-62zM601 700h65l-518 -700h-65zM774 294q-8 -55 -68 -85q60 -38 47 -107q-9 -53 -54 -83.5t-109 -30.5q-61 0 -97 34.5t-27 87.5q13 71 86 102q-48 34 -39 90q9 52 52 81t99 29q52 0 85.5 -33t24.5 -85zM712 298
q5 26 -10.5 41t-47.5 15q-69 0 -79 -56q-5 -27 10.5 -43t48.5 -16q32 0 52.5 16t25.5 43zM693 114q5 30 -14 47.5t-56 17.5q-82 0 -93 -65q-5 -30 13 -48t57 -18q38 0 63 18t30 48z" />
    <glyph glyph-name="threeeighths" unicode="&#x215c;" horiz-adv-x="909" 
d="M341 411q-10 -57 -55.5 -90t-112.5 -33q-94 0 -127 84l54 28q18 -52 83 -52q40 0 65.5 18.5t30.5 50.5q6 31 -13 50t-58 19h-4l-23 47l104 107h-179l10 60h258l-10 -60l-106 -108q45 -11 68 -44t15 -77zM707 700h65l-518 -700h-65zM880 294q-8 -55 -68 -85
q60 -38 47 -107q-9 -53 -54 -83.5t-109 -30.5q-61 0 -97 34.5t-27 87.5q13 71 86 102q-48 34 -39 90q9 52 52 81t99 29q52 0 85.5 -33t24.5 -85zM818 298q5 26 -10.5 41t-47.5 15q-69 0 -79 -56q-5 -27 10.5 -43t48.5 -16q32 0 52.5 16t25.5 43zM799 114q5 30 -14 47.5
t-56 17.5q-82 0 -93 -65q-5 -30 13 -48t57 -18q38 0 63 18t30 48z" />
    <glyph glyph-name="fiveeighths" unicode="&#x215d;" horiz-adv-x="898" 
d="M338 411q-10 -58 -53 -90.5t-112 -32.5q-95 0 -126 85l56 28q19 -53 80 -53q38 0 63 19t30 50q6 33 -12 53t-56 20h-122l52 210h234l-10 -58h-179l-22 -92h60q59 0 93.5 -40t23.5 -99zM696 700h65l-518 -700h-65zM869 294q-9 -55 -68 -85q60 -38 47 -107
q-9 -53 -54 -83.5t-109 -30.5q-61 0 -97 34.5t-27 87.5q13 71 86 102q-48 34 -39 90q9 52 52 81t99 29q52 0 85.5 -33t24.5 -85zM807 298q5 26 -10 41t-48 15q-69 0 -79 -56q-5 -27 10.5 -43t48.5 -16q32 0 52.5 16t25.5 43zM788 114q5 30 -14 47.5t-56 17.5q-82 0 -93 -65
q-5 -30 13 -48t57 -18q38 0 63 18t30 48z" />
    <glyph glyph-name="seveneighths" unicode="&#x215e;" horiz-adv-x="852" 
d="M140 300h-69l203 340h-195l10 60h266l-8 -50zM650 700h65l-518 -700h-65zM823 294q-9 -55 -68 -85q60 -38 47 -107q-9 -53 -54 -83.5t-109 -30.5q-61 0 -97 34.5t-27 87.5q13 71 86 102q-48 34 -39 90q9 52 52 81t99 29q52 0 85.5 -33t24.5 -85zM761 298q5 26 -10 41
t-48 15q-69 0 -79 -56q-5 -27 10.5 -43t48.5 -16q32 0 52.5 16t25.5 43zM742 114q5 30 -14 47.5t-56 17.5q-82 0 -93 -65q-5 -30 13 -48t57 -18q38 0 63 18t30 48z" />
    <glyph glyph-name="arrowleft" unicode="&#x2190;" horiz-adv-x="820" 
d="M783 382l-11 -64h-580l221 -268h-88l-247 300l353 300l92 -1l-314 -267h574z" />
    <glyph glyph-name="arrowup" unicode="&#x2191;" horiz-adv-x="720" 
d="M686 400l-15 -88l-220 269l-102 -581h-66l100 571l-313 -266l17 95l352 300z" />
    <glyph glyph-name="arrowright" unicode="&#x2192;" horiz-adv-x="820" 
d="M531 650l247 -300l-348 -300h-95l311 268h-574l11 64h582l-221 268h87z" />
    <glyph glyph-name="arrowdown" unicode="&#x2193;" horiz-adv-x="720" 
d="M371 127l314 267l-17 -94l-352 -300l-247 300l15 86l220 -267l102 581h66z" />
    <glyph glyph-name="arrowboth" unicode="&#x2194;" horiz-adv-x="1040" 
d="M793 600l205 -250l-293 -250h-95l256 218h-675l179 -218h-87l-205 250l293 250h95l-256 -218h675l-179 218h87z" />
    <glyph glyph-name="arrowupdn" unicode="&#x2195;" horiz-adv-x="620" 
d="M599 474l-178 217l-118 -673l254 216l-17 -95l-293 -249l-206 249l15 86l179 -217l119 675l-256 -216l17 94l294 249l205 -249z" />
    <glyph glyph-name="uni2196" unicode="&#x2196;" horiz-adv-x="638" 
d="M595 524h-380l339 -412l-51 -43l-339 412l-67 -381l-52 63l75 424h424z" />
    <glyph glyph-name="uni2197" unicode="&#x2197;" horiz-adv-x="639" 
d="M214 587h424l-75 -424l-76 -64l65 373l-474 -402l-41 49l477 405h-375z" />
    <glyph glyph-name="uni2198" unicode="&#x2198;" horiz-adv-x="638" 
d="M573 576l51 -63l-74 -424h-424l-52 63h380l-339 412l51 43l340 -412z" />
    <glyph glyph-name="uni2199" unicode="&#x2199;" horiz-adv-x="639" 
d="M633 558l-478 -406h375l-74 -63h-424l74 424l75 63l-66 -374l477 405z" />
    <glyph glyph-name="partialdiff" unicode="&#x2202;" horiz-adv-x="578" 
d="M315 712q117 0 182.5 -103.5t37.5 -264.5q-31 -171 -119 -263.5t-204 -92.5q-92 0 -139 63.5t-31 154.5q18 103 90 163.5t180 60.5q92 0 161 -53q14 114 -29.5 192t-140.5 78q-73 0 -137 -35l11 64q63 36 138 36zM223 52q81 0 145 68.5t93 189.5q-63 56 -160 56
q-75 0 -127 -43t-66 -123q-11 -65 17.5 -106.5t97.5 -41.5z" />
    <glyph glyph-name="emptyset" unicode="&#x2205;" horiz-adv-x="807" 
d="M828 720l-112 -112q94 -112 67 -266q-27 -150 -150 -252t-276 -102q-112 0 -194 68l-76 -76h-74l113 112q-94 110 -67 266q26 150 149.5 252t276.5 102q112 0 193 -67l76 75h74zM119 350q-22 -126 49 -215l467 467q-66 52 -161 52q-126 0 -229 -88.5t-126 -215.5z
M723 350q23 126 -50 215l-467 -466q65 -53 161 -53q126 0 229.5 88.5t126.5 215.5z" />
    <glyph glyph-name="product" unicode="&#x220f;" horiz-adv-x="640" 
d="M1 -200l158 900h480l-158 -900h-66l147 836h-348l-147 -836h-66z" />
    <glyph glyph-name="summation" unicode="&#x2211;" horiz-adv-x="540" 
d="M-29 -200l11 65l310 400l-159 369l11 66h430l-11 -64h-360l165 -380l-304 -392h378l-11 -64h-460z" />
    <glyph glyph-name="minus" unicode="&#x2212;" horiz-adv-x="540" 
d="M72 318l11 64h420l-11 -64h-420z" />
    <glyph glyph-name="radical" unicode="&#x221a;" horiz-adv-x="644" 
d="M241 0l-95 236h-88l11 64h122l88 -220l368 720h74l-410 -800h-70z" />
    <glyph glyph-name="infinity" unicode="&#x221e;" horiz-adv-x="800" 
d="M630 510q66 0 105 -48.5t27 -116.5t-64.5 -111.5t-123.5 -43.5q-93 0 -164 110q-106 -110 -204 -110q-66 0 -105 48.5t-27 116.5t64.5 111.5t123.5 43.5q92 0 165 -110q104 110 203 110zM217 250q72 0 163 100q-56 100 -128 100q-42 0 -73.5 -28t-39.5 -72t13.5 -72
t64.5 -28zM698 350q8 44 -14 72t-65 28q-73 0 -162 -100q54 -100 127 -100q42 0 74 28t40 72z" />
    <glyph glyph-name="integral" unicode="&#x222b;" horiz-adv-x="439" 
d="M-80 -202l12 64q48 -20 85 -0.5t53 68.5l219 640q61 180 230 132l-12 -64q-57 20 -94.5 0.5t-54.5 -68.5l-219 -640q-31 -90 -89 -122.5t-130 -9.5z" />
    <glyph glyph-name="approxequal" unicode="&#x2248;" horiz-adv-x="594" 
d="M309 402q-69 44 -105.5 33t-62.5 -69l-56 28q37 87 106 105.5t158 -41.5q44 -31 76.5 -34.5t53 14t38.5 56.5l55 -28q-36 -87 -104.5 -105.5t-158.5 41.5zM112 206l-55 28q36 87 106 105.5t158 -41.5q44 -31 76.5 -34.5t53 14t38.5 56.5l55 -28q-36 -87 -104.5 -105.5
t-158.5 41.5q-44 31 -76.5 34.5t-54 -14.5t-38.5 -56z" />
    <glyph glyph-name="notequal" unicode="&#x2260;" horiz-adv-x="540" 
d="M510 418h-154l-84 -136h214l-12 -64h-242l-91 -148h-53l91 148h-125l12 64h153l84 136h-213l11 64h242l91 148h53l-91 -148h125z" />
    <glyph glyph-name="lessequal" unicode="&#x2264;" horiz-adv-x="520" 
d="M522 600l-14 -78l-337 -115l296 -115l-12 -70l-372 156l5 33l6 33zM34 100l11 64h400l-11 -64h-400z" />
    <glyph glyph-name="greaterequal" unicode="&#x2265;" horiz-adv-x="520" 
d="M122 600l372 -156l-6 -33l-5 -33l-428 -156l14 78l336 115l-295 115zM34 100l11 64h400l-11 -64h-400z" />
    <glyph glyph-name="lozenge" unicode="&#x25ca;" horiz-adv-x="540" 
d="M192 0l-124 350l247 350h68l125 -350l-248 -350h-68zM235 71l203 287l-97 271l-203 -287z" />
    <glyph glyph-name="i.loclTRK" horiz-adv-x="206" 
d="M159 570q-23 0 -36 16t-9 39t22.5 39t41.5 16t36.5 -16t9.5 -39q-5 -23 -23.5 -39t-41.5 -16zM26 0l88 500h66l-88 -500h-66z" />
    <glyph glyph-name="f_f_j" horiz-adv-x="786" 
d="M760 500l-95 -540q-16 -90 -70.5 -135t-139.5 -37l11 64q57 -6 89.5 19.5t43.5 88.5l84 476h-204l-77 -436h-66l77 436h-204l-77 -436h-66l77 436h-85l11 64h85l4 20q17 101 80 150.5t164 41.5l-12 -64q-141 12 -166 -128l-4 -20h204l5 30q33 192 244 192q43 0 94 -12
l-10 -60q-45 8 -95 8q-75 0 -115 -29t-52 -99l-5 -30h270z" />
    <glyph glyph-name="f_j" horiz-adv-x="516" 
d="M490 500l-95 -540q-16 -90 -70.5 -135t-139.5 -37l11 64q57 -6 89.5 19.5t43.5 88.5l84 476h-204l-77 -436h-66l77 436h-85l11 64h85l4 20q33 192 244 192q42 0 93 -12l-10 -60q-45 8 -95 8q-75 0 -114.5 -29t-51.5 -99l-4 -20h270z" />
    <glyph glyph-name="uni0414.loclBGR" horiz-adv-x="700" 
d="M578 66h65l-36 -200h-70l24 134h-510l-24 -134h-70l36 200h64l336 634h72zM132 66h377l-91 547z" />
    <glyph glyph-name="uni041B.loclBGR" horiz-adv-x="608" 
d="M-34 0l381 700h72l135 -700h-70l-112 613l-330 -613h-76z" />
    <glyph glyph-name="uni0424.loclBGR" horiz-adv-x="847" 
d="M539 711q151 -11 231 -113t53 -256q-27 -155 -139 -249t-272 -104l-16 -89h-70l16 89q-151 12 -230.5 113.5t-52.5 255.5t138.5 248.5t271.5 104.5l16 89h70zM129 350q-23 -127 38.5 -206.5t185.5 -90.5l105 594q-129 -11 -218 -90.5t-111 -206.5zM753 350
q22 127 -39.5 206.5t-185.5 90.5l-105 -594q129 11 218 90t112 207z" />
    <glyph glyph-name="uni0414.ss01" horiz-adv-x="690" 
d="M659 700l-111 -634h75l-12 -66h-640l12 66h56q84 81 114 250l67 384h439zM126 66h352l100 568h-299l-57 -320q-29 -164 -96 -248z" />
    <glyph glyph-name="uni0426.ss01" horiz-adv-x="690" 
d="M548 66h75l-12 -66h-575l123 700h70l-111 -634h360l111 634h70z" />
    <glyph glyph-name="uni0429.ss01" horiz-adv-x="980" 
d="M838 66h75l-12 -66h-865l123 700h70l-111 -634h290l111 634h70l-111 -634h290l111 634h70z" />
    <glyph glyph-name="uni0414.loclBGR.ss01" horiz-adv-x="700" 
d="M578 66h65l-12 -66h-650l12 66h64l336 634h72zM132 66h377l-91 547z" />
    <glyph glyph-name="uni0432.loclBGR" horiz-adv-x="572" 
d="M421 396q59 -23 86.5 -75.5t14.5 -126.5q-17 -99 -86.5 -152.5t-180.5 -53.5q-102 0 -154.5 67.5t-32.5 180.5l42 240q19 113 85.5 174.5t165.5 61.5q82 0 128 -50t34 -124q-13 -78 -102 -142zM349 648q-65 0 -112 -45t-61 -127l-16 -92l107 21q43 9 82 6q95 60 108 133
q8 45 -21 74.5t-87 29.5zM456 200q15 86 -37 124.5t-163 16.5l-107 -21l-15 -90q-15 -88 19.5 -133t112.5 -45q77 0 127.5 39t62.5 109z" />
    <glyph glyph-name="uni0433.loclBGR" horiz-adv-x="456" 
d="M187 -12q-82 0 -127 45t-34 110q9 50 43.5 79.5t79 41.5t88 21t76 27t37.5 51q6 39 -22 62t-71 23q-40 0 -75.5 -20t-53.5 -57l-52 34q24 48 74 77.5t114 29.5q74 0 118.5 -46.5t33.5 -107.5q-9 -50 -43.5 -79.5t-78 -41.5t-87 -21t-76.5 -27.5t-39 -50.5
q-8 -41 22.5 -63.5t76.5 -22.5q49 0 89.5 25t62.5 66l53 -35q-66 -120 -209 -120z" />
    <glyph glyph-name="uni0434.loclBGR" horiz-adv-x="639" 
d="M546 500h66l-84 -480q-20 -111 -98 -171.5t-189 -60.5q-79 0 -136 32t-84 90l59 30q36 -88 164 -88q91 0 147.5 44t70.5 124l12 67q-82 -99 -211 -99q-113 0 -175.5 79t-45.5 193q17 115 101.5 183.5t184.5 68.5q64 0 118.5 -30.5t80.5 -87.5zM501 243v2l1 5
q15 91 -38 144.5t-131 53.5t-144.5 -52.5t-80.5 -140.5q-14 -87 33.5 -145t133.5 -58q81 0 145 52.5t81 138.5z" />
    <glyph glyph-name="uni0436.loclBGR" horiz-adv-x="674" 
d="M-24 0l269 266l-173 234h75l160 -222l76 422h66l-77 -426l234 226h80l-254 -246l176 -254h-72l-169 244l-43 -244h-66l43 243l-247 -243h-78z" />
    <glyph glyph-name="uni0438.loclBGR" horiz-adv-x="558" 
d="M466 500h66l-88 -500h-66l12 70q-68 -82 -177 -82q-91 0 -136 56t-29 149l54 307h66l-54 -307q-11 -68 16.5 -104.5t94.5 -36.5q70 0 122.5 43t70.5 133z" />
    <glyph glyph-name="uni0439.loclBGR" horiz-adv-x="558" 
d="M468 638l-10 -58h-260l10 58h260zM466 500h66l-88 -500h-66l12 70q-68 -82 -177 -82q-91 0 -136 56t-29 149l54 307h66l-54 -307q-11 -68 16.5 -104.5t94.5 -36.5q70 0 122.5 43t70.5 133z" />
    <glyph glyph-name="uni043A.loclBGR" horiz-adv-x="494" 
d="M508 500l-302 -240l224 -260h-80l-214 249l-44 -249h-66l123 700h66l-73 -418l274 218h92z" />
    <glyph glyph-name="uni043B.loclBGR" horiz-adv-x="470" 
d="M416 0h-68l-78 427l-231 -427h-73l273 500h80z" />
    <glyph glyph-name="uni043F.loclBGR" horiz-adv-x="558" 
d="M345 512q91 0 136 -56t29 -149l-54 -307h-66l54 307q11 68 -16.5 104.5t-94.5 36.5q-70 0 -122.5 -43t-70.5 -133l-48 -272h-66l88 500h66l-12 -70q68 82 177 82z" />
    <glyph glyph-name="uni0442.loclBGR" horiz-adv-x="848" 
d="M648 512q79 0 124 -54t29 -146l-55 -312h-66l55 312q11 65 -16 100.5t-84 35.5q-59 0 -103.5 -38t-61.5 -120l-51 -290h-66l55 312q11 66 -14 101t-79 35q-60 0 -108 -39.5t-65 -121.5l-50 -287h-66l88 500h66l-11 -65q67 77 163 77q50 0 86 -24t51 -69q70 93 179 93z
" />
    <glyph glyph-name="uni0446.loclBGR" horiz-adv-x="594" 
d="M462 100q-3 -16 5 -26t25 -10h39l-35 -198h-66l24 136q-55 9 -60 68q-68 -82 -181 -82q-91 0 -136 56t-29 149l54 307h66l-54 -307q-11 -68 16.5 -104.5t94.5 -36.5q72 0 125.5 45.5t69.5 140.5l46 262h66z" />
    <glyph glyph-name="uni0448.loclBGR" horiz-adv-x="848" 
d="M756 500h66l-88 -500h-66l11 65q-67 -77 -163 -77q-50 0 -86 24t-51 69q-70 -93 -179 -93q-79 0 -124 54t-29 146l55 312h66l-55 -312q-11 -65 16 -100.5t84 -35.5q59 0 103.5 38t61.5 120l51 290h66l-55 -312q-11 -66 14 -101t79 -35q60 0 108 39.5t65 121.5z" />
    <glyph glyph-name="uni0449.loclBGR" horiz-adv-x="884" 
d="M752 100q-3 -16 5 -26t25 -10h39l-35 -198h-66l24 136q-27 4 -42.5 22t-17.5 46q-68 -82 -168 -82q-50 0 -86.5 24t-51.5 70q-70 -94 -178 -94q-79 0 -124 54t-29 146l55 312h66l-55 -312q-11 -65 16 -100.5t84 -35.5q59 0 103.5 38t61.5 120l51 290h66l-55 -312
q-11 -66 14 -101t79 -35q59 0 107 39t65 119l51 290h66z" />
    <glyph glyph-name="uni044C.loclBGR" horiz-adv-x="480" 
d="M269 338q87 0 132.5 -51.5t31.5 -132.5q-13 -73 -72.5 -119.5t-145.5 -46.5q-89 0 -136.5 55t-34.5 127l58 330h66l-28 -162h129zM367 164q8 51 -21 80.5t-89 29.5h-129l-18 -104q-9 -52 22.5 -85t91.5 -33q59 0 96.5 32.5t46.5 79.5z" />
    <glyph glyph-name="uni044A.loclBGR" horiz-adv-x="562" 
d="M351 338q87 0 132.5 -52t31.5 -133q-13 -73 -72.5 -119t-145.5 -46q-89 0 -136.5 55t-34.5 127l47 266h-140l11 64h206l-28 -162h129zM449 163q8 51 -21 81t-89 30h-129l-18 -104q-9 -53 22 -85.5t92 -32.5q59 0 96.5 32t46.5 79z" />
    <glyph glyph-name="uni044E.loclBGR" horiz-adv-x="800" 
d="M544 512q103 0 169.5 -73.5t45.5 -192.5q-14 -84 -63 -144t-110.5 -87t-129.5 -27q-96 0 -161.5 62t-59.5 168h-105l-38 -218h-66l123 700h66l-73 -418h103q28 110 113.5 170t185.5 60zM694 253q16 91 -33.5 143t-128.5 52q-80 -1 -147.5 -53t-84.5 -145
q-16 -94 33.5 -146.5t128.5 -51.5q80 0 148 53t84 148z" />
    <glyph glyph-name="zero.sinf" horiz-adv-x="412" 
d="M133 -172q-78 0 -117 61t-22 156t73 151t138 56q78 0 117 -61t22 -156t-73 -151t-138 -56zM142 -112q53 0 90 39t50 113t-10 113t-76 39t-90 -39t-50 -113t10 -113t76 -39z" />
    <glyph glyph-name="one.sinf" horiz-adv-x="240" 
d="M125 240h53l-71 -400h-62l58 328l-95 -27l-7 57z" />
    <glyph glyph-name="two.sinf" horiz-adv-x="340" 
d="M-42 -160l9 51l193 158q53 43 60 80q5 28 -11 45.5t-49 17.5q-53 0 -93 -64l-50 31q24 43 64.5 68t87.5 25q57 0 89 -36t24 -90q-9 -59 -87 -122l-129 -104h182l-10 -60h-280z" />
    <glyph glyph-name="three.sinf" horiz-adv-x="348" 
d="M293 240l-10 -60l-106 -108q45 -11 68 -44t15 -77q-10 -57 -55.5 -90t-112.5 -33q-94 0 -127 84l54 28q18 -52 83 -52q40 0 65.5 18.5t30.5 50.5q6 31 -13 50t-58 19h-4l-23 47l104 107h-179l10 60h258z" />
    <glyph glyph-name="four.sinf" horiz-adv-x="354" 
d="M285 -27l-10 -58h-51l-13 -75h-62l13 75h-206l10 58l196 267h71l-195 -267h134l17 96h62l-17 -96h51z" />
    <glyph glyph-name="five.sinf" horiz-adv-x="330" 
d="M281 182h-179l-22 -92h60q59 0 93.5 -40t23.5 -99q-10 -58 -53 -90.5t-112 -32.5q-95 0 -126 85l56 28q19 -53 80 -53q38 0 63 19t30 50q6 33 -12 53t-56 20h-122l52 210h234z" />
    <glyph glyph-name="six.sinf" horiz-adv-x="341" 
d="M145 107q63 0 99.5 -43t25.5 -102t-59 -96.5t-115 -37.5q-63 0 -99.5 43t-25.5 103q8 43 35 73l163 193h79l-115 -133h12zM208 -32q6 35 -13.5 57t-60.5 22q-40 0 -67.5 -22t-33.5 -57t13.5 -57.5t59.5 -22.5t68 22.5t34 57.5z" />
    <glyph glyph-name="seven.sinf" horiz-adv-x="297" 
d="M8 240h266l-8 -50l-207 -350h-69l203 340h-195z" />
    <glyph glyph-name="eight.sinf" horiz-adv-x="336" 
d="M279 134q-9 -55 -68 -85q60 -38 47 -107q-9 -53 -54 -83.5t-109 -30.5q-61 0 -97 34.5t-27 87.5q13 71 86 102q-48 34 -39 90q9 52 52 81t99 29q52 0 85.5 -33t24.5 -85zM217 138q5 26 -10 41t-48 15q-69 0 -79 -56q-5 -27 10.5 -43t48.5 -16q32 0 52.5 16t25.5 43z
M198 -46q5 30 -14 47.5t-56 17.5q-82 0 -93 -65q-5 -30 13 -48t57 -18q38 0 63 18t30 48z" />
    <glyph glyph-name="nine.sinf" horiz-adv-x="341" 
d="M171 252q60 0 97.5 -43.5t27.5 -102.5q-7 -41 -35 -73l-161 -193h-78l116 134q-5 -1 -16 -1q-61 0 -98 43.5t-27 101.5q10 59 59 96.5t115 37.5zM59 112q-6 -35 13.5 -57t60.5 -22q40 0 67.5 22t33.5 57t-13.5 57.5t-59.5 22.5t-68 -22.5t-34 -57.5z" />
    <glyph glyph-name="zero.tf" 
d="M239 -12q-122 0 -175.5 102t-24.5 266q29 165 114.5 260.5t213.5 95.5q121 0 175 -102t25 -266q-29 -165 -114 -260.5t-214 -95.5zM251 56q92 0 156.5 77t89.5 217t-12.5 217t-129.5 77t-156.5 -77t-89.5 -217t12.5 -217t129.5 -77z" />
    <glyph glyph-name="one.tf" 
d="M304 66h204l-12 -66h-500l12 66h226l97 556v-1l-165 -47l-7 62l196 64h60z" />
    <glyph glyph-name="two.tf" 
d="M1 0l11 63l291 218q85 63 130 111.5t54 99.5q12 71 -24.5 111.5t-109.5 40.5q-55 0 -105 -31.5t-85 -87.5l-56 35q42 72 110.5 112t147.5 40q97 0 153.5 -62.5t38.5 -162.5q-12 -70 -62.5 -129t-142.5 -125l-229 -165h375l-12 -68h-485z" />
    <glyph glyph-name="three.tf" 
d="M578 700l-11 -66l-216 -225q90 -12 137.5 -67.5t32.5 -144.5q-18 -101 -97 -155t-192 -54q-87 0 -148.5 42.5t-76.5 115.5l62 32q12 -56 58 -89t113 -33q83 0 141 38t70 109t-31.5 109t-128.5 38h-18l-23 46l230 238h-363l11 66h450z" />
    <glyph glyph-name="four.tf" 
d="M542 206l-11 -66h-95l-25 -140h-70l25 140h-365l11 66l347 494h79l-347 -494h287l34 194h70l-34 -194h94z" />
    <glyph glyph-name="five.tf" 
d="M573 634h-341l-54 -216h137q100 0 161.5 -60.5t44.5 -160.5q-18 -101 -95 -155t-185 -54q-83 0 -144.5 42.5t-78.5 115.5l62 33q11 -57 57 -90t114 -33q78 0 133 38t67 109t-29 109t-119 38h-210l86 350h405z" />
    <glyph glyph-name="six.tf" 
d="M310 450q112 0 171.5 -67.5t41.5 -170.5q-19 -103 -97.5 -163.5t-196.5 -60.5q-112 0 -172 67t-41 170q13 81 68 137l303 338h85l-226 -255q33 5 64 5zM453 219q13 75 -27.5 119t-127.5 44t-143 -44t-69 -119q-14 -75 27 -119t128 -44t142.5 44t69.5 119z" />
    <glyph glyph-name="seven.tf" 
d="M119 700h490l-11 -66l-392 -634h-77l393 634h-414z" />
    <glyph glyph-name="eight.tf" 
d="M558 514q-18 -102 -121 -155q50 -26 73.5 -71.5t13.5 -101.5q-17 -96 -93 -147t-192 -51q-108 0 -169.5 55.5t-44.5 150.5q10 57 49 101.5t99 67.5q-85 57 -67 159q17 93 88.5 141.5t172.5 48.5q93 0 150 -53t41 -145zM488 518q12 63 -25.5 94.5t-107.5 31.5
q-73 0 -120 -31.5t-59 -94.5q-10 -60 26.5 -93t107.5 -33t119.5 33t58.5 93zM454 190q11 64 -29.5 99t-126.5 35q-87 0 -139.5 -35t-63.5 -99q-11 -63 30.5 -98.5t125.5 -35.5q87 0 139.5 35t63.5 99z" />
    <glyph glyph-name="nine.tf" 
d="M377 712q112 0 171.5 -66.5t41.5 -169.5q-13 -77 -65 -133l-305 -343h-86l227 256q-31 -6 -66 -6q-111 0 -171 66.5t-42 169.5q18 104 97 165t198 61zM152 481q-13 -75 27 -119t128 -44t144 44t69 119t-27 119t-128 44t-144 -44t-69 -119z" />
    <glyph glyph-name="zero.dnom" horiz-adv-x="412" 
d="M161 -12q-78 0 -117 61t-22 156t73 151t138 56q78 0 117 -61t22 -156t-73 -151t-138 -56zM170 48q53 0 90 39t50 113t-10 113t-76 39t-90 -39t-50 -113t10 -113t76 -39z" />
    <glyph glyph-name="one.dnom" horiz-adv-x="247" 
d="M153 400h53l-71 -400h-62l58 328l-95 -27l-7 57z" />
    <glyph glyph-name="two.dnom" horiz-adv-x="340" 
d="M-14 0l9 51l193 158q53 43 60 80q5 28 -11 45.5t-49 17.5q-53 0 -93 -64l-50 31q24 43 64.5 68t87.5 25q57 0 89 -36t24 -90q-9 -59 -87 -122l-129 -104h182l-10 -60h-280z" />
    <glyph glyph-name="three.dnom" horiz-adv-x="354" 
d="M322 400l-10 -60l-106 -108q45 -11 68 -44t15 -77q-10 -57 -55.5 -90t-112.5 -33q-94 0 -127 84l54 28q18 -52 83 -52q40 0 65.5 18.5t30.5 50.5q6 31 -13 50t-58 19h-4l-23 47l104 107h-179l10 60h258z" />
    <glyph glyph-name="four.dnom" horiz-adv-x="354" 
d="M313 133l-10 -58h-51l-13 -75h-62l13 75h-206l10 58l196 267h71l-195 -267h134l17 96h62l-17 -96h51z" />
    <glyph glyph-name="five.dnom" horiz-adv-x="343" 
d="M310 342h-179l-22 -92h60q59 0 93.5 -40t23.5 -99q-10 -58 -53 -90.5t-112 -32.5q-95 0 -126 85l56 28q19 -53 80 -53q38 0 63 19t30 50q6 33 -12 53t-56 20h-122l52 210h234z" />
    <glyph glyph-name="six.dnom" horiz-adv-x="342" 
d="M174 267q63 0 99.5 -43t25.5 -102t-59 -96.5t-115 -37.5q-63 0 -99.5 43t-25.5 103q8 43 35 73l163 193h79l-115 -133h12zM237 128q6 35 -13.5 57t-60.5 22q-40 0 -67.5 -22t-33.5 -57t13.5 -57.5t59.5 -22.5t68 22.5t34 57.5z" />
    <glyph glyph-name="seven.dnom" horiz-adv-x="296" 
d="M36 400h266l-8 -50l-207 -350h-69l203 340h-195z" />
    <glyph glyph-name="eight.dnom" horiz-adv-x="336" 
d="M307 294q-9 -55 -68 -85q60 -38 47 -107q-9 -53 -54 -83.5t-109 -30.5q-61 0 -97 34.5t-27 87.5q13 71 86 102q-48 34 -39 90q9 52 52 81t99 29q52 0 85.5 -33t24.5 -85zM245 298q5 26 -10 41t-48 15q-69 0 -79 -56q-5 -27 10.5 -43t48.5 -16q32 0 52.5 16t25.5 43z
M226 114q5 30 -14 47.5t-56 17.5q-82 0 -93 -65q-5 -30 13 -48t57 -18q38 0 63 18t30 48z" />
    <glyph glyph-name="nine.dnom" horiz-adv-x="341" 
d="M199 412q60 0 97.5 -43.5t27.5 -102.5q-7 -41 -35 -73l-161 -193h-78l116 134q-5 -1 -16 -1q-61 0 -98 43.5t-27 101.5q10 59 59 96.5t115 37.5zM87 272q-6 -35 13.5 -57t60.5 -22q40 0 67.5 22t33.5 57t-13.5 57.5t-59.5 22.5t-68 -22.5t-34 -57.5z" />
    <glyph glyph-name="zero.numr" horiz-adv-x="412" 
d="M214 288q-78 0 -117 61t-22 156t73 151t138 56q78 0 117 -61t22 -156t-73 -151t-138 -56zM223 348q53 0 90 39t50 113t-10 113t-76 39t-90 -39t-50 -113t10 -113t76 -39z" />
    <glyph glyph-name="one.numr" horiz-adv-x="247" 
d="M206 700h53l-71 -400h-62l58 328l-95 -27l-7 57z" />
    <glyph glyph-name="two.numr" horiz-adv-x="340" 
d="M39 300l9 51l193 158q53 43 60 80q5 28 -11 45.5t-49 17.5q-53 0 -93 -64l-50 31q24 43 64.5 68t87.5 25q57 0 89 -36t24 -90q-9 -59 -87 -122l-129 -104h182l-10 -60h-280z" />
    <glyph glyph-name="three.numr" horiz-adv-x="353" 
d="M374 700l-10 -60l-106 -108q45 -11 68 -44t15 -77q-10 -57 -55.5 -90t-112.5 -33q-94 0 -127 84l54 28q18 -52 83 -52q40 0 65.5 18.5t30.5 50.5q6 31 -13 50t-58 19h-4l-23 47l104 107h-179l10 60h258z" />
    <glyph glyph-name="four.numr" horiz-adv-x="354" 
d="M366 433l-10 -58h-51l-13 -75h-62l13 75h-206l10 58l196 267h71l-195 -267h134l17 96h62l-17 -96h51z" />
    <glyph glyph-name="five.numr" horiz-adv-x="342" 
d="M362 642h-179l-22 -92h60q59 0 93.5 -40t23.5 -99q-10 -58 -53 -90.5t-112 -32.5q-95 0 -126 85l56 28q19 -53 80 -53q38 0 63 19t30 50q6 33 -12 53t-56 20h-122l52 210h234z" />
    <glyph glyph-name="six.numr" horiz-adv-x="341" 
d="M226 567q63 0 99.5 -43t25.5 -102t-59 -96.5t-115 -37.5q-63 0 -99.5 43t-25.5 103q8 43 35 73l163 193h79l-115 -133h12zM289 428q6 35 -13.5 57t-60.5 22q-40 0 -67.5 -22t-33.5 -57t13.5 -57.5t59.5 -22.5t68 22.5t34 57.5z" />
    <glyph glyph-name="seven.numr" horiz-adv-x="296" 
d="M89 700h266l-8 -50l-207 -350h-69l203 340h-195z" />
    <glyph glyph-name="eight.numr" horiz-adv-x="336" 
d="M360 594q-8 -55 -68 -85q60 -38 47 -107q-9 -53 -54 -83.5t-109 -30.5q-61 0 -97 34.5t-27 87.5q13 71 86 102q-48 34 -39 90q9 52 52 81t99 29q52 0 85.5 -33t24.5 -85zM298 598q5 26 -10.5 41t-47.5 15q-69 0 -79 -56q-5 -27 10.5 -43t48.5 -16q32 0 52.5 16t25.5 43z
M279 414q5 30 -14 47.5t-56 17.5q-82 0 -93 -65q-5 -30 13 -48t57 -18q38 0 63 18t30 48z" />
    <glyph glyph-name="nine.numr" horiz-adv-x="341" 
d="M252 712q60 0 97.5 -43.5t27.5 -102.5q-7 -41 -35 -73l-161 -193h-78l116 134q-5 -1 -16 -1q-61 0 -98 43.5t-27 101.5q10 59 59 96.5t115 37.5zM140 572q-6 -35 13.5 -57t60.5 -22q40 0 67.5 22t33.5 57t-13.5 57.5t-59.5 22.5t-68 -22.5t-34 -57.5z" />
    <glyph glyph-name="zero.sups" horiz-adv-x="412" 
d="M242 448q-78 0 -117 61t-22 156t73 151t138 56q78 0 117 -61t22 -156t-73 -151t-138 -56zM251 508q53 0 90 39t50 113t-10 113t-76 39t-90 -39t-50 -113t10 -113t76 -39z" />
    <glyph glyph-name="one.sups" horiz-adv-x="248" 
d="M235 860h53l-71 -400h-62l58 328l-95 -27l-7 57z" />
    <glyph glyph-name="two.sups" horiz-adv-x="340" 
d="M67 460l9 51l193 158q53 43 60 80q5 28 -11 45.5t-49 17.5q-53 0 -93 -64l-50 31q24 43 64.5 68t87.5 25q57 0 89 -36t24 -90q-9 -59 -87 -122l-129 -104h182l-10 -60h-280z" />
    <glyph glyph-name="three.sups" horiz-adv-x="353" 
d="M403 860l-10 -60l-106 -108q45 -11 68 -44t15 -77q-10 -57 -55.5 -90t-112.5 -33q-94 0 -127 84l54 28q18 -52 83 -52q40 0 65.5 18.5t30.5 50.5q6 31 -13 50t-58 19h-4l-23 47l104 107h-179l10 60h258z" />
    <glyph glyph-name="four.sups" horiz-adv-x="354" 
d="M394 593l-10 -58h-51l-13 -75h-62l13 75h-206l10 58l196 267h71l-195 -267h134l17 96h62l-17 -96h51z" />
    <glyph glyph-name="five.sups" horiz-adv-x="342" 
d="M391 802h-179l-22 -92h60q59 0 93.5 -40t23.5 -99q-10 -58 -53 -90.5t-112 -32.5q-95 0 -126 85l56 28q19 -53 80 -53q38 0 63 19t30 50q6 33 -12 53t-56 20h-122l52 210h234z" />
    <glyph glyph-name="six.sups" horiz-adv-x="341" 
d="M255 727q63 0 99.5 -43t25.5 -102t-59 -96.5t-115 -37.5q-63 0 -99.5 43t-25.5 103q8 43 35 73l163 193h79l-115 -133h12zM318 588q6 35 -13.5 57t-60.5 22q-40 0 -67.5 -22t-33.5 -57t13.5 -57.5t59.5 -22.5t68 22.5t34 57.5z" />
    <glyph glyph-name="seven.sups" horiz-adv-x="297" 
d="M118 860h266l-8 -50l-207 -350h-69l203 340h-195z" />
    <glyph glyph-name="eight.sups" horiz-adv-x="336" 
d="M388 754q-8 -55 -68 -85q60 -38 47 -107q-9 -53 -54 -83.5t-109 -30.5q-61 0 -97 34.5t-27 87.5q13 71 86 102q-48 34 -39 90q9 52 52 81t99 29q52 0 85.5 -33t24.5 -85zM326 758q5 26 -10.5 41t-47.5 15q-69 0 -79 -56q-5 -27 10.5 -43t48.5 -16q32 0 52.5 16t25.5 43z
M307 574q5 30 -14 47.5t-56 17.5q-82 0 -93 -65q-5 -30 13 -48t57 -18q38 0 63 18t30 48z" />
    <glyph glyph-name="nine.sups" horiz-adv-x="341" 
d="M280 872q60 0 97.5 -43.5t27.5 -102.5q-7 -41 -35 -73l-161 -193h-78l116 134q-5 -1 -16 -1q-61 0 -98 43.5t-27 101.5q10 59 59 96.5t115 37.5zM168 732q-6 -35 13.5 -57t60.5 -22q40 0 67.5 22t33.5 57t-13.5 57.5t-59.5 22.5t-68 -22.5t-34 -57.5z" />
    <glyph glyph-name="cent.tf" 
d="M293 152q57 0 105.5 27t77.5 73l53 -35q-38 -61 -103 -95t-144 -34q-31 0 -63 8l-47 -96h-54l56 114q-62 34 -92 101t-16 146q19 110 105 180.5t198 70.5q28 0 48 -4l46 92h54l-52 -106q81 -35 108 -112l-57 -29q-22 60 -80 82l-187 -378q23 -5 44 -5zM132 354
q-10 -58 9.5 -106t62.5 -73l183 372q-7 1 -24 1q-85 0 -150.5 -55.5t-80.5 -138.5z" />
    <glyph glyph-name="dollar.tf" 
d="M354 376q86 -38 118 -68q61 -56 44 -144q-16 -81 -79.5 -125.5t-150.5 -49.5l-16 -89h-60l16 90q-159 15 -205 150l63 31q31 -103 154 -114l48 273q-14 6 -24.5 11l-24.5 12t-24.5 14l-23 16t-21 18.5l-17.5 20.5t-14 24t-8 27.5t-3 31.5t4 35q16 81 81 125.5t142 46.5
l16 88h60l-16 -92q118 -20 162 -127l-63 -31q-36 76 -111 90zM200 533q-10 -49 16.5 -78t81.5 -55l43 243q-51 -4 -90.5 -32.5t-50.5 -77.5zM446 172q11 51 -17.5 80t-86.5 54l-44 -248q59 6 98.5 36t49.5 78z" />
    <glyph glyph-name="Euro.tf" 
d="M405 644q-71 0 -124.5 -52t-85.5 -150h244l-10 -58h-249q-3 -13 -7 -34q-2 -8 -4 -26h249l-10 -58h-245q-5 -101 31 -155.5t107 -54.5q107 0 169 117l56 -36q-38 -70 -99.5 -109.5t-137.5 -39.5q-97 0 -149 75.5t-47 202.5h-65l10 58h60q1 10 5 32q1 5 2.5 14.5t2.5 13.5
h-59l10 58h64q38 127 113.5 198.5t178.5 71.5q67 0 116 -38t66 -104l-61 -32q-13 51 -47.5 78.5t-83.5 27.5z" />
    <glyph glyph-name="florin.tf" 
d="M383 571q74 180 237 132l-11 -64q-59 19 -98 0t-59 -68l-78 -188h150l-12 -64h-164l-161 -388q-74 -180 -236 -132l11 64q59 -19 97.5 -0.5t58.5 68.5l161 388h-148l12 64h162z" />
    <glyph glyph-name="uni20BD.tf" 
d="M409 700q84 0 136.5 -64.5t36.5 -151.5q-15 -86 -86 -145t-161 -59h-160l-16 -94h240l-10 -58h-241l-22 -128h-70l22 128h-89l10 58h90l16 94h-90l12 66h90l62 354h230zM512 490q11 60 -22.5 102t-91.5 42h-161l-50 -288h160q58 0 106 42.5t59 101.5z" />
    <glyph glyph-name="sterling.tf" 
d="M201 289l-39 -221h366l-12 -68h-530l12 68h94l39 221h-74l11 62h74l27 151q18 104 79 157t149 53q64 0 112 -36t68 -98l-58 -30q-36 96 -130 96q-56 0 -97 -35t-53 -107l-27 -151h231l-11 -62h-231z" />
    <glyph glyph-name="yen.tf" 
d="M642 700l-292 -353h168l-10 -58h-181l-11 -60h181l-10 -58h-181l-30 -171h-70l30 171h-179l10 58h179l11 60h-179l10 58h166l-167 353h73l146 -309l255 309h81z" />
    <glyph glyph-name="brevecy" horiz-adv-x="300" 
d="M78 580l10 58h260l-10 -58h-260z" />
    </font>
</defs>
</svg>
