<?xml version="1.0" standalone="no"?>
<!DOCTYPE svg PUBLIC "-//W3C//DTD SVG 1.1//EN" "http://www.w3.org/Graphics/SVG/1.1/DTD/svg11.dtd">
<svg xmlns="http://www.w3.org/2000/svg"><metadata>This SVG WebFont was generated by YouWorkForThem.
Daniel Brokstad Â© 2019</metadata><defs><font horiz-adv-x="1761" id="ywftsvg"><font-face ascent="1638" bbox="-1321 -639 2478 2447.43" cap-height="1536" descent="-410" font-family="" font-stretch="normal" font-weight="400" panose-1="0 0 5 0 0 0 0 0 0 0" underline-position="0" underline-thickness="0" unicode-range="U+0020-1F636" units-per-em="2048" x-height="1024"/><missing-glyph d="M799 1536v-1946h-619v1946h619zM647 1405h-319v-64h125v-71h-127v-64h321v64h-127v71h127v64zM520 1155h-194v-203h321v66h-127v137zM453 1090v-72h-64v72h64zM647 899h-321v-63h127v-72h-127v-64h194v136h127v63zM647 782h-63v-127h-258v-67h321v194zM647 545h-194v-109 h67v45h64v-92h-195v156h-63v-219h321v219zM647 209h-321v-219h321v219zM584 145v-92h-195v92h195zM647 -55h-321v-64h135l-135 -92v-63h321v63h-198l137 92h61v64z" horiz-adv-x="972"/><glyph d="M1071 1024v-1024h-205v819h-383v-819h-204v819h-218v205h218v512h423v-205h-219v-307h588zM1133 1327l-164 -162l-164 162l164 166z" glyph-name="uniFB01" horiz-adv-x="1187" unicode="fi"/><glyph d="M1022 1536v-1536h-205v1331h-334v-307h219v-205h-219v-819h-204v819h-218v205h218v512h743z" glyph-name="uniFB02" horiz-adv-x="1144" unicode="fl"/><glyph d="M799 1536v-1946h-619v1946h619zM647 1405h-319v-64h125v-71h-127v-64h321v64h-127v71h127v64zM520 1155h-194v-203h321v66h-127v137zM453 1090v-72h-64v72h64zM647 899h-321v-63h127v-72h-127v-64h194v136h127v63zM647 782h-63v-127h-258v-67h321v194zM647 545h-194v-109 h67v45h64v-92h-195v156h-63v-219h321v219zM647 209h-321v-219h321v219zM584 145v-92h-195v92h195zM647 -55h-321v-64h135l-135 -92v-63h321v63h-198l137 92h61v64z" glyph-name=".notdef" horiz-adv-x="972"/><glyph glyph-name="glyph1" horiz-adv-x="0"/><glyph glyph-name="glyph2" horiz-adv-x="681"/><glyph glyph-name="space" horiz-adv-x="552" unicode=" "/><glyph d="M184 1536h205l-27 -1126h-149zM287 307l164 -166l-164 -161l-164 161z" glyph-name="exclam" horiz-adv-x="573" unicode="!"/><glyph d="M131 1044l-29 492h217l-26 -492h-162zM410 1044l-29 492h217l-27 -492h-161z" glyph-name="quotedbl" horiz-adv-x="700" unicode="&quot;"/><glyph d="M1317 889h-252l-78 -236h248v-204h-315l-148 -449h-213l148 449h-220l-147 -449h-211l147 449h-215v204h283l76 236h-275v205h342l146 442h213l-146 -442h220l145 442h213l-145 -442h184v-205zM774 653l78 236h-219l-78 -236h219z" glyph-name="numbersign" horiz-adv-x="1378" unicode="#"/><glyph d="M1096 414q0 -172 -106.5 -284t-293.5 -140v-195h-204v187q-127 10 -226.5 55t-136.5 84l-37 39v276q94 -115 158 -160q131 -92 315 -92q139 0 232.5 52.5t93.5 169.5q0 98 -78 157.5t-297 157.5q-88 39 -130 59.5t-109.5 62.5t-100.5 81t-58.5 99t-25.5 132 q0 160 106.5 263.5t293.5 129.5v193h204v-189q219 -20 342 -147v-279q-39 49 -70.5 80t-84 69t-122 57.5t-153.5 19.5q-139 0 -225 -52.5t-86 -140.5q0 -82 71.5 -132t227.5 -116q274 -117 387 -223t113 -274z" glyph-name="dollar" horiz-adv-x="1187" unicode="$"/><glyph d="M381 979q-119 0 -204 85t-85 203.5t85 203.5t204 85q121 0 206 -85t85 -203.5t-85 -203.5t-206 -85zM1221 1536l-840 -1536h-234l840 1536h234zM381 1163q43 0 73.5 31t30.5 74q0 41 -30.5 71.5t-73.5 30.5q-41 0 -71.5 -30.5t-30.5 -71.5q0 -43 30.5 -74t71.5 -31z M987 -20q-121 0 -205 85t-84 203.5t84 204.5t205 86q119 0 204 -86t85 -204.5t-85 -203.5t-204 -85zM987 164q43 0 74 31.5t31 72.5q0 43 -31 75t-74 32q-45 0 -75.5 -32t-30.5 -75t30.5 -73.5t75.5 -30.5z" glyph-name="percent" horiz-adv-x="1368" unicode="%"/><glyph d="M1198 0h-248l-47 66q-158 -86 -344 -86q-207 0 -338 122.5t-129 309.5q2 131 79 222t218 173l-29 39q-109 156 -108 319q0 162 107.5 276.5t267.5 114.5q172 0 279.5 -113.5t107.5 -277.5q0 -150 -83 -249t-241 -185l262 -377q141 131 236 303v-327q-45 -72 -119 -144z M522 973l49 -72l43 23q104 57 149.5 111.5t45.5 125.5q0 84 -49 137.5t-127 53.5t-127 -53.5t-49 -137.5q-1 -94 65 -188zM575 184q102 0 209 54l-278 399q-98 -53 -153.5 -106.5t-55.5 -120.5q0 -104 76.5 -165t201.5 -61z" glyph-name="ampersand" horiz-adv-x="1259" unicode="&amp;"/><glyph d="M131 1044l-29 492h217l-26 -492h-162z" glyph-name="quotesingle" horiz-adv-x="421" unicode="'"/><glyph d="M279 -102q-8 10 -20.5 32.5t-44.5 102.5t-56.5 173t-45 247.5t-20.5 324.5t19.5 321.5t46 246t54.5 164t46 100.5l21 28h221q-8 -10 -21.5 -29.5t-49.5 -94t-62.5 -164.5t-48 -244t-21.5 -328t20.5 -328.5t50 -251t60.5 -168t51 -102.5l21 -30h-221z" glyph-name="parenleft" horiz-adv-x="561" unicode="("/><glyph d="M283 -102h-222q8 10 21.5 31.5t49.5 99t62.5 171t48 249t21.5 329.5t-20.5 326.5t-50 246t-60.5 162t-51 97.5l-21 28h222q8 -10 20 -30.5t44 -97t56.5 -167t45 -243t20.5 -322.5t-19.5 -323.5t-46 -251t-54 -170t-46.5 -103.5z" glyph-name="parenright" horiz-adv-x="561" unicode=")"/><glyph d="M700 1260l-231 -43l164 -170l-121 -89l-117 220l-114 -217l-121 88l164 170l-232 41l47 141l215 -105l-32 240h149l-33 -240l215 105z" glyph-name="asterisk" horiz-adv-x="792" unicode="*"/><glyph d="M989 737v-205h-346v-342h-205v342h-346v205h346v350h205v-350h346z" glyph-name="plus" horiz-adv-x="1081" unicode="+"/><glyph d="M59 -238l181 459l196 -92l-231 -434z" glyph-name="comma" horiz-adv-x="538" unicode=","/><glyph d="M92 457v205h756v-205h-756z" glyph-name="hyphen" horiz-adv-x="940" unicode="-"/><glyph d="M266 307l164 -166l-164 -161l-164 161z" glyph-name="period" horiz-adv-x="532" unicode="."/><glyph d="M799 1638l-525 -1740h-213l525 1740h213z" glyph-name="slash" horiz-adv-x="860" unicode="/"/><glyph d="M559 -20q-213 0 -340 225t-127 563t127 563t340 225q215 0 341 -225t126 -563t-126 -563t-341 -225zM559 184q123 0 192.5 165t69.5 419t-69.5 419t-192.5 165t-192.5 -165t-69.5 -419t69.5 -419t192.5 -165z" glyph-name="zero" horiz-adv-x="1118" unicode="0"/><glyph d="M522 1536v-1536h-205v1260l-256 -275v275l256 276h205z" glyph-name="one" horiz-adv-x="645" unicode="1"/><glyph d="M946 696l-436 -491h555v-205h-1004l707 803q98 109 100 229q4 137 -75.5 228.5t-237.5 91.5q-221 0 -424 -297v282q145 219 442 219q217 0 358.5 -146t141.5 -359q0 -100 -38 -200t-89 -155z" glyph-name="two" horiz-adv-x="1165" unicode="2"/><glyph d="M778 920q109 -70 174.5 -183.5t65.5 -247.5q0 -213 -140.5 -361t-349.5 -148q-154 0 -264 64.5t-172 143.5v289q188 -293 420 -293q125 0 213 89t88 216q0 129 -92 217.5t-209 88.5v204q74 0 124 49.5t50 127.5q0 74 -53 125t-154 51q-207 0 -387 -209v246 q57 72 172 119.5t228 47.5q168 0 283.5 -107.5t115.5 -262.5q0 -147 -113 -266z" glyph-name="three" horiz-adv-x="1110" unicode="3"/><glyph d="M1077 715v-205h-147v-510h-205v510h-664l590 1026h238l-473 -821h309v309h205v-309h147z" glyph-name="four" horiz-adv-x="1200" unicode="4"/><glyph d="M510 1022q215 0 361.5 -154.5t146.5 -373.5q0 -211 -149.5 -362.5t-360.5 -151.5q-145 0 -250.5 59t-165.5 131v270q184 -256 389 -256q143 0 237.5 90.5t94.5 225.5q0 133 -87 225t-216 92h-418v719h811v-205h-606v-309h213z" glyph-name="five" horiz-adv-x="1110" unicode="5"/><glyph d="M514 1016q229 53 419.5 -98.5t190.5 -405.5q0 -223 -147.5 -377.5t-368.5 -154.5q-225 0 -370.5 153.5t-145.5 378.5q0 139 84 299l379 725h231zM608 184q133 0 222.5 95.5t89.5 232.5t-89.5 232.5t-222.5 95.5t-222 -95.5t-89 -232.5t89 -232.5t222 -95.5z" glyph-name="six" horiz-adv-x="1216" unicode="6"/><glyph d="M1188 1536l-735 -1536h-228l637 1331h-739v205h1065z" glyph-name="seven" horiz-adv-x="1249" unicode="7"/><glyph d="M870 924q111 -70 176.5 -184.5t65.5 -250.5q0 -211 -149.5 -360t-360.5 -149t-360.5 149.5t-149.5 359.5q0 135 64.5 249t175.5 184q-106 111 -105 262q4 156 113 264t262.5 108t263 -108.5t109.5 -263.5q-1 -151 -105 -260zM606 1368q-78 0 -132 -53t-52 -131 q2 -80 54 -132.5t130 -52.5q76 0 129 52.5t53 132.5q0 78 -53 131t-129 53zM602 184q127 0 216 89t89 216t-89 216.5t-216 89.5t-216 -89.5t-89 -216.5t89 -216t216 -89z" glyph-name="eight" horiz-adv-x="1204" unicode="8"/><glyph d="M578 1556q225 0 370.5 -153.5t145.5 -378.5q0 -139 -84 -299l-379 -725h-232l273 520q-229 -53 -420 98.5t-191 405.5q0 223 148 377.5t369 154.5zM577.5 696q133.5 0 222.5 95.5t89 232.5t-89 232.5t-222.5 95.5t-222.5 -95.5t-89 -232.5t89 -232.5t222.5 -95.5z" glyph-name="nine" horiz-adv-x="1185" unicode="9"/><glyph d="M266 715l-164 166l164 161l164 -161zM266 307l164 -166l-164 -161l-164 161z" glyph-name="colon" horiz-adv-x="532" unicode=":"/><glyph d="M272 715l-163 166l163 161l164 -161zM59 -238l181 459l196 -92l-231 -434z" glyph-name="semicolon" horiz-adv-x="538" unicode=";"/><glyph d="M891 1053v-232l-565 -274l565 -287v-231l-799 413v211z" glyph-name="less" horiz-adv-x="983" unicode="&lt;"/><glyph d="M92 676v205h897v-205h-897zM92 389v205h897v-205h-897z" glyph-name="equal" horiz-adv-x="1081" unicode="="/><glyph d="M92 1053l799 -400v-211l-799 -413v231l565 287l-565 274v232z" glyph-name="greater" horiz-adv-x="983" unicode=">"/><glyph d="M428 401q-160 0 -253 88.5t-93 212.5q0 106 57.5 183.5t171.5 146.5q20 14 69.5 42t73 44.5t55.5 41t45 49t13 51.5q0 96 -161 92q-176 -4 -324 -176v247q123 133 328 133q172 0 267 -81.5t95 -204.5q0 -117 -66.5 -191.5t-218.5 -177.5q-20 -14 -63 -40.5t-59.5 -39 t-39 -33t-30.5 -41t-8 -45.5q0 -49 43 -72.5t106 -23.5q70 0 160 62.5t149 148.5v-268q-141 -148 -317 -148zM428 307l164 -166l-164 -161l-164 161z" glyph-name="question" horiz-adv-x="864" unicode="?"/><glyph d="M919.5 1556q344.5 0 585 -242.5t240.5 -586.5q0 -209 -81 -314.5t-212 -105.5q-139 0 -225 117q-131 -117 -307 -117q-182 0 -310.5 120t-128.5 290t128 289.5t310.5 119.5t311.5 -119.5t129 -289.5v-39q0 -72 24.5 -119t71.5 -47q51 0 67.5 57.5t16.5 157.5 q0 256 -181 441.5t-439 185.5q-260 0 -441.5 -185.5t-181.5 -441.5q0 -260 181 -442.5t442 -182.5q106 0 211.5 38t179.5 102v-242q-180 -102 -391 -102q-344 0 -586 242.5t-242 586.5t241.5 586.5t586 242.5zM919.5 514q98.5 0 167 59.5t68.5 143.5q0 88 -67.5 145.5 t-167.5 57.5q-98 0 -166 -58.5t-68 -144.5q2 -86 68.5 -144.5t165 -58.5z" glyph-name="at" horiz-adv-x="1837" unicode="@"/><glyph d="M1241 0l-182 506h-598l-182 -506h-218l562 1536h274l561 -1536h-217zM535 711h450l-225 620z" glyph-name="A" horiz-adv-x="1519" unicode="A"/><glyph d="M1008 881q102 -66 161.5 -172.5t59.5 -231.5q0 -197 -140.5 -336t-336.5 -141h-629v1536h590q164 0 279.5 -115.5t115.5 -277.5q0 -151 -100 -262zM328 1331v-377h385q80 0 135 54.5t55 134.5q0 78 -55 133t-135 55h-385zM752 205q115 0 193.5 80t78.5 192.5t-80 192.5 t-192 80h-424v-545h424z" glyph-name="B" horiz-adv-x="1320" unicode="B"/><glyph d="M881 -20q-336 0 -562.5 229t-226.5 559t226.5 559t562.5 229q311 0 532 -200v-264q-256 260 -532 260q-246 0 -415 -168t-169 -416t169 -416t415 -168q279 0 532 262v-266q-221 -200 -532 -200z" glyph-name="C" horiz-adv-x="1505" unicode="C"/><glyph d="M649 1536q313 0 543.5 -226.5t230.5 -541.5t-230 -541.5t-544 -226.5h-526v1536h526zM649 205q227 0 398.5 168t171.5 395t-171 395t-399 168h-321v-1126h321z" glyph-name="D" horiz-adv-x="1515" unicode="D"/><glyph d="M1094 1331h-766v-377h653v-204h-653v-545h764v-205h-969v1536h971v-205z" glyph-name="E" horiz-adv-x="1185" unicode="E"/><glyph d="M1092 1331h-764v-377h653v-204h-653v-750h-205v1536h969v-205z" glyph-name="F" horiz-adv-x="1163" unicode="F"/><glyph d="M881 1352q-246 0 -415 -168t-169 -416t169 -416t415 -168q172 0 327 95v348h-315v204h520v-651q-221 -201 -532 -200q-336 0 -562.5 229t-226.5 559t226.5 559t562.5 229q311 0 532 -200v-264q-256 260 -532 260z" glyph-name="G" horiz-adv-x="1525" unicode="G"/><glyph d="M1106 1536h205v-1536h-205v666h-778v-666h-205v1536h205v-666h778v666z" glyph-name="H" horiz-adv-x="1433" unicode="H"/><glyph d="M123 1536h205v-1536h-205v1536z" glyph-name="I" horiz-adv-x="450" unicode="I"/><glyph d="M289 184q82 0 119.5 39t37.5 137v1176h205v-1188q0 -178 -94 -273t-266 -95q-133 0 -230 77v238q31 -33 52.5 -51.5t70 -39t105.5 -20.5z" glyph-name="J" horiz-adv-x="774" unicode="J"/><glyph d="M1276 1536q-395 -395 -596 -676l596 -860h-246l-473 670q-207 -346 -229 -670h-205v1536h205v-856q190 365 659 856h289z" glyph-name="K" horiz-adv-x="1347" unicode="K"/><glyph d="M328 205h764v-205h-969v1536h205v-1331z" glyph-name="L" horiz-adv-x="1163" unicode="L"/><glyph d="M1581 1536v-1536h-205v1081l-413 -1081h-220l-415 1083v-1083h-205v1536h250l479 -1249l479 1249h250z" glyph-name="M" horiz-adv-x="1703" unicode="M"/><glyph d="M1106 1536h205v-1536h-205l-778 1167v-1167h-205v1536h205l778 -1167v1167z" glyph-name="N" horiz-adv-x="1433" unicode="N"/><glyph d="M881 -20q-334 0 -561.5 229t-227.5 559t227.5 559t561.5 229q336 0 562 -229t226 -559t-226 -559t-562 -229zM881 184q244 0 413.5 170t169.5 414t-170 414t-413 170q-242 0 -413 -171t-171 -413t171 -413t413 -171z" glyph-name="O" unicode="O"/><glyph d="M682 1536q213 0 364.5 -150.5t151.5 -363.5q0 -215 -151.5 -365.5t-364.5 -150.5h-354v-506h-205v1536h559zM682 711q131 0 221 91t90 220q0 127 -91 218t-220 91h-354v-620h354z" glyph-name="P" horiz-adv-x="1269" unicode="P"/><glyph d="M1696 137l-146 -145l-166 164q-213 -176 -503 -176q-334 0 -561.5 229t-227.5 559t227.5 559t561.5 229q336 0 562 -229t226 -559q0 -256 -143 -461zM881 184q199 0 356 119l-186 186l145 146l180 -178q88 143 88 311q0 244 -170 414t-413 170q-242 0 -413 -171 t-171 -413t171 -413t413 -171z" glyph-name="Q" horiz-adv-x="1787" unicode="Q"/><glyph d="M1198 1022q0 -152 -82 -278t-215 -189l244 -555h-223l-224 506h-16h-354v-506h-205v1536h559q213 0 364.5 -150.5t151.5 -363.5zM328 1331v-620h354q131 0 221 91t90 220q0 127 -91 218t-220 91h-354z" glyph-name="R" horiz-adv-x="1269" unicode="R"/><glyph d="M565 -20q-94 0 -178 18t-135 45t-89 53.5t-54 44.5l-17 19v276q94 -115 158 -160q131 -92 315 -92q139 0 232.5 52.5t93.5 169.5q0 98 -78 157.5t-297 157.5q-88 39 -130 59.5t-109.5 62.5t-100.5 81t-58.5 99t-25.5 132q0 186 142.5 293.5t375.5 107.5q281 0 428 -151 v-279q-39 49 -70.5 80t-84 69t-122 57.5t-153.5 19.5q-139 0 -225 -52.5t-86 -140.5q0 -82 71.5 -132t227.5 -116q274 -117 387 -223t113 -274q0 -203 -143.5 -318.5t-387.5 -115.5z" glyph-name="S" horiz-adv-x="1187" unicode="S"/><glyph d="M1280 1536v-205h-492v-1331h-204v1331h-492v205h1188z" glyph-name="T" horiz-adv-x="1372" unicode="T"/><glyph d="M696.5 -20q-247.5 0 -410.5 166.5t-163 406.5v983h205v-983q0 -154 106.5 -261.5t262 -107.5t262 107.5t106.5 261.5v983h205v-983q0 -240 -163 -406.5t-410.5 -166.5z" glyph-name="U" horiz-adv-x="1392" unicode="U"/><glyph d="M1241 1536h217l-561 -1536h-274l-562 1536h218l481 -1331z" glyph-name="V" horiz-adv-x="1519" unicode="V"/><glyph d="M1499 1536h209l-305 -1536h-305l-213 1253l-211 -1253h-307l-306 1536h209l248 -1321l219 1321h295l221 -1315z" glyph-name="W" horiz-adv-x="1769" unicode="W"/><glyph d="M1391 1536l-533 -770l533 -766h-250l-414 596l-416 -596h-250l535 766l-535 770h250l416 -598l414 598h250z" glyph-name="X" horiz-adv-x="1452" unicode="X"/><glyph d="M1358 1536l-543 -944v-592h-205v586l-549 950h236l414 -739l411 739h236z" glyph-name="Y" horiz-adv-x="1419" unicode="Y"/><glyph d="M1380 1536l-927 -1331h827v-205h-1219l930 1331h-841v205h1230z" glyph-name="Z" horiz-adv-x="1441" unicode="Z"/><glyph d="M588 1434h-260v-1332h260v-204h-465v1740h465v-204z" glyph-name="bracketleft" horiz-adv-x="679" unicode="["/><glyph d="M61 1638h213l525 -1740h-213z" glyph-name="backslash" horiz-adv-x="860" unicode="\"/><glyph d="M92 1638h465v-1740h-465v204h260v1332h-260v204z" glyph-name="bracketright" horiz-adv-x="679" unicode="]"/><glyph d="M866 860h-223l-164 432l-164 -432h-223l293 676h188z" glyph-name="asciicircum" horiz-adv-x="958" unicode="^"/><glyph d="M92 -205v205h756v-205h-756z" glyph-name="underscore" horiz-adv-x="940" unicode="_"/><glyph d="M367 1434l147 -267h-182l-230 267h265z" glyph-name="grave" horiz-adv-x="616" unicode="`"/><glyph d="M512 1044q186 0 313 -110.5t127 -280.5v-653h-204v84q-100 -104 -261 -104q-164 0 -279.5 107.5t-115.5 260.5q0 152 115 253t280 101q160 0 261 -104v55q0 92 -71 139.5t-194 47.5q-135 0 -252 -99v228q117 75 281 75zM518 172q98 0 164 53.5t66 131t-66 131t-164 53.5 q-96 0 -158.5 -52.5t-62.5 -132.5q0 -82 62.5 -133t158.5 -51z" glyph-name="a" horiz-adv-x="1054" unicode="a"/><glyph d="M659 1044q217 0 372 -153.5t155 -378.5t-154.5 -378.5t-372.5 -153.5q-215 0 -331 157v-137h-205v1536h205v-647q118 155 331 155zM655.5 184q135.5 0 231.5 96.5t96 231.5t-96 231.5t-231.5 96.5t-231.5 -96.5t-96 -231.5t96 -231.5t231.5 -96.5z" glyph-name="b" horiz-adv-x="1277" unicode="b"/><glyph d="M625 -20q-229 0 -381 154.5t-152 377.5t151.5 377.5t381.5 154.5q152 0 286 -81v-242q-135 119 -286 119q-139 0 -233.5 -95.5t-94.5 -232.5t94 -232.5t234 -95.5q147 0 286 123v-244q-132 -83 -286 -83z" glyph-name="c" horiz-adv-x="1003" unicode="c"/><glyph d="M950 1536h205v-1536h-205v137q-117 -158 -332 -157q-217 0 -371.5 153.5t-154.5 378.5t154.5 378.5t371.5 153.5q213 0 332 -155v647zM622.5 184q135.5 0 231.5 96.5t96 231.5t-96 231.5t-231.5 96.5t-231.5 -96.5t-96 -231.5t96 -231.5t231.5 -96.5z" glyph-name="d" horiz-adv-x="1277" unicode="d"/><glyph d="M307 426q25 -113 114 -178.5t222 -65.5q193 0 305 109v-232q-119 -80 -309 -79q-233 0 -389 151.5t-158 380.5q2 223 159 377.5t388 154.5q184 0 289.5 -104t105.5 -258q0 -156 -119.5 -247t-312.5 -91q-166 0 -295 82zM633 840q-104 0 -190.5 -55.5t-123.5 -149.5 q106 -86 277 -86q233 0 233 127q1 164 -196 164z" glyph-name="e" horiz-adv-x="1126" unicode="e"/><glyph d="M702 1331h-219v-307h219v-205h-219v-819h-204v819h-218v205h218v512h423v-205z" glyph-name="f" horiz-adv-x="763" unicode="f"/><glyph d="M950 1024h205v-989q0 -213 -140.5 -339t-355.5 -126q-188 0 -313 102v248q37 -53 123 -99t184 -46q135 0 216 65.5t81 194.5v102q-117 -158 -332 -157q-217 0 -371.5 153.5t-154.5 378.5t154.5 378.5t371.5 153.5q213 0 332 -155v135zM622.5 184q135.5 0 231.5 96.5 t96 231.5t-96 231.5t-231.5 96.5t-231.5 -96.5t-96 -231.5t96 -231.5t231.5 -96.5z" glyph-name="g" horiz-adv-x="1277" unicode="g"/><glyph d="M655 1044q139 0 247 -113.5t110 -273.5v-657h-205v633q0 102 -52.5 154.5t-140.5 52.5q-121 0 -203.5 -85t-82.5 -214v-541h-205v1536h205v-668q122 176 327 176z" glyph-name="h" horiz-adv-x="1114" unicode="h"/><glyph d="M221 1493l164 -166l-164 -162l-164 162zM119 1024h205v-1024h-205v1024z" glyph-name="i" horiz-adv-x="440" unicode="i"/><glyph d="M551 1327l-164 -162l-164 162l164 166zM285 -205v1229h204v-1434h-509v205h305z" glyph-name="j" horiz-adv-x="606" unicode="j"/><glyph d="M987 1024q-250 -219 -379 -377l379 -647h-242l-264 469q-145 -236 -145 -469h-213v1536h205v-973q123 213 374 461h285z" glyph-name="k" horiz-adv-x="1048" unicode="k"/><glyph d="M123 1536h205v-1536h-205v1536z" glyph-name="l" horiz-adv-x="450" unicode="l"/><glyph d="M1339 1044q139 0 248 -114.5t109 -272.5v-657h-205v633q0 102 -52.5 154.5t-140.5 52.5q-121 0 -203.5 -85t-82.5 -214v-541h-205v633q0 102 -52.5 154.5t-140.5 52.5q-121 0 -203.5 -85t-82.5 -214v-541h-205v1024h205v-156q123 176 327 176q100 0 189.5 -63t134.5 -166 q53 104 147 166.5t213 62.5z" glyph-name="m" horiz-adv-x="1798" unicode="m"/><glyph d="M655 1044q139 0 247 -113.5t110 -273.5v-657h-205v633q0 102 -52.5 154.5t-140.5 52.5q-121 0 -203.5 -85t-82.5 -214v-541h-205v1024h205v-156q122 176 327 176z" glyph-name="n" horiz-adv-x="1114" unicode="n"/><glyph d="M624.5 -20q-229.5 0 -381 154.5t-151.5 377.5t151.5 377.5t381.5 154.5q231 0 381.5 -154.5t150.5 -377.5t-151.5 -377.5t-381 -154.5zM624.5 184q139.5 0 233.5 95.5t94 232.5t-94 232.5t-233.5 95.5t-233.5 -95.5t-94 -232.5t94 -232.5t233.5 -95.5z" glyph-name="o" horiz-adv-x="1249" unicode="o"/><glyph d="M659 1044q217 0 372 -153.5t155 -378.5t-154.5 -378.5t-372.5 -153.5q-215 0 -331 157v-547h-205v1434h205v-135q118 155 331 155zM655.5 184q135.5 0 231.5 96.5t96 231.5t-96 231.5t-231.5 96.5t-231.5 -96.5t-96 -231.5t96 -231.5t231.5 -96.5z" glyph-name="p" horiz-adv-x="1277" unicode="p"/><glyph d="M950 1024h205v-1434h-205v547q-117 -158 -332 -157q-217 0 -371.5 153.5t-154.5 378.5t154.5 378.5t371.5 153.5q213 0 332 -155v135zM622.5 184q135.5 0 231.5 96.5t96 231.5t-96 231.5t-231.5 96.5t-231.5 -96.5t-96 -231.5t96 -231.5t231.5 -96.5z" glyph-name="q" horiz-adv-x="1277" unicode="q"/><glyph d="M662 1004l2 -236q-35 63 -111 79.5t-144.5 -33.5t-80.5 -159v-655h-205v1024h205v-131q59 100 149.5 132t184.5 -21z" glyph-name="r" horiz-adv-x="745" unicode="r"/><glyph d="M465 -20q-131 0 -226.5 43t-144.5 94v235q72 -68 173.5 -118t197.5 -50q190 0 190 88q0 23 -19.5 46.5t-63.5 48t-76.5 40t-98.5 44.5q-82 37 -126 60.5t-95 62t-72.5 90t-21.5 118.5q0 109 106.5 185.5t282.5 76.5q238 0 356 -122v-236q-61 63 -150 108.5t-183 45.5 q-86 0 -146.5 -20.5t-60.5 -51.5q0 -51 293 -174q135 -63 207.5 -138t72.5 -184q0 -127 -102.5 -209.5t-292.5 -82.5z" glyph-name="s" horiz-adv-x="952" unicode="s"/><glyph d="M702 1024v-205h-219v-819h-204v819h-218v205h218v512h204v-512h219z" glyph-name="t" horiz-adv-x="763" unicode="t"/><glyph d="M807 1024h205v-1024h-205v156q-123 -176 -328 -176q-139 0 -246.5 113.5t-109.5 273.5v657h207v-633q0 -102 51 -154.5t139 -52.5q121 0 204 85t83 214v541z" glyph-name="u" horiz-adv-x="1134" unicode="u"/><glyph d="M1022 1024h227l-475 -1024h-225l-488 1024h228l370 -819h3z" glyph-name="v" horiz-adv-x="1310" unicode="v"/><glyph d="M1532 1024h217l-340 -1024h-268l-234 737l-229 -737h-268l-349 1024h218l264 -793l2 -4v4l233 793h254l242 -793l2 -4v4z" glyph-name="w" horiz-adv-x="1810" unicode="w"/><glyph d="M1167 1024l-419 -512l419 -512h-264l-289 348l-288 -348h-265l420 512l-420 512h265l288 -348l289 348h264z" glyph-name="x" horiz-adv-x="1228" unicode="x"/><glyph d="M1022 1024h227l-475 -1024l-182 -410h-223l180 410l-488 1024h228l370 -819h3z" glyph-name="y" horiz-adv-x="1310" unicode="y"/><glyph d="M1085 1024l-614 -819h553v-205h-963l615 819h-553v205h962z" glyph-name="z" horiz-adv-x="1146" unicode="z"/><glyph d="M403 1454q-49 0 -69.5 -27.5t0.5 -72.5q16 -37 66.5 -104.5t82 -138.5t31.5 -159q0 -125 -125 -184q125 -63 125 -184q0 -88 -31.5 -159t-82 -138.5t-66.5 -104.5q-20 -45 0 -72.5t69 -27.5q139 0 269 194v-268q-111 -131 -266 -131q-125 0 -204 79t-79 202 q0 74 28.5 138t64.5 101t64.5 85t28.5 93q0 90 -159 91v204q160 0 159 91q0 45 -28.5 93t-64.5 85t-64.5 101.5t-28.5 137.5q0 123 79 202t204 79q156 0 266 -131v-268q-130 194 -269 194z" glyph-name="braceleft" horiz-adv-x="763" unicode="{"/><glyph d="M123 1536h205v-1946h-205v1946z" glyph-name="bar" horiz-adv-x="450" unicode="|"/><glyph d="M614 666q-160 0 -159 -91q0 -45 28.5 -93t64.5 -85t64.5 -101.5t28.5 -137.5q0 -123 -79 -202t-204 -79q-156 0 -266 131v268q129 -195 268 -194q49 0 70 27.5t0 72.5q-16 37 -66.5 104.5t-82 138.5t-31.5 159q0 121 125 184q-125 59 -125 184q0 88 31.5 159t82 138.5 t66.5 104.5q20 45 0 72.5t-70 27.5q-139 0 -268 -194v268q111 131 266 131q125 0 204 -79t79 -202q0 -74 -28.5 -138t-64.5 -101t-64.5 -85t-28.5 -93q0 -90 159 -91v-204z" glyph-name="braceright" horiz-adv-x="763" unicode="}"/><glyph d="M133 362q-47 94 -39 185.5t77 159t171 67.5q80 0 137.5 -34.5t118.5 -102.5q4 -4 14.5 -16.5t13.5 -15.5l12 -12l12 -12l10.5 -10.5t11.5 -9.5t11 -6t12 -5t12.5 -2t13.5 -1q33 0 46 28.5t1 77.5t-49 101h215q82 -131 15.5 -271.5t-222.5 -140.5q-133 0 -260 139 q-6 6 -17.5 18.5t-15.5 16.5t-12 13.5t-11 12.5t-10.5 8l-10.5 7t-9 5t-11 4t-10.5 2t-11.5 1q-18 0 -31.5 -11t-18.5 -31.5t-2 -45t16.5 -56.5t37.5 -63h-217z" glyph-name="asciitilde" horiz-adv-x="1069" unicode="~"/><glyph d="M287 717l-164 166l164 161l164 -161zM184 -512l29 1126h149l27 -1126h-205z" glyph-name="exclamdown" horiz-adv-x="573" unicode="¡"/><glyph d="M625 1106q-139 0 -233.5 -95.5t-94.5 -232.5t94 -232t234 -95q147 0 286 122v-243q-92 -61 -198 -76l10 -234h-205l12 234q-195 33 -316.5 179.5t-121.5 345t122 345t316 179.5l-12 233h205l-10 -233q104 -14 198 -74v-242q-134 119 -286 119z" glyph-name="cent" horiz-adv-x="1003" unicode="¢"/><glyph d="M465 205h659v-205h-1032v205q133 0 200.5 97t37.5 226h-238v82h209q-27 51 -57 86q-131 145 -131 357q0 203 143 353t352 150q297 0 445 -219v-280q-199 295 -424 295q-143 0 -226.5 -92.5t-78.5 -223.5q2 -133 94 -235q74 -82 106 -191h518v-82h-501q22 -176 -76 -323z " glyph-name="sterling" horiz-adv-x="1216" unicode="£"/><glyph d="M1253 778q0 -176 -100 -315l176 -176l-145 -144l-180 181q-127 -78 -283 -78q-168 0 -295 86l-188 -189l-146 144l187 188q-90 135 -90.5 303t92.5 305l-189 189l146 143l188 -188q133 84 295 84q158 0 280 -76l183 180l145 -143l-176 -176q100 -140 100 -318zM393 778 q0 -137 94.5 -232t233.5 -95t233.5 95t94.5 232t-94.5 232.5t-233.5 95.5t-233.5 -95.5t-94.5 -232.5z" glyph-name="currency" horiz-adv-x="1421" unicode="¤"/><glyph d="M815 592v-8h281v-82h-281v-82h281v-82h-281v-338h-205v338h-284v82h284v82h-284v82h284v2l-549 950h236l414 -739l411 739h236z" glyph-name="yen" horiz-adv-x="1419" unicode="¥"/><glyph d="M123 1536h205v-758h-205v758zM123 348h205v-758h-205v758z" glyph-name="brokenbar" horiz-adv-x="450" unicode="¦"/><glyph d="M733 520q88 -84 88 -211q0 -139 -106.5 -234t-294.5 -95q-164 0 -275 86v239q61 -59 114.5 -88t133.5 -33q111 -6 167 32t56 91q0 43 -34.5 75t-114.5 32q-156 0 -265.5 104.5t-109.5 251.5q0 145 107 248q-86 80 -86 209q0 139 106.5 234t294.5 95q164 0 274 -86v-239 q-74 72 -120 92q-63 29 -148 29q-100 0 -151.5 -36t-51.5 -89q0 -43 35 -74t115 -31q156 0 265.5 -102t109.5 -250t-109 -250zM467 612q70 0 120 46.5t50 111.5q0 63 -50 108.5t-120 45.5t-120 -46.5t-50 -107.5q0 -63 50 -110.5t120 -47.5z" glyph-name="section" horiz-adv-x="933" unicode="§"/><glyph d="M266 1473l164 -166l-164 -162l-164 162zM635 1473l164 -166l-164 -162l-164 162z" glyph-name="dieresis" horiz-adv-x="901" unicode="¨"/><glyph d="M922 -102q-344 0 -587 242.5t-243 586.5t243 586.5t587 242.5t586.5 -242.5t242.5 -586.5t-242.5 -586.5t-586.5 -242.5zM922 102q258 0 442 183.5t184 441.5q0 260 -183 443.5t-443 183.5q-258 0 -441.5 -184.5t-183.5 -442.5t183.5 -441.5t441.5 -183.5zM1182 852 q-96 70 -224 70q-111 0 -179 -58.5t-68 -146.5q0 -86 67.5 -142.5t182.5 -56.5q131 0 221 66v-211q-109 -66 -236 -66q-186 0 -313 119t-127 291t127 290.5t313 118.5q127 0 236 -65v-209z" glyph-name="copyright" horiz-adv-x="1843" unicode="©"/><glyph d="M362 1556q119 0 206 -70.5t87 -170.5v-385h-163v43q-61 -55 -154 -55q-102 0 -174 64.5t-72 156.5q0 90 72 148.5t174 58.5q90 0 154 -54v23q0 86 -154 86q-90 0 -158 -49v157q73 47 182 47zM373 1065q49 0 84 23.5t35 56.5q0 35 -34 57.5t-85 22.5q-49 0 -82 -22.5 t-33 -57.5q0 -33 34 -56.5t81 -23.5z" glyph-name="ordfeminine" horiz-adv-x="747" unicode="ª"/><glyph d="M715 1024l-373 -512l373 -512h-254l-369 512l369 512h254zM1100 1024l-373 -512l373 -512h-254l-369 512l369 512h254z" glyph-name="guillemotleft" horiz-adv-x="1161" unicode="«"/><glyph d="M92 737h897v-510h-205v305h-692v205z" glyph-name="logicalnot" horiz-adv-x="1081" unicode="¬"/><glyph d="M92 457v205h756v-205h-756z" glyph-name="uni00AD" horiz-adv-x="940" unicode="­"/><glyph d="M516 1556q176 0 300 -124.5t124 -298.5q0 -176 -124 -301t-300 -125t-300 124.5t-124 301.5q0 174 124 298.5t300 124.5zM516 850q119 0 201 82t82 201q0 117 -82 198.5t-201 81.5t-199.5 -82t-80.5 -198q0 -119 80.5 -201t199.5 -82zM698 1182q0 -88 -73 -133l57 -121 h-117l-47 98h-41v-98h-123v409h193q61 0 106 -46t45 -109zM477 1219v-74h70q33 0 33 35q0 39 -33 39h-70z" glyph-name="registered" horiz-adv-x="1032" unicode="®"/><glyph d="M102 1206v174h514v-174h-514z" glyph-name="macron" horiz-adv-x="718" unicode="¯"/><glyph d="M358.5 1024q-110.5 0 -188.5 79t-78 187.5t78 187t188.5 78.5t188.5 -78.5t78 -187t-78 -187.5t-188.5 -79zM358.5 1153q57.5 0 98.5 40t41 97.5t-41 98.5t-98.5 41t-97.5 -41t-40 -98.5t40 -97.5t97.5 -40z" glyph-name="degree" horiz-adv-x="716" unicode="°"/><glyph d="M643 885h346v-205h-346v-215h-205v215h-346v205h346v209h205v-209zM92 190v205h897v-205h-897z" glyph-name="plusminus" horiz-adv-x="1081" unicode="±"/><glyph d="M590 1032l-168 -233h235v-185h-596l373 519q45 63 45 112q0 119 -135 119q-133 0 -254 -186l2 237q88 133 264 133q133 0 220.5 -88t87.5 -215q0 -109 -74 -213z" glyph-name="uni00B2" horiz-adv-x="755" unicode="²"/><glyph d="M524 1151q127 -88 127 -238q0 -131 -92 -221t-231 -90q-147 0 -236 115v207q106 -137 236 -138q68 0 103.5 38t35.5 99.5t-40 93.5t-105 32v163q29 0 51 21.5t22 56.5q0 31 -27.5 51.5t-82.5 20.5q-106 0 -193 -78v189q66 74 205 73q125 0 204 -72.5t79 -173.5 q-1 -79 -56 -149z" glyph-name="uni00B3" horiz-adv-x="743" unicode="³"/><glyph d="M250 1434h264l-229 -267h-183z" glyph-name="acute" horiz-adv-x="616" unicode="´"/><glyph d="M807 1024h205v-1024h-205v156q-123 -176 -328 -176q-80 0 -151 40v-430h-205v1434h207v-633q0 -102 51 -154.5t139 -52.5q121 0 204 85t83 214v541z" glyph-name="uni00B5" horiz-adv-x="1134" unicode="µ"/><glyph d="M563 1536h205v-1946h-205v1004q-195 0 -333 138t-138 333t138 333t333 138zM891 1536h205v-1946h-205v1946z" glyph-name="paragraph" horiz-adv-x="1187" unicode="¶"/><glyph d="M266 731l164 -166l-164 -162l-164 162z" glyph-name="periodcentered" horiz-adv-x="532" unicode="·"/><glyph d="M258 -104q63 -14 103 -58.5t40 -103.5q0 -74 -52 -122t-142 -48q-55 0 -105 26v107q23 -29 64 -29q31 0 51.5 17.5t20.5 44t-20.5 44t-51.5 17.5q-41 0 -64 -29v254h177z" glyph-name="cedilla" horiz-adv-x="503" unicode="¸"/><glyph d="M244 1536h186v-922h-184v664l-185 -188v264z" glyph-name="uni00B9" horiz-adv-x="552" unicode="¹"/><glyph d="M411.5 918q-137.5 0 -228.5 93t-91 226t91 226t228.5 93t228.5 -93t91 -226t-91 -226t-228.5 -93zM411.5 1081q65.5 0 110.5 45t45 111t-45 111t-110.5 45t-110.5 -45t-45 -111t45 -111t110.5 -45z" glyph-name="ordmasculine" horiz-adv-x="823" unicode="º"/><glyph d="M315 1024l369 -512l-369 -512h-254l373 512l-373 512h254zM700 1024l369 -512l-369 -512h-254l373 512l-373 512h254z" glyph-name="guillemotright" horiz-adv-x="1161" unicode="»"/><glyph d="M276 614v664l-184 -188v264l182 182h187v-922h-185zM1044 1536h230l-768 -1536h-230zM1552 449v-189h-92v-260h-188v260h-428l332 662h213l-240 -473h123v165h188v-165h92z" glyph-name="onequarter" horiz-adv-x="1644" unicode="¼"/><glyph d="M276 614v664l-184 -188v264l182 182h187v-922h-185zM1044 1536h230l-768 -1536h-230zM1513 418l-167 -234h235v-184h-596l373 518q45 63 45 113q0 119 -135 119q-133 0 -254 -187l2 238q88 133 264 133q133 0 220 -88t87 -215q0 -109 -74 -213z" glyph-name="onehalf" horiz-adv-x="1679" unicode="½"/><glyph d="M651 913q0 -131 -92 -221t-231 -90q-147 0 -236 115v207q106 -137 236 -138q68 0 103.5 38t35.5 99.5t-40 93.5t-105 32v163q29 0 51 21.5t22 56.5q0 31 -27.5 51.5t-82.5 20.5q-106 0 -193 -78v189q66 74 205 73q125 0 204 -72.5t79 -173.5q0 -80 -56 -149 q127 -88 127 -238zM1167 1536h230l-768 -1536h-230zM1675 449v-189h-92v-260h-188v260h-428l331 662h213l-239 -473h123v165h188v-165h92z" glyph-name="threequarters" horiz-adv-x="1767" unicode="¾"/><glyph d="M436 717l-164 166l164 161l164 -161zM436 623q160 0 253 -88.5t93 -212.5q0 -106 -57 -183.5t-172 -146.5q-20 -14 -69.5 -42t-73 -44.5t-55 -41t-45 -49t-13.5 -51.5q0 -96 162 -92q176 4 323 176v-247q-123 -133 -327 -133q-172 0 -267.5 81.5t-95.5 204.5 q0 117 66.5 191.5t218.5 177.5q20 14 63 40.5t59.5 39t39 33t31 41t8.5 45.5q0 49 -43 72.5t-107 23.5q-70 0 -160 -62.5t-149 -148.5v268q141 148 317 148z" glyph-name="questiondown" horiz-adv-x="874" unicode="¿"/><glyph d="M823 1679h-182l-229 267h264zM1241 0l-182 506h-598l-182 -506h-218l562 1536h274l561 -1536h-217zM535 711h450l-225 620z" glyph-name="Agrave" horiz-adv-x="1519" unicode="À"/><glyph d="M1090 1946l-230 -267h-182l147 267h265zM1241 0l-182 506h-598l-182 -506h-218l562 1536h274l561 -1536h-217zM535 711h450l-225 620z" glyph-name="Aacute" horiz-adv-x="1519" unicode="Á"/><glyph d="M756 1847l-90 -168h-236l211 267h229l211 -267h-235zM1241 0l-182 506h-598l-182 -506h-218l562 1536h274l561 -1536h-217zM535 711h450l-225 620z" glyph-name="Acircumflex" horiz-adv-x="1519" unicode="Â"/><glyph d="M473 1655q-53 51 -58 129t45 138t146 60q72 0 123 -32.5t71.5 -71.5t44 -71.5t46.5 -32.5q55 0 55 57q0 70 -72 121q-8 6 -16 10h182q51 -53 56.5 -130t-45 -137.5t-146.5 -60.5q-78 0 -130 33t-69.5 71t-38 70.5t-42.5 32.5q-53 0 -54 -55q0 -70 80 -125q4 -4 8 -6h-186 zM1241 0l-182 506h-598l-182 -506h-218l562 1536h274l561 -1536h-217zM535 711h450l-225 620z" glyph-name="Atilde" horiz-adv-x="1519" unicode="Ã"/><glyph d="M735 1819l-164 -162l-163 162l163 166zM1104 1819l-164 -162l-164 162l164 166zM1241 0l-182 506h-598l-182 -506h-218l562 1536h274l561 -1536h-217zM535 711h450l-225 620z" glyph-name="Adieresis" horiz-adv-x="1519" unicode="Ä"/><glyph d="M756 1645q-102 0 -173 71.5t-71 173.5q0 98 71.5 169t172 71t172 -70.5t71.5 -169.5q0 -102 -71.5 -173.5t-171.5 -71.5zM756 1987q-43 0 -71 -30t-28 -71t28 -69.5t71 -28.5t70.5 28.5t27.5 69.5t-27.5 71t-70.5 30zM1241 0l-182 506h-598l-182 -506h-218l562 1536h274 l561 -1536h-217zM535 711h450l-225 620z" glyph-name="Aring" horiz-adv-x="1519" unicode="Å"/><glyph d="M1894 1331h-766v-377h654v-204h-654v-545h764v-205h-968v506h-392l-243 -506h-228l740 1536h1093v-205zM631 711h293v608z" glyph-name="AE" horiz-adv-x="1986" unicode="Æ"/><glyph d="M881 1352q-246 0 -415 -168t-169 -416t169 -416t415 -168q279 0 532 262v-266q-188 -170 -446 -196l-15 -88q63 -14 103.5 -58.5t40.5 -103.5q0 -74 -52.5 -122t-142.5 -48q-55 0 -104 26v107q23 -29 63 -29q31 0 51.5 17.5t20.5 44t-20.5 44t-51.5 17.5q-41 0 -63 -29 v222q-305 31 -505 254t-200 530q0 330 226.5 559t562.5 229q311 0 532 -200v-264q-256 260 -532 260z" glyph-name="Ccedilla" horiz-adv-x="1505" unicode="Ç"/><glyph d="M688 1679h-182l-230 267h265zM1094 1331h-766v-377h653v-204h-653v-545h764v-205h-969v1536h971v-205z" glyph-name="Egrave" horiz-adv-x="1185" unicode="È"/><glyph d="M954 1946l-229 -267h-182l147 267h264zM1094 1331h-766v-377h653v-204h-653v-545h764v-205h-969v1536h971v-205z" glyph-name="Eacute" horiz-adv-x="1185" unicode="É"/><glyph d="M621 1847l-91 -168h-235l211 267h229l211 -267h-235zM1094 1331h-766v-377h653v-204h-653v-545h764v-205h-969v1536h971v-205z" glyph-name="Ecircumflex" horiz-adv-x="1185" unicode="Ê"/><glyph d="M600 1819l-164 -162l-164 162l164 166zM969 1819l-164 -162l-164 162l164 166zM1094 1331h-766v-377h653v-204h-653v-545h764v-205h-969v1536h971v-205z" glyph-name="Edieresis" horiz-adv-x="1185" unicode="Ë"/><glyph d="M145 1946l148 -267h-182l-230 267h264zM123 1536h205v-1536h-205v1536z" glyph-name="Igrave" horiz-adv-x="450" unicode="Ì"/><glyph d="M295 1946h264l-229 -267h-183zM123 1536h205v-1536h-205v1536z" glyph-name="Iacute" horiz-adv-x="450" unicode="Í"/><glyph d="M225 1847l-90 -168h-235l211 267h229l211 -267h-236zM123 0v1536h205v-1536h-205z" glyph-name="Icircumflex" horiz-adv-x="450" unicode="Î"/><glyph d="M41 1985l164 -166l-164 -162l-164 162zM410 1985l163 -166l-163 -162l-164 162zM123 1536h205v-1536h-205v1536z" glyph-name="Idieresis" horiz-adv-x="450" unicode="Ï"/><glyph d="M686 1536q313 0 543.5 -226.5t230.5 -541.5t-230.5 -541.5t-543.5 -226.5h-526v666h-99v204h99v666h526zM686 205q227 0 398 168t171 395t-171 395t-398 168h-321v-461h225v-204h-225v-461h321z" glyph-name="Eth" horiz-adv-x="1552" unicode="Ð"/><glyph d="M434 1655q-53 51 -58 129t45 138t146 60q72 0 123 -32.5t71.5 -71.5t44 -71.5t46.5 -32.5q55 0 55 57q0 70 -71 121q-8 6 -17 10h182q51 -53 56.5 -130t-44.5 -137.5t-147 -60.5q-78 0 -130 33t-69.5 71t-38 70.5t-42.5 32.5q-53 0 -54 -55q0 -70 80 -125q4 -4 9 -6h-187 zM1106 1536h205v-1536h-205l-778 1167v-1167h-205v1536h205l778 -1167v1167z" glyph-name="Ntilde" horiz-adv-x="1433" unicode="Ñ"/><glyph d="M801 1946l147 -267h-182l-229 267h264zM881 -20q-334 0 -561.5 229t-227.5 559t227.5 559t561.5 229q336 0 562 -229t226 -559t-226 -559t-562 -229zM881 184q244 0 413.5 170t169.5 414t-170 414t-413 170q-242 0 -413 -171t-171 -413t171 -413t413 -171z" glyph-name="Ograve" unicode="Ò"/><glyph d="M950 1946h264l-229 -267h-182zM881 -20q-334 0 -561.5 229t-227.5 559t227.5 559t561.5 229q336 0 562 -229t226 -559t-226 -559t-562 -229zM881 184q244 0 413.5 170t169.5 414t-170 414t-413 170q-242 0 -413 -171t-171 -413t171 -413t413 -171z" glyph-name="Oacute" unicode="Ó"/><glyph d="M881 1847l-90 -168h-236l211 267h229l211 -267h-235zM881 1556q336 0 562 -229t226 -559t-226 -559t-562 -229q-334 0 -561.5 229t-227.5 559t227.5 559t561.5 229zM881 184q244 0 413.5 170t169.5 414t-170 414t-413 170q-242 0 -413 -171t-171 -413t171 -413t413 -171z " glyph-name="Ocircumflex" unicode="Ô"/><glyph d="M731 1982q72 0 123 -32.5t71.5 -71.5t44 -71.5t46.5 -32.5q55 0 55 57q0 70 -72 121q-8 6 -16 10h182q51 -53 56.5 -130t-45 -137.5t-146.5 -60.5q-78 0 -130 33t-69.5 71t-38 70.5t-42.5 32.5q-53 0 -54 -55q0 -70 80 -125q4 -4 8 -6h-186q-53 51 -58 129t45 138t146 60 zM881 -20q-334 0 -561.5 229t-227.5 559t227.5 559t561.5 229q336 0 562 -229t226 -559t-226 -559t-562 -229zM881 184q244 0 413.5 170t169.5 414t-170 414t-413 170q-242 0 -413 -171t-171 -413t171 -413t413 -171z" glyph-name="Otilde" unicode="Õ"/><glyph d="M698 1985l164 -166l-164 -162l-163 162zM1067 1985l164 -166l-164 -162l-164 162zM881 -20q-334 0 -561.5 229t-227.5 559t227.5 559t561.5 229q336 0 562 -229t226 -559t-226 -559t-562 -229zM881 184q244 0 413.5 170t169.5 414t-170 414t-413 170q-242 0 -413 -171 t-171 -413t171 -413t413 -171z" glyph-name="Odieresis" unicode="Ö"/><glyph d="M874 905l-245 -243l241 -242l-143 -146l-242 242l-245 -244l-146 144l246 246l-248 247l146 146l247 -248l244 244z" glyph-name="multiply" horiz-adv-x="966" unicode="×"/><glyph d="M1434 1337q236 -229 235 -569q0 -330 -226 -559t-562 -229q-209 0 -385 96l-58 -76h-256l148 199q-238 231 -238 569q0 330 227.5 559t561.5 229q211 0 387 -96l57 76h256zM297 768q0 -233 160 -399l686 921q-123 61 -262 62q-242 0 -413 -171t-171 -413zM881 184 q244 0 413.5 170t169.5 414q0 231 -157 399l-686 -921q123 -62 260 -62z" glyph-name="Oslash" unicode="Ø"/><glyph d="M616 1946l148 -267h-182l-230 267h264zM696.5 -20q-247.5 0 -410.5 166.5t-163 406.5v983h205v-983q0 -154 106.5 -261.5t262 -107.5t262 107.5t106.5 261.5v983h205v-983q0 -240 -163 -406.5t-410.5 -166.5z" glyph-name="Ugrave" horiz-adv-x="1392" unicode="Ù"/><glyph d="M766 1946h264l-229 -267h-183zM696.5 -20q-247.5 0 -410.5 166.5t-163 406.5v983h205v-983q0 -154 106.5 -261.5t262 -107.5t262 107.5t106.5 261.5v983h205v-983q0 -240 -163 -406.5t-410.5 -166.5z" glyph-name="Uacute" horiz-adv-x="1392" unicode="Ú"/><glyph d="M696 1847l-90 -168h-235l211 267h229l211 -267h-236zM1065 1536h205v-983q0 -240 -163 -406.5t-410.5 -166.5t-410.5 166.5t-163 406.5v983h205v-983q0 -154 106.5 -261.5t262 -107.5t262 107.5t106.5 261.5v983z" glyph-name="Ucircumflex" horiz-adv-x="1392" unicode="Û"/><glyph d="M514 1985l164 -166l-164 -162l-164 162zM883 1985l164 -166l-164 -162l-164 162zM696.5 -20q-247.5 0 -410.5 166.5t-163 406.5v983h205v-983q0 -154 106.5 -261.5t262 -107.5t262 107.5t106.5 261.5v983h205v-983q0 -240 -163 -406.5t-410.5 -166.5z" glyph-name="Udieresis" horiz-adv-x="1392" unicode="Ü"/><glyph d="M1047 1946l-230 -267h-182l147 267h265zM1358 1536l-543 -944v-592h-205v586l-549 950h236l414 -739l411 739h236z" glyph-name="Yacute" horiz-adv-x="1419" unicode="Ý"/><glyph d="M682 1331q213 0 364.5 -150.5t151.5 -363.5q0 -215 -151.5 -365.5t-364.5 -150.5h-354v-301h-205v1536h205v-205h354zM682 506q131 0 221 91t90 220q0 127 -91 218t-220 91h-354v-620h354z" glyph-name="Thorn" horiz-adv-x="1269" unicode="Þ"/><glyph d="M807 932q115 -61 185.5 -180t70.5 -260q0 -203 -135 -347.5t-318 -144.5h-125v205h125q98 0 173 84t75 203q0 117 -75.5 201.5t-172.5 84.5h-125v205h25q70 0 128 55.5t58 128.5q0 80 -54 132.5t-132 52.5t-130 -52.5t-52 -132.5v-1167h-205v1167q0 166 111.5 277.5 t275.5 111.5t277.5 -111.5t113.5 -277.5q0 -126 -94 -235z" glyph-name="germandbls" horiz-adv-x="1155" unicode="ß"/><glyph d="M641 1167h-182l-230 267h265zM512 1044q186 0 313 -110.5t127 -280.5v-653h-204v84q-100 -104 -261 -104q-164 0 -279.5 107.5t-115.5 260.5q0 152 115 253t280 101q160 0 261 -104v55q0 92 -71 139.5t-194 47.5q-135 0 -252 -99v228q117 75 281 75zM518 172 q98 0 164 53.5t66 131t-66 131t-164 53.5q-96 0 -158.5 -52.5t-62.5 -132.5q0 -82 62.5 -133t158.5 -51z" glyph-name="agrave" horiz-adv-x="1054" unicode="à"/><glyph d="M907 1434l-229 -267h-182l147 267h264zM512 1044q186 0 313 -110.5t127 -280.5v-653h-204v84q-100 -104 -261 -104q-164 0 -279.5 107.5t-115.5 260.5q0 152 115 253t280 101q160 0 261 -104v55q0 92 -71 139.5t-194 47.5q-135 0 -252 -99v228q117 75 281 75zM518 172 q98 0 164 53.5t66 131t-66 131t-164 53.5q-96 0 -158.5 -52.5t-62.5 -132.5q0 -82 62.5 -133t158.5 -51z" glyph-name="aacute" horiz-adv-x="1054" unicode="á"/><glyph d="M573 1335l-90 -168h-235l211 267h229l211 -267h-235zM512 1044q186 0 313 -110.5t127 -280.5v-653h-204v84q-100 -104 -261 -104q-164 0 -279.5 107.5t-115.5 260.5q0 152 115 253t280 101q160 0 261 -104v55q0 92 -71 139.5t-194 47.5q-135 0 -252 -99v228 q117 75 281 75zM518 172q98 0 164 53.5t66 131t-66 131t-164 53.5q-96 0 -158.5 -52.5t-62.5 -132.5q0 -82 62.5 -133t158.5 -51z" glyph-name="acircumflex" horiz-adv-x="1054" unicode="â"/><glyph d="M291 1143q-53 51 -58.5 129t45 138t146.5 60q72 0 123 -32.5t71.5 -71.5t44 -71.5t46.5 -32.5q55 0 55 57q0 70 -72 121q-8 6 -16 10h182q51 -53 56.5 -130t-45 -137.5t-146.5 -60.5q-78 0 -130 33t-69.5 71t-38 70.5t-43.5 32.5q-53 0 -53 -55q0 -70 80 -125q4 -4 8 -6 h-186zM512 1044q186 0 313 -110.5t127 -280.5v-653h-204v84q-100 -104 -261 -104q-164 0 -279.5 107.5t-115.5 260.5q0 152 115 253t280 101q160 0 261 -104v55q0 92 -71 139.5t-194 47.5q-135 0 -252 -99v228q117 75 281 75zM518 172q98 0 164 53.5t66 131t-66 131 t-164 53.5q-96 0 -158.5 -52.5t-62.5 -132.5q0 -82 62.5 -133t158.5 -51z" glyph-name="atilde" horiz-adv-x="1054" unicode="ã"/><glyph d="M553 1307l-164 -162l-164 162l164 166zM922 1307l-164 -162l-164 162l164 166zM512 1044q186 0 313 -110.5t127 -280.5v-653h-204v84q-100 -104 -261 -104q-164 0 -279.5 107.5t-115.5 260.5q0 152 115 253t280 101q160 0 261 -104v55q0 92 -71 139.5t-194 47.5 q-135 0 -252 -99v228q117 75 281 75zM518 172q98 0 164 53.5t66 131t-66 131t-164 53.5q-96 0 -158.5 -52.5t-62.5 -132.5q0 -82 62.5 -133t158.5 -51z" glyph-name="adieresis" horiz-adv-x="1054" unicode="ä"/><glyph d="M573 1133q-102 0 -172.5 71.5t-70.5 173.5q0 98 71.5 169t172 71t172 -70.5t71.5 -169.5q0 -102 -72 -173.5t-172 -71.5zM573 1475q-43 0 -70.5 -30t-27.5 -71t27.5 -69.5t70.5 -28.5t71 28.5t28 69.5t-28 71t-71 30zM512 1044q186 0 313 -110.5t127 -280.5v-653h-204v84 q-100 -104 -261 -104q-164 0 -279.5 107.5t-115.5 260.5q0 152 115 253t280 101q160 0 261 -104v55q0 92 -71 139.5t-194 47.5q-135 0 -252 -99v228q117 75 281 75zM518 172q98 0 164 53.5t66 131t-66 131t-164 53.5q-96 0 -158.5 -52.5t-62.5 -132.5q0 -82 62.5 -133 t158.5 -51z" glyph-name="aring" horiz-adv-x="1054" unicode="å"/><glyph d="M1020 426q25 -113 114 -178.5t222 -65.5q193 0 305 109v-232q-121 -80 -309 -79q-150 0 -272 65.5t-193 179.5q-35 -111 -130 -178t-233 -67q-184 0 -307 106.5t-125 261.5q2 154 122 254t298 100q131 0 236 -63v14q0 92 -70 139.5t-193 47.5q-135 0 -252 -99v228 q117 76 281 75q131 0 236.5 -58t158.5 -157q162 215 443 215q184 0 289.5 -104t105.5 -258q0 -156 -120 -247t-312 -91q-166 0 -295 82zM1346 840q-104 0 -190.5 -55.5t-123.5 -149.5q106 -86 277 -86q233 0 233 127q1 164 -196 164zM520 172q98 0 164 53.5t66 131t-66 131 t-164 53.5q-96 0 -158.5 -52.5t-62.5 -132.5q0 -82 62.5 -133t158.5 -51z" glyph-name="ae" horiz-adv-x="1839" unicode="æ"/><glyph d="M625 840q-139 0 -233.5 -95.5t-94.5 -232.5t94 -232.5t234 -95.5q147 0 286 123v-244q-92 -61 -198 -75l-17 -92q63 -14 103.5 -58.5t40.5 -103.5q0 -74 -52.5 -122t-142.5 -48q-55 0 -104 26v107q20 -29 63 -29q31 0 51.5 17.5t20.5 44t-20.5 44t-51.5 17.5 q-43 0 -63 -29v224q-197 29 -323 177t-126 349q0 223 151.5 377.5t381.5 154.5q152 0 286 -81v-242q-134 119 -286 119z" glyph-name="ccedilla" horiz-adv-x="1003" unicode="ç"/><glyph d="M707 1167h-183l-229 267h264zM307 426q25 -113 114 -178.5t222 -65.5q193 0 305 109v-232q-119 -80 -309 -79q-233 0 -389 151.5t-158 380.5q2 223 159 377.5t388 154.5q184 0 289.5 -104t105.5 -258q0 -156 -119.5 -247t-312.5 -91q-166 0 -295 82zM633 840 q-104 0 -190.5 -55.5t-123.5 -149.5q106 -86 277 -86q233 0 233 127q1 164 -196 164z" glyph-name="egrave" horiz-adv-x="1126" unicode="è"/><glyph d="M973 1434l-230 -267h-182l148 267h264zM307 426q25 -113 114 -178.5t222 -65.5q193 0 305 109v-232q-119 -80 -309 -79q-233 0 -389 151.5t-158 380.5q2 223 159 377.5t388 154.5q184 0 289.5 -104t105.5 -258q0 -156 -119.5 -247t-312.5 -91q-166 0 -295 82zM633 840 q-104 0 -190.5 -55.5t-123.5 -149.5q106 -86 277 -86q233 0 233 127q1 164 -196 164z" glyph-name="eacute" horiz-adv-x="1126" unicode="é"/><glyph d="M639 1335l-90 -168h-236l211 267h230l211 -267h-236zM307 426q25 -113 114 -178.5t222 -65.5q193 0 305 109v-232q-119 -80 -309 -79q-233 0 -389 151.5t-158 380.5q2 223 159 377.5t388 154.5q184 0 289.5 -104t105.5 -258q0 -156 -119.5 -247t-312.5 -91 q-166 0 -295 82zM633 840q-104 0 -190.5 -55.5t-123.5 -149.5q106 -86 277 -86q233 0 233 127q1 164 -196 164z" glyph-name="ecircumflex" horiz-adv-x="1126" unicode="ê"/><glyph d="M618 1307l-163 -162l-164 162l164 166zM987 1307l-164 -162l-164 162l164 166zM307 426q25 -113 114 -178.5t222 -65.5q193 0 305 109v-232q-119 -80 -309 -79q-233 0 -389 151.5t-158 380.5q2 223 159 377.5t388 154.5q184 0 289.5 -104t105.5 -258q0 -156 -119.5 -247 t-312.5 -91q-166 0 -295 82zM633 840q-104 0 -190.5 -55.5t-123.5 -149.5q106 -86 277 -86q233 0 233 127q1 164 -196 164z" glyph-name="edieresis" horiz-adv-x="1126" unicode="ë"/><glyph d="M141 1434l148 -267h-183l-229 267h264zM119 1024h205v-1024h-205v1024z" glyph-name="igrave" horiz-adv-x="440" unicode="ì"/><glyph d="M291 1434h264l-229 -267h-183zM119 1024h205v-1024h-205v1024z" glyph-name="iacute" horiz-adv-x="440" unicode="í"/><glyph d="M221 1335l-90 -168h-235l210 267h230l211 -267h-236zM119 0v1024h205v-1024h-205z" glyph-name="icircumflex" horiz-adv-x="440" unicode="î"/><glyph d="M37 1473l164 -166l-164 -162l-164 162zM406 1473l163 -166l-163 -162l-164 162zM119 1024h205v-1024h-205v1024z" glyph-name="idieresis" horiz-adv-x="440" unicode="ï"/><glyph d="M1376 1311v-205h-219v-594q0 -223 -151.5 -377.5t-381 -154.5t-381 154.5t-151.5 377.5t151.5 377.5t381.5 154.5q188 0 327 -106v168h-217v205h217v225h205v-225h219zM624.5 184q139.5 0 233.5 95.5t94 232.5t-94 232.5t-233.5 95.5t-233.5 -95.5t-94 -232.5t94 -232.5 t233.5 -95.5z" glyph-name="eth" horiz-adv-x="1437" unicode="ð"/><glyph d="M340 1143q-53 51 -58.5 129t45 138t146.5 60q72 0 123 -32.5t71.5 -71.5t44 -71.5t46.5 -32.5q55 0 55 57q0 70 -72 121q-8 6 -16 10h182q51 -53 56.5 -130t-45 -137.5t-146.5 -60.5q-78 0 -130 33t-69.5 71t-38 70.5t-42.5 32.5q-53 0 -54 -55q0 -70 80 -125q4 -4 8 -6 h-186zM655 1044q139 0 247 -113.5t110 -273.5v-657h-205v633q0 102 -52.5 154.5t-140.5 52.5q-121 0 -203.5 -85t-82.5 -214v-541h-205v1024h205v-156q122 176 327 176z" glyph-name="ntilde" horiz-adv-x="1114" unicode="ñ"/><glyph d="M545 1434l147 -267h-182l-229 267h264zM624.5 -20q-229.5 0 -381 154.5t-151.5 377.5t151.5 377.5t381.5 154.5q231 0 381.5 -154.5t150.5 -377.5t-151.5 -377.5t-381 -154.5zM624.5 184q139.5 0 233.5 95.5t94 232.5t-94 232.5t-233.5 95.5t-233.5 -95.5t-94 -232.5 t94 -232.5t233.5 -95.5z" glyph-name="ograve" horiz-adv-x="1249" unicode="ò"/><glyph d="M694 1434h264l-229 -267h-182zM624.5 -20q-229.5 0 -381 154.5t-151.5 377.5t151.5 377.5t381.5 154.5q231 0 381.5 -154.5t150.5 -377.5t-151.5 -377.5t-381 -154.5zM624.5 184q139.5 0 233.5 95.5t94 232.5t-94 232.5t-233.5 95.5t-233.5 -95.5t-94 -232.5t94 -232.5 t233.5 -95.5z" glyph-name="oacute" horiz-adv-x="1249" unicode="ó"/><glyph d="M625 1335l-90 -168h-236l211 267h229l211 -267h-235zM625 1044q231 0 381.5 -154.5t150.5 -377.5t-151.5 -377.5t-381 -154.5t-381 154.5t-151.5 377.5t152 377.5t381 154.5zM624.5 184q139.5 0 233.5 95.5t94 232.5t-94 232.5t-233.5 95.5t-233.5 -95.5t-94 -232.5 t94 -232.5t233.5 -95.5z" glyph-name="ocircumflex" horiz-adv-x="1249" unicode="ô"/><glyph d="M475 1470q72 0 123 -32.5t71.5 -71.5t44 -71.5t46.5 -32.5q55 0 55 57q0 70 -72 121q-8 6 -16 10h182q51 -53 56.5 -130t-45 -137.5t-146.5 -60.5q-78 0 -130 33t-69.5 71t-38 70.5t-42.5 32.5q-53 0 -54 -55q0 -70 80 -125q4 -4 8 -6h-186q-53 51 -58 129t45 138t146 60 zM624.5 -20q-229.5 0 -381 154.5t-151.5 377.5t151.5 377.5t381.5 154.5q231 0 381.5 -154.5t150.5 -377.5t-151.5 -377.5t-381 -154.5zM624.5 184q139.5 0 233.5 95.5t94 232.5t-94 232.5t-233.5 95.5t-233.5 -95.5t-94 -232.5t94 -232.5t233.5 -95.5z" glyph-name="otilde" horiz-adv-x="1249" unicode="õ"/><glyph d="M442 1473l164 -166l-164 -162l-163 162zM811 1473l164 -166l-164 -162l-164 162zM624.5 -20q-229.5 0 -381 154.5t-151.5 377.5t151.5 377.5t381.5 154.5q231 0 381.5 -154.5t150.5 -377.5t-151.5 -377.5t-381 -154.5zM624.5 184q139.5 0 233.5 95.5t94 232.5t-94 232.5 t-233.5 95.5t-233.5 -95.5t-94 -232.5t94 -232.5t233.5 -95.5z" glyph-name="odieresis" horiz-adv-x="1249" unicode="ö"/><glyph d="M541 739l-164 166l164 162l164 -162zM92 532v205h897v-205h-897zM541 530l164 -165l-164 -162l-164 162z" glyph-name="divide" horiz-adv-x="1081" unicode="÷"/><glyph d="M1030 864q127 -150 127 -352q0 -223 -151.5 -377.5t-380.5 -154.5q-127 0 -242 55l-27 -35h-260l125 160q-129 147 -129 352q0 223 151.5 377.5t381.5 154.5q129 0 243 -55l27 35h260zM297 512q0 -100 55 -184l385 493q-51 18 -112 19q-139 0 -233.5 -95.5t-94.5 -232.5z M625 184q139 0 233 95.5t94 232.5q0 100 -55 182l-383 -491q52 -19 111 -19z" glyph-name="oslash" horiz-adv-x="1249" unicode="ø"/><glyph d="M629 1167h-183l-229 267h264zM807 1024h205v-1024h-205v156q-123 -176 -328 -176q-139 0 -246.5 113.5t-109.5 273.5v657h207v-633q0 -102 51 -154.5t139 -52.5q121 0 204 85t83 214v541z" glyph-name="ugrave" horiz-adv-x="1134" unicode="ù"/><glyph d="M895 1434l-229 -267h-183l148 267h264zM807 1024h205v-1024h-205v156q-123 -176 -328 -176q-139 0 -246.5 113.5t-109.5 273.5v657h207v-633q0 -102 51 -154.5t139 -52.5q121 0 204 85t83 214v541z" glyph-name="uacute" horiz-adv-x="1134" unicode="ú"/><glyph d="M561 1335l-90 -168h-235l210 267h230l211 -267h-236zM807 1024h205v-1024h-205v156q-123 -176 -328 -176q-139 0 -246.5 113.5t-109.5 273.5v657h207v-633q0 -102 51 -154.5t139 -52.5q121 0 204 85t83 214v541z" glyph-name="ucircumflex" horiz-adv-x="1134" unicode="û"/><glyph d="M543 1307l-164 -162l-164 162l164 166zM911 1307l-163 -162l-164 162l164 166zM807 1024h205v-1024h-205v156q-123 -176 -328 -176q-139 0 -246.5 113.5t-109.5 273.5v657h207v-633q0 -102 51 -154.5t139 -52.5q121 0 204 85t83 214v541z" glyph-name="udieresis" horiz-adv-x="1134" unicode="ü"/><glyph d="M989 1434l-229 -267h-182l147 267h264zM1022 1024h227l-475 -1024l-182 -410h-223l180 410l-488 1024h228l370 -819h3z" glyph-name="yacute" horiz-adv-x="1310" unicode="ý"/><glyph d="M659 1044q217 0 372 -153.5t155 -378.5t-154.5 -378.5t-372.5 -153.5q-215 0 -331 157v-547h-205v1946h205v-647q118 155 331 155zM655.5 184q135.5 0 231.5 96.5t96 231.5t-96 231.5t-231.5 96.5t-231.5 -96.5t-96 -231.5t96 -231.5t231.5 -96.5z" glyph-name="thorn" horiz-adv-x="1277" unicode="þ"/><glyph d="M635 1307l-164 -162l-164 162l164 166zM1004 1307l-164 -162l-164 162l164 166zM1022 1024h227l-475 -1024l-182 -410h-223l180 410l-488 1024h228l370 -819h3z" glyph-name="ydieresis" horiz-adv-x="1310" unicode="ÿ"/><glyph d="M1012 1892v-174h-514v174h514zM1241 0l-182 506h-598l-182 -506h-218l562 1536h274l561 -1536h-217zM535 711h450l-225 620z" glyph-name="Amacron" horiz-adv-x="1519" unicode="Ā"/><glyph d="M829 1380v-174h-514v174h514zM512 1044q186 0 313 -110.5t127 -280.5v-653h-204v84q-100 -104 -261 -104q-164 0 -279.5 107.5t-115.5 260.5q0 152 115 253t280 101q160 0 261 -104v55q0 92 -71 139.5t-194 47.5q-135 0 -252 -99v228q117 75 281 75zM518 172 q98 0 164 53.5t66 131t-66 131t-164 53.5q-96 0 -158.5 -52.5t-62.5 -132.5q0 -82 62.5 -133t158.5 -51z" glyph-name="amacron" horiz-adv-x="1054" unicode="ā"/><glyph d="M757.5 1655q-116.5 0 -188 84t-67.5 207h157q0 -53 28 -91t71 -38t71.5 36.5t28.5 92.5h158q4 -123 -69 -207t-189.5 -84zM1241 0l-182 506h-598l-182 -506h-218l562 1536h274l561 -1536h-217zM535 711h450l-225 620z" glyph-name="Abreve" horiz-adv-x="1519" unicode="Ă"/><glyph d="M575.5 1143q-116.5 0 -188.5 84t-68 207h158q0 -53 27.5 -91t70.5 -38t72 36.5t29 92.5h158q4 -123 -69 -207t-189.5 -84zM512 1044q186 0 313 -110.5t127 -280.5v-653h-204v84q-100 -104 -261 -104q-164 0 -279.5 107.5t-115.5 260.5q0 152 115 253t280 101 q160 0 261 -104v55q0 92 -71 139.5t-194 47.5q-135 0 -252 -99v228q117 75 281 75zM518 172q98 0 164 53.5t66 131t-66 131t-164 53.5q-96 0 -158.5 -52.5t-62.5 -132.5q0 -82 62.5 -133t158.5 -51z" glyph-name="abreve" horiz-adv-x="1054" unicode="ă"/><glyph d="M1444 -195l20 -206q-66 -27 -139 -27q-106 0 -168.5 69.5t-62.5 153.5q0 152 133 246l-168 465h-598l-182 -506h-218l562 1536h274l561 -1536q-172 -92 -172 -160q0 -61 60 -61q61 -1 98 26zM535 711h450l-225 620z" glyph-name="Aogonek" horiz-adv-x="1519" unicode="Ą"/><glyph d="M938 -195l20 -206q-66 -27 -139 -27q-106 0 -168.5 69.5t-62.5 153.5q0 86 35.5 146.5t124.5 117.5v25q-100 -104 -261 -104q-164 0 -279.5 107.5t-115.5 260.5q0 152 115 253t280 101q160 0 261 -104v55q0 92 -71 139.5t-194 47.5q-135 0 -252 -99v228q117 76 281 75 q186 0 313 -110.5t127 -280.5v-653q-172 -92 -172 -160q0 -61 60 -61q61 -1 98 26zM518 172q98 0 164 53.5t66 131t-66 131t-164 53.5q-96 0 -158.5 -52.5t-62.5 -132.5q0 -82 62.5 -133t158.5 -51z" glyph-name="aogonek" horiz-adv-x="1054" unicode="ą"/><glyph d="M950 1946h264l-229 -267h-182zM881 -20q-336 0 -562.5 229t-226.5 559t226.5 559t562.5 229q311 0 532 -200v-264q-256 260 -532 260q-246 0 -415 -168t-169 -416t169 -416t415 -168q279 0 532 262v-266q-221 -200 -532 -200z" glyph-name="Cacute" horiz-adv-x="1505" unicode="Ć"/><glyph d="M694 1434h264l-229 -267h-182zM625 -20q-229 0 -381 154.5t-152 377.5t151.5 377.5t381.5 154.5q152 0 286 -81v-242q-135 119 -286 119q-139 0 -233.5 -95.5t-94.5 -232.5t94 -232.5t234 -95.5q147 0 286 123v-244q-132 -83 -286 -83z" glyph-name="cacute" horiz-adv-x="1003" unicode="ć"/><glyph d="M881 2005l163 -166l-163 -162l-164 162zM881 -20q-336 0 -562.5 229t-226.5 559t226.5 559t562.5 229q311 0 532 -200v-264q-256 260 -532 260q-246 0 -415 -168t-169 -416t169 -416t415 -168q279 0 532 262v-266q-221 -200 -532 -200z" glyph-name="Cdotaccent" horiz-adv-x="1505" unicode="Ċ"/><glyph d="M625 1493l163 -166l-163 -162l-164 162zM625 -20q-229 0 -381 154.5t-152 377.5t151.5 377.5t381.5 154.5q152 0 286 -81v-242q-135 119 -286 119q-139 0 -233.5 -95.5t-94.5 -232.5t94 -232.5t234 -95.5q147 0 286 123v-244q-132 -83 -286 -83z" glyph-name="cdotaccent" horiz-adv-x="1003" unicode="ċ"/><glyph d="M766 1679l-211 267h236l90 -168l90 168h235l-211 -267h-229zM881 1352q-246 0 -415 -168t-169 -416t169 -416t415 -168q279 0 532 262v-266q-221 -201 -532 -200q-336 0 -562.5 229t-226.5 559t226.5 559t562.5 229q311 0 532 -200v-264q-256 260 -532 260z" glyph-name="Ccaron" horiz-adv-x="1505" unicode="Č"/><glyph d="M510 1167l-211 267h236l90 -168l90 168h235l-211 -267h-229zM92 512q0 223 151.5 377.5t381.5 154.5q152 0 286 -81v-242q-135 119 -286 119q-139 0 -233.5 -95.5t-94.5 -232.5t94 -232.5t234 -95.5q147 0 286 123v-244q-133 -84 -286 -83q-229 0 -381 154.5t-152 377.5z " glyph-name="ccaron" horiz-adv-x="1003" unicode="č"/><glyph d="M541 1679l-211 267h235l90 -168l90 168h236l-211 -267h-229zM649 1536q313 0 543.5 -226.5t230.5 -541.5t-230 -541.5t-544 -226.5h-526v1536h526zM649 205q227 0 398.5 168t171.5 395t-171 395t-399 168h-321v-1126h321z" glyph-name="Dcaron" horiz-adv-x="1515" unicode="Ď"/><glyph d="M950 889v647h205v-1536h-205v137q-117 -158 -332 -157q-217 0 -371.5 153.5t-154.5 378.5t154.5 378.5t371.5 153.5q213 1 332 -155zM1217 1536h217l-27 -492h-162zM622.5 184q135.5 0 231.5 96.5t96 231.5t-96 231.5t-231.5 96.5t-231.5 -96.5t-96 -231.5t96 -231.5 t231.5 -96.5z" glyph-name="dcaron" horiz-adv-x="1433" unicode="ď"/><glyph d="M686 1536q313 0 543.5 -226.5t230.5 -541.5t-230.5 -541.5t-543.5 -226.5h-526v666h-99v204h99v666h526zM686 205q227 0 398 168t171 395t-171 395t-398 168h-321v-461h225v-204h-225v-461h321z" glyph-name="Dcroat" horiz-adv-x="1552" unicode="Đ"/><glyph d="M1376 1311v-205h-221v-1106h-205v137q-117 -158 -332 -157q-217 0 -371.5 153.5t-154.5 378.5t154.5 378.5t371.5 153.5q213 0 332 -155v217h-215v205h215v225h205v-225h221zM622.5 184q135.5 0 231.5 96.5t96 231.5t-96 231.5t-231.5 96.5t-231.5 -96.5t-96 -231.5 t96 -231.5t231.5 -96.5z" glyph-name="dcroat" horiz-adv-x="1437" unicode="đ"/><glyph d="M877 1892v-174h-515v174h515zM1094 1331h-766v-377h653v-204h-653v-545h764v-205h-969v1536h971v-205z" glyph-name="Emacron" horiz-adv-x="1185" unicode="Ē"/><glyph d="M895 1380v-174h-514v174h514zM307 426q25 -113 114 -178.5t222 -65.5q193 0 305 109v-232q-119 -80 -309 -79q-233 0 -389 151.5t-158 380.5q2 223 159 377.5t388 154.5q184 0 289.5 -104t105.5 -258q0 -156 -119.5 -247t-312.5 -91q-166 0 -295 82zM633 840 q-104 0 -190.5 -55.5t-123.5 -149.5q106 -86 277 -86q233 0 233 127q1 164 -196 164z" glyph-name="emacron" horiz-adv-x="1126" unicode="ē"/><glyph d="M784 1839l-163 -162l-164 162l164 166zM1094 1331h-766v-377h653v-204h-653v-545h764v-205h-969v1536h971v-205z" glyph-name="Edotaccent" horiz-adv-x="1185" unicode="Ė"/><glyph d="M803 1327l-164 -162l-164 162l164 166zM307 426q25 -113 114 -178.5t222 -65.5q193 0 305 109v-232q-119 -80 -309 -79q-233 0 -389 151.5t-158 380.5q2 223 159 377.5t388 154.5q184 0 289.5 -104t105.5 -258q0 -156 -119.5 -247t-312.5 -91q-166 0 -295 82zM633 840 q-104 0 -190.5 -55.5t-123.5 -149.5q106 -86 277 -86q233 0 233 127q1 164 -196 164z" glyph-name="edotaccent" horiz-adv-x="1126" unicode="ė"/><glyph d="M1077 -195l21 -206q-66 -27 -140 -27q-106 0 -168.5 69.5t-62.5 153.5q0 125 82 205h-686v1536h971v-205h-766v-377h653v-204h-653v-545h764v-205q-172 -92 -172 -160q0 -61 59 -61q61 -1 98 26z" glyph-name="Eogonek" horiz-adv-x="1185" unicode="Ę"/><glyph d="M307 426q25 -113 114 -178.5t222 -65.5q193 0 305 109v-232q-82 -53 -174 -69q-137 -80 -137 -140q0 -61 59 -61q61 0 99 27l20 -207q-66 -27 -139 -27q-106 0 -169 69.5t-63 153.5q0 115 66 189q-184 41 -300 182t-118 336q2 223 159 377.5t388 154.5q184 0 289.5 -104 t105.5 -258q0 -156 -119.5 -247t-312.5 -91q-166 0 -295 82zM633 840q-104 0 -190.5 -55.5t-123.5 -149.5q106 -86 277 -86q233 0 233 127q1 164 -196 164z" glyph-name="eogonek" horiz-adv-x="1126" unicode="ę"/><glyph d="M506 1679l-211 267h235l91 -168l90 168h235l-211 -267h-229zM1094 1331h-766v-377h653v-204h-653v-545h764v-205h-969v1536h971v-205z" glyph-name="Ecaron" horiz-adv-x="1185" unicode="Ě"/><glyph d="M524 1167l-211 267h236l90 -168l90 168h236l-211 -267h-230zM307 426q25 -113 114 -178.5t222 -65.5q193 0 305 109v-232q-119 -80 -309 -79q-233 0 -389 151.5t-158 380.5q2 223 159 377.5t388 154.5q184 0 289.5 -104t105.5 -258q0 -156 -119.5 -247t-312.5 -91 q-166 0 -295 82zM633 840q-104 0 -190.5 -55.5t-123.5 -149.5q106 -86 277 -86q233 0 233 127q1 164 -196 164z" glyph-name="ecaron" horiz-adv-x="1126" unicode="ě"/><glyph d="M887 1655q-117 0 -188.5 84t-67.5 207h157q0 -53 28 -91t71 -38t71.5 36.5t28.5 92.5h158q4 -123 -68.5 -207t-189.5 -84zM881 1352q-246 0 -415 -168t-169 -416t169 -416t415 -168q172 0 327 95v348h-315v204h520v-651q-221 -201 -532 -200q-336 0 -562.5 229 t-226.5 559t226.5 559t562.5 229q311 0 532 -200v-264q-256 260 -532 260z" glyph-name="Gbreve" horiz-adv-x="1525" unicode="Ğ"/><glyph d="M635 1143q-117 0 -188.5 84t-67.5 207h158q0 -53 27.5 -91t70.5 -38t71.5 36.5t28.5 92.5h158q4 -123 -68.5 -207t-189.5 -84zM950 1024h205v-989q0 -213 -140.5 -339t-355.5 -126q-188 0 -313 102v248q37 -53 123 -99t184 -46q135 0 216 65.5t81 194.5v102 q-117 -158 -332 -157q-217 0 -371.5 153.5t-154.5 378.5t154.5 378.5t371.5 153.5q213 0 332 -155v135zM622.5 184q135.5 0 231.5 96.5t96 231.5t-96 231.5t-231.5 96.5t-231.5 -96.5t-96 -231.5t96 -231.5t231.5 -96.5z" glyph-name="gbreve" horiz-adv-x="1277" unicode="ğ"/><glyph d="M1049 1839l-164 -162l-164 162l164 166zM881 1352q-246 0 -415 -168t-169 -416t169 -416t415 -168q172 0 327 95v348h-315v204h520v-651q-221 -201 -532 -200q-336 0 -562.5 229t-226.5 559t226.5 559t562.5 229q311 0 532 -200v-264q-256 260 -532 260z" glyph-name="Gdotaccent" horiz-adv-x="1525" unicode="Ġ"/><glyph d="M797 1327l-164 -162l-164 162l164 166zM950 1024h205v-989q0 -213 -140.5 -339t-355.5 -126q-188 0 -313 102v248q37 -53 123 -99t184 -46q135 0 216 65.5t81 194.5v102q-117 -158 -332 -157q-217 0 -371.5 153.5t-154.5 378.5t154.5 378.5t371.5 153.5q213 0 332 -155 v135zM622.5 184q135.5 0 231.5 96.5t96 231.5t-96 231.5t-231.5 96.5t-231.5 -96.5t-96 -231.5t96 -231.5t231.5 -96.5z" glyph-name="gdotaccent" horiz-adv-x="1277" unicode="ġ"/><glyph d="M881 1352q-246 0 -415 -168t-169 -416t169 -416t415 -168q172 0 327 95v348h-315v204h520v-651q-221 -201 -532 -200q-336 0 -562.5 229t-226.5 559t226.5 559t562.5 229q311 0 532 -200v-264q-256 260 -532 260zM604 -571l180 458l197 -92l-231 -434z" glyph-name="Gcommaaccent" horiz-adv-x="1525" unicode="Ģ"/><glyph d="M836 1624l-181 -459l-196 92l231 435zM950 1024h205v-989q0 -213 -140.5 -339t-355.5 -126q-188 0 -313 102v248q37 -53 123 -99t184 -46q135 0 216 65.5t81 194.5v102q-117 -158 -332 -157q-217 0 -371.5 153.5t-154.5 378.5t154.5 378.5t371.5 153.5q213 0 332 -155 v135zM622.5 184q135.5 0 231.5 96.5t96 231.5t-96 231.5t-231.5 96.5t-231.5 -96.5t-96 -231.5t96 -231.5t231.5 -96.5z" glyph-name="gcommaaccent" horiz-adv-x="1277" unicode="ģ"/><glyph d="M1475 1434v-205h-103v-1229h-205v666h-778v-666h-205v1229h-102v205h102v102h205v-102h778v102h205v-102h103zM1167 870v359h-778v-359h778z" glyph-name="Hbar" horiz-adv-x="1556" unicode="Ħ"/><glyph d="M805 1044q139 0 247.5 -114.5t108.5 -272.5v-657h-205v633q0 102 -52 154.5t-140 52.5q-121 0 -204 -85t-83 -214v-541h-205v1106h-211v205h211v225h205v-225h225v-205h-225v-238q123 176 328 176z" glyph-name="hbar" horiz-adv-x="1263" unicode="ħ"/><glyph d="M76 1982q72 0 123 -32.5t71.5 -71.5t44 -71.5t45.5 -32.5q55 0 56 57q0 70 -72 121q-8 6 -16 10h182q51 -53 56 -130t-45 -137.5t-146 -60.5q-78 0 -130 33t-69.5 71t-38 70.5t-43.5 32.5q-53 0 -53 -55q0 -70 80 -125q4 -4 8 -6h-186q-53 51 -58.5 129t45 138t146.5 60z M123 1536h205v-1536h-205v1536z" glyph-name="Itilde" horiz-adv-x="450" unicode="Ĩ"/><glyph d="M72 1470q72 0 123 -32.5t71.5 -71.5t44 -71.5t45.5 -32.5q55 0 56 57q0 70 -72 121q-8 6 -16 10h182q51 -53 56 -130t-45 -137.5t-146 -60.5q-78 0 -130.5 33t-69.5 71t-37.5 70.5t-43.5 32.5q-53 0 -53 -55q0 -70 80 -125q4 -4 8 -6h-186q-53 51 -58.5 129t45 138 t146.5 60zM119 1024h205v-1024h-205v1024z" glyph-name="itilde" horiz-adv-x="440" unicode="ĩ"/><glyph d="M-33 1718v174h514v-174h-514zM123 1536h205v-1536h-205v1536z" glyph-name="Imacron" horiz-adv-x="450" unicode="Ī"/><glyph d="M-37 1206v174h514v-174h-514zM119 1024h205v-1024h-205v1024z" glyph-name="imacron" horiz-adv-x="440" unicode="ī"/><glyph d="M313 -195l21 -206q-66 -27 -139 -27q-106 0 -169 69.5t-63 153.5q0 86 36 146.5t124 117.5v1477h205v-1536q-172 -92 -172 -160q0 -61 59 -61q61 -1 98 26z" glyph-name="Iogonek" horiz-adv-x="450" unicode="Į"/><glyph d="M385 1327l-164 -162l-164 162l164 166zM211 -221q61 0 98 26l21 -206q-66 -27 -140 -27q-106 0 -168.5 69.5t-62.5 153.5q0 86 36 146.5t124 117.5v965h205v-1024q-172 -92 -172 -160q0 -61 59 -61z" glyph-name="iogonek" horiz-adv-x="440" unicode="į"/><glyph d="M225 2005l164 -166l-164 -162l-164 162zM123 1536h205v-1536h-205v1536z" glyph-name="Idotaccent" horiz-adv-x="450" unicode="İ"/><glyph d="M119 1024h205v-1024h-205v1024z" glyph-name="dotlessi" horiz-adv-x="440" unicode="ı"/><glyph d="M1276 1536q-395 -395 -596 -676l596 -860h-246l-473 670q-207 -346 -229 -670h-205v1536h205v-856q190 365 659 856h289zM303 -571l180 458l197 -92l-231 -434z" glyph-name="Kcommaaccent" horiz-adv-x="1347" unicode="Ķ"/><glyph d="M987 1024q-250 -219 -379 -377l379 -647h-242l-264 469q-145 -236 -145 -469h-213v1536h205v-973q123 213 374 461h285zM252 -571l180 458l197 -92l-232 -434z" glyph-name="kcommaaccent" horiz-adv-x="1048" unicode="ķ"/><glyph d="M557 1946l-229 -267h-183l148 267h264zM328 205h764v-205h-969v1536h205v-1331z" glyph-name="Lacute" horiz-adv-x="1163" unicode="Ĺ"/><glyph d="M295 1946h264l-229 -267h-183zM123 1536h205v-1536h-205v1536z" glyph-name="lacute" horiz-adv-x="450" unicode="ĺ"/><glyph d="M328 205h764v-205h-969v1536h205v-1331zM279 -571l180 458l196 -92l-231 -434z" glyph-name="Lcommaaccent" horiz-adv-x="1163" unicode="Ļ"/><glyph d="M123 1536h205v-1536h-205v1536zM-55 -571l180 458l197 -92l-232 -434z" glyph-name="lcommaaccent" horiz-adv-x="450" unicode="ļ"/><glyph d="M328 205h764v-205h-969v1536h205v-1331zM600 1044h-162l-28 492h217z" glyph-name="Lcaron" horiz-adv-x="1163" unicode="Ľ"/><glyph d="M123 1536h205v-1536h-205v1536zM418 1044l-29 492h217l-26 -492h-162z" glyph-name="lcaron" horiz-adv-x="606" unicode="ľ"/><glyph d="M410 205h764v-205h-969v528l-144 -125v273l144 125v735h205v-557l147 129v-272l-147 -129v-502z" glyph-name="Lslash" horiz-adv-x="1245" unicode="Ł"/><glyph d="M557 1108v-272l-145 -127v-709h-205v530l-146 -127v273l146 127v733h205v-555z" glyph-name="lslash" horiz-adv-x="618" unicode="ł"/><glyph d="M1051 1946l-230 -267h-182l147 267h265zM1106 1536h205v-1536h-205l-778 1167v-1167h-205v1536h205l778 -1167v1167z" glyph-name="Nacute" horiz-adv-x="1433" unicode="Ń"/><glyph d="M956 1434l-229 -267h-182l147 267h264zM655 1044q139 0 247 -113.5t110 -273.5v-657h-205v633q0 102 -52.5 154.5t-140.5 52.5q-121 0 -203.5 -85t-82.5 -214v-541h-205v1024h205v-156q122 176 327 176z" glyph-name="nacute" horiz-adv-x="1114" unicode="ń"/><glyph d="M1106 1536h205v-1536h-205l-778 1167v-1167h-205v1536h205l778 -1167v1167zM436 -571l180 458l197 -92l-231 -434z" glyph-name="Ncommaaccent" horiz-adv-x="1433" unicode="Ņ"/><glyph d="M655 1044q139 0 247 -113.5t110 -273.5v-657h-205v633q0 102 -52.5 154.5t-140.5 52.5q-121 0 -203.5 -85t-82.5 -214v-541h-205v1024h205v-156q122 176 327 176zM322 -571l180 458l196 -92l-231 -434z" glyph-name="ncommaaccent" horiz-adv-x="1114" unicode="ņ"/><glyph d="M602 1679l-211 267h236l90 -168l90 168h235l-211 -267h-229zM1106 1536h205v-1536h-205l-778 1167v-1167h-205v1536h205l778 -1167v1167z" glyph-name="Ncaron" horiz-adv-x="1433" unicode="Ň"/><glyph d="M508 1167l-211 267h235l91 -168l90 168h235l-211 -267h-229zM655 1044q139 0 247 -113.5t110 -273.5v-657h-205v633q0 102 -52.5 154.5t-140.5 52.5q-121 0 -203.5 -85t-82.5 -214v-541h-205v1024h205v-156q122 176 327 176z" glyph-name="ncaron" horiz-adv-x="1114" unicode="ň"/><glyph d="M1106 1536h205v-1634q0 -141 -94.5 -236.5t-243.5 -95.5q-135 0 -215 84v225q16 -39 76.5 -71.5t130.5 -32.5q141 0 141 153v72l-778 1167v-1167h-205v1536h205l778 -1167v1167z" glyph-name="Eng" horiz-adv-x="1433" unicode="Ŋ"/><glyph d="M655 1044q139 0 247 -113.5t110 -273.5v-755q0 -141 -94.5 -236.5t-243.5 -95.5q-135 0 -215 84v225q16 -39 76.5 -71.5t130.5 -32.5q141 0 141 153v705q0 102 -52.5 154.5t-140.5 52.5q-121 0 -203.5 -85t-82.5 -214v-541h-205v1024h205v-156q122 176 327 176z" glyph-name="eng" horiz-adv-x="1114" unicode="ŋ"/><glyph d="M623 1718v174h514v-174h-514zM881 -20q-334 0 -561.5 229t-227.5 559t227.5 559t561.5 229q336 0 562 -229t226 -559t-226 -559t-562 -229zM881 184q244 0 413.5 170t169.5 414t-170 414t-413 170q-242 0 -413 -171t-171 -413t171 -413t413 -171z" glyph-name="Omacron" unicode="Ō"/><glyph d="M367 1206v174h514v-174h-514zM624.5 -20q-229.5 0 -381 154.5t-151.5 377.5t151.5 377.5t381.5 154.5q231 0 381.5 -154.5t150.5 -377.5t-151.5 -377.5t-381 -154.5zM624.5 184q139.5 0 233.5 95.5t94 232.5t-94 232.5t-233.5 95.5t-233.5 -95.5t-94 -232.5t94 -232.5 t233.5 -95.5z" glyph-name="omacron" horiz-adv-x="1249" unicode="ō"/><glyph d="M807 1946h264l-229 -267h-183zM1122 1946h264l-229 -267h-182zM881 -20q-334 0 -561.5 229t-227.5 559t227.5 559t561.5 229q336 0 562 -229t226 -559t-226 -559t-562 -229zM881 184q244 0 413.5 170t169.5 414t-170 414t-413 170q-242 0 -413 -171t-171 -413t171 -413 t413 -171z" glyph-name="Ohungarumlaut" unicode="Ő"/><glyph d="M551 1434h264l-229 -267h-183zM866 1434h264l-229 -267h-182zM624.5 -20q-229.5 0 -381 154.5t-151.5 377.5t151.5 377.5t381.5 154.5q231 0 381.5 -154.5t150.5 -377.5t-151.5 -377.5t-381 -154.5zM624.5 184q139.5 0 233.5 95.5t94 232.5t-94 232.5t-233.5 95.5 t-233.5 -95.5t-94 -232.5t94 -232.5t233.5 -95.5z" glyph-name="ohungarumlaut" horiz-adv-x="1249" unicode="ő"/><glyph d="M2437 1331h-766v-377h653v-204h-653v-545h764v-205h-969v231q-229 -252 -585 -251q-334 0 -561.5 229t-227.5 559t227.5 559t561.5 229q356 0 585 -251v231h971v-205zM881 184q244 0 414.5 170t170.5 414t-171 414t-414 170q-242 0 -413 -171t-171 -413t171 -413 t413 -171z" glyph-name="OE" horiz-adv-x="2529" unicode="Œ"/><glyph d="M1167 426q25 -113 114 -178.5t222 -65.5q193 0 305 109v-232q-121 -80 -309 -79q-137 0 -253 56t-191 157q-72 -98 -184.5 -155.5t-245.5 -57.5q-229 0 -381 154.5t-152 377.5t151.5 377.5t381.5 154.5q135 0 247.5 -57t184.5 -158q162 215 442 215q184 0 289.5 -104 t105.5 -258q0 -156 -119.5 -247t-312.5 -91q-166 0 -295 82zM624.5 184q139.5 0 233.5 95.5t94 232.5t-94 232.5t-233.5 95.5t-233.5 -95.5t-94 -232.5t94 -232.5t233.5 -95.5zM1493 840q-104 0 -190 -55.5t-123 -149.5q111 -86 276 -86q233 0 234 127q0 164 -197 164z" glyph-name="oe" horiz-adv-x="1986" unicode="œ"/><glyph d="M895 1946l-229 -267h-183l148 267h264zM1198 1022q0 -152 -82 -278t-215 -189l244 -555h-223l-224 506h-16h-354v-506h-205v1536h559q213 0 364.5 -150.5t151.5 -363.5zM328 1331v-620h354q131 0 221 91t90 220q0 127 -91 218t-220 91h-354z" glyph-name="Racute" horiz-adv-x="1269" unicode="Ŕ"/><glyph d="M756 1434l-230 -267h-182l148 267h264zM328 893q59 100 149 132t185 -21l2 -236q-35 63 -111 79.5t-144.5 -33.5t-80.5 -159v-655h-205v1024h205v-131z" glyph-name="racute" horiz-adv-x="745" unicode="ŕ"/><glyph d="M1198 1022q0 -152 -82 -278t-215 -189l244 -555h-223l-224 506h-16h-354v-506h-205v1536h559q213 0 364.5 -150.5t151.5 -363.5zM328 1331v-620h354q131 0 221 91t90 220q0 127 -91 218t-220 91h-354zM281 -571l180 458l196 -92l-231 -434z" glyph-name="Rcommaaccent" horiz-adv-x="1269" unicode="Ŗ"/><glyph d="M662 1004l2 -236q-35 63 -111 79.5t-144.5 -33.5t-80.5 -159v-655h-205v1024h205v-131q59 100 149.5 132t184.5 -21zM-66 -571l181 458l196 -92l-231 -434z" glyph-name="rcommaaccent" horiz-adv-x="745" unicode="ŗ"/><glyph d="M446 1679l-210 267h235l90 -168l90 168h236l-211 -267h-230zM1198 1022q0 -152 -82 -278t-215 -189l244 -555h-223l-224 506h-16h-354v-506h-205v1536h559q213 0 364.5 -150.5t151.5 -363.5zM328 1331v-620h354q131 0 221 91t90 220q0 127 -91 218t-220 91h-354z" glyph-name="Rcaron" horiz-adv-x="1269" unicode="Ř"/><glyph d="M307 1167l-211 267h236l90 -168l90 168h236l-211 -267h-230zM328 893q59 100 149 132t185 -21l2 -236q-35 63 -111 79.5t-144.5 -33.5t-80.5 -159v-655h-205v1024h205v-131z" glyph-name="rcaron" horiz-adv-x="745" unicode="ř"/><glyph d="M664 1946h264l-230 -267h-182zM565 -20q-94 0 -178 18t-135 45t-89 53.5t-54 44.5l-17 19v276q94 -115 158 -160q131 -92 315 -92q139 0 232.5 52.5t93.5 169.5q0 98 -78 157.5t-297 157.5q-88 39 -130 59.5t-109.5 62.5t-100.5 81t-58.5 99t-25.5 132q0 186 142.5 293.5 t375.5 107.5q281 0 428 -151v-279q-39 49 -70.5 80t-84 69t-122 57.5t-153.5 19.5q-139 0 -225 -52.5t-86 -140.5q0 -82 71.5 -132t227.5 -116q274 -117 387 -223t113 -274q0 -203 -143.5 -318.5t-387.5 -115.5z" glyph-name="Sacute" horiz-adv-x="1187" unicode="Ś"/><glyph d="M541 1434h264l-230 -267h-182zM465 -20q-131 0 -226.5 43t-144.5 94v235q72 -68 173.5 -118t197.5 -50q190 0 190 88q0 23 -19.5 46.5t-63.5 48t-76.5 40t-98.5 44.5q-82 37 -126 60.5t-95 62t-72.5 90t-21.5 118.5q0 109 106.5 185.5t282.5 76.5q238 0 356 -122v-236 q-61 63 -150 108.5t-183 45.5q-86 0 -146.5 -20.5t-60.5 -51.5q0 -51 293 -174q135 -63 207.5 -138t72.5 -184q0 -127 -102.5 -209.5t-292.5 -82.5z" glyph-name="sacute" horiz-adv-x="952" unicode="ś"/><glyph d="M1096 414q0 -176 -111 -288t-303 -138l-16 -92q63 -14 103 -58.5t40 -103.5q0 -74 -52 -122t-143 -48q-55 0 -104 26v107q23 -29 63 -29q31 0 51.5 17.5t20.5 44t-20.5 44t-51.5 17.5q-41 0 -63 -29v220q-84 6 -156.5 25.5t-119 45t-80 50t-48.5 40.5l-14 17v276 q94 -115 158 -160q131 -92 315 -92q139 0 232.5 52.5t93.5 169.5q0 98 -78 157.5t-297 157.5q-88 39 -130 59.5t-109.5 62.5t-100.5 81t-58.5 99t-25.5 132q0 186 142.5 293.5t375.5 107.5q281 0 428 -151v-279q-39 49 -70.5 80t-84 69t-122 57.5t-153.5 19.5 q-139 0 -225 -52.5t-86 -140.5q0 -82 71.5 -132t227.5 -116q274 -117 387 -223t113 -274z" glyph-name="Scedilla" horiz-adv-x="1187" unicode="Ş"/><glyph d="M860 272q0 -111 -77.5 -189.5t-223.5 -96.5l-16 -90q63 -14 103 -58.5t40 -103.5q0 -74 -52 -122t-142 -48q-55 0 -105 26v107q23 -29 64 -29q31 0 51 17.5t20 44t-20.5 44t-50.5 17.5q-41 0 -64 -29v222q-190 27 -293 133v235q72 -68 173.5 -118t197.5 -50q190 0 190 88 q0 23 -19.5 46.5t-63.5 48t-76.5 40t-98.5 44.5q-82 37 -126 60.5t-95 62t-72.5 90t-21.5 118.5q0 109 106.5 185.5t282.5 76.5q238 0 356 -122v-236q-61 63 -150 108.5t-183 45.5q-86 0 -146.5 -20.5t-60.5 -51.5q0 -51 293 -174q135 -63 207.5 -138t72.5 -184z" glyph-name="scedilla" horiz-adv-x="952" unicode="ş"/><glyph d="M479 1679l-211 267h236l90 -168l90 168h236l-211 -267h-230zM596 911q274 -117 387 -223t113 -274q0 -203 -143.5 -318.5t-387.5 -115.5q-94 0 -178 18t-135 45t-89 53.5t-54 44.5l-17 19v276q94 -115 158 -160q131 -92 315 -92q139 0 232.5 52.5t93.5 169.5 q0 98 -78 157.5t-297 157.5q-88 39 -130 59.5t-109.5 62.5t-100.5 81t-58.5 99t-25.5 132q0 186 142.5 293.5t375.5 107.5q281 0 428 -151v-279q-39 49 -70.5 80t-84 69t-122 57.5t-153.5 19.5q-139 0 -225 -52.5t-86 -140.5q0 -82 71.5 -132t227.5 -116z" glyph-name="Scaron" horiz-adv-x="1187" unicode="Š"/><glyph d="M356 1167l-211 267h236l90 -168l90 168h236l-211 -267h-230zM580 594q135 -63 207.5 -138t72.5 -184q0 -127 -102.5 -209.5t-292.5 -82.5q-131 0 -226.5 43t-144.5 94v235q72 -68 173.5 -118t197.5 -50q190 0 190 88q0 23 -19.5 46.5t-63.5 48t-76.5 40t-98.5 44.5 q-82 37 -126 60.5t-95 62t-72.5 90t-21.5 118.5q0 109 106.5 185.5t282.5 76.5q238 0 356 -122v-236q-61 63 -150 108.5t-183 45.5q-86 0 -146.5 -20.5t-60.5 -51.5q0 -51 293 -174z" glyph-name="scaron" horiz-adv-x="952" unicode="š"/><glyph d="M788 -98q92 -45 93 -160q0 -82 -51.5 -130t-141.5 -48q-55 0 -104 26v119q23 -31 63 -31q31 0 51.5 19.5t20.5 48.5t-20.5 48.5t-51.5 19.5q-41 0 -63 -33v1550h-492v205h1188v-205h-492v-1429z" glyph-name="Tcommaaccent" horiz-adv-x="1372" unicode="Ţ"/><glyph d="M483 -98q92 -45 92 -160q0 -82 -51 -130t-141 -48q-55 0 -104 26v119q23 -31 63 -31q31 0 51.5 19.5t20.5 48.5t-20.5 48.5t-51.5 19.5q-41 0 -63 -33v1038h-218v205h218v512h204v-512h219v-205h-219v-917z" glyph-name="tcommaaccent" horiz-adv-x="763" unicode="ţ"/><glyph d="M571 1679l-211 267h236l90 -168l90 168h236l-211 -267h-230zM1280 1536v-205h-492v-1331h-204v1331h-492v205h1188z" glyph-name="Tcaron" horiz-adv-x="1372" unicode="Ť"/><glyph d="M483 1536v-512h219v-205h-219v-819h-204v819h-218v205h218v512h204zM586 1536h217l-29 -430h-162z" glyph-name="tcaron" horiz-adv-x="782" unicode="ť"/><glyph d="M1280 1331h-492v-307h177v-205h-177v-819h-204v819h-176v205h176v307h-492v205h1188v-205z" glyph-name="Tbar" horiz-adv-x="1372" unicode="Ŧ"/><glyph d="M702 819h-219v-86h138v-174h-138v-559h-204v559h-138v174h138v86h-218v205h218v512h204v-512h219v-205z" glyph-name="tbar" horiz-adv-x="763" unicode="ŧ"/><glyph d="M547 1982q72 0 123 -32.5t71.5 -71.5t44 -71.5t45.5 -32.5q55 0 56 57q0 70 -72 121q-8 6 -16 10h182q51 -53 56 -130t-45 -137.5t-146 -60.5q-78 0 -130 33t-69.5 71t-38 70.5t-43.5 32.5q-53 0 -53 -55q0 -70 80 -125q4 -4 8 -6h-186q-53 51 -58.5 129t45 138t146.5 60 zM696.5 -20q-247.5 0 -410.5 166.5t-163 406.5v983h205v-983q0 -154 106.5 -261.5t262 -107.5t262 107.5t106.5 261.5v983h205v-983q0 -240 -163 -406.5t-410.5 -166.5z" glyph-name="Utilde" horiz-adv-x="1392" unicode="Ũ"/><glyph d="M279 1143q-53 51 -58.5 129t44.5 138t147 60q72 0 123 -32.5t71.5 -71.5t44 -71.5t45.5 -32.5q55 0 56 57q0 70 -72 121q-8 6 -16 10h182q51 -53 56 -130t-45 -137.5t-146 -60.5q-78 0 -130.5 33t-69.5 71t-37.5 70.5t-43.5 32.5q-53 0 -53 -55q0 -70 80 -125q4 -4 8 -6 h-186zM807 1024h205v-1024h-205v156q-123 -176 -328 -176q-139 0 -246.5 113.5t-109.5 273.5v657h207v-633q0 -102 51 -154.5t139 -52.5q121 0 204 85t83 214v541z" glyph-name="utilde" horiz-adv-x="1134" unicode="ũ"/><glyph d="M438 1718v174h514v-174h-514zM696.5 -20q-247.5 0 -410.5 166.5t-163 406.5v983h205v-983q0 -154 106.5 -261.5t262 -107.5t262 107.5t106.5 261.5v983h205v-983q0 -240 -163 -406.5t-410.5 -166.5z" glyph-name="Umacron" horiz-adv-x="1392" unicode="Ū"/><glyph d="M817 1380v-174h-514v174h514zM807 1024h205v-1024h-205v156q-123 -176 -328 -176q-139 0 -246.5 113.5t-109.5 273.5v657h207v-633q0 -102 51 -154.5t139 -52.5q121 0 204 85t83 214v541z" glyph-name="umacron" horiz-adv-x="1134" unicode="ū"/><glyph d="M696 1645q-102 0 -172.5 71.5t-70.5 173.5q0 98 71.5 169t172 71t172 -70.5t71.5 -169.5q0 -102 -72 -173.5t-172 -71.5zM696 1788q43 0 71 28.5t28 69.5t-28 71t-71 30t-70.5 -30t-27.5 -71t27.5 -69.5t70.5 -28.5zM696.5 -20q-247.5 0 -410.5 166.5t-163 406.5v983h205 v-983q0 -154 106.5 -261.5t262 -107.5t262 107.5t106.5 261.5v983h205v-983q0 -240 -163 -406.5t-410.5 -166.5z" glyph-name="Uring" horiz-adv-x="1392" unicode="Ů"/><glyph d="M561 1133q-102 0 -173 71.5t-71 173.5q0 98 72 169t172.5 71t172 -70.5t71.5 -169.5q0 -102 -72 -173.5t-172 -71.5zM561 1475q-43 0 -70.5 -30t-27.5 -71t27.5 -69.5t70.5 -28.5t70.5 28.5t27.5 69.5t-27.5 71t-70.5 30zM807 1024h205v-1024h-205v156 q-123 -176 -328 -176q-139 0 -246.5 113.5t-109.5 273.5v657h207v-633q0 -102 51 -154.5t139 -52.5q121 0 204 85t83 214v541z" glyph-name="uring" horiz-adv-x="1134" unicode="ů"/><glyph d="M623 1946h264l-230 -267h-182zM938 1946h264l-229 -267h-182zM696.5 -20q-247.5 0 -410.5 166.5t-163 406.5v983h205v-983q0 -154 106.5 -261.5t262 -107.5t262 107.5t106.5 261.5v983h205v-983q0 -240 -163 -406.5t-410.5 -166.5z" glyph-name="Uhungarumlaut" horiz-adv-x="1392" unicode="Ű"/><glyph d="M752 1434l-230 -267h-182l147 267h265zM838 1167h-183l148 267h264zM807 483v541h205v-1024h-205v156q-123 -176 -328 -176q-139 0 -246.5 113.5t-109.5 273.5v657h207v-633q0 -102 51 -154.5t139 -52.5q121 0 204 85t83 214z" glyph-name="uhungarumlaut" horiz-adv-x="1134" unicode="ű"/><glyph d="M1065 1536h205v-983q0 -211 -130 -369.5t-337 -195.5q-127 -76 -127 -133q0 -61 59 -62q61 0 99 27l20 -207q-66 -27 -139 -27q-106 0 -169 70t-63 154q0 115 66 188q-190 47 -308 200.5t-118 354.5v983h205v-983q0 -154 106.5 -261.5t262 -107.5t262 107.5t106.5 261.5 v983z" glyph-name="Uogonek" horiz-adv-x="1392" unicode="Ų"/><glyph d="M1006 0q-172 -92 -172 -160q0 -61 59 -61q61 0 98 26l21 -206q-66 -27 -140 -27q-106 0 -168.5 69.5t-62.5 153.5q0 88 37 149.5t129 118.5v93q-123 -176 -328 -176q-139 0 -246.5 113.5t-109.5 273.5v657h207v-633q0 -102 51 -154.5t139 -52.5q121 0 204 85t83 214v541 h205v-1024h-6z" glyph-name="uogonek" horiz-adv-x="1134" unicode="ų"/><glyph d="M885 1847l-90 -168h-236l211 267h229l211 -267h-235zM1499 1536h209l-305 -1536h-305l-213 1253l-211 -1253h-307l-306 1536h209l248 -1321l219 1321h295l221 -1315z" glyph-name="Wcircumflex" horiz-adv-x="1769" unicode="Ŵ"/><glyph d="M907 1335l-90 -168h-235l211 267h229l211 -267h-236zM1532 1024h217l-340 -1024h-268l-234 737l-229 -737h-268l-349 1024h218l264 -793l2 -4v4l233 793h254l242 -793l2 -4v4z" glyph-name="wcircumflex" horiz-adv-x="1810" unicode="ŵ"/><glyph d="M713 1847l-90 -168h-236l211 267h229l211 -267h-235zM1358 1536l-543 -944v-592h-205v586l-549 950h236l414 -739l411 739h236z" glyph-name="Ycircumflex" horiz-adv-x="1419" unicode="Ŷ"/><glyph d="M655 1335l-90 -168h-235l211 267h229l211 -267h-236zM1022 1024h227l-475 -1024l-182 -410h-223l180 410l-488 1024h228l370 -819h3z" glyph-name="ycircumflex" horiz-adv-x="1310" unicode="ŷ"/><glyph d="M692 1819l-164 -162l-163 162l163 166zM1061 1819l-164 -162l-164 162l164 166zM1358 1536l-543 -944v-592h-205v586l-549 950h236l414 -739l411 739h236z" glyph-name="Ydieresis" horiz-adv-x="1419" unicode="Ÿ"/><glyph d="M1049 1946l-230 -267h-182l147 267h265zM1380 1536l-927 -1331h827v-205h-1219l930 1331h-841v205h1230z" glyph-name="Zacute" horiz-adv-x="1441" unicode="Ź"/><glyph d="M907 1434l-229 -267h-182l147 267h264zM1085 1024l-614 -819h553v-205h-963l615 819h-553v205h962z" glyph-name="zacute" horiz-adv-x="1146" unicode="ź"/><glyph d="M879 1839l-164 -162l-164 162l164 166zM1380 1536l-927 -1331h827v-205h-1219l930 1331h-841v205h1230z" glyph-name="Zdotaccent" horiz-adv-x="1441" unicode="Ż"/><glyph d="M737 1327l-164 -162l-163 162l163 166zM1085 1024l-614 -819h553v-205h-963l615 819h-553v205h962z" glyph-name="zdotaccent" horiz-adv-x="1146" unicode="ż"/><glyph d="M600 1679l-211 267h236l90 -168l90 168h235l-211 -267h-229zM1380 1536l-927 -1331h827v-205h-1219l930 1331h-841v205h1230z" glyph-name="Zcaron" horiz-adv-x="1441" unicode="Ž"/><glyph d="M459 1167l-211 267h235l90 -168l91 168h235l-211 -267h-229zM1085 1024l-614 -819h553v-205h-963l615 819h-553v205h962z" glyph-name="zcaron" horiz-adv-x="1146" unicode="ž"/><glyph d="M838 1368q-186 0 -187 -192v-152h387v-205h-387v-921q0 -158 -96 -243t-266 -85q-139 0 -228 78v225q59 -115 199 -115q186 0 186 193v868h-385v205h385v205q0 158 97.5 242.5t267.5 84.5q137 0 227 -77v-226q-59 115 -200 115z" glyph-name="florin" horiz-adv-x="1099" unicode="ƒ"/><glyph d="M1384 1380q133 -111 209 -270.5t76 -341.5q0 -330 -226 -559t-562 -229q-334 0 -561.5 229t-227.5 559t227.5 559t561.5 229h340q41 0 65.5 28t24.5 67q0 72 -56 110h207q57 -66 58 -155q-1 -163 -136 -226zM881 184q244 0 413.5 170t169.5 414t-170 414t-413 170 q-242 0 -413 -171t-171 -413t171 -413t413 -171z" glyph-name="Ohorn" unicode="Ơ"/><glyph d="M1010 887q147 -154 147 -375q0 -223 -151.5 -377.5t-381 -154.5t-381 154.5t-151.5 377.5t151.5 377.5t381.5 154.5h2h186q41 0 65.5 28t24.5 67q0 72 -55 110h207q57 -66 57 -155q0 -137 -102 -207zM624.5 184q139.5 0 233.5 95.5t94 232.5t-94 232.5t-233.5 95.5 t-233.5 -95.5t-94 -232.5t94 -232.5t233.5 -95.5z" glyph-name="ohorn" horiz-adv-x="1249" unicode="ơ"/><glyph d="M1450 1585q0 -92 -49 -155.5t-131 -88.5v-788q0 -240 -163 -406.5t-410.5 -166.5t-410.5 166.5t-163 406.5v983h205v-983q0 -154 106.5 -261.5t262 -107.5t262 107.5t106.5 261.5v983h86q41 0 65.5 27.5t24.5 66.5q0 72 -55 111h207q57 -66 57 -156z" glyph-name="Uhorn" horiz-adv-x="1392" unicode="Ư"/><glyph d="M1227 1073q0 -102 -59.5 -168.5t-155.5 -81.5v-823h-205v156q-123 -176 -328 -176q-139 0 -246.5 113.5t-109.5 273.5v657h207v-633q0 -102 51 -154.5t139 -52.5q121 0 204 85t83 214v541h121q41 0 65.5 27.5t24.5 66.5q0 72 -55 111h206q58 -66 58 -156z" glyph-name="uhorn" horiz-adv-x="1282" unicode="ư"/><glyph d="M641 1679l-211 267h236l90 -168l90 168h235l-211 -267h-229zM1241 0l-182 506h-598l-182 -506h-218l562 1536h274l561 -1536h-217zM535 711h450l-225 620z" glyph-name="uni01CD" horiz-adv-x="1519" unicode="Ǎ"/><glyph d="M459 1167l-211 267h235l90 -168l91 168h235l-211 -267h-229zM512 1044q186 0 313 -110.5t127 -280.5v-653h-204v84q-100 -104 -261 -104q-164 0 -279.5 107.5t-115.5 260.5q0 152 115 253t280 101q160 0 261 -104v55q0 92 -71 139.5t-194 47.5q-135 0 -252 -99v228 q117 75 281 75zM518 172q98 0 164 53.5t66 131t-66 131t-164 53.5q-96 0 -158.5 -52.5t-62.5 -132.5q0 -82 62.5 -133t158.5 -51z" glyph-name="uni01CE" horiz-adv-x="1054" unicode="ǎ"/><glyph d="M315 1946h236l-211 -267h-229l-211 267h235l90 -168zM123 0v1536h205v-1536h-205z" glyph-name="uni01CF" horiz-adv-x="450" unicode="Ǐ"/><glyph d="M311 1434h236l-211 -267h-230l-210 267h235l90 -168zM119 0v1024h205v-1024h-205z" glyph-name="uni01D0" horiz-adv-x="440" unicode="ǐ"/><glyph d="M766 1679l-211 267h236l90 -168l90 168h235l-211 -267h-229zM881 1556q336 0 562 -229t226 -559t-226 -559t-562 -229q-334 0 -561.5 229t-227.5 559t227.5 559t561.5 229zM881 184q244 0 413.5 170t169.5 414t-170 414t-413 170q-242 0 -413 -171t-171 -413t171 -413 t413 -171z" glyph-name="uni01D1" unicode="Ǒ"/><glyph d="M510 1167l-211 267h236l90 -168l90 168h235l-211 -267h-229zM625 1044q231 0 381.5 -154.5t150.5 -377.5t-151.5 -377.5t-381 -154.5t-381 154.5t-151.5 377.5t152 377.5t381 154.5zM624.5 184q139.5 0 233.5 95.5t94 232.5t-94 232.5t-233.5 95.5t-233.5 -95.5 t-94 -232.5t94 -232.5t233.5 -95.5z" glyph-name="uni01D2" horiz-adv-x="1249" unicode="ǒ"/><glyph d="M582 1679l-211 267h235l90 -168l90 168h236l-211 -267h-229zM1065 1536h205v-983q0 -240 -163 -406.5t-410.5 -166.5t-410.5 166.5t-163 406.5v983h205v-983q0 -154 106.5 -261.5t262 -107.5t262 107.5t106.5 261.5v983z" glyph-name="uni01D3" horiz-adv-x="1392" unicode="Ǔ"/><glyph d="M446 1167l-210 267h235l90 -168l90 168h236l-211 -267h-230zM807 1024h205v-1024h-205v156q-123 -176 -328 -176q-139 0 -246.5 113.5t-109.5 273.5v657h207v-633q0 -102 51 -154.5t139 -52.5q121 0 204 85t83 214v541z" glyph-name="uni01D4" horiz-adv-x="1134" unicode="ǔ"/><glyph d="M438 2054v174h514v-174h-514zM512 1985l164 -166l-164 -162l-164 162zM881 1985l163 -166l-163 -162l-164 162zM696.5 -20q-247.5 0 -410.5 166.5t-163 406.5v983h205v-983q0 -154 106.5 -261.5t262 -107.5t262 107.5t106.5 261.5v983h205v-983q0 -240 -163 -406.5 t-410.5 -166.5z" glyph-name="uni01D5" horiz-adv-x="1392" unicode="Ǖ"/><glyph d="M817 1716v-174h-514v174h514zM541 1307l-164 -162l-164 162l164 166zM582 1307l163 166l164 -166l-164 -162zM807 1024h205v-1024h-205v156q-123 -176 -328 -176q-139 0 -246.5 113.5t-109.5 273.5v657h207v-633q0 -102 51 -154.5t139 -52.5q121 0 204 85t83 214v541z " glyph-name="uni01D6" horiz-adv-x="1134" unicode="ǖ"/><glyph d="M766 2281h264l-229 -266h-183zM512 1985l164 -166l-164 -162l-164 162zM881 1985l163 -166l-163 -162l-164 162zM696.5 -20q-247.5 0 -410.5 166.5t-163 406.5v983h205v-983q0 -154 106.5 -261.5t262 -107.5t262 107.5t106.5 261.5v983h205v-983q0 -240 -163 -406.5 t-410.5 -166.5z" glyph-name="uni01D7" horiz-adv-x="1392" unicode="Ǘ"/><glyph d="M895 1769l-229 -266h-183l148 266h264zM541 1307l-164 -162l-164 162l164 166zM582 1307l163 166l164 -166l-164 -162zM807 1024h205v-1024h-205v156q-123 -176 -328 -176q-139 0 -246.5 113.5t-109.5 273.5v657h207v-633q0 -102 51 -154.5t139 -52.5q121 0 204 85 t83 214v541z" glyph-name="uni01D8" horiz-adv-x="1134" unicode="ǘ"/><glyph d="M582 2015l-211 266h235l90 -167l90 167h236l-211 -266h-229zM676 1819l-164 -162l-164 162l164 166zM717 1819l164 166l163 -166l-163 -162zM1065 1536h205v-983q0 -240 -163 -406.5t-410.5 -166.5t-410.5 166.5t-163 406.5v983h205v-983q0 -154 106.5 -261.5t262 -107.5 t262 107.5t106.5 261.5v983z" glyph-name="uni01D9" horiz-adv-x="1392" unicode="Ǚ"/><glyph d="M446 1503l-210 266h235l90 -167l90 167h236l-211 -266h-230zM541 1307l-164 -162l-164 162l164 166zM582 1307l163 166l164 -166l-164 -162zM807 1024h205v-1024h-205v156q-123 -176 -328 -176q-139 0 -246.5 113.5t-109.5 273.5v657h207v-633q0 -102 51 -154.5 t139 -52.5q121 0 204 85t83 214v541z" glyph-name="uni01DA" horiz-adv-x="1134" unicode="ǚ"/><glyph d="M616 2281l148 -266h-182l-230 266h264zM512 1985l164 -166l-164 -162l-164 162zM881 1985l163 -166l-163 -162l-164 162zM696.5 -20q-247.5 0 -410.5 166.5t-163 406.5v983h205v-983q0 -154 106.5 -261.5t262 -107.5t262 107.5t106.5 261.5v983h205v-983 q0 -240 -163 -406.5t-410.5 -166.5z" glyph-name="uni01DB" horiz-adv-x="1392" unicode="Ǜ"/><glyph d="M629 1503h-183l-229 266h264zM541 1307l-164 -162l-164 162l164 166zM745 1145l-163 162l163 166l164 -166zM807 1024h205v-1024h-205v156q-123 -176 -328 -176q-139 0 -246.5 113.5t-109.5 273.5v657h207v-633q0 -102 51 -154.5t139 -52.5q121 0 204 85t83 214v541z" glyph-name="uni01DC" horiz-adv-x="1134" unicode="ǜ"/><glyph d="M565 -20q-94 0 -178 18t-135 45t-89 53.5t-54 44.5l-17 19v276q94 -115 158 -160q131 -92 315 -92q139 0 232.5 52.5t93.5 169.5q0 98 -78 157.5t-297 157.5q-88 39 -130 59.5t-109.5 62.5t-100.5 81t-58.5 99t-25.5 132q0 186 142.5 293.5t375.5 107.5q281 0 428 -151 v-279q-39 49 -70.5 80t-84 69t-122 57.5t-153.5 19.5q-139 0 -225 -52.5t-86 -140.5q0 -82 71.5 -132t227.5 -116q274 -117 387 -223t113 -274q0 -203 -143.5 -318.5t-387.5 -115.5zM313 -571l181 458l196 -92l-231 -434z" glyph-name="Scommaaccent" horiz-adv-x="1187" unicode="Ș"/><glyph d="M465 -20q-131 0 -226.5 43t-144.5 94v235q72 -68 173.5 -118t197.5 -50q190 0 190 88q0 23 -19.5 46.5t-63.5 48t-76.5 40t-98.5 44.5q-82 37 -126 60.5t-95 62t-72.5 90t-21.5 118.5q0 109 106.5 185.5t282.5 76.5q238 0 356 -122v-236q-61 63 -150 108.5t-183 45.5 q-86 0 -146.5 -20.5t-60.5 -51.5q0 -51 293 -174q135 -63 207.5 -138t72.5 -184q0 -127 -102.5 -209.5t-292.5 -82.5zM190 -571l181 458l196 -92l-231 -434z" glyph-name="scommaaccent" horiz-adv-x="952" unicode="ș"/><glyph d="M1280 1536v-205h-492v-1331h-204v1331h-492v205h1188zM406 -571l180 458l196 -92l-231 -434z" glyph-name="uni021A" horiz-adv-x="1372" unicode="Ț"/><glyph d="M702 1024v-205h-219v-819h-204v819h-218v205h218v512h204v-512h219zM100 -571l181 458l196 -92l-231 -434z" glyph-name="uni021B" horiz-adv-x="763" unicode="ț"/><glyph d="M754 1167h-236l-90 168l-90 -168h-236l211 267h230z" glyph-name="circumflex" horiz-adv-x="856" unicode="ˆ"/><glyph d="M518 1434h236l-211 -267h-230l-211 267h236l90 -168z" glyph-name="caron" horiz-adv-x="856" unicode="ˇ"/><glyph d="M260 1434q0 -53 27.5 -91t70.5 -38t72 36.5t29 92.5h157q4 -123 -68.5 -207t-189 -84t-188.5 84t-68 207h158z" glyph-name="breve" horiz-adv-x="718" unicode="˘"/><glyph d="M266 1493l164 -166l-164 -162l-164 162z" glyph-name="dotaccent" horiz-adv-x="532" unicode="˙"/><glyph d="M346 1133q-102 0 -173 71.5t-71 173.5q0 98 72 169t172 71t172 -70.5t72 -169.5q0 -102 -72 -173.5t-172 -71.5zM346 1276q43 0 70.5 28.5t27.5 69.5t-27.5 71t-70.5 30t-70.5 -30t-27.5 -71t27.5 -69.5t70.5 -28.5z" glyph-name="ring" horiz-adv-x="692" unicode="˚"/><glyph d="M453 -195l20 -206q-66 -27 -139 -27q-106 0 -169 69.5t-63 153.5q0 98 46.5 163t162.5 132l156 -90q-172 -92 -172 -160q0 -61 59 -61q62 -1 99 26z" glyph-name="ogonek" horiz-adv-x="575" unicode="˛"/><glyph d="M293 1470q72 0 123 -32.5t71.5 -71.5t44 -71.5t46.5 -32.5q55 0 55 57q0 70 -72 121q-8 6 -16 10h182q51 -53 56 -130t-45 -137.5t-146 -60.5q-78 0 -130 33t-69.5 71t-38 70.5t-43.5 32.5q-53 0 -53 -55q0 -70 80 -125q4 -4 8 -6h-186q-53 51 -58.5 129t45 138t146.5 60 z" glyph-name="tilde" horiz-adv-x="884" unicode="˜"/><glyph d="M250 1434h264l-229 -267h-183zM565 1434h264l-229 -267h-182z" glyph-name="hungarumlaut" horiz-adv-x="931" unicode="˝"/><glyph d="M-250 1434l148 -267h-183l-229 267h264z" glyph-name="gravecomb" horiz-adv-x="0" unicode="̀"/><glyph d="M-367 1434h265l-230 -267h-182z" glyph-name="acutecomb" horiz-adv-x="0" unicode="́"/><glyph d="M-92 1167h-236l-90 168l-90 -168h-235l211 267h229z" glyph-name="uni0302" horiz-adv-x="0" unicode="̂"/><glyph d="M-582 1470q72 0 123 -32.5t71.5 -71.5t44.5 -71.5t46 -32.5q55 0 55 57q0 70 -71 121q-8 6 -17 10h183q51 -53 56 -130t-45 -137.5t-147 -60.5q-78 0 -130 33t-69.5 71t-38 70.5t-42.5 32.5q-53 0 -53 -55q0 -70 79 -125q4 -4 9 -6h-187q-53 51 -58 129t45 138t146 60z " glyph-name="tildecomb" horiz-adv-x="0" unicode="̃"/><glyph d="M-606 1206v174h514v-174h-514z" glyph-name="uni0304" horiz-adv-x="0" unicode="̄"/><glyph d="M-449 1434q0 -53 28 -91t71 -38t71.5 36.5t28.5 92.5h158q4 -123 -68.5 -207t-189.5 -84t-188.5 84t-67.5 207h157z" glyph-name="uni0306" horiz-adv-x="0" unicode="̆"/><glyph d="M-266 1493l164 -166l-164 -162l-164 162z" glyph-name="uni0307" horiz-adv-x="0" unicode="̇"/><glyph d="M-635 1473l164 -166l-164 -162l-164 162zM-266 1473l164 -166l-164 -162l-164 162z" glyph-name="uni0308" horiz-adv-x="0" unicode="̈"/><glyph d="M-231 1100l-86 112q53 25 69.5 80.5t-12.5 96.5q-31 45 -74 16t-57 -100l-86 116q29 86 90 125t125.5 24.5t105.5 -71.5q70 -92 49.5 -212.5t-124.5 -186.5z" glyph-name="hookabovecomb" horiz-adv-x="0" unicode="̉"/><glyph d="M-346 1133q-102 0 -173 71.5t-71 173.5q0 98 72 169t172 71t172 -70.5t72 -169.5q0 -102 -72 -173.5t-172 -71.5zM-346 1276q43 0 70.5 28.5t27.5 69.5t-27.5 71t-70.5 30t-70.5 -30t-27.5 -71t27.5 -69.5t70.5 -28.5z" glyph-name="uni030A" horiz-adv-x="0" unicode="̊"/><glyph d="M-682 1434h264l-229 -267h-182zM-367 1434h265l-230 -267h-182z" glyph-name="uni030B" horiz-adv-x="0" unicode="̋"/><glyph d="M-338 1434h236l-211 -267h-230l-211 267h236l90 -168z" glyph-name="uni030C" horiz-adv-x="0" unicode="̌"/><glyph d="M-102 1624l-181 -459l-196 92l231 435z" glyph-name="uni0312" horiz-adv-x="0" unicode="̒"/><glyph d="M-92 1073q0 -115 -75 -184.5t-189 -69.5h-105v205h70q41 0 65.5 27.5t24.5 66.5q0 72 -55 111h206q58 -66 58 -156z" glyph-name="uni031B" horiz-adv-x="0" unicode="̛"/><glyph d="M-266 -53l164 -166l-164 -162l-164 162z" glyph-name="dotbelowcomb" horiz-adv-x="0" unicode="̣"/><glyph d="M-479 -571l180 458l197 -92l-232 -434z" glyph-name="uni0326" horiz-adv-x="0" unicode="̦"/><glyph d="M-195 -98q92 -45 93 -160q0 -82 -51.5 -130t-141.5 -48q-55 0 -104 26v119q23 -31 63 -31q31 0 51.5 19.5t20.5 48.5t-20.5 48.5t-51.5 19.5q-41 0 -63 -33v321h204v-200z" glyph-name="uni0327" horiz-adv-x="0" unicode="̧"/><glyph d="M-123 -195l21 -206q-66 -27 -140 -27q-106 0 -168.5 69.5t-62.5 153.5q0 98 46 163t163 132l155 -90q-172 -92 -172 -160q0 -61 60 -61q61 -1 98 26z" glyph-name="uni0328" horiz-adv-x="0" unicode="̨"/><glyph d="M-641 457v205h549v-205h-549z" glyph-name="uni0335" horiz-adv-x="0" unicode="̵"/><glyph d="M-1126 432v174h1024v-174h-1024z" glyph-name="uni0336" horiz-adv-x="0" unicode="̶"/><glyph d="M-102 1024l-609 -1024h-225l610 1024h224z" glyph-name="uni0337" horiz-adv-x="0" unicode="̷"/><glyph d="M-61 1536l-1014 -1536h-246l1014 1536h246z" glyph-name="uni0338" horiz-adv-x="0" unicode="̸"/><glyph d="M897 1536l561 -1536h-1397l562 1536h274zM352 205h815l-407 1126z" glyph-name="Delta" horiz-adv-x="1519" unicode="Δ"/><glyph d="M1247 768q0 -352 -178 -563h178v-205h-469v205q117 53 190.5 202.5t73.5 360.5q0 248 -108.5 416t-262 168t-264 -168t-110.5 -416q0 -207 74.5 -360.5t193.5 -202.5v-205h-471v205h178q-180 209 -180 563q0 340 166 564t414 224q246 0 410.5 -223t164.5 -565z" glyph-name="Omega" horiz-adv-x="1339" unicode="Ω"/><glyph d="M807 1024h205v-1024h-205v156q-123 -176 -328 -176q-80 0 -151 40v-430h-205v1434h207v-633q0 -102 51 -154.5t139 -52.5q121 0 204 85t83 214v541z" glyph-name="mu" horiz-adv-x="1134" unicode="μ"/><glyph d="M1085 819h-225v-518q0 -117 103 -117q63 0 122 80v-215q-55 -70 -161 -69q-127 0 -198 75.5t-71 214.5v549h-163v-819h-205v819h-226v205h1024v-205z" glyph-name="pi" horiz-adv-x="1146" unicode="π"/><glyph d="M1008 881q102 -66 161.5 -172.5t59.5 -231.5q0 -197 -140.5 -336t-336.5 -139h-138v-207h-82v207h-409v1534h409v205h82v-205h99q164 0 279.5 -115.5t115.5 -277.5q0 -151 -100 -262zM328 1331v-377h204v377h-204zM713 1331h-99v-377h99q80 0 135 54.5t55 134.5 q0 78 -55 133t-135 55zM328 205h204v545h-204v-545zM752 205q115 0 193.5 80t78.5 192.5t-80 192.5t-192 80h-138v-545h138z" glyph-name="uni0E3F" horiz-adv-x="1320" unicode="฿"/><glyph d="M952 1679h-182l-229 267h264zM1499 1536h209l-305 -1536h-305l-213 1253l-211 -1253h-307l-306 1536h209l248 -1321l219 1321h295l221 -1315z" glyph-name="Wgrave" horiz-adv-x="1769" unicode="Ẁ"/><glyph d="M975 1167h-182l-230 267h264zM1532 1024h217l-340 -1024h-268l-234 737l-229 -737h-268l-349 1024h218l264 -793l2 -4v4l233 793h254l242 -793l2 -4v4z" glyph-name="wgrave" horiz-adv-x="1810" unicode="ẁ"/><glyph d="M1219 1946l-230 -267h-182l147 267h265zM1499 1536h209l-305 -1536h-305l-213 1253l-211 -1253h-307l-306 1536h209l248 -1321l219 1321h295l221 -1315z" glyph-name="Wacute" horiz-adv-x="1769" unicode="Ẃ"/><glyph d="M1241 1434l-229 -267h-183l148 267h264zM1532 1024h217l-340 -1024h-268l-234 737l-229 -737h-268l-349 1024h218l264 -793l2 -4v4l233 793h254l242 -793l2 -4v4z" glyph-name="wacute" horiz-adv-x="1810" unicode="ẃ"/><glyph d="M864 1819l-164 -162l-163 162l163 166zM1233 1819l-164 -162l-164 162l164 166zM1499 1536h209l-305 -1536h-305l-213 1253l-211 -1253h-307l-306 1536h209l248 -1321l219 1321h295l221 -1315z" glyph-name="Wdieresis" horiz-adv-x="1769" unicode="Ẅ"/><glyph d="M887 1307l-164 -162l-164 162l164 166zM1255 1307l-163 -162l-164 162l164 166zM1532 1024h217l-340 -1024h-268l-234 737l-229 -737h-268l-349 1024h218l264 -793l2 -4v4l233 793h254l242 -793l2 -4v4z" glyph-name="wdieresis" horiz-adv-x="1810" unicode="ẅ"/><glyph d="M827 1020q172 -23 293 -168t121 -340q0 -211 -140 -361.5t-331 -150.5h-238v205h242q102 0 182 91t80 216t-79.5 216t-182.5 91h-317l334 512h-279q-80 0 -132 -54t-52 -132v-1145h-205v1145q0 164 111.5 277.5t277.5 113.5h653z" glyph-name="uni1E9E" horiz-adv-x="1333" unicode="ẞ"/><glyph d="M1458 0h-217l-182 506h-598l-182 -506h-218l562 1536h274zM535 711h450l-225 620zM592 -219l164 166l164 -166l-164 -162z" glyph-name="uni1EA0" horiz-adv-x="1519" unicode="Ạ"/><glyph d="M512 1044q186 0 313 -110.5t127 -280.5v-653h-204v84q-100 -104 -261 -104q-164 0 -279.5 107.5t-115.5 260.5q0 152 115 253t280 101q160 0 261 -104v55q0 92 -71 139.5t-194 47.5q-135 0 -252 -99v228q117 75 281 75zM518 172q98 0 164 53.5t66 131t-66 131t-164 53.5 q-96 0 -158.5 -52.5t-62.5 -132.5q0 -82 62.5 -133t158.5 -51zM328 -219l164 166l163 -166l-163 -162z" glyph-name="uni1EA1" horiz-adv-x="1054" unicode="ạ"/><glyph d="M760 1901q-31 45 -74 16t-57 -100l-86 116q29 86 90 125t125.5 24.5t105.5 -71.5q70 -92 49.5 -213t-125.5 -186l-86 112q53 25 70 80.5t-12 96.5zM1241 0l-182 506h-598l-182 -506h-218l562 1536h274l561 -1536h-217zM535 711h450l-225 620z" glyph-name="uni1EA2" horiz-adv-x="1519" unicode="Ả"/><glyph d="M578 1389q-31 45 -74 16t-58 -100l-86 116q29 86 90.5 125t126 24.5t105.5 -71.5q70 -92 49.5 -213t-125.5 -186l-86 112q53 25 70 80.5t-12 96.5zM512 1044q186 0 313 -110.5t127 -280.5v-653h-204v84q-100 -104 -261 -104q-164 0 -279.5 107.5t-115.5 260.5 q0 152 115 253t280 101q160 0 261 -104v55q0 92 -71 139.5t-194 47.5q-135 0 -252 -99v228q117 75 281 75zM518 172q98 0 164 53.5t66 131t-66 131t-164 53.5q-96 0 -158.5 -52.5t-62.5 -132.5q0 -82 62.5 -133t158.5 -51z" glyph-name="uni1EA3" horiz-adv-x="1054" unicode="ả"/><glyph d="M1090 2302l-230 -266h-182l147 266h265zM756 1847l-90 -168h-236l211 267h229l211 -267h-235zM1241 0l-182 506h-598l-182 -506h-218l562 1536h274l561 -1536h-217zM535 711h450l-225 620z" glyph-name="uni1EA4" horiz-adv-x="1519" unicode="Ấ"/><glyph d="M907 1790l-229 -266h-182l147 266h264zM573 1335l-90 -168h-235l211 267h229l211 -267h-235zM512 1044q186 0 313 -110.5t127 -280.5v-653h-204v84q-100 -104 -261 -104q-164 0 -279.5 107.5t-115.5 260.5q0 152 115 253t280 101q160 0 261 -104v55q0 92 -71 139.5 t-194 47.5q-135 0 -252 -99v228q117 75 281 75zM518 172q98 0 164 53.5t66 131t-66 131t-164 53.5q-96 0 -158.5 -52.5t-62.5 -132.5q0 -82 62.5 -133t158.5 -51z" glyph-name="uni1EA5" horiz-adv-x="1054" unicode="ấ"/><glyph d="M823 2036h-182l-229 266h264zM870 1946l211 -267h-235l-90 168l-90 -168h-236l211 267h229zM1241 0l-182 506h-598l-182 -506h-218l562 1536h274l561 -1536h-217zM535 711h450l-225 620z" glyph-name="uni1EA6" horiz-adv-x="1519" unicode="Ầ"/><glyph d="M641 1524h-182l-230 266h265zM688 1434l211 -267h-235l-91 168l-90 -168h-235l211 267h229zM512 1044q186 0 313 -110.5t127 -280.5v-653h-204v84q-100 -104 -261 -104q-164 0 -279.5 107.5t-115.5 260.5q0 152 115 253t280 101q160 0 261 -104v55q0 92 -71 139.5 t-194 47.5q-135 0 -252 -99v228q117 75 281 75zM518 172q98 0 164 53.5t66 131t-66 131t-164 53.5q-96 0 -158.5 -52.5t-62.5 -132.5q0 -82 62.5 -133t158.5 -51z" glyph-name="uni1EA7" horiz-adv-x="1054" unicode="ầ"/><glyph d="M999 2150q-31 45 -73.5 16.5t-57.5 -100.5l-86 117q29 86 90.5 125t126 24.5t105.5 -71.5q70 -92 49.5 -213t-125.5 -186l-86 112q53 25 69.5 80t-12.5 96zM756 1847l-90 -168h-236l211 267h229l211 -267h-235zM1241 0l-182 506h-598l-182 -506h-218l562 1536h274 l561 -1536h-217zM535 711h450l-225 620z" glyph-name="uni1EA8" horiz-adv-x="1519" unicode="Ẩ"/><glyph d="M817 1638q-31 45 -74 16.5t-57 -100.5l-86 117q29 86 90.5 125t126 24.5t105.5 -71.5q70 -92 49 -213t-125 -186l-86 112q53 25 69.5 80t-12.5 96zM573 1335l-90 -168h-235l211 267h229l211 -267h-235zM512 1044q186 0 313 -110.5t127 -280.5v-653h-204v84 q-100 -104 -261 -104q-164 0 -279.5 107.5t-115.5 260.5q0 152 115 253t280 101q160 0 261 -104v55q0 92 -71 139.5t-194 47.5q-135 0 -252 -99v228q117 75 281 75zM518 172q98 0 164 53.5t66 131t-66 131t-164 53.5q-96 0 -158.5 -52.5t-62.5 -132.5q0 -82 62.5 -133 t158.5 -51z" glyph-name="uni1EA9" horiz-adv-x="1054" unicode="ẩ"/><glyph d="M473 2011q-53 51 -58 129t45 138.5t146 60.5q72 0 123 -33t71.5 -72t44 -71.5t46.5 -32.5q55 0 55 57q0 70 -72 121q-8 6 -16 10h182q51 -53 56.5 -130t-45 -137t-146.5 -60q-78 0 -130 32.5t-69.5 70.5t-38 71t-42.5 33q-53 0 -54 -56q0 -70 80 -125q4 -4 8 -6h-186z M870 1946l211 -267h-235l-90 168l-90 -168h-236l211 267h229zM1241 0l-182 506h-598l-182 -506h-218l562 1536h274l561 -1536h-217zM535 711h450l-225 620z" glyph-name="uni1EAA" horiz-adv-x="1519" unicode="Ẫ"/><glyph d="M291 1499q-53 51 -58.5 129t45 138.5t146.5 60.5q72 0 123 -33t71.5 -72t44 -71.5t46.5 -32.5q55 0 55 57q0 70 -72 121q-8 6 -16 10h182q51 -53 56.5 -130t-45 -137t-146.5 -60q-78 0 -130 32.5t-69.5 70.5t-38 71t-43.5 33q-53 0 -53 -56q0 -70 80 -125q4 -4 8 -6h-186 zM688 1434l211 -267h-235l-91 168l-90 -168h-235l211 267h229zM512 1044q186 0 313 -110.5t127 -280.5v-653h-204v84q-100 -104 -261 -104q-164 0 -279.5 107.5t-115.5 260.5q0 152 115 253t280 101q160 0 261 -104v55q0 92 -71 139.5t-194 47.5q-135 0 -252 -99v228 q117 75 281 75zM518 172q98 0 164 53.5t66 131t-66 131t-164 53.5q-96 0 -158.5 -52.5t-62.5 -132.5q0 -82 62.5 -133t158.5 -51z" glyph-name="uni1EAB" horiz-adv-x="1054" unicode="ẫ"/><glyph d="M756 1847l-90 -168h-236l211 267h229l211 -267h-235zM1458 0h-217l-182 506h-598l-182 -506h-218l562 1536h274zM535 711h450l-225 620zM592 -219l164 166l164 -166l-164 -162z" glyph-name="uni1EAC" horiz-adv-x="1519" unicode="Ậ"/><glyph d="M573 1335l-90 -168h-235l211 267h229l211 -267h-235zM512 1044q186 0 313 -110.5t127 -280.5v-653h-204v84q-100 -104 -261 -104q-164 0 -279.5 107.5t-115.5 260.5q0 152 115 253t280 101q160 0 261 -104v55q0 92 -71 139.5t-194 47.5q-135 0 -252 -99v228 q117 75 281 75zM518 172q98 0 164 53.5t66 131t-66 131t-164 53.5q-96 0 -158.5 -52.5t-62.5 -132.5q0 -82 62.5 -133t158.5 -51zM328 -219l164 166l163 -166l-163 -162z" glyph-name="uni1EAD" horiz-adv-x="1054" unicode="ậ"/><glyph d="M1090 2306l-230 -266h-182l147 266h265zM755.5 1655q-116.5 0 -188 84t-67.5 207h157q0 -53 28 -91t71 -38t71.5 36.5t28.5 92.5h158q4 -123 -69 -207t-189.5 -84zM1241 0l-182 506h-598l-182 -506h-218l562 1536h274l561 -1536h-217zM535 711h450l-225 620z" glyph-name="uni1EAE" horiz-adv-x="1519" unicode="Ắ"/><glyph d="M907 1794l-229 -266h-182l147 266h264zM573.5 1143q-116.5 0 -188.5 84t-68 207h158q0 -53 27.5 -91t70.5 -38t72 36.5t29 92.5h157q4 -123 -68.5 -207t-189 -84zM512 1044q186 0 313 -110.5t127 -280.5v-653h-204v84q-100 -104 -261 -104q-164 0 -279.5 107.5 t-115.5 260.5q0 152 115 253t280 101q160 0 261 -104v55q0 92 -71 139.5t-194 47.5q-135 0 -252 -99v228q117 75 281 75zM518 172q98 0 164 53.5t66 131t-66 131t-164 53.5q-96 0 -158.5 -52.5t-62.5 -132.5q0 -82 62.5 -133t158.5 -51z" glyph-name="uni1EAF" horiz-adv-x="1054" unicode="ắ"/><glyph d="M823 2040h-182l-229 266h264zM756 1817q43 0 71.5 36.5t28.5 92.5h158q4 -123 -69 -207t-189.5 -84t-188 84t-67.5 207h157q0 -53 28 -91t71 -38zM1241 0l-182 506h-598l-182 -506h-218l562 1536h274l561 -1536h-217zM535 711h450l-225 620z" glyph-name="uni1EB0" horiz-adv-x="1519" unicode="Ằ"/><glyph d="M641 1528h-182l-230 266h265zM573 1305q43 0 72 36.5t29 92.5h157q4 -123 -68.5 -207t-189 -84t-188.5 84t-68 207h158q0 -53 27.5 -91t70.5 -38zM512 1044q186 0 313 -110.5t127 -280.5v-653h-204v84q-100 -104 -261 -104q-164 0 -279.5 107.5t-115.5 260.5 q0 152 115 253t280 101q160 0 261 -104v55q0 92 -71 139.5t-194 47.5q-135 0 -252 -99v228q117 75 281 75zM518 172q98 0 164 53.5t66 131t-66 131t-164 53.5q-96 0 -158.5 -52.5t-62.5 -132.5q0 -82 62.5 -133t158.5 -51z" glyph-name="uni1EB1" horiz-adv-x="1054" unicode="ằ"/><glyph d="M760 2261q-31 45 -74 16.5t-57 -100.5l-86 117q29 86 90 125t125.5 24.5t105.5 -71.5q70 -92 49.5 -213t-125.5 -187l-86 113q53 25 70 80t-12 96zM755.5 1655q-116.5 0 -188 84t-67.5 207h157q0 -53 28 -91t71 -38t71.5 36.5t28.5 92.5h158q4 -123 -69 -207t-189.5 -84z M1241 0l-182 506h-598l-182 -506h-218l562 1536h274l561 -1536h-217zM535 711h450l-225 620z" glyph-name="uni1EB2" horiz-adv-x="1519" unicode="Ẳ"/><glyph d="M578 1749q-31 45 -74 16.5t-58 -100.5l-86 117q29 86 90.5 125t126 24.5t105.5 -71.5q70 -92 49.5 -213t-125.5 -187l-86 113q53 25 70 80t-12 96zM573.5 1143q-116.5 0 -188.5 84t-68 207h158q0 -53 27.5 -91t70.5 -38t72 36.5t29 92.5h157q4 -123 -68.5 -207t-189 -84z M512 1044q186 0 313 -110.5t127 -280.5v-653h-204v84q-100 -104 -261 -104q-164 0 -279.5 107.5t-115.5 260.5q0 152 115 253t280 101q160 0 261 -104v55q0 92 -71 139.5t-194 47.5q-135 0 -252 -99v228q117 75 281 75zM518 172q98 0 164 53.5t66 131t-66 131t-164 53.5 q-96 0 -158.5 -52.5t-62.5 -132.5q0 -82 62.5 -133t158.5 -51z" glyph-name="uni1EB3" horiz-adv-x="1054" unicode="ẳ"/><glyph d="M473 2015q-53 51 -58 129t45 138.5t146 60.5q72 0 123 -33t71.5 -71.5t44 -71.5t46.5 -33q55 0 55 57q0 70 -72 121q-8 6 -16 10h182q51 -53 56.5 -129.5t-45 -137t-146.5 -60.5q-78 0 -130 32.5t-69.5 70.5t-38 71t-42.5 33q-53 0 -54 -56q0 -70 80 -125q4 -4 8 -6h-186 zM756 1817q43 0 71.5 36.5t28.5 92.5h158q4 -123 -69 -207t-189.5 -84t-188 84t-67.5 207h157q0 -53 28 -91t71 -38zM1241 0l-182 506h-598l-182 -506h-218l562 1536h274l561 -1536h-217zM535 711h450l-225 620z" glyph-name="uni1EB4" horiz-adv-x="1519" unicode="Ẵ"/><glyph d="M291 1503q-53 51 -58.5 129t45 138.5t146.5 60.5q72 0 123 -33t71.5 -71.5t44 -71.5t46.5 -33q55 0 55 57q0 70 -72 121q-8 6 -16 10h182q51 -53 56.5 -129.5t-45 -137t-146.5 -60.5q-78 0 -130 32.5t-69.5 70.5t-38 71t-43.5 33q-53 0 -53 -56q0 -70 80 -125q4 -4 8 -6 h-186zM573 1305q43 0 72 36.5t29 92.5h157q4 -123 -68.5 -207t-189 -84t-188.5 84t-68 207h158q0 -53 27.5 -91t70.5 -38zM512 1044q186 0 313 -110.5t127 -280.5v-653h-204v84q-100 -104 -261 -104q-164 0 -279.5 107.5t-115.5 260.5q0 152 115 253t280 101q160 0 261 -104 v55q0 92 -71 139.5t-194 47.5q-135 0 -252 -99v228q117 75 281 75zM518 172q98 0 164 53.5t66 131t-66 131t-164 53.5q-96 0 -158.5 -52.5t-62.5 -132.5q0 -82 62.5 -133t158.5 -51z" glyph-name="uni1EB5" horiz-adv-x="1054" unicode="ẵ"/><glyph d="M755.5 1655q-116.5 0 -188 84t-67.5 207h157q0 -53 28 -91t71 -38t71.5 36.5t28.5 92.5h158q4 -123 -69 -207t-189.5 -84zM1458 0h-217l-182 506h-598l-182 -506h-218l562 1536h274zM535 711h450l-225 620zM592 -219l164 166l164 -166l-164 -162z" glyph-name="uni1EB6" horiz-adv-x="1519" unicode="Ặ"/><glyph d="M573.5 1143q-116.5 0 -188.5 84t-68 207h158q0 -53 27.5 -91t70.5 -38t72 36.5t29 92.5h157q4 -123 -68.5 -207t-189 -84zM512 1044q186 0 313 -110.5t127 -280.5v-653h-204v84q-100 -104 -261 -104q-164 0 -279.5 107.5t-115.5 260.5q0 152 115 253t280 101 q160 0 261 -104v55q0 92 -71 139.5t-194 47.5q-135 0 -252 -99v228q117 75 281 75zM518 172q98 0 164 53.5t66 131t-66 131t-164 53.5q-96 0 -158.5 -52.5t-62.5 -132.5q0 -82 62.5 -133t158.5 -51zM328 -219l164 166l163 -166l-163 -162z" glyph-name="uni1EB7" horiz-adv-x="1054" unicode="ặ"/><glyph d="M1094 1331h-766v-377h653v-204h-653v-545h764v-205h-969v1536h971v-205zM430 -219l164 166l164 -166l-164 -162z" glyph-name="uni1EB8" horiz-adv-x="1185" unicode="Ẹ"/><glyph d="M307 426q25 -113 114 -178.5t222 -65.5q193 0 305 109v-232q-119 -80 -309 -79q-233 0 -389 151.5t-158 380.5q2 223 159 377.5t388 154.5q184 0 289.5 -104t105.5 -258q0 -156 -119.5 -247t-312.5 -91q-166 0 -295 82zM633 840q-104 0 -190.5 -55.5t-123.5 -149.5 q106 -86 277 -86q233 0 233 127q1 164 -196 164zM475 -219l164 166l164 -166l-164 -162z" glyph-name="uni1EB9" horiz-adv-x="1126" unicode="ẹ"/><glyph d="M625 1901q-31 45 -74 16t-57 -100l-86 116q29 86 90 125t125.5 24.5t105.5 -71.5q70 -92 49.5 -213t-125.5 -186l-86 112q53 25 70 80.5t-12 96.5zM1094 1331h-766v-377h653v-204h-653v-545h764v-205h-969v1536h971v-205z" glyph-name="uni1EBA" horiz-adv-x="1185" unicode="Ẻ"/><glyph d="M643 1389q-31 45 -74 16t-57 -100l-86 116q29 86 90.5 125t126 24.5t105.5 -71.5q70 -92 49 -213t-125 -186l-86 112q53 25 69.5 80.5t-12.5 96.5zM307 426q25 -113 114 -178.5t222 -65.5q193 0 305 109v-232q-119 -80 -309 -79q-233 0 -389 151.5t-158 380.5 q2 223 159 377.5t388 154.5q184 0 289.5 -104t105.5 -258q0 -156 -119.5 -247t-312.5 -91q-166 0 -295 82zM633 840q-104 0 -190.5 -55.5t-123.5 -149.5q106 -86 277 -86q233 0 233 127q1 164 -196 164z" glyph-name="uni1EBB" horiz-adv-x="1126" unicode="ẻ"/><glyph d="M338 1655q-53 51 -58.5 129t45 138t146.5 60q72 0 123 -32.5t71.5 -71.5t44 -71.5t46.5 -32.5q55 0 55 57q0 70 -72 121q-8 6 -16 10h182q51 -53 56.5 -130t-45 -137.5t-146.5 -60.5q-78 0 -130 33t-69.5 71t-38 70.5t-43.5 32.5q-53 0 -53 -55q0 -70 80 -125q4 -4 8 -6 h-186zM1094 1331h-766v-377h653v-204h-653v-545h764v-205h-969v1536h971v-205z" glyph-name="uni1EBC" horiz-adv-x="1185" unicode="Ẽ"/><glyph d="M356 1143q-53 51 -58 129t45 138t146 60q72 0 123.5 -32.5t72 -71.5t44 -71.5t45.5 -32.5q55 0 55 57q0 70 -71 121q-8 6 -17 10h183q51 -53 56 -130t-45 -137.5t-147 -60.5q-78 0 -130 33t-69.5 71t-38 70.5t-42.5 32.5q-53 0 -53 -55q0 -70 80 -125q4 -4 8 -6h-187z M307 426q25 -113 114 -178.5t222 -65.5q193 0 305 109v-232q-119 -80 -309 -79q-233 0 -389 151.5t-158 380.5q2 223 159 377.5t388 154.5q184 0 289.5 -104t105.5 -258q0 -156 -119.5 -247t-312.5 -91q-166 0 -295 82zM633 840q-104 0 -190.5 -55.5t-123.5 -149.5 q106 -86 277 -86q233 0 233 127q1 164 -196 164z" glyph-name="uni1EBD" horiz-adv-x="1126" unicode="ẽ"/><glyph d="M954 2302l-229 -266h-182l147 266h264zM621 1847l-91 -168h-235l211 267h229l211 -267h-235zM1094 1331h-766v-377h653v-204h-653v-545h764v-205h-969v1536h971v-205z" glyph-name="uni1EBE" horiz-adv-x="1185" unicode="Ế"/><glyph d="M973 1790l-230 -266h-182l148 266h264zM639 1335l-90 -168h-236l211 267h230l211 -267h-236zM307 426q25 -113 114 -178.5t222 -65.5q193 0 305 109v-232q-119 -80 -309 -79q-233 0 -389 151.5t-158 380.5q2 223 159 377.5t388 154.5q184 0 289.5 -104t105.5 -258 q0 -156 -119.5 -247t-312.5 -91q-166 0 -295 82zM633 840q-104 0 -190.5 -55.5t-123.5 -149.5q106 -86 277 -86q233 0 233 127q1 164 -196 164z" glyph-name="uni1EBF" horiz-adv-x="1126" unicode="ế"/><glyph d="M688 2036h-182l-230 266h265zM735 1946l211 -267h-235l-90 168l-91 -168h-235l211 267h229zM1094 1331h-766v-377h653v-204h-653v-545h764v-205h-969v1536h971v-205z" glyph-name="uni1EC0" horiz-adv-x="1185" unicode="Ề"/><glyph d="M707 1524h-183l-229 266h264zM754 1434l211 -267h-236l-90 168l-90 -168h-236l211 267h230zM307 426q25 -113 114 -178.5t222 -65.5q193 0 305 109v-232q-119 -80 -309 -79q-233 0 -389 151.5t-158 380.5q2 223 159 377.5t388 154.5q184 0 289.5 -104t105.5 -258 q0 -156 -119.5 -247t-312.5 -91q-166 0 -295 82zM633 840q-104 0 -190.5 -55.5t-123.5 -149.5q106 -86 277 -86q233 0 233 127q1 164 -196 164z" glyph-name="uni1EC1" horiz-adv-x="1126" unicode="ề"/><glyph d="M864 2150q-31 45 -73.5 16.5t-57.5 -100.5l-86 117q29 86 90.5 125t126 24.5t105.5 -71.5q70 -92 49 -213t-125 -186l-86 112q53 25 69.5 80t-12.5 96zM621 1847l-91 -168h-235l211 267h229l211 -267h-235zM1094 1331h-766v-377h653v-204h-653v-545h764v-205h-969v1536 h971v-205z" glyph-name="uni1EC2" horiz-adv-x="1185" unicode="Ể"/><glyph d="M883 1638q-31 45 -74 16.5t-57 -100.5l-86 117q29 86 90 125t125.5 24.5t105.5 -71.5q70 -92 49.5 -213t-125.5 -186l-86 112q53 25 70 80t-12 96zM639 1335l-90 -168h-236l211 267h230l211 -267h-236zM1034 682q0 -156 -119.5 -247t-312.5 -91q-166 0 -295 82 q25 -113 114 -178.5t222 -65.5q193 0 305 109v-232q-119 -80 -309 -79q-233 0 -389 151.5t-158 380.5q2 223 159 377.5t388 154.5q184 0 289.5 -104t105.5 -258zM319 635q106 -86 277 -86q233 0 233 127q0 164 -196 164q-104 0 -190.5 -55.5t-123.5 -149.5z" glyph-name="uni1EC3" horiz-adv-x="1126" unicode="ể"/><glyph d="M338 2011q-53 51 -58.5 129t45 138.5t146.5 60.5q72 0 123 -33t71.5 -72t44 -71.5t46.5 -32.5q55 0 55 57q0 70 -72 121q-8 6 -16 10h182q51 -53 56.5 -130t-45 -137t-146.5 -60q-78 0 -130 32.5t-69.5 70.5t-38 71t-43.5 33q-53 0 -53 -56q0 -70 80 -125q4 -4 8 -6h-186 zM735 1946l211 -267h-235l-90 168l-91 -168h-235l211 267h229zM1094 1331h-766v-377h653v-204h-653v-545h764v-205h-969v1536h971v-205z" glyph-name="uni1EC4" horiz-adv-x="1185" unicode="Ễ"/><glyph d="M356 1499q-53 51 -58 129t45 138.5t146 60.5q72 0 123.5 -33t72 -72t44 -71.5t45.5 -32.5q55 0 55 57q0 70 -71 121q-8 6 -17 10h183q51 -53 56 -130t-45 -137t-147 -60q-78 0 -130 32.5t-69.5 70.5t-38 71t-42.5 33q-53 0 -53 -56q0 -70 80 -125q4 -4 8 -6h-187z M754 1434l211 -267h-236l-90 168l-90 -168h-236l211 267h230zM307 426q25 -113 114 -178.5t222 -65.5q193 0 305 109v-232q-119 -80 -309 -79q-233 0 -389 151.5t-158 380.5q2 223 159 377.5t388 154.5q184 0 289.5 -104t105.5 -258q0 -156 -119.5 -247t-312.5 -91 q-166 0 -295 82zM633 840q-104 0 -190.5 -55.5t-123.5 -149.5q106 -86 277 -86q233 0 233 127q1 164 -196 164z" glyph-name="uni1EC5" horiz-adv-x="1126" unicode="ễ"/><glyph d="M621 1847l-91 -168h-235l211 267h229l211 -267h-235zM1094 1331h-766v-377h653v-204h-653v-545h764v-205h-969v1536h971v-205zM430 -219l164 166l164 -166l-164 -162z" glyph-name="uni1EC6" horiz-adv-x="1185" unicode="Ệ"/><glyph d="M639 1335l-90 -168h-236l211 267h230l211 -267h-236zM307 426q25 -113 114 -178.5t222 -65.5q193 0 305 109v-232q-119 -80 -309 -79q-233 0 -389 151.5t-158 380.5q2 223 159 377.5t388 154.5q184 0 289.5 -104t105.5 -258q0 -156 -119.5 -247t-312.5 -91 q-166 0 -295 82zM633 840q-104 0 -190.5 -55.5t-123.5 -149.5q106 -86 277 -86q233 0 233 127q1 164 -196 164zM475 -219l164 166l164 -166l-164 -162z" glyph-name="uni1EC7" horiz-adv-x="1126" unicode="ệ"/><glyph d="M258 1612l-86 112q53 25 69.5 80.5t-12.5 96.5q-31 45 -73.5 16t-57.5 -100l-86 116q29 86 90.5 125t126 24.5t105.5 -71.5q70 -92 49 -212.5t-125 -186.5zM123 1536h205v-1536h-205v1536z" glyph-name="uni1EC8" horiz-adv-x="450" unicode="Ỉ"/><glyph d="M254 1100l-86 112q53 25 69.5 80.5t-12.5 96.5q-31 45 -73.5 16t-57.5 -100l-86 116q29 86 90.5 125t126 24.5t105.5 -71.5q70 -92 49 -212.5t-125 -186.5zM119 1024h205v-1024h-205v1024z" glyph-name="uni1EC9" horiz-adv-x="440" unicode="ỉ"/><glyph d="M123 1536h205v-1536h-205v1536zM225 -53l164 -166l-164 -162l-164 162z" glyph-name="uni1ECA" horiz-adv-x="450" unicode="Ị"/><glyph d="M221 1493l164 -166l-164 -162l-164 162zM119 1024h205v-1024h-205v1024zM221 -53l164 -166l-164 -162l-164 162z" glyph-name="uni1ECB" horiz-adv-x="440" unicode="ị"/><glyph d="M881 -20q-334 0 -561.5 229t-227.5 559t227.5 559t561.5 229q336 0 562 -229t226 -559t-226 -559t-562 -229zM881 184q244 0 413.5 170t169.5 414t-170 414t-413 170q-242 0 -413 -171t-171 -413t171 -413t413 -171zM881 -53l163 -166l-163 -162l-164 162z" glyph-name="uni1ECC" unicode="Ọ"/><glyph d="M624.5 -20q-229.5 0 -381 154.5t-151.5 377.5t151.5 377.5t381.5 154.5q231 0 381.5 -154.5t150.5 -377.5t-151.5 -377.5t-381 -154.5zM624.5 184q139.5 0 233.5 95.5t94 232.5t-94 232.5t-233.5 95.5t-233.5 -95.5t-94 -232.5t94 -232.5t233.5 -95.5zM625 -74l163 -166 l-163 -161l-164 161z" glyph-name="uni1ECD" horiz-adv-x="1249" unicode="ọ"/><glyph d="M913 1612l-86 112q53 25 69.5 80.5t-11.5 96.5q-31 45 -74 16t-57 -100l-86 116q29 86 90 125t125.5 24.5t105.5 -71.5q70 -92 49 -212.5t-125 -186.5zM881 -20q-334 0 -561.5 229t-227.5 559t227.5 559t561.5 229q336 0 562 -229t226 -559t-226 -559t-562 -229zM881 184 q244 0 413.5 170t169.5 414t-170 414t-413 170q-242 0 -413 -171t-171 -413t171 -413t413 -171z" glyph-name="uni1ECE" unicode="Ỏ"/><glyph d="M657 1100l-86 112q53 25 69.5 80.5t-11.5 96.5q-31 45 -74 16t-57 -100l-86 116q29 86 90 125t125.5 24.5t105.5 -71.5q70 -92 49 -212.5t-125 -186.5zM624.5 -20q-229.5 0 -381 154.5t-151.5 377.5t151.5 377.5t381.5 154.5q231 0 381.5 -154.5t150.5 -377.5 t-151.5 -377.5t-381 -154.5zM624.5 184q139.5 0 233.5 95.5t94 232.5t-94 232.5t-233.5 95.5t-233.5 -95.5t-94 -232.5t94 -232.5t233.5 -95.5z" glyph-name="uni1ECF" horiz-adv-x="1249" unicode="ỏ"/><glyph d="M1214 2302l-229 -266h-182l147 266h264zM881 1847l-90 -168h-236l211 267h229l211 -267h-235zM881 1556q336 0 562 -229t226 -559t-226 -559t-562 -229q-334 0 -561.5 229t-227.5 559t227.5 559t561.5 229zM881 184q244 0 413.5 170t169.5 414t-170 414t-413 170 q-242 0 -413 -171t-171 -413t171 -413t413 -171z" glyph-name="uni1ED0" unicode="Ố"/><glyph d="M958 1790l-229 -266h-182l147 266h264zM625 1335l-90 -168h-236l211 267h229l211 -267h-235zM625 1044q231 0 381.5 -154.5t150.5 -377.5t-151.5 -377.5t-381 -154.5t-381 154.5t-151.5 377.5t152 377.5t381 154.5zM624.5 184q139.5 0 233.5 95.5t94 232.5t-94 232.5 t-233.5 95.5t-233.5 -95.5t-94 -232.5t94 -232.5t233.5 -95.5z" glyph-name="uni1ED1" horiz-adv-x="1249" unicode="ố"/><glyph d="M948 2036h-182l-229 266h264zM995 1946l211 -267h-235l-90 168l-90 -168h-236l211 267h229zM881 1556q336 0 562 -229t226 -559t-226 -559t-562 -229q-334 0 -561.5 229t-227.5 559t227.5 559t561.5 229zM881 184q244 0 413.5 170t169.5 414t-170 414t-413 170 q-242 0 -413 -171t-171 -413t171 -413t413 -171z" glyph-name="uni1ED2" unicode="Ồ"/><glyph d="M692 1524h-182l-229 266h264zM739 1434l211 -267h-235l-90 168l-90 -168h-236l211 267h229zM625 1044q231 0 381.5 -154.5t150.5 -377.5t-151.5 -377.5t-381 -154.5t-381 154.5t-151.5 377.5t152 377.5t381 154.5zM624.5 184q139.5 0 233.5 95.5t94 232.5t-94 232.5 t-233.5 95.5t-233.5 -95.5t-94 -232.5t94 -232.5t233.5 -95.5z" glyph-name="uni1ED3" horiz-adv-x="1249" unicode="ồ"/><glyph d="M1124 2150q-31 45 -73.5 16.5t-57.5 -100.5l-86 117q29 86 90.5 125t126 24.5t105.5 -71.5q70 -92 49 -213t-125 -186l-86 112q53 25 69.5 80t-12.5 96zM881 1847l-90 -168h-236l211 267h229l211 -267h-235zM881 1556q336 0 562 -229t226 -559t-226 -559t-562 -229 q-334 0 -561.5 229t-227.5 559t227.5 559t561.5 229zM881 184q244 0 413.5 170t169.5 414t-170 414t-413 170q-242 0 -413 -171t-171 -413t171 -413t413 -171z" glyph-name="uni1ED4" unicode="Ổ"/><glyph d="M868 1638q-31 45 -73.5 16.5t-57.5 -100.5l-86 117q29 86 90.5 125t126 24.5t105.5 -71.5q70 -92 49 -213t-125 -186l-86 112q53 25 69.5 80t-12.5 96zM625 1335l-90 -168h-236l211 267h229l211 -267h-235zM625 1044q231 0 381.5 -154.5t150.5 -377.5t-151.5 -377.5 t-381 -154.5t-381 154.5t-151.5 377.5t152 377.5t381 154.5zM624.5 184q139.5 0 233.5 95.5t94 232.5t-94 232.5t-233.5 95.5t-233.5 -95.5t-94 -232.5t94 -232.5t233.5 -95.5z" glyph-name="uni1ED5" horiz-adv-x="1249" unicode="ổ"/><glyph d="M598 2011q-53 51 -58 129t45 138.5t146 60.5q72 0 123 -33t71.5 -72t44 -71.5t46.5 -32.5q55 0 55 57q0 70 -72 121q-8 6 -16 10h182q51 -53 56.5 -130t-45 -137t-146.5 -60q-78 0 -130 32.5t-69.5 70.5t-38 71t-42.5 33q-53 0 -54 -56q0 -70 80 -125q4 -4 8 -6h-186z M995 1946l211 -267h-235l-90 168l-90 -168h-236l211 267h229zM881 1556q336 0 562 -229t226 -559t-226 -559t-562 -229q-334 0 -561.5 229t-227.5 559t227.5 559t561.5 229zM881 184q244 0 413.5 170t169.5 414t-170 414t-413 170q-242 0 -413 -171t-171 -413t171 -413 t413 -171z" glyph-name="uni1ED6" unicode="Ỗ"/><glyph d="M342 1499q-53 51 -58 129t45 138.5t146 60.5q72 0 123 -33t71.5 -72t44 -71.5t46.5 -32.5q55 0 55 57q0 70 -72 121q-8 6 -16 10h182q51 -53 56.5 -130t-45 -137t-146.5 -60q-78 0 -130 32.5t-69.5 70.5t-38 71t-42.5 33q-53 0 -54 -56q0 -70 80 -125q4 -4 8 -6h-186z M739 1434l211 -267h-235l-90 168l-90 -168h-236l211 267h229zM625 1044q231 0 381.5 -154.5t150.5 -377.5t-151.5 -377.5t-381 -154.5t-381 154.5t-151.5 377.5t152 377.5t381 154.5zM624.5 184q139.5 0 233.5 95.5t94 232.5t-94 232.5t-233.5 95.5t-233.5 -95.5t-94 -232.5 t94 -232.5t233.5 -95.5z" glyph-name="uni1ED7" horiz-adv-x="1249" unicode="ỗ"/><glyph d="M881 1847l-90 -168h-236l211 267h229l211 -267h-235zM881 1556q336 0 562 -229t226 -559t-226 -559t-562 -229q-334 0 -561.5 229t-227.5 559t227.5 559t561.5 229zM881 184q244 0 413.5 170t169.5 414t-170 414t-413 170q-242 0 -413 -171t-171 -413t171 -413t413 -171z M717 -219l164 166l163 -166l-163 -162z" glyph-name="uni1ED8" unicode="Ộ"/><glyph d="M625 1335l-90 -168h-236l211 267h229l211 -267h-235zM625 1044q231 0 381.5 -154.5t150.5 -377.5t-151.5 -377.5t-381 -154.5t-381 154.5t-151.5 377.5t152 377.5t381 154.5zM624.5 184q139.5 0 233.5 95.5t94 232.5t-94 232.5t-233.5 95.5t-233.5 -95.5t-94 -232.5 t94 -232.5t233.5 -95.5zM461 -240l164 166l163 -166l-163 -161z" glyph-name="uni1ED9" horiz-adv-x="1249" unicode="ộ"/><glyph d="M1214 1946l-229 -267h-182l147 267h264zM1384 1380q133 -111 209 -270.5t76 -341.5q0 -330 -226 -559t-562 -229q-334 0 -561.5 229t-227.5 559t227.5 559t561.5 229h340q41 0 65.5 28t24.5 67q0 72 -56 110h207q57 -66 58 -155q-1 -163 -136 -226zM881 184 q244 0 413.5 170t169.5 414t-170 414t-413 170q-242 0 -413 -171t-171 -413t171 -413t413 -171z" glyph-name="uni1EDA" unicode="Ớ"/><glyph d="M958 1434l-229 -267h-182l147 267h264zM1010 887q147 -154 147 -375q0 -223 -151.5 -377.5t-381 -154.5t-381 154.5t-151.5 377.5t151.5 377.5t381.5 154.5h2h186q41 0 65.5 28t24.5 67q0 72 -55 110h207q57 -66 57 -155q0 -137 -102 -207zM624.5 184q139.5 0 233.5 95.5 t94 232.5t-94 232.5t-233.5 95.5t-233.5 -95.5t-94 -232.5t94 -232.5t233.5 -95.5z" glyph-name="uni1EDB" horiz-adv-x="1249" unicode="ớ"/><glyph d="M948 1679h-182l-229 267h264zM1384 1380q133 -111 209 -270.5t76 -341.5q0 -330 -226 -559t-562 -229q-334 0 -561.5 229t-227.5 559t227.5 559t561.5 229h340q41 0 65.5 28t24.5 67q0 72 -56 110h207q57 -66 58 -155q-1 -163 -136 -226zM881 184q244 0 413.5 170 t169.5 414t-170 414t-413 170q-242 0 -413 -171t-171 -413t171 -413t413 -171z" glyph-name="uni1EDC" unicode="Ờ"/><glyph d="M692 1167h-182l-229 267h264zM1010 887q147 -154 147 -375q0 -223 -151.5 -377.5t-381 -154.5t-381 154.5t-151.5 377.5t151.5 377.5t381.5 154.5h2h186q41 0 65.5 28t24.5 67q0 72 -55 110h207q57 -66 57 -155q0 -137 -102 -207zM624.5 184q139.5 0 233.5 95.5t94 232.5 t-94 232.5t-233.5 95.5t-233.5 -95.5t-94 -232.5t94 -232.5t233.5 -95.5z" glyph-name="uni1EDD" horiz-adv-x="1249" unicode="ờ"/><glyph d="M885 1901q-31 45 -74 16t-57 -100l-86 116q29 86 90 125t125.5 24.5t105.5 -71.5q70 -92 49.5 -213t-125.5 -186l-86 112q53 25 70 80.5t-12 96.5zM1384 1380q133 -111 209 -270.5t76 -341.5q0 -330 -226 -559t-562 -229q-334 0 -561.5 229t-227.5 559t227.5 559 t561.5 229h340q41 0 65.5 28t24.5 67q0 72 -56 110h207q57 -66 58 -155q-1 -163 -136 -226zM881 184q244 0 413.5 170t169.5 414t-170 414t-413 170q-242 0 -413 -171t-171 -413t171 -413t413 -171z" glyph-name="uni1EDE" unicode="Ở"/><glyph d="M629 1389q-31 45 -74 16t-57 -100l-86 116q29 86 90 125t125.5 24.5t105.5 -71.5q70 -92 49.5 -213t-125.5 -186l-86 112q53 25 70 80.5t-12 96.5zM1010 887q147 -154 147 -375q0 -223 -151.5 -377.5t-381 -154.5t-381 154.5t-151.5 377.5t151.5 377.5t381.5 154.5h2h186 q41 0 65.5 28t24.5 67q0 72 -55 110h207q57 -66 57 -155q0 -137 -102 -207zM624.5 184q139.5 0 233.5 95.5t94 232.5t-94 232.5t-233.5 95.5t-233.5 -95.5t-94 -232.5t94 -232.5t233.5 -95.5z" glyph-name="uni1EDF" horiz-adv-x="1249" unicode="ở"/><glyph d="M598 1655q-53 51 -58 129t45 138t146 60q72 0 123 -32.5t71.5 -71.5t44 -71.5t46.5 -32.5q55 0 55 57q0 70 -72 121q-8 6 -16 10h182q51 -53 56.5 -130t-45 -137.5t-146.5 -60.5q-78 0 -130 33t-69.5 71t-38 70.5t-42.5 32.5q-53 0 -54 -55q0 -70 80 -125q4 -4 8 -6h-186 zM1384 1380q133 -111 209 -270.5t76 -341.5q0 -330 -226 -559t-562 -229q-334 0 -561.5 229t-227.5 559t227.5 559t561.5 229h340q41 0 65.5 28t24.5 67q0 72 -56 110h207q57 -66 58 -155q-1 -163 -136 -226zM881 184q244 0 413.5 170t169.5 414t-170 414t-413 170 q-242 0 -413 -171t-171 -413t171 -413t413 -171z" glyph-name="uni1EE0" unicode="Ỡ"/><glyph d="M342 1163q-53 51 -58 129t45 138.5t146 60.5q72 0 123 -33t71.5 -71.5t44 -71.5t46.5 -33q55 0 55 57q0 70 -72 121q-8 6 -16 10h182q51 -53 56.5 -129.5t-45 -137t-146.5 -60.5q-78 0 -130 32.5t-69.5 70.5t-38 71t-42.5 33q-53 0 -54 -56q0 -70 80 -125q4 -4 8 -6h-186 zM1235 1094q0 -94 -52.5 -160t-138.5 -86q113 -145 113 -336q0 -223 -151.5 -377.5t-381 -154.5t-381 154.5t-151.5 377.5t151.5 377.5t381.5 154.5h2h309q41 0 65.5 28t24.5 67q0 72 -55 110h207q57 -65 57 -155zM624.5 184q139.5 0 233.5 95.5t94 232.5t-94 232.5 t-233.5 95.5t-233.5 -95.5t-94 -232.5t94 -232.5t233.5 -95.5z" glyph-name="uni1EE1" horiz-adv-x="1249" unicode="ỡ"/><glyph d="M1384 1380q133 -111 209 -270.5t76 -341.5q0 -330 -226 -559t-562 -229q-334 0 -561.5 229t-227.5 559t227.5 559t561.5 229h340q41 0 65.5 28t24.5 67q0 72 -56 110h207q57 -66 58 -155q-1 -163 -136 -226zM881 184q244 0 413.5 170t169.5 414t-170 414t-413 170 q-242 0 -413 -171t-171 -413t171 -413t413 -171zM717 -219l164 166l163 -166l-163 -162z" glyph-name="uni1EE2" unicode="Ợ"/><glyph d="M1010 887q147 -154 147 -375q0 -223 -151.5 -377.5t-381 -154.5t-381 154.5t-151.5 377.5t151.5 377.5t381.5 154.5h2h186q41 0 65.5 28t24.5 67q0 72 -55 110h207q57 -66 57 -155q0 -137 -102 -207zM624.5 184q139.5 0 233.5 95.5t94 232.5t-94 232.5t-233.5 95.5 t-233.5 -95.5t-94 -232.5t94 -232.5t233.5 -95.5zM461 -240l164 166l163 -166l-163 -161z" glyph-name="uni1EE3" horiz-adv-x="1249" unicode="ợ"/><glyph d="M696.5 -20q-247.5 0 -410.5 166.5t-163 406.5v983h205v-983q0 -154 106.5 -261.5t262 -107.5t262 107.5t106.5 261.5v983h205v-983q0 -240 -163 -406.5t-410.5 -166.5zM696 -53l164 -166l-164 -162l-164 162z" glyph-name="uni1EE4" horiz-adv-x="1392" unicode="Ụ"/><glyph d="M807 1024h205v-1024h-205v156q-123 -176 -328 -176q-139 0 -246.5 113.5t-109.5 273.5v657h207v-633q0 -102 51 -154.5t139 -52.5q121 0 204 85t83 214v541zM397 -219l164 166l164 -166l-164 -162z" glyph-name="uni1EE5" horiz-adv-x="1134" unicode="ụ"/><glyph d="M729 1612l-86 112q53 25 69.5 80.5t-12.5 96.5q-31 45 -73.5 16t-57.5 -100l-86 116q29 86 90.5 125t126 24.5t105.5 -71.5q70 -92 49 -212.5t-125 -186.5zM696.5 -20q-247.5 0 -410.5 166.5t-163 406.5v983h205v-983q0 -154 106.5 -261.5t262 -107.5t262 107.5 t106.5 261.5v983h205v-983q0 -240 -163 -406.5t-410.5 -166.5z" glyph-name="uni1EE6" horiz-adv-x="1392" unicode="Ủ"/><glyph d="M565 1389q-31 45 -73.5 16t-57.5 -100l-86 116q29 86 90.5 125t126 24.5t105.5 -71.5q70 -92 49 -213t-125 -186l-86 112q53 25 69.5 80.5t-12.5 96.5zM807 1024h205v-1024h-205v156q-123 -176 -328 -176q-139 0 -246.5 113.5t-109.5 273.5v657h207v-633 q0 -102 51 -154.5t139 -52.5q121 0 204 85t83 214v541z" glyph-name="uni1EE7" horiz-adv-x="1134" unicode="ủ"/><glyph d="M1030 1946l-229 -267h-183l148 267h264zM1450 1585q0 -92 -49 -155.5t-131 -88.5v-788q0 -240 -163 -406.5t-410.5 -166.5t-410.5 166.5t-163 406.5v983h205v-983q0 -154 106.5 -261.5t262 -107.5t262 107.5t106.5 261.5v983h86q41 0 65.5 27.5t24.5 66.5q0 72 -55 111 h207q57 -66 57 -156z" glyph-name="uni1EE8" horiz-adv-x="1392" unicode="Ứ"/><glyph d="M895 1434l-229 -267h-183l148 267h264zM1227 1073q0 -102 -59.5 -168.5t-155.5 -81.5v-823h-205v156q-123 -176 -328 -176q-139 0 -246.5 113.5t-109.5 273.5v657h207v-633q0 -102 51 -154.5t139 -52.5q121 0 204 85t83 214v541h121q41 0 65.5 27.5t24.5 66.5 q0 72 -55 111h206q58 -66 58 -156z" glyph-name="uni1EE9" horiz-adv-x="1282" unicode="ứ"/><glyph d="M764 1679h-182l-230 267h264zM1450 1585q0 -92 -49 -155.5t-131 -88.5v-788q0 -240 -163 -406.5t-410.5 -166.5t-410.5 166.5t-163 406.5v983h205v-983q0 -154 106.5 -261.5t262 -107.5t262 107.5t106.5 261.5v983h86q41 0 65.5 27.5t24.5 66.5q0 72 -55 111h207 q57 -66 57 -156z" glyph-name="uni1EEA" horiz-adv-x="1392" unicode="Ừ"/><glyph d="M629 1167h-183l-229 267h264zM1227 1073q0 -102 -59.5 -168.5t-155.5 -81.5v-823h-205v156q-123 -176 -328 -176q-139 0 -246.5 113.5t-109.5 273.5v657h207v-633q0 -102 51 -154.5t139 -52.5q121 0 204 85t83 214v541h121q41 0 65.5 27.5t24.5 66.5q0 72 -55 111h206 q58 -66 58 -156z" glyph-name="uni1EEB" horiz-adv-x="1282" unicode="ừ"/><glyph d="M700 1901q-31 45 -73.5 16t-57.5 -100l-86 116q29 86 90.5 125t126 24.5t105.5 -71.5q70 -92 49.5 -213t-125.5 -186l-86 112q53 25 69.5 80.5t-12.5 96.5zM1450 1585q0 -92 -49 -155.5t-131 -88.5v-788q0 -240 -163 -406.5t-410.5 -166.5t-410.5 166.5t-163 406.5v983 h205v-983q0 -154 106.5 -261.5t262 -107.5t262 107.5t106.5 261.5v983h86q41 0 65.5 27.5t24.5 66.5q0 72 -55 111h207q57 -66 57 -156z" glyph-name="uni1EEC" horiz-adv-x="1392" unicode="Ử"/><glyph d="M565 1389q-31 45 -73.5 16t-57.5 -100l-86 116q29 86 90.5 125t126 24.5t105.5 -71.5q70 -92 49 -213t-125 -186l-86 112q53 25 69.5 80.5t-12.5 96.5zM1227 1073q0 -102 -59.5 -168.5t-155.5 -81.5v-823h-205v156q-123 -176 -328 -176q-139 0 -246.5 113.5t-109.5 273.5 v657h207v-633q0 -102 51 -154.5t139 -52.5q121 0 204 85t83 214v541h121q41 0 65.5 27.5t24.5 66.5q0 72 -55 111h206q58 -66 58 -156z" glyph-name="uni1EED" horiz-adv-x="1282" unicode="ử"/><glyph d="M414 1655q-53 51 -58.5 129t45 138t146.5 60q72 0 123 -32.5t71.5 -71.5t44 -71.5t45.5 -32.5q55 0 56 57q0 70 -72 121q-8 6 -16 10h182q51 -53 56 -130t-45 -137.5t-146 -60.5q-78 0 -130 33t-69.5 71t-38 70.5t-43.5 32.5q-53 0 -53 -55q0 -70 80 -125q4 -4 8 -6h-186 zM1450 1585q0 -92 -49 -155.5t-131 -88.5v-788q0 -240 -163 -406.5t-410.5 -166.5t-410.5 166.5t-163 406.5v983h205v-983q0 -154 106.5 -261.5t262 -107.5t262 107.5t106.5 261.5v983h86q41 0 65.5 27.5t24.5 66.5q0 72 -55 111h207q57 -66 57 -156z" glyph-name="uni1EEE" horiz-adv-x="1392" unicode="Ữ"/><glyph d="M279 1143q-53 51 -58.5 129t44.5 138t147 60q72 0 123 -32.5t71.5 -71.5t44 -71.5t45.5 -32.5q55 0 56 57q0 70 -72 121q-8 6 -16 10h182q51 -53 56 -130t-45 -137.5t-146 -60.5q-78 0 -130.5 33t-69.5 71t-37.5 70.5t-43.5 32.5q-53 0 -53 -55q0 -70 80 -125q4 -4 8 -6 h-186zM1227 1073q0 -102 -59.5 -168.5t-155.5 -81.5v-823h-205v156q-123 -176 -328 -176q-139 0 -246.5 113.5t-109.5 273.5v657h207v-633q0 -102 51 -154.5t139 -52.5q121 0 204 85t83 214v541h121q41 0 65.5 27.5t24.5 66.5q0 72 -55 111h206q58 -66 58 -156z" glyph-name="uni1EEF" horiz-adv-x="1282" unicode="ữ"/><glyph d="M1450 1585q0 -92 -49 -155.5t-131 -88.5v-788q0 -240 -163 -406.5t-410.5 -166.5t-410.5 166.5t-163 406.5v983h205v-983q0 -154 106.5 -261.5t262 -107.5t262 107.5t106.5 261.5v983h86q41 0 65.5 27.5t24.5 66.5q0 72 -55 111h207q57 -66 57 -156zM532 -219l164 166 l164 -166l-164 -162z" glyph-name="uni1EF0" horiz-adv-x="1392" unicode="Ự"/><glyph d="M1227 1073q0 -102 -59.5 -168.5t-155.5 -81.5v-823h-205v156q-123 -176 -328 -176q-139 0 -246.5 113.5t-109.5 273.5v657h207v-633q0 -102 51 -154.5t139 -52.5q121 0 204 85t83 214v541h121q41 0 65.5 27.5t24.5 66.5q0 72 -55 111h206q58 -66 58 -156zM397 -219 l164 166l164 -166l-164 -162z" glyph-name="uni1EF1" horiz-adv-x="1282" unicode="ự"/><glyph d="M780 1679h-182l-229 267h264zM1358 1536l-543 -944v-592h-205v586l-549 950h236l414 -739l411 739h236z" glyph-name="Ygrave" horiz-adv-x="1419" unicode="Ỳ"/><glyph d="M723 1167h-182l-230 267h264zM1022 1024h227l-475 -1024l-182 -410h-223l180 410l-488 1024h228l370 -819h3z" glyph-name="ygrave" horiz-adv-x="1310" unicode="ỳ"/><glyph d="M610 0v586l-549 950h236l414 -739l411 739h236l-543 -944v-592h-205zM549 -219l164 166l164 -166l-164 -162z" glyph-name="uni1EF4" horiz-adv-x="1419" unicode="Ỵ"/><glyph d="M1249 1024l-475 -1024l-182 -410h-223l180 410l-488 1024h228l370 -819h3l360 819h227zM725 -246l164 166l164 -166l-164 -162z" glyph-name="uni1EF5" horiz-adv-x="1310" unicode="ỵ"/><glyph d="M717 1901q-31 45 -74 16t-57 -100l-86 116q29 86 90 125t125.5 24.5t105.5 -71.5q70 -92 49.5 -213t-125.5 -186l-86 112q53 25 70 80.5t-12 96.5zM1358 1536l-543 -944v-592h-205v586l-549 950h236l414 -739l411 739h236z" glyph-name="uni1EF6" horiz-adv-x="1419" unicode="Ỷ"/><glyph d="M659 1389q-31 45 -73.5 16t-57.5 -100l-86 116q29 86 90.5 125t126 24.5t105.5 -71.5q70 -92 49.5 -213t-125.5 -186l-86 112q53 25 69.5 80.5t-12.5 96.5zM1022 1024h227l-475 -1024l-182 -410h-223l180 410l-488 1024h228l370 -819h3z" glyph-name="uni1EF7" horiz-adv-x="1310" unicode="ỷ"/><glyph d="M430 1655q-53 51 -58 129t45 138t146 60q72 0 123 -32.5t71.5 -71.5t44 -71.5t46.5 -32.5q55 0 55 57q0 70 -72 121q-8 6 -16 10h182q51 -53 56.5 -130t-45 -137.5t-146.5 -60.5q-78 0 -130 33t-69.5 71t-38 70.5t-42.5 32.5q-53 0 -54 -55q0 -70 80 -125q4 -4 8 -6h-186 zM1358 1536l-543 -944v-592h-205v586l-549 950h236l414 -739l411 739h236z" glyph-name="uni1EF8" horiz-adv-x="1419" unicode="Ỹ"/><glyph d="M373 1143q-53 51 -58.5 129t45 138t146.5 60q72 0 123 -32.5t71.5 -71.5t44 -71.5t46.5 -32.5q55 0 55 57q0 70 -72 121q-8 6 -16 10h182q51 -53 56 -130t-45 -137.5t-146 -60.5q-78 0 -130 33t-69.5 71t-38 70.5t-43.5 32.5q-53 0 -53 -55q0 -70 80 -125q4 -4 8 -6h-186 zM1022 1024h227l-475 -1024l-182 -410h-223l180 410l-488 1024h228l370 -819h3z" glyph-name="uni1EF9" horiz-adv-x="1310" unicode="ỹ"/><glyph d="M92 457v205h961v-205h-961z" glyph-name="endash" horiz-adv-x="1144" unicode="–"/><glyph d="M92 457v205h1165v-205h-1165z" glyph-name="emdash" horiz-adv-x="1349" unicode="—"/><glyph d="M340 1536l82 -492h-125l-195 492h238z" glyph-name="quoteleft" horiz-adv-x="524" unicode="‘"/><glyph d="M184 1536h238l-195 -492h-125z" glyph-name="quoteright" horiz-adv-x="524" unicode="’"/><glyph d="M102 -238l181 459l196 -92l-231 -434z" glyph-name="quotesinglbase" horiz-adv-x="581" unicode="‚"/><glyph d="M340 1536l82 -492h-125l-195 492h238zM629 1536l82 -492h-125l-195 492h238z" glyph-name="quotedblleft" horiz-adv-x="813" unicode="“"/><glyph d="M184 1536h238l-195 -492h-125zM473 1536h238l-195 -492h-125z" glyph-name="quotedblright" horiz-adv-x="813" unicode="”"/><glyph d="M102 -238l181 459l196 -92l-231 -434z" glyph-name="quotedblbase" horiz-adv-x="581" unicode="„"/><glyph d="M707 1315v-205h-205v-598h-205v598h-205v205h205v221h205v-221h205z" glyph-name="dagger" horiz-adv-x="798" unicode="†"/><glyph d="M707 1110h-205v-174h205v-205h-205v-219h-205v219h-205v205h205v174h-205v205h205v221h205v-221h205v-205z" glyph-name="daggerdbl" horiz-adv-x="798" unicode="‡"/><glyph d="M389 885l297 -301l-297 -293l-297 293z" glyph-name="bullet" horiz-adv-x="778" unicode="•"/><glyph d="M266 307l164 -166l-164 -161l-164 161zM614 307l164 -166l-164 -161l-163 161zM963 307l163 -166l-163 -161l-164 161z" glyph-name="ellipsis" horiz-adv-x="1228" unicode="…"/><glyph d="M381 979q-119 0 -204 85t-85 203.5t85 203.5t204 85q121 0 206 -85t85 -203.5t-85 -203.5t-206 -85zM987 1536h234l-840 -1536h-234zM381 1372q-43 0 -74 -31.5t-31 -72.5q0 -43 31 -75t74 -32q45 0 75.5 32t30.5 75t-30.5 73.5t-75.5 30.5zM1382 559q119 0 204 -86 t85 -204.5t-85 -203.5t-204 -85q-115 0 -198 77q-84 -78 -197 -77q-121 0 -205 85t-84 203.5t84 204.5t205 86q113 0 197 -80q83 80 198 80zM987 164q43 0 74 31.5t31 72.5q0 43 -31 75t-74 32q-45 0 -75.5 -32t-30.5 -75t30.5 -73.5t75.5 -30.5zM1382 164q43 0 74 31.5 t31 72.5q0 43 -31 75t-74 32q-45 0 -75.5 -32t-30.5 -75t31.5 -73.5t74.5 -30.5z" glyph-name="perthousand" horiz-adv-x="1763" unicode="‰"/><glyph d="M715 1024l-373 -512l373 -512h-254l-369 512l369 512h254z" glyph-name="guilsinglleft" horiz-adv-x="776" unicode="‹"/><glyph d="M315 1024l369 -512l-369 -512h-254l373 512l-373 512h254z" glyph-name="guilsinglright" horiz-adv-x="776" unicode="›"/><glyph d="M61 0l768 1536h230l-768 -1536h-230z" glyph-name="fraction" horiz-adv-x="1120" unicode="⁄"/><glyph d="M403.5 602q-143.5 0 -227.5 135t-84 336q0 203 84 338t227.5 135t227.5 -135t84 -338q0 -201 -84 -336t-227.5 -135zM403.5 791q59.5 0 91 79.5t31.5 202.5q0 125 -31.5 205t-91 80t-91 -80t-31.5 -205q0 -123 31.5 -202.5t91 -79.5z" glyph-name="uni2070" horiz-adv-x="806" unicode="⁰"/><glyph d="M770 1063v-189h-92v-260h-189v260h-428l332 662h213l-239 -473h122v166h189v-166h92z" glyph-name="uni2074" horiz-adv-x="892" unicode="⁴"/><glyph d="M354 1235q131 0 221.5 -93t90.5 -227q0 -129 -91.5 -221t-218.5 -92q-164 0 -264 113v221q39 -53 101.5 -99t132 -46t110.5 38.5t41 96.5q0 55 -34.5 94t-88.5 39h-262v477h508v-184h-324v-117h78z" glyph-name="uni2075" horiz-adv-x="757" unicode="⁵"/><glyph d="M420 1231q123 0 213 -90t90 -219q0 -133 -92 -226.5t-223 -93.5q-133 0 -224.5 93t-91.5 227q0 84 43 165l227 449h211zM408 786q53 0 93 40t40 95.5t-40 95.5t-93 40q-55 0 -94.5 -40t-39.5 -95.5t39.5 -95.5t94.5 -40z" glyph-name="uni2076" horiz-adv-x="815" unicode="⁶"/><glyph d="M852 1536l-494 -922h-206l391 738h-420v184h729z" glyph-name="uni2077" horiz-adv-x="913" unicode="⁷"/><glyph d="M600 1147q113 -92 113 -238q0 -127 -92.5 -218t-219.5 -91t-218 91t-91 218q0 143 111 238q-49 70 -49 151q2 102 74.5 175t175 73t175 -72.5t72.5 -175.5q0 -83 -51 -151zM406 1376q-33 0 -55.5 -22.5t-22.5 -55t22.5 -55t55.5 -22.5q31 0 53 22.5t22 55t-22 55 t-53 22.5zM401 788q51 0 87 36t36 85q0 51 -35.5 87t-87.5 36q-49 0 -84.5 -35.5t-35.5 -87t35.5 -86.5t84.5 -35z" glyph-name="uni2078" horiz-adv-x="804" unicode="⁸"/><glyph d="M377 1546q133 0 224 -93t91 -226q0 -80 -45 -166l-227 -449h-211l156 306q-121 0 -212.5 89t-91.5 220t91.5 225t224.5 94zM377 1092q53 0 92 39.5t39 95t-39 95.5t-92 40q-55 0 -93 -40t-38 -95.5t38 -95t93 -39.5z" glyph-name="uni2079" horiz-adv-x="784" unicode="⁹"/><glyph d="M403.5 -10q-143.5 0 -227.5 135t-84 336q0 203 84 338t227.5 135t227.5 -135t84 -338q0 -201 -84 -336t-227.5 -135zM403.5 178q59.5 0 91 80t31.5 203q0 125 -31.5 204.5t-91 79.5t-91 -79.5t-31.5 -204.5q0 -123 31.5 -203t91 -80z" glyph-name="uni2080" horiz-adv-x="806" unicode="₀"/><glyph d="M244 922h186v-922h-184v664l-185 -189v264z" glyph-name="uni2081" horiz-adv-x="552" unicode="₁"/><glyph d="M590 418l-168 -234h235v-184h-596l373 518q45 63 45 113q0 119 -135 119q-133 0 -254 -187l2 238q88 133 264 133q133 0 220.5 -88t87.5 -215q0 -109 -74 -213z" glyph-name="uni2082" horiz-adv-x="755" unicode="₂"/><glyph d="M524 539q127 -88 127 -238q0 -131 -92 -221t-231 -90q-147 0 -236 114v207q106 -137 236 -137q68 0 103.5 38t35.5 99.5t-40 93t-105 31.5v164q29 0 51 21.5t22 56.5q0 31 -27.5 51.5t-82.5 20.5q-106 0 -193 -78v188q66 74 205 74q125 0 204 -73t79 -173 q-1 -79 -56 -149z" glyph-name="uni2083" horiz-adv-x="743" unicode="₃"/><glyph d="M770 449v-189h-92v-260h-189v260h-428l332 662h213l-239 -473h122v165h189v-165h92z" glyph-name="uni2084" horiz-adv-x="892" unicode="₄"/><glyph d="M354 623q131 0 221.5 -93.5t90.5 -226.5q0 -129 -91.5 -221t-218.5 -92q-164 0 -264 112v222q39 -53 101.5 -99.5t132 -46.5t110.5 39t41 96q0 55 -34.5 94t-88.5 39h-262v478h508v-185h-324v-116h78z" glyph-name="uni2085" horiz-adv-x="757" unicode="₅"/><glyph d="M420 618q123 0 213 -90t90 -219q0 -133 -92 -226t-223 -93q-133 0 -224.5 93t-91.5 226q0 84 43 166l227 449h211zM408 174q53 0 93 40t40 95.5t-40 95t-93 39.5q-55 0 -94.5 -39.5t-39.5 -95t39.5 -95.5t94.5 -40z" glyph-name="uni2086" horiz-adv-x="815" unicode="₆"/><glyph d="M852 922l-494 -922h-206l391 737h-420v185h729z" glyph-name="uni2087" horiz-adv-x="913" unicode="₇"/><glyph d="M600 537q113 -92 113 -238q0 -127 -92.5 -218t-219.5 -91t-218 91t-91 218q0 143 111 238q-49 70 -49 151q2 102 74.5 175t175 73t175 -72.5t72.5 -175.5q0 -83 -51 -151zM406 766q-33 0 -55.5 -22.5t-22.5 -55.5t22.5 -55.5t55.5 -22.5q31 0 53 22.5t22 55.5t-22 55.5 t-53 22.5zM401 178q51 0 87 36t36 85q0 51 -35.5 87t-87.5 36q-49 0 -84.5 -36t-35.5 -87t35.5 -86t84.5 -35z" glyph-name="uni2088" horiz-adv-x="804" unicode="₈"/><glyph d="M377 934q133 0 224 -93t91 -227q0 -80 -45 -165l-227 -449h-211l156 305q-121 0 -212.5 89t-91.5 220t91.5 225.5t224.5 94.5zM377 479q53 0 92 40t39 95.5t-39 95.5t-92 40q-55 0 -93 -40t-38 -95.5t38 -95.5t93 -40z" glyph-name="uni2089" horiz-adv-x="784" unicode="₉"/><glyph d="M1741 1024v-82h-135l-187 -942h-305l-160 942h-106l-158 -942h-307l-186 942h-136v82h119l-102 512h209l96 -512h285l86 512h295l86 -512h284l97 512h208l-102 -512h119zM862 1024h78l-39 229zM535 215l120 727h-258zM1270 221l135 721h-256z" glyph-name="uni20A9" horiz-adv-x="1802" unicode="₩"/><glyph d="M983 1352q-205 0 -361.5 -122t-203.5 -315h489v-81h-504q-4 -41 -4 -66q0 -39 2 -57h506v-82h-491q45 -197 202.5 -321t364.5 -124q279 0 533 262v-266q-221 -201 -533 -200q-297 0 -512 184t-264 465h-115v82h105q-2 18 -2 57q0 43 2 66h-105v81h115q51 279 266 460 t510 181q311 0 533 -200v-264q-257 260 -533 260z" glyph-name="Euro" horiz-adv-x="1607" unicode="€"/><glyph d="M944 616h205q0 -256 -180.5 -436t-433.5 -180h-205v434l-207 -151v268l207 151v101l-207 -152v269l207 151v465h205v-315l206 151v-268l-206 -152v-100l206 152v-269l-206 -151v-379q170 0 289.5 119.5t119.5 291.5z" glyph-name="uni20BA" horiz-adv-x="1220" unicode="₺"/><glyph d="M901 1536q213 0 364.5 -150.5t151.5 -363.5q0 -215 -151.5 -365.5t-364.5 -150.5h-354v-103h219v-204h-219v-199h-205v199h-219v204h219v103h-219v205h219v825h559zM901 711q131 0 221 91t90 220q0 127 -91 218t-220 91h-354v-620h354z" glyph-name="uni20BD" horiz-adv-x="1488" unicode="₽"/><glyph d="M327.5 1024q-110.5 0 -188.5 79t-78 187.5t78 187t188.5 78.5t188.5 -78.5t78 -187t-78 -187.5t-188.5 -79zM1350 -20q-336 0 -562.5 229t-226.5 559t226.5 559t562.5 229q311 0 532 -200v-264q-256 260 -532 260q-246 0 -415 -168t-169 -416t169 -416t415 -168 q279 0 532 262v-266q-221 -200 -532 -200zM327.5 1153q57.5 0 98.5 40t41 97.5t-41 98.5t-98.5 41t-97.5 -41t-40 -98.5t40 -97.5t97.5 -40z" glyph-name="uni2103" horiz-adv-x="1974" unicode="℃"/><glyph d="M327.5 1556q110.5 0 188.5 -78.5t78 -187t-78 -187.5t-188.5 -79t-188.5 79t-78 187.5t78 187t188.5 78.5zM1665 1331h-764v-377h653v-204h-653v-750h-205v1536h969v-205zM327.5 1153q57.5 0 98.5 40t41 97.5t-41 98.5t-98.5 41t-97.5 -41t-40 -98.5t40 -97.5t97.5 -40z " glyph-name="uni2109" horiz-adv-x="1736" unicode="℉"/><glyph d="M688 184q285 0 539 379v-327q-264 -256 -539 -256q-127 0 -209 104q-182 -104 -356 -104v204q133 0 268 84q-37 145 -31.5 324.5t48.5 357.5q43 174 105 303t162.5 216t221.5 87q125 0 198.5 -63t88 -173t-14 -248t-98.5 -294q-158 -350 -428 -577q20 -17 45 -17z M608 907q-66 -276 -43 -501q197 193 324 464q63 135 89 244t5.5 173.5t-86.5 64.5q-90 0 -167 -126t-122 -319z" glyph-name="afii61289" horiz-adv-x="1349" unicode="ℓ"/><glyph d="M1945.5 489q-229.5 0 -381 155t-151.5 378t151.5 377.5t381.5 154.5q231 0 381.5 -154.5t150.5 -377.5t-151.5 -378t-381 -155zM1106 369v1167h205v-1536h-205l-778 1167v-1167h-205v1536h205zM1945.5 1350q-139.5 0 -233.5 -95.5t-94 -232.5t94 -232.5t233.5 -95.5 t233.5 95.5t94 232.5t-94 232.5t-233.5 95.5zM1485 205v205h921v-205h-921z" glyph-name="afii61352" horiz-adv-x="2600" unicode="№"/><glyph d="M813 1536v-158h-281v-661h-159v661h-281v158h721zM1817 1536v-819h-160v561l-213 -561h-158l-213 563v-563h-158v819h205l246 -621l246 621h205z" glyph-name="trademark" horiz-adv-x="1908" unicode="™"/><glyph d="M1362 496h-1045v-273q72 -82 178.5 -132t231.5 -50q309 0 496 303v-145q-207 -240 -496 -240q-262 0 -448.5 186.5t-186.5 448.5q0 268 180.5 451.5t454.5 183.5q262 0 448.5 -186.5t186.5 -448.5v-98zM727 1147q-254 0 -410 -174v-395h820v389q-68 74 -174.5 127 t-235.5 53z" glyph-name="estimated" horiz-adv-x="1454" unicode="℮"/><glyph d="M276 614v664l-184 -188v264l182 182h187v-922h-185zM1044 1536h230l-768 -1536h-230zM1487 537q113 -92 112 -238q0 -127 -92 -218t-219 -91t-218 91t-91 218q0 143 111 238q-49 70 -50 151q2 102 75 175t175.5 73t175 -72.5t72.5 -175.5q0 -83 -51 -151zM1292 766 q-33 0 -55.5 -22.5t-22.5 -55.5t23 -55.5t55 -22.5q31 0 53.5 22.5t22.5 55.5t-22.5 55.5t-53.5 22.5zM1288 178q51 0 87 36t36 85q0 51 -36 87t-87 36q-49 0 -85 -36t-36 -87t36 -86t85 -35z" glyph-name="oneeighth" horiz-adv-x="1691" unicode="⅛"/><glyph d="M651 913q0 -131 -92 -221t-231 -90q-147 0 -236 115v207q106 -137 236 -138q68 0 103.5 38t35.5 99.5t-40 93.5t-105 32v163q29 0 51 21.5t22 56.5q0 31 -27.5 51.5t-82.5 20.5q-106 0 -193 -78v189q66 74 205 73q125 0 204 -72.5t79 -173.5q0 -80 -56 -149 q127 -88 127 -238zM1167 1536h230l-768 -1536h-230zM1610 537q113 -92 112 -238q0 -127 -92 -218t-219 -91t-218 91t-91 218q0 143 110 238q-49 70 -49 151q2 102 75 175t175.5 73t175 -72.5t72.5 -175.5q0 -83 -51 -151zM1415 766q-33 0 -55.5 -22.5t-22.5 -55.5 t22.5 -55.5t55.5 -22.5q31 0 53.5 22.5t22.5 55.5t-22.5 55.5t-53.5 22.5zM1411 178q51 0 87 36t36 85q0 51 -36 87t-87 36q-49 0 -85 -36t-36 -87t36 -86t85 -35z" glyph-name="threeeighths" horiz-adv-x="1814" unicode="⅜"/><glyph d="M666 915q0 -129 -91.5 -221t-218.5 -92q-164 0 -264 113v221q39 -53 101.5 -99t132 -46t110.5 38.5t41 96.5q0 55 -34.5 94t-88.5 39h-262v477h508v-184h-324v-117h78q131 0 221.5 -93.5t90.5 -226.5zM1167 1536h230l-768 -1536h-230zM1610 537q113 -92 112 -238 q0 -127 -92 -218t-219 -91t-218 91t-91 218q0 143 110 238q-49 70 -49 151q2 102 75 175t175.5 73t175 -72.5t72.5 -175.5q0 -83 -51 -151zM1415 766q-33 0 -55.5 -22.5t-22.5 -55.5t22.5 -55.5t55.5 -22.5q31 0 53.5 22.5t22.5 55.5t-22.5 55.5t-53.5 22.5zM1411 178 q51 0 87 36t36 85q0 51 -36 87t-87 36q-49 0 -85 -36t-36 -87t36 -86t85 -35z" glyph-name="fiveeighths" horiz-adv-x="1814" unicode="⅝"/><glyph d="M328 614h-207l391 738h-420v184h729zM1075 1536h230l-768 -1536h-230zM1518 537q113 -92 112 -238q0 -127 -92 -218t-219 -91t-218 91t-91 218q0 143 110 238q-49 70 -49 151q2 102 75 175t175 73t175 -72.5t73 -175.5q0 -83 -51 -151zM1323 766q-33 0 -55.5 -22.5 t-22.5 -55.5t22.5 -55.5t55.5 -22.5q31 0 53.5 22.5t22.5 55.5t-22.5 55.5t-53.5 22.5zM1319 178q51 0 87 36t36 85q0 51 -36 87t-87 36q-49 0 -85 -36t-36 -87t36 -86t85 -35z" glyph-name="seveneighths" horiz-adv-x="1722" unicode="⅞"/><glyph d="M2193 801v-207h-1679l477 -479l-143 -144l-725 725l725 723l143 -143l-473 -475h1675z" glyph-name="arrowleft" horiz-adv-x="2316" unicode="←"/><glyph d="M1573 829l-143 -143l-480 477v-1169h-207v1165l-475 -475l-145 145l725 725z" glyph-name="arrowup" horiz-adv-x="1695" unicode="↑"/><glyph d="M1470 1419l723 -723l-723 -725l-143 144l475 479h-1679v207h1675l-473 475z" glyph-name="arrowright" horiz-adv-x="2316" unicode="→"/><glyph d="M1430 850l143 -145l-725 -725l-725 725l145 145l477 -475v1161h205v-1165z" glyph-name="arrowdown" horiz-adv-x="1695" unicode="↓"/><glyph d="M1610 1450l725 -725l-725 -725l-144 143l480 482h-1434l479 -482l-143 -143l-725 725l725 725l145 -145l-475 -476h1421l-475 476z" glyph-name="arrowboth" horiz-adv-x="2457" unicode="↔"/><glyph d="M922 270l442 453l149 -152l-696 -694l-694 694l149 150l445 -453v959l-445 -453l-149 150l694 694l696 -694l-149 -152l-442 453v-955z" glyph-name="arrowupdn" horiz-adv-x="1636" unicode="↕"/><glyph d="M1661 145l-145 -145l-1188 1188l-2 -676h-203v1024h1024v-205h-672z" glyph-name="uni2196" horiz-adv-x="1783" unicode="↖"/><glyph d="M637 1536h1024v-1024h-203l-2 676l-1188 -1188l-145 145l1186 1186h-672v205z" glyph-name="uni2197" horiz-adv-x="1783" unicode="↗"/><glyph d="M1454 1024h205v-1024h-1024v203l676 2l-1188 1188l145 145l1186 -1186v672z" glyph-name="uni2198" horiz-adv-x="1781" unicode="↘"/><glyph d="M1659 1393l-1188 -1188l676 -2v-203h-1024v1024h205v-672l1185 1186z" glyph-name="uni2199" horiz-adv-x="1781" unicode="↙"/><glyph d="M625 1556q231 0 381.5 -151.5t150.5 -370.5v-522q0 -223 -151.5 -377.5t-381 -154.5t-381 154.5t-151.5 377.5t151.5 377.5t381.5 154.5q188 0 327 -106v96q0 133 -93 225.5t-234.5 92.5t-234.5 -92.5t-93 -225.5h-205q0 219 152 370.5t381 151.5zM624.5 184 q139.5 0 233.5 95.5t94 232.5t-94 232.5t-233.5 95.5t-233.5 -95.5t-94 -232.5t94 -232.5t233.5 -95.5z" glyph-name="partialdiff" horiz-adv-x="1280" unicode="∂"/><glyph d="M883 1556q326 0 556 -230t230 -556q0 -328 -230.5 -559t-555.5 -231q-328 0 -559.5 231t-231.5 559q0 326 231.5 556t559.5 230zM1182 1358q-143 72 -299 72q-162 0 -297 -70l297 -217zM625 956l149 109l-244 176zM993 1063l150 -107l92 283zM401 1223 q-180 -190 -180 -453q0 -57 8 -98l285 207zM1542 770q0 260 -178 449l-113 -342l283 -205q8 43 8 98zM752 582h266l82 247l-215 156l-217 -156zM1208 750l-55 -168h289zM612 582l-55 168l-231 -168h286zM301 453q72 -131 193.5 -219.5t271.5 -114.5l-111 334h-354zM975 453 h-180l92 -273zM999 119q147 27 268.5 115t194.5 219h-352z" glyph-name="emptyset" unicode="∅"/><glyph d="M1116 1536v-205h-246v-1741h-204v1741h-123v-1741h-205v1741h-246v205h1024z" glyph-name="product" horiz-adv-x="1208" unicode="∏"/><glyph d="M924 1536v-205h-578l475 -665v-205l-475 -666h578v-205h-832v205l549 768l-549 768v205h832z" glyph-name="summation" horiz-adv-x="1015" unicode="∑"/><glyph d="M92 532v205h897v-205h-897z" glyph-name="minus" horiz-adv-x="1081" unicode="−"/><glyph d="M860 1536h211l-453 -1946h-204l-291 1024h215l170 -694z" glyph-name="radical" horiz-adv-x="1163" unicode="√"/><glyph d="M1362 1124q186 0 318 -132t132 -318.5t-132 -318.5t-318 -132q-135 0 -244.5 72t-165.5 190q-55 -119 -164.5 -190.5t-244.5 -71.5q-186 0 -318.5 132t-132.5 318.5t132 318.5t319 132q135 0 244.5 -71.5t164.5 -190.5q55 119 165 190.5t245 71.5zM542.5 428 q102.5 0 174 71.5t71.5 174t-71.5 174.5t-174 72t-174 -72t-71.5 -174.5t71.5 -174t174 -71.5zM1362 428q102 0 174 71.5t72 174t-72 174.5t-174 72t-174 -72t-72 -174.5t72 -174t174 -71.5z" glyph-name="infinity" horiz-adv-x="1904" unicode="∞"/><glyph d="M-20 -352v225q59 -115 198 -115q186 0 187 193v1278q0 158 97 242.5t267 84.5q137 0 227 -77v-226q-59 115 -200 115q-186 0 -187 -192v-1278q0 -158 -96 -243t-266 -85q-139 0 -227 78z" glyph-name="integral" horiz-adv-x="1017" unicode="∫"/><glyph d="M133 582q-47 94 -39 185t77 158.5t171 67.5q80 0 137.5 -34.5t118.5 -102.5q4 -4 14.5 -16.5t13.5 -15.5l12 -12l12 -12l10.5 -10.5t11.5 -9.5t11 -6t12 -5t12.5 -2t13.5 -1q33 0 46 28.5t1 78t-49 100.5h215q82 -133 15.5 -272.5t-222.5 -139.5q-133 0 -260 139 q-6 6 -17.5 18.5t-15.5 16.5t-12 13.5t-11 12.5t-10.5 8l-10.5 7t-9 5t-11 4t-10.5 2t-11.5 1q-18 0 -31.5 -11t-18.5 -31.5t-2 -45t16.5 -56.5t37.5 -62h-217zM133 111q-47 94 -39 185t77 158.5t171 67.5q80 0 137.5 -34.5t118.5 -102.5q4 -4 14.5 -16.5t13.5 -15.5l12 -12 l12 -12l10.5 -10.5t11.5 -9.5t11 -6t12 -5t12.5 -2t13.5 -1q33 0 46 28.5t1 78t-49 100.5h215q82 -133 15.5 -272.5t-222.5 -139.5q-133 0 -260 139q-6 6 -17.5 18.5t-15.5 16.5t-12 13.5t-11 12.5t-10.5 8l-10.5 7t-9 5t-11 4t-10.5 2t-11.5 1q-18 0 -31.5 -11t-18.5 -31.5 t-2 -45t16.5 -56.5t37.5 -62h-217z" glyph-name="approxequal" horiz-adv-x="1069" unicode="≈"/><glyph d="M991 995l-100 -114h100v-205h-278l-72 -82h350v-205h-528l-101 -115h-270l101 115h-99v205h277l71 82h-348v205h527l100 114h270z" glyph-name="notequal" horiz-adv-x="1083" unicode="≠"/><glyph d="M891 1153v-221l-535 -191l535 -213v-221l-799 332v211zM92 61v205h799v-205h-799z" glyph-name="lessequal" horiz-adv-x="983" unicode="≤"/><glyph d="M92 1153l799 -303v-211l-799 -332v221l535 213l-535 191v221zM92 61v205h799v-205h-799z" glyph-name="greaterequal" horiz-adv-x="983" unicode="≥"/><glyph d="M883 1556q326 0 556 -230t230 -556q0 -328 -230.5 -559t-555.5 -231q-328 0 -559.5 231t-231.5 559q0 326 231.5 556t559.5 230zM883 109q272 0 465.5 193.5t193.5 467.5q0 272 -193.5 466t-465.5 194q-274 0 -468 -193t-194 -467t194 -467.5t468 -193.5zM655 1040 l187 189h121v-922h-121v752l-187 -187v168z" glyph-name="uni2460" unicode="①"/><glyph d="M883 1556q326 0 556 -230t230 -556q0 -328 -230.5 -559t-555.5 -231q-328 0 -559.5 231t-231.5 559q0 326 231.5 556t559.5 230zM883 109q272 0 465.5 193.5t193.5 467.5q0 272 -193.5 466t-465.5 194q-274 0 -468 -193t-194 -467t194 -467.5t468 -193.5zM1208 944 q0 -121 -88 -213l-293 -303h375v-121h-647l471 498q61 66 61 139q0 76 -60 126t-157 50q-156 0 -286 -176v162q100 135 293 135q143 0 237 -86t94 -211z" glyph-name="uni2461" unicode="②"/><glyph d="M883 1556q326 0 556 -230t230 -556q0 -328 -230.5 -559t-555.5 -231q-328 0 -559.5 231t-231.5 559q0 326 231.5 556t559.5 230zM883 109q272 0 465.5 193.5t193.5 467.5q0 272 -193.5 466t-465.5 194q-274 0 -468 -193t-194 -467t194 -467.5t468 -193.5zM1063 858 q74 -39 118 -106.5t44 -149.5q0 -127 -97.5 -216t-238.5 -89q-152 0 -258 115v151q119 -145 258 -145q92 0 154.5 55t62.5 133t-64.5 131.5t-154.5 53.5v112h2q51 0 89 32t38 79q0 43 -46 74.5t-126 31.5q-123 0 -213 -78v129q74 70 219 70q127 0 207 -66.5t80 -156.5 q0 -92 -74 -160z" glyph-name="uni2462" unicode="③"/><glyph d="M883 1556q326 0 556 -230t230 -556q0 -328 -230.5 -559t-555.5 -231q-328 0 -559.5 231t-231.5 559q0 326 231.5 556t559.5 230zM883 109q272 0 465.5 193.5t193.5 467.5q0 272 -193.5 466t-465.5 194q-274 0 -468 -193t-194 -467t194 -467.5t468 -193.5zM1073 922v-187 h113v-121h-113v-307h-123v307h-483l440 615h146l-357 -494h254v187h123z" glyph-name="uni2463" unicode="④"/><glyph d="M883 1556q326 0 556 -230t230 -556q0 -328 -230.5 -559t-555.5 -231q-328 0 -559.5 231t-231.5 559q0 326 231.5 556t559.5 230zM883 109q272 0 465.5 193.5t193.5 467.5q0 272 -193.5 466t-465.5 194q-274 0 -468 -193t-194 -467t194 -467.5t468 -193.5zM885 915 q137 0 235.5 -91t98.5 -218q0 -129 -98.5 -219t-233.5 -90q-100 0 -177 38t-112 85v155q43 -66 114.5 -110.5t157.5 -44.5q96 0 161 54t65 136q0 80 -62.5 135.5t-148.5 55.5h-271v430h527v-121h-406v-195h150z" glyph-name="uni2464" unicode="⑤"/><glyph d="M883 1556q326 0 556 -230t230 -556q0 -328 -230.5 -559t-555.5 -231q-328 0 -559.5 231t-231.5 559q0 326 231.5 556t559.5 230zM883 109q272 0 465.5 193.5t193.5 467.5q0 272 -193.5 466t-465.5 194q-274 0 -468 -193t-194 -467t194 -467.5t468 -193.5zM797 915 q160 39 300 -51t140 -248q0 -133 -104.5 -226t-251.5 -93q-150 0 -253.5 93t-103.5 226q0 82 51 168l271 447h141zM880.5 418q96.5 0 166 58.5t69.5 140t-69.5 140t-166 58.5t-166 -58.5t-69.5 -140t69.5 -140t166 -58.5z" glyph-name="uni2465" unicode="⑥"/><glyph d="M883 1556q326 0 556 -230t230 -556q0 -328 -230.5 -559t-555.5 -231q-328 0 -559.5 231t-231.5 559q0 326 231.5 556t559.5 230zM883 109q272 0 465.5 193.5t193.5 467.5q0 272 -193.5 466t-465.5 194q-274 0 -468 -193t-194 -467t194 -467.5t468 -193.5zM1249 1229 l-522 -922h-139l454 801h-522v121h729z" glyph-name="uni2466" unicode="⑦"/><glyph d="M883 1556q326 0 556 -230t230 -556q0 -328 -230.5 -559t-555.5 -231q-328 0 -559.5 231t-231.5 559q0 326 231.5 556t559.5 230zM883 109q272 0 465.5 193.5t193.5 467.5q0 272 -193.5 466t-465.5 194q-274 0 -468 -193t-194 -467t194 -467.5t468 -193.5zM1057 862 q72 -41 113.5 -109.5t41.5 -150.5q0 -125 -98 -215t-233.5 -90t-233.5 90t-98 215q0 82 43 150.5t117 111.5q-70 66 -70 156q2 92 72.5 157.5t171.5 65.5q98 0 170.5 -65.5t73 -157.5t-69.5 -158zM882.5 1130q-53.5 0 -92 -32.5t-38.5 -77.5t38.5 -78t92.5 -33q55 0 93 32 t38 79q0 45 -39 77.5t-92.5 32.5zM881 420q86 0 148.5 53t62.5 129t-62.5 130t-148.5 54t-147.5 -54t-61.5 -130t61.5 -129t147.5 -53z" glyph-name="uni2467" unicode="⑧"/><glyph d="M883 1556q326 0 556 -230t230 -556q0 -328 -230.5 -559t-555.5 -231q-328 0 -559.5 231t-231.5 559q0 326 231.5 556t559.5 230zM883 109q272 0 465.5 193.5t193.5 467.5q0 272 -193.5 466t-465.5 194q-274 0 -468 -193t-194 -467t194 -467.5t468 -193.5zM881 1241 q150 0 253 -93t103 -226q0 -80 -53 -168l-269 -447h-141l191 316q-158 -39 -299.5 51t-141.5 248q0 133 105 226t252 93zM880.5 723q96.5 0 166 58.5t69.5 140.5t-69.5 140t-166 58t-166 -58t-69.5 -140t69.5 -140.5t166 -58.5z" glyph-name="uni2468" unicode="⑨"/><glyph d="M883 1556q326 0 556 -230t230 -556q0 -328 -230.5 -559t-555.5 -231q-328 0 -559.5 231t-231.5 559q0 326 231.5 556t559.5 230zM883 109q272 0 465.5 193.5t193.5 467.5q0 272 -193.5 466t-465.5 194q-274 0 -468 -193t-194 -467t194 -467.5t468 -193.5zM1044 1241 q94 0 148.5 -131t54.5 -342q0 -209 -54 -340t-149 -131q-96 0 -150 131t-54 340q0 213 54 343t150 130zM545 1118l104 111h101v-922h-121v733l-84 -90v168zM1044 420q39 0 60.5 97t21.5 251q0 156 -21.5 254t-60.5 98q-41 0 -62 -98t-21 -254q0 -154 21 -251t62 -97z" glyph-name="uni2469" unicode="⑩"/><glyph d="M883 -20q-328 0 -559.5 231t-231.5 559q0 326 231.5 556t559.5 230q326 0 556 -230t230 -556q0 -328 -230 -559t-556 -231zM883 109q272 0 465.5 193.5t193.5 467.5q0 272 -193.5 466t-465.5 194q-274 0 -468 -193t-194 -467t194 -467.5t468 -193.5zM880.5 297 q-151.5 0 -241.5 135t-90 336q0 203 90 338t241.5 135t241.5 -135t90 -338q0 -201 -90 -336t-241.5 -135zM880.5 420q96.5 0 154 100.5t57.5 247.5q0 152 -57.5 252t-154 100t-152.5 -100t-56 -252q0 -150 56 -249t152.5 -99z" glyph-name="uni24EA" unicode="⓪"/><glyph d="M770 1536l469 -768l-471 -768h-207l-469 768l467 768h211zM666 225l333 543l-333 547v2l-2 -2l-330 -547l330 -543l2 -2v2z" glyph-name="lozenge" horiz-adv-x="1331" unicode="◊"/><glyph d="M883 -20q-328 0 -559.5 231t-231.5 559q0 326 231.5 556t559.5 230q326 0 556 -230t230 -556q0 -328 -230 -559t-556 -231zM883 109q272 0 465.5 193.5t193.5 467.5q0 272 -193.5 466t-465.5 194q-274 0 -468 -193t-194 -467t194 -467.5t468 -193.5zM618 1102l111 -113 l-111 -110l-110 110zM1143 1102l112 -113l-112 -110l-111 110zM449 375q0 180 126.5 307t307.5 127q176 0 303 -127t127 -307h-127q0 127 -89 217t-214 90q-127 0 -217.5 -90t-90.5 -217h-126z" glyph-name="uni2639" unicode="☹"/><glyph d="M1886 1618q86 -188 55.5 -365.5t-159.5 -287.5q25 -94 24 -195q0 -328 -230 -559t-556 -231q-328 0 -559.5 231t-231.5 559q0 102 25 199q-125 113 -154.5 288t56.5 361h110q82 -193 230 -258q223 197 524 196q297 0 522 -198q150 68 232 260h112zM223 1454 q-59 -211 80 -350q49 98 103 162q-120 65 -183 188zM1632 1264q61 -78 101 -162q143 133 86 352q-66 -124 -187 -190zM1020 109q272 0 465.5 193.5t193.5 467.5q0 272 -193.5 466t-465.5 194q-274 0 -468 -194t-194 -466q0 -274 194 -467.5t468 -193.5zM868 989l-112 -110 l-111 110l111 113zM1393 989l-111 -110l-113 110l113 113zM1020 809q176 0 304 -128t128 -306h-129q0 127 -89 217t-214 90q-127 0 -216 -90t-89 -217h-129q0 180 128 307t306 127z" glyph-name="u1F47F" horiz-adv-x="2041" unicode="👿"/><glyph d="M883 1556q326 0 556 -230t230 -556q0 -328 -230.5 -559t-555.5 -231q-328 0 -559.5 231t-231.5 559q0 326 231.5 556t559.5 230zM883 109q272 0 465.5 193.5t193.5 467.5q0 272 -193.5 466t-465.5 194q-274 0 -468 -193t-194 -467t194 -467.5t468 -193.5zM729 989 l-111 -110l-110 110l110 113zM1255 989l-112 -110l-111 110l111 113zM1382 770q2 -207 -145 -355.5t-354 -148.5q-209 0 -356.5 148.5t-147.5 355.5h1003zM883 387q125 0 223 74t137 188h-725q39 -115 139.5 -188.5t225.5 -73.5z" glyph-name="u1F601" unicode="😁"/><glyph d="M1788 743q63 -63 63 -150t-63 -151q-55 -55 -129 -61q-104 -182 -286.5 -291.5t-397.5 -109.5q-217 0 -400.5 109.5t-287.5 291.5q-74 4 -131 61q-66 63 -66 150.5t66 150.5q8 8 28 25v2q0 326 231.5 556t559.5 230q326 0 556 -230t230 -556v-4q11 -7 27 -23zM975 1430 q-260 0 -450.5 -175.5t-211.5 -431.5q166 53 338 115l-53 51l113 113l110 -113l-110 -110l-60 59q-41 -127 -55 -168h752q-8 25 -18.5 54.5t-21 62.5t-16.5 49l-57 -57l-113 110l113 113l111 -113l-52 -51q160 -59 336 -115q-20 256 -208.5 431.5t-446.5 175.5zM240 668 q-29 -29 -29 -70t29 -72q29 -29 69.5 -28.5t71.5 28.5q12 10 25 35l65 197q-178 -59 -188 -66q-6 -4 -21.5 -11t-21.5 -13zM1704 526q29 31 29 72t-29 70q-6 6 -21.5 13t-21.5 11q-20 10 -188 66l65 -197q6 -18 23 -35q31 -29 71.5 -29t71.5 29zM1335 649h-725 q37 -115 137.5 -188.5t227.5 -73.5q125 0 223 73.5t137 188.5zM975 109q170 0 316.5 81.5t236.5 221.5q-16 8 -43 30q-37 31 -47 74q-2 4 -4 9t-5.5 14.5t-5.5 15.5q-57 -129 -179 -209t-269 -80q-150 0 -271.5 80t-181.5 211l-16 -41q-8 -39 -47 -74q-16 -16 -41 -30 q88 -139 236.5 -221t320.5 -82z" glyph-name="u1F602" horiz-adv-x="1943" unicode="😂"/><glyph d="M883 1556q326 0 556 -230t230 -556q0 -328 -230.5 -559t-555.5 -231q-328 0 -559.5 231t-231.5 559q0 326 231.5 556t559.5 230zM883 109q272 0 465.5 193.5t193.5 467.5q0 272 -193.5 466t-465.5 194q-274 0 -468 -193t-194 -467t194 -467.5t468 -193.5zM682 1128v-270 h-129v270h129zM1206 1128v-270h-127v270h127zM1382 770q2 -207 -145 -355.5t-354 -148.5q-209 0 -356.5 148.5t-147.5 355.5h1003zM883 387q125 0 223 74t137 188h-725q39 -115 139.5 -188.5t225.5 -73.5z" glyph-name="u1F603" unicode="😃"/><glyph d="M1741 1059q0 -106 -82 -172q10 -61 10 -117q0 -328 -230.5 -559t-555.5 -231q-328 0 -559.5 231t-231.5 559q0 326 231.5 556t559.5 230q305 0 534 -210l103 210l196 -397q25 -45 25 -100zM1542 770q0 25 -4 70h-18q-92 0 -156 63.5t-64 155.5q0 55 21 90l35 74 q-197 207 -473 207q-274 0 -468 -193t-194 -467t193.5 -467.5t468.5 -193.5q272 0 465.5 193.5t193.5 467.5zM1608 1110l-88 186l-93 -190q-8 -18 -8 -43q0 -45 29 -75t72 -30t71.5 30t28.5 75q0 10 -12 47zM729 989l-111 -110l-110 110l110 113zM1255 989l-112 -110 l-111 110l111 113zM1382 770q2 -207 -145 -355.5t-354 -148.5q-209 0 -356.5 148.5t-147.5 355.5h1003zM883 387q125 0 223 74t137 188h-725q39 -115 139.5 -188.5t225.5 -73.5z" glyph-name="u1F605" horiz-adv-x="1832" unicode="😅"/><glyph d="M1886 1618q86 -188 55.5 -365.5t-159.5 -287.5q25 -94 24 -195q0 -328 -230 -559t-556 -231q-328 0 -559.5 231t-231.5 559q0 102 25 199q-125 113 -154.5 288t56.5 361h110q82 -193 230 -258q223 197 524 196q297 0 522 -198q150 68 232 260h112zM223 1454 q-59 -211 80 -350q49 98 103 162q-120 65 -183 188zM1632 1264q61 -78 101 -162q143 133 86 352q-66 -124 -187 -190zM1020 109q272 0 465.5 193.5t193.5 467.5q0 272 -193.5 466t-465.5 194q-274 0 -468 -194t-194 -466q0 -274 194 -467.5t468 -193.5zM868 989l-112 -110 l-111 110l111 113zM1393 989l-111 -110l-113 110l113 113zM1020 387q158 0 269.5 112.5t111.5 270.5h119q2 -207 -145.5 -355.5t-354.5 -148.5q-209 0 -356.5 148.5t-147.5 355.5h121q0 -158 112.5 -270.5t270.5 -112.5z" glyph-name="u1F608" horiz-adv-x="2041" unicode="😈"/><glyph d="M883 -20q-328 0 -559.5 231t-231.5 559q0 326 231.5 556t559.5 230q326 0 556 -230t230 -556q0 -328 -230 -559t-556 -231zM883 109q272 0 465.5 193.5t193.5 467.5q0 272 -193.5 466t-465.5 194q-274 0 -468 -193t-194 -467t194 -467.5t468 -193.5zM618 879l-110 110 l110 113l111 -113zM1001 926v127h263v-127h-263zM883 266q-209 0 -356.5 148.5t-147.5 355.5h121q0 -158 111.5 -270.5t271.5 -112.5q156 0 267.5 112.5t111.5 270.5h120q2 -207 -145 -355.5t-354 -148.5z" glyph-name="u1F609" unicode="😉"/><glyph d="M883 -20q-328 0 -559.5 231t-231.5 559q0 326 231.5 556t559.5 230q326 0 556 -230t230 -556q0 -328 -230 -559t-556 -231zM883 109q272 0 465.5 193.5t193.5 467.5q0 272 -193.5 466t-465.5 194q-274 0 -468 -193t-194 -467t194 -467.5t468 -193.5zM618 879l-110 110 l110 113l111 -113zM1143 879l-111 110l111 113l112 -113zM883 266q-209 0 -356.5 148.5t-147.5 355.5h121q0 -158 111.5 -270.5t271.5 -112.5q156 0 267.5 112.5t111.5 270.5h120q2 -207 -145 -355.5t-354 -148.5z" glyph-name="u1F60A" unicode="😊"/><glyph d="M883 -20q-328 0 -559.5 231t-231.5 559q0 326 231.5 556t559.5 230q326 0 556 -230t230 -556q0 -328 -230 -559t-556 -231zM883 109q272 0 465.5 193.5t193.5 467.5q0 272 -193.5 466t-465.5 194q-274 0 -468 -193t-194 -467t194 -467.5t468 -193.5zM489 989v113h263 v-113h-263zM1024 989v113h262v-113h-262zM653 766l-112 111l112 112l111 -112zM1178 766l-111 111l111 112l110 -112zM530 432v113h517q74 0 120.5 40t46.5 93h117q0 -102 -82 -174t-207 -72h-512z" glyph-name="u1F60F" unicode="😏"/><glyph d="M883 -20q-328 0 -559.5 231t-231.5 559q0 326 231.5 556t559.5 230q326 0 556 -230t230 -556q0 -328 -230 -559t-556 -231zM883 109q272 0 465.5 193.5t193.5 467.5q0 272 -193.5 466t-465.5 194q-274 0 -468 -193t-194 -467t194 -467.5t468 -193.5zM618 879l-110 110 l110 113l111 -113zM1143 879l-111 110l111 113l112 -113zM457 502v127h856v-127h-856z" glyph-name="u1F610" unicode="😐"/><glyph d="M883 -20q-328 0 -559.5 231t-231.5 559q0 326 231.5 556t559.5 230q326 0 556 -230t230 -556q0 -328 -230 -559t-556 -231zM883 109q272 0 465.5 193.5t193.5 467.5q0 272 -193.5 466t-465.5 194q-274 0 -468 -193t-194 -467t194 -467.5t468 -193.5zM489 1034h263v-127 h-263v127zM1010 1034h260v-127h-260v127zM453 629h856v-127h-856v127z" glyph-name="u1F611" unicode="😑"/><glyph d="M883 1556q326 0 556 -230t230 -556q0 -328 -230.5 -559t-555.5 -231q-328 0 -559.5 231t-231.5 559q0 326 231.5 556t559.5 230zM883 109q272 0 465.5 193.5t193.5 467.5q0 272 -193.5 466t-465.5 194q-274 0 -468 -193t-194 -467t194 -467.5t468 -193.5zM508 989 l110 113l111 -113l-111 -110zM1032 989l111 113l112 -113l-112 -110zM1044 653q0 -68 -49 -112q49 -45 49 -113q0 -66 -45 -111t-108 -45h-74v113h64q23 0 39 15.5t16 39.5q0 23 -16.5 39.5t-38.5 16.5v90q23 0 39 16t16 39q0 25 -16.5 40t-38.5 15h-64v111h74 q63 0 108 -45.5t45 -108.5z" glyph-name="u1F617" unicode="😗"/><glyph d="M883 1556q326 0 556 -230t230 -556q0 -328 -230.5 -559t-555.5 -231q-328 0 -559.5 231t-231.5 559q0 326 231.5 556t559.5 230zM883 109q272 0 465.5 193.5t193.5 467.5q0 272 -193.5 466t-465.5 194q-274 0 -468 -193t-194 -467t194 -467.5t468 -193.5zM729 989 l-111 -110l-110 110l110 113zM1255 989l-112 -110l-111 110l111 113zM1382 770q2 -127 -56 -235.5t-161 -178.5q-16 -102 -96 -172.5t-186.5 -70.5t-187.5 69.5t-97 171.5q-102 70 -160.5 179.5t-58.5 236.5h1003zM520 649q20 -68 74 -129v129h-74zM883 236q66 0 112.5 48 t46.5 113v252h-321v-252q0 -66 47 -113.5t115 -47.5zM1169 520q47 53 74 129h-74v-129z" glyph-name="u1F61B" unicode="😛"/><glyph d="M883 -20q-328 0 -559.5 231t-231.5 559q0 326 231.5 556t559.5 230q326 0 556 -230t230 -556q0 -328 -230 -559t-556 -231zM883 109q272 0 465.5 193.5t193.5 467.5q0 272 -193.5 466t-465.5 194q-274 0 -468 -193t-194 -467t194 -467.5t468 -193.5zM618 879l-110 110 l110 113l111 -113zM1143 879l-111 110l111 113l112 -113zM883 244q-117 0 -197 79.5t-80 196.5q0 111 80 191t197 80q115 0 194.5 -80t79.5 -191q0 -117 -79.5 -196.5t-194.5 -79.5zM882.5 365q63.5 0 108.5 45t45 108q0 66 -45 110t-108 44q-66 0 -111 -44t-45 -110 q0 -63 46 -108t109.5 -45z" glyph-name="u1F62E" unicode="😮"/><glyph d="M883 -20q-328 0 -559.5 231t-231.5 559q0 326 231.5 556t559.5 230q326 0 556 -230t230 -556q0 -328 -230 -559t-556 -231zM883 109q272 0 465.5 193.5t193.5 467.5q0 272 -193.5 466t-465.5 194q-274 0 -468 -193t-194 -467t194 -467.5t468 -193.5zM618 879l-110 110 l110 113l111 -113zM1143 879l-111 110l111 113l112 -113z" glyph-name="u1F636" unicode="😶"/><glyph d="M791 1563q92 -74 178 -194t172 -303t148.5 -456.5t84.5 -601.5l-205 -18q-23 291 -186.5 443.5t-407.5 162.5q-145 -367 -354 -629l-160 121q166 203 295 487q-88 -20 -166 -51l-57 197q150 59 311 76q125 360 138 704zM645 793q254 -29 436 -181q-111 465 -317 711 q-35 -276 -119 -530z" glyph-name="A.salt" horiz-adv-x="1456"/><glyph d="M123 1536h1067v-1536h-205v506h-657v-506h-205v1536zM328 711h657v620h-657v-620z" glyph-name="A.ss02" horiz-adv-x="1312"/><glyph d="M1057 1946l-230 -267h-182l148 267h264zM791 1563q92 -74 178 -194t172 -303t148.5 -456.5t84.5 -601.5l-205 -18q-23 291 -186.5 443.5t-407.5 162.5q-145 -367 -354 -629l-160 121q166 203 295 487q-88 -20 -166 -51l-57 197q150 59 311 76q125 360 138 704zM645 793 q254 -29 436 -181q-111 465 -317 711q-35 -276 -119 -530z" glyph-name="Aacute.salt" horiz-adv-x="1456"/><glyph d="M991 1946l-229 -267h-182l147 267h264zM123 1536h1067v-1536h-205v506h-657v-506h-205v1536zM328 711h657v620h-657v-620z" glyph-name="Aacute.ss02" horiz-adv-x="1312"/><glyph d="M723 1655q-117 0 -188.5 84t-67.5 207h158q0 -53 27.5 -91t70.5 -38t71.5 36.5t28.5 92.5h158q4 -123 -68.5 -207t-189.5 -84zM791 1563q92 -74 178 -194t172 -303t148.5 -456.5t84.5 -601.5l-205 -18q-23 291 -186.5 443.5t-407.5 162.5q-145 -367 -354 -629l-160 121 q166 203 295 487q-88 -20 -166 -51l-57 197q150 59 311 76q125 360 138 704zM645 793q254 -29 436 -181q-111 465 -317 711q-35 -276 -119 -530z" glyph-name="Abreve.salt" horiz-adv-x="1456"/><glyph d="M657.5 1655q-116.5 0 -188.5 84t-68 207h158q0 -53 27.5 -91t70.5 -38t72 36.5t29 92.5h157q4 -123 -68.5 -207t-189 -84zM123 1536h1067v-1536h-205v506h-657v-506h-205v1536zM328 711h657v620h-657v-620z" glyph-name="Abreve.ss02" horiz-adv-x="1312"/><glyph d="M1057 2306l-230 -266h-182l148 266h264zM723 1655q-117 0 -188.5 84t-67.5 207h158q0 -53 27.5 -91t70.5 -38t71.5 36.5t28.5 92.5h158q4 -123 -68.5 -207t-189.5 -84zM791 1563q92 -74 178 -194t172 -303t148.5 -456.5t84.5 -601.5l-205 -18q-23 291 -186.5 443.5 t-407.5 162.5q-145 -367 -354 -629l-160 121q166 203 295 487q-88 -20 -166 -51l-57 197q150 59 311 76q125 360 138 704zM645 793q254 -29 436 -181q-111 465 -317 711q-35 -276 -119 -530z" glyph-name="uni1EAE.salt" horiz-adv-x="1456"/><glyph d="M991 2306l-229 -266h-182l147 266h264zM657.5 1655q-116.5 0 -188.5 84t-68 207h158q0 -53 27.5 -91t70.5 -38t72 36.5t29 92.5h157q4 -123 -68.5 -207t-189 -84zM123 1536h1067v-1536h-205v506h-657v-506h-205v1536zM328 711h657v620h-657v-620z" glyph-name="uni1EAE.ss02" horiz-adv-x="1312"/><glyph d="M723 1655q-117 0 -188.5 84t-67.5 207h158q0 -53 27.5 -91t70.5 -38t71.5 36.5t28.5 92.5h158q4 -123 -68.5 -207t-189.5 -84zM791 1563q92 -74 178 -194t172 -303t148.5 -456.5t84.5 -601.5l-205 -18q-23 291 -186.5 443.5t-407.5 162.5q-145 -367 -354 -629l-160 121 q166 203 295 487q-88 -20 -166 -51l-57 197q150 59 311 76q125 360 138 704zM645 793q254 -29 436 -181q-111 465 -317 711q-35 -276 -119 -530zM559 -219l164 166l164 -166l-164 -162z" glyph-name="uni1EB6.salt" horiz-adv-x="1456"/><glyph d="M657.5 1655q-116.5 0 -188.5 84t-68 207h158q0 -53 27.5 -91t70.5 -38t72 36.5t29 92.5h157q4 -123 -68.5 -207t-189 -84zM123 1536h1067v-1536h-205v506h-657v-506h-205v1536zM328 711h657v620h-657v-620zM494 -219l163 166l164 -166l-164 -162z" glyph-name="uni1EB6.ss02" horiz-adv-x="1312"/><glyph d="M791 2040h-183l-229 266h264zM723 1817q43 0 71.5 36.5t28.5 92.5h158q4 -123 -68.5 -207t-189.5 -84t-188.5 84t-67.5 207h158q0 -53 27.5 -91t70.5 -38zM791 1563q92 -74 178 -194t172 -303t148.5 -456.5t84.5 -601.5l-205 -18q-23 291 -186.5 443.5t-407.5 162.5 q-145 -367 -354 -629l-160 121q166 203 295 487q-88 -20 -166 -51l-57 197q150 59 311 76q125 360 138 704zM645 793q254 -29 436 -181q-111 465 -317 711q-35 -276 -119 -530z" glyph-name="uni1EB0.salt" horiz-adv-x="1456"/><glyph d="M725 2040h-182l-230 266h265zM657 1817q43 0 72 36.5t29 92.5h157q4 -123 -68.5 -207t-189 -84t-188.5 84t-68 207h158q0 -53 27.5 -91t70.5 -38zM123 1536h1067v-1536h-205v506h-657v-506h-205v1536zM328 711h657v620h-657v-620z" glyph-name="uni1EB0.ss02" horiz-adv-x="1312"/><glyph d="M727 2261q-31 45 -74 16.5t-57 -100.5l-86 117q29 86 90.5 125t126 24.5t104.5 -71.5q70 -92 49.5 -213t-124.5 -187l-86 113q53 25 69.5 80t-12.5 96zM723 1655q-117 0 -188.5 84t-67.5 207h158q0 -53 27.5 -91t70.5 -38t71.5 36.5t28.5 92.5h158q4 -123 -68.5 -207 t-189.5 -84zM791 1563q92 -74 178 -194t172 -303t148.5 -456.5t84.5 -601.5l-205 -18q-23 291 -186.5 443.5t-407.5 162.5q-145 -367 -354 -629l-160 121q166 203 295 487q-88 -20 -166 -51l-57 197q150 59 311 76q125 360 138 704zM645 793q254 -29 436 -181 q-111 465 -317 711q-35 -276 -119 -530z" glyph-name="uni1EB2.salt" horiz-adv-x="1456"/><glyph d="M662 2261q-31 45 -74 16.5t-58 -100.5l-86 117q29 86 90.5 125t126 24.5t105.5 -71.5q70 -92 49.5 -213t-125.5 -187l-86 113q53 25 70 80t-12 96zM657.5 1655q-116.5 0 -188.5 84t-68 207h158q0 -53 27.5 -91t70.5 -38t72 36.5t29 92.5h157q4 -123 -68.5 -207t-189 -84z M123 1536h1067v-1536h-205v506h-657v-506h-205v1536zM328 711h657v620h-657v-620z" glyph-name="uni1EB2.ss02" horiz-adv-x="1312"/><glyph d="M440 2015q-53 51 -58 129t45 138.5t146 60.5q72 0 123.5 -33t71.5 -71.5t44 -71.5t46 -33q55 0 55 57q0 70 -71 121q-8 6 -17 10h183q51 -53 56 -129.5t-45 -137t-147 -60.5q-78 0 -130 32.5t-69.5 70.5t-38 71t-42.5 33q-53 0 -53 -56q0 -70 79 -125q4 -4 9 -6h-187z M723 1817q43 0 71.5 36.5t28.5 92.5h158q4 -123 -68.5 -207t-189.5 -84t-188.5 84t-67.5 207h158q0 -53 27.5 -91t70.5 -38zM791 1563q92 -74 178 -194t172 -303t148.5 -456.5t84.5 -601.5l-205 -18q-23 291 -186.5 443.5t-407.5 162.5q-145 -367 -354 -629l-160 121 q166 203 295 487q-88 -20 -166 -51l-57 197q150 59 311 76q125 360 138 704zM645 793q254 -29 436 -181q-111 465 -317 711q-35 -276 -119 -530z" glyph-name="uni1EB4.salt" horiz-adv-x="1456"/><glyph d="M375 2015q-53 51 -58.5 129t45 138.5t146.5 60.5q72 0 123 -33t71.5 -71.5t44 -71.5t46.5 -33q55 0 55 57q0 70 -72 121q-8 6 -16 10h182q51 -53 56.5 -129.5t-45 -137t-146.5 -60.5q-78 0 -130 32.5t-69.5 70.5t-38 71t-43.5 33q-53 0 -53 -56q0 -70 80 -125q4 -4 8 -6 h-186zM657 1817q43 0 72 36.5t29 92.5h157q4 -123 -68.5 -207t-189 -84t-188.5 84t-68 207h158q0 -53 27.5 -91t70.5 -38zM123 1536h1067v-1536h-205v506h-657v-506h-205v1536zM328 711h657v620h-657v-620z" glyph-name="uni1EB4.ss02" horiz-adv-x="1312"/><glyph d="M608 1679l-211 267h236l90 -168l90 168h236l-211 -267h-230zM791 1563q92 -74 178 -194t172 -303t148.5 -456.5t84.5 -601.5l-205 -18q-23 291 -186.5 443.5t-407.5 162.5q-145 -367 -354 -629l-160 121q166 203 295 487q-88 -20 -166 -51l-57 197q150 59 311 76 q125 360 138 704zM645 793q254 -29 436 -181q-111 465 -317 711q-35 -276 -119 -530z" glyph-name="uni01CD.salt" horiz-adv-x="1456"/><glyph d="M543 1679l-211 267h235l90 -168l91 168h235l-211 -267h-229zM123 1536h1067v-1536h-205v506h-657v-506h-205v1536zM328 711h657v620h-657v-620z" glyph-name="uni01CD.ss02" horiz-adv-x="1312"/><glyph d="M723 1847l-90 -168h-236l211 267h230l211 -267h-236zM791 1563q92 -74 178 -194t172 -303t148.5 -456.5t84.5 -601.5l-205 -18q-23 291 -186.5 443.5t-407.5 162.5q-145 -367 -354 -629l-160 121q166 203 295 487q-88 -20 -166 -51l-57 197q150 59 311 76 q125 360 138 704zM645 793q254 -29 436 -181q-111 465 -317 711q-35 -276 -119 -530z" glyph-name="Acircumflex.salt" horiz-adv-x="1456"/><glyph d="M657 1847l-90 -168h-235l211 267h229l211 -267h-235zM123 1536h1067v-1536h-205v506h-657v-506h-205v1536zM328 711h657v620h-657v-620z" glyph-name="Acircumflex.ss02" horiz-adv-x="1312"/><glyph d="M1057 2302l-230 -266h-182l148 266h264zM723 1847l-90 -168h-236l211 267h230l211 -267h-236zM791 1563q92 -74 178 -194t172 -303t148.5 -456.5t84.5 -601.5l-205 -18q-23 291 -186.5 443.5t-407.5 162.5q-145 -367 -354 -629l-160 121q166 203 295 487 q-88 -20 -166 -51l-57 197q150 59 311 76q125 360 138 704zM645 793q254 -29 436 -181q-111 465 -317 711q-35 -276 -119 -530z" glyph-name="uni1EA4.salt" horiz-adv-x="1456"/><glyph d="M991 2302l-229 -266h-182l147 266h264zM657 1847l-90 -168h-235l211 267h229l211 -267h-235zM123 1536h1067v-1536h-205v506h-657v-506h-205v1536zM328 711h657v620h-657v-620z" glyph-name="uni1EA4.ss02" horiz-adv-x="1312"/><glyph d="M723 1847l-90 -168h-236l211 267h230l211 -267h-236zM791 1563q92 -74 178 -194t172 -303t148.5 -456.5t84.5 -601.5l-205 -18q-23 291 -186.5 443.5t-407.5 162.5q-145 -367 -354 -629l-160 121q166 203 295 487q-88 -20 -166 -51l-57 197q150 59 311 76 q125 360 138 704zM645 793q254 -29 436 -181q-111 465 -317 711q-35 -276 -119 -530zM559 -219l164 166l164 -166l-164 -162z" glyph-name="uni1EAC.salt" horiz-adv-x="1456"/><glyph d="M657 1847l-90 -168h-235l211 267h229l211 -267h-235zM123 1536h1067v-1536h-205v506h-657v-506h-205v1536zM328 711h657v620h-657v-620zM494 -219l163 166l164 -166l-164 -162z" glyph-name="uni1EAC.ss02" horiz-adv-x="1312"/><glyph d="M791 2036h-183l-229 266h264zM838 1946l211 -267h-236l-90 168l-90 -168h-236l211 267h230zM791 1563q92 -74 178 -194t172 -303t148.5 -456.5t84.5 -601.5l-205 -18q-23 291 -186.5 443.5t-407.5 162.5q-145 -367 -354 -629l-160 121q166 203 295 487q-88 -20 -166 -51 l-57 197q150 59 311 76q125 360 138 704zM645 793q254 -29 436 -181q-111 465 -317 711q-35 -276 -119 -530z" glyph-name="uni1EA6.salt" horiz-adv-x="1456"/><glyph d="M725 2036h-182l-230 266h265zM772 1946l211 -267h-235l-91 168l-90 -168h-235l211 267h229zM123 1536h1067v-1536h-205v506h-657v-506h-205v1536zM328 711h657v620h-657v-620z" glyph-name="uni1EA6.ss02" horiz-adv-x="1312"/><glyph d="M967 2150q-31 45 -74 16.5t-57 -100.5l-86 117q29 86 90 125t125.5 24.5t105.5 -71.5q70 -92 49.5 -213t-125.5 -186l-86 112q53 25 70 80t-12 96zM723 1847l-90 -168h-236l211 267h230l211 -267h-236zM791 1563q92 -74 178 -194t172 -303t148.5 -456.5t84.5 -601.5 l-205 -18q-23 291 -186.5 443.5t-407.5 162.5q-145 -367 -354 -629l-160 121q166 203 295 487q-88 -20 -166 -51l-57 197q150 59 311 76q125 360 138 704zM645 793q254 -29 436 -181q-111 465 -317 711q-35 -276 -119 -530z" glyph-name="uni1EA8.salt" horiz-adv-x="1456"/><glyph d="M901 2150q-31 45 -74 16.5t-57 -100.5l-86 117q29 86 90.5 125t126 24.5t105.5 -71.5q70 -92 49 -213t-125 -186l-86 112q53 25 69.5 80t-12.5 96zM657 1847l-90 -168h-235l211 267h229l211 -267h-235zM123 1536h1067v-1536h-205v506h-657v-506h-205v1536zM328 711h657 v620h-657v-620z" glyph-name="uni1EA8.ss02" horiz-adv-x="1312"/><glyph d="M440 2011q-53 51 -58 129t45 138.5t146 60.5q72 0 123.5 -33t71.5 -72t44 -71.5t46 -32.5q55 0 55 57q0 70 -71 121q-8 6 -17 10h183q51 -53 56 -130t-45 -137t-147 -60q-78 0 -130 32.5t-69.5 70.5t-38 71t-42.5 33q-53 0 -53 -56q0 -70 79 -125q4 -4 9 -6h-187z M838 1946l211 -267h-236l-90 168l-90 -168h-236l211 267h230zM791 1563q92 -74 178 -194t172 -303t148.5 -456.5t84.5 -601.5l-205 -18q-23 291 -186.5 443.5t-407.5 162.5q-145 -367 -354 -629l-160 121q166 203 295 487q-88 -20 -166 -51l-57 197q150 59 311 76 q125 360 138 704zM645 793q254 -29 436 -181q-111 465 -317 711q-35 -276 -119 -530z" glyph-name="uni1EAA.salt" horiz-adv-x="1456"/><glyph d="M375 2011q-53 51 -58.5 129t45 138.5t146.5 60.5q72 0 123 -33t71.5 -72t44 -71.5t46.5 -32.5q55 0 55 57q0 70 -72 121q-8 6 -16 10h182q51 -53 56.5 -130t-45 -137t-146.5 -60q-78 0 -130 32.5t-69.5 70.5t-38 71t-43.5 33q-53 0 -53 -56q0 -70 80 -125q4 -4 8 -6h-186 zM772 1946l211 -267h-235l-91 168l-90 -168h-235l211 267h229zM123 1536h1067v-1536h-205v506h-657v-506h-205v1536zM328 711h657v620h-657v-620z" glyph-name="uni1EAA.ss02" horiz-adv-x="1312"/><glyph d="M702 1819l-163 -162l-164 162l164 166zM1071 1819l-164 -162l-164 162l164 166zM791 1563q92 -74 178 -194t172 -303t148.5 -456.5t84.5 -601.5l-205 -18q-23 291 -186.5 443.5t-407.5 162.5q-145 -367 -354 -629l-160 121q166 203 295 487q-88 -20 -166 -51l-57 197 q150 59 311 76q125 360 138 704zM645 793q254 -29 436 -181q-111 465 -317 711q-35 -276 -119 -530z" glyph-name="Adieresis.salt" horiz-adv-x="1456"/><glyph d="M637 1819l-164 -162l-164 162l164 166zM1006 1819l-164 -162l-164 162l164 166zM123 1536h1067v-1536h-205v506h-657v-506h-205v1536zM328 711h657v620h-657v-620z" glyph-name="Adieresis.ss02" horiz-adv-x="1312"/><glyph d="M791 1563q92 -74 178 -194t172 -303t148.5 -456.5t84.5 -601.5l-205 -18q-23 291 -186.5 443.5t-407.5 162.5q-145 -367 -354 -629l-160 121q166 203 295 487q-88 -20 -166 -51l-57 197q150 59 311 76q125 360 138 704zM645 793q254 -29 436 -181q-111 465 -317 711 q-35 -276 -119 -530zM559 -219l164 166l164 -166l-164 -162z" glyph-name="uni1EA0.salt" horiz-adv-x="1456"/><glyph d="M123 1536h1067v-1536h-205v506h-657v-506h-205v1536zM328 711h657v620h-657v-620zM494 -219l163 166l164 -166l-164 -162z" glyph-name="uni1EA0.ss02" horiz-adv-x="1312"/><glyph d="M791 1679h-183l-229 267h264zM791 1563q92 -74 178 -194t172 -303t148.5 -456.5t84.5 -601.5l-205 -18q-23 291 -186.5 443.5t-407.5 162.5q-145 -367 -354 -629l-160 121q166 203 295 487q-88 -20 -166 -51l-57 197q150 59 311 76q125 360 138 704zM645 793 q254 -29 436 -181q-111 465 -317 711q-35 -276 -119 -530z" glyph-name="Agrave.salt" horiz-adv-x="1456"/><glyph d="M725 1679h-182l-230 267h265zM123 1536h1067v-1536h-205v506h-657v-506h-205v1536zM328 711h657v620h-657v-620z" glyph-name="Agrave.ss02" horiz-adv-x="1312"/><glyph d="M727 1901q-31 45 -74 16t-57 -100l-86 116q29 86 90.5 125t126 24.5t104.5 -71.5q70 -92 49.5 -213t-124.5 -186l-86 112q53 25 69.5 80.5t-12.5 96.5zM791 1563q92 -74 178 -194t172 -303t148.5 -456.5t84.5 -601.5l-205 -18q-23 291 -186.5 443.5t-407.5 162.5 q-145 -367 -354 -629l-160 121q166 203 295 487q-88 -20 -166 -51l-57 197q150 59 311 76q125 360 138 704zM645 793q254 -29 436 -181q-111 465 -317 711q-35 -276 -119 -530z" glyph-name="uni1EA2.salt" horiz-adv-x="1456"/><glyph d="M662 1901q-31 45 -74 16t-58 -100l-86 116q29 86 90.5 125t126 24.5t105.5 -71.5q70 -92 49.5 -213t-125.5 -186l-86 112q53 25 70 80.5t-12 96.5zM123 1536h1067v-1536h-205v506h-657v-506h-205v1536zM328 711h657v620h-657v-620z" glyph-name="uni1EA2.ss02" horiz-adv-x="1312"/><glyph d="M979 1892v-174h-514v174h514zM791 1563q92 -74 178 -194t172 -303t148.5 -456.5t84.5 -601.5l-205 -18q-23 291 -186.5 443.5t-407.5 162.5q-145 -367 -354 -629l-160 121q166 203 295 487q-88 -20 -166 -51l-57 197q150 59 311 76q125 360 138 704zM645 793 q254 -29 436 -181q-111 465 -317 711q-35 -276 -119 -530z" glyph-name="Amacron.salt" horiz-adv-x="1456"/><glyph d="M913 1892v-174h-514v174h514zM123 1536h1067v-1536h-205v506h-657v-506h-205v1536zM328 711h657v620h-657v-620z" glyph-name="Amacron.ss02" horiz-adv-x="1312"/><glyph d="M1360 -186l20 -207q-66 -27 -139 -27q-106 0 -168.5 69.5t-62.5 153.5q0 86 33.5 145.5t117.5 114.5q-39 256 -199.5 390.5t-386.5 142.5q-145 -367 -354 -629l-160 121q166 203 295 487q-88 -20 -166 -51l-57 197q150 59 311 76q125 360 138 704l209 62q92 -74 178 -194 t172 -303t148.5 -456.5t84.5 -601.5q-172 -92 -172 -160q0 -61 60 -61q61 0 98 27zM645 793q254 -29 436 -181q-111 465 -317 711q-35 -276 -119 -530z" glyph-name="Aogonek.salt" horiz-adv-x="1456"/><glyph d="M1176 -195l20 -206q-66 -27 -139 -27q-106 0 -169 69.5t-63 153.5q0 86 36 146.5t124 117.5v447h-657v-506h-205v1536h1067v-1536q-172 -92 -172 -160q0 -61 59 -61q62 -1 99 26zM328 711h657v620h-657v-620z" glyph-name="Aogonek.ss02" horiz-adv-x="1312"/><glyph d="M723 1645q-102 0 -173 71.5t-71 173.5q0 98 72 169t172 71t172 -70.5t72 -169.5q0 -102 -72 -173.5t-172 -71.5zM723 1987q-43 0 -70.5 -30t-27.5 -71t27.5 -69.5t70.5 -28.5t70.5 28.5t27.5 69.5t-27.5 71t-70.5 30zM791 1563q92 -74 178 -194t172 -303t148.5 -456.5 t84.5 -601.5l-205 -18q-23 291 -186.5 443.5t-407.5 162.5q-145 -367 -354 -629l-160 121q166 203 295 487q-88 -20 -166 -51l-57 197q150 59 311 76q125 360 138 704zM645 793q254 -29 436 -181q-111 465 -317 711q-35 -276 -119 -530z" glyph-name="Aring.salt" horiz-adv-x="1456"/><glyph d="M657 1645q-102 0 -172.5 71.5t-70.5 173.5q0 98 71.5 169t172 71t172 -70.5t71.5 -169.5q0 -102 -72 -173.5t-172 -71.5zM657 1987q-43 0 -70.5 -30t-27.5 -71t27.5 -69.5t70.5 -28.5t71 28.5t28 69.5t-28 71t-71 30zM123 1536h1067v-1536h-205v506h-657v-506h-205v1536z M328 711h657v620h-657v-620z" glyph-name="Aring.ss02" horiz-adv-x="1312"/><glyph d="M440 1655q-53 51 -58 129t45 138t146 60q72 0 123.5 -32.5t71.5 -71.5t44 -71.5t46 -32.5q55 0 55 57q0 70 -71 121q-8 6 -17 10h183q51 -53 56 -130t-45 -137.5t-147 -60.5q-78 0 -130 33t-69.5 71t-38 70.5t-42.5 32.5q-53 0 -53 -55q0 -70 79 -125q4 -4 9 -6h-187z M791 1563q92 -74 178 -194t172 -303t148.5 -456.5t84.5 -601.5l-205 -18q-23 291 -186.5 443.5t-407.5 162.5q-145 -367 -354 -629l-160 121q166 203 295 487q-88 -20 -166 -51l-57 197q150 59 311 76q125 360 138 704zM645 793q254 -29 436 -181q-111 465 -317 711 q-35 -276 -119 -530z" glyph-name="Atilde.salt" horiz-adv-x="1456"/><glyph d="M375 1655q-53 51 -58.5 129t45 138t146.5 60q72 0 123 -32.5t71.5 -71.5t44 -71.5t46.5 -32.5q55 0 55 57q0 70 -72 121q-8 6 -16 10h182q51 -53 56.5 -130t-45 -137.5t-146.5 -60.5q-78 0 -130 33t-69.5 71t-38 70.5t-43.5 32.5q-53 0 -53 -55q0 -70 80 -125q4 -4 8 -6 h-186zM123 1536h1067v-1536h-205v506h-657v-506h-205v1536zM328 711h657v620h-657v-620z" glyph-name="Atilde.ss02" horiz-adv-x="1312"/><glyph d="M1075 1087q-94 137 -226 205t-246 57.5t-194.5 -94.5t-80.5 -223q0 -41 6 -82q119 92 262 104.5t245.5 -66.5t102.5 -224.5t-101.5 -224t-244.5 -67.5t-264 103q-6 -37 -6 -81q0 -135 77.5 -216t190.5 -92.5t246 54t233 200.5v-272q-178 -188 -452 -188 q-207 0 -353.5 128t-146.5 369q0 160 61 287q-61 127 -61 287q0 242 147.5 372.5t356.5 130.5q129 2 246.5 -48t201.5 -140v-279zM739 764q0 31 -21.5 54.5t-58 31.5t-78.5 4t-87 -27.5t-80 -64.5q35 -41 80 -63.5t87 -26.5t78.5 5t58 32.5t21.5 54.5z" glyph-name="E.aalt" horiz-adv-x="1167"/><glyph d="M956 1946l-229 -267h-182l147 267h264zM1075 1087q-94 137 -226 205t-246 57.5t-194.5 -94.5t-80.5 -223q0 -41 6 -82q119 92 262 104.5t245.5 -66.5t102.5 -224.5t-101.5 -224t-244.5 -67.5t-264 103q-6 -37 -6 -81q0 -135 77.5 -216t190.5 -92.5t246 54t233 200.5v-272 q-178 -188 -452 -188q-207 0 -353.5 128t-146.5 369q0 160 61 287q-61 127 -61 287q0 242 147.5 372.5t356.5 130.5q129 2 246.5 -48t201.5 -140v-279zM739 764q0 31 -21.5 54.5t-58 31.5t-78.5 4t-87 -27.5t-80 -64.5q35 -41 80 -63.5t87 -26.5t78.5 5t58 32.5t21.5 54.5z " glyph-name="Eacute.aalt" horiz-adv-x="1167"/><glyph d="M508 1679l-211 267h235l91 -168l90 168h235l-211 -267h-229zM1075 1087q-94 137 -226 205t-246 57.5t-194.5 -94.5t-80.5 -223q0 -41 6 -82q119 92 262 104.5t245.5 -66.5t102.5 -224.5t-101.5 -224t-244.5 -67.5t-264 103q-6 -37 -6 -81q0 -135 77.5 -216t190.5 -92.5 t246 54t233 200.5v-272q-178 -188 -452 -188q-207 0 -353.5 128t-146.5 369q0 160 61 287q-61 127 -61 287q0 242 147.5 372.5t356.5 130.5q129 2 246.5 -48t201.5 -140v-279zM739 764q0 31 -21.5 54.5t-58 31.5t-78.5 4t-87 -27.5t-80 -64.5q35 -41 80 -63.5t87 -26.5 t78.5 5t58 32.5t21.5 54.5z" glyph-name="Ecaron.aalt" horiz-adv-x="1167"/><glyph d="M623 1847l-91 -168h-235l211 267h229l211 -267h-235zM1075 1087q-94 137 -226 205t-246 57.5t-194.5 -94.5t-80.5 -223q0 -41 6 -82q119 92 262 104.5t245.5 -66.5t102.5 -224.5t-101.5 -224t-244.5 -67.5t-264 103q-6 -37 -6 -81q0 -135 77.5 -216t190.5 -92.5t246 54 t233 200.5v-272q-178 -188 -452 -188q-207 0 -353.5 128t-146.5 369q0 160 61 287q-61 127 -61 287q0 242 147.5 372.5t356.5 130.5q129 2 246.5 -48t201.5 -140v-279zM739 764q0 31 -21.5 54.5t-58 31.5t-78.5 4t-87 -27.5t-80 -64.5q35 -41 80 -63.5t87 -26.5t78.5 5 t58 32.5t21.5 54.5z" glyph-name="Ecircumflex.aalt" horiz-adv-x="1167"/><glyph d="M956 2302l-229 -266h-182l147 266h264zM623 1847l-91 -168h-235l211 267h229l211 -267h-235zM1075 1087q-94 137 -226 205t-246 57.5t-194.5 -94.5t-80.5 -223q0 -41 6 -82q119 92 262 104.5t245.5 -66.5t102.5 -224.5t-101.5 -224t-244.5 -67.5t-264 103q-6 -37 -6 -81 q0 -135 77.5 -216t190.5 -92.5t246 54t233 200.5v-272q-178 -188 -452 -188q-207 0 -353.5 128t-146.5 369q0 160 61 287q-61 127 -61 287q0 242 147.5 372.5t356.5 130.5q129 2 246.5 -48t201.5 -140v-279zM739 764q0 31 -21.5 54.5t-58 31.5t-78.5 4t-87 -27.5t-80 -64.5 q35 -41 80 -63.5t87 -26.5t78.5 5t58 32.5t21.5 54.5z" glyph-name="uni1EBE.aalt" horiz-adv-x="1167"/><glyph d="M682 1847l-90 -168h-236l211 267h230l211 -267h-236zM1116 1087q-94 137 -226 205t-246 57.5t-194.5 -94.5t-80.5 -223q0 -41 6 -82q119 92 262 104.5t245.5 -66.5t102.5 -224.5t-101.5 -224t-244.5 -67.5t-264 103q-6 -37 -6 -81q0 -135 77.5 -216t190.5 -92.5t246 54 t233 200.5v-272q-178 -188 -452 -188q-207 0 -353.5 128t-146.5 369q0 160 61 287q-61 127 -61 287q0 242 147.5 372.5t356.5 130.5q129 2 246.5 -48t201.5 -140v-279zM780 764q0 31 -21.5 54.5t-58 31.5t-78.5 4t-87.5 -27.5t-79.5 -64.5q35 -41 80 -63.5t87 -26.5t78.5 5 t58 32.5t21.5 54.5zM487 -219l164 166l164 -166l-164 -162z" glyph-name="uni1EC6.aalt" horiz-adv-x="1146"/><glyph d="M690 2036h-182l-229 266h264zM737 1946l211 -267h-235l-90 168l-91 -168h-235l211 267h229zM1075 1087q-94 137 -226 205t-246 57.5t-194.5 -94.5t-80.5 -223q0 -41 6 -82q119 92 262 104.5t245.5 -66.5t102.5 -224.5t-101.5 -224t-244.5 -67.5t-264 103q-6 -37 -6 -81 q0 -135 77.5 -216t190.5 -92.5t246 54t233 200.5v-272q-178 -188 -452 -188q-207 0 -353.5 128t-146.5 369q0 160 61 287q-61 127 -61 287q0 242 147.5 372.5t356.5 130.5q129 2 246.5 -48t201.5 -140v-279zM739 764q0 31 -21.5 54.5t-58 31.5t-78.5 4t-87 -27.5t-80 -64.5 q35 -41 80 -63.5t87 -26.5t78.5 5t58 32.5t21.5 54.5z" glyph-name="uni1EC0.aalt" horiz-adv-x="1167"/><glyph d="M866 2150q-31 45 -73.5 16.5t-57.5 -100.5l-86 117q29 86 90.5 125t126 24.5t105.5 -71.5q70 -92 49 -213t-125 -186l-86 112q53 25 69.5 80t-12.5 96zM623 1847l-91 -168h-235l211 267h229l211 -267h-235zM1075 1087q-94 137 -226 205t-246 57.5t-194.5 -94.5 t-80.5 -223q0 -41 6 -82q119 92 262 104.5t245.5 -66.5t102.5 -224.5t-101.5 -224t-244.5 -67.5t-264 103q-6 -37 -6 -81q0 -135 77.5 -216t190.5 -92.5t246 54t233 200.5v-272q-178 -188 -452 -188q-207 0 -353.5 128t-146.5 369q0 160 61 287q-61 127 -61 287 q0 242 147.5 372.5t356.5 130.5q129 2 246.5 -48t201.5 -140v-279zM739 764q0 31 -21.5 54.5t-58 31.5t-78.5 4t-87 -27.5t-80 -64.5q35 -41 80 -63.5t87 -26.5t78.5 5t58 32.5t21.5 54.5z" glyph-name="uni1EC2.aalt" horiz-adv-x="1167"/><glyph d="M340 2011q-53 51 -58.5 129t45 138.5t146.5 60.5q72 0 123 -33t71.5 -72t44 -71.5t46.5 -32.5q55 0 55 57q0 70 -72 121q-8 6 -16 10h182q51 -53 56.5 -130t-45 -137t-146.5 -60q-78 0 -130 32.5t-69.5 70.5t-38 71t-42.5 33q-53 0 -54 -56q0 -70 80 -125q4 -4 8 -6h-186 zM737 1946l211 -267h-235l-90 168l-91 -168h-235l211 267h229zM1075 1087q-94 137 -226 205t-246 57.5t-194.5 -94.5t-80.5 -223q0 -41 6 -82q119 92 262 104.5t245.5 -66.5t102.5 -224.5t-101.5 -224t-244.5 -67.5t-264 103q-6 -37 -6 -81q0 -135 77.5 -216t190.5 -92.5 t246 54t233 200.5v-272q-178 -188 -452 -188q-207 0 -353.5 128t-146.5 369q0 160 61 287q-61 127 -61 287q0 242 147.5 372.5t356.5 130.5q129 2 246.5 -48t201.5 -140v-279zM739 764q0 31 -21.5 54.5t-58 31.5t-78.5 4t-87 -27.5t-80 -64.5q35 -41 80 -63.5t87 -26.5 t78.5 5t58 32.5t21.5 54.5z" glyph-name="uni1EC4.aalt" horiz-adv-x="1167"/><glyph d="M602 1819l-164 -162l-164 162l164 166zM971 1819l-164 -162l-164 162l164 166zM1075 1087q-94 137 -226 205t-246 57.5t-194.5 -94.5t-80.5 -223q0 -41 6 -82q119 92 262 104.5t245.5 -66.5t102.5 -224.5t-101.5 -224t-244.5 -67.5t-264 103q-6 -37 -6 -81 q0 -135 77.5 -216t190.5 -92.5t246 54t233 200.5v-272q-178 -188 -452 -188q-207 0 -353.5 128t-146.5 369q0 160 61 287q-61 127 -61 287q0 242 147.5 372.5t356.5 130.5q129 2 246.5 -48t201.5 -140v-279zM739 764q0 31 -21.5 54.5t-58 31.5t-78.5 4t-87 -27.5t-80 -64.5 q35 -41 80 -63.5t87 -26.5t78.5 5t58 32.5t21.5 54.5z" glyph-name="Edieresis.aalt" horiz-adv-x="1167"/><glyph d="M786 1839l-163 -162l-164 162l164 166zM1075 1087q-94 137 -226 205t-246 57.5t-194.5 -94.5t-80.5 -223q0 -41 6 -82q119 92 262 104.5t245.5 -66.5t102.5 -224.5t-101.5 -224t-244.5 -67.5t-264 103q-6 -37 -6 -81q0 -135 77.5 -216t190.5 -92.5t246 54t233 200.5v-272 q-178 -188 -452 -188q-207 0 -353.5 128t-146.5 369q0 160 61 287q-61 127 -61 287q0 242 147.5 372.5t356.5 130.5q129 2 246.5 -48t201.5 -140v-279zM739 764q0 31 -21.5 54.5t-58 31.5t-78.5 4t-87 -27.5t-80 -64.5q35 -41 80 -63.5t87 -26.5t78.5 5t58 32.5t21.5 54.5z " glyph-name="Edotaccent.aalt" horiz-adv-x="1167"/><glyph d="M1116 1087q-94 137 -226 205t-246 57.5t-194.5 -94.5t-80.5 -223q0 -41 6 -82q119 92 262 104.5t245.5 -66.5t102.5 -224.5t-101.5 -224t-244.5 -67.5t-264 103q-6 -37 -6 -81q0 -135 77.5 -216t190.5 -92.5t246 54t233 200.5v-272q-178 -188 -452 -188 q-207 0 -353.5 128t-146.5 369q0 160 61 287q-61 127 -61 287q0 242 147.5 372.5t356.5 130.5q129 2 246.5 -48t201.5 -140v-279zM780 764q0 31 -21.5 54.5t-58 31.5t-78.5 4t-87.5 -27.5t-79.5 -64.5q35 -41 80 -63.5t87 -26.5t78.5 5t58 32.5t21.5 54.5zM487 -219l164 166 l164 -166l-164 -162z" glyph-name="uni1EB8.aalt" horiz-adv-x="1146"/><glyph d="M690 1679h-182l-229 267h264zM1075 1087q-94 137 -226 205t-246 57.5t-194.5 -94.5t-80.5 -223q0 -41 6 -82q119 92 262 104.5t245.5 -66.5t102.5 -224.5t-101.5 -224t-244.5 -67.5t-264 103q-6 -37 -6 -81q0 -135 77.5 -216t190.5 -92.5t246 54t233 200.5v-272 q-178 -188 -452 -188q-207 0 -353.5 128t-146.5 369q0 160 61 287q-61 127 -61 287q0 242 147.5 372.5t356.5 130.5q129 2 246.5 -48t201.5 -140v-279zM739 764q0 31 -21.5 54.5t-58 31.5t-78.5 4t-87 -27.5t-80 -64.5q35 -41 80 -63.5t87 -26.5t78.5 5t58 32.5t21.5 54.5z " glyph-name="Egrave.aalt" horiz-adv-x="1167"/><glyph d="M627 1901q-31 45 -74 16t-57 -100l-86 116q29 86 90 125t125.5 24.5t105.5 -71.5q70 -92 49.5 -213t-125.5 -186l-86 112q53 25 70 80.5t-12 96.5zM1075 1087q-94 137 -226 205t-246 57.5t-194.5 -94.5t-80.5 -223q0 -41 6 -82q119 92 262 104.5t245.5 -66.5 t102.5 -224.5t-101.5 -224t-244.5 -67.5t-264 103q-6 -37 -6 -81q0 -135 77.5 -216t190.5 -92.5t246 54t233 200.5v-272q-178 -188 -452 -188q-207 0 -353.5 128t-146.5 369q0 160 61 287q-61 127 -61 287q0 242 147.5 372.5t356.5 130.5q129 2 246.5 -48t201.5 -140v-279z M739 764q0 31 -21.5 54.5t-58 31.5t-78.5 4t-87 -27.5t-80 -64.5q35 -41 80 -63.5t87 -26.5t78.5 5t58 32.5t21.5 54.5z" glyph-name="uni1EBA.aalt" horiz-adv-x="1167"/><glyph d="M879 1892v-174h-514v174h514zM1075 1087q-94 137 -226 205t-246 57.5t-194.5 -94.5t-80.5 -223q0 -41 6 -82q119 92 262 104.5t245.5 -66.5t102.5 -224.5t-101.5 -224t-244.5 -67.5t-264 103q-6 -37 -6 -81q0 -135 77.5 -216t190.5 -92.5t246 54t233 200.5v-272 q-178 -188 -452 -188q-207 0 -353.5 128t-146.5 369q0 160 61 287q-61 127 -61 287q0 242 147.5 372.5t356.5 130.5q129 2 246.5 -48t201.5 -140v-279zM739 764q0 31 -21.5 54.5t-58 31.5t-78.5 4t-87 -27.5t-80 -64.5q35 -41 80 -63.5t87 -26.5t78.5 5t58 32.5t21.5 54.5z " glyph-name="Emacron.aalt" horiz-adv-x="1167"/><glyph d="M1075 1087q-94 137 -226 205t-246 57.5t-194.5 -94.5t-80.5 -223q0 -41 6 -82q119 92 262 104.5t245.5 -66.5t102.5 -224.5t-101.5 -224t-244.5 -67.5t-264 103q-6 -37 -6 -81q0 -135 77.5 -216t190.5 -92.5t246 54t233 200.5v-272q-147 -156 -356 -182 q-147 -84 -147.5 -145.5t59.5 -61.5q61 0 98 26l21 -206q-66 -27 -140 -27q-106 0 -168.5 69.5t-62.5 153.5q0 125 84 207q-152 43 -246 164t-94 311q0 160 61 287q-61 127 -61 287q0 242 147.5 372.5t356.5 130.5q129 2 246.5 -48t201.5 -140v-279zM739 764 q0 31 -21.5 54.5t-58 31.5t-78.5 4t-87 -27.5t-80 -64.5q35 -41 80 -63.5t87 -26.5t78.5 5t58 32.5t21.5 54.5z" glyph-name="Eogonek.aalt" horiz-adv-x="1167"/><glyph d="M340 1655q-53 51 -58.5 129t45 138t146.5 60q72 0 123 -32.5t71.5 -71.5t44 -71.5t46.5 -32.5q55 0 55 57q0 70 -72 121q-8 6 -16 10h182q51 -53 56.5 -130t-45 -137.5t-146.5 -60.5q-78 0 -130 33t-69.5 71t-38 70.5t-42.5 32.5q-53 0 -54 -55q0 -70 80 -125q4 -4 8 -6 h-186zM1075 1087q-94 137 -226 205t-246 57.5t-194.5 -94.5t-80.5 -223q0 -41 6 -82q119 92 262 104.5t245.5 -66.5t102.5 -224.5t-101.5 -224t-244.5 -67.5t-264 103q-6 -37 -6 -81q0 -135 77.5 -216t190.5 -92.5t246 54t233 200.5v-272q-178 -188 -452 -188 q-207 0 -353.5 128t-146.5 369q0 160 61 287q-61 127 -61 287q0 242 147.5 372.5t356.5 130.5q129 2 246.5 -48t201.5 -140v-279zM739 764q0 31 -21.5 54.5t-58 31.5t-78.5 4t-87 -27.5t-80 -64.5q35 -41 80 -63.5t87 -26.5t78.5 5t58 32.5t21.5 54.5z" glyph-name="uni1EBC.aalt" horiz-adv-x="1167"/><glyph d="M451 1536h204v-1536h-594v205h390v1331z" glyph-name="J.aalt" horiz-adv-x="778"/><glyph d="M637 872q207 -100 339 -307t206 -534l-199 -49q-84 371 -238.5 551t-410.5 219q-2 0 -6 -2v-750h-205v1536h205v-578h4q205 51 366.5 220.5t196.5 375.5l201 -36q-33 -195 -157 -366t-302 -280z" glyph-name="K.salt" horiz-adv-x="1243"/><glyph d="M911 907h244v-907h-205v702h-622v-702h-205v1536h205v-629h379v629h204v-629z" glyph-name="K.ss02" horiz-adv-x="1277"/><glyph d="M637 872q207 -100 339 -307t206 -534l-199 -49q-84 371 -238.5 551t-410.5 219q-2 0 -6 -2v-750h-205v1536h205v-578h4q205 51 366.5 220.5t196.5 375.5l201 -36q-33 -195 -157 -366t-302 -280zM299 -571l180 458l197 -92l-232 -434z" glyph-name="Kcommaaccent.salt" horiz-adv-x="1243"/><glyph d="M911 907h244v-907h-205v702h-622v-702h-205v1536h205v-629h379v629h204v-629zM303 -571l180 458l197 -92l-231 -434z" glyph-name="Kcommaaccent.ss02" horiz-adv-x="1277"/><glyph d="M987 285l135 -123q-94 -190 -250 -191q-74 0 -120.5 32t-100.5 99q-74 90 -141 91q-137 0 -186 -218l-201 45q70 483 98.5 811t26.5 705h205q2 -532 -78 -1180q72 39 143 39q78 0 127 -29.5t100 -91.5q29 -35 43.5 -50t38 -30.5t47.5 -15.5q39 0 63.5 26t49.5 81z" glyph-name="L.aalt" horiz-adv-x="1173"/><glyph d="M682 1946l-229 -267h-183l148 267h264zM987 285l135 -123q-94 -190 -250 -191q-74 0 -120.5 32t-100.5 99q-74 90 -141 91q-137 0 -186 -218l-201 45q70 483 98.5 811t26.5 705h205q2 -532 -78 -1180q72 39 143 39q78 0 127 -29.5t100 -91.5q29 -35 43.5 -50t38 -30.5 t47.5 -15.5q39 0 63.5 26t49.5 81z" glyph-name="Lacute.aalt" horiz-adv-x="1173"/><glyph d="M987 285l135 -123q-94 -190 -250 -191q-74 0 -120.5 32t-100.5 99q-74 90 -141 91q-137 0 -186 -218l-201 45q70 483 98.5 811t26.5 705h205q2 -532 -78 -1180q72 39 143 39q78 0 127 -29.5t100 -91.5q29 -35 43.5 -50t38 -30.5t47.5 -15.5q39 0 63.5 26t49.5 81z M723 1044h-162l-29 492h218z" glyph-name="Lcaron.aalt" horiz-adv-x="1193"/><glyph d="M987 285l135 -123q-94 -190 -250 -191q-74 0 -120.5 32t-100.5 99q-74 90 -141 91q-137 0 -186 -218l-201 45q70 483 98.5 811t26.5 705h205q2 -532 -78 -1180q72 39 143 39q78 0 127 -29.5t100 -91.5q29 -35 43.5 -50t38 -30.5t47.5 -15.5q39 0 63.5 26t49.5 81z M307 -571l180 458l197 -92l-231 -434z" glyph-name="Lcommaaccent.aalt" horiz-adv-x="1173"/><glyph d="M979 285l135 -123q-94 -190 -250 -191q-74 0 -121 32t-100 99q-74 90 -141 91q-137 0 -187 -218l-200 45q47 344 63 486l-117 -103v273l148 129q31 324 31 731h204q0 -309 -16 -541l129 113v-272l-151 -134q-8 -96 -39 -346q72 39 143 39q78 0 127 -29.5t100 -91.5 q29 -35 43.5 -50t38 -30.5t47.5 -15.5q39 0 63.5 26t49.5 81z" glyph-name="Lslash.aalt" horiz-adv-x="1185"/><glyph d="M1118 1556q129 0 230.5 -85t159 -219t84 -306t15 -344t-55.5 -332.5t-117 -269.5h-207q96 174 143 371.5t42 367.5t-43 310.5t-108.5 221.5t-156.5 81q-70 0 -133 -43q102 -162 151 -394.5t37 -437.5t-93 -351t-216 -146t-216 146t-93.5 351t37 437.5t151.5 394.5 q-63 43 -131 43q-86 0 -156.5 -81t-108.5 -221.5t-43 -310.5t42 -367.5t143 -371.5h-209q-88 131 -135 331.5t-39 409.5t58.5 394.5t164 303t269.5 117.5q145 0 266 -104q121 104 268 104zM850 184q74 0 105.5 173t4 408.5t-109.5 393.5q-82 -158 -109.5 -393.5t4 -408.5 t105.5 -173z" glyph-name="M.salt" horiz-adv-x="1701"/><glyph d="M123 1536h1436v-1536h-205v1331h-410v-1331h-205v1331h-411v-1331h-205v1536z" glyph-name="M.ss02" horiz-adv-x="1681"/><glyph d="M1001 1487l168 92q174 -188 248 -485t25 -582q-41 -244 -157 -388t-279 -144q-172 0 -271.5 131t-99.5 340q0 115 58.5 311t60.5 295q4 123 -47.5 209t-131.5 86q-72 0 -130 -70t-93 -190q-68 -229 -3 -538.5t231 -512.5l-172 -84q-180 207 -252 561t14 653 q53 180 161.5 282.5t243.5 102.5q170 0 270.5 -134t98.5 -357q-2 -143 -57.5 -332.5t-55.5 -269.5q0 -119 51.5 -199t125.5 -80q86 0 153.5 105.5t91.5 273.5q37 248 -29.5 496t-222.5 428z" glyph-name="N.salt" horiz-adv-x="1583"/><glyph d="M1167 1536h205v-1536h-721v1331h-323v-1331h-205v1536h733v-1331h311v1331z" glyph-name="N.ss02" horiz-adv-x="1495"/><glyph d="M889 1946h264l-229 -267h-183zM1001 1487l168 92q174 -188 248 -485t25 -582q-41 -244 -157 -388t-279 -144q-172 0 -271.5 131t-99.5 340q0 115 58.5 311t60.5 295q4 123 -47.5 209t-131.5 86q-72 0 -130 -70t-93 -190q-68 -229 -3 -538.5t231 -512.5l-172 -84 q-180 207 -252 561t14 653q53 180 161.5 282.5t243.5 102.5q170 0 270.5 -134t98.5 -357q-2 -143 -57.5 -332.5t-55.5 -269.5q0 -119 51.5 -199t125.5 -80q86 0 153.5 105.5t91.5 273.5q37 248 -29.5 496t-222.5 428z" glyph-name="Nacute.salt" horiz-adv-x="1583"/><glyph d="M1085 1946l-229 -267h-182l147 267h264zM1167 1536h205v-1536h-721v1331h-323v-1331h-205v1536h733v-1331h311v1331z" glyph-name="Nacute.ss02" horiz-adv-x="1495"/><glyph d="M705 1679l-211 267h235l90 -168l90 168h236l-211 -267h-229zM1169 1579q174 -188 248 -485t25 -582q-41 -244 -157 -388t-279 -144q-172 0 -271.5 131t-99.5 340q0 115 58.5 311t60.5 295q4 123 -47.5 209t-131.5 86q-72 0 -130 -70t-93 -190q-68 -229 -3 -538.5 t231 -512.5l-172 -84q-180 207 -252 561t14 653q53 180 161.5 282.5t243.5 102.5q170 0 270.5 -134t98.5 -357q-2 -143 -57.5 -332.5t-55.5 -269.5q0 -119 51.5 -199t125.5 -80q86 0 153.5 105.5t91.5 273.5q37 248 -29.5 496t-222.5 428z" glyph-name="Ncaron.salt" horiz-adv-x="1583"/><glyph d="M637 1679l-211 267h236l90 -168l90 168h235l-211 -267h-229zM1167 1536h205v-1536h-721v1331h-323v-1331h-205v1536h733v-1331h311v1331z" glyph-name="Ncaron.ss02" horiz-adv-x="1495"/><glyph d="M1001 1487l168 92q174 -188 248 -485t25 -582q-41 -244 -157 -388t-279 -144q-172 0 -271.5 131t-99.5 340q0 115 58.5 311t60.5 295q4 123 -47.5 209t-131.5 86q-72 0 -130 -70t-93 -190q-68 -229 -3 -538.5t231 -512.5l-172 -84q-180 207 -252 561t14 653 q53 180 161.5 282.5t243.5 102.5q170 0 270.5 -134t98.5 -357q-2 -143 -57.5 -332.5t-55.5 -269.5q0 -119 51.5 -199t125.5 -80q86 0 153.5 105.5t91.5 273.5q37 248 -29.5 496t-222.5 428zM539 -571l180 458l196 -92l-231 -434z" glyph-name="Ncommaaccent.salt" horiz-adv-x="1583"/><glyph d="M1167 1536h205v-1536h-721v1331h-323v-1331h-205v1536h733v-1331h311v1331zM471 -571l180 458l197 -92l-232 -434z" glyph-name="Ncommaaccent.ss02" horiz-adv-x="1495"/><glyph d="M1169 1579q174 -188 248 -485t25 -582q-33 -197 -118 -332t-206 -180v-98q0 -141 -94 -236.5t-244 -95.5q-135 0 -215 84v225q16 -39 76.5 -71.5t130.5 -32.5q141 0 141 153v62q-131 35 -204.5 158.5t-73.5 302.5q0 115 58.5 311t60.5 295q4 123 -47.5 209t-131.5 86 q-72 0 -130 -70t-93 -190q-68 -229 -3 -538.5t231 -512.5l-172 -84q-180 207 -252 561t14 653q53 180 161.5 282.5t243.5 102.5q170 0 270.5 -134t98.5 -357q-2 -143 -57.5 -332.5t-55.5 -269.5q0 -119 51.5 -199t125.5 -80q86 0 153.5 105.5t91.5 273.5q37 248 -29.5 496 t-222.5 428z" glyph-name="Eng.salt" horiz-adv-x="1583"/><glyph d="M1167 1536h205v-1638q0 -141 -94 -236.5t-244 -95.5q-135 0 -215 84v225q16 -39 76.5 -71.5t130.5 -32.5q141 0 141 153v76h-516v1331h-323v-1331h-205v1536h733v-1331h311v1331z" glyph-name="Eng.ss02" horiz-adv-x="1495"/><glyph d="M670 1982q72 0 123 -32.5t71.5 -71.5t44 -71.5t45.5 -32.5q55 0 56 57q0 70 -72 121q-8 6 -16 10h182q51 -53 56 -130t-45 -137.5t-146 -60.5q-78 0 -130.5 33t-69.5 71t-37.5 70.5t-43.5 32.5q-53 0 -53 -55q0 -70 80 -125q4 -4 8 -6h-186q-53 51 -58.5 129t45 138 t146.5 60zM1001 1487l168 92q174 -188 248 -485t25 -582q-41 -244 -157 -388t-279 -144q-172 0 -271.5 131t-99.5 340q0 115 58.5 311t60.5 295q4 123 -47.5 209t-131.5 86q-72 0 -130 -70t-93 -190q-68 -229 -3 -538.5t231 -512.5l-172 -84q-180 207 -252 561t14 653 q53 180 161.5 282.5t243.5 102.5q170 0 270.5 -134t98.5 -357q-2 -143 -57.5 -332.5t-55.5 -269.5q0 -119 51.5 -199t125.5 -80q86 0 153.5 105.5t91.5 273.5q37 248 -29.5 496t-222.5 428z" glyph-name="Ntilde.salt" horiz-adv-x="1583"/><glyph d="M469 1655q-53 51 -58 129t45 138t146 60q72 0 123 -32.5t71.5 -71.5t44 -71.5t46.5 -32.5q55 0 55 57q0 70 -72 121q-8 6 -16 10h182q51 -53 56.5 -130t-45 -137.5t-146.5 -60.5q-78 0 -130 33t-69.5 71t-38 70.5t-42.5 32.5q-53 0 -54 -55q0 -70 80 -125q4 -4 8 -6h-186 zM1167 1536h205v-1536h-721v1331h-323v-1331h-205v1536h733v-1331h311v1331z" glyph-name="Ntilde.ss02" horiz-adv-x="1495"/><glyph d="M1659 1536v-1536h-1536v1536h1536zM1454 1331h-1126v-1126h1126v1126z" glyph-name="O.ss02" horiz-adv-x="1781"/><glyph d="M1225 1946l-230 -267h-182l148 267h264zM1659 1536v-1536h-1536v1536h1536zM1454 1331h-1126v-1126h1126v1126z" glyph-name="Oacute.aalt" horiz-adv-x="1781"/><glyph d="M776 1679l-211 267h236l90 -168l90 168h236l-211 -267h-230zM1659 1536v-1536h-1536v1536h1536zM1454 1331h-1126v-1126h1126v1126z" glyph-name="uni01D1.aalt" horiz-adv-x="1781"/><glyph d="M891 1847l-90 -168h-236l211 267h230l211 -267h-236zM1659 1536v-1536h-1536v1536h1536zM1454 1331h-1126v-1126h1126v1126z" glyph-name="Ocircumflex.aalt" horiz-adv-x="1781"/><glyph d="M1225 2302l-230 -266h-182l148 266h264zM891 1847l-90 -168h-236l211 267h230l211 -267h-236zM1659 1536v-1536h-1536v1536h1536zM1454 1331h-1126v-1126h1126v1126z" glyph-name="uni1ED0.aalt" horiz-adv-x="1781"/><glyph d="M891 1847l-90 -168h-236l211 267h230l211 -267h-236zM1659 1536v-1536h-1536v1536h1536zM1454 1331h-1126v-1126h1126v1126zM727 -219l164 166l164 -166l-164 -162z" glyph-name="uni1ED8.aalt" horiz-adv-x="1781"/><glyph d="M958 2036h-182l-229 266h264zM1006 1946l211 -267h-236l-90 168l-90 -168h-236l211 267h230zM1659 1536v-1536h-1536v1536h1536zM1454 1331h-1126v-1126h1126v1126z" glyph-name="uni1ED2.aalt" horiz-adv-x="1781"/><glyph d="M1135 2150q-31 45 -74 16.5t-57 -100.5l-86 117q29 86 90 125t125.5 24.5t105.5 -71.5q70 -92 49.5 -213t-125.5 -186l-86 112q53 25 70 80t-12 96zM891 1847l-90 -168h-236l211 267h230l211 -267h-236zM1659 1536v-1536h-1536v1536h1536zM1454 1331h-1126v-1126h1126 v1126z" glyph-name="uni1ED4.aalt" horiz-adv-x="1781"/><glyph d="M608 2011q-53 51 -58 129t45 138.5t146 60.5q72 0 123 -33t71.5 -72t44.5 -71.5t46 -32.5q55 0 55 57q0 70 -71 121q-8 6 -17 10h183q51 -53 56 -130t-45 -137t-147 -60q-78 0 -130 32.5t-69.5 70.5t-38 71t-42.5 33q-53 0 -53 -56q0 -70 79 -125q4 -4 9 -6h-187z M1006 1946l211 -267h-236l-90 168l-90 -168h-236l211 267h230zM1659 1536v-1536h-1536v1536h1536zM1454 1331h-1126v-1126h1126v1126z" glyph-name="uni1ED6.aalt" horiz-adv-x="1781"/><glyph d="M870 1819l-163 -162l-164 162l164 166zM1239 1819l-164 -162l-164 162l164 166zM1659 1536v-1536h-1536v1536h1536zM1454 1331h-1126v-1126h1126v1126z" glyph-name="Odieresis.aalt" horiz-adv-x="1781"/><glyph d="M1659 1536v-1536h-1536v1536h1536zM1454 1331h-1126v-1126h1126v1126zM727 -219l164 166l164 -166l-164 -162z" glyph-name="uni1ECC.aalt" horiz-adv-x="1781"/><glyph d="M958 1679h-182l-229 267h264zM1659 1536v-1536h-1536v1536h1536zM1454 1331h-1126v-1126h1126v1126z" glyph-name="Ograve.aalt" horiz-adv-x="1781"/><glyph d="M895 1901q-31 45 -74 16t-57 -100l-86 116q29 86 90 125t125.5 24.5t105.5 -71.5q70 -92 49.5 -213t-124.5 -186l-86 112q53 25 69.5 80.5t-12.5 96.5zM1659 1536v-1536h-1536v1536h1536zM1454 1331h-1126v-1126h1126v1126z" glyph-name="uni1ECE.aalt" horiz-adv-x="1781"/><glyph d="M1880 1585q0 -104 -61.5 -170.5t-159.5 -81.5v-1333h-1536v1536h1458q41 0 65.5 27.5t24.5 66.5q0 72 -55 111h207q57 -66 57 -156zM1454 1331h-1126v-1126h1126v1126z" glyph-name="Ohorn.aalt" horiz-adv-x="1781"/><glyph d="M1225 1946l-230 -267h-182l148 267h264zM1880 1585q0 -104 -61.5 -170.5t-159.5 -81.5v-1333h-1536v1536h1458q41 0 65.5 27.5t24.5 66.5q0 72 -55 111h207q57 -66 57 -156zM1454 1331h-1126v-1126h1126v1126z" glyph-name="uni1EDA.aalt" horiz-adv-x="1781"/><glyph d="M1880 1585q0 -104 -61.5 -170.5t-159.5 -81.5v-1333h-1536v1536h1458q41 0 65.5 27.5t24.5 66.5q0 72 -55 111h207q57 -66 57 -156zM1454 1331h-1126v-1126h1126v1126zM727 -219l164 166l164 -166l-164 -162z" glyph-name="uni1EE2.aalt" horiz-adv-x="1781"/><glyph d="M958 1679h-182l-229 267h264zM1880 1585q0 -104 -61.5 -170.5t-159.5 -81.5v-1333h-1536v1536h1458q41 0 65.5 27.5t24.5 66.5q0 72 -55 111h207q57 -66 57 -156zM1454 1331h-1126v-1126h1126v1126z" glyph-name="uni1EDC.aalt" horiz-adv-x="1781"/><glyph d="M895 1901q-31 45 -74 16t-57 -100l-86 116q29 86 90 125t125.5 24.5t105.5 -71.5q70 -92 49.5 -213t-124.5 -186l-86 112q53 25 69.5 80.5t-12.5 96.5zM1880 1585q0 -104 -61.5 -170.5t-159.5 -81.5v-1333h-1536v1536h1458q41 0 65.5 27.5t24.5 66.5q0 72 -55 111h207 q57 -66 57 -156zM1454 1331h-1126v-1126h1126v1126z" glyph-name="uni1EDE.aalt" horiz-adv-x="1781"/><glyph d="M608 1655q-53 51 -58 129t45 138t146 60q72 0 123 -32.5t71.5 -71.5t44.5 -71.5t46 -32.5q55 0 55 57q0 70 -71 121q-8 6 -17 10h183q51 -53 56 -130t-45 -137.5t-147 -60.5q-78 0 -130 33t-69.5 71t-38 70.5t-42.5 32.5q-53 0 -53 -55q0 -70 79 -125q4 -4 9 -6h-187z M1880 1585q0 -104 -61.5 -170.5t-159.5 -81.5v-1333h-1536v1536h1458q41 0 65.5 27.5t24.5 66.5q0 72 -55 111h207q57 -66 57 -156zM1454 1331h-1126v-1126h1126v1126z" glyph-name="uni1EE0.aalt" horiz-adv-x="1781"/><glyph d="M1081 1946l-229 -267h-182l147 267h264zM1167 1679h-182l148 267h264zM1659 1536v-1536h-1536v1536h1536zM1454 1331h-1126v-1126h1126v1126z" glyph-name="Ohungarumlaut.aalt" horiz-adv-x="1781"/><glyph d="M1147 1892v-174h-514v174h514zM1659 1536v-1536h-1536v1536h1536zM1454 1331h-1126v-1126h1126v1126z" glyph-name="Omacron.aalt" horiz-adv-x="1781"/><glyph d="M1659 1536v-1536h-1536v1536h1536zM1223 1331h-895v-1083zM1454 1288l-893 -1083h893v1083z" glyph-name="Oslash.aalt" horiz-adv-x="1781"/><glyph d="M608 1655q-53 51 -58 129t45 138t146 60q72 0 123 -32.5t71.5 -71.5t44.5 -71.5t46 -32.5q55 0 55 57q0 70 -71 121q-8 6 -17 10h183q51 -53 56 -130t-45 -137.5t-147 -60.5q-78 0 -130 33t-69.5 71t-38 70.5t-42.5 32.5q-53 0 -53 -55q0 -70 79 -125q4 -4 9 -6h-187z M1659 1536v-1536h-1536v1536h1536zM1454 1331h-1126v-1126h1126v1126z" glyph-name="Otilde.aalt" horiz-adv-x="1781"/><glyph d="M1167 1331h-839v-461h839v-870h-1044v205h840v461h-840v870h1044v-205z" glyph-name="S.aalt" horiz-adv-x="1290"/><glyph d="M979 1946l-229 -267h-183l148 267h264zM1167 1331h-839v-461h839v-870h-1044v205h840v461h-840v870h1044v-205z" glyph-name="Sacute.aalt" horiz-adv-x="1290"/></font>
</defs>
</svg>
