<?xml version="1.0" standalone="no"?>
<!DOCTYPE svg PUBLIC "-//W3C//DTD SVG 1.1//EN" "http://www.w3.org/Graphics/SVG/1.1/DTD/svg11.dtd" >
<svg xmlns="http://www.w3.org/2000/svg">
<metadata>Generated by IcoMoon</metadata>
<defs>
<font id="icomoon" horiz-adv-x="1024">
<font-face units-per-em="1024" ascent="960" descent="-64" />
<missing-glyph horiz-adv-x="1024" />
<glyph unicode="&#x20;" horiz-adv-x="512" d="" />
<glyph unicode="&#xe900;" glyph-name="add-blue" d="M725.333 448c0-23.564-19.103-42.667-42.667-42.667h-341.333c-23.564 0-42.667 19.103-42.667 42.667s19.103 42.667 42.667 42.667h341.333c23.564 0 42.667-19.103 42.667-42.667zM554.667 277.333c0-23.565-19.102-42.667-42.667-42.667s-42.667 19.102-42.667 42.667v341.333c0 23.564 19.102 42.667 42.667 42.667s42.667-19.102 42.667-42.667v-341.333zM512-64c-282.802 0-512 229.244-512 512 0 282.758 229.198 512 512 512s512-229.242 512-512c0-282.756-229.197-512-512-512zM512 21.333c235.639 0 426.667 191.027 426.667 426.667 0 235.642-191.027 426.667-426.667 426.667-235.642 0-426.667-191.025-426.667-426.667 0-235.639 191.025-426.667 426.667-426.667z" />
<glyph unicode="&#xe901;" glyph-name="administrator" horiz-adv-x="922" d="M630.897 750.9c60.984-29.902 122.614-44.403 186.086-55.965-12.544-236.71-76.472-386.445-147.313-482.025-68.383-92.273-148.311-140.943-210.599-167.542-66.31 25.477-143.538 64.374-209.435 149.064-68.633 88.207-133.386 237.271-145.29 498.571 64.65 9.221 137.135 21.196 199.939 51.993l0.039 0.019c41.232 20.24 84.744 51.951 116.469 75.073 4.35 3.17 8.479 6.179 12.349 8.975 13.484 9.739 24.263 17.3 33.027 22.951 10.012-5.265 22.424-12.805 37.973-22.893 6.73-4.366 14.309-9.416 22.491-14.87 30.464-20.3 69.335-46.206 104.228-63.333l0.036-0.019zM587.54 896.772c-48.44 32.226-95.040 63.228-126.74 63.228-21.688 0-59.098-27.185-100.796-57.485-32.803-23.837-68.26-49.603-100.804-65.578-52.573-25.78-114.302-34.606-184.973-44.71-10.312-1.474-20.815-2.976-31.507-4.561-24.699-3.662-42.79-25.345-42.278-50.308 12.528-610.761 288.893-739.611 442.753-795.342 10.934-3.958 22.828-4.019 33.692 0.128 154.799 59.090 430.613 235.249 444.191 795.318 0.609 24.961-17.51 46.487-42.132 50.642-80.794 13.637-142.889 25.278-202.962 54.736-28.15 13.819-58.644 34.106-88.443 53.931z" />
<glyph unicode="&#xe902;" glyph-name="agent" horiz-adv-x="1078" d="M0 582.737c0 89.295 72.389 161.684 161.684 161.684h754.526c89.298 0 161.684-72.389 161.684-161.684v-485.053c0-89.298-72.386-161.684-161.684-161.684h-754.526c-89.295 0-161.684 72.386-161.684 161.684v485.053zM161.684 636.632c-29.765 0-53.895-24.13-53.895-53.895v-485.053c0-29.766 24.13-53.895 53.895-53.895h754.526c29.766 0 53.895 24.129 53.895 53.895v485.053c0 29.765-24.129 53.895-53.895 53.895h-754.526zM323.368 852.211c0 59.531 48.259 107.789 107.789 107.789h215.579c59.532 0 107.789-48.259 107.789-107.789v-107.789c0-29.765-24.129-53.895-53.895-53.895s-53.895 24.13-53.895 53.895v107.789h-215.579v-107.789c0-29.765-24.13-53.895-53.895-53.895s-53.895 24.13-53.895 53.895v107.789zM431.158 474.947c0 29.765 24.13 53.895 53.895 53.895h107.789c29.766 0 53.895-24.13 53.895-53.895s-24.129-53.895-53.895-53.895h-107.789c-29.765 0-53.895 24.13-53.895 53.895z" />
<glyph unicode="&#xe903;" glyph-name="airplane-sm" horiz-adv-x="1451" d="M628.464 15.104c-11.087 0-21.381 5.026-28.208 13.764-10.65 13.628-12.124 33.92-4.642 63.898l62.614 333.607-36.291-16.22c-172.387-76.841-310.558-117.473-399.523-117.473-78.152 0-108.626 31.43-120.395 57.808l-96.557 216.515c-8.137 18.214-7.209 36.618 2.649 51.773 12.070 18.596 36.236 29.71 64.608 29.71 19.252 0 36.864-5.352 49.589-15.101 16.848-13.080 70.451-52.675 107.37-79.845 9.858-7.318 20.972-15.537 27.389-15.537 1.638 0 3.55 0.492 5.816 1.529l771.494 344.119c47.676 21.217 95.821 31.976 143.087 31.976 95.522 0 165.291-44.237 184.815-87.9 16.93-38.12-1.178-76.814-389.803-258.785l-203.164-439.583c-15.51-33.64-49.316-77.194-81.374-91.479l-42.571-19.029c-5.707-2.517-11.332-3.746-16.903-3.746zM301.849 749.029l125.829-76.24 247.534 110.428-228.72 69.932c-20.644 6.335-44.784 9.83-68.022 9.83-15.374 0-37.3-1.611-54.449-9.257l-42.653-19.005c-14.036-6.253-22.719-18.405-23.238-32.522-0.874-26.378 25.286-43.39 43.718-53.166z" />
<glyph unicode="&#xe904;" glyph-name="airplane" horiz-adv-x="1536" d="M1044.486 852.767c-57.53-24.887-131.366-56.803-199.104-86.012l-331.101 98.195c-24.652 7.269-50.958 10.376-75.464 10.734-24.222 0.355-48.356-1.569-71.58-11.489l-46.891-19.9c-9.283-4.009-24.219-11.921-32.423-29.546-8.085-17.369-5.587-37.165 1.256-50.538 11.47-22.415 30.051-33.816 49.864-44.145l0.559-0.539 167.201-98.131c-88.336-38.129-188.324-81.343-204.997-88.568-0.285 0.134-0.629 0.301-1.034 0.509-1.181 0.606-2.692 1.455-4.545 2.58-3.711 2.256-8.367 5.367-13.841 9.299l-0.072 0.052c-13.567 9.654-29.171 20.69-44.595 31.598-31.124 22.013-61.542 43.527-72.948 52.075l-0.136 0.1c-33.261 24.483-72.041 23.95-104.507 13.725-16.477-5.21-35.889-14.767-48.939-35.183-13.386-20.941-14.781-49.8-4.084-72.866 9.398-20.356 28.268-60.616 48.056-102.836l4.025-8.588c21.247-45.334 42.89-91.535 54.616-116.972 15.791-34.234 48.109-56.378 84.961-65.805 36.179-9.254 78.393-8.576 126.291-2.24 96.41 12.87 224.579 52.832 384.237 121.5l6.24 2.684-62.534-318.692v-1.274c-5.261-21.018-9.114-42.496 0.544-65.862l0.058-0.141c5.965-14.118 19.712-28.077 37.446-33.606 17.645-5.504 32.704-1.99 43.29 2.426l46.989 19.942c23.309 10.022 41.498 26.963 57.35 44.608 16.205 18.035 31.635 39.776 42.419 62.438l13.286 27.91h-0.851l206.291 430.542c108.832 49.24 213.498 98.377 290.586 140.354 40.352 22.013 74.278 42.442 98.886 61.192 12.461 9.495 22.906 18.883 31.898 30.943 8.749 11.729 22.4 36.326 9.555 64.11-22.253 48.047-75.84 80.158-141.498 95.667-25.126 5.878-51.987 9.111-81.478 8.636-10.042-0.124-20.723-0.975-30.509-1.884-40.896-3.664-85.626-13.474-131.347-33.099l-101.427-43.905zM298.98 442.099c14.701-5.228 19.895-7.076 37.828 0.707l2.726 0.9c3.173 1.345 22.172 9.572 50.888 22.008l0.060 0.026c56.003 24.252 148.916 64.486 233.523 100.909 0 0 90.657 38.776 128.954 55.286 28.058 12.097 57.037 24.589 104.87 45.156l0.096 0.029 25.536 10.762c68.077 29.232 143.040 61.391 201.274 86.366l100.922 43.275c36.090 15.472 70.458 23.734 100.704 26.48 7.373 0.616 14.509 0.829 21.702 0.829 21.325 0 40.89-2.623 58.24-6.704 25.325-5.958 43.584-15.587 55.514-24.344-17.818-12.765-44.89-29.249-79.091-47.829-76.864-41.82-185.651-93.122-299.987-144.654l-16.902-7.412-7.75-16.44-227.475-474.923c-6.086-12.845-15.443-27.059-25.869-38.624-2.259-2.502-4.621-4.864-6.963-7.040l71.488 367.473 18.829 90.784-86.874-37.406c-13.978-6.035-27.571-11.94-40.787-17.681-17.581-7.639-34.534-15.004-50.912-22.031-155.325-66.758-275.574-103.315-357.094-114.141-40.721-5.471-70.623-3.978-88.080 0.468-9.046 2.304-13.816 4.701-16.412 6.556-2.223 1.588-3.38 3.137-4.396 5.321l-17.144 20.367c-16.045 34.612-38.442 77.356-57.718 114.145-14.795 28.237-27.753 52.968-34.591 67.821l-0.411 0.893c-0.326 0.787-0.539 0.805-0.717 0.821l-0.219 0.081c1.053 0.79 3.042 1.919 5.616 2.708 1.625 0.516 3.466 0.851 5.424 1.039 0.449 0.043 0.905 0.079 1.366 0.107 1.784 0.11 3.644 0.111 5.508 0.031 0.794-0.035 1.59-0.084 2.38-0.146 6.169-0.484 12.074-1.749 15.178-2.836 0.62-0.217 1.127-0.427 1.503-0.622 0.188-0.098 0.344-0.191 0.463-0.281v0.903l1.214-0.903c4.535-3.368 10.828-7.983 18.311-13.436 13.561-9.882 33.030-22.306 52.984-35.039 19.171-12.234 38.792-24.755 54.050-35.581l3.512-2.504c10.822-7.738 22.065-15.776 36.735-20.968l1.993-0.707zM437.24 778.863c16.79-0.32 34.532-2.358 48.148-6.413l221.447-65.101-29.53-12.683c-16.038-6.884-32.57-13.979-58.641-25.204l-186.812 109.398c1.765 0.036 3.566 0.039 5.388 0.004z" />
<glyph unicode="&#xe905;" glyph-name="alert" d="M512 35.108c232.486 0 420.955 188.468 420.955 420.955s-188.468 420.955-420.955 420.955c-232.486 0-420.955-188.469-420.955-420.955s188.469-420.955 420.955-420.955zM1014.929 456.063c0-277.76-225.169-502.929-502.929-502.929s-502.929 225.169-502.929 502.929c0 277.76 225.169 502.929 502.929 502.929s502.929-225.169 502.929-502.929zM552.986 666.037v-251.969c0-22.637-18.349-40.988-40.986-40.988s-40.986 18.351-40.986 40.988v251.969c0 22.635 18.349 40.986 40.986 40.986s40.986-18.351 40.986-40.986zM552.986 246.089c0-22.635-18.349-40.986-40.986-40.986s-40.986 18.351-40.986 40.986c0 22.637 18.349 40.988 40.986 40.988s40.986-18.351 40.986-40.988z" />
<glyph unicode="&#xe906;" glyph-name="arrow-right" horiz-adv-x="2048" d="M1383.627 767.606c0.085 47.774 55.458 74.173 92.628 44.16l419.613-338.814c28.331-22.881 28.16-66.132-0.341-88.796l-420.808-334.469c-37.315-29.658-92.372-3.029-92.286 44.636l0.396 223.177h-1138.384c-62.838 0-113.777 50.941-113.777 113.778s50.94 113.777 113.777 113.777h1138.789l0.394 222.551z" />
<glyph unicode="&#xe907;" glyph-name="arrow" d="M782.858 397.307l-440.304-440.29c-28.009-28.022-73.42-28.022-101.415 0-27.997 27.997-27.997 73.406 0 101.401l389.601 389.589-389.589 389.576c-27.997 28.009-27.997 73.413 0 101.41 27.997 28.009 73.406 28.009 101.415 0l440.304-440.297c13.999-14.005 20.99-32.342 20.99-50.687 0-18.354-7.005-36.704-21.001-50.703z" />
<glyph unicode="&#xe908;" glyph-name="attach" d="M554.667 234.667c0 51.972 0.004 140.028 0 192 0 0 0 42.667 42.667 42.667s42.667-42.667 42.667-42.667v-192c0 0 0-128-128-128-127.998 0-127.998 128-127.998 128v426.667c0 0 0 128 127.998 128 128 0 128-128 128-128s0-42.667 42.667-42.667c42.667 0 42.667 42.667 42.662 40.9-0.043 129.766-85.329 215.1-213.329 215.1-127.998 0-213.337-103.086-213.332-216.684 0.007-131.596-0.006-291.72 0-423.316 0 0 0-213.333 213.332-213.333s212.894 213.333 212.894 213.333c0.529 62.379 0.401 128 0.004 192 0 0 0.435 128-127.565 128s-128-128-128-128c-0.307-57.826 0-134.174 0-192 0 0 0-42.667 42.667-42.667s42.667 42.667 42.667 42.667z" />
<glyph unicode="&#xe909;" glyph-name="auction" d="M510.703 892.518c-13.709 13.705-35.925 13.705-49.634 0v0.144l-259.842-259.987c-13.705-13.705-13.705-35.926 0-49.631l2.597-2.597c13.705-13.705 35.926-13.705 49.631 0l169.382-169.383-354.056-354.052c-14.423-14.426-14.423-37.807 0-52.228 14.423-14.426 37.806-14.426 52.228 0l354.054 354.052 169.382-169.378c-13.705-13.709-13.705-35.93 0-49.634l1.297-1.297c14.426-14.421 37.807-14.421 52.228 0l257.246 257.246c14.426 14.421 14.426 37.807 0 52.228l-1.297 1.297c-13.705 13.709-35.925 13.709-49.63 0l-390.993 390.992c13.709 13.705 13.709 35.926 0 49.632l-2.594 2.597zM461.069 788.061l58.577-58.576-155.386-155.386-58.577 58.576 155.385 155.386zM571.874 677.256l169.382-169.382-155.388-155.383-169.38 169.378 155.386 155.387zM793.485 455.646l58.577-58.577-155.388-155.383-58.577 58.577 155.388 155.383z" />
<glyph unicode="&#xe90a;" glyph-name="barcode" d="M85.333 704c0 47.128 38.205 85.333 85.333 85.333h682.667c47.13 0 85.333-38.205 85.333-85.333v-512c0-47.13-38.204-85.333-85.333-85.333h-682.667c-47.128 0-85.333 38.204-85.333 85.333v512zM853.333 704h-682.667v-512h682.667v512zM256 618.667h42.667v-341.333h-42.667v341.333zM341.333 618.667h85.333v-341.333h-85.333v341.333zM469.333 618.667h85.333v-341.333h-85.333v341.333zM597.333 618.667h42.667v-341.333h-42.667v341.333zM682.667 618.667h85.333v-341.333h-85.333v341.333z" />
<glyph unicode="&#xe90b;" glyph-name="battery_level" d="M101.5 704c-55.5 0-101.5-46-101.5-101.5v-308.748c0-55.753 46-101.751 101.5-101.751h692.748c55.753 0 101.751 45.999 101.751 101.751v26.249h64c34.999 0 64 29.001 64 64v128c0 35-29.001 64-64 64h-64v26.5c0 55.5-45.999 101.5-101.751 101.5h-692.748zM101.5 640h692.748c21.252 0 37.751-16.5 37.751-37.5v-308.748c0-21.252-16.499-37.751-37.751-37.751h-692.748c-21 0-37.5 16.499-37.5 37.751v308.748c0 21 16.5 37.5 37.5 37.5zM128 576v-256h64v256h-64zM896 512h64v-128h-64v128zM256 320v256h64v-256h-64zM512 320v256h64v-256h-64zM384 320v256h64v-256h-64z" />
<glyph unicode="&#xe90c;" glyph-name="battery" d="M101.5 704c-55.5 0-101.5-46-101.5-101.5v-308.748c0-55.753 46-101.751 101.5-101.751h692.748c55.753 0 101.751 45.999 101.751 101.751v26.249h64c34.999 0 64 29.001 64 64v128c0 35-29.001 64-64 64h-64v26.5c0 55.5-45.999 101.5-101.751 101.5h-692.748zM101.5 640h692.748c21.252 0 37.751-16.5 37.751-37.5v-308.748c0-21.252-16.499-37.751-37.751-37.751h-692.748c-21 0-37.5 16.499-37.5 37.751v308.748c0 21 16.5 37.5 37.5 37.5zM448 576l-256-128h192l64-128 256 128h-192l-64 128zM896 512h64v-128h-64v128z" />
<glyph unicode="&#xe90d;" glyph-name="calendar" d="M390.656 143.189c-62.976 0-109.568 24.064-134.656 54.784l37.888 48.64c23.552-24.576 60.928-38.912 94.208-38.912 41.472 0 64.512 17.92 64.512 43.52 0 27.136-20.992 39.424-68.608 39.424-14.336 0-37.376-0.512-42.496-1.024v65.536c6.144-0.512 29.696-0.512 42.496-0.512 37.888 0 62.976 11.264 62.976 36.352 0 27.136-27.648 40.448-63.488 40.448-32.768 0-62.464-12.288-86.528-35.328l-36.352 45.568c27.648 31.232 70.656 54.272 130.56 54.272 79.872 0 129.024-35.84 129.024-92.672 0-43.008-36.864-71.168-74.752-77.824 34.816-3.584 79.872-30.72 79.872-81.92 0-58.88-52.736-100.352-134.656-100.352zM757.077 149.333h-72.704v247.808l-56.832-57.856-41.472 43.52 107.52 108.032h63.488v-341.504zM938.667 832v-810.667h-853.333v810.667h853.333zM85.333 917.333c-47.128 0-85.333-38.205-85.333-85.333v-810.667c0-47.13 38.205-85.333 85.333-85.333h853.333c47.13 0 85.333 38.204 85.333 85.333v810.667c0 47.128-38.204 85.333-85.333 85.333h-853.333zM170.667 917.333c0 23.564 19.103 42.667 42.667 42.667s42.667-19.103 42.667-42.667v-42.667c0-23.564-19.103-42.667-42.667-42.667s-42.667 19.103-42.667 42.667v42.667zM768 917.333c0 23.564 19.102 42.667 42.667 42.667s42.667-19.103 42.667-42.667v-42.667c0-23.564-19.102-42.667-42.667-42.667s-42.667 19.103-42.667 42.667v42.667zM42.667 661.333c0 23.564 19.103 42.667 42.667 42.667h896c23.565 0 42.667-19.103 42.667-42.667s-19.102-42.667-42.667-42.667h-896c-23.564 0-42.667 19.103-42.667 42.667z" />
<glyph unicode="&#xe90e;" glyph-name="cardboard_box" horiz-adv-x="1138" d="M0 789.333c0 94.256 76.41 170.667 170.667 170.667h796.444c94.259 0 170.667-76.41 170.667-170.667v-682.667c0-94.259-76.407-170.667-170.667-170.667h-796.444c-94.256 0-170.667 76.407-170.667 170.667v682.667zM170.667 846.222c-31.419 0-56.889-25.47-56.889-56.889v-682.667c0-31.42 25.47-56.889 56.889-56.889h796.444c31.42 0 56.889 25.469 56.889 56.889v682.667c0 31.419-25.469 56.889-56.889 56.889h-796.444zM398.222 618.667c0 31.419 25.47 56.889 56.889 56.889h227.556c31.42 0 56.889-25.47 56.889-56.889s-25.469-56.889-56.889-56.889h-227.556c-31.419 0-56.889 25.47-56.889 56.889z" />
<glyph unicode="&#xe90f;" glyph-name="cargo-load" d="M469.38 426.859c-0.030 0.649-0.047 1.301-0.047 1.958v403.183c0 23.564 19.102 42.667 42.667 42.667s42.667-19.103 42.667-42.667v-403.183c0-0.657-0.013-1.31-0.043-1.958h82.317c18.116 0 27.989-21.154 16.35-35.038l-124.941-149.013c-8.529-10.167-24.171-10.167-32.695 0l-124.94 149.013c-11.641 13.884-1.77 35.038 16.347 35.038h82.319zM85.333 106.667c0 23.565 19.103 42.667 42.667 42.667h768c23.565 0 42.667-19.102 42.667-42.667v-42.667c0-23.565-19.102-42.667-42.667-42.667h-42.667c-23.565 0-42.667 19.102-42.667 42.667v42.667h-234.667v-42.667c0-23.565-19.102-42.667-42.667-42.667h-42.667c-23.565 0-42.667 19.102-42.667 42.667v42.667h-234.667v-42.667c0-23.565-19.103-42.667-42.667-42.667h-42.667c-23.564 0-42.667 19.102-42.667 42.667v42.667z" />
<glyph unicode="&#xe910;" glyph-name="cargo-truck" horiz-adv-x="2176" d="M981.333 576c-17.067 0-34.133 8.534-38.4 25.6l-76.8 192-273.067 76.799h-422.4v-256c0-25.6-17.067-42.667-42.667-42.667s-42.667 17.067-42.667 42.667v298.667c0 25.6 17.067 42.667 42.667 42.667h469.333c4.267 0 8.533 0 12.8 0l298.667-85.334c12.8-4.267 21.333-12.8 29.867-25.6l85.333-213.333c8.533-21.333 0-46.933-25.6-55.466-8.533 0-12.8 0-17.067 0zM1877.333-64c-93.867 0-170.667 76.8-170.667 170.667s76.8 170.667 170.667 170.667c93.867 0 170.667-76.8 170.667-170.667s-76.8-170.667-170.667-170.667zM1877.333 192c-46.933 0-85.333-38.4-85.333-85.333s38.4-85.333 85.333-85.333c46.933 0 85.333 38.4 85.333 85.333s-38.4 85.333-85.333 85.333zM1024-64c-93.867 0-170.667 76.8-170.667 170.667s76.8 170.667 170.667 170.667c93.867 0 170.667-76.8 170.667-170.667s-76.8-170.667-170.667-170.667zM1024 192c-46.933 0-85.333-38.4-85.333-85.333s38.4-85.333 85.333-85.333c46.933 0 85.333 38.4 85.333 85.333s-38.4 85.333-85.333 85.333zM640-64c-93.867 0-170.667 76.8-170.667 170.667s76.8 170.667 170.667 170.667c93.867 0 170.667-76.8 170.667-170.667s-76.8-170.667-170.667-170.667zM640 192c-46.933 0-85.333-38.4-85.333-85.333s38.4-85.333 85.333-85.333c46.933 0 85.333 38.4 85.333 85.333s-38.4 85.333-85.333 85.333zM1749.333 64h-597.333c-25.6 0-42.667 17.067-42.667 42.667s17.067 42.667 42.667 42.667h597.333c25.6 0 42.667-17.067 42.667-42.667s-17.067-42.667-42.667-42.667zM896 64h-128c-25.6 0-42.667 17.067-42.667 42.667s17.067 42.667 42.667 42.667h128c25.6 0 42.667-17.067 42.667-42.667s-17.067-42.667-42.667-42.667zM768.004 576c-25.6 0-42.667 17.067-42.667 42.667v51.199l-204.796 59.734c-55.467 17.067-98.135 55.466-115.202 110.932l-21.333 64c-8.533 21.333 4.267 46.934 25.6 55.467 21.335 8.533 46.931-4.267 55.465-25.6l21.333-64c8.533-25.6 29.871-46.933 55.471-55.466l234.662-68.267c17.067-4.267 29.867-21.333 29.867-42.667v-85.333c4.267-21.333-12.8-42.667-38.4-42.667zM1280 234.667h-853.333c-46.933 0-85.333 38.4-85.333 85.333v260.267c0 46.933 38.4 81.066 81.066 81.066h345.6c25.6 0 42.667-17.067 42.667-42.667s-17.067-42.667-42.667-42.667h-345.6l4.267-256h853.333c25.6 0 42.667-17.067 42.667-42.667s-17.067-42.667-42.667-42.667zM2090.667 64h-85.333c-25.6 0-42.667 17.067-42.667 42.667s17.067 42.667 42.667 42.667h85.333v238.933c0 4.267 0 8.533-4.267 17.067l-89.6 243.199c-12.8 34.133-42.667 55.468-81.067 55.468h-209.067c-25.6 0-42.667-17.067-42.667-42.667v-384c0-25.6-17.067-42.667-42.667-42.667h-170.667c-25.6 0-42.667 17.067-42.667 42.667v469.333h-106.667l-115.2-153.6c-8.533-12.8-21.333-17.066-34.133-17.066h-170.667c-25.6 0-42.667 17.067-42.667 42.667s17.067 42.667 42.667 42.667h149.333l115.2 153.6c8.533 12.8 21.333 17.066 34.133 17.066h170.667c25.6 0 42.667-17.067 42.667-42.667v-469.333h85.333v341.333c0 72.533 55.467 128 128 128h209.067c72.533 0 136.533-42.667 157.867-110.934l89.6-243.2c4.267-12.8 8.533-29.867 8.533-46.933v-238.933c4.267-46.933-34.133-85.333-81.067-85.333zM213.333 576h-170.667c-25.6 0-42.667 17.067-42.667 42.667s17.067 42.667 42.667 42.667h170.667c25.6 0 42.667-17.067 42.667-42.667s-17.067-42.667-42.667-42.667zM2112 448h-234.667c-25.6 0-42.667 17.067-42.667 42.667v85.333c0 25.6 17.067 42.667 42.667 42.667h170.667l64-170.667zM2133.333 234.667h-42.667c-25.6 0-42.667 17.067-42.667 42.667s17.067 42.667 42.667 42.667h42.667c25.6 0 42.667-17.067 42.667-42.667s-17.067-42.667-42.667-42.667z" />
<glyph unicode="&#xe911;" glyph-name="cargo-unload" d="M554.62 682.988c0.030-0.649 0.047-1.3 0.047-1.956v-403.183c0-23.565-19.102-42.667-42.667-42.667s-42.667 19.102-42.667 42.667v403.183c0 0.656 0.013 1.308 0.043 1.956h-82.317c-18.117 0-27.988 21.157-16.347 35.040l124.939 149.012c8.529 10.169 24.171 10.169 32.695 0l124.941-149.012c11.639-13.883 1.771-35.040-16.35-35.040h-82.317zM85.333 106.667c0 23.565 19.103 42.667 42.667 42.667h768c23.565 0 42.667-19.102 42.667-42.667v-42.667c0-23.565-19.102-42.667-42.667-42.667h-42.667c-23.565 0-42.667 19.102-42.667 42.667v42.667h-234.667v-42.667c0-23.565-19.102-42.667-42.667-42.667h-42.667c-23.565 0-42.667 19.102-42.667 42.667v42.667h-234.667v-42.667c0-23.565-19.103-42.667-42.667-42.667h-42.667c-23.564 0-42.667 19.102-42.667 42.667v42.667z" />
<glyph unicode="&#xe912;" glyph-name="carrier" horiz-adv-x="1138" d="M0 789.333c0 94.256 76.41 170.667 170.667 170.667h796.444c94.259 0 170.667-76.41 170.667-170.667v-682.667c0-94.259-76.407-170.667-170.667-170.667h-796.444c-94.256 0-170.667 76.407-170.667 170.667v682.667zM170.667 846.222c-31.419 0-56.889-25.47-56.889-56.889v-682.667c0-31.42 25.47-56.889 56.889-56.889h796.444c31.42 0 56.889 25.469 56.889 56.889v682.667c0 31.419-25.469 56.889-56.889 56.889h-796.444zM398.222 618.667c0 31.419 25.47 56.889 56.889 56.889h227.556c31.42 0 56.889-25.47 56.889-56.889s-25.469-56.889-56.889-56.889h-227.556c-31.419 0-56.889 25.47-56.889 56.889z" />
<glyph unicode="&#xe914;" glyph-name="checked-new" d="M938.667 448c0 235.642-191.027 426.667-426.667 426.667-235.642 0-426.667-191.025-426.667-426.667 0-235.639 191.025-426.667 426.667-426.667 235.639 0 426.667 191.027 426.667 426.667zM1024 448c0-282.769-229.231-512-512-512s-512 229.231-512 512c0 282.77 229.23 512 512 512s512-229.23 512-512zM750.511 583.022l-283.413-365.038c-7.65-9.852-19.23-15.863-31.689-16.452-12.461-0.589-24.555 4.305-33.099 13.393l-126.187 134.212c-16.141 17.169-15.309 44.169 1.859 60.309s44.17 15.309 60.311-1.856l92.004-97.856 252.809 325.619c14.451 18.613 41.254 21.987 59.87 7.536 18.611-14.451 21.986-41.254 7.535-59.867z" />
<glyph unicode="&#xe915;" glyph-name="checked" d="M938.667 448c0 235.642-191.027 426.667-426.667 426.667-235.642 0-426.667-191.025-426.667-426.667 0-235.639 191.025-426.667 426.667-426.667 235.639 0 426.667 191.027 426.667 426.667zM1024 448c0-282.769-229.231-512-512-512s-512 229.231-512 512c0 282.77 229.23 512 512 512s512-229.23 512-512zM750.511 583.022l-283.413-365.038c-7.65-9.852-19.23-15.863-31.689-16.452-12.461-0.589-24.555 4.305-33.099 13.393l-126.187 134.212c-16.141 17.169-15.309 44.169 1.859 60.309s44.17 15.309 60.311-1.856l92.004-97.856 252.809 325.619c14.451 18.613 41.254 21.987 59.87 7.536 18.611-14.451 21.986-41.254 7.535-59.867z" />
<glyph unicode="&#xe919;" glyph-name="chevron-down" d="M183.163 563.503c16.663 16.662 43.677 16.662 60.34 0l268.497-268.497 268.497 268.497c16.661 16.662 43.678 16.662 60.339 0s16.661-43.678 0-60.34l-298.667-298.667c-16.661-16.661-43.678-16.661-60.339 0l-298.667 298.667c-16.662 16.661-16.662 43.677 0 60.34z" />
<glyph unicode="&#xe91a;" glyph-name="chevron-left" d="M691.503 776.837c16.661-16.663 16.661-43.677 0-60.34l-268.497-268.497 268.497-268.497c16.661-16.661 16.661-43.678 0-60.339s-43.678-16.661-60.339 0l-298.667 298.667c-16.662 16.661-16.662 43.678 0 60.339l298.667 298.667c16.661 16.662 43.678 16.662 60.339 0z" />
<glyph unicode="&#xe91b;" glyph-name="chevron-right" d="M332.497 776.837c-16.662-16.663-16.662-43.677 0-60.34l268.497-268.497-268.497-268.497c-16.662-16.661-16.662-43.678 0-60.339s43.677-16.661 60.34 0l298.666 298.667c16.661 16.661 16.661 43.678 0 60.339l-298.666 298.667c-16.663 16.662-43.677 16.662-60.34 0z" />
<glyph unicode="&#xe91c;" glyph-name="chevron-up" d="M840.836 247.164c-16.661-16.661-43.678-16.661-60.339 0l-268.497 268.497-268.497-268.497c-16.663-16.661-43.677-16.661-60.34 0s-16.662 43.678 0 60.339l298.667 298.667c16.661 16.662 43.678 16.662 60.339 0l298.667-298.667c16.661-16.661 16.661-43.678 0-60.339z" />
<glyph unicode="&#xe91d;" glyph-name="city-sm" d="M585.143 228.571h-146.286v-146.286h146.286v146.286zM438.857 374.857h146.286v-73.143h-146.286v73.143zM585.143 521.143h-146.286v-73.143h146.286v73.143zM438.857 667.429h146.286v-73.143h-146.286v73.143zM585.143 813.714h-146.286v-73.143h146.286v73.143zM877.714 155.429v-73.143h-73.143v73.143h73.143zM877.714 228.571v73.143h-73.143v-73.143h73.143zM877.714 448v-73.143h-73.143v73.143h73.143zM146.286 155.429h73.143v-73.143h-73.143v73.143zM219.429 301.714h-73.143v-73.143h73.143v73.143zM731.429 652.8l109.714 87.771 182.857-146.286v-658.286h-1024v512h292.571v512h438.857v-307.2zM658.286 886.857h-292.571v-877.714h292.571v877.714zM731.429 559.131v-549.988h219.429v549.989l-109.714 87.771-109.714-87.772zM73.143 374.857v-365.714h219.429v365.714h-219.429z" />
<glyph unicode="&#xe91e;" glyph-name="city" d="M426.667 277.333h42.667v-85.333h-42.667v85.333zM469.333 362.667h-42.667v-42.667h42.667v42.667zM426.667 448h42.667v-42.667h-42.667v42.667zM469.333 533.333h-42.667v-42.667h42.667v42.667zM426.667 618.667h42.667v-42.667h-42.667v42.667zM469.333 704h-42.667v-42.667h42.667v42.667zM853.333 362.667h-42.667v-42.667h42.667v42.667zM810.667 448h42.667v-42.667h-42.667v42.667zM853.333 277.333h-42.667v-85.333h42.667v85.333zM768 362.667v-42.667h-42.667v42.667h42.667zM768 405.333v42.667h-42.667v-42.667h42.667zM682.667 362.667h-42.667v-42.667h42.667v42.667zM640 448h42.667v-42.667h-42.667v42.667zM682.667 277.333h-42.667v-85.333h42.667v85.333zM725.333 277.333h42.667v-85.333h-42.667v85.333zM256 320h-85.333v-42.667h85.333v42.667zM170.667 234.667h85.333v-42.667h-85.333v42.667zM469.333 917.333h-42.667v-85.333h-128v-384h-256v-384h938.667v469.333l-234.667 128-149.333-81.455v252.121h-128v85.333zM384 746.667h128v-597.333h-128v597.333zM597.333 149.333v333.342l149.333 81.456 149.333-81.456v-333.342h-298.667zM298.667 149.333h-170.667v213.333h170.667v-213.333z" />
<glyph unicode="&#xe91f;" glyph-name="client" horiz-adv-x="878" d="M24.381 66.033c0 121.939 109.257 211.3 231.619 211.3h365.714c122.363 0 231.619-89.361 231.619-211.3v-81.271c0-26.931-21.831-48.762-48.762-48.762s-48.762 21.831-48.762 48.762v81.271c0 57.598-54.477 113.776-134.095 113.776h-365.714c-79.616 0-134.095-56.179-134.095-113.776v-81.271c0-26.931-21.832-48.762-48.762-48.762s-48.762 21.831-48.762 48.762v81.271zM438.857 448c114.454 0 207.238 92.784 207.238 207.238s-92.784 207.238-207.238 207.238c-114.454 0-207.238-92.784-207.238-207.238s92.784-207.238 207.238-207.238zM743.619 655.238c0-168.315-136.446-304.762-304.762-304.762s-304.762 136.447-304.762 304.762c0 168.315 136.447 304.762 304.762 304.762s304.762-136.447 304.762-304.762z" />
<glyph unicode="&#xe920;" glyph-name="clock" d="M512 21.333c-235.669 0-426.667 191.031-426.667 426.667 0 235.634 190.998 426.667 426.667 426.667s426.667-191.033 426.667-426.667c0-235.635-190.997-426.667-426.667-426.667zM512-64c282.803 0 512 229.244 512 512 0 282.758-229.197 512-512 512s-512-229.242-512-512c0-282.756 229.198-512 512-512zM512 661.333c23.565 0 42.667-19.103 42.667-42.667v-170.667h128c23.565 0 42.667-19.102 42.667-42.667s-19.102-42.667-42.667-42.667h-170.667c-23.565 0-42.667 19.102-42.667 42.667v213.333c0 23.564 19.102 42.667 42.667 42.667z" />
<glyph unicode="&#xe921;" glyph-name="close" d="M21.423 938.577c28.564 28.564 74.875 28.564 103.44 0l877.714-877.715c28.562-28.562 28.562-74.876 0-103.439s-74.876-28.562-103.439 0l-877.715 877.714c-28.564 28.564-28.564 74.876 0 103.44zM21.423-42.576c28.564-28.562 74.875-28.562 103.44 0l877.714 877.714c28.562 28.564 28.562 74.876 0 103.44s-74.876 28.564-103.439 0l-877.715-877.715c-28.564-28.562-28.564-74.876 0-103.439z" />
<glyph unicode="&#xe923;" glyph-name="columns" d="M358.4 857.6v-819.2h-256v819.2h256zM102.4 960c-56.554 0-102.4-45.846-102.4-102.4v-819.2c0-56.556 45.846-102.4 102.4-102.4h256c56.554 0 102.4 45.844 102.4 102.4v819.2c0 56.554-45.846 102.4-102.4 102.4h-256zM921.6 857.6v-819.2h-256v819.2h256zM665.6 960c-56.556 0-102.4-45.846-102.4-102.4v-819.2c0-56.556 45.844-102.4 102.4-102.4h256c56.556 0 102.4 45.844 102.4 102.4v819.2c0 56.554-45.844 102.4-102.4 102.4h-256z" />
<glyph unicode="&#xe925;" glyph-name="container-20" horiz-adv-x="1877" d="M1792-64h-25.6c-21.333 0-42.667 8.533-59.733 25.6l-17.067 17.067h-1501.867l-17.066-17.067c-17.067-17.067-38.4-25.6-59.733-25.6h-25.6c-46.933 0-85.333 38.4-85.333 85.333v682.667c0 46.933 38.4 85.333 85.333 85.333h25.6c21.333 0 42.666-8.534 59.733-25.6l17.066-17.066h1501.867l17.067 17.066c17.067 17.067 38.4 25.6 59.733 25.6h25.6c46.933 0 85.333-38.4 85.333-85.333v-682.667c0-46.933-38.4-85.333-85.333-85.333zM170.667 64h1536c12.8 0 21.333-4.267 29.867-12.8l29.867-29.867h25.6v682.667h-25.6l-29.867-29.867c-8.533-8.533-17.067-12.8-29.867-12.8h-1536c-12.8 0-21.334 4.266-29.867 12.8l-29.866 29.867h-25.6v-682.667h25.6l29.866 29.867c8.533 8.533 17.067 12.8 29.867 12.8zM59.742 695.466c-8.533 0-17.067 4.267-25.6 8.534-17.067 12.8-21.333 42.666-8.533 59.733 119.467 162.134 123.733 170.667 128 170.667 17.067 17.067 38.4 25.6 59.733 25.6h25.6c21.333 0 42.666-8.534 59.733-25.6l17.067-17.066h878.933c25.6 0 42.667-17.067 42.667-42.667s-17.067-42.667-42.667-42.667h-896c-12.8 0-21.334 4.266-29.867 12.8l-29.866 29.867h-25.6c-8.533-8.533-68.266-89.601-119.466-162.134-8.533-8.533-21.334-17.066-34.134-17.066zM1817.6 695.466c-12.8 0-25.6 4.266-34.133 17.066-51.2 72.533-115.2 153.601-119.467 162.134h-25.6l-29.867-29.867c-8.533-8.533-17.067-12.8-29.867-12.8h-213.333c-25.6 0-42.667 17.067-42.667 42.667s17.067 42.667 42.667 42.667h196.267l17.067 17.066c17.067 17.067 38.4 25.6 59.733 25.6h25.6c21.333 0 42.667-8.534 59.733-25.6 4.267-4.267 8.533-8.533 128-170.667 12.8-17.067 8.533-46.933-8.533-59.733-8.533-4.267-17.067-8.534-25.6-8.534zM554.667 149.333c-25.6 0-42.667 17.067-42.667 42.667v341.333c0 25.6 17.067 42.667 42.667 42.667s42.667-17.067 42.667-42.667v-341.333c0-21.333-17.067-42.667-42.667-42.667zM810.667 149.333c-25.6 0-42.667 17.067-42.667 42.667v341.333c0 25.6 17.067 42.667 42.667 42.667s42.667-17.067 42.667-42.667v-341.333c0-21.333-17.067-42.667-42.667-42.667zM1066.667 149.333c-25.6 0-42.667 17.067-42.667 42.667v341.333c0 25.6 17.067 42.667 42.667 42.667s42.667-17.067 42.667-42.667v-341.333c0-21.333-17.067-42.667-42.667-42.667zM298.667 149.333c-25.6 0-42.667 17.067-42.667 42.667v341.333c0 25.6 17.067 42.667 42.667 42.667s42.667-17.067 42.667-42.667v-341.333c0-21.333-17.067-42.667-42.667-42.667zM1322.667 149.333c-25.6 0-42.667 17.067-42.667 42.667v341.333c0 25.6 17.067 42.667 42.667 42.667s42.667-17.067 42.667-42.667v-341.333c0-21.333-17.067-42.667-42.667-42.667zM1578.667 149.333c-25.6 0-42.667 17.067-42.667 42.667v341.333c0 25.6 17.067 42.667 42.667 42.667s42.667-17.067 42.667-42.667v-341.333c0-21.333-17.067-42.667-42.667-42.667z" />
<glyph unicode="&#xe926;" glyph-name="container-40" horiz-adv-x="2475" d="M2389.333-64h-25.6c-21.333 0-42.667 8.533-59.733 25.6l-17.067 17.067h-2099.2l-17.066-17.067c-17.067-17.067-38.4-25.6-59.733-25.6h-25.6c-46.933 0-85.333 38.4-85.333 85.333v682.667c0 46.933 38.4 85.333 85.333 85.333h25.6c21.333 0 42.666-8.534 59.733-25.6l17.066-17.066h2099.2l17.067 17.066c17.067 17.067 38.4 25.6 59.733 25.6h25.6c46.933 0 85.333-38.4 85.333-85.333v-682.667c0-46.933-38.4-85.333-85.333-85.333zM170.667 64h2133.333c12.8 0 21.333-4.267 29.867-12.8l29.867-29.867h25.6v682.667h-25.6l-29.867-29.867c-8.533-8.533-17.067-12.8-29.867-12.8h-2133.333c-12.8 0-21.334 4.266-29.867 12.8l-29.866 29.867h-25.6v-682.667h25.6l29.866 29.867c8.533 8.533 17.067 12.8 29.867 12.8zM59.742 695.466c-8.533 0-17.067 4.267-25.6 8.534-17.067 12.8-21.333 42.666-8.533 59.733 119.467 162.134 123.733 170.667 128 170.667 17.067 17.067 38.4 25.6 59.733 25.6h25.6c21.333 0 42.666-8.534 59.733-25.6l17.067-17.066h1476.266c25.6 0 42.667-17.067 42.667-42.667s-17.067-42.667-42.667-42.667h-1493.333c-12.8 0-21.334 4.266-29.867 12.8l-29.866 29.867h-25.6c-8.533-8.533-68.266-89.601-119.466-162.134-8.533-8.533-21.334-17.066-34.134-17.066zM2414.933 695.466c-12.8 0-25.6 4.266-34.133 17.066-51.2 72.533-115.2 153.601-119.467 162.134h-25.6l-29.867-29.867c-8.533-8.533-17.067-12.8-29.867-12.8h-213.333c-25.6 0-42.667 17.067-42.667 42.667s17.067 42.667 42.667 42.667h196.267l17.067 17.066c17.067 17.067 38.4 25.6 59.733 25.6h25.6c21.333 0 42.667-8.534 59.733-25.6 4.267-4.267 8.533-8.533 128-170.667 12.8-17.067 8.533-46.933-8.533-59.733-8.533-4.267-17.067-8.534-25.6-8.534zM1109.333 149.333c-25.6 0-42.667 17.067-42.667 42.667v341.333c0 25.6 17.067 42.667 42.667 42.667s42.667-17.067 42.667-42.667v-341.333c0-21.333-17.067-42.667-42.667-42.667zM1365.333 149.333c-25.6 0-42.667 17.067-42.667 42.667v341.333c0 25.6 17.067 42.667 42.667 42.667s42.667-17.067 42.667-42.667v-341.333c0-21.333-17.067-42.667-42.667-42.667zM1621.333 149.333c-25.6 0-42.667 17.067-42.667 42.667v341.333c0 25.6 17.067 42.667 42.667 42.667s42.667-17.067 42.667-42.667v-341.333c0-21.333-17.067-42.667-42.667-42.667zM341.333 149.333c-25.6 0-42.667 17.067-42.667 42.667v341.333c0 25.6 17.067 42.667 42.667 42.667s42.667-17.067 42.667-42.667v-341.333c0-21.333-17.067-42.667-42.667-42.667zM597.333 149.333c-25.6 0-42.667 17.067-42.667 42.667v341.333c0 25.6 17.067 42.667 42.667 42.667s42.667-17.067 42.667-42.667v-341.333c0-21.333-17.067-42.667-42.667-42.667zM853.333 149.333c-25.6 0-42.667 17.067-42.667 42.667v341.333c0 25.6 17.067 42.667 42.667 42.667s42.667-17.067 42.667-42.667v-341.333c0-21.333-17.067-42.667-42.667-42.667zM1877.333 149.333c-25.6 0-42.667 17.067-42.667 42.667v341.333c0 25.6 17.067 42.667 42.667 42.667s42.667-17.067 42.667-42.667v-341.333c0-21.333-17.067-42.667-42.667-42.667zM2133.333 149.333c-25.6 0-42.667 17.067-42.667 42.667v341.333c0 25.6 17.067 42.667 42.667 42.667s42.667-17.067 42.667-42.667v-341.333c0-21.333-17.067-42.667-42.667-42.667z" />
<glyph unicode="&#xe927;" glyph-name="container-sm" d="M793.011 832l-42.662-42.667h-476.675l-42.666 42.667h-60.331c-47.147 0-85.333-38.187-85.333-85.333v-554.667c0-47.149 38.186-85.331 85.333-85.331h682.667c47.149 0 85.331 38.182 85.331 85.331v554.667c0 47.146-38.182 85.333-85.331 85.333h-60.333zM298.677 277.331h-85.333v341.336h85.333v-341.336zM469.344 277.331h-85.334v341.336h85.334v-341.336zM640.013 277.331h-85.336v341.336h85.336v-341.336zM810.675 277.331h-85.331v341.336h85.331v-341.336z" />
<glyph unicode="&#xe928;" glyph-name="container" d="M174.089 802.133h-42.416l-1.319-0.281c-7.413-1.58-14.080-5.736-18.694-11.846l-0.566-0.75-72.903-133.399-0.183-0.183-1.609-2.413c-4.215-5.493-6.524-12.294-6.524-19.235v-525.653c0-17.408 14.164-31.573 31.574-31.573h56.32c12.855 0 23.941 7.723 28.861 18.773h730.759c4.919-11.051 16.004-18.773 28.86-18.773h56.32c17.408 0 31.573 14.165 31.573 31.573v525.653c0 7.151-2.449 14.153-6.912 19.729l-0.444 0.553-0.759 0.761-0.222 0.246-72.969 134.1-0.717 0.893c-6.016 7.493-15.040 11.824-24.644 11.824h-37.547c-12.855 0-23.94-7.724-28.86-18.773h-618.119c-4.92 11.050-16.006 18.773-28.861 18.773zM150.069 731.315l-30.027-65.796c11.878-0.849 21.96-8.3 26.587-18.692h730.759c4.625 10.393 14.707 17.843 26.586 18.692l-30.029 65.796c-5.794-6.79-14.413-11.102-24.017-11.102h-675.84c-9.606 0-18.223 4.312-24.019 11.102zM93.022 146.735v448.931c5.788-7.297 14.73-11.986 24.747-11.986h788.48c10.018 0 18.957 4.689 24.747 11.986v-448.931c-5.79 7.296-14.733 11.985-24.747 11.985h-788.48c-10.016 0-18.959-4.689-24.747-11.985zM204.8 490.667c-18.851 0-34.133-15.283-34.133-34.133v-187.733c0-18.85 15.282-34.133 34.133-34.133s34.133 15.283 34.133 34.133v187.733c0 18.85-15.282 34.133-34.133 34.133zM324.271 456.533c0 18.85 15.282 34.133 34.133 34.133s34.133-15.283 34.133-34.133v-187.733c0-18.85-15.282-34.133-34.133-34.133s-34.133 15.283-34.133 34.133v187.733zM512.009 490.667c-18.85 0-34.133-15.283-34.133-34.133v-187.733c0-18.85 15.283-34.133 34.133-34.133s34.133 15.283 34.133 34.133v187.733c0 18.85-15.283 34.133-34.133 34.133zM631.458 456.533c0 18.85 15.283 34.133 34.133 34.133s34.133-15.283 34.133-34.133v-187.733c0-18.85-15.283-34.133-34.133-34.133s-34.133 15.283-34.133 34.133v187.733zM819.196 490.667c-18.85 0-34.133-15.283-34.133-34.133v-187.733c0-18.85 15.283-34.133 34.133-34.133s34.133 15.283 34.133 34.133v187.733c0 18.85-15.283 34.133-34.133 34.133z" />
<glyph unicode="&#xe929;" glyph-name="cooling" d="M256.75 850l46.5 44 112.75-119.375 112.75 119.375 46.5-44-127.25-134.75v-145.25c1.805-0.659 3.446-1.615 5.089-2.572 1.079-0.628 2.159-1.257 3.286-1.803l55.625 55.625v82.75h64v-64h64v-64h-82.75l-55.75-55.75c0.571-1.203 1.27-2.328 1.969-3.452 0.956-1.538 1.91-3.073 2.531-4.799h145.251l134.746 127.25 44.006-46.5-119.379-112.75 119.379-112.75-44.006-46.5-134.746 127.25h-152.626c-0.263-0.655-0.62-1.248-0.976-1.842-0.323-0.537-0.645-1.075-0.899-1.658l60.5-60.5h82.75v-64h-64v-64h-64v82.75l-56.875 56.875c-0.739-0.433-1.466-0.887-2.193-1.341-1.602-1-3.204-1.999-4.932-2.783v-146.751l127.25-134.746-46.5-44.006-112.75 119.379-112.75-119.379-46.5 44.006 127.25 134.746v146.751c-1.727 0.784-3.33 1.784-4.932 2.783-0.727 0.454-1.455 0.908-2.193 1.341l-56.875-56.875v-82.75h-64v64h-64v64h82.75l60.5 60.5c-0.254 0.584-0.577 1.121-0.899 1.658-0.356 0.594-0.713 1.187-0.976 1.842h-152.625l-134.75-127.25-44 46.5 119.375 112.75-119.375 112.75 44 46.5 134.75-127.25h145.25c1.112 3.087 2.338 6.064 3.75 9l-55 55h-82.75v64h64v64h64v-82.75l55-55c2.936 1.412 5.912 2.638 9 3.75v145.25l-127.25 134.75zM128 704h64v64h-64v-64zM640 704h64v64h-64v-64zM448 480c0 18.014-13.986 32-32 32s-32-13.986-32-32c0-18.014 13.986-32 32-32s32 13.986 32 32zM128 192h64v64h-64v-64zM640 192h64v64h-64v-64zM960 64c0 17.075-11.053 48.89-36.595 94.362-8.525 15.168-17.798 30.426-27.405 45.568-9.606-15.142-18.88-30.4-27.405-45.568-25.542-45.472-36.595-77.286-36.595-94.362 0-35.347 28.653-64 64-64s64 28.653 64 64zM768 64c0 54.31 45.338 130.95 89.562 198.374 8.877 13.53 17.702 26.688 26.112 39.219l0.013 0.013c4.224 6.298 8.346 12.442 12.314 18.394 3.968-5.958 8.096-12.102 12.326-18.406l0.006-0.013c8.41-12.525 17.235-25.683 26.106-39.206 44.224-67.424 89.562-144.064 89.562-198.374 0-70.694-57.306-128-128-128s-128 57.306-128 128z" />
<glyph unicode="&#xe92a;" glyph-name="custom-menu" horiz-adv-x="5120" d="M0 448c0-282.803 229.242-512 512-512s512 229.197 512 512c0 282.802-229.243 512-512 512s-512-229.198-512-512zM2560-64c-282.757 0-512 229.197-512 512s229.243 512 512 512c282.752 0 512-229.198 512-512s-229.248-512-512-512zM4608-64c-282.752 0-512 229.197-512 512s229.248 512 512 512 512-229.198 512-512c0-282.803-229.248-512-512-512z" />
<glyph unicode="&#xe92b;" glyph-name="delete" d="M512 21.333c-235.669 0-426.667 191.031-426.667 426.667 0 235.634 190.998 426.667 426.667 426.667s426.667-191.033 426.667-426.667c0-235.635-190.997-426.667-426.667-426.667zM512-64c282.803 0 512 229.244 512 512 0 282.758-229.197 512-512 512s-512-229.242-512-512c0-282.756 229.198-512 512-512zM353.83 606.17c-16.662-16.663-16.662-43.677 0-60.34l97.831-97.83-97.831-97.83c-16.662-16.661-16.662-43.678 0-60.339s43.677-16.661 60.34 0l97.83 97.83 97.83-97.83c16.661-16.661 43.678-16.661 60.339 0s16.661 43.678 0 60.339l-97.83 97.83 97.83 97.83c16.661 16.663 16.661 43.677 0 60.34s-43.678 16.662-60.339 0l-97.83-97.831-97.83 97.831c-16.663 16.662-43.677 16.662-60.34 0z" />
<glyph unicode="&#xe92c;" glyph-name="digital-document" horiz-adv-x="819" d="M113.23 840.481c-7.747-10.76-10.83-25.21-10.83-34.084v-460.802h-102.4v460.802c0 25.26 7.157 62.010 30.129 93.916 24.852 34.517 72.271 59.687 123.471 59.684s512.584 0.022 514.857-0.053c0 0 3.103-0.127 5.192-0.277 4.163-0.297 9.769-0.867 16.369-1.967 12.954-2.159 31.007-6.572 49.679-15.909 18.872-9.437 39.306-24.396 54.907-47.794 15.811-23.718 24.596-53.042 24.596-87.601v-256h-102.4v256c0 16.641-4.014 25.718-7.404 30.799-3.599 5.402-8.765 9.643-15.493 13.006-6.927 3.464-14.474 5.45-20.721 6.492-4.244 0.708-7.347 0.876-8.044 0.903h-511.539c-24.273 0-34.502-8.967-40.37-17.116zM204.8 703.997c0 28.277 22.923 51.2 51.2 51.2h307.2c28.278 0 51.2-22.923 51.2-51.2s-22.922-51.2-51.2-51.2h-307.2c-28.277 0-51.2 22.923-51.2 51.2zM204.8 499.197c0 28.277 22.923 51.2 51.2 51.2h153.6v-102.402h-153.6c-28.277 0-51.2 22.925-51.2 51.202zM819.2 447.995h-102.4v-102.4h102.4v102.4zM409.6 38.395h102.4v102.4h102.4v-102.4h102.4v-102.4h-307.2v102.4zM716.8 38.395v102.4h102.4v-102.4h-102.4zM512 243.195v-102.4h-204.8v102.4h-102.4v102.4h204.8v-102.4h102.4zM512 243.195v102.4h102.4v-102.4h-102.4zM204.8 38.395v102.4h102.4v-102.4h-102.4zM204.8 38.395v-102.4h-102.4v102.4h102.4zM102.4 191.995h-102.4v-102.4h102.4v102.4zM614.4 550.397h-102.4v-102.402h102.4v102.402z" />
<glyph unicode="&#xe92d;" glyph-name="document" d="M725.333 789.333c23.565 0 42.667-19.103 42.667-42.667v-597.333c0-23.565-19.102-42.667-42.667-42.667h-426.667c-23.564 0-42.667 19.102-42.667 42.667v597.333c0 23.564 19.102 42.667 42.667 42.667h426.667zM298.667 874.667c-70.692 0-128-57.308-128-128v-597.333c0-70.694 57.308-128 128-128h426.667c70.694 0 128 57.306 128 128v597.333c0 70.692-57.306 128-128 128h-426.667zM341.333 320c0 23.565 19.103 42.667 42.667 42.667h128c23.565 0 42.667-19.102 42.667-42.667s-19.102-42.667-42.667-42.667h-128c-23.564 0-42.667 19.102-42.667 42.667zM341.333 490.667c0 23.565 19.103 42.667 42.667 42.667h256c23.565 0 42.667-19.102 42.667-42.667s-19.102-42.667-42.667-42.667h-256c-23.564 0-42.667 19.102-42.667 42.667zM341.333 661.333c0 23.564 19.103 42.667 42.667 42.667h256c23.565 0 42.667-19.103 42.667-42.667s-19.102-42.667-42.667-42.667h-256c-23.564 0-42.667 19.103-42.667 42.667z" />
<glyph unicode="&#xe92e;" glyph-name="dots-blue" d="M85.333 448c0-47.134 38.207-85.333 85.333-85.333s85.333 38.199 85.333 85.333c0 47.134-38.207 85.333-85.333 85.333s-85.333-38.199-85.333-85.333zM512 362.667c-47.125 0-85.333 38.199-85.333 85.333s38.208 85.333 85.333 85.333c47.125 0 85.333-38.199 85.333-85.333s-38.208-85.333-85.333-85.333zM853.333 362.667c-47.125 0-85.333 38.199-85.333 85.333s38.208 85.333 85.333 85.333c47.125 0 85.333-38.199 85.333-85.333s-38.208-85.333-85.333-85.333z" />
<glyph unicode="&#xe92f;" glyph-name="double-checked" d="M938.667 448c0 235.642-191.027 426.667-426.667 426.667-235.642 0-426.667-191.025-426.667-426.667 0-235.639 191.025-426.667 426.667-426.667 235.639 0 426.667 191.027 426.667 426.667zM1024 448c0-282.769-229.231-512-512-512s-512 229.231-512 512c0 282.77 229.23 512 512 512s512-229.23 512-512zM644.877 609.669c-18.598 14.475-45.406 11.134-59.878-7.46l-235.135-302.066-126.825 134.464c-16.168 17.143-43.171 17.933-60.314 1.766s-17.932-43.17-1.764-60.314l160.967-170.667c8.544-9.058 20.62-13.935 33.059-13.346 12.439 0.593 24 6.583 31.649 16.414l265.699 341.332c14.477 18.595 11.136 45.402-7.458 59.877zM856.943 609.669c-18.594 14.475-45.402 11.134-59.878-7.46l-235.136-302.066-6.097 6.464c-16.171 17.143-43.17 17.933-60.314 1.766s-17.933-43.17-1.766-60.314l40.243-42.667c8.546-9.058 20.621-13.935 33.058-13.346 12.437 0.593 24 6.583 31.65 16.414l265.698 341.332c14.477 18.595 11.136 45.402-7.458 59.877z" />
<glyph unicode="&#xe930;" glyph-name="download" d="M469.342 405.333v426.667c0 23.564 19.102 42.667 42.667 42.667s42.667-19.103 42.667-42.667v-426.667h83.614c17.886 0 27.831-20.693 16.657-34.658l-126.281-157.854c-8.542-10.675-24.777-10.675-33.318 0l-126.278 157.854c-11.174 13.965-1.229 34.658 16.659 34.658h83.614zM128 106.667c0 23.565 19.103 42.667 42.667 42.667h682.667c23.565 0 42.667-19.102 42.667-42.667s-19.102-42.667-42.667-42.667h-682.667c-23.564 0-42.667 19.102-42.667 42.667z" />
<glyph unicode="&#xe931;" glyph-name="edit" d="M763.511 766.737l77.577-77.58-492.607-492.609-123.103-45.521 45.523 123.102 492.61 492.608zM793.86 848.806c-14.285 14.282-38.443 13.277-53.965-2.245l-527.348-527.346c-4.363-4.365-7.732-9.6-9.839-15.3l-75.872-205.171c-11.184-30.242 16.015-57.442 46.26-46.259l205.171 75.874c5.698 2.103 10.936 5.474 15.299 9.835l527.346 527.349c15.522 15.522 16.529 39.683 2.244 53.964l-129.297 129.3zM726.43 522.778l-155.162 155.159 56.209 56.209 155.162-155.159-56.209-56.208zM335.209 183.279l-103.439 103.441 56.209 56.209 103.439-103.441-56.209-56.209z" />
<glyph unicode="&#xe932;" glyph-name="electric-locomotive" horiz-adv-x="2517" d="M2090.667-64c-72.533 0-128 55.467-128 128 0 25.6 17.067 42.667 42.667 42.667s42.667-17.067 42.667-42.667c0-25.6 17.067-42.667 42.667-42.667s42.667 17.067 42.667 42.667c0 25.6 17.067 42.667 42.667 42.667s42.667-17.067 42.667-42.667c0-68.267-55.467-128-128-128zM1792-64c-72.533 0-128 55.467-128 128 0 25.6 17.067 42.667 42.667 42.667s42.667-17.067 42.667-42.667c0-25.6 17.067-42.667 42.667-42.667s42.667 17.067 42.667 42.667c0 25.6 17.067 42.667 42.667 42.667s42.667-17.067 42.667-42.667c0-68.267-55.467-128-128-128zM1493.333-64c-72.533 0-128 55.467-128 128 0 25.6 17.067 42.667 42.667 42.667s42.667-17.067 42.667-42.667c0-25.6 17.067-42.667 42.667-42.667s42.667 17.067 42.667 42.667c0 25.6 17.067 42.667 42.667 42.667s42.667-17.067 42.667-42.667c0-68.267-55.467-128-128-128zM2231.471 362.667h-149.333c-17.067 0-29.867 12.8-29.867 29.867v149.332c0 17.067 12.8 29.867 29.867 29.867h81.067c12.8 0 21.333-4.266 29.867-12.799l59.733-59.734c8.533-8.533 12.8-17.067 12.8-29.867v-76.8c-4.267-17.067-17.067-29.867-34.133-29.867zM2432 192h-85.333c-25.6 0-42.667 17.067-42.667 42.667s17.067 42.667 42.667 42.667h85.333c25.6 0 42.667-17.067 42.667-42.667s-17.067-42.667-42.667-42.667zM2389.333 661.333h-85.333c-25.6 0-42.667 17.067-42.667 42.667s17.067 42.667 42.667 42.667h85.333c25.6 0 42.667-17.067 42.667-42.667s-17.067-42.667-42.667-42.667zM341.333-64c-72.533 0-128 55.467-128 128 0 25.6 17.067 42.667 42.667 42.667s42.667-17.067 42.667-42.667c0-25.6 17.067-42.667 42.667-42.667s42.667 17.067 42.667 42.667c0 25.6 17.067 42.667 42.667 42.667s42.667-17.067 42.667-42.667c0-68.267-51.2-128-128-128zM640-64c-72.533 0-128 55.467-128 128 0 25.6 17.067 42.667 42.667 42.667s42.667-17.067 42.667-42.667c0-25.6 17.067-42.667 42.667-42.667s42.667 17.067 42.667 42.667c0 25.6 17.067 42.667 42.667 42.667s42.667-17.067 42.667-42.667c0-68.267-55.467-128-128-128zM2474.667-21.333h-119.467c-46.933 0-93.867 25.6-115.2 72.533l-8.533 12.8h-2188.8c-25.6 0-42.667 17.067-42.667 42.667v554.667c0 72.533 55.467 128 128 128h512c8.533 0 12.8 0 17.067-4.267l76.8-38.4h746.667l76.8 38.4c4.267 4.267 12.8 4.267 17.067 4.267h341.333c25.6 0 42.667-17.067 42.667-42.667s-17.067-42.667-42.667-42.667h-332.8l-76.8-38.4c-4.267-4.267-12.8-4.267-17.067-4.267h-768c-8.533 0-12.8 0-17.067 4.267l-76.8 38.4h-499.2c-25.6 0-42.667-17.067-42.667-42.667v-512h2176c17.067 0 29.867-8.533 38.4-25.6l17.067-38.4c8.533-12.8 21.333-25.6 38.4-25.6h68.267l-34.133 204.8c0 4.267 0 8.533 0 12.8l38.4 234.667-162.133 162.133c-17.067 17.067-38.4 25.6-59.733 25.6h-119.467c-25.6 0-42.667 17.067-42.667 42.667s17.067 42.667 42.667 42.667h119.467c46.933 0 89.6-17.067 119.467-51.2l174.933-174.932c8.533-8.533 12.8-25.6 12.8-38.4l-42.667-247.467 42.667-247.467c0-12.8 0-25.6-8.533-34.133-4.267-8.533-17.067-12.8-29.867-12.8zM1450.667 490.667h-725.333c-25.6 0-42.667 17.067-42.667 42.667s17.067 42.667 42.667 42.667h725.333c25.6 0 42.667-17.067 42.667-42.667s-17.067-42.667-42.667-42.667zM1450.667 320h-725.333c-25.6 0-42.667 17.067-42.667 42.667s17.067 42.667 42.667 42.667h725.333c25.6 0 42.667-17.067 42.667-42.667s-17.067-42.667-42.667-42.667zM1706.667 362.667h213.333c25.6 0 42.667 17.067 42.667 42.667v128c0 25.6-17.067 42.667-42.667 42.667h-213.333c-25.6 0-42.667-17.067-42.667-42.667v-128c0-21.333 17.067-42.667 42.667-42.667zM256 405.333h256c25.6 0 42.667 17.067 42.667 42.667v85.333c0 25.6-17.067 42.667-42.667 42.667h-256c-25.6 0-42.667-17.067-42.667-42.667v-85.333c0-21.333 17.067-42.667 42.667-42.667zM1706.667 704c-8.533 0-17.067 4.266-25.6 8.532-17.067 12.8-21.333 42.668-8.533 59.735l59.733 72.532-38.4 29.867h-200.533c-25.6 0-42.667 17.067-42.667 42.667s17.067 42.667 42.667 42.667h213.333c8.533 0 17.067-4.267 25.6-8.534l85.333-64c8.533-8.533 17.067-17.066 17.067-29.866s0-21.334-8.533-34.134l-85.333-106.667c-8.533-8.533-21.333-12.8-34.133-12.8z" />
<glyph unicode="&#xe933;" glyph-name="email" d="M85.333 661.333c0 70.692 57.308 128 128 128h597.333c70.694 0 128-57.308 128-128v-426.667c0-70.694-57.306-128-128-128h-597.333c-70.692 0-128 57.306-128 128v426.667zM213.333 704c-23.564 0-42.667-19.103-42.667-42.667v-426.667c0-23.565 19.103-42.667 42.667-42.667h597.333c23.565 0 42.667 19.102 42.667 42.667v426.667c0 23.564-19.102 42.667-42.667 42.667h-597.333zM485.811 286.323l-383.999 298.665 52.39 67.358 357.807-278.292 357.803 278.292 52.39-67.358-384-298.665c-15.407-11.985-36.983-11.985-52.39 0z" />
<glyph unicode="&#xe934;" glyph-name="en" horiz-adv-x="1463" d="M0 960h1462.857v-1024h-1462.857v1024z" />
<glyph unicode="&#xe935;" glyph-name="event" d="M213.333 917.333c-94.257 0-170.667-76.41-170.667-170.667v-407.706c0-94.255 76.41-170.667 170.667-170.667h135.111l126.009-168.009c18.773-25.033 56.32-25.033 75.093 0l126.007 168.009h135.113c94.255 0 170.667 76.412 170.667 170.667v407.706c0 94.257-76.412 170.667-170.667 170.667h-597.333zM128 746.667c0 47.128 38.205 85.333 85.333 85.333h597.333c47.13 0 85.333-38.205 85.333-85.333v-407.706c0-47.125-38.204-85.333-85.333-85.333h-135.113c-26.859 0-52.151-12.642-68.267-34.133l-95.287-127.049-95.289 127.049c-16.116 21.491-41.408 34.133-68.267 34.133h-135.111c-47.128 0-85.333 38.208-85.333 85.333v407.706zM341.333 490.667c23.564 0 42.667 19.102 42.667 42.667s-19.103 42.667-42.667 42.667c-23.564 0-42.667-19.102-42.667-42.667s19.103-42.667 42.667-42.667zM554.667 533.333c0-23.565-19.102-42.667-42.667-42.667s-42.667 19.102-42.667 42.667c0 23.564 19.102 42.667 42.667 42.667s42.667-19.102 42.667-42.667zM682.667 490.667c23.565 0 42.667 19.102 42.667 42.667s-19.102 42.667-42.667 42.667c-23.565 0-42.667-19.102-42.667-42.667s19.102-42.667 42.667-42.667z" />
<glyph unicode="&#xe936;" glyph-name="excel" d="M85.333 832c0 70.693 57.308 128 128 128h597.333c70.694 0 128-57.308 128-128v-298.667c0-23.565-19.102-42.667-42.667-42.667s-42.667 19.102-42.667 42.667v298.667c0 23.564-19.102 42.667-42.667 42.667h-597.333c-23.564 0-42.667-19.103-42.667-42.667v-768c0-23.565 19.103-42.667 42.667-42.667h426.667c23.565 0 42.667-19.102 42.667-42.667s-19.102-42.667-42.667-42.667h-426.667c-70.692 0-128 57.306-128 128v768zM473.724 448l-121.3 213.333h113.676l59.61-127.715c4.681-10.077 8.836-22.476 12.476-36.39h0.695c2.338 8.294 6.844 21.316 13.167 37.817l65.847 126.288h103.974l-124.075-211.191 127.539-215.475h-110.208l-72.090 139.132c-2.684 5.171-5.457 14.626-8.316 28.54h-0.695c-1.382-6.511-4.676-16.678-9.702-29.969l-72.085-137.702h-110.903l132.39 213.333zM938.675 106.505v170.829c0 23.565-19.102 42.667-42.667 42.667s-42.667-19.102-42.667-42.667v-170.991l-42.53-0.081c-17.604-0.030-27.597-20.173-16.969-34.206l85.845-113.408c8.576-11.332 25.626-11.264 34.116 0.128l84.749 113.732c10.496 14.084 0.418 34.112-17.148 34.078l-42.731-0.081z" />
<glyph unicode="&#xe937;" glyph-name="exit" horiz-adv-x="884" d="M95.601 866.909c-1.197-2.3-2.51-6.234-2.51-11.636v-814.545c0-5.404 1.314-9.337 2.51-11.636h600.072c1.196 2.299 2.509 6.232 2.509 11.636v106.845c0 25.702 20.838 46.545 46.545 46.545s46.545-20.843 46.545-46.545v-106.845c0-25.167-7.601-49.738-22.095-69.059-14.499-19.335-38.093-35.668-68.087-35.668h-610.909c-29.993 0-53.587 16.333-68.087 35.668-14.494 19.321-22.095 43.892-22.095 69.059v814.545c0 25.166 7.6 49.736 22.095 69.062 14.5 19.333 38.094 35.665 68.087 35.665h610.909c29.994 0 53.588-16.332 68.087-35.665 14.494-19.326 22.095-43.896 22.095-69.062v-106.843c0-25.707-20.838-46.545-46.545-46.545s-46.545 20.839-46.545 46.545v106.843c0 5.402-1.313 9.337-2.509 11.636h-600.072zM279.273 448c0 25.707 20.839 46.545 46.545 46.545h465.455c25.707 0 46.545-20.838 46.545-46.545s-20.838-46.545-46.545-46.545h-465.455c-25.706 0-46.545 20.838-46.545 46.545zM525.633 736.913c18.176 18.177 47.649 18.177 65.825 0l288.912-288.913-288.912-288.912c-18.176-18.176-47.649-18.176-65.825 0s-18.176 47.649 0 65.825l223.088 223.088-223.088 223.087c-18.176 18.177-18.176 47.648 0 65.826z" />
<glyph unicode="&#xe938;" glyph-name="expeditor" horiz-adv-x="1073" d="M536.381 929.524c17.652 0 33.485-10.873 39.824-27.35l112.167-291.643 314.285-22.449c17.437-1.245 32.344-12.997 37.63-29.656s-0.122-34.857-13.648-45.924l-245.994-201.269 89.088-289.543c5.169-16.798-0.492-35.050-14.263-45.973s-32.831-12.283-48.016-3.428l-271.072 158.125-271.073-158.125c-15.183-8.855-34.244-7.495-48.014 3.428s-19.434 29.174-14.264 45.973l89.090 289.543-245.995 201.269c-13.527 11.067-18.936 29.265-13.651 45.924s20.196 28.411 37.629 29.656l314.285 22.449 112.169 291.643c6.339 16.477 22.167 27.35 39.824 27.35zM536.381 768.001l-82.082-213.413c-5.94-15.445-20.276-26.063-36.783-27.242l-234.321-16.737 185.157-151.493c13.422-10.981 18.862-28.994 13.762-45.568l-65.375-212.47 198.144 115.585c13.288 7.748 29.711 7.748 42.998 0l198.144-115.585-65.375 212.47c-5.1 16.574 0.341 34.587 13.761 45.568l185.159 151.493-234.32 16.737c-16.511 1.179-30.847 11.796-36.786 27.242l-82.081 213.413z" />
<glyph unicode="&#xe939;" glyph-name="external-link" d="M213.333 618.666c-23.564 0-42.667-19.103-42.667-42.667v-426.666c0-23.565 19.103-42.667 42.667-42.667h426.667c23.565 0 42.667 19.102 42.667 42.667v188.442c0 23.565 19.102 42.667 42.667 42.667s42.667-19.102 42.667-42.667v-188.442c0-70.694-57.306-128-128-128h-426.667c-70.692 0-128 57.306-128 128v426.666c0 70.692 57.308 128 128 128h213.333c23.565 0 42.667-19.103 42.667-42.667s-19.102-42.667-42.667-42.667h-213.333zM396.497 332.497c-16.662 16.661-16.662 43.678 0 60.339l426.667 426.666c16.661 16.662 43.678 16.662 60.339 0s16.661-43.677 0-60.34l-426.667-426.665c-16.661-16.666-43.677-16.666-60.34 0zM896 448c-23.565 0-42.667 19.102-42.667 42.667l0.009 298.667-298.675-0.001c-23.565 0-42.667 19.102-42.667 42.667s19.102 42.667 42.667 42.667l341.346 0.001c11.315 0 22.165-4.495 30.17-12.497 8-8.002 12.497-18.855 12.497-30.171l-0.013-341.336c0-23.561-19.106-42.662-42.667-42.662z" />
<glyph unicode="&#xe93a;" glyph-name="fence" d="M511.445 895.996c-9.237-0.132-18.052-3.495-24.585-9.375l-284.444-256c-6.668-6.001-10.415-14.139-10.417-22.625v-544h71.111v530.751l248.889 224 248.887-224v-530.751h71.113v544c0 8.486-3.75 16.625-10.415 22.625l-284.446 256c-3.366 3.031-7.377 5.423-11.789 7.034-4.416 1.61-9.143 2.406-13.905 2.341zM405.333 511.996v-320h71.113v169.126l71.108-169.126h71.113v320h-71.113v-169.126l-71.108 169.126h-71.113z" />
<glyph unicode="&#xe93b;" glyph-name="filter_gray" d="M895.991 874.667c23.565 0 42.667-19.103 42.667-42.667 0-17.146-10.112-31.93-24.7-38.711l-359.296-359.301-0.004-369.988c0-23.565-19.102-42.667-42.667-42.667-23.561 0-42.667 19.102-42.667 42.667v362.935c-1.033 0.858-2.035 1.771-3.008 2.739l-372.153 372.155c-16.663 16.663-16.663 43.677 0 60.34 8.795 8.795 20.475 12.948 31.994 12.458 0.609 0.026 1.221 0.039 1.836 0.039h767.998zM789.325 789.333h-561.985l280.991-280.994 280.994 280.994z" />
<glyph unicode="&#xe93c;" glyph-name="filter-active" d="M895.991 874.667c23.565 0 42.667-19.103 42.667-42.667 0-17.146-10.112-31.93-24.7-38.711l-359.296-359.301-0.004-369.988c0-23.565-19.102-42.667-42.667-42.667-23.561 0-42.667 19.102-42.667 42.667v362.935c-1.033 0.858-2.035 1.771-3.008 2.739l-372.153 372.155c-16.663 16.663-16.663 43.677 0 60.34 8.795 8.795 20.475 12.948 31.994 12.458 0.609 0.026 1.221 0.039 1.836 0.039h767.998zM789.325 789.333h-561.985l280.991-280.994 280.994 280.994z" />
<glyph unicode="&#xe93d;" glyph-name="filter" horiz-adv-x="1075" d="M1028.393 908.8c0 28.277-22.922 51.2-51.2 51.2h-921.601c-28.277 0-51.2-22.923-51.2-51.2s22.923-51.2 51.2-51.2h921.601c28.278 0 51.2 22.923 51.2 51.2zM460.8-12.8c0-28.278 22.923-51.2 51.2-51.2s51.2 22.922 51.2 51.2v460.8c0 28.277-22.922 51.2-51.2 51.2-28.277 0-51.2-22.923-51.2-51.2v-460.8zM87.404 945.004c-19.995 19.995-52.413 19.995-72.408 0s-19.995-52.413 0-72.408l459.796-459.796c19.995-19.994 52.414-19.994 72.408 0s19.994 52.413 0 72.408l-459.796 459.796zM936.591 945.004v0c19.999 19.995 52.413 19.995 72.407 0 19.999-19.995 19.999-52.413 0-72.408l-460.59-460.595c-19.999-19.994-52.415-19.994-72.41 0s-19.995 52.413 0 72.408l460.593 460.595z" />
<glyph unicode="&#xe93e;" glyph-name="flatbed-van-b-b" horiz-adv-x="3029" d="M2688-64c-93.867 0-170.667 76.8-170.667 170.667s76.8 170.667 170.667 170.667c93.867 0 170.667-76.8 170.667-170.667s-76.8-170.667-170.667-170.667zM2688 192c-46.933 0-85.333-38.4-85.333-85.333s38.4-85.333 85.333-85.333c46.933 0 85.333 38.4 85.333 85.333s-38.4 85.333-85.333 85.333zM1109.333-64c-93.867 0-170.667 76.8-170.667 170.667s76.8 170.667 170.667 170.667c93.867 0 170.667-76.8 170.667-170.667s-76.8-170.667-170.667-170.667zM1109.333 192c-46.933 0-85.333-38.4-85.333-85.333s38.4-85.333 85.333-85.333c46.933 0 85.333 38.4 85.333 85.333s-38.4 85.333-85.333 85.333zM2944 64h-128c-25.6 0-42.667 17.067-42.667 42.667s17.067 42.667 42.667 42.667h128v204.8c0 17.067-12.8 34.133-29.867 38.4l-166.4 55.467c-12.8 4.267-21.333 12.8-25.6 25.6l-85.333 251.733c-12.8 34.133-42.667 59.733-81.067 59.733h-251.733c-25.6 0-42.667-17.067-42.667-42.667v-469.333c0-25.6-17.067-42.667-42.667-42.667h-170.667c-25.6 0-42.667 17.067-42.667 42.667s17.067 42.667 42.667 42.667h128v426.666c0 72.533 55.467 128 128 128h251.733c72.533 0 136.533-46.934 162.133-115.2l76.8-230.399 149.333-51.2c51.2-17.067 89.6-68.267 89.6-119.467v-204.8c-4.267-46.933-42.667-85.333-89.6-85.333zM2560 64h-1322.667c-25.6 0-42.667 17.067-42.667 42.667s17.067 42.667 42.667 42.667h1322.667c25.6 0 42.667-17.067 42.667-42.667s-17.067-42.667-42.667-42.667zM2048 234.667c-25.6 0-42.667 17.067-42.667 42.667v170.667h-1536v-85.333c0-25.6 17.067-42.667 42.667-42.667h1365.333c25.6 0 42.667-17.067 42.667-42.667s-17.067-42.667-42.667-42.667h-1365.333c-72.533 0-128 55.467-128 128v128c0 25.6 17.067 42.667 42.667 42.667h1621.333c25.6 0 42.667-17.067 42.667-42.667v-213.333c0-21.333-17.067-42.667-42.667-42.667zM2794.667 435.2l-328.533 89.6c-17.067 4.267-29.867 21.333-29.867 42.666v93.867c0 25.6 17.067 42.667 42.667 42.667h213.333l102.4-268.8zM2944 234.667c-12.8 0-21.333 4.267-29.867 12.8s-12.8 17.067-12.8 29.867c0 12.8 4.267 21.333 12.8 29.867 17.067 17.067 42.667 17.067 59.733 0 8.533-8.533 12.8-17.067 12.8-29.867s-4.267-21.333-12.8-29.867c-8.533-8.533-17.067-12.8-29.867-12.8zM2261.333 533.333c-25.6 0-42.667 17.067-42.667 42.667v85.333c0 25.6 17.067 42.667 42.667 42.667s42.667-17.067 42.667-42.667v-85.333c0-21.333-17.067-42.667-42.667-42.667z" />
<glyph unicode="&#xe93f;" glyph-name="flatbed-van-b-g" horiz-adv-x="2645" d="M2304-64c-93.867 0-170.667 76.8-170.667 170.667s76.8 170.667 170.667 170.667c93.867 0 170.667-76.8 170.667-170.667s-76.8-170.667-170.667-170.667zM2304 192c-46.933 0-85.333-38.4-85.333-85.333s38.4-85.333 85.333-85.333c46.933 0 85.333 38.4 85.333 85.333s-38.4 85.333-85.333 85.333zM725.333-64c-93.867 0-170.667 76.8-170.667 170.667s76.8 170.667 170.667 170.667c93.867 0 170.667-76.8 170.667-170.667s-76.8-170.667-170.667-170.667zM725.333 192c-46.933 0-85.333-38.4-85.333-85.333s38.4-85.333 85.333-85.333c46.933 0 85.333 38.4 85.333 85.333s-38.4 85.333-85.333 85.333zM2560 64h-128c-25.6 0-42.667 17.067-42.667 42.667s17.067 42.667 42.667 42.667h128v204.8c0 17.067-12.8 34.133-29.867 38.4l-166.4 55.467c-12.8 4.267-21.333 12.8-25.6 25.6l-85.333 251.733c-12.8 34.133-42.667 59.733-81.067 59.733h-251.733c-25.6 0-42.667-17.067-42.667-42.667v-469.333c0-25.6-17.067-42.667-42.667-42.667h-170.667c-25.6 0-42.667 17.067-42.667 42.667s17.067 42.667 42.667 42.667h128v426.666c0 72.533 55.467 128 128 128h251.733c72.533 0 136.533-46.934 162.133-115.2l76.8-230.399 149.333-51.2c51.2-17.067 89.6-68.267 89.6-119.467v-204.8c-4.267-46.933-42.667-85.333-89.6-85.333zM2176 64h-1322.667c-25.6 0-42.667 17.067-42.667 42.667s17.067 42.667 42.667 42.667h1322.667c25.6 0 42.667-17.067 42.667-42.667s-17.067-42.667-42.667-42.667zM1664 234.667c-25.6 0-42.667 17.067-42.667 42.667v170.667h-1536v-85.333c0-25.6 17.067-42.667 42.667-42.667h1365.333c25.6 0 42.667-17.067 42.667-42.667s-17.067-42.667-42.667-42.667h-1365.333c-72.533 0-128 55.467-128 128v128c0 25.6 17.067 42.667 42.667 42.667h1621.333c25.6 0 42.667-17.067 42.667-42.667v-213.333c0-21.333-17.067-42.667-42.667-42.667zM2410.667 435.2l-328.533 89.6c-17.067 4.267-29.867 21.333-29.867 42.666v93.867c0 25.6 17.067 42.667 42.667 42.667h213.333l102.4-268.8zM2560 234.667c-12.8 0-21.333 4.267-29.867 12.8s-12.8 17.067-12.8 29.867c0 12.8 4.267 21.333 12.8 29.867 17.067 17.067 42.667 17.067 59.733 0 8.533-8.533 12.8-17.067 12.8-29.867s-4.267-21.333-12.8-29.867c-8.533-8.533-17.067-12.8-29.867-12.8zM1877.333 533.333c-25.6 0-42.667 17.067-42.667 42.667v85.333c0 25.6 17.067 42.667 42.667 42.667s42.667-17.067 42.667-42.667v-85.333c0-21.333-17.067-42.667-42.667-42.667z" />
<glyph unicode="&#xe940;" glyph-name="flatbed-van-m-b" horiz-adv-x="3029" d="M2730.667-64c-93.867 0-170.667 76.8-170.667 170.667s76.8 170.667 170.667 170.667c93.867 0 170.667-76.8 170.667-170.667s-76.8-170.667-170.667-170.667zM2730.667 192c-46.933 0-85.333-38.4-85.333-85.333s38.4-85.333 85.333-85.333c46.933 0 85.333 38.4 85.333 85.333s-38.4 85.333-85.333 85.333zM1877.333-64c-93.867 0-170.667 76.8-170.667 170.667s76.8 170.667 170.667 170.667c93.867 0 170.667-76.8 170.667-170.667s-76.8-170.667-170.667-170.667zM1877.333 192c-46.933 0-85.333-38.4-85.333-85.333s38.4-85.333 85.333-85.333c46.933 0 85.333 38.4 85.333 85.333s-38.4 85.333-85.333 85.333zM2944 64h-85.333c-25.6 0-42.667 17.067-42.667 42.667s17.067 42.667 42.667 42.667h85.333v256l-128 251.733c-12.8 29.867-42.667 46.934-76.8 46.934h-221.867c-25.6 0-42.667-17.067-42.667-42.667v-384c0-25.6-17.067-42.667-42.667-42.667h-170.667c-25.6 0-42.667 17.067-42.667 42.667v170.667h-682.667v-85.333c0-25.6 17.067-42.667 42.667-42.667h512c25.6 0 42.667-17.067 42.667-42.667s-17.067-42.667-42.667-42.667h-512c-72.533 0-128 55.467-128 128v128c0 25.6 17.067 42.667 42.667 42.667h768c25.6 0 42.667-17.067 42.667-42.667v-170.667h85.333v341.333c0 72.533 55.467 128 128 128h221.867c64 0 123.733-34.134 153.6-93.867l136.533-260.266c4.267-4.267 4.267-12.8 4.267-21.333v-268.8c-4.267-42.667-42.667-81.067-89.6-81.067zM2602.667 64h-597.333c-25.6 0-42.667 17.067-42.667 42.667s17.067 42.667 42.667 42.667h597.333c25.6 0 42.667-17.067 42.667-42.667s-17.067-42.667-42.667-42.667zM2982.4 362.667l-209.067 85.333h-85.333c-25.6 0-42.667 17.067-42.667 42.667v85.333c0 25.6 17.067 42.667 42.667 42.667h192l102.4-256z" />
<glyph unicode="&#xe941;" glyph-name="flatbed-van-m-g" horiz-adv-x="1579" d="M1280-64c-93.867 0-170.667 76.8-170.667 170.667s76.8 170.667 170.667 170.667c93.867 0 170.667-76.8 170.667-170.667s-76.8-170.667-170.667-170.667zM1280 192c-46.933 0-85.333-38.4-85.333-85.333s38.4-85.333 85.333-85.333c46.933 0 85.333 38.4 85.333 85.333s-38.4 85.333-85.333 85.333zM426.667-64c-93.867 0-170.667 76.8-170.667 170.667s76.8 170.667 170.667 170.667c93.867 0 170.667-76.8 170.667-170.667s-76.8-170.667-170.667-170.667zM426.667 192c-46.933 0-85.333-38.4-85.333-85.333s38.4-85.333 85.333-85.333c46.933 0 85.333 38.4 85.333 85.333s-38.4 85.333-85.333 85.333zM1493.333 64h-85.333c-25.6 0-42.667 17.067-42.667 42.667s17.067 42.667 42.667 42.667h85.333v256l-128 251.733c-12.8 29.867-42.667 46.934-76.8 46.934h-221.867c-25.6 0-42.667-17.067-42.667-42.667v-384c0-25.6-17.067-42.667-42.667-42.667h-170.667c-25.6 0-42.667 17.067-42.667 42.667v170.667h-682.667v-85.333c0-25.6 17.067-42.667 42.667-42.667h512c25.6 0 42.667-17.067 42.667-42.667s-17.067-42.667-42.667-42.667h-512c-72.533 0-128 55.467-128 128v128c0 25.6 17.067 42.667 42.667 42.667h768c25.6 0 42.667-17.067 42.667-42.667v-170.667h85.333v341.333c0 72.533 55.467 128 128 128h221.867c64 0 123.733-34.134 153.6-93.867l136.533-260.266c4.267-4.267 4.267-12.8 4.267-21.333v-268.8c-4.267-42.667-42.667-81.067-89.6-81.067zM1152 64h-597.333c-25.6 0-42.667 17.067-42.667 42.667s17.067 42.667 42.667 42.667h597.333c25.6 0 42.667-17.067 42.667-42.667s-17.067-42.667-42.667-42.667zM1531.733 362.667l-209.067 85.333h-85.333c-25.6 0-42.667 17.067-42.667 42.667v85.333c0 25.6 17.067 42.667 42.667 42.667h192l102.4-256z" />
<glyph unicode="&#xe942;" glyph-name="flatbed-van-s-b" horiz-adv-x="3029" d="M2688-64c-93.867 0-170.667 76.8-170.667 170.667s76.8 170.667 170.667 170.667c93.867 0 170.667-76.8 170.667-170.667s-76.8-170.667-170.667-170.667zM2688 192c-46.933 0-85.333-38.4-85.333-85.333s38.4-85.333 85.333-85.333c46.933 0 85.333 38.4 85.333 85.333s-38.4 85.333-85.333 85.333zM1408-64c-93.867 0-170.667 76.8-170.667 170.667s76.8 170.667 170.667 170.667c93.867 0 170.667-76.8 170.667-170.667s-76.8-170.667-170.667-170.667zM1408 192c-46.933 0-85.333-38.4-85.333-85.333s38.4-85.333 85.333-85.333c46.933 0 85.333 38.4 85.333 85.333s-38.4 85.333-85.333 85.333zM2944 64h-128c-25.6 0-42.667 17.067-42.667 42.667s17.067 42.667 42.667 42.667h128v217.6c0 17.067-8.533 29.867-21.333 38.4l-98.133 51.2c-8.533 4.267-12.8 12.8-17.067 21.333l-81.067 179.2c-12.8 29.867-42.667 51.201-76.8 51.201h-260.267c-25.6 0-42.667-17.067-42.667-42.667v-384c0-25.6-17.067-42.667-42.667-42.667h-170.667c-25.6 0-42.667 17.067-42.667 42.667s17.067 42.667 42.667 42.667h128v341.334c0 72.533 55.467 128 128 128h260.267c68.267 0 128-38.401 153.6-102.401l72.533-166.399 85.333-46.933c42.667-21.333 68.267-64 68.267-110.933v-217.6c0-46.933-38.4-85.333-85.333-85.333zM2560 64h-1024c-25.6 0-42.667 17.067-42.667 42.667s17.067 42.667 42.667 42.667h1024c25.6 0 42.667-17.067 42.667-42.667s-17.067-42.667-42.667-42.667zM2133.333 234.667c-25.6 0-42.667 17.067-42.667 42.667v170.667h-1152v-85.333c0-25.6 17.067-42.667 42.667-42.667h981.333c25.6 0 42.667-17.067 42.667-42.667s-17.067-42.667-42.667-42.667h-981.333c-72.533 0-128 55.467-128 128v128c0 25.6 17.067 42.667 42.667 42.667h1237.333c25.6 0 42.667-17.067 42.667-42.667v-213.333c0-21.333-17.067-42.667-42.667-42.667zM2986.667 234.667h-42.667c-25.6 0-42.667 17.067-42.667 42.667s17.067 42.667 42.667 42.667h42.667c25.6 0 42.667-17.067 42.667-42.667s-17.067-42.667-42.667-42.667zM2922.667 448h-320c-25.6 0-42.667 17.067-42.667 42.667v85.333c0 25.6 17.067 42.667 42.667 42.667h170.667l149.333-170.667z" />
<glyph unicode="&#xe943;" glyph-name="flatbed-van-s-g" horiz-adv-x="2176" d="M1834.667-64c-93.867 0-170.667 76.8-170.667 170.667s76.8 170.667 170.667 170.667c93.867 0 170.667-76.8 170.667-170.667s-76.8-170.667-170.667-170.667zM1834.667 192c-46.933 0-85.333-38.4-85.333-85.333s38.4-85.333 85.333-85.333c46.933 0 85.333 38.4 85.333 85.333s-38.4 85.333-85.333 85.333zM554.667-64c-93.867 0-170.667 76.8-170.667 170.667s76.8 170.667 170.667 170.667c93.867 0 170.667-76.8 170.667-170.667s-76.8-170.667-170.667-170.667zM554.667 192c-46.933 0-85.333-38.4-85.333-85.333s38.4-85.333 85.333-85.333c46.933 0 85.333 38.4 85.333 85.333s-38.4 85.333-85.333 85.333zM2090.667 64h-128c-25.6 0-42.667 17.067-42.667 42.667s17.067 42.667 42.667 42.667h128v217.6c0 17.067-8.533 29.867-21.333 38.4l-98.133 51.2c-8.533 4.267-12.8 12.8-17.067 21.333l-81.067 179.198c-12.8 29.867-42.667 51.201-76.8 51.201h-260.267c-25.6 0-42.667-17.067-42.667-42.667v-383.999c0-25.6-17.067-42.667-42.667-42.667h-170.667c-25.6 0-42.667 17.067-42.667 42.667s17.067 42.667 42.667 42.667h128v341.332c0 72.533 55.467 128 128 128h260.267c68.267 0 128-38.401 153.6-102.401l72.533-166.398 85.333-46.933c42.667-21.333 68.267-64 68.267-110.933v-217.6c0-46.933-38.4-85.333-85.333-85.333zM1706.667 64h-1024c-25.6 0-42.667 17.067-42.667 42.667s17.067 42.667 42.667 42.667h1024c25.6 0 42.667-17.067 42.667-42.667s-17.067-42.667-42.667-42.667zM1280 234.667c-25.6 0-42.667 17.067-42.667 42.667v170.667h-1152v-85.333c0-25.6 17.067-42.667 42.667-42.667h981.333c25.6 0 42.667-17.067 42.667-42.667s-17.067-42.667-42.667-42.667h-981.333c-72.533 0-128 55.467-128 128v128c0 25.6 17.067 42.667 42.667 42.667h1237.333c25.6 0 42.667-17.067 42.667-42.667v-213.333c0-21.333-17.067-42.667-42.667-42.667zM2133.333 234.667h-42.667c-25.6 0-42.667 17.067-42.667 42.667s17.067 42.667 42.667 42.667h42.667c25.6 0 42.667-17.067 42.667-42.667s-17.067-42.667-42.667-42.667zM2069.333 448h-320c-25.6 0-42.667 17.067-42.667 42.667v85.332c0 25.6 17.067 42.667 42.667 42.667h170.667l149.333-170.665z" />
<glyph unicode="&#xe944;" glyph-name="fold-map" d="M512 960c-282.77 0-512-229.23-512-512s229.23-512 512-512 512 229.23 512 512-229.23 512-512 512zM622.889 207.392l-47.82-47.662-287.332 288.271 287.332 288.271 47.82-47.662-239.825-240.608 239.825-240.608z" />
<glyph unicode="&#xe945;" glyph-name="folder" d="M213.333 746.667c-23.564 0-42.667-19.103-42.667-42.667v-512c0-23.565 19.103-42.667 42.667-42.667h597.333c23.565 0 42.667 19.102 42.667 42.667v329.954c0 23.566-19.102 42.668-42.667 42.668h-297.015c-41.677 0-80.738 20.288-104.71 54.377l-77.021 109.542c-7.99 11.363-21.012 18.126-34.903 18.126h-83.684zM85.333 704c0 70.692 57.308 128 128 128h83.684c41.673 0 80.738-20.287 104.708-54.377l77.020-109.541c7.991-11.363 21.013-18.126 34.906-18.126h297.015c70.694 0 128-57.307 128-128.001v-329.954c0-70.694-57.306-128-128-128h-597.333c-70.692 0-128 57.306-128 128v512zM810.667 704h-448v85.333h448c70.694 0 128-57.308 128-128v-384h-85.333v384c0 23.564-19.102 42.667-42.667 42.667zM341.333 405.333h128v-85.333h-128v85.333zM298.667 490.667c-23.564 0-42.667-19.102-42.667-42.667v-170.667c0-23.565 19.103-42.667 42.667-42.667h213.333c23.565 0 42.667 19.102 42.667 42.667v170.667c0 23.565-19.102 42.667-42.667 42.667h-213.333z" />
<glyph unicode="&#xe947;" glyph-name="frame" d="M160 832c-52.75 0-96-43.25-96-96v-576c0-52.749 43.25-96 96-96h704c52.749 0 96 43.251 96 96v576c0 52.75-43.251 96-96 96h-704zM160 768h704c18.001 0 32-14 32-32v-576c0-18.001-13.999-32-32-32h-704c-18 0-32 13.999-32 32v576c0 18 14 32 32 32zM192 704v-512h640v512h-640zM256 640h512v-384h-512v384z" />
<glyph unicode="&#xe948;" glyph-name="freezing" d="M367.25 894l-46.5-44 127.25-134.75v-145.25c-3.087-1.112-6.064-2.338-9-3.75l-55 55v82.75h-64v-64h-64v-64h82.75l55-55c-1.412-2.936-2.638-5.912-3.75-9h-145.25l-134.75 127.25-44-46.5 119.375-112.75-119.375-112.75 44-46.5 134.75 127.25h152.625c0.5-1.247 1.341-2.271 1.875-3.5l-60.5-60.5h-82.75v-64h64v-64h64v82.75l56.875 56.875c2.365-1.388 4.613-2.985 7.125-4.125v-146.751l-127.25-134.746 46.5-44.006 112.75 119.379 112.75-119.379 46.5 44.006-127.25 134.746v146.751c2.512 1.14 4.76 2.737 7.125 4.125l56.875-56.875v-82.75h64v64h64v64h-82.75l-60.5 60.5c0.534 1.229 1.375 2.253 1.875 3.5h152.626l134.746-127.25 44.006 46.5-119.379 112.75 119.379 112.75-44.006 46.5-134.746-127.25h-145.251c-1.076 2.988-3.148 5.403-4.5 8.25l55.75 55.75h82.75v64h-64v64h-64v-82.75l-55.625-55.625c-2.844 1.377-5.385 3.284-8.375 4.375v145.25l127.25 134.75-46.5 44-112.75-119.375-112.75 119.375zM192 768v-64h64v64h-64zM704 768v-64h64v64h-64zM480 512c18.014 0 32-13.986 32-32s-13.986-32-32-32c-18.014 0-32 13.986-32 32s13.986 32 32 32zM192 256v-64h64v64h-64zM704 256v-64h64v64h-64z" />
<glyph unicode="&#xe949;" glyph-name="gondola-car-dlinnobaznaya" horiz-adv-x="2560" d="M2474.667 149.333h-2389.333c-46.933 0-85.333 38.4-85.333 85.333v213.333c0 25.6 17.067 42.667 42.667 42.667h2304c25.6 0 42.667-17.067 42.667-42.667s-17.067-42.667-42.667-42.667h-2261.333v-170.667h2389.333v213.333c0 25.6 17.067 42.667 42.667 42.667s42.667-17.067 42.667-42.667v-213.333c0-46.933-38.4-85.333-85.333-85.333zM2261.333-64c-72.533 0-128 55.467-128 128s55.467 128 128 128c72.533 0 128-55.467 128-128s-55.467-128-128-128zM2261.333 106.667c-25.6 0-42.667-17.067-42.667-42.667s17.067-42.667 42.667-42.667c25.6 0 42.667 17.067 42.667 42.667s-17.067 42.667-42.667 42.667zM1920-64c-72.533 0-128 55.467-128 128s55.467 128 128 128c72.533 0 128-55.467 128-128s-55.467-128-128-128zM1920 106.667c-25.6 0-42.667-17.067-42.667-42.667s17.067-42.667 42.667-42.667c25.6 0 42.667 17.067 42.667 42.667s-17.067 42.667-42.667 42.667zM2176 106.667h-170.667v-85.333h170.667v85.333zM640-64c-72.533 0-128 55.467-128 128s55.467 128 128 128c72.533 0 128-55.467 128-128s-55.467-128-128-128zM640 106.667c-25.6 0-42.667-17.067-42.667-42.667s17.067-42.667 42.667-42.667c25.6 0 42.667 17.067 42.667 42.667s-17.067 42.667-42.667 42.667zM298.667-64c-72.533 0-128 55.467-128 128s55.467 128 128 128c72.533 0 128-55.467 128-128s-55.467-128-128-128zM298.667 106.667c-25.6 0-42.667-17.067-42.667-42.667s17.067-42.667 42.667-42.667c25.6 0 42.667 17.067 42.667 42.667s-17.067 42.667-42.667 42.667zM554.667 106.667h-170.667v-85.333h170.667v85.333zM1280 320c-25.6 0-42.667 17.067-42.667 42.667v85.333c0 25.6 17.067 42.667 42.667 42.667s42.667-17.067 42.667-42.667v-85.333c0-21.333-17.067-42.667-42.667-42.667zM1664 320c-25.6 0-42.667 17.067-42.667 42.667v85.333c0 25.6 17.067 42.667 42.667 42.667s42.667-17.067 42.667-42.667v-85.333c0-21.333-17.067-42.667-42.667-42.667zM2048 320c-25.6 0-42.667 17.067-42.667 42.667v85.333c0 25.6 17.067 42.667 42.667 42.667s42.667-17.067 42.667-42.667v-85.333c0-21.333-17.067-42.667-42.667-42.667zM512 320c-25.6 0-42.667 17.067-42.667 42.667v85.333c0 25.6 17.067 42.667 42.667 42.667s42.667-17.067 42.667-42.667v-85.333c0-21.333-17.067-42.667-42.667-42.667zM896 320c-25.6 0-42.667 17.067-42.667 42.667v85.333c0 25.6 17.067 42.667 42.667 42.667s42.667-17.067 42.667-42.667v-85.333c0-21.333-17.067-42.667-42.667-42.667z" />
<glyph unicode="&#xe94a;" glyph-name="gondola-car-fitingovaya" horiz-adv-x="2304" d="M2218.667 149.333h-2133.333c-46.933 0-85.333 38.4-85.333 85.333v128c0 25.6 17.067 42.667 42.667 42.667h2048c25.6 0 42.667-17.067 42.667-42.667s-17.067-42.667-42.667-42.667h-2005.333v-85.333h2133.333v128c0 25.6 17.067 42.667 42.667 42.667s42.667-17.067 42.667-42.667v-128c0-46.933-38.4-85.333-85.333-85.333zM2005.333-64c-72.533 0-128 55.467-128 128s55.467 128 128 128c72.533 0 128-55.467 128-128s-55.467-128-128-128zM2005.333 106.667c-25.6 0-42.667-17.067-42.667-42.667s17.067-42.667 42.667-42.667c25.6 0 42.667 17.067 42.667 42.667s-17.067 42.667-42.667 42.667zM1664-64c-72.533 0-128 55.467-128 128s55.467 128 128 128c72.533 0 128-55.467 128-128s-55.467-128-128-128zM1664 106.667c-25.6 0-42.667-17.067-42.667-42.667s17.067-42.667 42.667-42.667c25.6 0 42.667 17.067 42.667 42.667s-17.067 42.667-42.667 42.667zM1920 106.667h-170.667v-85.333h170.667v85.333zM640-64c-72.533 0-128 55.467-128 128s55.467 128 128 128c72.533 0 128-55.467 128-128s-55.467-128-128-128zM640 106.667c-25.6 0-42.667-17.067-42.667-42.667s17.067-42.667 42.667-42.667c25.6 0 42.667 17.067 42.667 42.667s-17.067 42.667-42.667 42.667zM298.667-64c-72.533 0-128 55.467-128 128s55.467 128 128 128c72.533 0 128-55.467 128-128s-55.467-128-128-128zM298.667 106.667c-25.6 0-42.667-17.067-42.667-42.667s17.067-42.667 42.667-42.667c25.6 0 42.667 17.067 42.667 42.667s-17.067 42.667-42.667 42.667zM554.667 106.667h-170.667v-85.333h170.667v85.333z" />
<glyph unicode="&#xe94b;" glyph-name="gondola-car-gluhodonnyj" horiz-adv-x="2261" d="M2176 149.333h-2133.333c-25.6 0-42.667 17.067-42.667 42.667v725.333c0 25.6 17.067 42.667 42.667 42.667s42.667-17.067 42.667-42.667v-682.667h2048v682.667c0 25.6 17.067 42.667 42.667 42.667s42.667-17.067 42.667-42.667v-725.333c0-21.333-17.067-42.667-42.667-42.667zM2005.333 789.333h-1962.667c-25.6 0-42.667 17.067-42.667 42.667s17.067 42.667 42.667 42.667h1962.667c25.6 0 42.667-17.067 42.667-42.667s-17.067-42.667-42.667-42.667zM896 64c-25.6 0-42.667 17.067-42.667 42.667v725.333c0 25.6 17.067 42.667 42.667 42.667s42.667-17.067 42.667-42.667v-725.333c0-21.333-17.067-42.667-42.667-42.667zM1322.667 64c-25.6 0-42.667 17.067-42.667 42.667v725.333c0 25.6 17.067 42.667 42.667 42.667s42.667-17.067 42.667-42.667v-725.333c0-21.333-17.067-42.667-42.667-42.667zM1749.333 149.333c-25.6 0-42.667 17.067-42.667 42.667v640c0 25.6 17.067 42.667 42.667 42.667s42.667-17.067 42.667-42.667v-640c0-21.333-17.067-42.667-42.667-42.667zM469.333 149.333c-25.6 0-42.667 17.067-42.667 42.667v640c0 25.6 17.067 42.667 42.667 42.667s42.667-17.067 42.667-42.667v-640c0-21.333-17.067-42.667-42.667-42.667zM1962.667-64c-72.533 0-128 55.467-128 128s55.467 128 128 128c72.533 0 128-55.467 128-128s-55.467-128-128-128zM1962.667 106.667c-25.6 0-42.667-17.067-42.667-42.667s17.067-42.667 42.667-42.667c25.6 0 42.667 17.067 42.667 42.667s-17.067 42.667-42.667 42.667zM1621.333-64c-72.533 0-128 55.467-128 128s55.467 128 128 128c72.533 0 128-55.467 128-128s-55.467-128-128-128zM1621.333 106.667c-25.6 0-42.667-17.067-42.667-42.667s17.067-42.667 42.667-42.667c25.6 0 42.667 17.067 42.667 42.667s-17.067 42.667-42.667 42.667zM1877.333 106.667h-170.667v-85.333h170.667v85.333zM597.333-64c-72.533 0-128 55.467-128 128s55.467 128 128 128c72.533 0 128-55.467 128-128s-55.467-128-128-128zM597.333 106.667c-25.6 0-42.667-17.067-42.667-42.667s17.067-42.667 42.667-42.667c25.6 0 42.667 17.067 42.667 42.667s-17.067 42.667-42.667 42.667zM256-64c-72.533 0-128 55.467-128 128s55.467 128 128 128c72.533 0 128-55.467 128-128s-55.467-128-128-128zM256 106.667c-25.6 0-42.667-17.067-42.667-42.667s17.067-42.667 42.667-42.667c25.6 0 42.667 17.067 42.667 42.667s-17.067 42.667-42.667 42.667zM512 106.667h-170.667v-85.333h170.667v85.333z" />
<glyph unicode="&#xe94c;" glyph-name="gondola-car-lyukovoj" horiz-adv-x="2261" d="M1962.667-64c-72.533 0-128 55.467-128 128s55.467 128 128 128c72.533 0 128-55.467 128-128s-55.467-128-128-128zM1962.667 106.667c-25.6 0-42.667-17.067-42.667-42.667s17.067-42.667 42.667-42.667c25.6 0 42.667 17.067 42.667 42.667s-17.067 42.667-42.667 42.667zM1621.333-64c-72.533 0-128 55.467-128 128s55.467 128 128 128c72.533 0 128-55.467 128-128s-55.467-128-128-128zM1621.333 106.667c-25.6 0-42.667-17.067-42.667-42.667s17.067-42.667 42.667-42.667c25.6 0 42.667 17.067 42.667 42.667s-17.067 42.667-42.667 42.667zM1877.333 106.667h-170.667v-85.333h170.667v85.333zM597.333-64c-72.533 0-128 55.467-128 128s55.467 128 128 128c72.533 0 128-55.467 128-128s-55.467-128-128-128zM597.333 106.667c-25.6 0-42.667-17.067-42.667-42.667s17.067-42.667 42.667-42.667c25.6 0 42.667 17.067 42.667 42.667s-17.067 42.667-42.667 42.667zM256-64c-72.533 0-128 55.467-128 128s55.467 128 128 128c72.533 0 128-55.467 128-128s-55.467-128-128-128zM256 106.667c-25.6 0-42.667-17.067-42.667-42.667s17.067-42.667 42.667-42.667c25.6 0 42.667 17.067 42.667 42.667s-17.067 42.667-42.667 42.667zM512 106.667h-170.667v-85.333h170.667v85.333zM2005.333 320c-25.6 0-42.667 17.067-42.667 42.667v554.667c0 25.6 17.067 42.667 42.667 42.667s42.667-17.067 42.667-42.667v-554.667c0-21.333-17.067-42.667-42.667-42.667zM213.333 320c-25.6 0-42.667 17.067-42.667 42.667v554.667c0 25.6 17.067 42.667 42.667 42.667s42.667-17.067 42.667-42.667v-554.667c0-21.333-17.067-42.667-42.667-42.667zM1250.133 21.333h-324.267c-38.4 0-68.267 21.333-81.067 59.733l-21.333 68.267h-780.8c-25.6 0-42.667 17.067-42.667 42.667v725.333c0 25.6 17.067 42.667 42.667 42.667h1962.667c25.6 0 42.667-17.067 42.667-42.667s-17.067-42.667-42.667-42.667h-1920v-640h738.133c38.4 0 68.267-21.333 81.067-59.733l21.333-68.267h324.267l21.333 68.267c12.8 34.133 42.667 59.733 81.067 59.733h780.8v682.667c0 25.6 17.067 42.667 42.667 42.667s42.667-17.067 42.667-42.667v-725.333c0-25.6-17.067-42.667-42.667-42.667h-823.467l-21.333-68.267c-12.8-34.133-46.933-59.733-81.067-59.733zM1280 64h-384l-85.333 170.667h554.667l-85.333-170.667z" />
<glyph unicode="&#xe94d;" glyph-name="gondola-car-universalnaya" horiz-adv-x="2304" d="M2218.667 149.333h-2133.333c-46.933 0-85.333 38.4-85.333 85.333v213.333c0 25.6 17.067 42.667 42.667 42.667h2048c25.6 0 42.667-17.067 42.667-42.667s-17.067-42.667-42.667-42.667h-2005.333v-170.667h2133.333v213.333c0 25.6 17.067 42.667 42.667 42.667s42.667-17.067 42.667-42.667v-213.333c0-46.933-38.4-85.333-85.333-85.333zM2005.333-64c-72.533 0-128 55.467-128 128s55.467 128 128 128c72.533 0 128-55.467 128-128s-55.467-128-128-128zM2005.333 106.667c-25.6 0-42.667-17.067-42.667-42.667s17.067-42.667 42.667-42.667c25.6 0 42.667 17.067 42.667 42.667s-17.067 42.667-42.667 42.667zM1664-64c-72.533 0-128 55.467-128 128s55.467 128 128 128c72.533 0 128-55.467 128-128s-55.467-128-128-128zM1664 106.667c-25.6 0-42.667-17.067-42.667-42.667s17.067-42.667 42.667-42.667c25.6 0 42.667 17.067 42.667 42.667s-17.067 42.667-42.667 42.667zM1920 106.667h-170.667v-85.333h170.667v85.333zM640-64c-72.533 0-128 55.467-128 128s55.467 128 128 128c72.533 0 128-55.467 128-128s-55.467-128-128-128zM640 106.667c-25.6 0-42.667-17.067-42.667-42.667s17.067-42.667 42.667-42.667c25.6 0 42.667 17.067 42.667 42.667s-17.067 42.667-42.667 42.667zM298.667-64c-72.533 0-128 55.467-128 128s55.467 128 128 128c72.533 0 128-55.467 128-128s-55.467-128-128-128zM298.667 106.667c-25.6 0-42.667-17.067-42.667-42.667s17.067-42.667 42.667-42.667c25.6 0 42.667 17.067 42.667 42.667s-17.067 42.667-42.667 42.667zM554.667 106.667h-170.667v-85.333h170.667v85.333zM1109.333 320c-25.6 0-42.667 17.067-42.667 42.667v85.333c0 25.6 17.067 42.667 42.667 42.667s42.667-17.067 42.667-42.667v-85.333c0-21.333-17.067-42.667-42.667-42.667zM1493.333 320c-25.6 0-42.667 17.067-42.667 42.667v85.333c0 25.6 17.067 42.667 42.667 42.667s42.667-17.067 42.667-42.667v-85.333c0-21.333-17.067-42.667-42.667-42.667zM1877.333 320c-25.6 0-42.667 17.067-42.667 42.667v85.333c0 25.6 17.067 42.667 42.667 42.667s42.667-17.067 42.667-42.667v-85.333c0-21.333-17.067-42.667-42.667-42.667zM341.333 320c-25.6 0-42.667 17.067-42.667 42.667v85.333c0 25.6 17.067 42.667 42.667 42.667s42.667-17.067 42.667-42.667v-85.333c0-21.333-17.067-42.667-42.667-42.667zM725.333 320c-25.6 0-42.667 17.067-42.667 42.667v85.333c0 25.6 17.067 42.667 42.667 42.667s42.667-17.067 42.667-42.667v-85.333c0-21.333-17.067-42.667-42.667-42.667z" />
<glyph unicode="&#xe94e;" glyph-name="graph" d="M128 832v-682.667c0-46.639 38.696-85.333 85.333-85.333h682.667v85.333h-682.667v682.667h-85.333zM824.333 690.583l-184.832-183.085-127.753 122.168-242.832-236.416 59.5-61.167 183.835 178.999 128.247-122.581 243.917 241.498-60.083 60.584z" />
<glyph unicode="&#xe94f;" glyph-name="group-list" d="M256 448c0 23.565 19.103 42.667 42.667 42.667h426.667c23.565 0 42.667-19.102 42.667-42.667s-19.102-42.667-42.667-42.667h-426.667c-23.564 0-42.667 19.102-42.667 42.667zM256 277.333c0 23.565 19.103 42.667 42.667 42.667h426.667c23.565 0 42.667-19.102 42.667-42.667s-19.102-42.667-42.667-42.667h-426.667c-23.564 0-42.667 19.102-42.667 42.667zM256 618.667c0 23.564 19.103 42.667 42.667 42.667h426.667c23.565 0 42.667-19.103 42.667-42.667s-19.102-42.667-42.667-42.667h-426.667c-23.564 0-42.667 19.103-42.667 42.667z" />
<glyph unicode="&#xe950;" glyph-name="group" d="M102.4 243.2c0 28.278 22.923 51.2 51.2 51.2h614.4c28.278 0 51.2-22.922 51.2-51.2s-22.922-51.2-51.2-51.2h-614.4c-28.277 0-51.2 22.922-51.2 51.2zM102.4 38.4c0 28.278 22.923 51.2 51.2 51.2h358.4c28.277 0 51.2-22.922 51.2-51.2s-22.923-51.2-51.2-51.2h-358.4c-28.277 0-51.2 22.922-51.2 51.2zM102.4 448c0 28.277 22.923 51.2 51.2 51.2h358.4c28.277 0 51.2-22.923 51.2-51.2s-22.923-51.2-51.2-51.2h-358.4c-28.277 0-51.2 22.923-51.2 51.2zM921.6 857.6v-204.8c0-28.277-22.922-51.2-51.2-51.2h-716.8c-28.277 0-51.2 22.923-51.2 51.2v204.8c0 28.277 22.923 51.2 51.2 51.2h716.8c28.278 0 51.2-22.923 51.2-51.2zM819.2 806.4h-614.4v-102.4h614.4v102.4z" />
<glyph unicode="&#xe951;" glyph-name="h2s" d="M384 256h-92.388v182.66h-199.223v-182.66h-92.388v448h92.388v-190.353h199.223v190.353h92.388v-448zM943.744 376.516c0 16.465-5.867 29.564-17.604 39.296-11.742 9.98-34.88 19.712-69.419 29.193-34.317 9.481-61.406 20.335-81.271 32.563-19.866 12.224-34.539 26.449-44.019 42.667-9.259 16.467-13.884 36.179-13.884 59.134 0 36.429 13.884 66.246 41.651 89.45 27.763 23.454 63.659 35.181 107.682 35.181 47.407 0 85.444-12.476 114.116-37.427 28.668-24.951 43.004-57.388 43.004-97.31h-82.287c0 20.21-6.771 36.054-20.318 47.532-13.542 11.727-31.714 17.591-54.515 17.591-21.449 0-38.379-4.865-50.795-14.596-12.416-9.482-18.624-22.207-18.624-38.176 0-14.472 6.319-26.448 18.961-35.93 12.868-9.481 35.443-18.589 67.725-27.322 49.89-13.474 85.675-31.313 107.345-53.521 21.67-22.204 32.508-51.025 32.508-86.455 0-38.174-13.995-68.117-41.988-89.822-27.994-21.709-65.015-32.563-111.070-32.563-31.155 0-59.712 5.739-85.67 17.216-25.737 11.729-45.717 28.194-59.938 49.404s-21.333 45.909-21.333 74.103h82.624c0-47.906 28.898-71.859 86.69-71.859 21.897 0 39.053 4.617 51.469 13.85 12.642 9.233 18.961 21.833 18.961 37.803zM466.244 51.2h212.156v67.652h-99.938l27.213 23.177 20.89 20.506c14.656 14.874 25.638 28.727 32.205 41.493 6.601 12.834 10.001 26.321 10.001 40.32 0 26.607-9.131 48.798-28.13 64.998-18.752 16.137-43.682 23.454-73.237 23.454-30.575 0-56.585-8.687-76.702-26.995-19.951-18.304-29.901-41.877-29.901-69.692v-12.8h76.689v12.8c0 10.551 2.991 17.007 7.492 21.244l0.090 0.085c4.646 4.459 11.844 7.488 23.381 7.488 8.503 0 14.025-2.321 17.886-5.905 3.755-3.482 5.952-8.145 5.952-15.326 0-4.642-1.83-11.012-7.232-19.418-5.367-8.35-13.781-17.946-25.66-28.783l-93.154-90.313v-53.986z" />
<glyph unicode="&#xe952;" glyph-name="hand" horiz-adv-x="945" d="M433.231 960c-41.742 0-78.497-22.3-99.538-55.385-17.236 9.884-36.885 16-58 16-64.79 0-118.154-53.364-118.154-118.154v-7.385c-12.386 4.46-25.547 7.385-39.385 7.385-64.79 0-118.154-53.364-118.154-118.154v-434.923c0-172.806 142.656-313.385 315.077-313.385h157.538c92.042 0 166.642 47.033 231.231 102.613l169.846 135.541-3.080-2.154c42.89 27.825 74.618 68.969 74.618 118.461 0 10.957-1.583 22.105-4.766 33.077-18.093 62.264-84.291 98.373-146.464 80.308l-2.001-0.615-83.078-34.154v394c0 64.79-53.364 118.154-118.154 118.154-15.977 0-31.273-3.37-45.231-9.231-12.086 38.244-45.133 65.944-85.384 76.769-7.207 7.051-16.842 11.071-26.923 11.231zM433.231 881.231c22.171 0 39.385-17.213 39.385-39.385v-354.462h78.769v275.692c0 22.171 17.213 39.385 39.385 39.385s39.385-17.213 39.385-39.385v-511.846l186.155 76.924c21.189 5.938 42.48-5.515 48.616-26.616 1.063-3.679 1.536-7.54 1.536-11.077 0-18.879-8.090-32.554-38.77-52.462l-1.694-1.077-173.536-138.619c-58.604-50.428-114.507-83.535-179.846-83.535h-157.538c-129.738 0-236.308 105.102-236.308 234.616v434.923c0 22.171 17.213 39.385 39.385 39.385s39.385-17.213 39.385-39.385v-196.923h78.769v315.077c0 22.171 17.213 39.385 39.385 39.385s39.385-17.213 39.385-39.385v-315.077h78.769v354.462c0 22.171 17.213 39.385 39.385 39.385z" />
<glyph unicode="&#xe953;" glyph-name="hazard" horiz-adv-x="1081" d="M427.556 944.667c-119.979-38.912-200.5-144.155-200.5-262 0-44.288 11.532-86.128 31.5-123.333-42.325-1.365-84.185-12.146-122.5-34.333-102.059-58.965-153.116-181.528-126.833-304.835l83.666 17.835c-18.517 87.040 15.945 172.47 85.833 212.833 91.819 52.992 214.535 13.226 273.5-88.832 28.928-50.091 38.195-107.162 26.333-160.836-11.605-52.309-42.053-95.152-86-120.496-69.888-40.363-161.285-27.398-227.333 32.165l-57.167-63.664c56.576-50.944 126.876-77.335 196.167-77.335 45.483 0 90.552 11.372 131 34.668 37.632 21.76 68.468 52.144 91.167 88.496 22.699-36.352 53.28-66.736 90.997-88.496 40.448-23.381 85.436-34.668 131.004-34.668 69.291 0 139.674 26.391 196.164 77.335l-57.168 63.664c-66.048-59.563-157.531-72.528-227.334-32.165-43.861 25.344-74.394 68.187-85.999 120.496-11.945 53.675-2.594 110.831 26.334 160.836 58.88 102.058 181.68 141.824 273.499 88.832 69.888-40.363 104.351-125.793 85.834-212.833l83.666-17.835c26.112 123.307-24.94 245.955-126.999 304.835-38.4 22.101-80.179 32.968-122.334 34.333 19.968 37.205 31.499 78.879 31.499 123.167 0 117.845-80.686 223.34-200.664 262.167l-26.334-81.333c84.565-27.477 141.335-100.108 141.335-180.833 0-106.069-95.989-192.333-213.835-192.333s-213.667 86.264-213.667 192.333c0 80.725 56.935 153.356 141.5 180.833l-26.333 81.333zM526.223 704c-45.568 0-88.677-10.572-127.333-28.834 2.475-29.355 19.156-55.243 44.5-73.333 25.515 10.752 53.478 16.667 82.833 16.667s57.321-5.915 82.835-16.667c25.344 18.091 42.024 43.979 44.498 73.333-38.656 18.261-81.766 28.834-127.334 28.834zM526.223 447.5c23.637 0 42.831-19.196 42.831-42.833s-19.194-42.666-42.831-42.666-42.833 19.029-42.833 42.666c0 23.637 19.196 42.833 42.833 42.833zM785.22 388.836c-16.299 0-32.637-3.834-47.997-11.002-7.424-57.856-37.467-108.288-81.67-142.165 0.512-5.376 0.643-10.712 1.838-16.003 5.803-26.283 19.621-46.842 39.333-60.496 71.168 49.579 119.819 129.274 127.499 220.496-12.032 5.717-25.008 9.17-39.003 9.17zM270.89 387.499c-14.848 0.74-29.44-1.729-42.667-7.834 7.595-91.221 56.247-170.917 127.5-220.496 19.712 13.653 33.446 34.213 39.334 60.496 1.195 5.291 1.488 10.627 2 16.003-43.861 33.536-73.901 83.325-81.666 140.498-14.507 6.741-29.652 10.598-44.5 11.332z" />
<glyph unicode="&#xe954;" glyph-name="home" d="M341.333 362.667h341.333v-298.394h170.667v450.863c0 12.971-5.734 24.716-15.33 32.42-78.788 63.25-214.063 171.022-300.19 239.576-15.509 12.345-37.38 12.341-52.919-0.077-85.337-68.192-219.108-175.174-298.819-239.355-9.665-7.782-15.408-19.611-15.408-32.565v-450.863h170.667v298.394zM426.667-21.060h-321.016c-5.388 0-10.556 2.155-14.366 5.982-3.81 3.831-5.951 9.024-5.952 14.443v515.772c0 38.511 17.23 74.88 47.225 99.031 79.855 64.297 213.749 171.377 299.066 239.552 46.618 37.251 112.644 37.34 159.334 0.177 86.097-68.534 221.513-176.417 300.463-239.797 30.033-24.107 47.245-60.453 47.245-98.964v-515.772c0-5.419-2.142-10.611-5.952-14.443-3.81-3.827-8.977-5.982-14.366-5.982h-321.015v298.394h-170.667v-298.394z" />
<glyph unicode="&#xe955;" glyph-name="info" d="M512 21.333c235.639 0 426.667 191.027 426.667 426.667 0 235.642-191.027 426.667-426.667 426.667-235.642 0-426.667-191.025-426.667-426.667 0-235.639 191.025-426.667 426.667-426.667zM1024 448c0-282.769-229.231-512-512-512s-512 229.231-512 512c0 282.77 229.23 512 512 512s512-229.23 512-512zM469.333 533.333h85.333v-341.333h-85.333v341.333zM469.333 704h85.333v-85.333h-85.333v85.333z" />
<glyph unicode="&#xe956;" glyph-name="inspection" d="M564.796 832c-181.294 0-331.208-149.914-331.208-331.204 0-80.188 27.891-149.918 73.214-205.7l-154.75-157.764c-13.321-13.581-13.216-35.358 0.236-48.811 13.544-13.542 35.502-13.542 49.045 0l154.279 154.283c55.782-45.325 128.997-73.216 205.695-73.216 181.295 0 331.209 149.914 331.209 331.209 3.486 181.29-142.942 331.204-327.718 331.204zM564.796 762.272c142.938 0 254.502-111.564 261.478-251.019l-6.976 6.972c0 0-90.645 135.969-254.502 135.969-163.862 0-254.508-135.969-254.508-135.969l-6.973-6.972c6.973 139.455 122.023 251.019 261.481 251.019zM564.796 587.953c101.103 0 156.885-62.757 177.805-87.158-20.919-27.891-76.702-87.159-177.805-87.159-101.107 0-156.889 62.754-177.807 87.159 20.918 24.401 76.7 87.158 177.807 87.158zM564.796 570.522c-38.353 0-69.73-31.377-69.73-69.726 0-38.353 31.377-69.73 69.73-69.73 38.349 0 69.726 31.377 69.726 69.73 0 6.972 0 13.943-3.486 20.915-6.972-13.943-17.434-20.915-31.377-20.915-20.919 0-34.863 13.943-34.863 34.862 0 13.946 6.972 24.405 20.915 31.377-6.972 3.487-13.943 3.487-20.915 3.487zM303.315 490.334l6.973-10.458c0 0 90.646-135.97 254.508-135.97 163.857 0 254.502 135.97 254.502 135.97l6.976 10.458c-6.976-139.456-118.541-251.021-261.478-251.021-142.944 0-254.508 111.565-261.481 251.021z" />
<glyph unicode="&#xe957;" glyph-name="isothermal-van-b-b" horiz-adv-x="3029" d="M1408 704c23.565 0 42.667 19.103 42.667 42.667s-19.102 42.667-42.667 42.667c-23.565 0-42.667-19.103-42.667-42.667s19.102-42.667 42.667-42.667zM1280 512v128h42.667v64h-42.667v85.333h-85.333v-85.333h-42.667v-64h42.667v-157.867c0-76.8 64-76.8 89.6-76.8 46.933 0 81.067 12.8 81.067 12.8v64c0 0-21.333-4.267-46.933-4.267-29.867-4.267-38.4 21.333-38.4 34.133zM2688-64c-93.867 0-170.667 76.8-170.667 170.667s76.8 170.667 170.667 170.667c93.867 0 170.667-76.8 170.667-170.667s-76.8-170.667-170.667-170.667zM2688 192c-46.933 0-85.333-38.4-85.333-85.333s38.4-85.333 85.333-85.333c46.933 0 85.333 38.4 85.333 85.333s-38.4 85.333-85.333 85.333zM1109.333-64c-93.867 0-170.667 76.8-170.667 170.667s76.8 170.667 170.667 170.667c93.867 0 170.667-76.8 170.667-170.667s-76.8-170.667-170.667-170.667zM1109.333 192c-46.933 0-85.333-38.4-85.333-85.333s38.4-85.333 85.333-85.333c46.933 0 85.333 38.4 85.333 85.333s-38.4 85.333-85.333 85.333zM2944 64h-128c-25.6 0-42.667 17.067-42.667 42.667s17.067 42.667 42.667 42.667h128v204.8c0 17.067-12.8 34.133-29.867 38.4l-166.4 55.467c-12.8 4.267-21.333 12.8-25.6 25.6l-85.333 251.733c-12.8 34.133-42.667 59.733-81.067 59.733h-251.733c-25.6 0-42.667-17.067-42.667-42.667v-469.333c0-25.6-17.067-42.667-42.667-42.667h-170.667c-25.6 0-42.667 17.067-42.667 42.667s17.067 42.667 42.667 42.667h128v426.666c0 72.533 55.467 128 128 128h251.733c72.533 0 136.533-46.934 162.133-115.2l76.8-230.399 149.333-51.2c51.2-17.067 89.6-68.267 89.6-119.467v-204.8c-4.267-46.933-42.667-85.333-89.6-85.333zM2560 64h-1322.667c-25.6 0-42.667 17.067-42.667 42.667s17.067 42.667 42.667 42.667h1322.667c25.6 0 42.667-17.067 42.667-42.667s-17.067-42.667-42.667-42.667zM2048 234.667c-25.6 0-42.667 17.067-42.667 42.667v597.333h-1536v-512c0-25.6 17.067-42.667 42.667-42.667h1365.333c25.6 0 42.667-17.067 42.667-42.667s-17.067-42.667-42.667-42.667h-1365.333c-72.533 0-128 55.467-128 128v554.667c0 25.6 17.067 42.667 42.667 42.667h1621.333c25.6 0 42.667-17.067 42.667-42.667v-640c0-21.333-17.067-42.667-42.667-42.667zM2794.667 435.2l-328.533 89.6c-17.067 4.267-29.867 21.333-29.867 42.666v93.867c0 25.6 17.067 42.667 42.667 42.667h213.333l102.4-268.8zM2944 234.667c-12.8 0-21.333 4.267-29.867 12.8s-12.8 17.067-12.8 29.867c0 12.8 4.267 21.333 12.8 29.867 17.067 17.067 42.667 17.067 59.733 0 8.533-8.533 12.8-17.067 12.8-29.867s-4.267-21.333-12.8-29.867c-8.533-8.533-17.067-12.8-29.867-12.8zM2261.333 533.333c-25.6 0-42.667 17.067-42.667 42.667v85.333c0 25.6 17.067 42.667 42.667 42.667s42.667-17.067 42.667-42.667v-85.333c0-21.333-17.067-42.667-42.667-42.667z" />
<glyph unicode="&#xe958;" glyph-name="isothermal-van-b-g" horiz-adv-x="2645" d="M1024 704c23.565 0 42.667 19.103 42.667 42.667s-19.102 42.667-42.667 42.667c-23.565 0-42.667-19.103-42.667-42.667s19.102-42.667 42.667-42.667zM896 512v128h42.667v64h-42.667v85.333h-85.333v-85.333h-42.667v-64h42.667v-157.867c0-76.8 64-76.8 89.6-76.8 46.933 0 81.067 12.8 81.067 12.8v64c0 0-21.333-4.267-46.933-4.267-29.867-4.267-38.4 21.333-38.4 34.133zM2304-64c-93.867 0-170.667 76.8-170.667 170.667s76.8 170.667 170.667 170.667c93.867 0 170.667-76.8 170.667-170.667s-76.8-170.667-170.667-170.667zM2304 192c-46.933 0-85.333-38.4-85.333-85.333s38.4-85.333 85.333-85.333c46.933 0 85.333 38.4 85.333 85.333s-38.4 85.333-85.333 85.333zM725.333-64c-93.867 0-170.667 76.8-170.667 170.667s76.8 170.667 170.667 170.667c93.867 0 170.667-76.8 170.667-170.667s-76.8-170.667-170.667-170.667zM725.333 192c-46.933 0-85.333-38.4-85.333-85.333s38.4-85.333 85.333-85.333c46.933 0 85.333 38.4 85.333 85.333s-38.4 85.333-85.333 85.333zM2560 64h-128c-25.6 0-42.667 17.067-42.667 42.667s17.067 42.667 42.667 42.667h128v204.8c0 17.067-12.8 34.133-29.867 38.4l-166.4 55.467c-12.8 4.267-21.333 12.8-25.6 25.6l-85.333 251.733c-12.8 34.133-42.667 59.733-81.067 59.733h-251.733c-25.6 0-42.667-17.067-42.667-42.667v-469.333c0-25.6-17.067-42.667-42.667-42.667h-170.667c-25.6 0-42.667 17.067-42.667 42.667s17.067 42.667 42.667 42.667h128v426.666c0 72.533 55.467 128 128 128h251.733c72.533 0 136.533-46.934 162.133-115.2l76.8-230.399 149.333-51.2c51.2-17.067 89.6-68.267 89.6-119.467v-204.8c-4.267-46.933-42.667-85.333-89.6-85.333zM2176 64h-1322.667c-25.6 0-42.667 17.067-42.667 42.667s17.067 42.667 42.667 42.667h1322.667c25.6 0 42.667-17.067 42.667-42.667s-17.067-42.667-42.667-42.667zM1664 234.667c-25.6 0-42.667 17.067-42.667 42.667v597.333h-1536v-512c0-25.6 17.067-42.667 42.667-42.667h1365.333c25.6 0 42.667-17.067 42.667-42.667s-17.067-42.667-42.667-42.667h-1365.333c-72.533 0-128 55.467-128 128v554.667c0 25.6 17.067 42.667 42.667 42.667h1621.333c25.6 0 42.667-17.067 42.667-42.667v-640c0-21.333-17.067-42.667-42.667-42.667zM2410.667 435.2l-328.533 89.6c-17.067 4.267-29.867 21.333-29.867 42.666v93.867c0 25.6 17.067 42.667 42.667 42.667h213.333l102.4-268.8zM2560 234.667c-12.8 0-21.333 4.267-29.867 12.8s-12.8 17.067-12.8 29.867c0 12.8 4.267 21.333 12.8 29.867 17.067 17.067 42.667 17.067 59.733 0 8.533-8.533 12.8-17.067 12.8-29.867s-4.267-21.333-12.8-29.867c-8.533-8.533-17.067-12.8-29.867-12.8zM1877.333 533.333c-25.6 0-42.667 17.067-42.667 42.667v85.333c0 25.6 17.067 42.667 42.667 42.667s42.667-17.067 42.667-42.667v-85.333c0-21.333-17.067-42.667-42.667-42.667z" />
<glyph unicode="&#xe959;" glyph-name="isothermal-van-m-b" horiz-adv-x="3029" d="M2005.333 704c23.565 0 42.667 19.103 42.667 42.667s-19.102 42.667-42.667 42.667c-23.565 0-42.667-19.103-42.667-42.667s19.102-42.667 42.667-42.667zM1877.333 512v128h42.667v64h-42.667v85.333h-85.333v-85.333h-42.667v-64h42.667v-157.867c0-76.8 64-76.8 89.6-76.8 46.933 0 81.067 12.8 81.067 12.8v64c0 0-21.333-4.267-46.933-4.267-29.867-4.267-38.4 21.333-38.4 34.133zM2730.667-64c-93.867 0-170.667 76.8-170.667 170.667s76.8 170.667 170.667 170.667c93.867 0 170.667-76.8 170.667-170.667s-76.8-170.667-170.667-170.667zM2730.667 192c-46.933 0-85.333-38.4-85.333-85.333s38.4-85.333 85.333-85.333c46.933 0 85.333 38.4 85.333 85.333s-38.4 85.333-85.333 85.333zM1877.333-64c-93.867 0-170.667 76.8-170.667 170.667s76.8 170.667 170.667 170.667c93.867 0 170.667-76.8 170.667-170.667s-76.8-170.667-170.667-170.667zM1877.333 192c-46.933 0-85.333-38.4-85.333-85.333s38.4-85.333 85.333-85.333c46.933 0 85.333 38.4 85.333 85.333s-38.4 85.333-85.333 85.333zM2944 64h-85.333c-25.6 0-42.667 17.067-42.667 42.667s17.067 42.667 42.667 42.667h85.333v256l-128 251.733c-12.8 29.867-42.667 46.934-76.8 46.934h-221.867c-25.6 0-42.667-17.067-42.667-42.667v-384c0-25.6-17.067-42.667-42.667-42.667h-170.667c-25.6 0-42.667 17.067-42.667 42.667v597.333h-682.667v-512c0-25.6 17.067-42.667 42.667-42.667h512c25.6 0 42.667-17.067 42.667-42.667s-17.067-42.667-42.667-42.667h-512c-72.533 0-128 55.467-128 128v554.667c0 25.6 17.067 42.667 42.667 42.667h768c25.6 0 42.667-17.067 42.667-42.667v-597.333h85.333v341.333c0 72.533 55.467 128 128 128h221.867c64 0 123.733-34.134 153.6-93.867l136.533-260.266c4.267-4.267 4.267-12.8 4.267-21.333v-268.8c-4.267-42.667-42.667-81.067-89.6-81.067zM2602.667 64h-597.333c-25.6 0-42.667 17.067-42.667 42.667s17.067 42.667 42.667 42.667h597.333c25.6 0 42.667-17.067 42.667-42.667s-17.067-42.667-42.667-42.667zM2982.4 362.667l-209.067 85.333h-85.333c-25.6 0-42.667 17.067-42.667 42.667v85.333c0 25.6 17.067 42.667 42.667 42.667h192l102.4-256z" />
<glyph unicode="&#xe95a;" glyph-name="isothermal-van-m-g" horiz-adv-x="1579" d="M554.667 704c23.565 0 42.667 19.103 42.667 42.667s-19.102 42.667-42.667 42.667c-23.565 0-42.667-19.103-42.667-42.667s19.102-42.667 42.667-42.667zM426.667 512v128h42.667v64h-42.667v85.333h-85.333v-85.333h-42.667v-64h42.667v-157.867c0-76.8 64-76.8 89.6-76.8 46.933 0 81.067 12.8 81.067 12.8v64c0 0-21.333-4.267-46.933-4.267-29.867-4.267-38.4 21.333-38.4 34.133zM1280-64c-93.867 0-170.667 76.8-170.667 170.667s76.8 170.667 170.667 170.667c93.867 0 170.667-76.8 170.667-170.667s-76.8-170.667-170.667-170.667zM1280 192c-46.933 0-85.333-38.4-85.333-85.333s38.4-85.333 85.333-85.333c46.933 0 85.333 38.4 85.333 85.333s-38.4 85.333-85.333 85.333zM426.667-64c-93.867 0-170.667 76.8-170.667 170.667s76.8 170.667 170.667 170.667c93.867 0 170.667-76.8 170.667-170.667s-76.8-170.667-170.667-170.667zM426.667 192c-46.933 0-85.333-38.4-85.333-85.333s38.4-85.333 85.333-85.333c46.933 0 85.333 38.4 85.333 85.333s-38.4 85.333-85.333 85.333zM1493.333 64h-85.333c-25.6 0-42.667 17.067-42.667 42.667s17.067 42.667 42.667 42.667h85.333v256l-128 251.733c-12.8 29.867-42.667 46.934-76.8 46.934h-221.867c-25.6 0-42.667-17.067-42.667-42.667v-384c0-25.6-17.067-42.667-42.667-42.667h-170.667c-25.6 0-42.667 17.067-42.667 42.667v597.333h-682.667v-512c0-25.6 17.067-42.667 42.667-42.667h512c25.6 0 42.667-17.067 42.667-42.667s-17.067-42.667-42.667-42.667h-512c-72.533 0-128 55.467-128 128v554.667c0 25.6 17.067 42.667 42.667 42.667h768c25.6 0 42.667-17.067 42.667-42.667v-597.333h85.333v341.333c0 72.533 55.467 128 128 128h221.867c64 0 123.733-34.134 153.6-93.867l136.533-260.266c4.267-4.267 4.267-12.8 4.267-21.333v-268.8c-4.267-42.667-42.667-81.067-89.6-81.067zM1152 64h-597.333c-25.6 0-42.667 17.067-42.667 42.667s17.067 42.667 42.667 42.667h597.333c25.6 0 42.667-17.067 42.667-42.667s-17.067-42.667-42.667-42.667zM1531.733 362.667l-209.067 85.333h-85.333c-25.6 0-42.667 17.067-42.667 42.667v85.333c0 25.6 17.067 42.667 42.667 42.667h192l102.4-256z" />
</font>
</defs>
</svg>
