<?xml version="1.0" standalone="no"?>
<!DOCTYPE svg PUBLIC "-//W3C//DTD SVG 1.1//EN" "http://www.w3.org/Graphics/SVG/1.1/DTD/svg11.dtd" >
<svg xmlns="http://www.w3.org/2000/svg">
<metadata>Generated by IcoMoon</metadata>
<defs>
<font id="icomoon" horiz-adv-x="1024">
<font-face units-per-em="1024" ascent="960" descent="-64" />
<missing-glyph horiz-adv-x="1024" />
<glyph unicode="&#x20;" horiz-adv-x="512" d="" />
<glyph unicode="&#xe900;" glyph-name="Vector" horiz-adv-x="1648" d="M212.43 950.009l618.828-617.481 618.831 617.481 190.097-190.098-808.928-808.926-808.926 808.926 190.098 190.098z" />
<glyph unicode="&#xe901;" glyph-name="pause" horiz-adv-x="674" d="M227.685 950.009h-222.006v-999.024h222.006v999.024zM671.694 950.009h-222.006v-999.024h222.006v999.024z" />
<glyph unicode="&#xe902;" glyph-name="play" d="M916.195 450.498l-822.003 474.538v-949.074l822.003 474.537z" />
<glyph unicode="&#xe903;" glyph-name="volumeUp" horiz-adv-x="949" d="M355.877 811.375l-141.451-173.561h-162.263c-21.082 0-38.157-20.957-38.157-46.829v-280.976c0-25.855 17.075-46.829 38.157-46.829h162.263l141.451-173.561c23.897-29.329 65.139-8.724 65.139 33.11v655.533c0 41.873-41.275 62.4-65.139 33.112zM726.83 911.043c-17.76 14.303-41.624 8.273-53.278-13.561-11.669-21.795-6.708-51.083 11.052-65.385 105.36-84.859 168.241-227.513 168.241-381.62s-62.881-296.76-168.241-381.62c-17.76-14.284-22.72-43.59-11.052-65.366 11.194-20.897 34.866-28.41 53.278-13.559 127.063 102.36 202.949 274.554 202.949 460.565 0 186.008-75.886 358.185-202.949 460.546zM777.149 450.498c0 123.961-50.97 237.93-136.362 304.858-17.793 13.932-41.387 7.454-52.659-14.556s-6.009-51.141 11.781-65.092c63.198-49.542 100.926-133.717 100.926-225.21s-37.728-175.668-100.926-225.21c-17.79-13.931-23.052-43.063-11.781-65.094 10.35-20.213 33.58-29.541 52.659-14.556 85.392 66.927 136.362 180.878 136.362 304.86zM551.751 600.486c-18.41 12.353-41.639 4.216-51.844-18.437-10.16-22.655-3.434-51.123 15.023-63.63 20.525-13.834 33.278-39.884 33.278-67.921 0-28.060-12.753-54.087-33.26-67.924-18.459-12.505-25.185-40.975-15.025-63.628 10.223-22.75 33.467-30.83 51.847-18.439 44.881 30.343 72.769 87.804 72.769 150.011 0 62.204-27.888 119.648-72.786 149.969z" />
<glyph unicode="&#xe904;" glyph-name="volumeOff" horiz-adv-x="949" d="M791.437 811.472l-318.374-173.658h-364.877c-22.77 0-44.607-4.935-60.708-13.717s-25.146-20.695-25.146-33.113v-280.976c0-12.42 9.045-24.331 25.146-33.115 16.101-8.781 37.938-13.714 60.708-13.714h365.092l318.159-173.66c53.66-29.266 146.667-8.721 146.667 33.173v655.609c0 41.893-93.007 62.439-146.667 33.171z" />
<glyph unicode="&#xe905;" glyph-name="volumeDown" horiz-adv-x="924" d="M518.491 809.444l-212.178-173.58h-243.395c-31.623 0-57.236-20.957-57.236-46.829v-280.976c0-25.855 25.613-46.829 57.236-46.829h243.395l212.178-173.561c35.845-29.326 97.707-8.721 97.707 33.113v655.531c0 41.893-61.91 62.4-97.707 33.132zM812.302 598.555c-27.616 12.353-62.459 4.216-77.769-18.437-15.238-22.655-5.15-51.123 22.538-63.63 30.787-13.854 49.914-39.884 49.914-67.941s-19.126-54.087-49.891-67.921c-27.688-12.508-37.776-40.977-22.535-63.63 15.333-22.75 50.198-30.83 77.769-18.439 67.322 30.343 109.153 87.804 109.153 150.011 0 62.204-41.832 119.648-109.178 149.989z" />
<glyph unicode="&#xe906;" glyph-name="next" horiz-adv-x="1074" d="M15.329 950.009l865.266-499.512-865.266-499.512v999.024zM1054.658 895.407h-161.785v-889.82h161.785v889.82z" />
<glyph unicode="&#xe907;" glyph-name="prev" horiz-adv-x="1049" d="M1039.328-49.015l-865.266 499.512 865.266 499.512v-999.024zM0 5.592h161.785v889.819h-161.785v-889.819z" />
<glyph unicode="&#xe908;" glyph-name="arrowRight" horiz-adv-x="999" d="M238.97-24.039l-34.579 40.431 508.319 434.106-508.319 434.105 34.579 40.432 555.664-474.536z" />
<glyph unicode="&#xe909;" glyph-name="arrowLeft" horiz-adv-x="999" d="M760.055-24.039l-555.665 474.537 555.665 474.536 34.579-40.432-508.316-434.105 508.316-434.106z" />
<glyph unicode="&#xe90a;" glyph-name="creditCard" horiz-adv-x="999" d="M84.293 213.229v533.853h830.439v-533.853h-830.439zM914.732 806.4h-830.439c-15.732 0-30.819-6.25-41.944-17.374s-17.374-26.212-17.374-41.943v-593.17c0-15.732 6.249-30.82 17.374-41.944s26.212-17.373 41.944-17.373h830.439c15.732 0 30.82 6.249 41.944 17.373s17.373 26.212 17.373 41.944v593.17c0 15.732-6.249 30.819-17.373 41.943s-26.212 17.374-41.944 17.374zM855.415 450.498h-237.268v-177.951h237.268v177.951z" />
<glyph unicode="&#xe90b;" glyph-name="music" horiz-adv-x="999" d="M329.476 788.473v-535.85c-31.207 38.612-78.878 63.408-132.25 63.408-93.756 0-170.036-76.278-170.036-170.034s76.28-170.036 170.036-170.036c93.755 0 170.035 76.281 170.035 170.036v611.893l566.789 120.501v-510.698c-31.197 38.612-78.855 63.408-132.251 63.408-93.756 0-170.036-76.281-170.036-170.036s76.281-170.034 170.036-170.034c93.756 0 170.036 76.278 170.036 170.034v663.969l-642.36-136.56zM197.226 13.747c-72.927 0-132.25 59.335-132.25 132.251 0 72.936 59.324 132.248 132.25 132.248 72.928 0 132.25-59.312 132.25-132.248 0-72.904-59.347-132.251-132.25-132.251zM801.799 128.817c-72.926 0-132.251 59.322-132.251 132.248 0 72.904 59.325 132.251 132.251 132.251s132.251-59.347 132.251-132.251c0-72.949-59.35-132.248-132.251-132.248z" />
<glyph unicode="&#xe90c;" glyph-name="download" horiz-adv-x="999" d="M531.149 314.021v357.925h-63.273v-357.483l-121.734 141.474-47.961-41.125 201.393-234.231 202.153 234.104-47.958 41.317-122.62-141.981zM499.512 925.034c-262.071 0-474.537-212.466-474.537-474.536 0-262.072 212.466-474.537 474.537-474.537s474.537 212.465 474.537 474.537c0 262.070-212.465 474.536-474.537 474.536zM499.512 39.232c-226.766 0-411.265 184.5-411.265 411.266 0 226.764 184.499 411.264 411.265 411.264s411.266-184.501 411.266-411.264c0-226.766-184.5-411.266-411.266-411.266z" />
<glyph unicode="&#xe90d;" glyph-name="round" horiz-adv-x="999" d="M499.512 925.034c-93.853 0-185.601-27.831-263.638-79.974s-138.86-126.255-174.776-212.965c-35.917-86.71-45.314-182.125-27.004-274.175 18.31-92.053 63.505-176.608 129.87-242.97 66.365-66.365 150.921-111.561 242.971-129.871 92.050-18.312 187.464-8.914 274.175 27.004 86.71 35.915 160.823 96.738 212.965 174.774 52.144 78.039 79.974 169.784 79.974 263.64 0 125.855-49.996 246.554-138.989 335.548s-209.693 138.989-335.547 138.989v0zM499.512 213.229c-46.927 0-92.799 13.914-131.819 39.986s-69.43 63.128-87.387 106.484c-17.96 43.355-22.658 91.061-13.504 137.086 9.156 46.028 31.754 88.304 64.937 121.486s75.459 55.781 121.484 64.934c46.028 9.156 93.733 4.458 137.089-13.502 43.355-17.957 80.411-48.368 106.484-87.387 26.070-39.019 39.986-84.892 39.986-131.819 0-62.929-24.998-123.277-69.495-167.774s-104.845-69.495-167.774-69.495z" />
<glyph unicode="&#xe90e;" glyph-name="addPlus" horiz-adv-x="999" d="M974.049 355.59h-379.629v-379.629h-189.815v379.629h-379.629v189.815h379.629v379.629h189.815v-379.629h379.629v-189.815z" />
<glyph unicode="&#xe90f;" glyph-name="libraryActive" horiz-adv-x="999" d="M592.906 898.267l381.143-855.971-89.612-39.569-381.14 855.97 89.61 39.569zM24.976 13.202v879.827h97.757v-879.827h-97.757zM269.372 13.202v879.827h97.76v-879.827h-97.76z" />
<glyph unicode="&#xe910;" glyph-name="library" horiz-adv-x="999" d="M572.988 908.808l401.061-900.701-46.535-20.82-401.058 900.702 46.532 20.819zM24.976-12.101v925.808h51.435v-925.808h-51.435zM333.579-12.101v925.808h51.435v-925.808h-51.435z" />
<glyph unicode="&#xe911;" glyph-name="search-active" horiz-adv-x="999" d="M735.284 272.716l202.555-237.403-69.697-59.352-202.010 236.859c-65.341-43.56-137.398-65.339-216.171-65.339-52.636 0-103.002 10.252-151.1 30.762-48.096 20.51-89.479 48.098-124.148 82.764-34.668 34.669-62.256 76.051-82.764 124.149s-30.763 98.466-30.764 151.1c-0.001 52.636 10.253 103.002 30.764 151.1s48.099 89.482 82.764 124.149c34.666 34.667 76.049 62.255 124.148 82.765 48.101 20.509 98.466 30.764 151.1 30.764s103.002-10.255 151.1-30.764c48.101-20.509 89.483-48.098 124.149-82.765s62.254-76.049 82.764-124.149c20.512-48.098 30.765-98.464 30.765-151.1 0-33.395-4.173-66.065-12.523-98.009s-20.238-61.712-35.665-89.3c-15.43-27.588-33.852-52.998-55.269-76.231h0.002zM449.963 238.959c40.293 0 78.771 7.897 115.435 23.687 36.664 15.792 68.246 36.936 94.742 63.436 26.499 26.497 47.643 58.078 63.436 94.742s23.687 75.142 23.687 115.435c0 40.293-7.895 78.771-23.687 115.435s-36.936 68.246-63.436 94.745c-26.497 26.5-58.078 47.645-94.742 63.434s-75.142 23.685-115.435 23.685c-40.293 0-78.771-7.895-115.435-23.685s-68.246-36.935-94.745-63.436c-26.5-26.501-47.644-58.082-63.434-94.743s-23.685-75.139-23.685-115.435c0-40.296 7.895-78.773 23.685-115.435s36.935-68.241 63.437-94.742c26.502-26.502 58.081-47.646 94.743-63.436 36.662-15.787 75.139-23.684 115.435-23.687z" />
<glyph unicode="&#xe912;" glyph-name="search" horiz-adv-x="999" d="M731.805 245.862l204.083-239.481-35.398-30.42-204.638 239.481c-70.426-53.463-149.699-80.194-237.823-80.194-53.465 0-104.623 10.415-153.478 31.247s-90.887 48.855-126.101 84.068c-35.214 35.213-63.236 77.245-84.066 126.102-20.831 48.855-31.247 100.012-31.248 153.475s10.415 104.623 31.248 153.478c20.833 48.855 48.856 90.889 84.066 126.101s77.244 63.234 126.101 84.067c48.857 20.832 100.015 31.248 153.478 31.248 53.46 0 104.62-10.416 153.478-31.248 48.855-20.832 90.889-48.854 126.099-84.067s63.233-77.246 84.068-126.101c20.832-48.855 31.249-100.015 31.247-153.478 0-54.936-10.692-106.926-32.076-155.965-21.387-49.040-51.068-91.81-89.046-128.315l0.005 0.002zM458.035 181.708c63.048 0 121.307 15.577 174.769 46.737 53.465 31.157 95.776 73.466 126.931 126.929 31.157 53.465 46.734 111.721 46.737 174.772 0 63.051-15.577 121.309-46.737 174.772s-73.468 95.772-126.931 126.928c-53.46 31.156-111.718 46.734-174.769 46.734-63.053 0-121.312-15.578-174.772-46.734-53.462-31.156-95.771-73.466-126.929-126.928s-46.735-111.721-46.734-174.772c0.001-63.051 15.579-121.307 46.734-174.772 31.155-53.463 73.464-95.771 126.929-126.929 53.465-31.16 111.721-46.737 174.772-46.737z" />
<glyph unicode="&#xe913;" glyph-name="homeActive" horiz-adv-x="999" d="M926.088-24.039h-331.781v337.171h-189.59v-337.171h-331.781v700.801l426.576 248.272 426.576-246.579v-702.494z" />
<glyph unicode="&#xe914;" glyph-name="close" horiz-adv-x="999" d="M999.024 849.393l-100.617 100.616-398.895-398.897-398.896 398.897-100.616-100.616 398.895-398.895-398.895-398.898 100.616-100.614 398.896 398.895 398.895-398.895 100.617 100.614-398.895 398.898 398.895 398.895z" />
<glyph unicode="&#xe915;" glyph-name="home" horiz-adv-x="999" d="M499.512 869.898l-380.895-233.47v-613.214h241.332v330.794h281.233v-330.794h239.224v614.897l-380.893 231.786zM499.512 925.034l425.707-250.745v-698.328h-328.846v330.794h-191.613v-330.794h-330.953v696.078l425.706 252.995z" />
<glyph unicode="&#xe916;" glyph-name="heart" horiz-adv-x="999" d="M902.057 881.699c-106.926 104.138-265.948 85.406-364.092-30.327l-38.437-45.267-38.44 45.267c-97.949 115.733-257.165 134.465-364.089 30.327-122.534-119.524-128.973-334.042-19.317-463.6l377.555-445.54c24.389-28.767 63.998-28.767 88.389 0l377.554 445.54c109.85 129.558 103.412 344.076-19.121 463.6z" />
<glyph unicode="&#xe917;" glyph-name="calendar" horiz-adv-x="999" d="M0 44.644c0-51.707 47.944-93.659 107.038-93.659h784.948c59.095 0 107.038 41.952 107.038 93.659v530.732h-999.024v-530.732zM713.588 427.083c0 12.877 12.043 23.415 26.761 23.415h89.198c14.718 0 26.759-10.537 26.759-23.415v-78.049c0-12.877-12.041-23.415-26.759-23.415h-89.198c-14.718 0-26.761 10.537-26.761 23.415v78.049zM713.588 177.327c0 12.877 12.043 23.415 26.761 23.415h89.198c14.718 0 26.759-10.537 26.759-23.415v-78.049c0-12.877-12.041-23.415-26.759-23.415h-89.198c-14.718 0-26.761 10.537-26.761 23.415v78.049zM428.154 427.083c0 12.877 12.041 23.415 26.759 23.415h89.198c14.718 0 26.759-10.537 26.759-23.415v-78.049c0-12.877-12.041-23.415-26.759-23.415h-89.198c-14.718 0-26.759 10.537-26.759 23.415v78.049zM428.154 177.327c0 12.877 12.041 23.415 26.759 23.415h89.198c14.718 0 26.759-10.537 26.759-23.415v-78.049c0-12.877-12.041-23.415-26.759-23.415h-89.198c-14.718 0-26.759 10.537-26.759 23.415v78.049zM142.718 427.083c0 12.877 12.042 23.415 26.759 23.415h89.198c14.718 0 26.761-10.537 26.761-23.415v-78.049c0-12.877-12.043-23.415-26.761-23.415h-89.198c-14.718 0-26.759 10.537-26.759 23.415v78.049zM142.718 177.327c0 12.877 12.042 23.415 26.759 23.415h89.198c14.718 0 26.761-10.537 26.761-23.415v-78.049c0-12.877-12.043-23.415-26.761-23.415h-89.198c-14.718 0-26.759 10.537-26.759 23.415v78.049zM891.986 825.131h-107.038v93.659c0 17.171-16.057 31.219-35.68 31.219h-71.358c-19.626 0-35.68-14.049-35.68-31.219v-93.659h-285.436v93.659c0 17.171-16.054 31.219-35.68 31.219h-71.358c-19.624 0-35.679-14.049-35.679-31.219v-93.659h-107.038c-59.094 0-107.038-41.951-107.038-93.659v-93.658h999.024v93.658c0 51.707-47.943 93.659-107.038 93.659z" />
<glyph unicode="&#xe918;" glyph-name="clock" horiz-adv-x="999" d="M499.512 950.009c-275.94 0-499.512-223.572-499.512-499.512s223.572-499.512 499.512-499.512c275.941 0 499.512 223.572 499.512 499.512s-223.572 499.512-499.512 499.512zM614.52 244.851l-177.649 129.109c-6.244 4.63-9.868 11.883-9.868 19.536v338.984c0 13.294 10.877 24.17 24.169 24.17h96.681c13.292 0 24.169-10.876 24.169-24.17v-277.349l127.9-93.054c10.877-7.857 13.092-22.963 5.237-33.839l-56.8-78.149c-7.855-10.675-22.963-13.092-33.839-5.237z" />
</font>
</defs>
</svg>
