<?xml version="1.0" standalone="no"?>
<!DOCTYPE svg PUBLIC "-//W3C//DTD SVG 1.1//EN" "http://www.w3.org/Graphics/SVG/1.1/DTD/svg11.dtd" >
<svg xmlns="http://www.w3.org/2000/svg" xmlns:xlink="http://www.w3.org/1999/xlink" version="1.1">
<metadata>
Created by FontForge 20160405 at Mon May  8 15:07:07 2017
 By Apache
Fedra Sans is a contemporary sans serif typeface developed for visual identities, designed to work equally well on paper and on the computer screen.
</metadata>
<defs>
<font id="FedraSansPro-Demi" horiz-adv-x="583" >
  <font-face 
    font-family="Fedra Sans Pro Demi"
    font-weight="450"
    font-stretch="normal"
    units-per-em="1000"
    panose-1="2 11 5 3 4 0 0 2 0 4"
    ascent="780"
    descent="-220"
    x-height="546"
    cap-height="707"
    bbox="-578 -284 1389 1078"
    underline-thickness="50"
    underline-position="-100"
    unicode-range="U+0020-FB04"
  />
<missing-glyph horiz-adv-x="712" 
d="M305 375v27h27v-27h-27zM380 525v27h27v-27h-27zM305 525v27h27v-27h-27zM230 525v27h27v-27h-27zM80 0v27h27v-27h-27zM155 0v27h27v-27h-27zM230 0v27h27v-27h-27zM305 0v27h27v-27h-27zM380 0v27h27v-27h-27zM80 75v27h27v-27h-27zM80 150v27h27v-27h-27zM80 225v27
h27v-27h-27zM80 300v27h27v-27h-27zM80 375v27h27v-27h-27zM80 450v27h27v-27h-27zM80 525v27h27v-27h-27zM80 600v27h27v-27h-27zM80 675v27h27v-27h-27zM155 675v27h27v-27h-27zM230 675v27h27v-27h-27zM305 675v27h27v-27h-27zM380 675v27h27v-27h-27zM455 675v27h27v-27
h-27zM530 675v27h27v-27h-27zM530 0v27h27v-27h-27zM455 0v27h27v-27h-27zM605 0v27h27v-27h-27zM605 675v27h27v-27h-27zM305 300v27h27v-27h-27zM305 150v27h27v-27h-27zM380 375v27h27v-27h-27zM455 375v27h27v-27h-27zM455 450v27h27v-27h-27zM455 525v27h27v-27h-27z
M605 600v27h27v-27h-27zM605 525v27h27v-27h-27zM605 375v27h27v-27h-27zM605 300v27h27v-27h-27zM605 150v27h27v-27h-27zM605 75v27h27v-27h-27zM605 225v27h27v-27h-27zM605 450v27h27v-27h-27z" />
    <glyph glyph-name="fi" unicode="fi" horiz-adv-x="639" 
d="M109 -189v656h-80v79h80v33c0 158 90 199 197 199c40 0 91 -5 141 -6c28 0 65 2 92 5l16 -80c-39 -13 -87 -17 -125 -17c-45 1 -85 6 -125 6c-69 0 -92 -35 -92 -108v-32h346v-546h-105v467h-241v-656h-104z" />
    <glyph glyph-name="fl" unicode="fl" horiz-adv-x="639" 
d="M109 -189v656h-80v79h80v31c0 150 90 200 197 200c40 0 91 -7 141 -7c34 -1 81 4 112 7v-777h-105v680c-50 -2 -94 6 -149 6c-69 0 -92 -39 -92 -106v-34h118v-79h-118v-656h-104z" />
    <glyph glyph-name="f_h" unicode="fh" horiz-adv-x="994" 
d="M109 -189v657h-80v78h80v28c0 159 89 205 196 205c40 0 91 -7 142 -8c33 0 80 4 111 7v-290c39 27 97 73 186 73c165 0 176 -109 176 -211v-350h-105v335c0 82 -14 134 -101 134c-59 0 -131 -45 -156 -59v-410h-105v682c-49 -2 -94 6 -149 6c-69 0 -91 -41 -91 -115v-27
h117v-78h-117v-657h-104z" />
    <glyph glyph-name="f_b" unicode="fb" horiz-adv-x="980" 
d="M657 -10c-118 0 -167 19 -203 30v660c-49 -2 -94 6 -149 6c-69 0 -92 -39 -92 -106v-34h118v-79h-118v-656h-104v656h-80v79h80v31c0 150 90 200 197 200c40 0 91 -7 141 -7c34 -1 80 4 111 7v-690c24 -5 52 -12 102 -12c109 0 165 95 165 211c0 110 -27 191 -146 191
c-45 0 -62 -9 -98 -19l-4 76c28 14 74 24 121 24c148 0 234 -86 234 -260c0 -230 -133 -308 -275 -308z" />
    <glyph glyph-name="f_j" unicode="fj" horiz-adv-x="637" 
d="M360 -224c-36 0 -61 7 -80 14l19 85c8 -3 25 -7 64 -7c70 0 90 41 90 119v481h-240v-652h-104v652h-80v78h80v28c0 158 89 205 196 205c40 0 91 -6 142 -6c28 0 65 1 91 4l15 -79c-38 -14 -86 -17 -124 -17c-44 0 -85 6 -125 6c-69 0 -91 -41 -91 -115v-26h345v-560
c0 -168 -89 -210 -198 -210z" />
    <glyph glyph-name="f_k" unicode="fk" horiz-adv-x="930" 
d="M109 -189v657h-80v78h80v28c0 159 89 205 196 205c40 0 91 -7 142 -8c33 0 81 4 111 7v-778h-105v682c-49 -2 -94 6 -149 6c-69 0 -91 -41 -91 -115v-27h117v-78h-117v-657h-104zM895 -11c-52 3 -114 14 -184 103l-152 194l222 260h118l-223 -254l102 -124
c46 -56 92 -88 131 -99z" />
    <glyph glyph-name="f_f" unicode="ff" horiz-adv-x="693" 
d="M109 -189v656h-80v79h80v43c0 158 116 190 222 190c76 0 149 -22 185 -36c38 30 90 36 140 36c36 0 105 -13 127 -21l-20 -82s-56 12 -101 12c-71 0 -104 -32 -104 -99v-43h118v-79h-118v-656h-104v656h-240v-656h-105zM214 546h240v46c0 29 3 53 13 75
c-36 10 -91 21 -146 21c-70 0 -107 -29 -107 -99v-43z" />
    <glyph glyph-name="f_f_i" unicode="ffi" horiz-adv-x="983" 
d="M109 -189v656h-80v79h80v43c0 153 106 190 212 190c81 0 165 -24 198 -37c31 22 72 37 131 37c40 0 91 -5 142 -6c27 0 65 2 91 5l16 -79c-39 -14 -86 -18 -124 -18c-45 1 -86 7 -126 7c-70 0 -90 -41 -90 -115v-27h344v-546h-105v467h-239v-656h-105v656h-240v-656h-105
zM214 546h240v28c0 41 4 67 14 93c-36 10 -98 21 -147 21c-70 0 -107 -29 -107 -99v-43z" />
    <glyph glyph-name="f_f_l" unicode="ffl" horiz-adv-x="975" 
d="M109 -189v656h-80v79h80v43c0 158 116 190 222 190c71 0 147 -22 187 -37c35 27 81 37 131 37c40 0 91 -7 142 -8c34 0 74 4 104 7v-778h-104v682c-48 -1 -90 6 -143 6c-69 0 -91 -40 -91 -113v-29h117v-79h-117v-656h-104v656h-239v-656h-105zM214 546h240v28
c0 37 4 68 13 92c-37 11 -94 22 -146 22c-70 0 -107 -29 -107 -99v-43z" />
    <glyph glyph-name="f_f_j" unicode="ffj" horiz-adv-x="982" 
d="M708 -222c-33 0 -58 8 -79 15l19 83c14 -4 40 -8 60 -8c70 0 89 44 90 121v478h-239v-654h-105v654h-240v-654h-105v654h-80v79h80v43c0 153 106 190 212 190c81 0 165 -24 198 -37c31 22 72 37 131 37c40 0 91 -5 142 -6c27 0 65 2 91 5l16 -79
c-39 -14 -86 -18 -124 -18c-45 1 -86 7 -126 7c-70 0 -90 -41 -90 -115v-27h344v-558c-1 -168 -89 -210 -195 -210zM214 546h240v28c0 41 4 67 14 93c-36 10 -98 21 -147 21c-70 0 -107 -29 -107 -99v-43z" />
    <glyph glyph-name="f_idieresis" unicode="f&#xef;" horiz-adv-x="638" 
d="M109 -189v656h-80v79h80v50c0 126 70 171 163 171c37 0 63 -6 83 -13l-17 -81c-13 4 -29 9 -59 9c-44 0 -66 -24 -66 -82v-54h115v-79h-115v-656h-104zM452 0v546h106v-546h-106zM430 637l-66 69l66 70l67 -70zM606 637l-66 69l66 70l67 -70z" />
    <glyph glyph-name="f_igrave" unicode="f&#xec;" horiz-adv-x="638" 
d="M109 -189v656h-80v79h80v50c0 126 68 171 161 171c39 0 67 -5 91 -13l-17 -82c-17 6 -35 10 -67 10c-42 0 -64 -24 -64 -82v-54h115v-79h-115v-656h-104zM530 600l-143 158l65 57l134 -167zM452 0v546h106v-546h-106z" />
    <glyph glyph-name="aogonek_j" unicode="&#x105;j" horiz-adv-x="854" 
d="M496 -244c-101 0 -161 46 -161 117c0 54 37 98 89 131c-19 10 -37 34 -41 56c-30 -21 -86 -68 -180 -68c-104 0 -165 54 -165 156c0 135 122 165 217 166l119 2v61c0 75 -39 92 -128 92c-51 0 -112 -17 -143 -25l-21 79c36 15 105 36 188 36c111 0 206 -27 206 -154v-286
c0 -29 20 -41 51 -43l-6 -78c-50 -31 -90 -64 -90 -105c0 -38 39 -51 77 -51c97 0 162 54 162 165v539h105v-540c0 -160 -115 -250 -279 -250zM224 75c57 0 130 39 150 48v126l-116 -5c-86 -3 -118 -41 -118 -88c0 -59 32 -81 84 -81zM721 635l-79 80l79 80l80 -80z" />
    <glyph glyph-name=".notdef" horiz-adv-x="712" 
d="M305 375v27h27v-27h-27zM380 525v27h27v-27h-27zM305 525v27h27v-27h-27zM230 525v27h27v-27h-27zM80 0v27h27v-27h-27zM155 0v27h27v-27h-27zM230 0v27h27v-27h-27zM305 0v27h27v-27h-27zM380 0v27h27v-27h-27zM80 75v27h27v-27h-27zM80 150v27h27v-27h-27zM80 225v27
h27v-27h-27zM80 300v27h27v-27h-27zM80 375v27h27v-27h-27zM80 450v27h27v-27h-27zM80 525v27h27v-27h-27zM80 600v27h27v-27h-27zM80 675v27h27v-27h-27zM155 675v27h27v-27h-27zM230 675v27h27v-27h-27zM305 675v27h27v-27h-27zM380 675v27h27v-27h-27zM455 675v27h27v-27
h-27zM530 675v27h27v-27h-27zM530 0v27h27v-27h-27zM455 0v27h27v-27h-27zM605 0v27h27v-27h-27zM605 675v27h27v-27h-27zM305 300v27h27v-27h-27zM305 150v27h27v-27h-27zM380 375v27h27v-27h-27zM455 375v27h27v-27h-27zM455 450v27h27v-27h-27zM455 525v27h27v-27h-27z
M605 600v27h27v-27h-27zM605 525v27h27v-27h-27zM605 375v27h27v-27h-27zM605 300v27h27v-27h-27zM605 150v27h27v-27h-27zM605 75v27h27v-27h-27zM605 225v27h27v-27h-27zM605 450v27h27v-27h-27z" />
    <glyph glyph-name="space" unicode=" " horiz-adv-x="249" 
 />
    <glyph glyph-name="A" unicode="A" horiz-adv-x="684" 
d="M-4 0l285 707h139l252 -707h-115l-86 247h-267l-97 -247h-111zM235 330h209l-99 305z" />
    <glyph glyph-name="B" unicode="B" horiz-adv-x="649" 
d="M99 0v707h210c163 0 238 -71 238 -183c0 -71 -39 -125 -91 -146v-2c66 -14 142 -68 142 -170c0 -120 -70 -206 -259 -206h-240zM208 87h116c96 0 165 22 165 116c0 86 -65 119 -179 119h-102v-235zM208 402h104c85 0 127 36 127 109c0 85 -54 112 -153 112h-78v-221z" />
    <glyph glyph-name="C" unicode="C" horiz-adv-x="677" 
d="M428 -12c-241 0 -374 144 -374 361c0 223 138 368 370 368c104 0 166 -20 210 -41l-31 -82c-56 18 -97 31 -177 31c-142 1 -262 -77 -262 -266c0 -193 124 -277 281 -277c67 0 118 10 165 25l25 -84c-53 -20 -109 -35 -207 -35z" />
    <glyph glyph-name="D" unicode="D" horiz-adv-x="763" 
d="M99 0v707h209c233 0 401 -106 401 -351c0 -247 -153 -356 -395 -356h-215zM207 87h118c178 0 274 88 274 258c0 187 -111 275 -294 275h-98v-533z" />
    <glyph glyph-name="E" unicode="E" horiz-adv-x="590" 
d="M99 0v707h416v-86h-308v-224h286v-84h-286v-226h331v-87h-439z" />
    <glyph glyph-name="F" unicode="F" horiz-adv-x="581" 
d="M99 0v707h439v-86h-331v-243h309v-84h-309v-294h-108z" />
    <glyph glyph-name="G" unicode="G" horiz-adv-x="710" 
d="M430 -11c-233 0 -376 132 -376 360c0 232 133 368 372 368c106 0 159 -18 206 -40l-29 -83c-52 17 -95 31 -177 31c-141 0 -261 -75 -261 -266c0 -195 127 -277 279 -277c42 0 71 5 94 11v255h107v-323c-64 -23 -130 -36 -215 -36z" />
    <glyph glyph-name="H" unicode="H" horiz-adv-x="776" 
d="M99 0v707h108v-309h362v309h108v-707h-108v312h-362v-312h-108z" />
    <glyph glyph-name="I" unicode="I" horiz-adv-x="306" 
d="M99 0v707h108v-707h-108z" />
    <glyph glyph-name="J" unicode="J" horiz-adv-x="308" 
d="M-1 -190l-42 78c120 67 145 137 145 263v556h108v-554c0 -149 -25 -269 -211 -343z" />
    <glyph glyph-name="K" unicode="K" horiz-adv-x="656" 
d="M510 0l-290 373v11l274 323h137l-291 -328l310 -379h-140zM99 0v707h108v-707h-108z" />
    <glyph glyph-name="L" unicode="L" horiz-adv-x="522" 
d="M99 0v707h108v-618h307v-89h-415z" />
    <glyph glyph-name="M" unicode="M" horiz-adv-x="957" 
d="M99 0v707h139l229 -628l259 628h131v-707h-107v413l4 126h-3l-217 -539h-140l-190 540h-4l7 -117v-423h-108z" />
    <glyph glyph-name="N" unicode="N" horiz-adv-x="780" 
d="M99 0v707h132l344 -576h2l-4 85v491h108v-707h-137l-338 567h-3l4 -79v-488h-108z" />
    <glyph glyph-name="O" unicode="O" horiz-adv-x="830" 
d="M406 -12c-228 0 -352 148 -352 367c0 222 144 362 368 362c236 0 354 -156 354 -364c0 -219 -136 -365 -370 -365zM409 76c179 0 258 121 258 278s-86 276 -251 276c-172 0 -254 -119 -254 -274c0 -151 79 -280 247 -280z" />
    <glyph glyph-name="P" unicode="P" horiz-adv-x="616" 
d="M99 0v707h243c146 0 242 -82 242 -230c0 -130 -95 -238 -294 -238h-44v87h50c110 0 176 48 176 147c0 97 -46 148 -152 148h-112v-621h-109z" />
    <glyph glyph-name="Q" unicode="Q" horiz-adv-x="830" 
d="M787 -169c-34 0 -83 -1 -116 5c-47 4 -96 9 -149 27c-44 15 -79 25 -123 25v79c57 0 96 -11 127 -20c69 -20 110 -27 162 -29c28 -4 63 -5 99 -5v-82zM406 -12c-228 0 -352 148 -352 367c0 222 144 362 368 362c236 0 354 -156 354 -364c0 -219 -136 -365 -370 -365z
M409 76c179 0 258 121 258 278s-86 276 -251 276c-172 0 -254 -119 -254 -274c0 -151 79 -280 247 -280z" />
    <glyph glyph-name="Q.alt" horiz-adv-x="846" 
d="M406 -12c-228 0 -352 148 -352 367c0 222 144 362 368 362c236 0 354 -156 354 -364c0 -99 -28 -183 -80 -246l103 -103l-57 -50l-102 101c-60 -43 -139 -67 -234 -67zM409 76c68 0 121 17 162 47l-110 110l59 51l103 -104c30 47 44 107 44 174c0 157 -86 276 -251 276
c-172 0 -254 -119 -254 -274c0 -151 79 -280 247 -280z" />
    <glyph glyph-name="R" unicode="R" horiz-adv-x="708" 
d="M677 -12c-100 9 -164 69 -230 154l-98 132c-16 -3 -40 -4 -58 -4h-83v-270h-109v707h244c142 0 242 -67 242 -214c0 -82 -39 -155 -128 -193l88 -115c45 -55 87 -94 156 -114zM208 353h89c107 0 175 36 175 135c0 97 -48 133 -151 133h-113v-268z" />
    <glyph glyph-name="S" unicode="S" horiz-adv-x="554" 
d="M251 -12c-96 0 -164 25 -209 51l33 85c55 -26 106 -44 176 -44c80 0 154 31 154 108c0 158 -344 112 -344 346c0 120 107 183 224 183c89 0 142 -18 187 -43l-32 -82c-47 22 -92 35 -153 35c-68 0 -121 -31 -121 -92c0 -140 348 -119 348 -341
c0 -141 -124 -206 -263 -206z" />
    <glyph glyph-name="T" unicode="T" horiz-adv-x="599" 
d="M245 0v619h-236v88h580v-88h-236v-619h-108z" />
    <glyph glyph-name="U" unicode="U" horiz-adv-x="768" 
d="M385 -12c-145 0 -296 58 -296 270v449h109v-442c0 -141 84 -187 187 -187c109 0 189 53 189 210v419h106v-423c0 -232 -159 -296 -295 -296z" />
    <glyph glyph-name="V" unicode="V" horiz-adv-x="681" 
d="M261 0l-251 707h116l210 -624l239 624h109l-278 -707h-145z" />
    <glyph glyph-name="W" unicode="W" horiz-adv-x="1046" 
d="M215 0l-184 707h108l158 -640l184 467l-59 173h108l210 -638l190 638h104l-221 -707h-147l-142 415l-161 -415h-148z" />
    <glyph glyph-name="X" unicode="X" horiz-adv-x="632" 
d="M7 0l250 370l-212 337h123l151 -252l163 252h118l-224 -334l236 -373h-125l-174 289l-185 -289h-121z" />
    <glyph glyph-name="Y" unicode="Y" horiz-adv-x="630" 
d="M259 0v256l-240 451h123l175 -358l187 358h118l-255 -449v-258h-108z" />
    <glyph glyph-name="Z" unicode="Z" horiz-adv-x="586" 
d="M39 0v84l360 532h-334v91h460v-77l-364 -539h385v-91h-507z" />
    <glyph glyph-name="Aacute" unicode="&#xc1;" horiz-adv-x="684" 
d="M-4 0l285 707h139l252 -707h-115l-86 247h-267l-97 -247h-111zM235 330h209l-99 305zM269 746l-19 70l234 79l23 -86z" />
    <glyph glyph-name="Acircumflex" unicode="&#xc2;" horiz-adv-x="684" 
d="M-4 0l285 707h139l252 -707h-115l-86 247h-267l-97 -247h-111zM235 330h209l-99 305zM217 748l-36 69l167 82l163 -81l-37 -70l-127 58z" />
    <glyph glyph-name="Adieresis" unicode="&#xc4;" horiz-adv-x="684" 
d="M-4 0l285 707h139l252 -707h-115l-86 247h-267l-97 -247h-111zM235 330h209l-99 305zM240 744l-70 71l70 69l69 -69zM450 744l-70 71l70 69l70 -69z" />
    <glyph glyph-name="Aring" unicode="&#xc5;" horiz-adv-x="684" 
d="M-4 0l285 707h139l252 -707h-115l-86 247h-267l-97 -247h-111zM235 330h209l-99 305zM352 744c-55 0 -110 25 -110 95c0 67 53 100 107 100c46 0 109 -24 109 -98c0 -64 -49 -97 -106 -97zM350 789c34 0 53 19 54 51c0 32 -25 52 -54 52c-35 0 -55 -18 -55 -50
s23 -53 55 -53z" />
    <glyph glyph-name="Agrave" unicode="&#xc0;" horiz-adv-x="684" 
d="M419 746l-239 60l23 87l236 -76zM-4 0l285 707h139l252 -707h-115l-86 247h-267l-97 -247h-111zM235 330h209l-99 305z" />
    <glyph glyph-name="Atilde" unicode="&#xc3;" horiz-adv-x="684" 
d="M-4 0l285 707h139l252 -707h-115l-86 247h-267l-97 -247h-111zM235 330h209l-99 305zM411 754c-44 0 -84 38 -122 38c-23 0 -44 -6 -69 -26l-40 54c19 21 63 56 112 56c54 0 87 -37 121 -37c33 0 48 9 71 26l37 -53c-17 -21 -53 -58 -110 -58z" />
    <glyph glyph-name="Abreve" unicode="&#x102;" horiz-adv-x="684" 
d="M-4 0l285 707h139l252 -707h-115l-86 247h-267l-97 -247h-111zM235 330h209l-99 305zM347 753c-87 0 -140 49 -165 92l56 49c30 -35 68 -60 112 -60c49 0 85 27 110 60l53 -47c-24 -39 -77 -94 -166 -94z" />
    <glyph glyph-name="Amacron" unicode="&#x100;" horiz-adv-x="684" 
d="M-4 0l285 707h139l252 -707h-115l-86 247h-267l-97 -247h-111zM235 330h209l-99 305zM206 779v83h285v-83h-285z" />
    <glyph glyph-name="Aogonek" unicode="&#x104;" horiz-adv-x="684" 
d="M693 -217c-20 -10 -39 -19 -94 -19c-101 0 -134 42 -134 105c0 48 42 93 91 135l-85 244h-267l-97 -248h-111l285 707h139l251 -707c-39 -25 -105 -72 -105 -114c0 -33 24 -40 54 -40c20 0 41 4 53 9zM444 330l-56 169l-43 136l-48 -137l-62 -168h209z" />
    <glyph glyph-name="uni01FA" unicode="&#x1fa;" horiz-adv-x="684" 
d="M-4 0l285 707h139l252 -707h-115l-86 247h-267l-97 -247h-111zM235 330h209l-99 305zM246 914l-19 70l234 79l23 -86zM353 723c-55 0 -110 25 -110 95c0 67 53 100 107 100c46 0 109 -24 109 -98c0 -64 -49 -97 -106 -97zM351 768c34 0 53 19 54 51c0 32 -25 52 -54 52
c-35 0 -55 -18 -55 -50s23 -53 55 -53z" />
    <glyph glyph-name="uni01CD" unicode="&#x1cd;" horiz-adv-x="684" 
d="M-4 0l285 707h139l252 -707h-115l-86 247h-267l-97 -247h-111zM235 330h209l-99 305zM514 825l-170 -81l-165 81l36 70l130 -58l131 58z" />
    <glyph glyph-name="uni0226" unicode="&#x226;" horiz-adv-x="684" 
d="M-4 0l285 707h139l252 -707h-115l-86 247h-267l-97 -247h-111zM235 330h209l-99 305zM418 831l-72 -73l-71 73l71 71z" />
    <glyph glyph-name="uni1EA6" unicode="&#x1ea6;" horiz-adv-x="684" 
d="M-4 0l285 707h139l252 -707h-115l-86 247h-267l-97 -247h-111zM235 330h209l-99 305zM529 833l-166 121l56 71l158 -135zM197 741l-33 68l180 78l174 -78l-33 -68l-142 56z" />
    <glyph glyph-name="uni1EA4" unicode="&#x1ea4;" horiz-adv-x="684" 
d="M-4 0l285 707h139l252 -707h-115l-86 247h-267l-97 -247h-111zM235 330h209l-99 305zM201 741l-33 68l180 78l174 -78l-33 -68l-142 56zM478 844l-50 51l138 131l61 -66z" />
    <glyph glyph-name="uni1EAA" unicode="&#x1eaa;" horiz-adv-x="684" 
d="M-4 0l285 707h139l252 -707h-115l-86 247h-267l-97 -247h-111zM235 330h209l-99 305zM201 742l-33 69l180 73l174 -73l-33 -69l-141 52zM411 900c-47 0 -81 34 -122 34c-28 0 -46 -6 -68 -24l-38 55c14 15 50 52 112 52c55 0 84 -34 122 -34c30 0 53 14 72 26l36 -55
c-14 -14 -52 -54 -114 -54z" />
    <glyph glyph-name="uni1EA8" unicode="&#x1ea8;" horiz-adv-x="684" 
d="M-4 0l285 707h139l252 -707h-115l-86 247h-267l-97 -247h-111zM235 330h209l-99 305zM197 741l-32 68l179 78l174 -78l-33 -68l-141 56zM543 964c0 -63 -50 -101 -73 -113l-52 46c13 7 46 29 46 60c0 24 -21 31 -37 31c-13 0 -28 -2 -44 -10l-13 64c18 9 39 17 72 17
c26 0 53 -9 71 -26c19 -17 30 -41 30 -69z" />
    <glyph glyph-name="uni1EAC" unicode="&#x1eac;" horiz-adv-x="684" 
d="M-4 0l285 707h139l252 -707h-115l-86 247h-267l-97 -247h-111zM235 330h209l-99 305zM419 -159l-80 -79l-79 79l79 80zM218 748l-36 69l167 82l163 -81l-37 -70l-127 58z" />
    <glyph glyph-name="uni1EB0" unicode="&#x1eb0;" horiz-adv-x="684" 
d="M-4 0l285 707h139l252 -707h-115l-86 247h-267l-97 -247h-111zM235 330h209l-99 305zM347 751c-86 0 -141 50 -165 93l56 47c30 -36 68 -61 112 -61c50 0 85 28 110 60l53 -45c-24 -39 -77 -94 -166 -94zM373 871l-167 99l50 74l160 -113z" />
    <glyph glyph-name="uni1EAE" unicode="&#x1eae;" horiz-adv-x="684" 
d="M-4 0l285 707h139l252 -707h-115l-86 247h-267l-97 -247h-111zM235 330h209l-99 305zM345 752c-86 0 -141 49 -164 92l55 47c30 -35 68 -60 113 -60c49 0 85 27 110 60l52 -45c-24 -39 -76 -94 -166 -94zM498 963l-171 -92l-42 61l165 105z" />
    <glyph glyph-name="uni1EB4" unicode="&#x1eb4;" horiz-adv-x="684" 
d="M-4 0l285 707h139l252 -707h-115l-86 247h-267l-97 -247h-111zM235 330h209l-99 305zM348 752c-86 0 -140 49 -164 92l55 47c30 -35 69 -60 113 -60c49 0 85 27 110 60l52 -45c-23 -39 -76 -94 -166 -94zM407 908c-47 0 -81 35 -122 35c-27 0 -46 -6 -68 -24l-38 55
c15 14 51 52 113 52c54 0 84 -34 121 -34c31 0 53 14 73 25l36 -55c-15 -14 -52 -54 -115 -54z" />
    <glyph glyph-name="uni1EB2" unicode="&#x1eb2;" horiz-adv-x="684" 
d="M-4 0l285 707h139l252 -707h-115l-86 247h-267l-97 -247h-111zM235 330h209l-99 305zM433 980c0 -64 -51 -102 -82 -117l-47 47c13 8 48 31 48 64c0 20 -18 32 -41 32c-12 0 -27 -2 -43 -8l-5 67c16 7 39 13 68 13c32 0 56 -10 75 -29c17 -17 27 -39 27 -69zM340 751
c-87 0 -141 50 -165 93l55 47c31 -36 69 -61 113 -61c49 0 85 28 110 60l52 -45c-23 -39 -76 -94 -165 -94z" />
    <glyph glyph-name="uni1EB6" unicode="&#x1eb6;" horiz-adv-x="684" 
d="M-4 0l285 707h139l252 -707h-115l-86 247h-267l-97 -247h-111zM235 330h209l-99 305zM419 -159l-80 -79l-79 79l79 80zM345 752c-87 0 -140 49 -165 92l56 49c31 -35 68 -60 112 -60c49 0 85 27 110 60l53 -47c-24 -39 -77 -94 -166 -94z" />
    <glyph glyph-name="uni1EA2" unicode="&#x1ea2;" horiz-adv-x="684" 
d="M-4 0l285 707h139l252 -707h-115l-86 247h-267l-97 -247h-111zM235 330h209l-99 305zM271 963c17 7 40 12 67 12c58 0 104 -41 104 -102c0 -67 -56 -111 -96 -130l-43 46c31 17 59 40 59 76c0 26 -21 37 -44 37c-13 0 -28 -2 -41 -8z" />
    <glyph glyph-name="uni1EA0" unicode="&#x1ea0;" horiz-adv-x="684" 
d="M-4 0l285 707h139l252 -707h-115l-86 247h-267l-97 -247h-111zM235 330h209l-99 305zM420 -159l-80 -79l-79 79l79 80z" />
    <glyph glyph-name="uni1E02" unicode="&#x1e02;" horiz-adv-x="649" 
d="M373 831l-72 -73l-71 73l71 71zM99 0v707h210c163 0 238 -71 238 -183c0 -71 -39 -125 -91 -146v-2c66 -14 142 -68 142 -170c0 -120 -70 -206 -259 -206h-240zM208 87h116c96 0 165 22 165 116c0 86 -65 119 -179 119h-102v-235zM208 402h104c85 0 127 36 127 109
c0 85 -54 112 -153 112h-78v-221z" />
    <glyph glyph-name="uni1E04" unicode="&#x1e04;" horiz-adv-x="649" 
d="M315 -238l-79 80l79 79l80 -79zM99 0v707h210c163 0 238 -71 238 -183c0 -71 -39 -125 -91 -146v-2c66 -14 142 -68 142 -170c0 -120 -70 -206 -259 -206h-240zM208 87h116c96 0 165 22 165 116c0 86 -65 119 -179 119h-102v-235zM208 402h104c85 0 127 36 127 109
c0 85 -54 112 -153 112h-78v-221z" />
    <glyph glyph-name="uni1E06" unicode="&#x1e06;" horiz-adv-x="649" 
d="M99 0v707h210c163 0 238 -71 238 -183c0 -71 -39 -125 -91 -146v-2c66 -14 142 -68 142 -170c0 -120 -70 -206 -259 -206h-240zM208 87h116c96 0 165 22 165 116c0 86 -65 119 -179 119h-102v-235zM208 402h104c85 0 127 36 127 109c0 85 -54 112 -153 112h-78v-221z
M172 -207v84h285v-84h-285z" />
    <glyph glyph-name="Ccedilla" unicode="&#xc7;" horiz-adv-x="677" 
d="M428 -12c-241 0 -374 144 -374 361c0 223 138 368 370 368c104 0 166 -20 210 -41l-31 -82c-56 18 -97 31 -177 31c-142 1 -262 -77 -262 -266c0 -193 124 -277 281 -277c67 0 118 10 165 25l25 -84c-53 -20 -109 -35 -207 -35zM356 -253l-35 62c37 22 64 46 64 75
c0 20 -10 42 -20 65h91c12 -22 21 -46 21 -71c1 -55 -47 -100 -121 -131z" />
    <glyph glyph-name="Cacute" unicode="&#x106;" horiz-adv-x="677" 
d="M428 -12c-241 0 -374 144 -374 361c0 223 138 368 370 368c104 0 166 -20 210 -41l-31 -82c-56 18 -97 31 -177 31c-142 1 -262 -77 -262 -266c0 -193 124 -277 281 -277c67 0 118 10 165 25l25 -84c-53 -20 -109 -35 -207 -35zM318 746l-19 70l234 79l23 -86z" />
    <glyph glyph-name="Ccaron" unicode="&#x10c;" horiz-adv-x="677" 
d="M588 825l-170 -81l-165 81l36 70l130 -58l131 58zM428 -12c-241 0 -374 144 -374 361c0 223 138 368 370 368c104 0 166 -20 210 -41l-31 -82c-56 18 -97 31 -177 31c-142 1 -262 -77 -262 -266c0 -193 124 -277 281 -277c67 0 118 10 165 25l25 -84
c-53 -20 -109 -35 -207 -35z" />
    <glyph glyph-name="Ccircumflex" unicode="&#x108;" horiz-adv-x="677" 
d="M428 -12c-241 0 -374 144 -374 361c0 223 138 368 370 368c104 0 166 -20 210 -41l-31 -82c-56 18 -97 31 -177 31c-142 1 -262 -77 -262 -266c0 -193 124 -277 281 -277c67 0 118 10 165 25l25 -84c-53 -20 -109 -35 -207 -35zM298 748l-36 69l167 82l163 -81l-37 -70
l-127 58z" />
    <glyph glyph-name="Cdotaccent" unicode="&#x10a;" horiz-adv-x="677" 
d="M491 831l-72 -73l-71 73l71 71zM428 -12c-241 0 -374 144 -374 361c0 223 138 368 370 368c104 0 166 -20 210 -41l-31 -82c-56 18 -97 31 -177 31c-142 1 -262 -77 -262 -266c0 -193 124 -277 281 -277c67 0 118 10 165 25l25 -84c-53 -20 -109 -35 -207 -35z" />
    <glyph glyph-name="Dcaron" unicode="&#x10e;" horiz-adv-x="763" 
d="M501 825l-170 -81l-165 81l36 70l130 -58l131 58zM99 0v707h209c233 0 401 -106 401 -351c0 -247 -153 -356 -395 -356h-215zM207 87h118c178 0 274 88 274 258c0 187 -111 275 -294 275h-98v-533z" />
    <glyph glyph-name="Dcroat" unicode="&#x110;" horiz-adv-x="791" 
d="M49 314v74h77v319h209c233 0 401 -106 401 -351c0 -247 -153 -356 -395 -356h-215v314h-77zM234 87h118c178 0 274 88 274 258c0 187 -111 275 -294 275h-98v-232h157v-74h-157v-227z" />
    <glyph glyph-name="uni1E0E" unicode="&#x1e0e;" horiz-adv-x="763" 
d="M99 0v707h209c233 0 401 -106 401 -351c0 -247 -153 -356 -395 -356h-215zM207 87h118c178 0 274 88 274 258c0 187 -111 275 -294 275h-98v-533zM211 -207v84h285v-84h-285z" />
    <glyph glyph-name="uni1E0C" unicode="&#x1e0c;" horiz-adv-x="763" 
d="M363 -238l-79 80l79 79l80 -79zM99 0v707h209c233 0 401 -106 401 -351c0 -247 -153 -356 -395 -356h-215zM207 87h118c178 0 274 88 274 258c0 187 -111 275 -294 275h-98v-533z" />
    <glyph glyph-name="uni1E0A" unicode="&#x1e0a;" horiz-adv-x="763" 
d="M424 831l-72 -73l-71 73l71 71zM99 0v707h209c233 0 401 -106 401 -351c0 -247 -153 -356 -395 -356h-215zM207 87h118c178 0 274 88 274 258c0 187 -111 275 -294 275h-98v-533z" />
    <glyph glyph-name="Eacute" unicode="&#xc9;" horiz-adv-x="590" 
d="M238 746l-19 70l234 79l23 -86zM99 0v707h416v-86h-308v-224h286v-84h-286v-226h331v-87h-439z" />
    <glyph glyph-name="Ecircumflex" unicode="&#xca;" horiz-adv-x="590" 
d="M99 0v707h416v-86h-308v-224h286v-84h-286v-226h331v-87h-439zM183 748l-36 69l167 82l163 -81l-37 -70l-127 58z" />
    <glyph glyph-name="Edieresis" unicode="&#xcb;" horiz-adv-x="590" 
d="M206 744l-70 71l70 69l69 -69zM416 744l-70 71l70 69l70 -69zM99 0v707h416v-86h-308v-224h286v-84h-286v-226h331v-87h-439z" />
    <glyph glyph-name="Egrave" unicode="&#xc8;" horiz-adv-x="590" 
d="M399 746l-239 60l23 87l236 -76zM99 0v707h416v-86h-308v-224h286v-84h-286v-226h331v-87h-439z" />
    <glyph glyph-name="Ebreve" unicode="&#x114;" horiz-adv-x="590" 
d="M306 753c-87 0 -140 49 -165 92l56 49c30 -35 68 -60 112 -60c49 0 85 27 110 60l53 -47c-24 -39 -77 -94 -166 -94zM99 0v707h416v-86h-308v-224h286v-84h-286v-226h331v-87h-439z" />
    <glyph glyph-name="Ecaron" unicode="&#x11a;" horiz-adv-x="590" 
d="M471 825l-170 -81l-165 81l36 70l130 -58l131 58zM99 0v707h416v-86h-308v-224h286v-84h-286v-226h331v-87h-439z" />
    <glyph glyph-name="Edotaccent" unicode="&#x116;" horiz-adv-x="590" 
d="M389 831l-72 -73l-71 73l71 71zM99 0v707h416v-86h-308v-224h286v-84h-286v-226h331v-87h-439z" />
    <glyph glyph-name="Emacron" unicode="&#x112;" horiz-adv-x="590" 
d="M164 779v83h285v-83h-285zM99 0v707h416v-86h-308v-224h286v-84h-286v-226h331v-87h-439z" />
    <glyph glyph-name="Eogonek" unicode="&#x118;" horiz-adv-x="590" 
d="M552 -217c-25 -12 -47 -22 -91 -22c-87 0 -122 49 -122 103c0 60 49 110 93 136h-333v707h416v-86h-308v-224h286v-84h-286v-226h331v-87c-45 -25 -109 -72 -109 -113c0 -31 26 -42 52 -42c17 0 35 4 51 10z" />
    <glyph glyph-name="uni0228" unicode="&#x228;" horiz-adv-x="590" 
d="M99 0v707h416v-86h-308v-224h286v-84h-286v-226h331v-87h-439zM268 -253l-35 62c37 22 64 46 64 75c0 20 -10 42 -20 65h91c12 -22 21 -46 21 -71c1 -55 -47 -100 -121 -131z" />
    <glyph glyph-name="uni1EC0" unicode="&#x1ec0;" horiz-adv-x="590" 
d="M493 833l-166 121l56 71l158 -135zM161 741l-33 68l180 78l174 -78l-33 -68l-142 56zM99 0v707h416v-86h-308v-224h286v-84h-286v-226h331v-87h-439z" />
    <glyph glyph-name="uni1EBE" unicode="&#x1ebe;" horiz-adv-x="590" 
d="M99 0v707h416v-86h-308v-224h286v-84h-286v-226h331v-87h-439zM162 741l-33 68l180 78l174 -78l-33 -68l-142 56zM439 844l-50 51l138 131l61 -66z" />
    <glyph glyph-name="uni1EC4" unicode="&#x1ec4;" horiz-adv-x="590" 
d="M166 742l-33 69l180 73l174 -73l-33 -69l-141 52zM376 900c-47 0 -81 34 -122 34c-28 0 -46 -6 -68 -24l-38 55c14 15 50 52 112 52c55 0 84 -34 122 -34c30 0 53 14 72 26l36 -55c-14 -14 -52 -54 -114 -54zM99 0v707h416v-86h-308v-224h286v-84h-286v-226h331v-87h-439
z" />
    <glyph glyph-name="uni1EC2" unicode="&#x1ec2;" horiz-adv-x="590" 
d="M99 0v707h416v-86h-308v-224h286v-84h-286v-226h331v-87h-439zM164 741l-32 68l179 78l174 -78l-33 -68l-141 56zM510 964c0 -63 -50 -101 -73 -113l-52 46c13 7 46 29 46 60c0 24 -21 31 -37 31c-13 0 -28 -2 -44 -10l-13 64c18 9 39 17 72 17c26 0 53 -9 71 -26
c19 -17 30 -41 30 -69z" />
    <glyph glyph-name="uni1EC6" unicode="&#x1ec6;" horiz-adv-x="590" 
d="M393 -159l-80 -79l-79 79l79 80zM99 0v707h416v-86h-308v-224h286v-84h-286v-226h331v-87h-439zM182 748l-36 69l167 82l163 -81l-37 -70l-127 58z" />
    <glyph glyph-name="uni1EBA" unicode="&#x1eba;" horiz-adv-x="590" 
d="M99 0v707h416v-86h-308v-224h286v-84h-286v-226h331v-87h-439zM234 963c17 7 40 12 67 12c58 0 104 -41 104 -102c0 -67 -56 -111 -96 -130l-43 46c31 17 59 40 59 76c0 26 -21 37 -44 37c-13 0 -28 -2 -41 -8z" />
    <glyph glyph-name="uni1EB8" unicode="&#x1eb8;" horiz-adv-x="590" 
d="M400 -159l-80 -79l-79 79l79 80zM99 0v707h416v-86h-308v-224h286v-84h-286v-226h331v-87h-439z" />
    <glyph glyph-name="uni1EBC" unicode="&#x1ebc;" horiz-adv-x="590" 
d="M377 754c-44 0 -84 38 -122 38c-23 0 -44 -6 -69 -26l-40 54c19 21 63 56 112 56c54 0 87 -37 121 -37c33 0 48 9 71 26l37 -53c-17 -21 -53 -58 -110 -58zM99 0v707h416v-86h-308v-224h286v-84h-286v-226h331v-87h-439z" />
    <glyph glyph-name="uni0045030A" horiz-adv-x="590" 
d="M322 744c-55 0 -110 25 -110 95c0 67 53 100 107 100c46 0 109 -24 109 -98c0 -64 -49 -97 -106 -97zM320 789c34 0 53 19 54 51c0 32 -25 52 -54 52c-35 0 -55 -18 -55 -50s23 -53 55 -53zM99 0v707h416v-86h-308v-224h286v-84h-286v-226h331v-87h-439z" />
    <glyph glyph-name="uni1E1E" unicode="&#x1e1e;" horiz-adv-x="581" 
d="M393 831l-72 -73l-71 73l71 71zM99 0v707h439v-86h-331v-243h309v-84h-309v-294h-108z" />
    <glyph glyph-name="uni00460304" horiz-adv-x="581" 
d="M180 779v83h285v-83h-285zM99 0v707h439v-86h-331v-243h309v-84h-309v-294h-108z" />
    <glyph glyph-name="Gbreve" unicode="&#x11e;" horiz-adv-x="710" 
d="M413 753c-87 0 -140 49 -165 92l56 49c30 -35 68 -60 112 -60c49 0 85 27 110 60l53 -47c-24 -39 -77 -94 -166 -94zM430 -11c-233 0 -376 132 -376 360c0 232 133 368 372 368c106 0 159 -18 206 -40l-29 -83c-52 17 -95 31 -177 31c-141 0 -261 -75 -261 -266
c0 -195 127 -277 279 -277c42 0 71 5 94 11v255h107v-323c-64 -23 -130 -36 -215 -36z" />
    <glyph glyph-name="Gcommaaccent" unicode="&#x122;" horiz-adv-x="710" 
d="M478 -58l-41 -208h-76l21 208h96zM430 -11c-233 0 -376 132 -376 360c0 232 133 368 372 368c106 0 159 -18 206 -40l-29 -83c-52 17 -95 31 -177 31c-141 0 -261 -75 -261 -266c0 -195 127 -277 279 -277c42 0 71 5 94 11v255h107v-323c-64 -23 -130 -36 -215 -36z" />
    <glyph glyph-name="Gcircumflex" unicode="&#x11c;" horiz-adv-x="710" 
d="M298 748l-36 69l167 82l163 -81l-37 -70l-127 58zM430 -11c-233 0 -376 132 -376 360c0 232 133 368 372 368c106 0 159 -18 206 -40l-29 -83c-52 17 -95 31 -177 31c-141 0 -261 -75 -261 -266c0 -195 127 -277 279 -277c42 0 71 5 94 11v255h107v-323
c-64 -23 -130 -36 -215 -36z" />
    <glyph glyph-name="Gdotaccent" unicode="&#x120;" horiz-adv-x="710" 
d="M501 831l-72 -73l-71 73l71 71zM430 -11c-233 0 -376 132 -376 360c0 232 133 368 372 368c106 0 159 -18 206 -40l-29 -83c-52 17 -95 31 -177 31c-141 0 -261 -75 -261 -266c0 -195 127 -277 279 -277c42 0 71 5 94 11v255h107v-323c-64 -23 -130 -36 -215 -36z" />
    <glyph glyph-name="uni01E6" unicode="&#x1e6;" horiz-adv-x="710" 
d="M572 825l-170 -81l-165 81l36 70l130 -58l131 58zM430 -11c-233 0 -376 132 -376 360c0 232 133 368 372 368c106 0 159 -18 206 -40l-29 -83c-52 17 -95 31 -177 31c-141 0 -261 -75 -261 -266c0 -195 127 -277 279 -277c42 0 71 5 94 11v255h107v-323
c-64 -23 -130 -36 -215 -36z" />
    <glyph glyph-name="uni01F4" unicode="&#x1f4;" horiz-adv-x="710" 
d="M327 746l-19 70l234 79l23 -86zM430 -11c-233 0 -376 132 -376 360c0 232 133 368 372 368c106 0 159 -18 206 -40l-29 -83c-52 17 -95 31 -177 31c-141 0 -261 -75 -261 -266c0 -195 127 -277 279 -277c42 0 71 5 94 11v255h107v-323c-64 -23 -130 -36 -215 -36z" />
    <glyph glyph-name="uni1E20" unicode="&#x1e20;" horiz-adv-x="710" 
d="M269 779v83h285v-83h-285zM430 -11c-233 0 -376 132 -376 360c0 232 133 368 372 368c106 0 159 -18 206 -40l-29 -83c-52 17 -95 31 -177 31c-141 0 -261 -75 -261 -266c0 -195 127 -277 279 -277c42 0 71 5 94 11v255h107v-323c-64 -23 -130 -36 -215 -36z" />
    <glyph glyph-name="Hbar" unicode="&#x126;" horiz-adv-x="814" 
d="M41 514v61h77v132h108v-132h362v132h108v-132h77v-61h-77v-514h-108v312h-362v-312h-108v514h-77zM226 398h362v116h-362v-116z" />
    <glyph glyph-name="Hcircumflex" unicode="&#x124;" horiz-adv-x="776" 
d="M99 0v707h108v-309h362v309h108v-707h-108v312h-362v-312h-108zM255 748l-36 69l167 82l163 -81l-37 -70l-127 58z" />
    <glyph glyph-name="uni021E" unicode="&#x21e;" horiz-adv-x="776" 
d="M99 0v707h108v-309h362v309h108v-707h-108v312h-362v-312h-108zM555 825l-170 -81l-165 81l36 70l130 -58l131 58z" />
    <glyph glyph-name="uni1E24" unicode="&#x1e24;" horiz-adv-x="776" 
d="M99 0v707h108v-309h362v309h108v-707h-108v312h-362v-312h-108zM387 -238l-79 80l79 79l80 -79z" />
    <glyph glyph-name="uni00480331" horiz-adv-x="776" 
d="M99 0v707h108v-309h362v309h108v-707h-108v312h-362v-312h-108zM245 -207v84h285v-84h-285z" />
    <glyph glyph-name="uni1E2A" unicode="&#x1e2a;" horiz-adv-x="776" 
d="M99 0v707h108v-309h362v309h108v-707h-108v312h-362v-312h-108zM389 -218c-85 0 -142 46 -174 94l55 51c39 -42 80 -62 120 -62s81 19 119 62l53 -50c-33 -48 -91 -95 -173 -95z" />
    <glyph glyph-name="uni1E22" unicode="&#x1e22;" horiz-adv-x="776" 
d="M459 831l-72 -73l-71 73l71 71zM99 0v707h108v-309h362v309h108v-707h-108v312h-362v-312h-108z" />
    <glyph glyph-name="Iacute" unicode="&#xcd;" horiz-adv-x="306" 
d="M99 0v707h108v-707h-108zM97 746l-19 70l234 79l23 -86z" />
    <glyph glyph-name="Icircumflex" unicode="&#xce;" horiz-adv-x="306" 
d="M99 0v707h108v-707h-108zM25 748l-36 69l167 82l163 -81l-37 -70l-127 58z" />
    <glyph glyph-name="Idieresis" unicode="&#xcf;" horiz-adv-x="306" 
d="M99 0v707h108v-707h-108zM48 744l-70 71l70 69l69 -69zM258 744l-70 71l70 69l70 -69z" />
    <glyph glyph-name="Igrave" unicode="&#xcc;" horiz-adv-x="306" 
d="M212 746l-239 60l23 87l236 -76zM99 0v707h108v-707h-108z" />
    <glyph glyph-name="Ibreve" unicode="&#x12c;" horiz-adv-x="306" 
d="M99 0v707h108v-707h-108zM151 753c-87 0 -140 49 -165 92l56 49c30 -35 68 -60 112 -60c49 0 85 27 110 60l53 -47c-24 -39 -77 -94 -166 -94z" />
    <glyph glyph-name="Idotaccent" unicode="&#x130;" horiz-adv-x="306" 
d="M223 831l-72 -73l-71 73l71 71zM99 0v707h108v-707h-108z" />
    <glyph glyph-name="Imacron" unicode="&#x12a;" horiz-adv-x="306" 
d="M99 0v707h108v-707h-108zM8 779v83h285v-83h-285z" />
    <glyph glyph-name="Iogonek" unicode="&#x12e;" horiz-adv-x="306" 
d="M234 -217c-20 -10 -46 -21 -94 -21c-100 0 -129 50 -129 113c0 50 45 93 88 125v707h108v-707c-46 -28 -100 -69 -100 -110c0 -33 25 -46 50 -46c18 0 41 5 56 11z" />
    <glyph glyph-name="uni01CF" unicode="&#x1cf;" horiz-adv-x="306" 
d="M99 0v707h108v-707h-108zM319 825l-170 -81l-165 81l36 70l130 -58l131 58z" />
    <glyph glyph-name="uni1EC8" unicode="&#x1ec8;" horiz-adv-x="306" 
d="M99 0v707h108v-707h-108zM72 963c17 7 40 12 67 12c58 0 104 -41 104 -102c0 -67 -56 -111 -96 -130l-43 46c31 17 59 40 59 76c0 26 -21 37 -44 37c-13 0 -28 -2 -41 -8z" />
    <glyph glyph-name="uni1ECA" unicode="&#x1eca;" horiz-adv-x="306" 
d="M99 0v707h108v-707h-108zM230 -159l-80 -79l-79 79l79 80z" />
    <glyph glyph-name="Itilde" unicode="&#x128;" horiz-adv-x="306" 
d="M99 0v707h108v-707h-108zM216 754c-44 0 -84 38 -122 38c-23 0 -44 -6 -69 -26l-40 54c19 21 63 56 112 56c54 0 87 -37 121 -37c33 0 48 9 71 26l37 -53c-17 -21 -53 -58 -110 -58z" />
    <glyph glyph-name="uni004A0301" horiz-adv-x="308" 
d="M94 746l-19 70l234 79l23 -86zM-1 -190l-42 78c120 67 145 137 145 263v556h108v-554c0 -149 -25 -269 -211 -343z" />
    <glyph glyph-name="Jcircumflex" unicode="&#x134;" horiz-adv-x="308" 
d="M-1 -190l-42 78c120 67 145 137 145 263v556h108v-554c0 -149 -25 -269 -211 -343zM27 748l-36 69l167 82l163 -81l-37 -70l-127 58z" />
    <glyph glyph-name="Kcommaaccent" unicode="&#x136;" horiz-adv-x="656" 
d="M393 -58l-41 -208h-76l21 208h96zM510 0l-290 373v11l274 323h137l-291 -328l310 -379h-140zM99 0v707h108v-707h-108z" />
    <glyph glyph-name="uni01E8" unicode="&#x1e8;" horiz-adv-x="656" 
d="M510 0l-290 373v11l274 323h137l-291 -328l310 -379h-140zM99 0v707h108v-707h-108zM509 825l-170 -81l-165 81l36 70l130 -58l131 58z" />
    <glyph glyph-name="uni1E34" unicode="&#x1e34;" horiz-adv-x="656" 
d="M510 0l-290 373v11l274 323h137l-291 -328l310 -379h-140zM99 0v707h108v-707h-108zM210 -207v84h285v-84h-285z" />
    <glyph glyph-name="uni1E32" unicode="&#x1e32;" horiz-adv-x="656" 
d="M342 -238l-79 80l79 79l80 -79zM510 0l-290 373v11l274 323h137l-291 -328l310 -379h-140zM99 0v707h108v-707h-108z" />
    <glyph glyph-name="Lacute" unicode="&#x139;" horiz-adv-x="522" 
d="M106 746l-19 70l234 79l23 -86zM99 0v707h108v-618h307v-89h-415z" />
    <glyph glyph-name="Lcaron" unicode="&#x13d;" horiz-adv-x="522" 
d="M411 771l-41 -208h-76l21 208h96zM99 0v707h108v-618h307v-89h-415z" />
    <glyph glyph-name="Lcommaaccent" unicode="&#x13b;" horiz-adv-x="522" 
d="M355 -58l-41 -208h-76l21 208h96zM99 0v707h108v-618h307v-89h-415z" />
    <glyph glyph-name="Ldot" unicode="&#x13f;" horiz-adv-x="522" 
d="M408 300l-76 77l76 76l76 -76zM99 0v707h108v-618h307v-89h-415z" />
    <glyph glyph-name="Lslash" unicode="&#x141;" horiz-adv-x="544" 
d="M48 252l-1 77l74 43v335h108v-273l123 72v-78l-123 -71v-268h307v-89h-415v294z" />
    <glyph glyph-name="uni1E3A" unicode="&#x1e3a;" horiz-adv-x="522" 
d="M99 0v707h108v-618h307v-89h-415zM161 -207v84h285v-84h-285z" />
    <glyph glyph-name="uni1E36" unicode="&#x1e36;" horiz-adv-x="522" 
d="M301 -238l-79 80l79 79l80 -79zM99 0v707h108v-618h307v-89h-415z" />
    <glyph glyph-name="uni1E38" unicode="&#x1e38;" horiz-adv-x="522" 
d="M292 -238l-79 80l79 79l80 -79zM13 779v83h285v-83h-285zM99 0v707h108v-618h307v-89h-415z" />
    <glyph glyph-name="uni1E42" unicode="&#x1e42;" horiz-adv-x="957" 
d="M465 -238l-79 80l79 79l80 -79zM99 0v707h139l229 -628l259 628h131v-707h-107v413l4 126h-3l-217 -539h-140l-190 540h-4l7 -117v-423h-108z" />
    <glyph glyph-name="uni004D0310" horiz-adv-x="957" 
d="M99 0v707h139l229 -628l259 628h131v-707h-107v413l4 126h-3l-217 -539h-140l-190 540h-4l7 -117v-423h-108zM479 748c-86 0 -145 51 -171 97l58 49c30 -35 70 -63 115 -63c50 0 89 28 118 64l55 -47c-26 -42 -85 -100 -175 -100zM479 872l-71 73l71 72l72 -72z" />
    <glyph glyph-name="uni1E40" unicode="&#x1e40;" horiz-adv-x="957" 
d="M548 831l-72 -73l-71 73l71 71zM99 0v707h139l229 -628l259 628h131v-707h-107v413l4 126h-3l-217 -539h-140l-190 540h-4l7 -117v-423h-108z" />
    <glyph glyph-name="uni1E3E" unicode="&#x1e3e;" horiz-adv-x="957" 
d="M401 746l-19 70l234 79l23 -86zM99 0v707h139l229 -628l259 628h131v-707h-107v413l4 126h-3l-217 -539h-140l-190 540h-4l7 -117v-423h-108z" />
    <glyph glyph-name="Ntilde" unicode="&#xd1;" horiz-adv-x="780" 
d="M458 754c-44 0 -84 38 -122 38c-23 0 -44 -6 -69 -26l-40 54c19 21 63 56 112 56c54 0 87 -37 121 -37c33 0 48 9 71 26l37 -53c-17 -21 -53 -58 -110 -58zM99 0v707h132l344 -576h2l-4 85v491h108v-707h-137l-338 567h-3l4 -79v-488h-108z" />
    <glyph glyph-name="Nacute" unicode="&#x143;" horiz-adv-x="780" 
d="M311 746l-19 70l234 79l23 -86zM99 0v707h132l344 -576h2l-4 85v491h108v-707h-137l-338 567h-3l4 -79v-488h-108z" />
    <glyph glyph-name="Ncaron" unicode="&#x147;" horiz-adv-x="780" 
d="M555 825l-170 -81l-165 81l36 70l130 -58l131 58zM99 0v707h132l344 -576h2l-4 85v491h108v-707h-137l-338 567h-3l4 -79v-488h-108z" />
    <glyph glyph-name="Ncommaaccent" unicode="&#x145;" horiz-adv-x="780" 
d="M443 -58l-41 -208h-76l21 208h96zM99 0v707h132l344 -576h2l-4 85v491h108v-707h-137l-338 567h-3l4 -79v-488h-108z" />
    <glyph glyph-name="uni01F8" unicode="&#x1f8;" horiz-adv-x="780" 
d="M487 746l-239 60l23 87l236 -76zM99 0v707h132l344 -576h2l-4 85v491h108v-707h-137l-338 567h-3l4 -79v-488h-108z" />
    <glyph glyph-name="uni1E48" unicode="&#x1e48;" horiz-adv-x="780" 
d="M247 -207v84h285v-84h-285zM99 0v707h132l344 -576h2l-4 85v491h108v-707h-137l-338 567h-3l4 -79v-488h-108z" />
    <glyph glyph-name="uni1E44" unicode="&#x1e44;" horiz-adv-x="780" 
d="M468 856l-72 -73l-71 73l71 71zM99 0v707h132l344 -576h2l-4 85v491h108v-707h-137l-338 567h-3l4 -79v-488h-108z" />
    <glyph glyph-name="uni004E0304" horiz-adv-x="780" 
d="M244 779v83h285v-83h-285zM99 0v707h132l344 -576h2l-4 85v491h108v-707h-137l-338 567h-3l4 -79v-488h-108z" />
    <glyph glyph-name="Eng" unicode="&#x14a;" horiz-adv-x="781" 
d="M488 -220c-33 0 -67 8 -88 15l19 83c6 -2 47 -9 67 -9c68 0 92 43 92 111v20h-46l-329 583l4 -79v-504h-108v707h141l337 -593l-4 86v507h109v-719c-1 -168 -88 -208 -194 -208z" />
    <glyph glyph-name="uni1E46" unicode="&#x1e46;" horiz-adv-x="780" 
d="M392 -238l-79 80l79 79l80 -79zM99 0v707h132l344 -576h2l-4 85v491h108v-707h-137l-338 567h-3l4 -79v-488h-108z" />
    <glyph glyph-name="Ograve" unicode="&#xd2;" horiz-adv-x="830" 
d="M502 746l-239 60l23 87l236 -76zM406 -12c-228 0 -352 148 -352 367c0 222 144 362 368 362c236 0 354 -156 354 -364c0 -219 -136 -365 -370 -365zM409 76c179 0 258 121 258 278s-86 276 -251 276c-172 0 -254 -119 -254 -274c0 -151 79 -280 247 -280z" />
    <glyph glyph-name="Odieresis" unicode="&#xd6;" horiz-adv-x="830" 
d="M304 744l-70 71l70 69l69 -69zM514 744l-70 71l70 69l70 -69zM406 -12c-228 0 -352 148 -352 367c0 222 144 362 368 362c236 0 354 -156 354 -364c0 -219 -136 -365 -370 -365zM409 76c179 0 258 121 258 278s-86 276 -251 276c-172 0 -254 -119 -254 -274
c0 -151 79 -280 247 -280z" />
    <glyph glyph-name="Otilde" unicode="&#xd5;" horiz-adv-x="830" 
d="M481 754c-44 0 -84 38 -122 38c-23 0 -44 -6 -69 -26l-40 54c19 21 63 56 112 56c54 0 87 -37 121 -37c33 0 48 9 71 26l37 -53c-17 -21 -53 -58 -110 -58zM406 -12c-228 0 -352 148 -352 367c0 222 144 362 368 362c236 0 354 -156 354 -364c0 -219 -136 -365 -370 -365
zM409 76c179 0 258 121 258 278s-86 276 -251 276c-172 0 -254 -119 -254 -274c0 -151 79 -280 247 -280z" />
    <glyph glyph-name="Obreve" unicode="&#x14e;" horiz-adv-x="830" 
d="M415 753c-87 0 -140 49 -165 92l56 49c30 -35 68 -60 112 -60c49 0 85 27 110 60l53 -47c-24 -39 -77 -94 -166 -94zM406 -12c-228 0 -352 148 -352 367c0 222 144 362 368 362c236 0 354 -156 354 -364c0 -219 -136 -365 -370 -365zM409 76c179 0 258 121 258 278
s-86 276 -251 276c-172 0 -254 -119 -254 -274c0 -151 79 -280 247 -280z" />
    <glyph glyph-name="Oacute" unicode="&#xd3;" horiz-adv-x="830" 
d="M325 746l-19 70l234 79l23 -86zM406 -12c-228 0 -352 148 -352 367c0 222 144 362 368 362c236 0 354 -156 354 -364c0 -219 -136 -365 -370 -365zM409 76c179 0 258 121 258 278s-86 276 -251 276c-172 0 -254 -119 -254 -274c0 -151 79 -280 247 -280z" />
    <glyph glyph-name="Ocircumflex" unicode="&#xd4;" horiz-adv-x="830" 
d="M287 748l-36 69l167 82l163 -81l-37 -70l-127 58zM406 -12c-228 0 -352 148 -352 367c0 222 144 362 368 362c236 0 354 -156 354 -364c0 -219 -136 -365 -370 -365zM409 76c179 0 258 121 258 278s-86 276 -251 276c-172 0 -254 -119 -254 -274c0 -151 79 -280 247 -280
z" />
    <glyph glyph-name="Ohungarumlaut" unicode="&#x150;" horiz-adv-x="830" 
d="M406 -12c-228 0 -352 148 -352 367c0 222 144 362 368 362c236 0 354 -156 354 -364c0 -219 -136 -365 -370 -365zM409 76c179 0 258 121 258 278s-86 276 -251 276c-172 0 -254 -119 -254 -274c0 -151 79 -280 247 -280zM461 869l-200 -131l-44 62l190 143zM716 798
l-233 -57l-20 73l228 72z" />
    <glyph glyph-name="Omacron" unicode="&#x14c;" horiz-adv-x="830" 
d="M273 779v83h285v-83h-285zM406 -12c-228 0 -352 148 -352 367c0 222 144 362 368 362c236 0 354 -156 354 -364c0 -219 -136 -365 -370 -365zM409 76c179 0 258 121 258 278s-86 276 -251 276c-172 0 -254 -119 -254 -274c0 -151 79 -280 247 -280z" />
    <glyph glyph-name="Oslash" unicode="&#xd8;" horiz-adv-x="860" 
d="M95 -34l-48 48l93 96c-48 63 -72 147 -72 245c0 222 144 362 368 362c94 0 169 -25 226 -68l91 94l50 -46l-92 -95c52 -64 79 -151 79 -249c0 -219 -136 -365 -370 -365c-97 0 -175 27 -232 74zM423 76c179 0 258 121 258 278c0 65 -15 124 -45 171l-377 -390
c40 -37 94 -59 164 -59zM176 356c0 -62 13 -120 40 -167l375 387c-40 34 -94 54 -161 54c-172 0 -254 -119 -254 -274z" />
    <glyph glyph-name="Oslashacute" unicode="&#x1fe;" horiz-adv-x="859" 
d="M95 -34l-48 48l93 96c-48 63 -72 147 -72 245c0 222 144 362 368 362c94 0 169 -25 226 -68l91 94l50 -46l-92 -95c52 -64 79 -151 79 -249c0 -219 -136 -365 -370 -365c-97 0 -175 27 -232 74zM423 76c179 0 258 121 258 278c0 65 -15 124 -45 171l-377 -390
c40 -37 94 -59 164 -59zM176 356c0 -62 13 -120 40 -167l375 387c-40 34 -94 54 -161 54c-172 0 -254 -119 -254 -274zM348 746l-19 70l234 79l23 -86z" />
    <glyph glyph-name="uni01D1" unicode="&#x1d1;" horiz-adv-x="830" 
d="M586 825l-170 -81l-165 81l36 70l130 -58l131 58zM406 -12c-228 0 -352 148 -352 367c0 222 144 362 368 362c236 0 354 -156 354 -364c0 -219 -136 -365 -370 -365zM409 76c179 0 258 121 258 278s-86 276 -251 276c-172 0 -254 -119 -254 -274c0 -151 79 -280 247 -280
z" />
    <glyph glyph-name="uni01EA" unicode="&#x1ea;" horiz-adv-x="830" 
d="M526 -216c-21 -13 -53 -23 -92 -23c-83 0 -129 48 -129 114c0 43 26 82 62 115c-203 15 -313 158 -313 365c0 222 144 362 368 362c236 0 354 -156 354 -364c0 -194 -106 -330 -292 -359c-45 -27 -86 -65 -86 -105c0 -34 24 -51 54 -51c22 0 39 6 54 14zM409 76
c179 0 258 121 258 278s-86 276 -251 276c-172 0 -254 -119 -254 -274c0 -151 79 -280 247 -280z" />
    <glyph glyph-name="uni01EC" unicode="&#x1ec;" horiz-adv-x="830" 
d="M526 -216c-21 -13 -53 -23 -92 -23c-83 0 -129 48 -129 114c0 43 26 82 62 115c-203 15 -313 158 -313 365c0 222 144 362 368 362c236 0 354 -156 354 -364c0 -194 -106 -330 -292 -359c-45 -27 -86 -65 -86 -105c0 -34 24 -51 54 -51c22 0 39 6 54 14zM409 76
c179 0 258 121 258 278s-86 276 -251 276c-172 0 -254 -119 -254 -274c0 -151 79 -280 247 -280zM267 779v83h285v-83h-285z" />
    <glyph glyph-name="uni022E" unicode="&#x22e;" horiz-adv-x="830" 
d="M485 831l-72 -73l-71 73l71 71zM406 -12c-228 0 -352 148 -352 367c0 222 144 362 368 362c236 0 354 -156 354 -364c0 -219 -136 -365 -370 -365zM409 76c179 0 258 121 258 278s-86 276 -251 276c-172 0 -254 -119 -254 -274c0 -151 79 -280 247 -280z" />
    <glyph glyph-name="Ohorn" unicode="&#x1a0;" horiz-adv-x="850" 
d="M406 -12c-228 0 -352 148 -352 367c0 222 144 362 368 362c84 0 154 -20 208 -56c39 20 56 57 56 98c0 16 -4 41 -9 58h93c8 -19 12 -52 12 -70c0 -67 -35 -119 -83 -148c51 -64 77 -149 77 -246c0 -219 -136 -365 -370 -365zM409 76c179 0 258 121 258 278
s-86 276 -251 276c-172 0 -254 -119 -254 -274c0 -151 79 -280 247 -280z" />
    <glyph glyph-name="uni1ED2" unicode="&#x1ed2;" horiz-adv-x="830" 
d="M601 833l-166 121l56 71l158 -135zM269 741l-33 68l180 78l174 -78l-33 -68l-142 56zM406 -12c-228 0 -352 148 -352 367c0 222 144 362 368 362c236 0 354 -156 354 -364c0 -219 -136 -365 -370 -365zM409 76c179 0 258 121 258 278s-86 276 -251 276
c-172 0 -254 -119 -254 -274c0 -151 79 -280 247 -280z" />
    <glyph glyph-name="uni1ED0" unicode="&#x1ed0;" horiz-adv-x="830" 
d="M272 741l-33 68l180 78l174 -78l-33 -68l-142 56zM549 844l-50 51l138 131l61 -66zM406 -12c-228 0 -352 148 -352 367c0 222 144 362 368 362c236 0 354 -156 354 -364c0 -219 -136 -365 -370 -365zM409 76c179 0 258 121 258 278s-86 276 -251 276
c-172 0 -254 -119 -254 -274c0 -151 79 -280 247 -280z" />
    <glyph glyph-name="uni1ED6" unicode="&#x1ed6;" horiz-adv-x="830" 
d="M270 742l-33 69l180 73l174 -73l-33 -69l-141 52zM480 900c-47 0 -81 34 -122 34c-28 0 -46 -6 -68 -24l-38 55c14 15 50 52 112 52c55 0 84 -34 122 -34c30 0 53 14 72 26l36 -55c-14 -14 -52 -54 -114 -54zM406 -12c-228 0 -352 148 -352 367c0 222 144 362 368 362
c236 0 354 -156 354 -364c0 -219 -136 -365 -370 -365zM409 76c179 0 258 121 258 278s-86 276 -251 276c-172 0 -254 -119 -254 -274c0 -151 79 -280 247 -280z" />
    <glyph glyph-name="uni1ED4" unicode="&#x1ed4;" horiz-adv-x="830" 
d="M406 -12c-228 0 -352 148 -352 367c0 222 144 362 368 362c236 0 354 -156 354 -364c0 -219 -136 -365 -370 -365zM409 76c179 0 258 121 258 278s-86 276 -251 276c-172 0 -254 -119 -254 -274c0 -151 79 -280 247 -280zM264 741l-32 68l179 78l174 -78l-33 -68l-141 56
zM610 964c0 -63 -50 -101 -73 -113l-52 46c13 7 46 29 46 60c0 24 -21 31 -37 31c-13 0 -28 -2 -44 -10l-13 64c18 9 39 17 72 17c26 0 53 -9 71 -26c19 -17 30 -41 30 -69z" />
    <glyph glyph-name="uni1ED8" unicode="&#x1ed8;" horiz-adv-x="830" 
d="M491 -159l-80 -79l-79 79l79 80zM406 -12c-228 0 -352 148 -352 367c0 222 144 362 368 362c236 0 354 -156 354 -364c0 -219 -136 -365 -370 -365zM409 76c179 0 258 121 258 278s-86 276 -251 276c-172 0 -254 -119 -254 -274c0 -151 79 -280 247 -280zM286 748l-36 69
l167 82l163 -81l-37 -70l-127 58z" />
    <glyph glyph-name="uni1ECE" unicode="&#x1ece;" horiz-adv-x="830" 
d="M326 963c17 7 40 12 67 12c58 0 104 -41 104 -102c0 -67 -56 -111 -96 -130l-43 46c31 17 59 40 59 76c0 26 -21 37 -44 37c-13 0 -28 -2 -41 -8zM406 -12c-228 0 -352 148 -352 367c0 222 144 362 368 362c236 0 354 -156 354 -364c0 -219 -136 -365 -370 -365zM409 76
c179 0 258 121 258 278s-86 276 -251 276c-172 0 -254 -119 -254 -274c0 -151 79 -280 247 -280z" />
    <glyph glyph-name="uni1ECC" unicode="&#x1ecc;" horiz-adv-x="830" 
d="M494 -159l-80 -79l-79 79l79 80zM406 -12c-228 0 -352 148 -352 367c0 222 144 362 368 362c236 0 354 -156 354 -364c0 -219 -136 -365 -370 -365zM409 76c179 0 258 121 258 278s-86 276 -251 276c-172 0 -254 -119 -254 -274c0 -151 79 -280 247 -280z" />
    <glyph glyph-name="uni1EDC" unicode="&#x1edc;" horiz-adv-x="850" 
d="M406 -12c-228 0 -352 148 -352 367c0 222 144 362 368 362c84 0 154 -20 208 -56c39 20 56 57 56 98c0 16 -4 41 -9 58h93c8 -19 12 -52 12 -70c0 -67 -35 -119 -83 -148c51 -64 77 -149 77 -246c0 -219 -136 -365 -370 -365zM409 76c179 0 258 121 258 278
s-86 276 -251 276c-172 0 -254 -119 -254 -274c0 -151 79 -280 247 -280zM504 746l-239 60l23 87l236 -76z" />
    <glyph glyph-name="uni1EDA" unicode="&#x1eda;" horiz-adv-x="850" 
d="M406 -12c-228 0 -352 148 -352 367c0 222 144 362 368 362c86 0 156 -21 210 -57c42 19 59 57 59 99c0 16 -4 41 -9 58h93c8 -19 12 -52 12 -70c0 -69 -36 -121 -87 -150c50 -64 76 -148 76 -244c0 -219 -136 -365 -370 -365zM409 76c179 0 258 121 258 278
s-86 276 -251 276c-172 0 -254 -119 -254 -274c0 -151 79 -280 247 -280zM345 746l-19 70l234 79l23 -86z" />
    <glyph glyph-name="uni1EE0" unicode="&#x1ee0;" horiz-adv-x="850" 
d="M406 -12c-228 0 -352 148 -352 367c0 222 144 362 368 362c86 0 156 -21 210 -57c42 19 59 57 59 99c0 16 -4 41 -9 58h93c8 -19 12 -52 12 -70c0 -69 -36 -121 -87 -150c50 -64 76 -148 76 -244c0 -219 -136 -365 -370 -365zM409 76c179 0 258 121 258 278
s-86 276 -251 276c-172 0 -254 -119 -254 -274c0 -151 79 -280 247 -280zM479 754c-44 0 -84 38 -122 38c-23 0 -44 -6 -69 -26l-40 54c19 21 63 56 112 56c54 0 87 -37 121 -37c33 0 48 9 71 26l37 -53c-17 -21 -53 -58 -110 -58z" />
    <glyph glyph-name="uni1EDE" unicode="&#x1ede;" horiz-adv-x="850" 
d="M406 -12c-228 0 -352 148 -352 367c0 222 144 362 368 362c84 0 154 -20 208 -56c39 20 56 57 56 98c0 16 -4 41 -9 58h93c8 -19 12 -52 12 -70c0 -67 -35 -119 -83 -148c51 -64 77 -149 77 -246c0 -219 -136 -365 -370 -365zM409 76c179 0 258 121 258 278
s-86 276 -251 276c-172 0 -254 -119 -254 -274c0 -151 79 -280 247 -280zM330 963c17 7 40 12 67 12c58 0 104 -41 104 -102c0 -67 -56 -111 -96 -130l-43 46c31 17 59 40 59 76c0 26 -21 37 -44 37c-13 0 -28 -2 -41 -8z" />
    <glyph glyph-name="uni1EE2" unicode="&#x1ee2;" horiz-adv-x="850" 
d="M406 -12c-228 0 -352 148 -352 367c0 222 144 362 368 362c86 0 156 -21 210 -57c42 19 59 57 59 99c0 16 -4 41 -9 58h93c8 -19 12 -52 12 -70c0 -69 -36 -121 -87 -150c50 -64 76 -148 76 -244c0 -219 -136 -365 -370 -365zM409 76c179 0 258 121 258 278
s-86 276 -251 276c-172 0 -254 -119 -254 -274c0 -151 79 -280 247 -280zM500 -159l-80 -79l-79 79l79 80z" />
    <glyph glyph-name="uni1E56" unicode="&#x1e56;" horiz-adv-x="616" 
d="M380 831l-72 -73l-71 73l71 71zM99 0v707h243c146 0 242 -82 242 -230c0 -130 -95 -238 -294 -238h-44v87h50c110 0 176 48 176 147c0 97 -46 148 -152 148h-112v-621h-109z" />
    <glyph glyph-name="uni00500304" horiz-adv-x="616" 
d="M99 0v707h243c146 0 242 -82 242 -230c0 -130 -95 -238 -294 -238h-44v87h50c110 0 176 48 176 147c0 97 -46 148 -152 148h-112v-621h-109zM161 779v83h285v-83h-285z" />
    <glyph glyph-name="Racute" unicode="&#x154;" horiz-adv-x="708" 
d="M235 746l-19 70l234 79l23 -86zM677 -12c-100 9 -164 69 -230 154l-98 132c-16 -3 -40 -4 -58 -4h-83v-270h-109v707h244c142 0 242 -67 242 -214c0 -82 -39 -155 -128 -193l88 -115c45 -55 87 -94 156 -114zM208 353h89c107 0 175 36 175 135c0 97 -48 133 -151 133
h-113v-268z" />
    <glyph glyph-name="Rcaron" unicode="&#x158;" horiz-adv-x="708" 
d="M472 825l-170 -81l-165 81l36 70l130 -58l131 58zM677 -12c-100 9 -164 69 -230 154l-98 132c-16 -3 -40 -4 -58 -4h-83v-270h-109v707h244c142 0 242 -67 242 -214c0 -82 -39 -155 -128 -193l88 -115c45 -55 87 -94 156 -114zM208 353h89c107 0 175 36 175 135
c0 97 -48 133 -151 133h-113v-268z" />
    <glyph glyph-name="uni00520300" horiz-adv-x="708" 
d="M360 746l-239 60l23 87l236 -76zM677 -12c-100 9 -164 69 -230 154l-98 132c-16 -3 -40 -4 -58 -4h-83v-270h-109v707h244c142 0 242 -67 242 -214c0 -82 -39 -155 -128 -193l88 -115c45 -55 87 -94 156 -114zM208 353h89c107 0 175 36 175 135c0 97 -48 133 -151 133
h-113v-268z" />
    <glyph glyph-name="Rcommaaccent" unicode="&#x156;" horiz-adv-x="708" 
d="M427 -58l-41 -208h-76l21 208h96zM677 -12c-100 9 -164 69 -230 154l-98 132c-16 -3 -40 -4 -58 -4h-83v-270h-109v707h244c142 0 242 -67 242 -214c0 -82 -39 -155 -128 -193l88 -115c45 -55 87 -94 156 -114zM208 353h89c107 0 175 36 175 135c0 97 -48 133 -151 133
h-113v-268z" />
    <glyph glyph-name="uni1E5E" unicode="&#x1e5e;" horiz-adv-x="708" 
d="M677 -12c-100 9 -164 69 -230 154l-98 132c-16 -3 -40 -4 -58 -4h-83v-270h-109v707h244c142 0 242 -67 242 -214c0 -82 -39 -155 -128 -193l88 -115c45 -55 87 -94 156 -114zM208 353h89c107 0 175 36 175 135c0 97 -48 133 -151 133h-113v-268zM224 -207v84h285v-84
h-285z" />
    <glyph glyph-name="uni1E5A" unicode="&#x1e5a;" horiz-adv-x="708" 
d="M361 -238l-79 80l79 79l80 -79zM677 -12c-100 9 -164 69 -230 154l-98 132c-16 -3 -40 -4 -58 -4h-83v-270h-109v707h244c142 0 242 -67 242 -214c0 -82 -39 -155 -128 -193l88 -115c45 -55 87 -94 156 -114zM208 353h89c107 0 175 36 175 135c0 97 -48 133 -151 133
h-113v-268z" />
    <glyph glyph-name="uni1E5C" unicode="&#x1e5c;" horiz-adv-x="708" 
d="M354 -238l-79 80l79 79l80 -79zM168 779v83h285v-83h-285zM677 -12c-100 9 -164 69 -230 154l-98 132c-16 -3 -40 -4 -58 -4h-83v-270h-109v707h244c142 0 242 -67 242 -214c0 -82 -39 -155 -128 -193l88 -115c45 -55 87 -94 156 -114zM208 353h89c107 0 175 36 175 135
c0 97 -48 133 -151 133h-113v-268z" />
    <glyph glyph-name="uni00520325" horiz-adv-x="708" 
d="M367 -259c-58 0 -116 27 -116 101c0 71 56 106 114 106c48 0 115 -25 115 -104c0 -68 -52 -103 -113 -103zM366 -211c35 0 55 21 56 54c0 33 -26 55 -57 55c-36 0 -57 -19 -57 -53s23 -56 58 -56zM677 -12c-100 9 -164 69 -230 154l-98 132c-16 -3 -40 -4 -58 -4h-83
v-270h-109v707h244c142 0 242 -67 242 -214c0 -82 -39 -155 -128 -193l88 -115c45 -55 87 -94 156 -114zM208 353h89c107 0 175 36 175 135c0 97 -48 133 -151 133h-113v-268z" />
    <glyph glyph-name="uni005203250304" horiz-adv-x="708" 
d="M357 -259c-58 0 -116 27 -116 101c0 71 56 106 114 106c48 0 115 -25 115 -104c0 -68 -52 -103 -113 -103zM356 -211c35 0 55 21 56 54c0 33 -26 55 -57 55c-36 0 -57 -19 -57 -53s23 -56 58 -56zM169 779v83h285v-83h-285zM677 -12c-100 9 -164 69 -230 154l-98 132
c-16 -3 -40 -4 -58 -4h-83v-270h-109v707h244c142 0 242 -67 242 -214c0 -82 -39 -155 -128 -193l88 -115c45 -55 87 -94 156 -114zM208 353h89c107 0 175 36 175 135c0 97 -48 133 -151 133h-113v-268z" />
    <glyph glyph-name="uni1E58" unicode="&#x1e58;" horiz-adv-x="708" 
d="M385 831l-72 -73l-71 73l71 71zM677 -12c-100 9 -164 69 -230 154l-98 132c-16 -3 -40 -4 -58 -4h-83v-270h-109v707h244c142 0 242 -67 242 -214c0 -82 -39 -155 -128 -193l88 -115c45 -55 87 -94 156 -114zM208 353h89c107 0 175 36 175 135c0 97 -48 133 -151 133
h-113v-268z" />
    <glyph glyph-name="Sacute" unicode="&#x15a;" horiz-adv-x="554" 
d="M251 -12c-96 0 -164 25 -209 51l33 85c55 -26 106 -44 176 -44c80 0 154 31 154 108c0 158 -344 112 -344 346c0 120 107 183 224 183c89 0 142 -18 187 -43l-32 -82c-47 22 -92 35 -153 35c-68 0 -121 -31 -121 -92c0 -140 348 -119 348 -341
c0 -141 -124 -206 -263 -206zM199 746l-19 70l234 79l23 -86z" />
    <glyph glyph-name="Scedilla" unicode="&#x15e;" horiz-adv-x="554" 
d="M251 -12c-96 0 -164 25 -209 51l33 85c55 -26 106 -44 176 -44c80 0 154 31 154 108c0 158 -344 112 -344 346c0 120 107 183 224 183c89 0 142 -18 187 -43l-32 -82c-47 22 -92 35 -153 35c-68 0 -121 -31 -121 -92c0 -140 348 -119 348 -341
c0 -141 -124 -206 -263 -206zM214 -253l-35 62c37 22 64 46 64 75c0 20 -10 42 -20 65h91c12 -22 21 -46 21 -71c1 -55 -47 -100 -121 -131z" />
    <glyph glyph-name="Scaron" unicode="&#x160;" horiz-adv-x="554" 
d="M444 825l-170 -81l-165 81l36 70l130 -58l131 58zM251 -12c-96 0 -164 25 -209 51l33 85c55 -26 106 -44 176 -44c80 0 154 31 154 108c0 158 -344 112 -344 346c0 120 107 183 224 183c89 0 142 -18 187 -43l-32 -82c-47 22 -92 35 -153 35c-68 0 -121 -31 -121 -92
c0 -140 348 -119 348 -341c0 -141 -124 -206 -263 -206z" />
    <glyph glyph-name="Scircumflex" unicode="&#x15c;" horiz-adv-x="554" 
d="M251 -12c-96 0 -164 25 -209 51l33 85c55 -26 106 -44 176 -44c80 0 154 31 154 108c0 158 -344 112 -344 346c0 120 107 183 224 183c89 0 142 -18 187 -43l-32 -82c-47 22 -92 35 -153 35c-68 0 -121 -31 -121 -92c0 -140 348 -119 348 -341
c0 -141 -124 -206 -263 -206zM163 748l-36 69l167 82l163 -81l-37 -70l-127 58z" />
    <glyph glyph-name="Scommaaccent" unicode="&#x218;" horiz-adv-x="554" 
d="M318 -58l-41 -208h-76l21 208h96zM251 -12c-96 0 -164 25 -209 51l33 85c55 -26 106 -44 176 -44c80 0 154 31 154 108c0 158 -344 112 -344 346c0 120 107 183 224 183c89 0 142 -18 187 -43l-32 -82c-47 22 -92 35 -153 35c-68 0 -121 -31 -121 -92
c0 -140 348 -119 348 -341c0 -141 -124 -206 -263 -206z" />
    <glyph glyph-name="uni00530331" horiz-adv-x="554" 
d="M251 -12c-96 0 -164 25 -209 51l33 85c55 -26 106 -44 176 -44c80 0 154 31 154 108c0 158 -344 112 -344 346c0 120 107 183 224 183c89 0 142 -18 187 -43l-32 -82c-47 22 -92 35 -153 35c-68 0 -121 -31 -121 -92c0 -140 348 -119 348 -341
c0 -141 -124 -206 -263 -206zM121 -207v84h285v-84h-285z" />
    <glyph glyph-name="uni00530300" horiz-adv-x="554" 
d="M383 746l-239 60l23 87l236 -76zM251 -12c-96 0 -164 25 -209 51l33 85c55 -26 106 -44 176 -44c80 0 154 31 154 108c0 158 -344 112 -344 346c0 120 107 183 224 183c89 0 142 -18 187 -43l-32 -82c-47 22 -92 35 -153 35c-68 0 -121 -31 -121 -92
c0 -140 348 -119 348 -341c0 -141 -124 -206 -263 -206z" />
    <glyph glyph-name="uni1E60" unicode="&#x1e60;" horiz-adv-x="554" 
d="M356 831l-72 -73l-71 73l71 71zM251 -12c-96 0 -164 25 -209 51l33 85c55 -26 106 -44 176 -44c80 0 154 31 154 108c0 158 -344 112 -344 346c0 120 107 183 224 183c89 0 142 -18 187 -43l-32 -82c-47 22 -92 35 -153 35c-68 0 -121 -31 -121 -92
c0 -140 348 -119 348 -341c0 -141 -124 -206 -263 -206z" />
    <glyph glyph-name="uni00530306" horiz-adv-x="554" 
d="M272 765c-87 0 -140 49 -165 92l56 49c30 -35 68 -60 112 -60c49 0 85 27 110 60l53 -47c-24 -39 -77 -94 -166 -94zM251 -12c-96 0 -164 25 -209 51l33 85c55 -26 106 -44 176 -44c80 0 154 31 154 108c0 158 -344 112 -344 346c0 120 107 183 224 183
c89 0 142 -18 187 -43l-32 -82c-47 22 -92 35 -153 35c-68 0 -121 -31 -121 -92c0 -140 348 -119 348 -341c0 -141 -124 -206 -263 -206z" />
    <glyph glyph-name="uni1E62" unicode="&#x1e62;" horiz-adv-x="554" 
d="M268 -238l-79 80l79 79l80 -79zM251 -12c-96 0 -164 25 -209 51l33 85c55 -26 106 -44 176 -44c80 0 154 31 154 108c0 158 -344 112 -344 346c0 120 107 183 224 183c89 0 142 -18 187 -43l-32 -82c-47 22 -92 35 -153 35c-68 0 -121 -31 -121 -92
c0 -140 348 -119 348 -341c0 -141 -124 -206 -263 -206z" />
    <glyph glyph-name="Tbar" unicode="&#x166;" horiz-adv-x="599" 
d="M101 330v64h144v225h-236v88h580v-88h-236v-225h145v-64h-145v-330h-108v330h-144z" />
    <glyph glyph-name="Tcaron" unicode="&#x164;" horiz-adv-x="599" 
d="M464 825l-170 -81l-165 81l36 70l130 -58l131 58zM245 0v619h-236v88h580v-88h-236v-619h-108z" />
    <glyph glyph-name="Tcommaaccent" unicode="&#x162;" horiz-adv-x="599" 
d="M351 -58l-41 -208h-76l21 208h96zM245 0v619h-236v88h580v-88h-236v-619h-108z" />
    <glyph glyph-name="uni021A" unicode="&#x21a;" horiz-adv-x="599" 
d="M351 -58l-41 -208h-76l21 208h96zM245 0v619h-236v88h580v-88h-236v-619h-108z" />
    <glyph glyph-name="uni1E6E" unicode="&#x1e6e;" horiz-adv-x="599" 
d="M245 0v619h-236v88h580v-88h-236v-619h-108zM156 -207v84h285v-84h-285z" />
    <glyph glyph-name="uni1E6C" unicode="&#x1e6c;" horiz-adv-x="599" 
d="M298 -238l-79 80l79 79l80 -79zM245 0v619h-236v88h580v-88h-236v-619h-108z" />
    <glyph glyph-name="uni00540308" horiz-adv-x="599" 
d="M194 744l-70 71l70 69l69 -69zM404 744l-70 71l70 69l70 -69zM245 0v619h-236v88h580v-88h-236v-619h-108z" />
    <glyph glyph-name="uni1E6A" unicode="&#x1e6a;" horiz-adv-x="599" 
d="M370 831l-72 -73l-71 73l71 71zM245 0v619h-236v88h580v-88h-236v-619h-108z" />
    <glyph glyph-name="Uacute" unicode="&#xda;" horiz-adv-x="768" 
d="M315 746l-19 70l234 79l23 -86zM385 -12c-145 0 -296 58 -296 270v449h109v-442c0 -141 84 -187 187 -187c109 0 189 53 189 210v419h106v-423c0 -232 -159 -296 -295 -296z" />
    <glyph glyph-name="Ucircumflex" unicode="&#xdb;" horiz-adv-x="768" 
d="M385 -12c-145 0 -296 58 -296 270v449h109v-442c0 -141 84 -187 187 -187c109 0 189 53 189 210v419h106v-423c0 -232 -159 -296 -295 -296zM260 748l-36 69l167 82l163 -81l-37 -70l-127 58z" />
    <glyph glyph-name="Ugrave" unicode="&#xd9;" horiz-adv-x="768" 
d="M462 746l-239 60l23 87l236 -76zM385 -12c-145 0 -296 58 -296 270v449h109v-442c0 -141 84 -187 187 -187c109 0 189 53 189 210v419h106v-423c0 -232 -159 -296 -295 -296z" />
    <glyph glyph-name="Udieresis" unicode="&#xdc;" horiz-adv-x="768" 
d="M281 744l-70 71l70 69l69 -69zM491 744l-70 71l70 69l70 -69zM385 -12c-145 0 -296 58 -296 270v449h109v-442c0 -141 84 -187 187 -187c109 0 189 53 189 210v419h106v-423c0 -232 -159 -296 -295 -296z" />
    <glyph glyph-name="Ubreve" unicode="&#x16c;" horiz-adv-x="768" 
d="M384 753c-87 0 -140 49 -165 92l56 49c30 -35 68 -60 112 -60c49 0 85 27 110 60l53 -47c-24 -39 -77 -94 -166 -94zM385 -12c-145 0 -296 58 -296 270v449h109v-442c0 -141 84 -187 187 -187c109 0 189 53 189 210v419h106v-423c0 -232 -159 -296 -295 -296z" />
    <glyph glyph-name="Uhungarumlaut" unicode="&#x170;" horiz-adv-x="768" 
d="M385 -12c-145 0 -296 58 -296 270v449h109v-442c0 -141 84 -187 187 -187c109 0 189 53 189 210v419h106v-423c0 -232 -159 -296 -295 -296zM415 869l-200 -131l-44 62l190 143zM670 798l-233 -57l-20 73l228 72z" />
    <glyph glyph-name="Umacron" unicode="&#x16a;" horiz-adv-x="768" 
d="M239 779v83h285v-83h-285zM385 -12c-145 0 -296 58 -296 270v449h109v-442c0 -141 84 -187 187 -187c109 0 189 53 189 210v419h106v-423c0 -232 -159 -296 -295 -296z" />
    <glyph glyph-name="Uogonek" unicode="&#x172;" horiz-adv-x="768" 
d="M506 -216c-21 -13 -53 -23 -92 -23c-83 0 -129 48 -129 114c0 43 26 82 62 115c-132 10 -258 74 -258 268v449h109v-442c0 -141 84 -187 187 -187c109 0 189 53 189 210v419h106v-423c0 -185 -101 -264 -211 -287c-47 -28 -91 -66 -91 -108c0 -34 24 -51 54 -51
c22 0 39 6 54 14z" />
    <glyph glyph-name="Uring" unicode="&#x16e;" horiz-adv-x="768" 
d="M387 709c-55 0 -110 25 -110 95c0 67 53 100 107 100c46 0 109 -24 109 -98c0 -64 -49 -97 -106 -97zM385 754c34 0 53 19 54 51c0 32 -25 52 -54 52c-35 0 -55 -18 -55 -50s23 -53 55 -53zM385 -12c-145 0 -296 58 -296 270v449h109v-442c0 -141 84 -187 187 -187
c109 0 189 53 189 210v419h106v-423c0 -232 -159 -296 -295 -296z" />
    <glyph glyph-name="Utilde" unicode="&#x168;" horiz-adv-x="768" 
d="M440 754c-44 0 -84 38 -122 38c-23 0 -44 -6 -69 -26l-40 54c19 21 63 56 112 56c54 0 87 -37 121 -37c33 0 48 9 71 26l37 -53c-17 -21 -53 -58 -110 -58zM385 -12c-145 0 -296 58 -296 270v449h109v-442c0 -141 84 -187 187 -187c109 0 189 53 189 210v419h106v-423
c0 -232 -159 -296 -295 -296z" />
    <glyph glyph-name="Uhorn" unicode="&#x1af;" horiz-adv-x="802" 
d="M385 -12c-145 0 -296 58 -296 270v449h109v-442c0 -141 84 -187 187 -187c109 0 189 53 189 210v419h55c52 6 67 33 67 75c0 16 -4 36 -9 53h91c8 -19 11 -47 11 -65c0 -73 -44 -124 -109 -140v-346c0 -232 -159 -296 -295 -296z" />
    <glyph glyph-name="uni1EE6" unicode="&#x1ee6;" horiz-adv-x="768" 
d="M385 -12c-145 0 -296 58 -296 270v449h109v-442c0 -141 84 -187 187 -187c109 0 189 53 189 210v419h106v-423c0 -232 -159 -296 -295 -296zM309 963c17 7 40 12 67 12c58 0 104 -41 104 -102c0 -67 -56 -111 -96 -130l-43 46c31 17 59 40 59 76c0 26 -21 37 -44 37
c-13 0 -28 -2 -41 -8z" />
    <glyph glyph-name="uni1EE4" unicode="&#x1ee4;" horiz-adv-x="768" 
d="M461 -159l-80 -79l-79 79l79 80zM385 -12c-145 0 -296 58 -296 270v449h109v-442c0 -141 84 -187 187 -187c109 0 189 53 189 210v419h106v-423c0 -232 -159 -296 -295 -296z" />
    <glyph glyph-name="uni1EEA" unicode="&#x1eea;" horiz-adv-x="802" 
d="M385 -12c-145 0 -296 58 -296 270v449h109v-442c0 -141 84 -187 187 -187c109 0 189 53 189 210v419h55c52 6 67 33 67 75c0 16 -4 36 -9 53h91c8 -19 11 -47 11 -65c0 -73 -44 -124 -109 -140v-346c0 -232 -159 -296 -295 -296zM488 746l-239 60l23 87l236 -76z" />
    <glyph glyph-name="uni1EE8" unicode="&#x1ee8;" horiz-adv-x="802" 
d="M687 835h91c8 -19 11 -47 11 -65c0 -73 -44 -124 -109 -140v-346c0 -232 -159 -296 -295 -296c-145 0 -296 58 -296 270v449h109v-442c0 -141 84 -187 187 -187c109 0 189 53 189 210v419h55c52 6 67 33 67 75c0 16 -4 36 -9 53zM315 746l-19 70l234 79l23 -86z" />
    <glyph glyph-name="uni1EEE" unicode="&#x1eee;" horiz-adv-x="802" 
d="M385 -12c-145 0 -296 58 -296 270v449h109v-442c0 -141 84 -187 187 -187c109 0 189 53 189 210v419h55c52 6 67 33 67 75c0 16 -4 36 -9 53h91c8 -19 11 -47 11 -65c0 -73 -44 -124 -109 -140v-346c0 -232 -159 -296 -295 -296zM452 754c-44 0 -84 38 -122 38
c-23 0 -44 -6 -69 -26l-40 54c19 21 63 56 112 56c54 0 87 -37 121 -37c33 0 48 9 71 26l37 -53c-17 -21 -53 -58 -110 -58z" />
    <glyph glyph-name="uni1EEC" unicode="&#x1eec;" horiz-adv-x="802" 
d="M385 -12c-145 0 -296 58 -296 270v449h109v-442c0 -141 84 -187 187 -187c109 0 189 53 189 210v419h55c52 6 67 33 67 75c0 16 -4 36 -9 53h91c8 -19 11 -47 11 -65c0 -73 -44 -124 -109 -140v-346c0 -232 -159 -296 -295 -296zM312 963c17 7 40 12 67 12
c58 0 104 -41 104 -102c0 -67 -56 -111 -96 -130l-43 46c31 17 59 40 59 76c0 26 -21 37 -44 37c-13 0 -28 -2 -41 -8z" />
    <glyph glyph-name="uni1EF0" unicode="&#x1ef0;" horiz-adv-x="802" 
d="M385 -12c-145 0 -296 58 -296 270v449h109v-442c0 -141 84 -187 187 -187c109 0 189 53 189 210v419h55c52 6 67 33 67 75c0 16 -4 36 -9 53h91c8 -19 11 -47 11 -65c0 -73 -44 -124 -109 -140v-346c0 -232 -159 -296 -295 -296zM466 -159l-80 -79l-79 79l79 80z" />
    <glyph glyph-name="uni01D3" unicode="&#x1d3;" horiz-adv-x="768" 
d="M552 825l-170 -81l-165 81l36 70l130 -58l131 58zM385 -12c-145 0 -296 58 -296 270v449h109v-442c0 -141 84 -187 187 -187c109 0 189 53 189 210v419h106v-423c0 -232 -159 -296 -295 -296z" />
    <glyph glyph-name="uni01D5" unicode="&#x1d5;" horiz-adv-x="768" 
d="M281 729l-70 71l70 69l69 -69zM491 729l-70 71l70 69l70 -69zM385 -12c-145 0 -296 58 -296 270v449h109v-442c0 -141 84 -187 187 -187c109 0 189 53 189 210v419h106v-423c0 -232 -159 -296 -295 -296zM229 895v83h307v-83h-307z" />
    <glyph glyph-name="uni01D7" unicode="&#x1d7;" horiz-adv-x="768" 
d="M281 729l-70 71l70 69l69 -69zM491 729l-70 71l70 69l70 -69zM342 867l-19 70l234 79l23 -86zM385 -12c-145 0 -296 58 -296 270v449h109v-442c0 -141 84 -187 187 -187c109 0 189 53 189 210v419h106v-423c0 -232 -159 -296 -295 -296z" />
    <glyph glyph-name="uni01D9" unicode="&#x1d9;" horiz-adv-x="768" 
d="M281 729l-70 71l70 69l69 -69zM491 729l-70 71l70 69l70 -69zM385 -12c-145 0 -296 58 -296 270v449h109v-442c0 -141 84 -187 187 -187c109 0 189 53 189 210v419h106v-423c0 -232 -159 -296 -295 -296zM553 947l-170 -81l-165 81l36 70l130 -58l131 58z" />
    <glyph glyph-name="uni01DB" unicode="&#x1db;" horiz-adv-x="768" 
d="M415 867l-239 60l23 87l236 -76zM281 729l-70 71l70 69l69 -69zM491 729l-70 71l70 69l70 -69zM385 -12c-145 0 -296 58 -296 270v449h109v-442c0 -141 84 -187 187 -187c109 0 189 53 189 210v419h106v-423c0 -232 -159 -296 -295 -296z" />
    <glyph glyph-name="uni1E7E" unicode="&#x1e7e;" horiz-adv-x="681" 
d="M334 -238l-79 80l79 79l80 -79zM261 0l-251 707h116l210 -624l239 624h109l-278 -707h-145z" />
    <glyph glyph-name="uni1E7C" unicode="&#x1e7c;" horiz-adv-x="681" 
d="M411 754c-44 0 -84 38 -122 38c-23 0 -44 -6 -69 -26l-40 54c19 21 63 56 112 56c54 0 87 -37 121 -37c33 0 48 9 71 26l37 -53c-17 -21 -53 -58 -110 -58zM261 0l-251 707h116l210 -624l239 624h109l-278 -707h-145z" />
    <glyph glyph-name="uni00560304" horiz-adv-x="681" 
d="M193 779v83h285v-83h-285zM261 0l-251 707h116l210 -624l239 624h109l-278 -707h-145z" />
    <glyph glyph-name="Wacute" unicode="&#x1e82;" horiz-adv-x="1046" 
d="M431 746l-19 70l234 79l23 -86zM215 0l-184 707h108l158 -640l184 467l-59 173h108l210 -638l190 638h104l-221 -707h-147l-142 415l-161 -415h-148z" />
    <glyph glyph-name="Wcircumflex" unicode="&#x174;" horiz-adv-x="1046" 
d="M397 748l-36 69l167 82l163 -81l-37 -70l-127 58zM215 0l-184 707h108l158 -640l184 467l-59 173h108l210 -638l190 638h104l-221 -707h-147l-142 415l-161 -415h-148z" />
    <glyph glyph-name="Wdieresis" unicode="&#x1e84;" horiz-adv-x="1046" 
d="M419 744l-70 71l70 69l69 -69zM629 744l-70 71l70 69l70 -69zM215 0l-184 707h108l158 -640l184 467l-59 173h108l210 -638l190 638h104l-221 -707h-147l-142 415l-161 -415h-148z" />
    <glyph glyph-name="Wgrave" unicode="&#x1e80;" horiz-adv-x="1046" 
d="M600 746l-239 60l23 87l236 -76zM215 0l-184 707h108l158 -640l184 467l-59 173h108l210 -638l190 638h104l-221 -707h-147l-142 415l-161 -415h-148z" />
    <glyph glyph-name="uni1E86" unicode="&#x1e86;" horiz-adv-x="1046" 
d="M608 831l-72 -73l-71 73l71 71zM215 0l-184 707h108l158 -640l184 467l-59 173h108l210 -638l190 638h104l-221 -707h-147l-142 415l-161 -415h-148z" />
    <glyph glyph-name="uni1E88" unicode="&#x1e88;" horiz-adv-x="1046" 
d="M516 -238l-79 80l79 79l80 -79zM215 0l-184 707h108l158 -640l184 467l-59 173h108l210 -638l190 638h104l-221 -707h-147l-142 415l-161 -415h-148z" />
    <glyph glyph-name="uni1E8A" unicode="&#x1e8a;" horiz-adv-x="632" 
d="M392 831l-72 -73l-71 73l71 71zM7 0l250 370l-212 337h123l151 -252l163 252h118l-224 -334l236 -373h-125l-174 289l-185 -289h-121z" />
    <glyph glyph-name="uni00580304" horiz-adv-x="632" 
d="M7 0l250 370l-212 337h123l151 -252l163 252h118l-224 -334l236 -373h-125l-174 289l-185 -289h-121zM168 779v83h285v-83h-285z" />
    <glyph glyph-name="Ydieresis" unicode="&#x178;" horiz-adv-x="630" 
d="M259 0v256l-240 451h123l175 -358l187 358h118l-255 -449v-258h-108zM210 744l-70 71l70 69l69 -69zM420 744l-70 71l70 69l70 -69z" />
    <glyph glyph-name="Ycircumflex" unicode="&#x176;" horiz-adv-x="630" 
d="M259 0v256l-240 451h123l175 -358l187 358h118l-255 -449v-258h-108zM190 748l-36 69l167 82l163 -81l-37 -70l-127 58z" />
    <glyph glyph-name="Ygrave" unicode="&#x1ef2;" horiz-adv-x="630" 
d="M397 746l-239 60l23 87l236 -76zM259 0v256l-240 451h123l175 -358l187 358h118l-255 -449v-258h-108z" />
    <glyph glyph-name="Yacute" unicode="&#xdd;" horiz-adv-x="630" 
d="M259 0v256l-240 451h123l175 -358l187 358h118l-255 -449v-258h-108zM249 746l-19 70l234 79l23 -86z" />
    <glyph glyph-name="uni0232" unicode="&#x232;" horiz-adv-x="630" 
d="M259 0v256l-240 451h123l175 -358l187 358h118l-255 -449v-258h-108zM174 779v83h285v-83h-285z" />
    <glyph glyph-name="uni1E8E" unicode="&#x1e8e;" horiz-adv-x="630" 
d="M259 0v256l-240 451h123l175 -358l187 358h118l-255 -449v-258h-108zM391 831l-72 -73l-71 73l71 71z" />
    <glyph glyph-name="uni1EF8" unicode="&#x1ef8;" horiz-adv-x="630" 
d="M259 0v256l-240 451h123l175 -358l187 358h118l-255 -449v-258h-108zM382 754c-44 0 -84 38 -122 38c-23 0 -44 -6 -69 -26l-40 54c19 21 63 56 112 56c54 0 87 -37 121 -37c33 0 48 9 71 26l37 -53c-17 -21 -53 -58 -110 -58z" />
    <glyph glyph-name="uni1EF6" unicode="&#x1ef6;" horiz-adv-x="630" 
d="M259 0v256l-240 451h123l175 -358l187 358h118l-255 -449v-258h-108zM238 963c17 7 40 12 67 12c58 0 104 -41 104 -102c0 -67 -56 -111 -96 -130l-43 46c31 17 59 40 59 76c0 26 -21 37 -44 37c-13 0 -28 -2 -41 -8z" />
    <glyph glyph-name="uni1EF4" unicode="&#x1ef4;" horiz-adv-x="630" 
d="M259 0v256l-240 451h123l175 -358l187 358h118l-255 -449v-258h-108zM392 -159l-80 -79l-79 79l79 80z" />
    <glyph glyph-name="Zacute" unicode="&#x179;" horiz-adv-x="586" 
d="M219 746l-19 70l234 79l23 -86zM39 0v84l360 532h-334v91h460v-77l-364 -539h385v-91h-507z" />
    <glyph glyph-name="Zcaron" unicode="&#x17d;" horiz-adv-x="586" 
d="M459 825l-170 -81l-165 81l36 70l130 -58l131 58zM39 0v84l360 532h-334v91h460v-77l-364 -539h385v-91h-507z" />
    <glyph glyph-name="Zdotaccent" unicode="&#x17b;" horiz-adv-x="586" 
d="M371 831l-72 -73l-71 73l71 71zM39 0v84l360 532h-334v91h460v-77l-364 -539h385v-91h-507z" />
    <glyph glyph-name="uni1E94" unicode="&#x1e94;" horiz-adv-x="586" 
d="M39 0v84l360 532h-334v91h460v-77l-364 -539h385v-91h-507zM150 -207v84h285v-84h-285z" />
    <glyph glyph-name="uni1E92" unicode="&#x1e92;" horiz-adv-x="586" 
d="M293 -238l-79 80l79 79l80 -79zM39 0v84l360 532h-334v91h460v-77l-364 -539h385v-91h-507z" />
    <glyph glyph-name="uni005A0324" horiz-adv-x="586" 
d="M180 -230l-66 68l66 67l67 -67zM402 -230l-67 68l67 67l67 -67zM39 0v84l360 532h-334v91h460v-77l-364 -539h385v-91h-507z" />
    <glyph glyph-name="uni018F" unicode="&#x18f;" horiz-adv-x="773" 
d="M374 -12c-221 0 -321 138 -327 346v61h560c-12 136 -91 235 -240 235c-102 0 -187 -33 -245 -64l-38 75c75 44 178 76 298 76c228 0 336 -156 336 -364c0 -219 -114 -365 -344 -365zM377 76c164 0 220 102 230 240h-450c11 -133 67 -240 220 -240z" />
    <glyph glyph-name="Thorn" unicode="&#xde;" horiz-adv-x="619" 
d="M99 0v707h109v-120h135c146 0 242 -75 242 -227c0 -130 -95 -232 -294 -232h-49v87h55c108 0 175 42 175 141c0 96 -45 144 -151 144h-113v-500h-109z" />
    <glyph glyph-name="Eth" unicode="&#xd0;" horiz-adv-x="791" 
d="M49 314v74h77v319h209c233 0 401 -106 401 -351c0 -247 -153 -356 -395 -356h-215v314h-77zM234 87h118c178 0 274 88 274 258c0 187 -111 275 -294 275h-98v-232h157v-74h-157v-227z" />
    <glyph glyph-name="uni01C4" unicode="&#x1c4;" horiz-adv-x="1335" 
d="M1212 825l-170 -81l-165 81l36 70l130 -58l131 58zM787 0v84l360 532h-334v91h460v-77l-364 -539h385v-91h-507zM99 0v707h209c233 0 401 -106 401 -351c0 -247 -153 -356 -395 -356h-215zM207 87h118c178 0 274 88 274 258c0 187 -111 275 -294 275h-98v-533z" />
    <glyph glyph-name="uni01C5" unicode="&#x1c5;" horiz-adv-x="1270" 
d="M1025 616l-171 117l42 60l130 -87l130 87l45 -60zM797 0v80l303 378h-279v88h401v-76l-304 -383h308v-87h-429zM99 0v707h209c233 0 401 -106 401 -351c0 -247 -153 -356 -395 -356h-215zM207 87h118c178 0 274 88 274 258c0 187 -111 275 -294 275h-98v-533z" />
    <glyph glyph-name="uni01C7" unicode="&#x1c7;" horiz-adv-x="830" 
d="M520 -190l-42 78c120 67 145 137 145 263v556h108v-554c0 -149 -25 -269 -211 -343zM99 0v707h108v-618h307v-89h-415z" />
    <glyph glyph-name="uni01CA" unicode="&#x1ca;" horiz-adv-x="1091" 
d="M782 -190l-42 78c120 67 145 137 145 263v556h108v-554c0 -149 -25 -269 -211 -343zM99 0v707h132l344 -576h2l-4 85v491h108v-707h-137l-338 567h-3l4 -79v-488h-108z" />
    <glyph glyph-name="uni01F1" unicode="&#x1f1;" horiz-adv-x="1335" 
d="M787 0v84l360 532h-334v91h460v-77l-364 -539h385v-91h-507zM99 0v707h209c233 0 401 -106 401 -351c0 -247 -153 -356 -395 -356h-215zM207 87h118c178 0 274 88 274 258c0 187 -111 275 -294 275h-98v-533z" />
    <glyph glyph-name="uni01F2" unicode="&#x1f2;" horiz-adv-x="1270" 
d="M797 0v80l303 378h-279v88h401v-76l-304 -383h308v-87h-429zM99 0v707h209c233 0 401 -106 401 -351c0 -247 -153 -356 -395 -356h-215zM207 87h118c178 0 274 88 274 258c0 187 -111 275 -294 275h-98v-533z" />
    <glyph glyph-name="uni01C8" unicode="&#x1c8;" horiz-adv-x="793" 
d="M519 -224c-33 0 -67 8 -88 16l19 83c19 -6 46 -10 67 -10c71 0 91 45 91 123v558h105v-559c0 -169 -88 -211 -194 -211zM99 0v707h108v-618h307v-89h-415zM659 635l-79 80l79 80l80 -80z" />
    <glyph glyph-name="uni01CB" unicode="&#x1cb;" horiz-adv-x="1054" 
d="M780 -224c-33 0 -67 8 -88 16l19 83c19 -6 46 -10 67 -10c71 0 91 45 91 123v558h105v-559c0 -169 -88 -211 -194 -211zM920 635l-79 80l79 80l80 -80zM99 0v707h132l344 -576h2l-4 85v491h108v-707h-137l-338 567h-3l4 -79v-488h-108z" />
    <glyph glyph-name="uni021C" unicode="&#x21c;" horiz-adv-x="546" 
d="M162 399l191 217h-301v91h421v-77l-204 -229c119 -15 223 -82 223 -195c0 -147 -123 -218 -254 -218c-102 0 -172 24 -197 41l25 85c40 -19 108 -37 165 -37c80 0 153 32 153 125c0 85 -87 121 -171 125c-13 1 -25 1 -37 1z" />
    <glyph glyph-name="uni01EE" unicode="&#x1ee;" horiz-adv-x="546" 
d="M428 825l-170 -81l-165 81l36 70l130 -58l131 58zM162 399l191 217h-301v91h421v-77l-204 -229c119 -15 223 -82 223 -195c0 -147 -123 -218 -254 -218c-102 0 -172 24 -197 41l25 85c40 -19 108 -37 165 -37c80 0 153 32 153 125c0 85 -87 121 -171 125
c-13 1 -25 1 -37 1z" />
    <glyph glyph-name="uni018E" unicode="&#x18e;" horiz-adv-x="579" 
d="M480 707v-707h-417v87h309v226h-277v84h277v224h-308v86h416z" />
    <glyph glyph-name="AE" unicode="&#xc6;" horiz-adv-x="932" 
d="M-17 0l363 707h510v-86h-308v-224h286v-84h-286v-226h332v-87h-439v292h-192l-144 -292h-122zM287 375h154v246h-33z" />
    <glyph glyph-name="AEacute" unicode="&#x1fc;" horiz-adv-x="932" 
d="M491 746l-19 70l234 79l23 -86zM-17 0l363 707h510v-86h-308v-224h286v-84h-286v-226h332v-87h-439v292h-192l-144 -292h-122zM287 375h154v246h-33z" />
    <glyph glyph-name="uni01E2" unicode="&#x1e2;" horiz-adv-x="932" 
d="M438 779v83h285v-83h-285zM-17 0l363 707h510v-86h-308v-224h286v-84h-286v-226h332v-87h-439v292h-192l-144 -292h-122zM287 375h154v246h-33z" />
    <glyph glyph-name="OE" unicode="&#x152;" horiz-adv-x="1101" 
d="M407 -12c-228 0 -353 148 -353 367c0 229 147 363 372 363c75 0 136 -19 183 -48v37h416v-86h-307v-224h285v-84h-285v-226h331v-87h-440v44c-52 -33 -105 -56 -202 -56zM410 77c93 0 158 33 199 87v378c-41 54 -105 86 -192 86c-172 0 -253 -118 -253 -272
c0 -150 79 -279 246 -279z" />
    <glyph glyph-name="IJ" unicode="&#x132;" horiz-adv-x="603" 
d="M99 0v707h108v-707h-108zM294 -190l-42 78c120 67 145 137 145 263v556h108v-554c0 -149 -25 -269 -211 -343z" />
    <glyph glyph-name="Iacute_Jacute" horiz-adv-x="603" 
d="M99 0v707h108v-707h-108zM294 -190l-42 78c120 67 145 137 145 263v556h108v-554c0 -149 -25 -269 -211 -343zM102 746l-19 70l234 79l23 -86zM403 746l-19 70l234 79l23 -86z" />
    <glyph glyph-name="a" unicode="a" horiz-adv-x="564" 
d="M206 -9c-101 0 -168 55 -168 156c0 138 122 166 217 167l119 2v59c0 75 -38 95 -118 95c-58 0 -106 -10 -153 -26l-22 79c51 21 112 37 192 37c131 0 203 -46 203 -157v-285c0 -34 29 -41 57 -42l-4 -80c-7 -1 -18 -2 -25 -2c-56 0 -111 17 -121 66
c-34 -26 -90 -69 -177 -69zM233 74c49 0 102 24 141 49v126l-116 -5c-75 -2 -118 -34 -118 -90c0 -55 40 -80 93 -80z" />
    <glyph glyph-name="b" unicode="b" horiz-adv-x="601" 
d="M261 -12c-71 0 -140 16 -186 32v734h104v-666c21 -5 60 -14 98 -14c115 0 169 91 169 223c0 96 -29 178 -144 178c-36 0 -65 -7 -92 -17l-5 73c31 16 65 26 117 26c146 0 231 -84 231 -265c0 -225 -129 -304 -292 -304z" />
    <glyph glyph-name="c" unicode="c" horiz-adv-x="507" 
d="M330 -12c-198 0 -283 90 -283 273c0 198 104 299 272 299c70 0 121 -18 152 -35l-29 -79c-26 10 -67 26 -120 26c-106 0 -168 -61 -168 -207c0 -122 44 -189 187 -189c45 0 73 6 112 15l16 -82c-39 -11 -76 -21 -139 -21z" />
    <glyph glyph-name="d" unicode="d" horiz-adv-x="599" 
d="M274 -10c-93 0 -227 51 -227 273c0 208 119 297 278 297c30 0 54 -3 90 -12v206h105v-754h-105v49c-34 -31 -72 -59 -141 -59zM291 78c52 0 99 30 124 49v334c-13 5 -48 15 -91 15c-130 0 -172 -96 -172 -207c0 -137 63 -191 139 -191z" />
    <glyph glyph-name="e" unicode="e" horiz-adv-x="558" 
d="M316 -12c-163 0 -268 64 -268 275c0 216 110 297 247 297c153 0 217 -97 217 -275v-37h-359c1 -144 83 -173 179 -173c52 0 96 8 150 24l18 -81c-48 -18 -113 -30 -184 -30zM156 321h248c0 97 -35 160 -115 160c-72 0 -126 -53 -133 -160z" />
    <glyph glyph-name="f" unicode="f" horiz-adv-x="348" 
d="M109 -189v656h-80v79h80v32c0 144 86 189 188 189c39 0 64 -5 88 -13l-17 -81c-16 4 -36 8 -68 8c-60 0 -87 -32 -87 -103v-32h117v-79h-117v-656h-104z" />
    <glyph glyph-name="f.alt" horiz-adv-x="348" 
d="M109 0v467h-80v79h80v32c0 144 86 189 188 189c39 0 64 -5 88 -13l-17 -81c-16 4 -36 8 -68 8c-60 0 -87 -32 -87 -103v-32h117v-79h-117v-467h-104z" />
    <glyph glyph-name="g" unicode="g" horiz-adv-x="595" 
d="M269 -230c-57 0 -135 11 -181 31l19 90c53 -17 112 -29 167 -29c78 0 141 24 141 130v41c-37 -27 -65 -40 -124 -40c-111 0 -243 41 -243 266c0 214 121 301 284 301c52 0 124 -9 186 -25v-560c0 -141 -106 -205 -249 -205zM306 75c47 0 80 18 108 37v346
c-15 4 -48 13 -90 13c-128 0 -173 -83 -173 -205c0 -140 59 -191 155 -191z" />
    <glyph glyph-name="g.alt" horiz-adv-x="592" 
d="M264 194c-31 0 -63 4 -92 14c-13 -19 -19 -36 -19 -48c0 -23 17 -39 41 -39h118c147 0 212 -57 212 -146c0 -107 -94 -205 -276 -205c-140 0 -215 58 -215 146c0 53 26 102 75 137c-25 17 -37 44 -37 74c0 34 17 73 51 105c-39 27 -66 71 -66 135c0 104 72 192 213 192
c75 0 119 -26 132 -35l161 6v-80h-94c4 -11 15 -42 15 -79c0 -109 -94 -177 -219 -177zM313 34h-130c-8 0 -15 0 -22 1c-31 -28 -45 -60 -45 -90c0 -56 46 -93 142 -93c109 0 175 52 175 111c0 39 -33 71 -120 71zM267 263c73 0 118 45 118 111c0 64 -41 114 -116 114
c-72 0 -116 -47 -116 -115c0 -70 46 -110 114 -110z" />
    <glyph glyph-name="h" unicode="h" horiz-adv-x="618" 
d="M79 0v754h105v-269c42 31 106 74 189 74c161 0 170 -110 170 -211v-348h-102v333c0 89 -16 134 -97 134c-64 0 -119 -31 -160 -56v-411h-105z" />
    <glyph glyph-name="i" unicode="i" horiz-adv-x="264" 
d="M79 0v546h106v-546h-106zM131 635l-79 80l79 80l80 -80z" />
    <glyph glyph-name="j" unicode="j" horiz-adv-x="264" 
d="M-10 -224c-33 0 -67 8 -88 16l19 83c19 -6 46 -10 67 -10c71 0 91 45 91 123v558h105v-559c0 -169 -88 -211 -194 -211zM131 635l-79 80l79 80l80 -80z" />
    <glyph glyph-name="k" unicode="k" horiz-adv-x="555" 
d="M520 -9c-51 3 -113 13 -183 103l-150 192l219 260h117l-222 -254l102 -124c46 -56 91 -87 135 -99zM79 0v754h105v-754h-105z" />
    <glyph glyph-name="l" unicode="l" horiz-adv-x="263" 
d="M79 0v754h105v-754h-105z" />
    <glyph glyph-name="m" unicode="m" horiz-adv-x="951" 
d="M79 0v546h105v-62c51 40 109 75 181 75c75 0 127 -34 146 -81c47 37 113 81 196 81c163 0 170 -118 170 -210v-349h-105v334c0 80 -14 134 -97 134c-55 0 -107 -27 -150 -56c3 -20 5 -42 5 -62v-350h-104v334c0 82 -14 134 -93 134c-53 0 -107 -26 -149 -58v-410h-105z
" />
    <glyph glyph-name="n" unicode="n" horiz-adv-x="618" 
d="M79 0v546h105v-60c55 40 109 74 194 74c154 0 166 -111 166 -211v-349h-103v334c0 89 -16 135 -97 135c-65 0 -117 -28 -160 -57v-412h-105z" />
    <glyph glyph-name="o" unicode="o" horiz-adv-x="608" 
d="M299 -12c-158 0 -252 103 -252 279c0 187 105 293 263 293c167 0 251 -106 251 -285c0 -194 -111 -287 -262 -287zM306 73c119 0 149 96 149 198c0 99 -28 205 -150 205c-121 0 -153 -105 -153 -205c0 -106 37 -198 154 -198z" />
    <glyph glyph-name="p" unicode="p" horiz-adv-x="605" 
d="M79 -220v766h104v-43c47 33 90 56 157 56c129 0 217 -90 217 -272c0 -223 -132 -298 -279 -298c-34 0 -71 5 -95 8v-217h-104zM276 73c125 0 175 87 175 209c0 99 -35 188 -140 188c-57 0 -100 -26 -128 -41v-346c13 -2 56 -10 93 -10z" />
    <glyph glyph-name="q" unicode="q" horiz-adv-x="596" 
d="M415 -220v241c-33 -18 -73 -31 -126 -31c-104 0 -242 48 -242 274c0 209 118 296 288 296c65 0 133 -13 185 -31v-749h-105zM299 78c45 0 93 15 116 27v355c-19 8 -54 15 -92 15c-130 0 -172 -91 -172 -205c0 -139 62 -192 148 -192z" />
    <glyph glyph-name="r" unicode="r" horiz-adv-x="406" 
d="M79 0v546h105v-73c25 39 79 85 151 85c32 0 54 -5 67 -9l-15 -88c-22 5 -36 7 -67 7c-62 0 -112 -40 -136 -76v-392h-105z" />
    <glyph glyph-name="s" unicode="s" horiz-adv-x="464" 
d="M201 -12c-50 0 -117 10 -161 24l15 84c54 -13 107 -22 151 -22c79 0 120 28 120 71c0 105 -275 72 -275 256c0 106 91 159 200 159c47 0 105 -10 149 -28l-21 -79c-37 13 -85 22 -127 22c-69 0 -98 -29 -98 -66c0 -109 273 -74 273 -259c0 -124 -124 -162 -226 -162z" />
    <glyph glyph-name="t" unicode="t" horiz-adv-x="423" 
d="M277 -12c-107 0 -175 38 -175 169v306h-80v83h80v112h103v-112h171v-83h-170v-301c0 -66 29 -84 87 -84c32 0 72 7 100 16l14 -85c-33 -12 -89 -21 -130 -21z" />
    <glyph glyph-name="u" unicode="u" horiz-adv-x="616" 
d="M238 -12c-150 0 -163 113 -163 212v346h104v-330c0 -83 9 -135 95 -135c65 0 123 31 160 56v409h103v-546h-103v62c-49 -35 -103 -74 -196 -74z" />
    <glyph glyph-name="v" unicode="v" horiz-adv-x="540" 
d="M198 0l-185 546h113l108 -352l33 -114l37 116l121 350h109l-202 -546h-134z" />
    <glyph glyph-name="w" unicode="w" horiz-adv-x="887" 
d="M181 0l-161 546h110l120 -466l134 466h130l116 -466l140 466h106l-181 -546h-135l-96 370l-18 79l-20 -79l-109 -370h-136z" />
    <glyph glyph-name="x" unicode="x" horiz-adv-x="539" 
d="M17 0l193 279l-181 267h121l120 -198l120 198h118l-180 -265l195 -281h-126l-128 210l-129 -210h-123z" />
    <glyph glyph-name="y" unicode="y" horiz-adv-x="536" 
d="M161 -220l74 220h-44l-179 546h113l111 -371l28 -95l31 94l127 372h106l-267 -766h-100z" />
    <glyph glyph-name="z" unicode="z" horiz-adv-x="508" 
d="M36 0v80l303 378h-279v88h401v-76l-304 -383h308v-87h-429z" />
    <glyph glyph-name="aacute" unicode="&#xe1;" horiz-adv-x="564" 
d="M206 -9c-101 0 -168 55 -168 156c0 138 122 166 217 167l119 2v59c0 75 -38 95 -118 95c-58 0 -106 -10 -153 -26l-22 79c51 21 112 37 192 37c131 0 203 -46 203 -157v-285c0 -34 29 -41 57 -42l-4 -80c-7 -1 -18 -2 -25 -2c-56 0 -111 17 -121 66
c-34 -26 -90 -69 -177 -69zM233 74c49 0 102 24 141 49v126l-116 -5c-75 -2 -118 -34 -118 -90c0 -55 40 -80 93 -80zM212 613l-34 64l203 126l40 -74z" />
    <glyph glyph-name="agrave" unicode="&#xe0;" horiz-adv-x="564" 
d="M206 -9c-101 0 -168 55 -168 156c0 138 122 166 217 167l119 2v59c0 75 -38 95 -118 95c-58 0 -106 -10 -153 -26l-22 79c51 21 112 37 192 37c131 0 203 -46 203 -157v-285c0 -34 29 -41 57 -42l-4 -80c-7 -1 -18 -2 -25 -2c-56 0 -111 17 -121 66
c-34 -26 -90 -69 -177 -69zM233 74c49 0 102 24 141 49v126l-116 -5c-75 -2 -118 -34 -118 -90c0 -55 40 -80 93 -80zM342 614l-208 116l41 76l203 -128z" />
    <glyph glyph-name="acircumflex" unicode="&#xe2;" horiz-adv-x="564" 
d="M393 622l-122 85l-129 -85l-45 59l176 118l165 -117zM206 -9c-101 0 -168 55 -168 156c0 138 122 166 217 167l119 2v59c0 75 -38 95 -118 95c-58 0 -106 -10 -153 -26l-22 79c51 21 112 37 192 37c131 0 203 -46 203 -157v-285c0 -34 29 -41 57 -42l-4 -80
c-7 -1 -18 -2 -25 -2c-56 0 -111 17 -121 66c-34 -26 -90 -69 -177 -69zM233 74c49 0 102 24 141 49v126l-116 -5c-75 -2 -118 -34 -118 -90c0 -55 40 -80 93 -80z" />
    <glyph glyph-name="adieresis" unicode="&#xe4;" horiz-adv-x="564" 
d="M170 648l-67 68l67 67l67 -67zM380 648l-67 68l67 67l68 -67zM206 -9c-101 0 -168 55 -168 156c0 138 122 166 217 167l119 2v59c0 75 -38 95 -118 95c-58 0 -106 -10 -153 -26l-22 79c51 21 112 37 192 37c131 0 203 -46 203 -157v-285c0 -34 29 -41 57 -42l-4 -80
c-7 -1 -18 -2 -25 -2c-56 0 -111 17 -121 66c-34 -26 -90 -69 -177 -69zM233 74c49 0 102 24 141 49v126l-116 -5c-75 -2 -118 -34 -118 -90c0 -55 40 -80 93 -80z" />
    <glyph glyph-name="atilde" unicode="&#xe3;" horiz-adv-x="564" 
d="M206 -9c-101 0 -168 55 -168 156c0 138 122 166 217 167l119 2v59c0 75 -38 95 -118 95c-58 0 -106 -10 -153 -26l-22 79c51 21 112 37 192 37c131 0 203 -46 203 -157v-285c0 -34 29 -41 57 -42l-4 -80c-7 -1 -18 -2 -25 -2c-56 0 -111 17 -121 66
c-34 -26 -90 -69 -177 -69zM233 74c49 0 102 24 141 49v126l-116 -5c-75 -2 -118 -34 -118 -90c0 -55 40 -80 93 -80zM333 641c-48 0 -83 38 -125 38c-27 0 -44 -6 -69 -26l-40 54c14 15 53 56 116 56c56 0 85 -37 123 -37c33 0 56 15 75 27l38 -53
c-13 -15 -54 -59 -118 -59z" />
    <glyph glyph-name="aring" unicode="&#xe5;" horiz-adv-x="564" 
d="M206 -9c-101 0 -168 55 -168 156c0 138 122 166 217 167l119 2v59c0 75 -38 95 -118 95c-58 0 -106 -10 -153 -26l-22 79c51 21 112 37 192 37c131 0 203 -46 203 -157v-285c0 -34 29 -41 57 -42l-4 -80c-7 -1 -18 -2 -25 -2c-56 0 -111 17 -121 66
c-34 -26 -90 -69 -177 -69zM233 74c49 0 102 24 141 49v126l-116 -5c-75 -2 -118 -34 -118 -90c0 -55 40 -80 93 -80zM286 606c-60 0 -122 28 -122 106c0 75 60 112 120 112c51 0 122 -27 122 -110c0 -72 -55 -108 -120 -108zM285 656c37 0 59 21 60 57c0 35 -27 58 -61 58
c-38 0 -60 -20 -60 -56s24 -59 61 -59z" />
    <glyph glyph-name="abreve" unicode="&#x103;" horiz-adv-x="564" 
d="M206 -9c-101 0 -168 55 -168 156c0 138 122 166 217 167l119 2v59c0 75 -38 95 -118 95c-58 0 -106 -10 -153 -26l-22 79c51 21 112 37 192 37c131 0 203 -46 203 -157v-285c0 -34 29 -41 57 -42l-4 -80c-7 -1 -18 -2 -25 -2c-56 0 -111 17 -121 66
c-34 -26 -90 -69 -177 -69zM233 74c49 0 102 24 141 49v126l-116 -5c-75 -2 -118 -34 -118 -90c0 -55 40 -80 93 -80zM287 636c-87 0 -140 49 -165 92l56 49c31 -35 68 -60 112 -60c49 0 85 27 110 60l53 -47c-24 -39 -77 -94 -166 -94z" />
    <glyph glyph-name="amacron" unicode="&#x101;" horiz-adv-x="564" 
d="M206 -9c-101 0 -168 55 -168 156c0 138 122 166 217 167l119 2v59c0 75 -38 95 -118 95c-58 0 -106 -10 -153 -26l-22 79c51 21 112 37 192 37c131 0 203 -46 203 -157v-285c0 -34 29 -41 57 -42l-4 -80c-7 -1 -18 -2 -25 -2c-56 0 -111 17 -121 66
c-34 -26 -90 -69 -177 -69zM233 74c49 0 102 24 141 49v126l-116 -5c-75 -2 -118 -34 -118 -90c0 -55 40 -80 93 -80zM144 663v83h285v-83h-285z" />
    <glyph glyph-name="aogonek" unicode="&#x105;" horiz-adv-x="561" 
d="M543 -217c-20 -10 -48 -21 -95 -21c-100 0 -127 52 -127 107c0 54 55 102 103 135c-19 10 -37 34 -41 56c-30 -21 -84 -69 -179 -69c-101 0 -166 55 -166 157c0 135 122 165 217 167l119 1v62c0 75 -39 92 -128 92c-51 0 -112 -18 -143 -26l-21 79c36 15 105 37 188 37
c111 0 206 -28 206 -155v-286c0 -29 20 -41 51 -43l-6 -78c-37 -26 -106 -75 -106 -115c0 -30 25 -39 50 -39c21 0 41 4 57 11zM374 123v126l-116 -5c-86 -3 -118 -40 -118 -87c0 -57 34 -82 88 -82c58 0 112 25 146 48z" />
    <glyph glyph-name="uni01FB" unicode="&#x1fb;" horiz-adv-x="564" 
d="M206 -9c-101 0 -168 55 -168 156c0 138 122 166 217 167l119 2v59c0 75 -38 95 -118 95c-58 0 -106 -10 -153 -26l-22 79c51 21 112 37 192 37c131 0 203 -46 203 -157v-285c0 -34 29 -41 57 -42l-4 -80c-7 -1 -18 -2 -25 -2c-56 0 -111 17 -121 66
c-34 -26 -90 -69 -177 -69zM233 74c49 0 102 24 141 49v126l-116 -5c-75 -2 -118 -34 -118 -90c0 -55 40 -80 93 -80zM187 812l-19 70l234 79l23 -86zM287 597c-57 0 -116 27 -116 101c0 71 57 105 114 105c48 0 115 -24 115 -103c0 -68 -52 -103 -113 -103zM286 645
c35 0 55 21 57 54c0 33 -26 54 -58 54c-36 0 -57 -19 -57 -52c0 -34 23 -56 58 -56z" />
    <glyph glyph-name="uni01CE" unicode="&#x1ce;" horiz-adv-x="564" 
d="M206 -9c-101 0 -168 55 -168 156c0 138 122 166 217 167l119 2v59c0 75 -38 95 -118 95c-58 0 -106 -10 -153 -26l-22 79c51 21 112 37 192 37c131 0 203 -46 203 -157v-285c0 -34 29 -41 57 -42l-4 -80c-7 -1 -18 -2 -25 -2c-56 0 -111 17 -121 66
c-34 -26 -90 -69 -177 -69zM233 74c49 0 102 24 141 49v126l-116 -5c-75 -2 -118 -34 -118 -90c0 -55 40 -80 93 -80zM278 616l-171 117l42 60l130 -87l130 87l45 -60z" />
    <glyph glyph-name="uni0227" unicode="&#x227;" horiz-adv-x="564" 
d="M206 -9c-101 0 -168 55 -168 156c0 138 122 166 217 167l119 2v59c0 75 -38 95 -118 95c-58 0 -106 -10 -153 -26l-22 79c51 21 112 37 192 37c131 0 203 -46 203 -157v-285c0 -34 29 -41 57 -42l-4 -80c-7 -1 -18 -2 -25 -2c-56 0 -111 17 -121 66
c-34 -26 -90 -69 -177 -69zM233 74c49 0 102 24 141 49v126l-116 -5c-75 -2 -118 -34 -118 -90c0 -55 40 -80 93 -80zM286 635l-79 80l79 80l80 -80z" />
    <glyph glyph-name="uni1EA7" unicode="&#x1ea7;" horiz-adv-x="564" 
d="M206 -9c-101 0 -168 55 -168 156c0 138 122 166 217 167l119 2v59c0 75 -38 95 -118 95c-58 0 -106 -10 -153 -26l-22 79c51 21 112 37 192 37c131 0 203 -46 203 -157v-285c0 -34 29 -41 57 -42l-4 -80c-7 -1 -18 -2 -25 -2c-56 0 -111 17 -121 66
c-34 -26 -90 -69 -177 -69zM233 74c49 0 102 24 141 49v126l-116 -5c-75 -2 -118 -34 -118 -90c0 -55 40 -80 93 -80zM524 749l-52 -49l-154 148l62 59zM444 681l-45 -61l-124 86l-124 -85l-44 61l168 116z" />
    <glyph glyph-name="uni1EA5" unicode="&#x1ea5;" horiz-adv-x="564" 
d="M206 -9c-101 0 -168 55 -168 156c0 138 122 166 217 167l119 2v59c0 75 -38 95 -118 95c-58 0 -106 -10 -153 -26l-22 79c51 21 112 37 192 37c131 0 203 -46 203 -157v-285c0 -34 29 -41 57 -42l-4 -80c-7 -1 -18 -2 -25 -2c-56 0 -111 17 -121 66
c-34 -26 -90 -69 -177 -69zM233 74c49 0 102 24 141 49v126l-116 -5c-75 -2 -118 -34 -118 -90c0 -55 40 -80 93 -80zM401 734l-46 50l137 129l57 -64zM394 620l-124 87l-124 -85l-44 61l168 116l169 -118z" />
    <glyph glyph-name="uni1EAB" unicode="&#x1eab;" horiz-adv-x="564" 
d="M206 -9c-101 0 -168 55 -168 156c0 138 122 166 217 167l119 2v59c0 75 -38 95 -118 95c-58 0 -106 -10 -153 -26l-22 79c51 21 112 37 192 37c131 0 203 -46 203 -157v-285c0 -34 29 -41 57 -42l-4 -80c-7 -1 -18 -2 -25 -2c-56 0 -111 17 -121 66
c-34 -26 -90 -69 -177 -69zM233 74c49 0 102 24 141 49v126l-116 -5c-75 -2 -118 -34 -118 -90c0 -55 40 -80 93 -80zM344 796c-47 0 -81 33 -122 33c-28 0 -44 -6 -66 -24l-38 53c15 15 49 51 111 51c54 0 84 -33 121 -33c31 0 52 14 71 26l35 -53
c-14 -14 -50 -53 -112 -53zM414 611l-132 82l-130 -81l-44 62l175 111l172 -113z" />
    <glyph glyph-name="uni1EA9" unicode="&#x1ea9;" horiz-adv-x="564" 
d="M206 -9c-101 0 -168 55 -168 156c0 138 122 166 217 167l119 2v59c0 75 -38 95 -118 95c-58 0 -106 -10 -153 -26l-22 79c51 21 112 37 192 37c131 0 203 -46 203 -157v-285c0 -34 29 -41 57 -42l-4 -80c-7 -1 -18 -2 -25 -2c-56 0 -111 17 -121 66
c-34 -26 -90 -69 -177 -69zM233 74c49 0 102 24 141 49v126l-116 -5c-75 -2 -118 -34 -118 -90c0 -55 40 -80 93 -80zM495 841c0 -59 -46 -97 -75 -113l-52 47c13 7 46 28 46 60c0 27 -23 37 -41 37c-13 0 -28 -4 -43 -9l-6 66c17 7 40 14 67 14c30 0 56 -10 75 -28
c18 -17 29 -43 29 -74zM409 611l-131 82l-131 -80l-44 61l175 112l172 -114z" />
    <glyph glyph-name="uni1EAD" unicode="&#x1ead;" horiz-adv-x="564" 
d="M206 -9c-101 0 -168 55 -168 156c0 138 122 166 217 167l119 2v59c0 75 -38 95 -118 95c-58 0 -106 -10 -153 -26l-22 79c51 21 112 37 192 37c131 0 203 -46 203 -157v-285c0 -34 29 -41 57 -42l-4 -80c-7 -1 -18 -2 -25 -2c-56 0 -111 17 -121 66
c-34 -26 -90 -69 -177 -69zM233 74c49 0 102 24 141 49v126l-116 -5c-75 -2 -118 -34 -118 -90c0 -55 40 -80 93 -80zM400 622l-122 85l-129 -85l-45 59l176 118l165 -117zM359 -159l-80 -79l-79 79l79 80z" />
    <glyph glyph-name="uni1EB1" unicode="&#x1eb1;" horiz-adv-x="564" 
d="M206 -9c-101 0 -168 55 -168 156c0 138 122 166 217 167l119 2v59c0 75 -38 95 -118 95c-58 0 -106 -10 -153 -26l-22 79c51 21 112 37 192 37c131 0 203 -46 203 -157v-285c0 -34 29 -41 57 -42l-4 -80c-7 -1 -18 -2 -25 -2c-56 0 -111 17 -121 66
c-34 -26 -90 -69 -177 -69zM233 74c49 0 102 24 141 49v126l-116 -5c-75 -2 -118 -34 -118 -90c0 -55 40 -80 93 -80zM288 736l-138 131l60 62l127 -143zM283 624c-86 0 -141 49 -165 92l56 49c30 -35 68 -60 112 -60c49 0 85 27 110 60l53 -47c-24 -39 -77 -94 -166 -94z
" />
    <glyph glyph-name="uni1EAF" unicode="&#x1eaf;" horiz-adv-x="564" 
d="M206 -9c-101 0 -168 55 -168 156c0 138 122 166 217 167l119 2v59c0 75 -38 95 -118 95c-58 0 -106 -10 -153 -26l-22 79c51 21 112 37 192 37c131 0 203 -46 203 -157v-285c0 -34 29 -41 57 -42l-4 -80c-7 -1 -18 -2 -25 -2c-56 0 -111 17 -121 66
c-34 -26 -90 -69 -177 -69zM233 74c49 0 102 24 141 49v126l-116 -5c-75 -2 -118 -34 -118 -90c0 -55 40 -80 93 -80zM437 856l-160 -110l-41 55l152 126zM288 624c-86 0 -141 50 -164 93l55 49c31 -36 68 -61 113 -61c49 0 84 27 109 60l53 -47c-24 -39 -76 -94 -166 -94z
" />
    <glyph glyph-name="uni1EB5" unicode="&#x1eb5;" horiz-adv-x="564" 
d="M206 -9c-101 0 -168 55 -168 156c0 138 122 166 217 167l119 2v59c0 75 -38 95 -118 95c-58 0 -106 -10 -153 -26l-22 79c51 21 112 37 192 37c131 0 203 -46 203 -157v-285c0 -34 29 -41 57 -42l-4 -80c-7 -1 -18 -2 -25 -2c-56 0 -111 17 -121 66
c-34 -26 -90 -69 -177 -69zM233 74c49 0 102 24 141 49v126l-116 -5c-75 -2 -118 -34 -118 -90c0 -55 40 -80 93 -80zM348 781c-47 0 -81 33 -122 33c-28 0 -44 -6 -66 -24l-38 53c15 14 48 50 111 50c54 0 83 -32 121 -32c31 0 51 13 71 25l35 -53
c-14 -14 -50 -52 -112 -52zM294 624c-86 0 -141 49 -164 92l55 49c31 -35 68 -60 113 -60c49 0 84 27 109 60l53 -47c-24 -39 -76 -94 -166 -94z" />
    <glyph glyph-name="uni1EB3" unicode="&#x1eb3;" horiz-adv-x="564" 
d="M206 -9c-101 0 -168 55 -168 156c0 138 122 166 217 167l119 2v59c0 75 -38 95 -118 95c-58 0 -106 -10 -153 -26l-22 79c51 21 112 37 192 37c131 0 203 -46 203 -157v-285c0 -34 29 -41 57 -42l-4 -80c-7 -1 -18 -2 -25 -2c-56 0 -111 17 -121 66
c-34 -26 -90 -69 -177 -69zM233 74c49 0 102 24 141 49v126l-116 -5c-75 -2 -118 -34 -118 -90c0 -55 40 -80 93 -80zM373 850c0 -62 -47 -97 -77 -113c-10 10 -41 37 -50 47c13 9 46 28 46 61c0 26 -23 34 -41 34c-12 0 -28 -2 -43 -7l-5 66c16 7 39 13 68 13
c27 0 54 -10 73 -28c18 -17 29 -42 29 -73zM288 624c-86 0 -140 49 -164 92l56 49c30 -35 68 -60 112 -60c49 0 84 27 109 60l53 -47c-23 -39 -76 -94 -166 -94z" />
    <glyph glyph-name="uni1EB7" unicode="&#x1eb7;" horiz-adv-x="564" 
d="M206 -9c-101 0 -168 55 -168 156c0 138 122 166 217 167l119 2v59c0 75 -38 95 -118 95c-58 0 -106 -10 -153 -26l-22 79c51 21 112 37 192 37c131 0 203 -46 203 -157v-285c0 -34 29 -41 57 -42l-4 -80c-7 -1 -18 -2 -25 -2c-56 0 -111 17 -121 66
c-34 -26 -90 -69 -177 -69zM233 74c49 0 102 24 141 49v126l-116 -5c-75 -2 -118 -34 -118 -90c0 -55 40 -80 93 -80zM369 -159l-80 -79l-79 79l79 80zM284 635c-87 0 -140 49 -165 92l56 49c31 -35 68 -60 112 -60c49 0 85 27 110 60l53 -47c-24 -39 -77 -94 -166 -94z" />
    <glyph glyph-name="uni1EA3" unicode="&#x1ea3;" horiz-adv-x="564" 
d="M206 -9c-101 0 -168 55 -168 156c0 138 122 166 217 167l119 2v59c0 75 -38 95 -118 95c-58 0 -106 -10 -153 -26l-22 79c51 21 112 37 192 37c131 0 203 -46 203 -157v-285c0 -34 29 -41 57 -42l-4 -80c-7 -1 -18 -2 -25 -2c-56 0 -111 17 -121 66
c-34 -26 -90 -69 -177 -69zM233 74c49 0 102 24 141 49v126l-116 -5c-75 -2 -118 -34 -118 -90c0 -55 40 -80 93 -80zM370 756c0 -70 -57 -112 -95 -128l-43 47c16 7 55 32 55 73c0 29 -23 38 -41 38c-14 0 -29 -2 -42 -9l-6 68c17 7 40 12 67 12c58 0 105 -40 105 -101z
" />
    <glyph glyph-name="uni1EA1" unicode="&#x1ea1;" horiz-adv-x="564" 
d="M206 -9c-101 0 -168 55 -168 156c0 138 122 166 217 167l119 2v59c0 75 -38 95 -118 95c-58 0 -106 -10 -153 -26l-22 79c51 21 112 37 192 37c131 0 203 -46 203 -157v-285c0 -34 29 -41 57 -42l-4 -80c-7 -1 -18 -2 -25 -2c-56 0 -111 17 -121 66
c-34 -26 -90 -69 -177 -69zM233 74c49 0 102 24 141 49v126l-116 -5c-75 -2 -118 -34 -118 -90c0 -55 40 -80 93 -80zM366 -159l-80 -79l-79 79l79 80z" />
    <glyph glyph-name="uni1E05" unicode="&#x1e05;" horiz-adv-x="601" 
d="M285 -238l-79 80l79 79l80 -79zM261 -12c-71 0 -140 16 -186 32v734h104v-666c21 -5 60 -14 98 -14c115 0 169 91 169 223c0 96 -29 178 -144 178c-36 0 -65 -7 -92 -17l-5 73c31 16 65 26 117 26c146 0 231 -84 231 -265c0 -225 -129 -304 -292 -304z" />
    <glyph glyph-name="uni1E07" unicode="&#x1e07;" horiz-adv-x="601" 
d="M261 -12c-71 0 -140 16 -186 32v734h104v-666c21 -5 60 -14 98 -14c115 0 169 91 169 223c0 96 -29 178 -144 178c-36 0 -65 -7 -92 -17l-5 73c31 16 65 26 117 26c146 0 231 -84 231 -265c0 -225 -129 -304 -292 -304zM138 -207v84h285v-84h-285z" />
    <glyph glyph-name="uni1E03" unicode="&#x1e03;" horiz-adv-x="601" 
d="M261 -12c-71 0 -140 16 -186 32v734h104v-666c21 -5 60 -14 98 -14c115 0 169 91 169 223c0 96 -29 178 -144 178c-36 0 -65 -7 -92 -17l-5 73c31 16 65 26 117 26c146 0 231 -84 231 -265c0 -225 -129 -304 -292 -304zM331 635l-79 80l79 80l80 -80z" />
    <glyph glyph-name="ccedilla" unicode="&#xe7;" horiz-adv-x="507" 
d="M330 -12c-198 0 -283 90 -283 273c0 198 104 299 272 299c70 0 121 -18 152 -35l-29 -79c-26 10 -67 26 -120 26c-106 0 -168 -61 -168 -207c0 -122 44 -189 187 -189c45 0 73 6 112 15l16 -82c-39 -11 -76 -21 -139 -21zM249 -253l-35 62c37 22 64 46 64 75
c0 20 -10 42 -20 65h91c12 -22 21 -46 21 -71c1 -55 -47 -100 -121 -131z" />
    <glyph glyph-name="cacute" unicode="&#x107;" horiz-adv-x="507" 
d="M223 613l-34 64l203 126l40 -74zM330 -12c-198 0 -283 90 -283 273c0 198 104 299 272 299c70 0 121 -18 152 -35l-29 -79c-26 10 -67 26 -120 26c-106 0 -168 -61 -168 -207c0 -122 44 -189 187 -189c45 0 73 6 112 15l16 -82c-39 -11 -76 -21 -139 -21z" />
    <glyph glyph-name="ccaron" unicode="&#x10d;" horiz-adv-x="507" 
d="M294 617l-171 117l42 60l130 -87l130 87l45 -60zM330 -12c-198 0 -283 90 -283 273c0 198 104 299 272 299c70 0 121 -18 152 -35l-29 -79c-26 10 -67 26 -120 26c-106 0 -168 -61 -168 -207c0 -122 44 -189 187 -189c45 0 73 6 112 15l16 -82c-39 -11 -76 -21 -139 -21z
" />
    <glyph glyph-name="ccircumflex" unicode="&#x109;" horiz-adv-x="507" 
d="M428 622l-122 85l-129 -85l-45 59l176 118l165 -117zM330 -12c-198 0 -283 90 -283 273c0 198 104 299 272 299c70 0 121 -18 152 -35l-29 -79c-26 10 -67 26 -120 26c-106 0 -168 -61 -168 -207c0 -122 44 -189 187 -189c45 0 73 6 112 15l16 -82
c-39 -11 -76 -21 -139 -21z" />
    <glyph glyph-name="cdotaccent" unicode="&#x10b;" horiz-adv-x="507" 
d="M330 -12c-198 0 -283 90 -283 273c0 198 104 299 272 299c70 0 121 -18 152 -35l-29 -79c-26 10 -67 26 -120 26c-106 0 -168 -61 -168 -207c0 -122 44 -189 187 -189c45 0 73 6 112 15l16 -82c-39 -11 -76 -21 -139 -21zM312 635l-79 80l79 80l80 -80z" />
    <glyph glyph-name="dcaron" unicode="&#x10f;" horiz-adv-x="655" 
d="M685 754l-41 -208h-75l21 208h95zM274 -10c-93 0 -227 51 -227 273c0 208 119 297 278 297c30 0 54 -3 90 -12v206h105v-754h-105v49c-34 -31 -72 -59 -141 -59zM291 78c52 0 99 30 124 49v334c-13 5 -48 15 -91 15c-130 0 -172 -96 -172 -207c0 -137 63 -191 139 -191z
" />
    <glyph glyph-name="dcroat" unicode="&#x111;" horiz-adv-x="599" 
d="M283 619v59h132v76h105v-76h70v-59h-70v-619h-105v49c-29 -27 -72 -58 -134 -58c-102 0 -234 43 -234 283c0 190 122 286 271 286c44 0 65 -3 97 -12v71h-132zM295 79c46 0 97 33 120 48v334c-23 7 -50 15 -97 15c-120 0 -166 -96 -166 -205c0 -139 61 -192 143 -192z
" />
    <glyph glyph-name="uni1E0F" unicode="&#x1e0f;" horiz-adv-x="599" 
d="M274 -10c-93 0 -227 51 -227 273c0 208 119 297 278 297c30 0 54 -3 90 -12v206h105v-754h-105v49c-34 -31 -72 -59 -141 -59zM291 78c52 0 99 30 124 49v334c-13 5 -48 15 -91 15c-130 0 -172 -96 -172 -207c0 -137 63 -191 139 -191zM171 -207v84h285v-84h-285z" />
    <glyph glyph-name="uni1E0D" unicode="&#x1e0d;" horiz-adv-x="599" 
d="M314 -238l-79 80l79 79l80 -79zM274 -10c-93 0 -227 51 -227 273c0 208 119 297 278 297c30 0 54 -3 90 -12v206h105v-754h-105v49c-34 -31 -72 -59 -141 -59zM291 78c52 0 99 30 124 49v334c-13 5 -48 15 -91 15c-130 0 -172 -96 -172 -207c0 -137 63 -191 139 -191z
" />
    <glyph glyph-name="uni1E0B" unicode="&#x1e0b;" horiz-adv-x="599" 
d="M274 -10c-93 0 -227 51 -227 273c0 208 119 297 278 297c30 0 54 -3 90 -12v206h105v-754h-105v49c-34 -31 -72 -59 -141 -59zM291 78c52 0 99 30 124 49v334c-13 5 -48 15 -91 15c-130 0 -172 -96 -172 -207c0 -137 63 -191 139 -191zM271 635l-79 80l79 80l80 -80z" />
    <glyph glyph-name="eacute" unicode="&#xe9;" horiz-adv-x="558" 
d="M225 613l-34 64l203 126l40 -74zM316 -12c-163 0 -268 64 -268 275c0 216 110 297 247 297c153 0 217 -97 217 -275v-37h-359c1 -144 83 -173 179 -173c52 0 96 8 150 24l18 -81c-48 -18 -113 -30 -184 -30zM156 321h248c0 97 -35 160 -115 160c-72 0 -126 -53 -133 -160
z" />
    <glyph glyph-name="egrave" unicode="&#xe8;" horiz-adv-x="558" 
d="M316 -12c-163 0 -268 64 -268 275c0 216 110 297 247 297c153 0 217 -97 217 -275v-37h-359c1 -144 83 -173 179 -173c52 0 96 8 150 24l18 -81c-48 -18 -113 -30 -184 -30zM156 321h248c0 97 -35 160 -115 160c-72 0 -126 -53 -133 -160zM354 614l-208 116l41 76
l203 -128z" />
    <glyph glyph-name="ecircumflex" unicode="&#xea;" horiz-adv-x="558" 
d="M405 622l-122 85l-129 -85l-45 59l176 118l165 -117zM316 -12c-163 0 -268 64 -268 275c0 216 110 297 247 297c153 0 217 -97 217 -275v-37h-359c1 -144 83 -173 179 -173c52 0 96 8 150 24l18 -81c-48 -18 -113 -30 -184 -30zM156 321h248c0 97 -35 160 -115 160
c-72 0 -126 -53 -133 -160z" />
    <glyph glyph-name="edieresis" unicode="&#xeb;" horiz-adv-x="558" 
d="M180 648l-67 68l67 67l67 -67zM390 648l-67 68l67 67l68 -67zM316 -12c-163 0 -268 64 -268 275c0 216 110 297 247 297c153 0 217 -97 217 -275v-37h-359c1 -144 83 -173 179 -173c52 0 96 8 150 24l18 -81c-48 -18 -113 -30 -184 -30zM156 321h248
c0 97 -35 160 -115 160c-72 0 -126 -53 -133 -160z" />
    <glyph glyph-name="ebreve" unicode="&#x115;" horiz-adv-x="558" 
d="M316 -12c-163 0 -268 64 -268 275c0 216 110 297 247 297c153 0 217 -97 217 -275v-37h-359c1 -144 83 -173 179 -173c52 0 96 8 150 24l18 -81c-48 -18 -113 -30 -184 -30zM156 321h248c0 97 -35 160 -115 160c-72 0 -126 -53 -133 -160zM294 636c-87 0 -140 49 -165 92
l56 49c31 -35 68 -60 112 -60c49 0 85 27 110 60l53 -47c-24 -39 -77 -94 -166 -94z" />
    <glyph glyph-name="ecaron" unicode="&#x11b;" horiz-adv-x="558" 
d="M291 617l-171 117l42 60l130 -87l130 87l45 -60zM316 -12c-163 0 -268 64 -268 275c0 216 110 297 247 297c153 0 217 -97 217 -275v-37h-359c1 -144 83 -173 179 -173c52 0 96 8 150 24l18 -81c-48 -18 -113 -30 -184 -30zM156 321h248c0 97 -35 160 -115 160
c-72 0 -126 -53 -133 -160z" />
    <glyph glyph-name="edotaccent" unicode="&#x117;" horiz-adv-x="558" 
d="M316 -12c-163 0 -268 64 -268 275c0 216 110 297 247 297c153 0 217 -97 217 -275v-37h-359c1 -144 83 -173 179 -173c52 0 96 8 150 24l18 -81c-48 -18 -113 -30 -184 -30zM156 321h248c0 97 -35 160 -115 160c-72 0 -126 -53 -133 -160zM295 635l-79 80l79 80l80 -80z
" />
    <glyph glyph-name="emacron" unicode="&#x113;" horiz-adv-x="558" 
d="M148 663v83h285v-83h-285zM316 -12c-163 0 -268 64 -268 275c0 216 110 297 247 297c153 0 217 -97 217 -275v-37h-359c1 -144 83 -173 179 -173c52 0 96 8 150 24l18 -81c-48 -18 -113 -30 -184 -30zM156 321h248c0 97 -35 160 -115 160c-72 0 -126 -53 -133 -160z" />
    <glyph glyph-name="uni1EBD" unicode="&#x1ebd;" horiz-adv-x="558" 
d="M316 -12c-163 0 -268 64 -268 275c0 216 110 297 247 297c153 0 217 -97 217 -275v-37h-359c1 -144 83 -173 179 -173c52 0 96 8 150 24l18 -81c-48 -18 -113 -30 -184 -30zM156 321h248c0 97 -35 160 -115 160c-72 0 -126 -53 -133 -160zM346 641c-48 0 -83 38 -125 38
c-27 0 -44 -6 -69 -26l-40 54c14 15 53 56 116 56c56 0 85 -37 123 -37c33 0 56 15 75 27l38 -53c-13 -15 -54 -59 -118 -59z" />
    <glyph glyph-name="eogonek" unicode="&#x119;" horiz-adv-x="559" 
d="M407 -236c-96 0 -127 44 -127 107c0 46 37 90 75 122c-15 -2 -32 -3 -49 -3c-157 0 -257 70 -257 274c0 221 109 295 255 295c145 0 208 -97 208 -274v-37h-358c1 -149 82 -172 188 -172c38 0 107 13 141 20l16 -82c-33 -20 -121 -75 -121 -126c0 -34 23 -44 55 -44
c20 0 39 5 51 11l21 -72c-20 -10 -42 -19 -98 -19zM156 321h248c1 97 -36 162 -112 162c-74 0 -129 -55 -136 -162z" />
    <glyph glyph-name="uni0229" unicode="&#x229;" horiz-adv-x="558" 
d="M316 -12c-163 0 -268 64 -268 275c0 216 110 297 247 297c153 0 217 -97 217 -275v-37h-359c1 -144 83 -173 179 -173c52 0 96 8 150 24l18 -81c-48 -18 -113 -30 -184 -30zM156 321h248c0 97 -35 160 -115 160c-72 0 -126 -53 -133 -160zM242 -253l-35 62
c37 22 64 46 64 75c0 20 -10 42 -20 65h91c12 -22 21 -46 21 -71c1 -55 -47 -100 -121 -131z" />
    <glyph glyph-name="uni1EC1" unicode="&#x1ec1;" horiz-adv-x="558" 
d="M529 749l-52 -49l-154 148l62 59zM449 681l-45 -61l-124 86l-124 -85l-44 61l168 116zM316 -12c-163 0 -268 64 -268 275c0 216 110 297 247 297c153 0 217 -97 217 -275v-37h-359c1 -144 83 -173 179 -173c52 0 96 8 150 24l18 -81c-48 -18 -113 -30 -184 -30zM156 321
h248c0 97 -35 160 -115 160c-72 0 -126 -53 -133 -160z" />
    <glyph glyph-name="uni1EBF" unicode="&#x1ebf;" horiz-adv-x="558" 
d="M417 734l-46 50l137 129l57 -64zM410 620l-124 87l-124 -85l-44 61l168 116l169 -118zM316 -12c-163 0 -268 64 -268 275c0 216 110 297 247 297c153 0 217 -97 217 -275v-37h-359c1 -144 83 -173 179 -173c52 0 96 8 150 24l18 -81c-48 -18 -113 -30 -184 -30zM156 321
h248c0 97 -35 160 -115 160c-72 0 -126 -53 -133 -160z" />
    <glyph glyph-name="uni1EC5" unicode="&#x1ec5;" horiz-adv-x="558" 
d="M354 796c-47 0 -81 33 -122 33c-28 0 -44 -6 -66 -24l-38 53c15 15 49 51 111 51c54 0 84 -33 121 -33c31 0 52 14 71 26l35 -53c-14 -14 -50 -53 -112 -53zM424 611l-132 82l-130 -81l-44 62l175 111l172 -113zM316 -12c-163 0 -268 64 -268 275c0 216 110 297 247 297
c153 0 217 -97 217 -275v-37h-359c1 -144 83 -173 179 -173c52 0 96 8 150 24l18 -81c-48 -18 -113 -30 -184 -30zM156 321h248c0 97 -35 160 -115 160c-72 0 -126 -53 -133 -160z" />
    <glyph glyph-name="uni1EC3" unicode="&#x1ec3;" horiz-adv-x="558" 
d="M316 -12c-163 0 -268 64 -268 275c0 216 110 297 247 297c153 0 217 -97 217 -275v-37h-359c1 -144 83 -173 179 -173c52 0 96 8 150 24l18 -81c-48 -18 -113 -30 -184 -30zM156 321h248c0 97 -35 160 -115 160c-72 0 -126 -53 -133 -160zM507 841
c0 -59 -46 -97 -75 -113l-52 47c13 7 46 28 46 60c0 27 -23 37 -41 37c-13 0 -28 -4 -43 -9l-6 66c17 7 40 14 67 14c30 0 56 -10 75 -28c18 -17 29 -43 29 -74zM421 611l-131 82l-131 -80l-44 61l175 112l172 -114z" />
    <glyph glyph-name="uni1EC7" unicode="&#x1ec7;" horiz-adv-x="558" 
d="M410 622l-122 85l-129 -85l-45 59l176 118l165 -117zM371 -159l-80 -79l-79 79l79 80zM316 -12c-163 0 -268 64 -268 275c0 216 110 297 247 297c153 0 217 -97 217 -275v-37h-359c1 -144 83 -173 179 -173c52 0 96 8 150 24l18 -81c-48 -18 -113 -30 -184 -30zM156 321
h248c0 97 -35 160 -115 160c-72 0 -126 -53 -133 -160z" />
    <glyph glyph-name="uni1EBB" unicode="&#x1ebb;" horiz-adv-x="558" 
d="M316 -12c-163 0 -268 64 -268 275c0 216 110 297 247 297c153 0 217 -97 217 -275v-37h-359c1 -144 83 -173 179 -173c52 0 96 8 150 24l18 -81c-48 -18 -113 -30 -184 -30zM156 321h248c0 97 -35 160 -115 160c-72 0 -126 -53 -133 -160zM380 756
c0 -70 -57 -112 -95 -128l-43 47c16 7 55 32 55 73c0 29 -23 38 -41 38c-14 0 -29 -2 -42 -9l-6 68c17 7 40 12 67 12c58 0 105 -40 105 -101z" />
    <glyph glyph-name="uni1EB9" unicode="&#x1eb9;" horiz-adv-x="558" 
d="M372 -159l-80 -79l-79 79l79 80zM316 -12c-163 0 -268 64 -268 275c0 216 110 297 247 297c153 0 217 -97 217 -275v-37h-359c1 -144 83 -173 179 -173c52 0 96 8 150 24l18 -81c-48 -18 -113 -30 -184 -30zM156 321h248c0 97 -35 160 -115 160c-72 0 -126 -53 -133 -160
z" />
    <glyph glyph-name="uni0065030A" horiz-adv-x="558" 
d="M290 606c-60 0 -122 28 -122 106c0 75 60 112 120 112c51 0 122 -27 122 -110c0 -72 -55 -108 -120 -108zM289 656c37 0 59 21 60 57c0 35 -27 58 -61 58c-38 0 -60 -20 -60 -56s24 -59 61 -59zM316 -12c-163 0 -268 64 -268 275c0 216 110 297 247 297
c153 0 217 -97 217 -275v-37h-359c1 -144 83 -173 179 -173c52 0 96 8 150 24l18 -81c-48 -18 -113 -30 -184 -30zM156 321h248c0 97 -35 160 -115 160c-72 0 -126 -53 -133 -160z" />
    <glyph glyph-name="uni1E1F" unicode="&#x1e1f;" horiz-adv-x="348" 
d="M193 831l-72 -73l-71 73l71 71zM109 -189v656h-80v79h80v32c0 144 86 189 188 189c39 0 64 -5 88 -13l-17 -81c-16 4 -36 8 -68 8c-60 0 -87 -32 -87 -103v-32h117v-79h-117v-656h-104z" />
    <glyph glyph-name="uni00660304" horiz-adv-x="348" 
d="M111 814v83h285v-83h-285zM109 -189v656h-80v79h80v32c0 144 86 189 188 189c39 0 64 -5 88 -13l-17 -81c-16 4 -36 8 -68 8c-60 0 -87 -32 -87 -103v-32h117v-79h-117v-656h-104z" />
    <glyph glyph-name="gbreve" unicode="&#x11f;" horiz-adv-x="595" 
d="M269 -230c-57 0 -135 11 -181 31l19 90c53 -17 112 -29 167 -29c78 0 141 24 141 130v41c-37 -27 -65 -40 -124 -40c-111 0 -243 41 -243 266c0 214 121 301 284 301c52 0 124 -9 186 -25v-560c0 -141 -106 -205 -249 -205zM306 75c47 0 80 18 108 37v346
c-15 4 -48 13 -90 13c-128 0 -173 -83 -173 -205c0 -140 59 -191 155 -191zM319 636c-87 0 -140 49 -165 92l56 49c31 -35 68 -60 112 -60c49 0 85 27 110 60l53 -47c-24 -39 -77 -94 -166 -94z" />
    <glyph glyph-name="gcircumflex" unicode="&#x11d;" horiz-adv-x="595" 
d="M449 622l-122 85l-129 -85l-45 59l176 118l165 -117zM269 -230c-57 0 -135 11 -181 31l19 90c53 -17 112 -29 167 -29c78 0 141 24 141 130v41c-37 -27 -65 -40 -124 -40c-111 0 -243 41 -243 266c0 214 121 301 284 301c52 0 124 -9 186 -25v-560
c0 -141 -106 -205 -249 -205zM306 75c47 0 80 18 108 37v346c-15 4 -48 13 -90 13c-128 0 -173 -83 -173 -205c0 -140 59 -191 155 -191z" />
    <glyph glyph-name="gcommaaccent" unicode="&#x123;" horiz-adv-x="595" 
d="M272 606l44 199h83l-25 -199h-102zM269 -230c-57 0 -135 11 -181 31l19 90c53 -17 112 -29 167 -29c78 0 141 24 141 130v41c-37 -27 -65 -40 -124 -40c-111 0 -243 41 -243 266c0 214 121 301 284 301c52 0 124 -9 186 -25v-560c0 -141 -106 -205 -249 -205zM306 75
c47 0 80 18 108 37v346c-15 4 -48 13 -90 13c-128 0 -173 -83 -173 -205c0 -140 59 -191 155 -191z" />
    <glyph glyph-name="gdotaccent" unicode="&#x121;" horiz-adv-x="595" 
d="M335 635l-79 80l79 80l80 -80zM269 -230c-57 0 -135 11 -181 31l19 90c53 -17 112 -29 167 -29c78 0 141 24 141 130v41c-37 -27 -65 -40 -124 -40c-111 0 -243 41 -243 266c0 214 121 301 284 301c52 0 124 -9 186 -25v-560c0 -141 -106 -205 -249 -205zM306 75
c47 0 80 18 108 37v346c-15 4 -48 13 -90 13c-128 0 -173 -83 -173 -205c0 -140 59 -191 155 -191z" />
    <glyph glyph-name="gbreve.alt" horiz-adv-x="592" 
d="M264 194c-31 0 -63 4 -92 14c-13 -19 -19 -36 -19 -48c0 -23 17 -39 41 -39h118c147 0 212 -57 212 -146c0 -107 -94 -205 -276 -205c-140 0 -215 58 -215 146c0 53 26 102 75 137c-25 17 -37 44 -37 74c0 34 17 73 51 105c-39 27 -66 71 -66 135c0 104 72 192 213 192
c75 0 119 -26 132 -35l161 6v-80h-94c4 -11 15 -42 15 -79c0 -109 -94 -177 -219 -177zM313 34h-130c-8 0 -15 0 -22 1c-31 -28 -45 -60 -45 -90c0 -56 46 -93 142 -93c109 0 175 52 175 111c0 39 -33 71 -120 71zM267 263c73 0 118 45 118 111c0 64 -41 114 -116 114
c-72 0 -116 -47 -116 -115c0 -70 46 -110 114 -110zM267 636c-87 0 -140 49 -165 92l56 49c31 -35 68 -60 112 -60c49 0 85 27 110 60l53 -47c-24 -39 -77 -94 -166 -94z" />
    <glyph glyph-name="gcircumflex.alt" horiz-adv-x="592" 
d="M264 194c-31 0 -63 4 -92 14c-13 -19 -19 -36 -19 -48c0 -23 17 -39 41 -39h118c147 0 212 -57 212 -146c0 -107 -94 -205 -276 -205c-140 0 -215 58 -215 146c0 53 26 102 75 137c-25 17 -37 44 -37 74c0 34 17 73 51 105c-39 27 -66 71 -66 135c0 104 72 192 213 192
c75 0 119 -26 132 -35l161 6v-80h-94c4 -11 15 -42 15 -79c0 -109 -94 -177 -219 -177zM313 34h-130c-8 0 -15 0 -22 1c-31 -28 -45 -60 -45 -90c0 -56 46 -93 142 -93c109 0 175 52 175 111c0 39 -33 71 -120 71zM267 263c73 0 118 45 118 111c0 64 -41 114 -116 114
c-72 0 -116 -47 -116 -115c0 -70 46 -110 114 -110zM389 622l-122 85l-129 -85l-45 59l176 118l165 -117z" />
    <glyph glyph-name="gcommaaccent.alt" horiz-adv-x="592" 
d="M264 194c-31 0 -63 4 -92 14c-13 -19 -19 -36 -19 -48c0 -23 17 -39 41 -39h118c147 0 212 -57 212 -146c0 -107 -94 -205 -276 -205c-140 0 -215 58 -215 146c0 53 26 102 75 137c-25 17 -37 44 -37 74c0 34 17 73 51 105c-39 27 -66 71 -66 135c0 104 72 192 213 192
c75 0 119 -26 132 -35l161 6v-80h-94c4 -11 15 -42 15 -79c0 -109 -94 -177 -219 -177zM313 34h-130c-8 0 -15 0 -22 1c-31 -28 -45 -60 -45 -90c0 -56 46 -93 142 -93c109 0 175 52 175 111c0 39 -33 71 -120 71zM267 263c73 0 118 45 118 111c0 64 -41 114 -116 114
c-72 0 -116 -47 -116 -115c0 -70 46 -110 114 -110zM209 623l41 208h75l-21 -208h-95z" />
    <glyph glyph-name="gdotaccent.alt" horiz-adv-x="592" 
d="M264 194c-31 0 -63 4 -92 14c-13 -19 -19 -36 -19 -48c0 -23 17 -39 41 -39h118c147 0 212 -57 212 -146c0 -107 -94 -205 -276 -205c-140 0 -215 58 -215 146c0 53 26 102 75 137c-25 17 -37 44 -37 74c0 34 17 73 51 105c-39 27 -66 71 -66 135c0 104 72 192 213 192
c75 0 119 -26 132 -35l161 6v-80h-94c4 -11 15 -42 15 -79c0 -109 -94 -177 -219 -177zM313 34h-130c-8 0 -15 0 -22 1c-31 -28 -45 -60 -45 -90c0 -56 46 -93 142 -93c109 0 175 52 175 111c0 39 -33 71 -120 71zM267 263c73 0 118 45 118 111c0 64 -41 114 -116 114
c-72 0 -116 -47 -116 -115c0 -70 46 -110 114 -110zM264 635l-79 80l79 80l80 -80z" />
    <glyph glyph-name="uni01E7" unicode="&#x1e7;" horiz-adv-x="595" 
d="M316 616l-171 117l42 60l130 -87l130 87l45 -60zM269 -230c-57 0 -135 11 -181 31l19 90c53 -17 112 -29 167 -29c78 0 141 24 141 130v41c-37 -27 -65 -40 -124 -40c-111 0 -243 41 -243 266c0 214 121 301 284 301c52 0 124 -9 186 -25v-560
c0 -141 -106 -205 -249 -205zM306 75c47 0 80 18 108 37v346c-15 4 -48 13 -90 13c-128 0 -173 -83 -173 -205c0 -140 59 -191 155 -191z" />
    <glyph glyph-name="uni01F5" unicode="&#x1f5;" horiz-adv-x="595" 
d="M253 613l-34 64l203 126l40 -74zM269 -230c-57 0 -135 11 -181 31l19 90c53 -17 112 -29 167 -29c78 0 141 24 141 130v41c-37 -27 -65 -40 -124 -40c-111 0 -243 41 -243 266c0 214 121 301 284 301c52 0 124 -9 186 -25v-560c0 -141 -106 -205 -249 -205zM306 75
c47 0 80 18 108 37v346c-15 4 -48 13 -90 13c-128 0 -173 -83 -173 -205c0 -140 59 -191 155 -191z" />
    <glyph glyph-name="uni1E21" unicode="&#x1e21;" horiz-adv-x="595" 
d="M171 662v83h285v-83h-285zM269 -230c-57 0 -135 11 -181 31l19 90c53 -17 112 -29 167 -29c78 0 141 24 141 130v41c-37 -27 -65 -40 -124 -40c-111 0 -243 41 -243 266c0 214 121 301 284 301c52 0 124 -9 186 -25v-560c0 -141 -106 -205 -249 -205zM306 75
c47 0 80 18 108 37v346c-15 4 -48 13 -90 13c-128 0 -173 -83 -173 -205c0 -140 59 -191 155 -191z" />
    <glyph glyph-name="hbar" unicode="&#x127;" horiz-adv-x="617" 
d="M79 0v619h-66v59h66v76h105v-76h136v-59h-136v-133c36 27 106 74 187 74c163 0 172 -108 172 -210v-350h-102v335c0 89 -14 134 -101 134c-60 0 -132 -43 -156 -57v-412h-105z" />
    <glyph glyph-name="hcircumflex" unicode="&#x125;" horiz-adv-x="617" 
d="M79 0v754h105v-269c42 31 106 74 189 74c161 0 170 -110 170 -211v-348h-102v333c0 89 -16 134 -97 134c-64 0 -119 -31 -160 -56v-411h-105zM4 758l-36 69l167 82l163 -81l-37 -70l-127 58z" />
    <glyph glyph-name="uni021F" unicode="&#x21f;" horiz-adv-x="617" 
d="M79 0v754h105v-269c42 31 106 74 189 74c161 0 170 -110 170 -211v-348h-102v333c0 89 -16 134 -97 134c-64 0 -119 -31 -160 -56v-411h-105zM498 825l-170 -81l-165 81l36 70l130 -58l131 58z" />
    <glyph glyph-name="uni1E25" unicode="&#x1e25;" horiz-adv-x="617" 
d="M79 0v754h105v-269c42 31 106 74 189 74c161 0 170 -110 170 -211v-348h-102v333c0 89 -16 134 -97 134c-64 0 -119 -31 -160 -56v-411h-105zM310 -238l-79 80l79 79l80 -79z" />
    <glyph glyph-name="uni1E96" unicode="&#x1e96;" horiz-adv-x="617" 
d="M79 0v754h105v-269c42 31 106 74 189 74c161 0 170 -110 170 -211v-348h-102v333c0 89 -16 134 -97 134c-64 0 -119 -31 -160 -56v-411h-105zM166 -207v84h285v-84h-285z" />
    <glyph glyph-name="uni1E2B" unicode="&#x1e2b;" horiz-adv-x="617" 
d="M79 0v754h105v-269c42 31 106 74 189 74c161 0 170 -110 170 -211v-348h-102v333c0 89 -16 134 -97 134c-64 0 -119 -31 -160 -56v-411h-105zM310 -218c-85 0 -142 46 -174 94l55 51c39 -42 80 -62 120 -62s81 19 119 62l53 -50c-33 -48 -91 -95 -173 -95z" />
    <glyph glyph-name="uni1E23" unicode="&#x1e23;" horiz-adv-x="617" 
d="M79 0v754h105v-269c42 31 106 74 189 74c161 0 170 -110 170 -211v-348h-102v333c0 89 -16 134 -97 134c-64 0 -119 -31 -160 -56v-411h-105zM345 635l-79 80l79 80l80 -80z" />
    <glyph glyph-name="iacute" unicode="&#xed;" horiz-adv-x="264" 
d="M72 613l-34 64l203 126l40 -74zM79 0v546h106v-546h-106z" />
    <glyph glyph-name="igrave" unicode="&#xec;" horiz-adv-x="264" 
d="M79 0v546h106v-546h-106zM180 614l-208 116l41 76l203 -128z" />
    <glyph glyph-name="icircumflex" unicode="&#xee;" horiz-adv-x="264" 
d="M256 622l-122 85l-129 -85l-45 59l176 118l165 -117zM79 0v546h106v-546h-106z" />
    <glyph glyph-name="idieresis" unicode="&#xef;" horiz-adv-x="264" 
d="M29 648l-67 68l67 67l67 -67zM239 648l-67 68l67 67l68 -67zM79 0v546h106v-546h-106z" />
    <glyph glyph-name="ibreve" unicode="&#x12d;" horiz-adv-x="264" 
d="M79 0v546h106v-546h-106zM135 636c-87 0 -140 49 -165 92l56 49c31 -35 68 -60 112 -60c49 0 85 27 110 60l53 -47c-24 -39 -77 -94 -166 -94z" />
    <glyph glyph-name="dotlessi" unicode="&#x131;" horiz-adv-x="264" 
d="M79 0v546h106v-546h-106z" />
    <glyph glyph-name="imacron" unicode="&#x12b;" horiz-adv-x="264" 
d="M79 0v546h106v-546h-106zM-10 663v83h285v-83h-285z" />
    <glyph glyph-name="iogonek" unicode="&#x12f;" horiz-adv-x="264" 
d="M117 -238c-101 0 -130 50 -130 113c0 51 49 97 92 128v543h105v-546c-48 -29 -106 -75 -106 -117c0 -30 26 -41 53 -41c22 0 44 6 59 13l21 -72c-20 -10 -43 -21 -94 -21zM131 635l-79 80l79 80l80 -80z" />
    <glyph glyph-name="itilde" unicode="&#x129;" horiz-adv-x="264" 
d="M79 0v546h106v-546h-106zM190 641c-48 0 -83 38 -125 38c-27 0 -44 -6 -69 -26l-40 54c14 15 53 56 116 56c56 0 85 -37 123 -37c33 0 56 15 75 27l38 -53c-13 -15 -54 -59 -118 -59z" />
    <glyph glyph-name="uni01D0" unicode="&#x1d0;" horiz-adv-x="264" 
d="M131 616l-171 117l42 60l130 -87l130 87l45 -60zM79 0v546h106v-546h-106z" />
    <glyph glyph-name="uni1EC9" unicode="&#x1ec9;" horiz-adv-x="264" 
d="M79 0v546h106v-546h-106zM219 756c0 -70 -57 -112 -95 -128l-43 47c16 7 55 32 55 73c0 29 -23 38 -41 38c-14 0 -29 -2 -42 -9l-6 68c17 7 40 12 67 12c58 0 105 -40 105 -101z" />
    <glyph glyph-name="uni1ECB" unicode="&#x1ecb;" horiz-adv-x="264" 
d="M211 -159l-80 -79l-79 79l79 80zM79 0v546h106v-546h-106zM131 635l-79 80l79 80l80 -80z" />
    <glyph glyph-name="jcircumflex" unicode="&#x135;" horiz-adv-x="264" 
d="M252 622l-122 85l-129 -85l-45 59l176 118l165 -117zM-10 -224c-33 0 -67 8 -88 16l19 83c19 -6 46 -10 67 -10c71 0 91 45 91 123v558h105v-559c0 -169 -88 -211 -194 -211z" />
    <glyph glyph-name="uni006A0301" horiz-adv-x="264" 
d="M78 613l-34 64l203 126l40 -74zM-10 -224c-33 0 -67 8 -88 16l19 83c19 -6 46 -10 67 -10c71 0 91 45 91 123v558h105v-559c0 -169 -88 -211 -194 -211z" />
    <glyph glyph-name="uni0237" unicode="&#x237;" horiz-adv-x="264" 
d="M-10 -224c-33 0 -67 8 -88 16l19 83c19 -6 46 -10 67 -10c71 0 91 45 91 123v558h105v-559c0 -169 -88 -211 -194 -211z" />
    <glyph glyph-name="kcommaaccent" unicode="&#x137;" horiz-adv-x="555" 
d="M346 -58l-41 -208h-76l21 208h96zM520 -9c-51 3 -113 13 -183 103l-150 192l219 260h117l-222 -254l102 -124c46 -56 91 -87 135 -99zM79 0v754h105v-754h-105z" />
    <glyph glyph-name="uni01E9" unicode="&#x1e9;" horiz-adv-x="555" 
d="M520 -9c-51 3 -113 13 -183 103l-150 192l219 260h117l-222 -254l102 -124c46 -56 91 -87 135 -99zM79 0v754h105v-754h-105zM472 825l-170 -81l-165 81l36 70l130 -58l131 58z" />
    <glyph glyph-name="uni1E35" unicode="&#x1e35;" horiz-adv-x="555" 
d="M520 -9c-51 3 -113 13 -183 103l-150 192l219 260h117l-222 -254l102 -124c46 -56 91 -87 135 -99zM79 0v754h105v-754h-105zM148 -207v84h285v-84h-285z" />
    <glyph glyph-name="uni1E33" unicode="&#x1e33;" horiz-adv-x="555" 
d="M285 -238l-79 80l79 79l80 -79zM520 -9c-51 3 -113 13 -183 103l-150 192l219 260h117l-222 -254l102 -124c46 -56 91 -87 135 -99zM79 0v754h105v-754h-105z" />
    <glyph glyph-name="lacute" unicode="&#x13a;" horiz-adv-x="263" 
d="M87 787l-19 70l234 79l23 -86zM79 0v754h105v-754h-105z" />
    <glyph glyph-name="lcaron" unicode="&#x13e;" horiz-adv-x="321" 
d="M352 754l-41 -208h-75l21 208h95zM79 0v754h105v-754h-105z" />
    <glyph glyph-name="lcommaaccent" unicode="&#x13c;" horiz-adv-x="263" 
d="M181 -58l-41 -208h-76l21 208h96zM79 0v754h105v-754h-105z" />
    <glyph glyph-name="ldot" unicode="&#x140;" horiz-adv-x="388" 
d="M309 289l-76 77l76 76l76 -76zM79 0v754h105v-754h-105z" />
    <glyph glyph-name="lslash" unicode="&#x142;" horiz-adv-x="328" 
d="M107 0v321l-83 -48v79l83 47v355h105v-294l89 51v-78l-89 -52v-381h-105z" />
    <glyph glyph-name="uni1E3B" unicode="&#x1e3b;" horiz-adv-x="263" 
d="M79 0v754h105v-754h-105zM-11 -207v84h285v-84h-285z" />
    <glyph glyph-name="uni1E37" unicode="&#x1e37;" horiz-adv-x="263" 
d="M131 -238l-79 80l79 79l80 -79zM79 0v754h105v-754h-105z" />
    <glyph glyph-name="uni1E39" unicode="&#x1e39;" horiz-adv-x="263" 
d="M130 -238l-79 80l79 79l80 -79zM-9 806v83h285v-83h-285zM79 0v754h105v-754h-105z" />
    <glyph glyph-name="uni1E43" unicode="&#x1e43;" horiz-adv-x="951" 
d="M474 -238l-79 80l79 79l80 -79zM79 0v546h105v-62c51 40 109 75 181 75c75 0 127 -34 146 -81c47 37 113 81 196 81c163 0 170 -118 170 -210v-349h-105v334c0 80 -14 134 -97 134c-55 0 -107 -27 -150 -56c3 -20 5 -42 5 -62v-350h-104v334c0 82 -14 134 -93 134
c-53 0 -107 -26 -149 -58v-410h-105z" />
    <glyph glyph-name="uni006D0310" horiz-adv-x="951" 
d="M482 634c-86 0 -145 52 -170 98l57 49c30 -35 70 -63 116 -63c49 0 88 28 118 64l54 -47c-25 -42 -85 -101 -175 -101zM483 765l-71 73l71 72l72 -72zM79 0v546h105v-62c51 40 109 75 181 75c75 0 127 -34 146 -81c47 37 113 81 196 81c163 0 170 -118 170 -210v-349
h-105v334c0 80 -14 134 -97 134c-55 0 -107 -27 -150 -56c3 -20 5 -42 5 -62v-350h-104v334c0 82 -14 134 -93 134c-53 0 -107 -26 -149 -58v-410h-105z" />
    <glyph glyph-name="uni1E41" unicode="&#x1e41;" horiz-adv-x="951" 
d="M79 0v546h105v-62c51 40 109 75 181 75c75 0 127 -34 146 -81c47 37 113 81 196 81c163 0 170 -118 170 -210v-349h-105v334c0 80 -14 134 -97 134c-55 0 -107 -27 -150 -56c3 -20 5 -42 5 -62v-350h-104v334c0 82 -14 134 -93 134c-53 0 -107 -26 -149 -58v-410h-105z
M479 635l-79 80l79 80l80 -80z" />
    <glyph glyph-name="uni1E3F" unicode="&#x1e3f;" horiz-adv-x="951" 
d="M459 613l-34 64l203 126l40 -74zM79 0v546h105v-62c51 40 109 75 181 75c75 0 127 -34 146 -81c47 37 113 81 196 81c163 0 170 -118 170 -210v-349h-105v334c0 80 -14 134 -97 134c-55 0 -107 -27 -150 -56c3 -20 5 -42 5 -62v-350h-104v334c0 82 -14 134 -93 134
c-53 0 -107 -26 -149 -58v-410h-105z" />
    <glyph glyph-name="ntilde" unicode="&#xf1;" horiz-adv-x="618" 
d="M371 641c-48 0 -83 38 -125 38c-27 0 -44 -6 -69 -26l-40 54c14 15 53 56 116 56c56 0 85 -37 123 -37c33 0 56 15 75 27l38 -53c-13 -15 -54 -59 -118 -59zM79 0v546h105v-60c55 40 109 74 194 74c154 0 166 -111 166 -211v-349h-103v334c0 89 -16 135 -97 135
c-65 0 -117 -28 -160 -57v-412h-105z" />
    <glyph glyph-name="nacute" unicode="&#x144;" horiz-adv-x="618" 
d="M253 613l-34 64l203 126l40 -74zM79 0v546h105v-60c55 40 109 74 194 74c154 0 166 -111 166 -211v-349h-103v334c0 89 -16 135 -97 135c-65 0 -117 -28 -160 -57v-412h-105z" />
    <glyph glyph-name="napostrophe" unicode="&#x149;" horiz-adv-x="662" 
d="M-27 534c19 38 29 93 29 126v95h98v-57c0 -73 -20 -124 -47 -164h-80zM122 0v546h105v-60c55 40 109 74 194 74c154 0 166 -111 166 -211v-349h-103v334c0 89 -16 135 -97 135c-65 0 -117 -28 -160 -57v-412h-105z" />
    <glyph glyph-name="ncaron" unicode="&#x148;" horiz-adv-x="618" 
d="M306 617l-171 117l42 60l130 -87l130 87l45 -60zM79 0v546h105v-60c55 40 109 74 194 74c154 0 166 -111 166 -211v-349h-103v334c0 89 -16 135 -97 135c-65 0 -117 -28 -160 -57v-412h-105z" />
    <glyph glyph-name="ncommaaccent" unicode="&#x146;" horiz-adv-x="618" 
d="M369 -58l-41 -208h-76l21 208h96zM79 0v546h105v-60c55 40 109 74 194 74c154 0 166 -111 166 -211v-349h-103v334c0 89 -16 135 -97 135c-65 0 -117 -28 -160 -57v-412h-105z" />
    <glyph glyph-name="uni01F9" unicode="&#x1f9;" horiz-adv-x="618" 
d="M374 613l-208 116l41 76l203 -128zM79 0v546h105v-60c55 40 109 74 194 74c154 0 166 -111 166 -211v-349h-103v334c0 89 -16 135 -97 135c-65 0 -117 -28 -160 -57v-412h-105z" />
    <glyph glyph-name="uni1E49" unicode="&#x1e49;" horiz-adv-x="618" 
d="M166 -207v84h285v-84h-285zM79 0v546h105v-60c55 40 109 74 194 74c154 0 166 -111 166 -211v-349h-103v334c0 89 -16 135 -97 135c-65 0 -117 -28 -160 -57v-412h-105z" />
    <glyph glyph-name="uni1E45" unicode="&#x1e45;" horiz-adv-x="618" 
d="M310 635l-79 80l79 80l80 -80zM79 0v546h105v-60c55 40 109 74 194 74c154 0 166 -111 166 -211v-349h-103v334c0 89 -16 135 -97 135c-65 0 -117 -28 -160 -57v-412h-105z" />
    <glyph glyph-name="uni1E47" unicode="&#x1e47;" horiz-adv-x="618" 
d="M315 -238l-79 80l79 79l80 -79zM79 0v546h105v-60c55 40 109 74 194 74c154 0 166 -111 166 -211v-349h-103v334c0 89 -16 135 -97 135c-65 0 -117 -28 -160 -57v-412h-105z" />
    <glyph glyph-name="uni006E0304" horiz-adv-x="618" 
d="M163 663v83h285v-83h-285zM79 0v546h105v-60c55 40 109 74 194 74c154 0 166 -111 166 -211v-349h-103v334c0 89 -16 135 -97 135c-65 0 -117 -28 -160 -57v-412h-105z" />
    <glyph glyph-name="eng" unicode="&#x14b;" horiz-adv-x="618" 
d="M544 -11c0 -169 -88 -209 -194 -209c-32 0 -67 8 -87 15l18 83c7 -2 47 -9 68 -9c70 0 92 43 92 121v344c0 90 -14 134 -101 134c-60 0 -125 -36 -156 -56v-412h-105v546h105v-60c36 27 105 74 187 74c163 0 173 -108 173 -210v-361z" />
    <glyph glyph-name="oacute" unicode="&#xf3;" horiz-adv-x="608" 
d="M229 613l-34 64l203 126l40 -74zM299 -12c-158 0 -252 103 -252 279c0 187 105 293 263 293c167 0 251 -106 251 -285c0 -194 -111 -287 -262 -287zM306 73c119 0 149 96 149 198c0 99 -28 205 -150 205c-121 0 -153 -105 -153 -205c0 -106 37 -198 154 -198z" />
    <glyph glyph-name="ograve" unicode="&#xf2;" horiz-adv-x="608" 
d="M376 614l-208 116l41 76l203 -128zM299 -12c-158 0 -252 103 -252 279c0 187 105 293 263 293c167 0 251 -106 251 -285c0 -194 -111 -287 -262 -287zM306 73c119 0 149 96 149 198c0 99 -28 205 -150 205c-121 0 -153 -105 -153 -205c0 -106 37 -198 154 -198z" />
    <glyph glyph-name="ocircumflex" unicode="&#xf4;" horiz-adv-x="608" 
d="M425 622l-122 85l-129 -85l-45 59l176 118l165 -117zM299 -12c-158 0 -252 103 -252 279c0 187 105 293 263 293c167 0 251 -106 251 -285c0 -194 -111 -287 -262 -287zM306 73c119 0 149 96 149 198c0 99 -28 205 -150 205c-121 0 -153 -105 -153 -205
c0 -106 37 -198 154 -198z" />
    <glyph glyph-name="odieresis" unicode="&#xf6;" horiz-adv-x="608" 
d="M199 648l-67 68l67 67l67 -67zM409 648l-67 68l67 67l68 -67zM299 -12c-158 0 -252 103 -252 279c0 187 105 293 263 293c167 0 251 -106 251 -285c0 -194 -111 -287 -262 -287zM306 73c119 0 149 96 149 198c0 99 -28 205 -150 205c-121 0 -153 -105 -153 -205
c0 -106 37 -198 154 -198z" />
    <glyph glyph-name="otilde" unicode="&#xf5;" horiz-adv-x="608" 
d="M299 -12c-158 0 -252 103 -252 279c0 187 105 293 263 293c167 0 251 -106 251 -285c0 -194 -111 -287 -262 -287zM306 73c119 0 149 96 149 198c0 99 -28 205 -150 205c-121 0 -153 -105 -153 -205c0 -106 37 -198 154 -198zM360 641c-48 0 -83 38 -125 38
c-27 0 -44 -6 -69 -26l-40 54c14 15 53 56 116 56c56 0 85 -37 123 -37c33 0 56 15 75 27l38 -53c-13 -15 -54 -59 -118 -59z" />
    <glyph glyph-name="obreve" unicode="&#x14f;" horiz-adv-x="608" 
d="M299 -12c-158 0 -252 103 -252 279c0 187 105 293 263 293c167 0 251 -106 251 -285c0 -194 -111 -287 -262 -287zM306 73c119 0 149 96 149 198c0 99 -28 205 -150 205c-121 0 -153 -105 -153 -205c0 -106 37 -198 154 -198zM303 636c-87 0 -140 49 -165 92l56 49
c31 -35 68 -60 112 -60c49 0 85 27 110 60l53 -47c-24 -39 -77 -94 -166 -94z" />
    <glyph glyph-name="ohungarumlaut" unicode="&#x151;" horiz-adv-x="608" 
d="M158 608l-45 57l185 153l55 -70zM383 610l-36 63l204 128l44 -76zM299 -12c-158 0 -252 103 -252 279c0 187 105 293 263 293c167 0 251 -106 251 -285c0 -194 -111 -287 -262 -287zM306 73c119 0 149 96 149 198c0 99 -28 205 -150 205c-121 0 -153 -105 -153 -205
c0 -106 37 -198 154 -198z" />
    <glyph glyph-name="omacron" unicode="&#x14d;" horiz-adv-x="608" 
d="M158 663v83h285v-83h-285zM299 -12c-158 0 -252 103 -252 279c0 187 105 293 263 293c167 0 251 -106 251 -285c0 -194 -111 -287 -262 -287zM306 73c119 0 149 96 149 198c0 99 -28 205 -150 205c-121 0 -153 -105 -153 -205c0 -106 37 -198 154 -198z" />
    <glyph glyph-name="oslash" unicode="&#xf8;" horiz-adv-x="630" 
d="M309 -12c-69 0 -125 19 -167 55l-64 -71l-39 38l67 74c-32 46 -49 108 -49 183c0 187 105 293 263 293c70 0 125 -19 166 -54l60 66l39 -38l-62 -69c32 -48 48 -112 48 -190c0 -194 -111 -287 -262 -287zM162 271c0 -39 5 -76 17 -107l241 268c-23 27 -56 44 -105 44
c-121 0 -153 -105 -153 -205zM316 73c119 0 149 96 149 198c0 38 -4 78 -17 112l-241 -267c24 -27 60 -43 109 -43z" />
    <glyph glyph-name="oslashacute" unicode="&#x1ff;" horiz-adv-x="630" 
d="M309 -12c-69 0 -125 19 -167 55l-64 -71l-39 38l67 74c-32 46 -49 108 -49 183c0 187 105 293 263 293c70 0 125 -19 166 -54l60 66l39 -38l-62 -69c32 -48 48 -112 48 -190c0 -194 -111 -287 -262 -287zM162 271c0 -39 5 -76 17 -107l241 268c-23 27 -56 44 -105 44
c-121 0 -153 -105 -153 -205zM316 73c119 0 149 96 149 198c0 38 -4 78 -17 112l-241 -267c24 -27 60 -43 109 -43zM247 613l-34 64l203 126l40 -74z" />
    <glyph glyph-name="uni01D2" unicode="&#x1d2;" horiz-adv-x="608" 
d="M301 616l-171 117l42 60l130 -87l130 87l45 -60zM299 -12c-158 0 -252 103 -252 279c0 187 105 293 263 293c167 0 251 -106 251 -285c0 -194 -111 -287 -262 -287zM306 73c119 0 149 96 149 198c0 99 -28 205 -150 205c-121 0 -153 -105 -153 -205
c0 -106 37 -198 154 -198z" />
    <glyph glyph-name="uni01EB" unicode="&#x1eb;" horiz-adv-x="608" 
d="M422 -216c-21 -13 -53 -23 -92 -23c-83 0 -129 48 -129 114c0 43 26 82 62 115c-136 14 -216 114 -216 277c0 187 105 293 263 293c167 0 251 -106 251 -285c0 -151 -67 -241 -168 -273c-49 -28 -99 -69 -99 -113c0 -34 24 -51 54 -51c22 0 39 6 54 14zM306 73
c119 0 149 96 149 198c0 99 -28 205 -150 205c-121 0 -153 -105 -153 -205c0 -106 37 -198 154 -198z" />
    <glyph glyph-name="uni01ED" unicode="&#x1ed;" horiz-adv-x="608" 
d="M422 -216c-21 -13 -53 -23 -92 -23c-83 0 -129 48 -129 114c0 43 26 82 62 115c-136 14 -216 114 -216 277c0 187 105 293 263 293c167 0 251 -106 251 -285c0 -151 -67 -241 -168 -273c-49 -28 -99 -69 -99 -113c0 -34 24 -51 54 -51c22 0 39 6 54 14zM306 73
c119 0 149 96 149 198c0 99 -28 205 -150 205c-121 0 -153 -105 -153 -205c0 -106 37 -198 154 -198zM159 662v83h285v-83h-285z" />
    <glyph glyph-name="uni022F" unicode="&#x22f;" horiz-adv-x="608" 
d="M299 -12c-158 0 -252 103 -252 279c0 187 105 293 263 293c167 0 251 -106 251 -285c0 -194 -111 -287 -262 -287zM306 73c119 0 149 96 149 198c0 99 -28 205 -150 205c-121 0 -153 -105 -153 -205c0 -106 37 -198 154 -198zM302 635l-79 80l79 80l80 -80z" />
    <glyph glyph-name="ohorn" unicode="&#x1a1;" horiz-adv-x="625" 
d="M299 -12c-158 0 -252 103 -252 279c0 187 105 293 263 293c55 0 102 -12 139 -34c39 11 50 39 50 73c0 16 -4 32 -9 49h94c8 -19 11 -42 11 -59c0 -56 -32 -104 -79 -129c30 -47 45 -109 45 -185c0 -194 -111 -287 -262 -287zM306 73c119 0 149 96 149 198
c0 99 -28 205 -150 205c-121 0 -153 -105 -153 -205c0 -106 37 -198 154 -198z" />
    <glyph glyph-name="uni1ED3" unicode="&#x1ed3;" horiz-adv-x="608" 
d="M549 749l-52 -49l-154 148l62 59zM469 681l-45 -61l-124 86l-124 -85l-44 61l168 116zM299 -12c-158 0 -252 103 -252 279c0 187 105 293 263 293c167 0 251 -106 251 -285c0 -194 -111 -287 -262 -287zM306 73c119 0 149 96 149 198c0 99 -28 205 -150 205
c-121 0 -153 -105 -153 -205c0 -106 37 -198 154 -198z" />
    <glyph glyph-name="uni1ED1" unicode="&#x1ed1;" horiz-adv-x="608" 
d="M439 734l-46 50l137 129l57 -64zM432 620l-124 87l-124 -85l-44 61l168 116l169 -118zM299 -12c-158 0 -252 103 -252 279c0 187 105 293 263 293c167 0 251 -106 251 -285c0 -194 -111 -287 -262 -287zM306 73c119 0 149 96 149 198c0 99 -28 205 -150 205
c-121 0 -153 -105 -153 -205c0 -106 37 -198 154 -198z" />
    <glyph glyph-name="uni1ED7" unicode="&#x1ed7;" horiz-adv-x="608" 
d="M366 796c-47 0 -81 33 -122 33c-28 0 -44 -6 -66 -24l-38 53c15 15 49 51 111 51c54 0 84 -33 121 -33c31 0 52 14 71 26l35 -53c-14 -14 -50 -53 -112 -53zM436 611l-132 82l-130 -81l-44 62l175 111l172 -113zM299 -12c-158 0 -252 103 -252 279c0 187 105 293 263 293
c167 0 251 -106 251 -285c0 -194 -111 -287 -262 -287zM306 73c119 0 149 96 149 198c0 99 -28 205 -150 205c-121 0 -153 -105 -153 -205c0 -106 37 -198 154 -198z" />
    <glyph glyph-name="uni1ED5" unicode="&#x1ed5;" horiz-adv-x="608" 
d="M526 841c0 -59 -46 -97 -75 -113l-52 47c13 7 46 28 46 60c0 27 -23 37 -41 37c-13 0 -28 -4 -43 -9l-6 66c17 7 40 14 67 14c30 0 56 -10 75 -28c18 -17 29 -43 29 -74zM440 611l-131 82l-131 -80l-44 61l175 112l172 -114zM299 -12c-158 0 -252 103 -252 279
c0 187 105 293 263 293c167 0 251 -106 251 -285c0 -194 -111 -287 -262 -287zM306 73c119 0 149 96 149 198c0 99 -28 205 -150 205c-121 0 -153 -105 -153 -205c0 -106 37 -198 154 -198z" />
    <glyph glyph-name="uni1ED9" unicode="&#x1ed9;" horiz-adv-x="608" 
d="M422 622l-122 85l-129 -85l-45 59l176 118l165 -117zM382 -159l-80 -79l-79 79l79 80zM299 -12c-158 0 -252 103 -252 279c0 187 105 293 263 293c167 0 251 -106 251 -285c0 -194 -111 -287 -262 -287zM306 73c119 0 149 96 149 198c0 99 -28 205 -150 205
c-121 0 -153 -105 -153 -205c0 -106 37 -198 154 -198z" />
    <glyph glyph-name="uni1ECF" unicode="&#x1ecf;" horiz-adv-x="608" 
d="M299 -12c-158 0 -252 103 -252 279c0 187 105 293 263 293c167 0 251 -106 251 -285c0 -194 -111 -287 -262 -287zM306 73c119 0 149 96 149 198c0 99 -28 205 -150 205c-121 0 -153 -105 -153 -205c0 -106 37 -198 154 -198zM395 756c0 -70 -57 -112 -95 -128l-43 47
c16 7 55 32 55 73c0 29 -23 38 -41 38c-14 0 -29 -2 -42 -9l-6 68c17 7 40 12 67 12c58 0 105 -40 105 -101z" />
    <glyph glyph-name="uni1ECD" unicode="&#x1ecd;" horiz-adv-x="608" 
d="M383 -159l-80 -79l-79 79l79 80zM299 -12c-158 0 -252 103 -252 279c0 187 105 293 263 293c167 0 251 -106 251 -285c0 -194 -111 -287 -262 -287zM306 73c119 0 149 96 149 198c0 99 -28 205 -150 205c-121 0 -153 -105 -153 -205c0 -106 37 -198 154 -198z" />
    <glyph glyph-name="uni1EDD" unicode="&#x1edd;" horiz-adv-x="625" 
d="M299 -12c-158 0 -252 103 -252 279c0 187 105 293 263 293c55 0 102 -12 139 -34c39 11 50 39 50 73c0 16 -4 32 -9 49h94c8 -19 11 -42 11 -59c0 -56 -32 -104 -79 -129c30 -47 45 -109 45 -185c0 -194 -111 -287 -262 -287zM306 73c119 0 149 96 149 198
c0 99 -28 205 -150 205c-121 0 -153 -105 -153 -205c0 -106 37 -198 154 -198zM381 613l-208 116l41 76l203 -128z" />
    <glyph glyph-name="uni1EDB" unicode="&#x1edb;" horiz-adv-x="625" 
d="M299 -12c-158 0 -252 103 -252 279c0 187 105 293 263 293c55 0 102 -12 139 -34c39 11 50 39 50 73c0 16 -4 32 -9 49h94c8 -19 11 -42 11 -59c0 -56 -32 -104 -79 -129c30 -47 45 -109 45 -185c0 -194 -111 -287 -262 -287zM306 73c119 0 149 96 149 198
c0 99 -28 205 -150 205c-121 0 -153 -105 -153 -205c0 -106 37 -198 154 -198zM273 613l-34 64l203 126l40 -74z" />
    <glyph glyph-name="uni1EE1" unicode="&#x1ee1;" horiz-adv-x="625" 
d="M299 -12c-158 0 -252 103 -252 279c0 187 105 293 263 293c55 0 102 -12 139 -34c39 11 50 39 50 73c0 16 -4 32 -9 49h94c8 -19 11 -42 11 -59c0 -56 -32 -104 -79 -129c30 -47 45 -109 45 -185c0 -194 -111 -287 -262 -287zM306 73c119 0 149 96 149 198
c0 99 -28 205 -150 205c-121 0 -153 -105 -153 -205c0 -106 37 -198 154 -198zM366 641c-48 0 -83 38 -125 38c-27 0 -44 -6 -69 -26l-40 54c14 15 53 56 116 56c56 0 85 -37 123 -37c33 0 56 15 75 27l38 -53c-13 -15 -54 -59 -118 -59z" />
    <glyph glyph-name="uni1EDF" unicode="&#x1edf;" horiz-adv-x="625" 
d="M299 -12c-158 0 -252 103 -252 279c0 187 105 293 263 293c55 0 102 -12 139 -34c39 11 50 39 50 73c0 16 -4 32 -9 49h94c8 -19 11 -42 11 -59c0 -56 -32 -104 -79 -129c30 -47 45 -109 45 -185c0 -194 -111 -287 -262 -287zM306 73c119 0 149 96 149 198
c0 99 -28 205 -150 205c-121 0 -153 -105 -153 -205c0 -106 37 -198 154 -198zM397 756c0 -70 -57 -112 -95 -128l-43 47c16 7 55 32 55 73c0 29 -23 38 -41 38c-14 0 -29 -2 -42 -9l-6 68c17 7 40 12 67 12c58 0 105 -40 105 -101z" />
    <glyph glyph-name="uni1EE3" unicode="&#x1ee3;" horiz-adv-x="625" 
d="M299 -12c-158 0 -252 103 -252 279c0 187 105 293 263 293c55 0 102 -12 139 -34c39 11 50 39 50 73c0 16 -4 32 -9 49h94c8 -19 11 -42 11 -59c0 -56 -32 -104 -79 -129c30 -47 45 -109 45 -185c0 -194 -111 -287 -262 -287zM306 73c119 0 149 96 149 198
c0 99 -28 205 -150 205c-121 0 -153 -105 -153 -205c0 -106 37 -198 154 -198zM385 -159l-80 -79l-79 79l79 80z" />
    <glyph glyph-name="uni007000AF" horiz-adv-x="605" 
d="M79 -220v766h104v-43c47 33 90 56 157 56c129 0 217 -90 217 -272c0 -223 -132 -298 -279 -298c-34 0 -71 5 -95 8v-217h-104zM276 73c125 0 175 87 175 209c0 99 -35 188 -140 188c-57 0 -100 -26 -128 -41v-346c13 -2 56 -10 93 -10zM148 663v83h285v-83h-285z" />
    <glyph glyph-name="uni1E57" unicode="&#x1e57;" horiz-adv-x="605" 
d="M79 -220v766h104v-43c47 33 90 56 157 56c129 0 217 -90 217 -272c0 -223 -132 -298 -279 -298c-34 0 -71 5 -95 8v-217h-104zM276 73c125 0 175 87 175 209c0 99 -35 188 -140 188c-57 0 -100 -26 -128 -41v-346c13 -2 56 -10 93 -10zM304 635l-79 80l79 80l80 -80z" />
    <glyph glyph-name="racute" unicode="&#x155;" horiz-adv-x="406" 
d="M175 613l-34 64l203 126l40 -74zM79 0v546h105v-73c25 39 79 85 151 85c32 0 54 -5 67 -9l-15 -88c-22 5 -36 7 -67 7c-62 0 -112 -40 -136 -76v-392h-105z" />
    <glyph glyph-name="rcaron" unicode="&#x159;" horiz-adv-x="406" 
d="M221 617l-171 117l42 60l130 -87l130 87l45 -60zM79 0v546h105v-73c25 39 79 85 151 85c32 0 54 -5 67 -9l-15 -88c-22 5 -36 7 -67 7c-62 0 -112 -40 -136 -76v-392h-105z" />
    <glyph glyph-name="rcommaaccent" unicode="&#x157;" horiz-adv-x="406" 
d="M183 -58l-41 -208h-76l21 208h96zM79 0v546h105v-73c25 39 79 85 151 85c32 0 54 -5 67 -9l-15 -88c-22 5 -36 7 -67 7c-62 0 -112 -40 -136 -76v-392h-105z" />
    <glyph glyph-name="uni1E5F" unicode="&#x1e5f;" horiz-adv-x="406" 
d="M79 0v546h105v-73c25 39 79 85 151 85c32 0 54 -5 67 -9l-15 -88c-22 5 -36 7 -67 7c-62 0 -112 -40 -136 -76v-392h-105zM-12 -207v84h285v-84h-285z" />
    <glyph glyph-name="uni1E5B" unicode="&#x1e5b;" horiz-adv-x="406" 
d="M131 -238l-79 80l79 79l80 -79zM79 0v546h105v-73c25 39 79 85 151 85c32 0 54 -5 67 -9l-15 -88c-22 5 -36 7 -67 7c-62 0 -112 -40 -136 -76v-392h-105z" />
    <glyph glyph-name="uni1E5D" unicode="&#x1e5d;" horiz-adv-x="406" 
d="M131 -238l-79 80l79 79l80 -79zM79 0v546h105v-73c25 39 79 85 151 85c32 0 54 -5 67 -9l-15 -88c-22 5 -36 7 -67 7c-62 0 -112 -40 -136 -76v-392h-105zM99 662v83h285v-83h-285z" />
    <glyph glyph-name="uni00720325" horiz-adv-x="406" 
d="M134 -259c-58 0 -116 27 -116 101c0 71 56 106 114 106c48 0 115 -25 115 -104c0 -68 -52 -103 -113 -103zM133 -211c35 0 55 21 56 54c0 33 -26 55 -57 55c-36 0 -57 -19 -57 -53s23 -56 58 -56zM79 0v546h105v-73c25 39 79 85 151 85c32 0 54 -5 67 -9l-15 -88
c-22 5 -36 7 -67 7c-62 0 -112 -40 -136 -76v-392h-105z" />
    <glyph glyph-name="uni007203250304" horiz-adv-x="406" 
d="M131 -259c-58 0 -116 27 -116 101c0 71 56 106 114 106c48 0 115 -25 115 -104c0 -68 -52 -103 -113 -103zM130 -211c35 0 55 21 56 54c0 33 -26 55 -57 55c-36 0 -57 -19 -57 -53s23 -56 58 -56zM79 0v546h105v-73c25 39 79 85 151 85c32 0 54 -5 67 -9l-15 -88
c-22 5 -36 7 -67 7c-62 0 -112 -40 -136 -76v-392h-105zM97 662v83h285v-83h-285z" />
    <glyph glyph-name="uni1E59" unicode="&#x1e59;" horiz-adv-x="406" 
d="M79 0v546h105v-73c25 39 79 85 151 85c32 0 54 -5 67 -9l-15 -88c-22 5 -36 7 -67 7c-62 0 -112 -40 -136 -76v-392h-105zM236 635l-79 80l79 80l80 -80z" />
    <glyph glyph-name="uni00720300" horiz-adv-x="406" 
d="M79 0v546h105v-73c25 39 79 85 151 85c32 0 54 -5 67 -9l-15 -88c-22 5 -36 7 -67 7c-62 0 -112 -40 -136 -76v-392h-105zM277 614l-208 116l41 76l203 -128z" />
    <glyph glyph-name="sacute" unicode="&#x15b;" horiz-adv-x="464" 
d="M165 613l-34 64l203 126l40 -74zM201 -12c-50 0 -117 10 -161 24l15 84c54 -13 107 -22 151 -22c79 0 120 28 120 71c0 105 -275 72 -275 256c0 106 91 159 200 159c47 0 105 -10 149 -28l-21 -79c-37 13 -85 22 -127 22c-69 0 -98 -29 -98 -66c0 -109 273 -74 273 -259
c0 -124 -124 -162 -226 -162z" />
    <glyph glyph-name="scedilla" unicode="&#x15f;" horiz-adv-x="464" 
d="M201 -12c-50 0 -117 10 -161 24l15 84c54 -13 107 -22 151 -22c79 0 120 28 120 71c0 105 -275 72 -275 256c0 106 91 159 200 159c47 0 105 -10 149 -28l-21 -79c-37 13 -85 22 -127 22c-69 0 -98 -29 -98 -66c0 -109 273 -74 273 -259c0 -124 -124 -162 -226 -162z
M189 -253l-35 62c37 22 64 46 64 75c0 20 -10 42 -20 65h91c12 -22 21 -46 21 -71c1 -55 -47 -100 -121 -131z" />
    <glyph glyph-name="scaron" unicode="&#x161;" horiz-adv-x="464" 
d="M231 617l-171 117l42 60l130 -87l130 87l45 -60zM201 -12c-50 0 -117 10 -161 24l15 84c54 -13 107 -22 151 -22c79 0 120 28 120 71c0 105 -275 72 -275 256c0 106 91 159 200 159c47 0 105 -10 149 -28l-21 -79c-37 13 -85 22 -127 22c-69 0 -98 -29 -98 -66
c0 -109 273 -74 273 -259c0 -124 -124 -162 -226 -162z" />
    <glyph glyph-name="scircumflex" unicode="&#x15d;" horiz-adv-x="464" 
d="M353 622l-122 85l-129 -85l-45 59l176 118l165 -117zM201 -12c-50 0 -117 10 -161 24l15 84c54 -13 107 -22 151 -22c79 0 120 28 120 71c0 105 -275 72 -275 256c0 106 91 159 200 159c47 0 105 -10 149 -28l-21 -79c-37 13 -85 22 -127 22c-69 0 -98 -29 -98 -66
c0 -109 273 -74 273 -259c0 -124 -124 -162 -226 -162z" />
    <glyph glyph-name="uni00730331" horiz-adv-x="464" 
d="M201 -12c-50 0 -117 10 -161 24l15 84c54 -13 107 -22 151 -22c79 0 120 28 120 71c0 105 -275 72 -275 256c0 106 91 159 200 159c47 0 105 -10 149 -28l-21 -79c-37 13 -85 22 -127 22c-69 0 -98 -29 -98 -66c0 -109 273 -74 273 -259c0 -124 -124 -162 -226 -162z
M85 -207v84h285v-84h-285z" />
    <glyph glyph-name="uni00730300" horiz-adv-x="464" 
d="M201 -12c-50 0 -117 10 -161 24l15 84c54 -13 107 -22 151 -22c79 0 120 28 120 71c0 105 -275 72 -275 256c0 106 91 159 200 159c47 0 105 -10 149 -28l-21 -79c-37 13 -85 22 -127 22c-69 0 -98 -29 -98 -66c0 -109 273 -74 273 -259c0 -124 -124 -162 -226 -162z
M307 613l-208 116l41 76l203 -128z" />
    <glyph glyph-name="uni1E61" unicode="&#x1e61;" horiz-adv-x="464" 
d="M201 -12c-50 0 -117 10 -161 24l15 84c54 -13 107 -22 151 -22c79 0 120 28 120 71c0 105 -275 72 -275 256c0 106 91 159 200 159c47 0 105 -10 149 -28l-21 -79c-37 13 -85 22 -127 22c-69 0 -98 -29 -98 -66c0 -109 273 -74 273 -259c0 -124 -124 -162 -226 -162z
M230 635l-79 80l79 80l80 -80z" />
    <glyph glyph-name="uni00730306" horiz-adv-x="464" 
d="M201 -12c-50 0 -117 10 -161 24l15 84c54 -13 107 -22 151 -22c79 0 120 28 120 71c0 105 -275 72 -275 256c0 106 91 159 200 159c47 0 105 -10 149 -28l-21 -79c-37 13 -85 22 -127 22c-69 0 -98 -29 -98 -66c0 -109 273 -74 273 -259c0 -124 -124 -162 -226 -162z
M228 636c-87 0 -140 49 -165 92l56 49c31 -35 68 -60 112 -60c49 0 85 27 110 60l53 -47c-24 -39 -77 -94 -166 -94z" />
    <glyph glyph-name="uni1E63" unicode="&#x1e63;" horiz-adv-x="464" 
d="M228 -238l-79 80l79 79l80 -79zM201 -12c-50 0 -117 10 -161 24l15 84c54 -13 107 -22 151 -22c79 0 120 28 120 71c0 105 -275 72 -275 256c0 106 91 159 200 159c47 0 105 -10 149 -28l-21 -79c-37 13 -85 22 -127 22c-69 0 -98 -29 -98 -66c0 -109 273 -74 273 -259
c0 -124 -124 -162 -226 -162z" />
    <glyph glyph-name="scommaaccent" unicode="&#x219;" horiz-adv-x="464" 
d="M287 -58l-41 -208h-76l21 208h96zM201 -12c-50 0 -117 10 -161 24l15 84c54 -13 107 -22 151 -22c79 0 120 28 120 71c0 105 -275 72 -275 256c0 106 91 159 200 159c47 0 105 -10 149 -28l-21 -79c-37 13 -85 22 -127 22c-69 0 -98 -29 -98 -66c0 -109 273 -74 273 -259
c0 -124 -124 -162 -226 -162z" />
    <glyph glyph-name="germandbls" unicode="&#xdf;" horiz-adv-x="612" 
d="M79 -189v742c0 157 89 214 214 214c67 0 193 -27 193 -161c0 -102 -112 -152 -112 -214c0 -104 212 -98 212 -247c0 -119 -103 -155 -184 -155c-57 0 -116 7 -154 21l16 83c38 -10 77 -18 117 -18c58 0 104 15 104 60c0 98 -213 84 -213 252c0 89 104 135 104 215
c0 52 -42 77 -89 77c-84 0 -104 -52 -104 -128v-741h-104z" />
    <glyph glyph-name="germandbls.alt" horiz-adv-x="612" 
d="M79 0v553c0 157 89 214 214 214c67 0 193 -27 193 -161c0 -102 -112 -152 -112 -214c0 -104 212 -98 212 -247c0 -119 -103 -155 -184 -155c-57 0 -116 7 -154 21l16 83c38 -10 77 -18 117 -18c58 0 104 15 104 60c0 98 -213 84 -213 252c0 89 104 135 104 215
c0 52 -42 77 -89 77c-84 0 -104 -52 -104 -128v-552h-104z" />
    <glyph glyph-name="tbar" unicode="&#x167;" horiz-adv-x="423" 
d="M33 284v59h69v120h-80v83h80v112h103v-112h171v-83h-170v-120h131v-59h-131v-122c0 -66 29 -84 87 -84c32 0 72 7 100 16l14 -85c-33 -12 -89 -21 -130 -21c-107 0 -175 38 -175 169v127h-69z" />
    <glyph glyph-name="tcaron" unicode="&#x165;" horiz-adv-x="423" 
d="M392 811l-41 -208h-75l21 208h95zM277 -12c-107 0 -175 38 -175 169v306h-80v83h80v112h103v-112h171v-83h-170v-301c0 -66 29 -84 87 -84c32 0 72 7 100 16l14 -85c-33 -12 -89 -21 -130 -21z" />
    <glyph glyph-name="uni021B" unicode="&#x21b;" horiz-adv-x="423" 
d="M316 -58l-41 -208h-76l21 208h96zM277 -12c-107 0 -175 38 -175 169v306h-80v83h80v112h103v-112h171v-83h-170v-301c0 -66 29 -84 87 -84c32 0 72 7 100 16l14 -85c-33 -12 -89 -21 -130 -21z" />
    <glyph glyph-name="tcommaaccent" unicode="&#x163;" horiz-adv-x="423" 
d="M312 -58l-41 -208h-76l21 208h96zM277 -12c-107 0 -175 38 -175 169v306h-80v83h80v112h103v-112h171v-83h-170v-301c0 -66 29 -84 87 -84c32 0 72 7 100 16l14 -85c-33 -12 -89 -21 -130 -21z" />
    <glyph glyph-name="uni1E6F" unicode="&#x1e6f;" horiz-adv-x="423" 
d="M277 -12c-107 0 -175 38 -175 169v306h-80v83h80v112h103v-112h171v-83h-170v-301c0 -66 29 -84 87 -84c32 0 72 7 100 16l14 -85c-33 -12 -89 -21 -130 -21zM95 -207v84h285v-84h-285z" />
    <glyph glyph-name="uni1E6D" unicode="&#x1e6d;" horiz-adv-x="423" 
d="M237 -238l-79 80l79 79l80 -79zM277 -12c-107 0 -175 38 -175 169v306h-80v83h80v112h103v-112h171v-83h-170v-301c0 -66 29 -84 87 -84c32 0 72 7 100 16l14 -85c-33 -12 -89 -21 -130 -21z" />
    <glyph glyph-name="uni1E97" unicode="&#x1e97;" horiz-adv-x="423" 
d="M53 702l-67 68l67 67l67 -67zM263 702l-67 68l67 67l68 -67zM277 -12c-107 0 -175 38 -175 169v306h-80v83h80v112h103v-112h171v-83h-170v-301c0 -66 29 -84 87 -84c32 0 72 7 100 16l14 -85c-33 -12 -89 -21 -130 -21z" />
    <glyph glyph-name="uni1E6B" unicode="&#x1e6b;" horiz-adv-x="423" 
d="M229 791l-72 -73l-71 73l71 71zM277 -12c-107 0 -175 38 -175 169v306h-80v83h80v112h103v-112h171v-83h-170v-301c0 -66 29 -84 87 -84c32 0 72 7 100 16l14 -85c-33 -12 -89 -21 -130 -21z" />
    <glyph glyph-name="uacute" unicode="&#xfa;" horiz-adv-x="616" 
d="M257 615l-34 64l203 126l40 -74zM238 -12c-150 0 -163 113 -163 212v346h104v-330c0 -83 9 -135 95 -135c65 0 123 31 160 56v409h103v-546h-103v62c-49 -35 -103 -74 -196 -74z" />
    <glyph glyph-name="ugrave" unicode="&#xf9;" horiz-adv-x="616" 
d="M238 -12c-150 0 -163 113 -163 212v346h104v-330c0 -83 9 -135 95 -135c65 0 123 31 160 56v409h103v-546h-103v62c-49 -35 -103 -74 -196 -74zM360 614l-208 116l41 76l203 -128z" />
    <glyph glyph-name="ucircumflex" unicode="&#xfb;" horiz-adv-x="616" 
d="M430 622l-122 85l-129 -85l-45 59l176 118l165 -117zM238 -12c-150 0 -163 113 -163 212v346h104v-330c0 -83 9 -135 95 -135c65 0 123 31 160 56v409h103v-546h-103v62c-49 -35 -103 -74 -196 -74z" />
    <glyph glyph-name="udieresis" unicode="&#xfc;" horiz-adv-x="616" 
d="M202 648l-67 68l67 67l67 -67zM412 648l-67 68l67 67l68 -67zM238 -12c-150 0 -163 113 -163 212v346h104v-330c0 -83 9 -135 95 -135c65 0 123 31 160 56v409h103v-546h-103v62c-49 -35 -103 -74 -196 -74z" />
    <glyph glyph-name="ubreve" unicode="&#x16d;" horiz-adv-x="616" 
d="M238 -12c-150 0 -163 113 -163 212v346h104v-330c0 -83 9 -135 95 -135c65 0 123 31 160 56v409h103v-546h-103v62c-49 -35 -103 -74 -196 -74zM305 636c-87 0 -140 49 -165 92l56 49c31 -35 68 -60 112 -60c49 0 85 27 110 60l53 -47c-24 -39 -77 -94 -166 -94z" />
    <glyph glyph-name="uhungarumlaut" unicode="&#x171;" horiz-adv-x="616" 
d="M238 -12c-150 0 -163 113 -163 212v346h104v-330c0 -83 9 -135 95 -135c65 0 123 31 160 56v409h103v-546h-103v62c-49 -35 -103 -74 -196 -74zM158 608l-45 57l185 153l55 -70zM383 610l-36 63l204 128l44 -76z" />
    <glyph glyph-name="umacron" unicode="&#x16b;" horiz-adv-x="616" 
d="M167 663v83h285v-83h-285zM238 -12c-150 0 -163 113 -163 212v346h104v-330c0 -83 9 -135 95 -135c65 0 123 31 160 56v409h103v-546h-103v62c-49 -35 -103 -74 -196 -74z" />
    <glyph glyph-name="uogonek" unicode="&#x173;" horiz-adv-x="616" 
d="M543 -147l20 -70c-25 -11 -49 -21 -98 -21c-94 0 -127 43 -127 106c0 52 52 103 96 135v59c-40 -27 -106 -75 -190 -75c-158 0 -169 110 -169 212v347h104v-331c0 -83 9 -134 96 -134c63 0 134 42 159 56v409h103v-546c-41 -25 -107 -73 -107 -115c0 -33 24 -43 53 -43
c24 0 43 5 60 11z" />
    <glyph glyph-name="uring" unicode="&#x16f;" horiz-adv-x="616" 
d="M308 606c-60 0 -122 28 -122 106c0 75 60 112 120 112c51 0 122 -27 122 -110c0 -72 -55 -108 -120 -108zM307 656c37 0 59 21 60 57c0 35 -27 58 -61 58c-38 0 -60 -20 -60 -56s24 -59 61 -59zM238 -12c-150 0 -163 113 -163 212v346h104v-330c0 -83 9 -135 95 -135
c65 0 123 31 160 56v409h103v-546h-103v62c-49 -35 -103 -74 -196 -74z" />
    <glyph glyph-name="utilde" unicode="&#x169;" horiz-adv-x="616" 
d="M238 -12c-150 0 -163 113 -163 212v346h104v-330c0 -83 9 -135 95 -135c65 0 123 31 160 56v409h103v-546h-103v62c-49 -35 -103 -74 -196 -74zM363 641c-48 0 -83 38 -125 38c-27 0 -44 -6 -69 -26l-40 54c14 15 53 56 116 56c56 0 85 -37 123 -37c33 0 56 15 75 27
l38 -53c-13 -15 -54 -59 -118 -59z" />
    <glyph glyph-name="uhorn" unicode="&#x1b0;" horiz-adv-x="643" 
d="M238 -12c-150 0 -163 113 -163 212v346h104v-330c0 -83 9 -135 95 -135c65 0 123 31 160 56v409h61c48 7 59 31 59 69c0 16 -4 32 -9 49h92c8 -19 11 -42 11 -59c0 -71 -47 -122 -111 -137v-468h-103v62c-49 -35 -103 -74 -196 -74z" />
    <glyph glyph-name="uni1EE7" unicode="&#x1ee7;" horiz-adv-x="616" 
d="M238 -12c-150 0 -163 113 -163 212v346h104v-330c0 -83 9 -135 95 -135c65 0 123 31 160 56v409h103v-546h-103v62c-49 -35 -103 -74 -196 -74zM397 756c0 -70 -57 -112 -95 -128l-43 47c16 7 55 32 55 73c0 29 -23 38 -41 38c-14 0 -29 -2 -42 -9l-6 68
c17 7 40 12 67 12c58 0 105 -40 105 -101z" />
    <glyph glyph-name="uni1EE5" unicode="&#x1ee5;" horiz-adv-x="616" 
d="M399 -159l-80 -79l-79 79l79 80zM238 -12c-150 0 -163 113 -163 212v346h104v-330c0 -83 9 -135 95 -135c65 0 123 31 160 56v409h103v-546h-103v62c-49 -35 -103 -74 -196 -74z" />
    <glyph glyph-name="uni1EEB" unicode="&#x1eeb;" horiz-adv-x="643" 
d="M238 -12c-150 0 -163 113 -163 212v346h104v-330c0 -83 9 -135 95 -135c65 0 123 31 160 56v409h61c48 7 59 31 59 69c0 16 -4 32 -9 49h92c8 -19 11 -42 11 -59c0 -71 -47 -122 -111 -137v-468h-103v62c-49 -35 -103 -74 -196 -74zM386 613l-208 116l41 76l203 -128z
" />
    <glyph glyph-name="uni1EE9" unicode="&#x1ee9;" horiz-adv-x="643" 
d="M238 -12c-150 0 -163 113 -163 212v346h104v-330c0 -83 9 -135 95 -135c65 0 123 31 160 56v409h61c48 7 59 31 59 69c0 16 -4 32 -9 49h92c8 -19 11 -42 11 -59c0 -71 -47 -122 -111 -137v-468h-103v62c-49 -35 -103 -74 -196 -74zM283 613l-34 64l203 126l40 -74z" />
    <glyph glyph-name="uni1EEF" unicode="&#x1eef;" horiz-adv-x="643" 
d="M238 -12c-150 0 -163 113 -163 212v346h104v-330c0 -83 9 -135 95 -135c65 0 123 31 160 56v409h61c48 7 59 31 59 69c0 16 -4 32 -9 49h92c8 -19 11 -42 11 -59c0 -71 -47 -122 -111 -137v-468h-103v62c-49 -35 -103 -74 -196 -74zM374 641c-48 0 -83 38 -125 38
c-27 0 -44 -6 -69 -26l-40 54c14 15 53 56 116 56c56 0 85 -37 123 -37c33 0 56 15 75 27l38 -53c-13 -15 -54 -59 -118 -59z" />
    <glyph glyph-name="uni1EED" unicode="&#x1eed;" horiz-adv-x="643" 
d="M238 -12c-150 0 -163 113 -163 212v346h104v-330c0 -83 9 -135 95 -135c65 0 123 31 160 56v409h61c48 7 59 31 59 69c0 16 -4 32 -9 49h92c8 -19 11 -42 11 -59c0 -71 -47 -122 -111 -137v-468h-103v62c-49 -35 -103 -74 -196 -74zM406 756c0 -70 -57 -112 -95 -128
l-43 47c16 7 55 32 55 73c0 29 -23 38 -41 38c-14 0 -29 -2 -42 -9l-6 68c17 7 40 12 67 12c58 0 105 -40 105 -101z" />
    <glyph glyph-name="uni1EF1" unicode="&#x1ef1;" horiz-adv-x="643" 
d="M238 -12c-150 0 -163 113 -163 212v346h104v-330c0 -83 9 -135 95 -135c65 0 123 31 160 56v409h61c48 7 59 31 59 69c0 16 -4 32 -9 49h92c8 -19 11 -42 11 -59c0 -71 -47 -122 -111 -137v-468h-103v62c-49 -35 -103 -74 -196 -74zM402 -159l-80 -79l-79 79l79 80z" />
    <glyph glyph-name="uni01D4" unicode="&#x1d4;" horiz-adv-x="616" 
d="M306 617l-171 117l42 60l130 -87l130 87l45 -60zM238 -12c-150 0 -163 113 -163 212v346h104v-330c0 -83 9 -135 95 -135c65 0 123 31 160 56v409h103v-546h-103v62c-49 -35 -103 -74 -196 -74z" />
    <glyph glyph-name="uni01D6" unicode="&#x1d6;" horiz-adv-x="616" 
d="M202 618l-67 68l67 67l67 -67zM412 618l-67 68l67 67l68 -67zM153 796v83h307v-83h-307zM238 -12c-150 0 -163 113 -163 212v346h104v-330c0 -83 9 -135 95 -135c65 0 123 31 160 56v409h103v-546h-103v62c-49 -35 -103 -74 -196 -74z" />
    <glyph glyph-name="uni01D8" unicode="&#x1d8;" horiz-adv-x="616" 
d="M202 618l-67 68l67 67l67 -67zM412 618l-67 68l67 67l68 -67zM287 755l-34 64l203 126l40 -74zM238 -12c-150 0 -163 113 -163 212v346h104v-330c0 -83 9 -135 95 -135c65 0 123 31 160 56v409h103v-546h-103v62c-49 -35 -103 -74 -196 -74z" />
    <glyph glyph-name="uni01DA" unicode="&#x1da;" horiz-adv-x="616" 
d="M202 618l-67 68l67 67l67 -67zM412 618l-67 68l67 67l68 -67zM238 -12c-150 0 -163 113 -163 212v346h104v-330c0 -83 9 -135 95 -135c65 0 123 31 160 56v409h103v-546h-103v62c-49 -35 -103 -74 -196 -74zM303 753l-167 107l42 60l126 -76l128 78l45 -60z" />
    <glyph glyph-name="uni01DC" unicode="&#x1dc;" horiz-adv-x="616" 
d="M202 618l-67 68l67 67l67 -67zM412 618l-67 68l67 67l68 -67zM238 -12c-150 0 -163 113 -163 212v346h104v-330c0 -83 9 -135 95 -135c65 0 123 31 160 56v409h103v-546h-103v62c-49 -35 -103 -74 -196 -74zM334 745l-208 116l41 76l203 -128z" />
    <glyph glyph-name="uni00760304" horiz-adv-x="540" 
d="M125 663v83h285v-83h-285zM198 0l-185 546h113l108 -352l33 -114l37 116l121 350h109l-202 -546h-134z" />
    <glyph glyph-name="uni1E7F" unicode="&#x1e7f;" horiz-adv-x="540" 
d="M265 -238l-79 80l79 79l80 -79zM198 0l-185 546h113l108 -352l33 -114l37 116l121 350h109l-202 -546h-134z" />
    <glyph glyph-name="uni1E7D" unicode="&#x1e7d;" horiz-adv-x="540" 
d="M198 0l-185 546h113l108 -352l33 -114l37 116l121 350h109l-202 -546h-134zM332 641c-48 0 -83 38 -125 38c-27 0 -44 -6 -69 -26l-40 54c14 15 53 56 116 56c56 0 85 -37 123 -37c33 0 56 15 75 27l38 -53c-13 -15 -54 -59 -118 -59z" />
    <glyph glyph-name="wacute" unicode="&#x1e83;" horiz-adv-x="887" 
d="M385 613l-34 64l203 126l40 -74zM181 0l-161 546h110l120 -466l134 466h130l116 -466l140 466h106l-181 -546h-135l-96 370l-18 79l-20 -79l-109 -370h-136z" />
    <glyph glyph-name="wcircumflex" unicode="&#x175;" horiz-adv-x="887" 
d="M570 622l-122 85l-129 -85l-45 59l176 118l165 -117zM181 0l-161 546h110l120 -466l134 466h130l116 -466l140 466h106l-181 -546h-135l-96 370l-18 79l-20 -79l-109 -370h-136z" />
    <glyph glyph-name="wdieresis" unicode="&#x1e85;" horiz-adv-x="887" 
d="M339 648l-67 68l67 67l67 -67zM549 648l-67 68l67 67l68 -67zM181 0l-161 546h110l120 -466l134 466h130l116 -466l140 466h106l-181 -546h-135l-96 370l-18 79l-20 -79l-109 -370h-136z" />
    <glyph glyph-name="wgrave" unicode="&#x1e81;" horiz-adv-x="887" 
d="M520 614l-208 116l41 76l203 -128zM181 0l-161 546h110l120 -466l134 466h130l116 -466l140 466h106l-181 -546h-135l-96 370l-18 79l-20 -79l-109 -370h-136z" />
    <glyph glyph-name="uni1E87" unicode="&#x1e87;" horiz-adv-x="887" 
d="M181 0l-161 546h110l120 -466l134 466h130l116 -466l140 466h106l-181 -546h-135l-96 370l-18 79l-20 -79l-109 -370h-136zM447 635l-79 80l79 80l80 -80z" />
    <glyph glyph-name="uni1E89" unicode="&#x1e89;" horiz-adv-x="887" 
d="M447 -238l-79 80l79 79l80 -79zM181 0l-161 546h110l120 -466l134 466h130l116 -466l140 466h106l-181 -546h-135l-96 370l-18 79l-20 -79l-109 -370h-136z" />
    <glyph glyph-name="uni00780304" horiz-adv-x="539" 
d="M17 0l193 279l-181 267h121l120 -198l120 198h118l-180 -265l195 -281h-126l-128 210l-129 -210h-123zM125 663v83h285v-83h-285z" />
    <glyph glyph-name="uni1E8B" unicode="&#x1e8b;" horiz-adv-x="539" 
d="M17 0l193 279l-181 267h121l120 -198l120 198h118l-180 -265l195 -281h-126l-128 210l-129 -210h-123zM269 635l-79 80l79 80l80 -80z" />
    <glyph glyph-name="ydieresis" unicode="&#xff;" horiz-adv-x="536" 
d="M162 648l-67 68l67 67l67 -67zM372 648l-67 68l67 67l68 -67zM161 -220l74 220h-44l-179 546h113l111 -371l28 -95l31 94l127 372h106l-267 -766h-100z" />
    <glyph glyph-name="ycircumflex" unicode="&#x177;" horiz-adv-x="536" 
d="M391 622l-122 85l-129 -85l-45 59l176 118l165 -117zM161 -220l74 220h-44l-179 546h113l111 -371l28 -95l31 94l127 372h106l-267 -766h-100z" />
    <glyph glyph-name="uni0233" unicode="&#x233;" horiz-adv-x="536" 
d="M161 -220l74 220h-44l-179 546h113l111 -371l28 -95l31 94l127 372h106l-267 -766h-100zM125 663v83h285v-83h-285z" />
    <glyph glyph-name="ygrave" unicode="&#x1ef3;" horiz-adv-x="536" 
d="M161 -220l74 220h-44l-179 546h113l111 -371l28 -95l31 94l127 372h106l-267 -766h-100zM335 614l-208 116l41 76l203 -128z" />
    <glyph glyph-name="yacute" unicode="&#xfd;" horiz-adv-x="536" 
d="M161 -220l74 220h-44l-179 546h113l111 -371l28 -95l31 94l127 372h106l-267 -766h-100zM218 613l-34 64l203 126l40 -74z" />
    <glyph glyph-name="uni1E8F" unicode="&#x1e8f;" horiz-adv-x="536" 
d="M161 -220l74 220h-44l-179 546h113l111 -371l28 -95l31 94l127 372h106l-267 -766h-100zM269 635l-79 80l79 80l80 -80z" />
    <glyph glyph-name="uni1EF9" unicode="&#x1ef9;" horiz-adv-x="536" 
d="M161 -220l74 220h-44l-179 546h113l111 -371l28 -95l31 94l127 372h106l-267 -766h-100zM330 641c-48 0 -83 38 -125 38c-27 0 -44 -6 -69 -26l-40 54c14 15 53 56 116 56c56 0 85 -37 123 -37c33 0 56 15 75 27l38 -53c-13 -15 -54 -59 -118 -59z" />
    <glyph glyph-name="uni1EF7" unicode="&#x1ef7;" horiz-adv-x="536" 
d="M161 -220l74 220h-44l-179 546h113l111 -371l28 -95l31 94l127 372h106l-267 -766h-100zM370 756c0 -70 -57 -112 -95 -128l-43 47c16 7 55 32 55 73c0 29 -23 38 -41 38c-14 0 -29 -2 -42 -9l-6 68c17 7 40 12 67 12c58 0 105 -40 105 -101z" />
    <glyph glyph-name="uni1EF5" unicode="&#x1ef5;" horiz-adv-x="536" 
d="M161 -220l74 220h-44l-179 546h113l111 -371l28 -95l31 94l127 372h106l-267 -766h-100zM529 -159l-80 -79l-79 79l79 80z" />
    <glyph glyph-name="zacute" unicode="&#x17a;" horiz-adv-x="508" 
d="M189 613l-34 64l203 126l40 -74zM36 0v80l303 378h-279v88h401v-76l-304 -383h308v-87h-429z" />
    <glyph glyph-name="zcaron" unicode="&#x17e;" horiz-adv-x="508" 
d="M249 617l-171 117l42 60l130 -87l130 87l45 -60zM36 0v80l303 378h-279v88h401v-76l-304 -383h308v-87h-429z" />
    <glyph glyph-name="zdotaccent" unicode="&#x17c;" horiz-adv-x="508" 
d="M36 0v80l303 378h-279v88h401v-76l-304 -383h308v-87h-429zM266 635l-79 80l79 80l80 -80z" />
    <glyph glyph-name="uni1E95" unicode="&#x1e95;" horiz-adv-x="508" 
d="M36 0v80l303 378h-279v88h401v-76l-304 -383h308v-87h-429zM108 -207v84h285v-84h-285z" />
    <glyph glyph-name="uni1E93" unicode="&#x1e93;" horiz-adv-x="508" 
d="M250 -238l-79 80l79 79l80 -79zM36 0v80l303 378h-279v88h401v-76l-304 -383h308v-87h-429z" />
    <glyph glyph-name="uni007A0324" horiz-adv-x="508" 
d="M139 -230l-66 68l66 67l67 -67zM361 -230l-67 68l67 67l67 -67zM36 0v80l303 378h-279v88h401v-76l-304 -383h308v-87h-429z" />
    <glyph glyph-name="thorn" unicode="&#xfe;" horiz-adv-x="605" 
d="M79 -220v974h103v-251c32 24 91 54 147 54c144 0 228 -88 228 -265c0 -228 -132 -302 -275 -302c-41 0 -75 4 -100 7v-217h-103zM285 73c109 0 165 87 165 203c0 110 -30 192 -147 192c-46 0 -103 -29 -121 -39v-346c22 -3 50 -10 103 -10z" />
    <glyph glyph-name="uni04D9" unicode="&#x4d9;" horiz-adv-x="558" 
d="M240 560c165 0 269 -64 269 -276c0 -222 -108 -296 -254 -296c-145 0 -209 98 -209 274v38h358c-1 149 -82 173 -188 173c-38 0 -107 -14 -141 -23l-17 81c31 11 100 29 182 29zM402 227h-248c-1 -97 36 -163 113 -163c75 0 128 56 135 163z" />
    <glyph glyph-name="eth" unicode="&#xf0;" horiz-adv-x="621" 
d="M301 -10c-160 0 -253 96 -253 273c0 178 111 281 256 281c44 0 77 -11 108 -30c-25 47 -60 85 -93 114l-85 -63l-37 44l74 54c-28 19 -55 32 -78 43l56 68c25 -11 60 -27 97 -51l85 62l37 -43l-74 -54c88 -76 167 -192 167 -409c0 -177 -93 -289 -260 -289zM307 75
c119 0 149 88 149 192c0 102 -35 192 -155 192c-115 0 -148 -92 -148 -191c0 -108 37 -193 154 -193z" />
    <glyph glyph-name="uni01C6" unicode="&#x1c6;" horiz-adv-x="1117" 
d="M872 617l-171 117l42 60l130 -87l130 87l45 -60zM644 0v80l303 378h-279v88h401v-76l-304 -383h308v-87h-429zM274 -10c-93 0 -227 51 -227 273c0 208 119 297 278 297c30 0 54 -3 90 -12v206h105v-754h-105v49c-34 -31 -72 -59 -141 -59zM291 78c52 0 99 30 124 49v334
c-13 5 -48 15 -91 15c-130 0 -172 -96 -172 -207c0 -137 63 -191 139 -191z" />
    <glyph glyph-name="uni01C9" unicode="&#x1c9;" horiz-adv-x="546" 
d="M272 -224c-33 0 -67 8 -88 16l19 83c19 -6 46 -10 67 -10c71 0 91 45 91 123v558h105v-559c0 -169 -88 -211 -194 -211zM79 0v754h105v-754h-105zM413 635l-79 80l79 80l80 -80z" />
    <glyph glyph-name="uni01CC" unicode="&#x1cc;" horiz-adv-x="902" 
d="M628 -224c-33 0 -67 8 -88 16l19 83c19 -6 46 -10 67 -10c71 0 91 45 91 123v558h105v-559c0 -169 -88 -211 -194 -211zM769 635l-79 80l79 80l80 -80zM79 0v546h105v-60c55 40 109 74 194 74c154 0 166 -111 166 -211v-349h-103v334c0 89 -16 135 -97 135
c-65 0 -117 -28 -160 -57v-412h-105z" />
    <glyph glyph-name="uni01F3" unicode="&#x1f3;" horiz-adv-x="1117" 
d="M644 0v80l303 378h-279v88h401v-76l-304 -383h308v-87h-429zM274 -10c-93 0 -227 51 -227 273c0 208 119 297 278 297c30 0 54 -3 90 -12v206h105v-754h-105v49c-34 -31 -72 -59 -141 -59zM291 78c52 0 99 30 124 49v334c-13 5 -48 15 -91 15c-130 0 -172 -96 -172 -207
c0 -137 63 -191 139 -191z" />
    <glyph glyph-name="uni021D" unicode="&#x21d;" horiz-adv-x="484" 
d="M122 168v77l194 213h-284v88h401v-76l-210 -231c115 -17 219 -87 219 -201c0 -163 -190 -254 -365 -266l-17 82c149 18 275 74 275 179c0 92 -117 129 -213 135z" />
    <glyph glyph-name="uni01EF" unicode="&#x1ef;" horiz-adv-x="484" 
d="M122 168v77l194 213h-284v88h401v-76l-210 -231c115 -17 219 -87 219 -201c0 -163 -190 -254 -365 -266l-17 82c149 18 275 74 275 179c0 92 -117 129 -213 135zM228 616l-171 117l42 60l130 -87l130 87l45 -60z" />
    <glyph glyph-name="uni0138" unicode="&#x138;" horiz-adv-x="555" 
d="M523 -9c-51 3 -112 15 -184 103l-151 186l213 266h118l-218 -258l104 -120c48 -55 92 -87 136 -99zM79 0v546h105v-546h-105z" />
    <glyph glyph-name="uni01DD" unicode="&#x1dd;" horiz-adv-x="558" 
d="M240 560c165 0 269 -64 269 -276c0 -222 -108 -296 -254 -296c-145 0 -209 98 -209 274v38h358c-1 149 -82 173 -188 173c-38 0 -107 -14 -141 -23l-17 81c31 11 100 29 182 29zM402 227h-248c-1 -97 36 -163 113 -163c75 0 128 56 135 163z" />
    <glyph glyph-name="uni0259" unicode="&#x259;" horiz-adv-x="558" 
d="M240 560c165 0 269 -64 269 -276c0 -222 -108 -296 -254 -296c-145 0 -209 98 -209 274v38h358c-1 149 -82 173 -188 173c-38 0 -107 -14 -141 -23l-17 81c31 11 100 29 182 29zM402 227h-248c-1 -97 36 -163 113 -163c75 0 128 56 135 163z" />
    <glyph glyph-name="ae" unicode="&#xe6;" horiz-adv-x="881" 
d="M641 -9c-103 0 -181 26 -227 91c-32 -25 -116 -90 -211 -90c-104 0 -165 54 -165 156c0 136 122 161 217 163c0 0 106 3 119 3v66c0 78 -39 90 -128 90c-51 0 -112 -17 -143 -24l-21 77c36 15 105 36 188 36c75 0 144 -11 179 -66c45 47 106 66 178 66
c142 0 207 -96 207 -266v-36l-358 -12c2 -146 81 -168 189 -168c39 0 108 13 141 19l16 -80c-40 -14 -105 -25 -181 -25zM224 75c43 0 124 36 166 59c-9 28 -15 69 -17 109l-114 -3c-89 -3 -120 -40 -120 -84c0 -63 36 -81 85 -81zM479 319l247 12c1 92 -42 151 -111 151
c-67 0 -131 -45 -136 -163z" />
    <glyph glyph-name="aeacute" unicode="&#x1fd;" horiz-adv-x="881" 
d="M379 613l-34 64l203 126l40 -74zM641 -9c-103 0 -181 26 -227 91c-32 -25 -116 -90 -211 -90c-104 0 -165 54 -165 156c0 136 122 161 217 163c0 0 106 3 119 3v66c0 78 -39 90 -128 90c-51 0 -112 -17 -143 -24l-21 77c36 15 105 36 188 36c75 0 144 -11 179 -66
c45 47 106 66 178 66c142 0 207 -96 207 -266v-36l-358 -12c2 -146 81 -168 189 -168c39 0 108 13 141 19l16 -80c-40 -14 -105 -25 -181 -25zM224 75c43 0 124 36 166 59c-9 28 -15 69 -17 109l-114 -3c-89 -3 -120 -40 -120 -84c0 -63 36 -81 85 -81zM479 319l247 12
c1 92 -42 151 -111 151c-67 0 -131 -45 -136 -163z" />
    <glyph glyph-name="uni01E3" unicode="&#x1e3;" horiz-adv-x="881" 
d="M297 663v83h285v-83h-285zM641 -9c-103 0 -181 26 -227 91c-32 -25 -116 -90 -211 -90c-104 0 -165 54 -165 156c0 136 122 161 217 163c0 0 106 3 119 3v66c0 78 -39 90 -128 90c-51 0 -112 -17 -143 -24l-21 77c36 15 105 36 188 36c75 0 144 -11 179 -66
c45 47 106 66 178 66c142 0 207 -96 207 -266v-36l-358 -12c2 -146 81 -168 189 -168c39 0 108 13 141 19l16 -80c-40 -14 -105 -25 -181 -25zM224 75c43 0 124 36 166 59c-9 28 -15 69 -17 109l-114 -3c-89 -3 -120 -40 -120 -84c0 -63 36 -81 85 -81zM479 319l247 12
c1 92 -42 151 -111 151c-67 0 -131 -45 -136 -163z" />
    <glyph glyph-name="oe" unicode="&#x153;" horiz-adv-x="964" 
d="M300 -12c-160 0 -253 103 -253 279c0 187 107 293 260 293c95 0 162 -35 200 -100c44 71 117 100 202 100c146 0 209 -98 209 -275v-37h-359c2 -144 74 -173 185 -173c38 0 111 13 144 22l17 -83c-30 -11 -99 -25 -182 -25c-101 0 -178 26 -221 97
c-45 -66 -117 -98 -202 -98zM306 73c119 0 149 96 149 200c0 97 -28 203 -151 203c-119 0 -152 -105 -152 -204c0 -108 37 -199 154 -199zM561 321h248c0 98 -38 163 -113 163c-74 0 -127 -56 -135 -163z" />
    <glyph glyph-name="ij" unicode="&#x133;" horiz-adv-x="543" 
d="M269 -224c-33 0 -67 8 -88 16l19 83c19 -6 46 -10 67 -10c71 0 91 45 91 123v558h105v-559c0 -169 -88 -211 -194 -211zM79 0v546h106v-546h-106zM132 635l-79 80l79 80l80 -80zM412 635l-79 80l79 80l80 -80z" />
    <glyph glyph-name="iacute_jacute" horiz-adv-x="543" 
d="M80 613l-34 64l203 126l40 -74zM373 613l-34 64l203 126l40 -74zM79 0v546h106v-546h-106zM269 -224c-33 0 -67 8 -88 16l19 83c19 -6 46 -10 67 -10c71 0 91 45 91 123v558h105v-559c0 -169 -88 -211 -194 -211z" />
    <glyph glyph-name="i.alt" horiz-adv-x="289" 
d="M185 -11c-65 0 -109 37 -109 123v434h105v-412c0 -39 18 -57 51 -58c7 0 14 1 23 2l5 -80c-21 -6 -45 -9 -75 -9zM131 635l-79 80l79 80l80 -80z" />
    <glyph glyph-name="l.alt" horiz-adv-x="289" 
d="M185 -11c-65 0 -109 37 -109 123v642h105v-620c0 -39 18 -57 51 -58c7 0 14 1 23 2l5 -80c-21 -6 -45 -9 -75 -9z" />
    <glyph glyph-name="iacute.alt" horiz-adv-x="289" 
d="M79 613l-34 64l203 126l40 -74zM185 -11c-65 0 -109 37 -109 123v434h105v-412c0 -39 18 -57 51 -58c7 0 14 1 23 2l5 -80c-21 -6 -45 -9 -75 -9z" />
    <glyph glyph-name="igrave.alt" horiz-adv-x="289" 
d="M185 -11c-65 0 -109 37 -109 123v434h105v-412c0 -39 18 -57 51 -58c7 0 14 1 23 2l5 -80c-21 -6 -45 -9 -75 -9zM177 613l-208 116l41 76l203 -128z" />
    <glyph glyph-name="icircumflex.alt" horiz-adv-x="289" 
d="M257 622l-122 85l-129 -85l-45 59l176 118l165 -117zM185 -11c-65 0 -109 37 -109 123v434h105v-412c0 -39 18 -57 51 -58c7 0 14 1 23 2l5 -80c-21 -6 -45 -9 -75 -9z" />
    <glyph glyph-name="idieresis.alt" horiz-adv-x="289" 
d="M27 648l-67 68l67 67l67 -67zM237 648l-67 68l67 67l68 -67zM185 -11c-65 0 -109 37 -109 123v434h105v-412c0 -39 18 -57 51 -58c7 0 14 1 23 2l5 -80c-21 -6 -45 -9 -75 -9z" />
    <glyph glyph-name="ibreve.alt" horiz-adv-x="289" 
d="M185 -11c-65 0 -109 37 -109 123v434h105v-412c0 -39 18 -57 51 -58c7 0 14 1 23 2l5 -80c-21 -6 -45 -9 -75 -9zM131 635c-87 0 -140 49 -165 92l56 49c31 -35 68 -60 112 -60c49 0 85 27 110 60l53 -47c-24 -39 -77 -94 -166 -94z" />
    <glyph glyph-name="dotlessi.alt" horiz-adv-x="289" 
d="M185 -11c-65 0 -109 37 -109 123v434h105v-412c0 -39 18 -57 51 -58c7 0 14 1 23 2l5 -80c-21 -6 -45 -9 -75 -9z" />
    <glyph glyph-name="imacron.alt" horiz-adv-x="289" 
d="M-12 662v83h285v-83h-285zM185 -11c-65 0 -109 37 -109 123v434h105v-412c0 -39 18 -57 51 -58c7 0 14 1 23 2l5 -80c-21 -6 -45 -9 -75 -9z" />
    <glyph glyph-name="itilde.alt" horiz-adv-x="289" 
d="M185 -11c-65 0 -109 37 -109 123v434h105v-412c0 -39 18 -57 51 -58c7 0 14 1 23 2l5 -80c-21 -6 -45 -9 -75 -9zM187 641c-48 0 -83 38 -125 38c-27 0 -44 -6 -69 -26l-40 54c14 15 53 56 116 56c56 0 85 -37 123 -37c33 0 56 15 75 27l38 -53c-13 -15 -54 -59 -118 -59
z" />
    <glyph glyph-name="uni01D0.alt" horiz-adv-x="289" 
d="M127 616l-171 117l42 60l130 -87l130 87l45 -60zM185 -11c-65 0 -109 37 -109 123v434h105v-412c0 -39 18 -57 51 -58c7 0 14 1 23 2l5 -80c-21 -6 -45 -9 -75 -9z" />
    <glyph glyph-name="uni1EC9.alt" horiz-adv-x="289" 
d="M185 -11c-65 0 -109 37 -109 123v434h105v-412c0 -39 18 -57 51 -58c7 0 14 1 23 2l5 -80c-21 -6 -45 -9 -75 -9zM215 756c0 -70 -57 -112 -95 -128l-43 47c16 7 55 32 55 73c0 29 -23 38 -41 38c-14 0 -29 -2 -42 -9l-6 68c17 7 40 12 67 12c58 0 105 -40 105 -101z" />
    <glyph glyph-name="uni1ECB.alt" horiz-adv-x="289" 
d="M241 -159l-80 -79l-79 79l79 80zM185 -11c-65 0 -109 37 -109 123v434h105v-412c0 -39 18 -57 51 -58c7 0 14 1 23 2l5 -80c-21 -6 -45 -9 -75 -9zM129 635l-79 80l79 80l80 -80z" />
    <glyph glyph-name="lacute.alt" horiz-adv-x="289" 
d="M185 -11c-65 0 -109 37 -109 123v642h105v-620c0 -39 18 -57 51 -58c7 0 14 1 23 2l5 -80c-21 -6 -45 -9 -75 -9zM78 786l-19 70l234 79l23 -86z" />
    <glyph glyph-name="lcaron.alt" horiz-adv-x="312" 
d="M185 -11c-65 0 -109 37 -109 123v642h105v-620c0 -39 18 -57 51 -58c7 0 14 1 23 2l5 -80c-21 -6 -45 -9 -75 -9zM349 754l-41 -208h-75l21 208h95z" />
    <glyph glyph-name="lcommaaccent.alt" horiz-adv-x="289" 
d="M217 -58l-41 -208h-76l21 208h96zM185 -11c-65 0 -109 37 -109 123v642h105v-620c0 -39 18 -57 51 -58c7 0 14 1 23 2l5 -80c-21 -6 -45 -9 -75 -9z" />
    <glyph glyph-name="ldot.alt" horiz-adv-x="376" 
d="M185 -11c-65 0 -109 37 -109 123v642h105v-620c0 -39 18 -57 51 -58c7 0 14 1 23 2l5 -80c-21 -6 -45 -9 -75 -9zM308 289l-76 77l76 76l76 -76z" />
    <glyph glyph-name="lslash.alt" horiz-adv-x="346" 
d="M215 -11c-65 0 -109 37 -109 123v209l-83 -48v79l83 47v355h105v-294l89 51v-78l-89 -52v-247c0 -39 18 -57 51 -58c7 0 14 1 23 2l5 -80c-21 -6 -45 -9 -75 -9z" />
    <glyph glyph-name="uni1E3B.alt" horiz-adv-x="289" 
d="M185 -11c-65 0 -109 37 -109 123v642h105v-620c0 -39 18 -57 51 -58c7 0 14 1 23 2l5 -80c-21 -6 -45 -9 -75 -9zM2 -207v84h285v-84h-285z" />
    <glyph glyph-name="uni1E37.alt" horiz-adv-x="289" 
d="M161 -238l-79 80l79 79l80 -79zM185 -11c-65 0 -109 37 -109 123v642h105v-620c0 -39 18 -57 51 -58c7 0 14 1 23 2l5 -80c-21 -6 -45 -9 -75 -9z" />
    <glyph glyph-name="uni1E39.alt" horiz-adv-x="289" 
d="M161 -238l-79 80l79 79l80 -79zM185 -11c-65 0 -109 37 -109 123v642h105v-620c0 -39 18 -57 51 -58c7 0 14 1 23 2l5 -80c-21 -6 -45 -9 -75 -9zM-12 806v83h285v-83h-285z" />
    <glyph glyph-name="comma" unicode="," horiz-adv-x="238" 
d="M38 -127c17 38 27 105 27 150v83h109v-48c0 -82 -19 -140 -46 -185h-90z" />
    <glyph glyph-name="period" unicode="." horiz-adv-x="251" 
d="M65 0v114h121v-114h-121z" />
    <glyph glyph-name="ellipsis" unicode="&#x2026;" horiz-adv-x="795" 
d="M65 0v107h114v-107h-114zM338 0v107h113v-107h-113zM617 0v107h114v-107h-114z" />
    <glyph glyph-name="colon" unicode=":" horiz-adv-x="301" 
d="M90 0v114h121v-114h-121zM90 432v114h121v-114h-121z" />
    <glyph glyph-name="semicolon" unicode=";" horiz-adv-x="300" 
d="M65 -127c19 41 29 98 29 136v97h113v-62c0 -75 -22 -129 -50 -171h-92zM88 432v114h121v-114h-121z" />
    <glyph glyph-name="question" unicode="?" horiz-adv-x="391" 
d="M99 169c-15 28 -25 61 -25 92c0 131 168 177 168 250c0 74 -84 103 -192 112l20 89c133 -10 280 -57 280 -196c0 -124 -182 -177 -182 -260c0 -20 6 -46 18 -72zM88 0v104h113v-104h-113z" />
    <glyph glyph-name="questiondown" unicode="&#xbf;" horiz-adv-x="379" 
d="M321 -164c-132 10 -279 54 -279 196c0 123 183 175 183 258c0 16 -10 51 -19 71l87 16c14 -30 25 -66 25 -91c0 -132 -168 -176 -168 -251c0 -70 84 -101 191 -111zM192 442v104h113v-104h-113z" />
    <glyph glyph-name="questiondown.cap" horiz-adv-x="391" 
d="M324 -2c-132 9 -279 53 -279 196c0 123 183 175 183 258c0 16 -10 51 -19 71l87 15c14 -29 25 -65 25 -90c0 -133 -168 -177 -168 -251c0 -70 84 -102 191 -111zM195 603v104h112v-104h-112z" />
    <glyph glyph-name="question.smcp" horiz-adv-x="366" 
d="M318 448c0 -102 -143 -143 -143 -214c0 -17 1 -28 7 -46l-89 -17c-11 28 -14 48 -14 67c0 105 131 149 131 205c0 53 -54 79 -155 93l21 87c121 -11 242 -59 242 -175zM192 0h-112v104h112v-104z" />
    <glyph glyph-name="questiondown.smcp" horiz-adv-x="334" 
d="M33 98c0 102 143 143 143 214c0 17 -1 28 -7 46l89 17c11 -28 14 -48 14 -67c0 -105 -131 -147 -131 -205s60 -85 155 -93l-22 -87c-120 11 -241 59 -241 175zM159 546h112v-104h-112v104z" />
    <glyph glyph-name="exclam" unicode="!" horiz-adv-x="301" 
d="M105 186l-6 155v366h104v-366l-6 -155h-92zM94 0v104h113v-104h-113z" />
    <glyph glyph-name="exclamdown" unicode="&#xa1;" horiz-adv-x="272" 
d="M84 -162v366l6 156h92l6 -156v-366h-104zM80 441v104h113v-104h-113z" />
    <glyph glyph-name="exclamdown.cap" horiz-adv-x="298" 
d="M97 0v366l6 155h93l5 -155v-366h-104zM93 603v104h113v-104h-113z" />
    <glyph glyph-name="exclam.smcp" horiz-adv-x="309" 
d="M207 341l-6 -155h-92l-7 155v266h105v-266zM211 0h-113v104h113v-104z" />
    <glyph glyph-name="exclamdown.smcp" horiz-adv-x="275" 
d="M85 205l6 156h92l7 -156v-265h-105v265zM81 547h113v-105h-113v105z" />
    <glyph glyph-name="uni203D" unicode="&#x203d;" horiz-adv-x="396" 
d="M102 186l-2 155v168h86v-119c40 38 75 75 75 122c0 77 -93 108 -207 111l20 89c138 -7 280 -57 280 -196c0 -104 -116 -171 -168 -218v-112h-84zM90 0v104h112v-104h-112z" />
    <glyph glyph-name="uni203D.smcp" horiz-adv-x="385" 
d="M106 186l-6 124v142h86v-112c31 31 54 60 54 97c0 60 -62 92 -170 102l19 82c132 -10 243 -59 243 -175c0 -99 -95 -148 -148 -189l-3 -71h-75zM89 0v104h112v-104h-112z" />
    <glyph glyph-name="hyphen" unicode="-" horiz-adv-x="475" 
d="M88 243v87h298v-87h-298z" />
    <glyph glyph-name="hyphen.cap" horiz-adv-x="470" 
d="M86 307v87h298v-87h-298z" />
    <glyph glyph-name="endash" unicode="&#x2013;" horiz-adv-x="659" 
d="M88 247v79h483v-79h-483z" />
    <glyph glyph-name="endash.cap" horiz-adv-x="654" 
d="M86 311v78h482v-78h-482z" />
    <glyph glyph-name="emdash" unicode="&#x2014;" horiz-adv-x="964" 
d="M88 247v79h788v-79h-788z" />
    <glyph glyph-name="emdash.cap" horiz-adv-x="955" 
d="M86 311v78h783v-78h-783z" />
    <glyph glyph-name="underscore" unicode="_" horiz-adv-x="605" 
d="M49 -175v88h507v-88h-507z" />
    <glyph glyph-name="at" unicode="@" horiz-adv-x="795" 
d="M374 -72c-201 0 -323 114 -323 337c0 317 195 452 424 452c165 0 275 -87 275 -290c0 -193 -113 -285 -230 -285c-54 0 -84 29 -84 66c-22 -29 -73 -57 -105 -57c-61 0 -103 29 -103 131c0 127 77 217 200 217c36 0 77 -7 117 -23l-25 -216c-3 -22 0 -42 19 -42
c48 0 126 51 126 208c0 158 -81 217 -196 217c-175 0 -331 -100 -331 -370c0 -191 97 -266 245 -266c50 0 113 8 158 18l12 -71c-66 -22 -110 -26 -179 -26zM353 229c36 0 66 27 81 41l20 158c-7 1 -16 3 -26 3c-72 0 -109 -59 -109 -141c0 -43 9 -61 34 -61z" />
    <glyph glyph-name="ampersand" unicode="&#x26;" horiz-adv-x="690" 
d="M247 -10c-99 0 -202 44 -202 176c0 96 61 155 139 208c-27 54 -42 109 -42 166c0 79 54 171 180 171c115 0 160 -72 160 -147c0 -101 -97 -156 -192 -208c78 -151 238 -256 396 -277l-12 -83c-82 5 -164 31 -233 71c-52 -44 -102 -77 -194 -77zM259 71c47 0 83 17 116 42
c-68 51 -120 114 -158 187c-43 -34 -73 -74 -73 -128c0 -75 58 -101 115 -101zM258 420c56 33 133 81 133 136c0 47 -30 77 -75 77c-51 0 -84 -34 -84 -86c0 -40 9 -85 26 -127z" />
    <glyph glyph-name="ampersand.alt" horiz-adv-x="704" 
d="M570 362l67 -47c-36 -72 -76 -135 -120 -187c56 -31 114 -53 171 -59l-15 -79c-70 3 -148 30 -222 74c-61 -49 -131 -76 -208 -76c-112 0 -196 50 -196 169c0 88 58 146 126 194c-29 56 -47 113 -47 168c0 101 61 197 186 197c116 0 171 -84 171 -162
c0 -105 -102 -163 -194 -221c41 -58 96 -114 157 -159c48 49 91 113 124 188zM218 523c0 -39 11 -81 32 -123c75 47 143 90 143 154c0 46 -34 82 -87 82c-54 0 -88 -38 -88 -113zM250 71c41 0 85 15 127 44c-62 48 -118 106 -162 168c-42 -33 -72 -70 -72 -118
c0 -67 54 -94 107 -94z" />
    <glyph glyph-name="ampersand.smcp" horiz-adv-x="752" 
d="M299 -10c-158 0 -253 104 -253 277c0 184 110 292 262 292c64 0 111 -10 149 -30l-32 -71c-37 15 -76 22 -120 22c-120 0 -155 -110 -155 -208c0 -107 39 -198 157 -198c113 0 151 85 156 182h-188v82h326c32 0 67 12 88 39l54 -51c-20 -39 -61 -69 -129 -70h-50
c-4 -155 -95 -266 -265 -266z" />
    <glyph glyph-name="slash" unicode="/" horiz-adv-x="436" 
d="M54 -62l233 829h94l-232 -829h-95z" />
    <glyph glyph-name="slash.smcp" horiz-adv-x="372" 
d="M52 -62l190 678h94l-189 -678h-95z" />
    <glyph glyph-name="backslash" unicode="\" horiz-adv-x="436" 
d="M287 -62l-232 829h94l233 -829h-95z" />
    <glyph glyph-name="backslash.smcp" horiz-adv-x="372" 
d="M225 -62l-190 678h95l190 -678h-95z" />
    <glyph glyph-name="bar" unicode="|" horiz-adv-x="254" 
d="M79 -220v974h96v-974h-96z" />
    <glyph glyph-name="parenleft" unicode="(" horiz-adv-x="359" 
d="M322 -162l-53 -59c-122 100 -226 261 -226 501s109 402 226 482l55 -56c-96 -84 -184 -214 -184 -425c0 -190 74 -340 182 -443z" />
    <glyph glyph-name="parenleft.cap" horiz-adv-x="358" 
d="M325 -93l-53 -59c-122 100 -226 261 -226 501s109 402 226 482l55 -56c-96 -84 -184 -214 -184 -425c0 -190 74 -340 182 -443z" />
    <glyph glyph-name="parenright" unicode=")" horiz-adv-x="358" 
d="M89 -221l-52 59c107 103 181 253 181 443c0 211 -87 341 -183 425l55 56c116 -80 226 -242 226 -482s-104 -401 -227 -501z" />
    <glyph glyph-name="parenright.cap" horiz-adv-x="351" 
d="M79 -152l-52 59c107 103 181 253 181 443c0 211 -87 341 -183 425l55 56c116 -80 226 -242 226 -482s-104 -401 -227 -501z" />
    <glyph glyph-name="bracketleft" unicode="[" horiz-adv-x="322" 
d="M79 -220v974h205v-83h-104v-808h104v-83h-205z" />
    <glyph glyph-name="bracketleft.cap" horiz-adv-x="322" 
d="M79 -133v974h205v-83h-104v-808h104v-83h-205z" />
    <glyph glyph-name="bracketright" unicode="]" horiz-adv-x="322" 
d="M38 -220v83h105v808h-105v83h205v-974h-205z" />
    <glyph glyph-name="bracketright.cap" horiz-adv-x="322" 
d="M38 -133v83h105v808h-105v83h205v-974h-205z" />
    <glyph glyph-name="braceleft" unicode="{" horiz-adv-x="348" 
d="M287 -221c-110 0 -196 27 -196 144c0 9 1 19 2 29l21 196c4 35 -24 81 -80 81v88c55 0 84 44 80 81l-21 201c-1 12 -2 23 -1 33c4 107 85 139 195 139h32v-88h-32c-69 0 -100 -31 -93 -92l20 -179c9 -78 -23 -120 -76 -137v-2c51 -20 85 -59 76 -136l-20 -180
c-6 -58 25 -90 93 -90h32v-88h-32z" />
    <glyph glyph-name="braceleft.cap" horiz-adv-x="372" 
d="M289 -141c-110 0 -196 27 -196 144c0 9 1 19 2 29l21 196c4 35 -24 81 -80 81v88c55 0 84 44 80 81l-21 201c-1 12 -2 23 -1 33c4 107 85 139 195 139h32v-88h-32c-69 0 -100 -31 -93 -92l20 -179c9 -78 -23 -120 -76 -137v-2c51 -20 85 -59 76 -136l-20 -180
c-6 -58 25 -90 93 -90h32v-88h-32z" />
    <glyph glyph-name="braceright" unicode="}" horiz-adv-x="348" 
d="M62 -221h-33v88h32c68 0 100 32 94 90l-21 180c-9 77 25 116 76 136v2c-52 17 -85 59 -76 137l21 179c6 61 -25 92 -94 92h-32v88h33c109 0 191 -32 195 -139c0 -10 -1 -21 -2 -33l-21 -201c-4 -37 25 -81 81 -81v-88c-57 0 -85 -46 -81 -81l21 -196c1 -10 2 -20 2 -29
c0 -117 -86 -144 -195 -144z" />
    <glyph glyph-name="braceright.cap" horiz-adv-x="372" 
d="M82 -136h-33v88h32c68 0 100 32 94 90l-21 180c-9 77 25 116 76 136v2c-52 17 -85 59 -76 137l21 179c6 61 -25 92 -94 92h-32v88h33c109 0 191 -32 195 -139c0 -10 -1 -21 -2 -33l-21 -201c-4 -37 25 -81 81 -81v-88c-57 0 -85 -46 -81 -81l21 -196c1 -10 2 -20 2 -29
c0 -117 -86 -144 -195 -144z" />
    <glyph glyph-name="uni301A" unicode="&#x301a;" horiz-adv-x="497" 
d="M79 -220v974h380v-83h-105v-808h105v-83h-380zM175 671v-808h83v808h-83z" />
    <glyph glyph-name="uni301B" unicode="&#x301b;" horiz-adv-x="497" 
d="M417 754v-974h-379v83h105v808h-105v83h379zM321 -137v808h-82v-808h82z" />
    <glyph glyph-name="uni301A.cap" horiz-adv-x="528" 
d="M79 -133v974h380v-83h-105v-808h105v-83h-380zM175 758v-808h83v808h-83z" />
    <glyph glyph-name="uni301B.cap" horiz-adv-x="497" 
d="M417 841v-974h-379v83h105v808h-105v83h379zM321 -50v808h-82v-808h82z" />
    <glyph glyph-name="dblparenleft" horiz-adv-x="520" 
d="M322 -162l-53 -59c-122 100 -226 261 -226 501s109 402 226 482l55 -56c-96 -84 -188 -214 -188 -425c0 -190 78 -340 186 -443zM494 -111l-52 -59c-123 99 -214 242 -214 450c0 198 92 341 208 434l55 -57c-96 -84 -170 -193 -170 -376c0 -178 66 -289 173 -392z" />
    <glyph glyph-name="dblparenleft.cap" horiz-adv-x="524" 
d="M325 -93l-53 -59c-122 100 -226 261 -226 501s109 402 226 482l55 -56c-96 -84 -188 -214 -188 -425c0 -190 78 -340 186 -443zM497 -42l-52 -59c-123 99 -214 242 -214 450c0 198 92 341 208 434l55 -57c-96 -84 -170 -193 -170 -376c0 -178 66 -289 173 -392z" />
    <glyph glyph-name="dblparenright" horiz-adv-x="518" 
d="M249 -221l-53 59c108 103 186 253 186 443c0 211 -92 341 -188 425l55 56c117 -80 226 -242 226 -482s-104 -401 -226 -501zM76 -170l-52 59c107 103 173 214 173 392c0 183 -74 292 -170 376l55 57c116 -93 208 -236 208 -434c0 -208 -91 -351 -214 -450z" />
    <glyph glyph-name="dblparenright.cap" horiz-adv-x="518" 
d="M247 -152l-53 59c108 103 186 253 186 443c0 211 -92 341 -188 425l55 56c117 -80 226 -242 226 -482s-104 -401 -226 -501zM74 -101l-52 59c107 103 173 214 173 392c0 183 -74 292 -170 376l55 57c116 -93 208 -236 208 -434c0 -208 -91 -351 -214 -450z" />
    <glyph glyph-name="asciicircum" unicode="^" horiz-adv-x="532" 
d="M44 294l164 413h129l152 -413h-106l-112 336l-125 -336h-102z" />
    <glyph glyph-name="asciitilde" unicode="~" horiz-adv-x="577" 
d="M390 271c-97 0 -138 60 -207 60c-37 0 -63 -14 -85 -31l-49 69c34 34 84 67 140 67c98 0 125 -62 202 -62c28 0 52 5 87 33l51 -62c-32 -42 -86 -74 -139 -74z" />
    <glyph glyph-name="degree" unicode="&#xb0;" horiz-adv-x="401" 
d="M198 403c-99 0 -156 56 -156 158c0 94 69 156 159 156c96 0 159 -58 159 -156s-68 -158 -162 -158zM200 472c49 0 77 29 77 89c0 56 -29 88 -77 88s-76 -31 -76 -88c0 -60 31 -89 76 -89z" />
    <glyph glyph-name="section" unicode="&#xa7;" horiz-adv-x="677" 
d="M182 -76c-43 0 -85 13 -118 39l33 81s48 -35 85 -35c38 0 47 51 47 80c0 38 -8 78 -14 118l-10 52c-5 32 -10 66 -10 99c0 165 121 262 281 262c54 0 110 -14 153 -48c0 0 -39 -70 -44 -75c-22 17 -69 39 -112 39c-38 0 -47 -34 -47 -65c0 -25 2 -52 8 -75l14 -55
c13 -56 19 -116 19 -160c0 -146 -123 -257 -285 -257zM302 21c39 31 73 81 73 149c0 34 -5 68 -11 101l-17 80c-6 29 -9 61 -9 93c0 24 3 52 11 78c-49 -33 -61 -97 -61 -145c-1 -30 3 -65 8 -90l16 -81c6 -26 9 -65 9 -94c0 -38 -8 -58 -19 -91z" />
    <glyph glyph-name="section.pln" horiz-adv-x="560" 
d="M141 -218c-43 0 -85 14 -117 40l32 81s49 -36 85 -36c39 0 47 52 47 81c0 38 -7 78 -14 117l-66 335c-6 32 -10 66 -10 99c0 165 122 262 281 262c54 0 110 -14 153 -49c0 0 -39 -69 -44 -74c-22 16 -68 39 -111 39c-38 0 -48 -34 -48 -65c0 -26 4 -53 8 -76l71 -337
c10 -55 18 -116 18 -159c0 -147 -123 -258 -285 -258zM261 -121c39 32 73 82 73 149c0 35 -5 68 -11 101l-73 363c-5 29 -8 61 -8 93c0 24 2 52 11 78c-49 -33 -62 -97 -62 -145c0 -30 4 -65 9 -90l71 -363c5 -26 10 -65 10 -94c0 -38 -9 -59 -20 -92z" />
    <glyph glyph-name="bullet" unicode="&#x2022;" horiz-adv-x="384" 
d="M192 208c-80 0 -145 61 -145 144s65 145 145 145s145 -61 145 -145c0 -81 -65 -144 -145 -144z" />
    <glyph glyph-name="paragraph" unicode="&#xb6;" horiz-adv-x="602" 
d="M329 -223c-36 0 -67 7 -86 15l19 89c19 -5 43 -9 68 -9c71 0 91 39 91 117v718h105v-719c0 -163 -88 -211 -197 -211zM247 257c-136 0 -213 77 -213 228c0 169 99 221 240 222h68v-450h-95z" />
    <glyph glyph-name="numbersign" unicode="#" horiz-adv-x="635" 
d="M128 0l8 137h-88v84h93l7 118h-100v85h106l7 140h98l-7 -140h153l7 140h98l-8 -140h84v-85h-89l-7 -118h96v-84h-101l-8 -137h-98l8 137h-153l-8 -137h-98zM239 221h153l7 118h-153z" />
    <glyph glyph-name="numbersign.pln" horiz-adv-x="665" 
d="M605 154h-110l-9 -154h-99l9 154h-150l-9 -154h-99l9 154h-87v88h92l13 217h-105v87h111l9 161h100l-9 -161h149l9 161h100l-10 -161h86v-87h-91l-13 -217h104v-88zM414 459h-149l-13 -217h149z" />
    <glyph glyph-name="percent" unicode="%" horiz-adv-x="812" 
d="M206 377c-88 0 -162 45 -162 163c0 112 77 174 165 174s164 -41 164 -167c0 -109 -77 -170 -167 -170zM206 451c46 0 79 34 79 96c0 60 -25 94 -76 94c-40 0 -75 -28 -75 -101c0 -60 23 -89 72 -89zM599 -9c-87 0 -161 45 -161 162c0 113 77 175 164 175
c88 0 165 -41 165 -167c0 -110 -77 -170 -168 -170zM599 65c47 0 79 34 79 96c0 60 -25 93 -76 93c-39 0 -75 -28 -75 -101c0 -60 24 -88 72 -88zM151 52l-56 59l548 531l56 -58z" />
    <glyph glyph-name="perthousand" unicode="&#x2030;" horiz-adv-x="1187" 
d="M206 377c-88 0 -162 45 -162 163c0 112 77 174 165 174s164 -41 164 -167c0 -109 -77 -170 -167 -170zM206 451c46 0 79 34 79 96c0 60 -25 94 -76 94c-40 0 -75 -28 -75 -101c0 -60 23 -89 72 -89zM599 -9c-87 0 -161 45 -161 162c0 113 77 175 164 175
c88 0 165 -41 165 -167c0 -110 -77 -170 -168 -170zM599 65c47 0 79 34 79 96c0 60 -25 93 -76 93c-39 0 -75 -28 -75 -101c0 -60 24 -88 72 -88zM975 -9c-88 0 -162 45 -162 162c0 113 77 175 165 175s164 -41 164 -167c0 -110 -77 -170 -167 -170zM975 65
c46 0 79 34 79 96c0 60 -25 93 -76 93c-40 0 -75 -28 -75 -101c0 -60 23 -88 72 -88zM151 52l-56 59l548 531l56 -58z" />
    <glyph glyph-name="ordfeminine" unicode="&#xaa;" horiz-adv-x="425" 
d="M168 387c-63 0 -99 31 -99 93c0 79 71 94 127 94l64 1v33c0 38 -18 44 -67 44c-29 0 -57 -8 -86 -14l-16 54c26 10 67 22 116 22c63 0 123 -12 123 -90v-159c0 -17 13 -19 29 -20l-3 -56c-34 -2 -81 3 -90 35c-22 -17 -60 -37 -98 -37zM178 445c25 0 70 23 82 27v54
l-60 -2c-37 -1 -62 -13 -62 -39c0 -29 15 -40 40 -40zM64 295v59h302v-59h-302z" />
    <glyph glyph-name="ordfeminine.smcp" horiz-adv-x="453" 
d="M66 395l125 315h86l109 -315h-73l-28 89h-115l-33 -89h-71zM58 291v64h337v-64h-337zM191 536h75l-35 116z" />
    <glyph glyph-name="ordmasculine" unicode="&#xba;" horiz-adv-x="434" 
d="M214 384c-97 0 -151 61 -151 163c0 107 62 170 155 170c105 0 154 -62 154 -167c0 -110 -68 -166 -158 -166zM218 444c63 0 78 48 78 106c0 54 -15 106 -79 106c-63 0 -79 -52 -79 -107c0 -59 18 -105 80 -105zM66 295v59h302v-59h-302z" />
    <glyph glyph-name="dagger" unicode="&#x2020;" horiz-adv-x="503" 
d="M197 0l8 500l-168 -8v96l167 -7l-8 173h110l-7 -173l167 7v-96l-167 8l7 -500h-109z" />
    <glyph glyph-name="daggerdbl" unicode="&#x2021;" horiz-adv-x="541" 
d="M216 0l7 172l-168 -7v97l168 -7v244l-168 -7v96l167 -6l-7 172h110l-7 -172l167 6v-96l-168 7v-244l168 7v-97l-168 7l7 -172h-108z" />
    <glyph glyph-name="quotesingle" unicode="'" horiz-adv-x="202" 
d="M61 515l-7 239h95l-8 -239h-80z" />
    <glyph glyph-name="quotedbl" unicode="&#x22;" horiz-adv-x="375" 
d="M61 515l-7 239h90l-7 -239h-76zM237 515l-6 238h90l-8 -238h-76z" />
    <glyph glyph-name="quotedblleft" unicode="&#x201c;" horiz-adv-x="364" 
d="M54 534v57c0 73 19 124 47 165h71c-19 -39 -29 -94 -29 -127v-95h-89zM215 534v57c0 73 20 124 47 165h72c-19 -39 -29 -94 -29 -127v-95h-90z" />
    <glyph glyph-name="quotedblleft.smcp" horiz-adv-x="378" 
d="M55 511c0 73 20 124 47 165h73c-19 -39 -29 -94 -29 -127v-95h-91v57zM217 511c0 73 20 124 46 165h74c-19 -39 -29 -94 -29 -127v-95h-91v57z" />
    <glyph glyph-name="quotedblright" unicode="&#x201d;" horiz-adv-x="365" 
d="M43 534c19 38 29 93 29 126v95h89v-57c0 -73 -20 -124 -46 -164h-72zM205 534c19 38 29 93 29 126v95h89v-57c0 -73 -20 -124 -47 -164h-71z" />
    <glyph glyph-name="quotedblright.smcp" horiz-adv-x="377" 
d="M328 618c0 -73 -20 -124 -47 -164h-73c18 38 28 93 28 126v95h92v-57zM166 618c0 -73 -20 -124 -47 -164h-73c19 38 29 93 29 126v95h91v-57z" />
    <glyph glyph-name="quoteleft" unicode="&#x2018;" horiz-adv-x="201" 
d="M54 534v57c0 73 19 124 46 165h71c-19 -39 -28 -94 -28 -127v-95h-89z" />
    <glyph glyph-name="quoteleft.smcp" horiz-adv-x="216" 
d="M55 511c0 73 20 124 46 165h74c-19 -39 -29 -94 -29 -127v-95h-91v57z" />
    <glyph glyph-name="quoteright" unicode="&#x2019;" horiz-adv-x="202" 
d="M43 534c19 38 29 93 29 126v95h89v-57c0 -73 -20 -124 -47 -164h-71z" />
    <glyph glyph-name="quoteright.smcp" horiz-adv-x="215" 
d="M166 618c0 -73 -20 -124 -47 -164h-73c19 38 29 93 29 126v95h91v-57z" />
    <glyph glyph-name="quotesinglbase" unicode="&#x201a;" horiz-adv-x="219" 
d="M37 -122c17 39 27 94 27 126v96h91v-58c0 -73 -21 -124 -47 -164h-71z" />
    <glyph glyph-name="quotedblbase" unicode="&#x201e;" horiz-adv-x="374" 
d="M36 -122c18 39 28 94 28 126v96h88v-58c0 -73 -21 -124 -47 -164h-69zM194 -122c18 39 28 94 28 126v96h88v-58c0 -73 -20 -124 -48 -164h-68z" />
    <glyph glyph-name="guilsinglleft" unicode="&#x2039;" horiz-adv-x="277" 
d="M156 49l-113 223l112 222l72 -28l-88 -194l87 -190z" />
    <glyph glyph-name="guilsinglright.cap" horiz-adv-x="277" 
d="M121 129l-70 34l87 189l-89 194l72 28l113 -222z" />
    <glyph glyph-name="guilsinglright" unicode="&#x203a;" horiz-adv-x="276" 
d="M121 49l-70 34l87 189l-89 194l72 28l113 -222z" />
    <glyph glyph-name="guilsinglleft.cap" horiz-adv-x="277" 
d="M156 124l-113 223l112 222l72 -28l-88 -194l87 -190z" />
    <glyph glyph-name="guillemotleft" unicode="&#xab;" horiz-adv-x="467" 
d="M156 49l-113 223l112 222l72 -28l-88 -194l87 -190zM345 49l-112 223l113 222l71 -28l-89 -194l88 -190z" />
    <glyph glyph-name="guillemotleft.cap" horiz-adv-x="468" 
d="M156 129l-113 223l112 222l72 -28l-88 -194l87 -190zM345 129l-112 223l113 222l71 -28l-89 -194l88 -190z" />
    <glyph glyph-name="guillemotright" unicode="&#xbb;" horiz-adv-x="466" 
d="M121 49l-70 33l87 190l-89 194l72 28l113 -222zM311 49l-70 33l86 190l-88 194l72 28l112 -222z" />
    <glyph glyph-name="guillemotright.cap" horiz-adv-x="467" 
d="M121 129l-70 33l87 190l-89 194l72 28l113 -222zM311 129l-70 33l86 190l-88 194l72 28l112 -222z" />
    <glyph glyph-name="asterisk" unicode="*" horiz-adv-x="432" 
d="M81 460l-40 71l114 41l20 -35zM156 595l-115 43l41 71l94 -79zM174 406l23 119h39l20 -119h-82zM196 643l-20 119h82l-21 -119h-41zM351 458l-94 78l21 36l114 -42zM277 596l-20 34l94 78l41 -71z" />
    <glyph glyph-name="asterisk.alt" horiz-adv-x="340" 
d="M301 698l-86 -56l37 -97l-80 66l-81 -66l37 97l-86 56l103 -5l27 99l26 -99z" />
    <glyph glyph-name="periodcentered" unicode="&#xb7;" horiz-adv-x="246" 
d="M123 289l-76 77l76 76l76 -76z" />
    <glyph glyph-name="f_i" horiz-adv-x="639" 
d="M109 -189v656h-80v79h80v33c0 158 90 199 197 199c40 0 91 -5 141 -6c28 0 65 2 92 5l16 -80c-39 -13 -87 -17 -125 -17c-45 1 -85 6 -125 6c-69 0 -92 -35 -92 -108v-32h346v-546h-105v467h-241v-656h-104z" />
    <glyph glyph-name="f_l" horiz-adv-x="639" 
d="M109 -189v656h-80v79h80v31c0 150 90 200 197 200c40 0 91 -7 141 -7c34 -1 81 4 112 7v-777h-105v680c-50 -2 -94 6 -149 6c-69 0 -92 -39 -92 -106v-34h118v-79h-118v-656h-104z" />
    <glyph glyph-name="f_i.alt" horiz-adv-x="639" 
d="M109 0v467h-80v79h80v33c0 158 90 199 197 199c40 0 91 -5 141 -6c28 0 65 2 92 5l16 -80c-39 -13 -87 -17 -125 -17c-45 1 -85 6 -125 6c-69 0 -92 -35 -92 -108v-32h346v-546h-105v467h-241v-467h-104z" />
    <glyph glyph-name="f_l.alt" horiz-adv-x="639" 
d="M109 0v467h-80v79h80v31c0 150 90 200 197 200c40 0 91 -7 141 -7c34 -1 81 4 112 7v-777h-105v680c-50 -2 -94 6 -149 6c-69 0 -92 -39 -92 -106v-34h118v-79h-118v-467h-104z" />
    <glyph glyph-name="f_h.alt" horiz-adv-x="994" 
d="M109 0v468h-80v78h80v28c0 159 89 205 196 205c40 0 91 -7 142 -8c33 0 80 4 111 7v-290c39 27 97 73 186 73c165 0 176 -109 176 -211v-350h-105v335c0 82 -14 134 -101 134c-59 0 -131 -45 -156 -59v-410h-105v682c-49 -2 -94 6 -149 6c-69 0 -91 -41 -91 -115v-27h117
v-78h-117v-468h-104z" />
    <glyph glyph-name="f_b.alt" horiz-adv-x="980" 
d="M657 -10c-118 0 -167 19 -203 30v660c-49 -2 -94 6 -149 6c-69 0 -92 -39 -92 -106v-34h118v-79h-118v-467h-104v467h-80v79h80v31c0 150 90 200 197 200c40 0 91 -7 141 -7c34 -1 80 4 111 7v-690c24 -5 52 -12 102 -12c109 0 165 95 165 211c0 110 -27 189 -146 189
c-33 0 -64 -8 -90 -17l-5 73c19 17 75 26 114 26c148 0 234 -85 234 -259c0 -230 -133 -308 -275 -308z" />
    <glyph glyph-name="f_j.alt" horiz-adv-x="637" 
d="M360 -224c-36 0 -61 7 -80 14l19 85c8 -3 25 -7 64 -7c70 0 90 41 90 119v481h-240v-468h-104v468h-80v78h80v28c0 158 89 205 196 205c40 0 91 -6 142 -6c28 0 65 1 91 4l15 -79c-38 -14 -86 -17 -124 -17c-44 0 -85 6 -125 6c-69 0 -91 -41 -91 -115v-26h345v-560
c0 -168 -89 -210 -198 -210z" />
    <glyph glyph-name="f_k.alt" horiz-adv-x="930" 
d="M109 0v468h-80v78h80v28c0 159 89 205 196 205c40 0 91 -7 142 -8c33 0 81 4 111 7v-778h-105v682c-49 -2 -94 6 -149 6c-69 0 -91 -41 -91 -115v-27h117v-78h-117v-468h-104zM895 -11c-52 3 -114 14 -184 103l-152 194l222 260h118l-223 -254l102 -124
c46 -56 92 -88 131 -99z" />
    <glyph glyph-name="f_f.alt" horiz-adv-x="693" 
d="M109 0v467h-80v79h80v43c0 158 116 190 222 190c76 0 149 -22 185 -36c38 30 90 36 140 36c36 0 105 -13 127 -21l-20 -82s-56 12 -101 12c-71 0 -104 -32 -104 -99v-43h118v-79h-118v-467h-104v467h-240v-467h-105zM214 546h240v46c0 29 3 53 13 75
c-36 10 -91 21 -146 21c-70 0 -107 -29 -107 -99v-43z" />
    <glyph glyph-name="f_f_i.alt" horiz-adv-x="983" 
d="M109 0v467h-80v79h80v43c0 153 106 190 212 190c81 0 165 -24 198 -37c31 22 72 37 131 37c40 0 91 -5 142 -6c27 0 65 2 91 5l16 -79c-39 -14 -86 -18 -124 -18c-45 1 -86 7 -126 7c-70 0 -90 -41 -90 -115v-27h344v-546h-105v467h-239v-467h-105v467h-240v-467h-105z
M214 546h240v28c0 41 4 67 14 93c-36 10 -98 21 -147 21c-70 0 -107 -29 -107 -99v-43z" />
    <glyph glyph-name="f_f_l.alt" horiz-adv-x="975" 
d="M109 0v467h-80v79h80v43c0 158 116 190 222 190c71 0 147 -22 187 -37c35 27 81 37 131 37c40 0 91 -7 142 -8c34 0 74 4 104 7v-778h-104v682c-48 -1 -90 6 -143 6c-69 0 -91 -40 -91 -113v-29h117v-79h-117v-467h-104v467h-239v-467h-105zM214 546h240v28
c0 37 4 68 13 92c-37 11 -94 22 -146 22c-70 0 -107 -29 -107 -99v-43z" />
    <glyph glyph-name="f_f_j.alt" horiz-adv-x="982" 
d="M708 -220c-32 0 -58 6 -79 13l19 83c6 -2 38 -7 59 -7c70 0 90 43 91 120v478h-239v-467h-105v467h-240v-467h-105v467h-80v79h80v43c0 153 106 190 212 190c81 0 165 -24 198 -37c31 22 72 37 131 37c40 0 91 -5 142 -6c27 0 65 2 91 5l16 -79c-39 -14 -86 -18 -124 -18
c-45 1 -86 7 -126 7c-70 0 -90 -41 -90 -115v-27h344v-558c-1 -168 -89 -208 -195 -208zM214 546h240v28c0 41 4 67 14 93c-36 10 -98 21 -147 21c-70 0 -107 -29 -107 -99v-43z" />
    <glyph glyph-name="f_idieresis.alt" horiz-adv-x="638" 
d="M109 0v467h-80v79h80v50c0 126 70 171 163 171c37 0 63 -6 83 -13l-17 -81c-13 4 -29 9 -59 9c-44 0 -66 -24 -66 -82v-54h115v-79h-115v-467h-104zM452 0v546h106v-546h-106zM430 637l-66 69l66 70l67 -70zM606 637l-66 69l66 70l67 -70z" />
    <glyph glyph-name="f_igrave.alt" horiz-adv-x="638" 
d="M109 0v467h-80v79h80v50c0 126 68 171 161 171c39 0 67 -5 91 -13l-17 -82c-17 6 -35 10 -67 10c-42 0 -64 -24 -64 -82v-54h115v-79h-115v-467h-104zM530 600l-143 158l65 57l134 -167zM452 0v546h106v-546h-106z" />
    <glyph glyph-name="brokenbar" unicode="&#xa6;" horiz-adv-x="295" 
d="M99 -220v362h96v-362h-96zM99 392v361h96v-361h-96z" />
    <glyph glyph-name="minus" unicode="&#x2212;" horiz-adv-x="600" 
d="M43 262v83h514v-83h-514z" />
    <glyph glyph-name="plus" unicode="+" horiz-adv-x="579" 
d="M243 51v211h-210v83l210 -2v216h85l-3 -217l221 3v-83h-219l1 -211h-85z" />
    <glyph glyph-name="multiply" unicode="&#xd7;" horiz-adv-x="555" 
d="M449 75l-174 174l-166 -169l-61 61l168 167l-167 166l58 60l167 -169l170 171l61 -60l-174 -170l175 -172z" />
    <glyph glyph-name="less" unicode="&#x3c;" horiz-adv-x="505" 
d="M449 59l-409 190v109l409 194v-93l-332 -156l332 -151v-93z" />
    <glyph glyph-name="equal" unicode="=" horiz-adv-x="672" 
d="M95 151l-1 83h483l1 -83h-483zM95 372l-1 84h483l1 -84h-483z" />
    <glyph glyph-name="greater" unicode="&#x3e;" horiz-adv-x="505" 
d="M56 59v93l333 151l-333 156v93l409 -194v-109z" />
    <glyph glyph-name="infinity" unicode="&#x221e;" horiz-adv-x="969" 
d="M237 129c-118 0 -170 73 -170 166c0 100 66 171 174 171c87 0 155 -61 244 -122c89 60 159 122 244 122c115 0 173 -72 173 -164c0 -96 -64 -172 -178 -172c-87 0 -157 64 -244 123c-86 -59 -160 -124 -243 -124zM243 210c54 0 117 50 172 87c-56 38 -120 90 -176 90
c-55 0 -89 -41 -89 -88c0 -52 34 -89 93 -89zM728 210c57 0 89 41 89 88c0 54 -37 89 -92 89c-53 0 -119 -50 -175 -88c59 -38 122 -89 178 -89z" />
    <glyph glyph-name="plusminus" unicode="&#xb1;" horiz-adv-x="545" 
d="M229 123v177l-176 -1v84l176 -1v177h87l-2 -179l179 3v-84l-178 1l1 -177h-87zM53 0v85h440v-85h-440z" />
    <glyph glyph-name="lessequal" unicode="&#x2264;" horiz-adv-x="600" 
d="M517 136l-435 160v115l435 160v-93l-344 -125l344 -124v-93zM79 0v88h441v-88h-441z" />
    <glyph glyph-name="notequal" unicode="&#x2260;" horiz-adv-x="600" 
d="M44 11l108 140h-95l-1 83h159l107 138h-265l-1 84h328l99 126h77l-98 -126h81v-84h-143l-107 -138h250v-83h-312l-109 -140h-78z" />
    <glyph glyph-name="greaterequal" unicode="&#x2265;" horiz-adv-x="600" 
d="M82 136v93l344 124l-344 125v93l435 -160v-115zM79 0v88h441v-88h-441z" />
    <glyph glyph-name="divide" unicode="&#xf7;" horiz-adv-x="638" 
d="M266 62v92h96v-92h-96zM62 262v83h513v-83h-513zM266 453v93h96v-93h-96z" />
    <glyph glyph-name="logicalnot" unicode="&#xac;" horiz-adv-x="621" 
d="M456 104v158h-393v84h484v-242h-91z" />
    <glyph glyph-name="approxequal" unicode="&#x2248;" horiz-adv-x="600" 
d="M400 120c-97 0 -139 62 -207 62c-37 0 -63 -14 -84 -31l-49 59c33 34 82 68 139 68c97 0 125 -62 202 -62c28 0 52 5 88 33l51 -53c-33 -42 -87 -76 -140 -76zM400 341c-97 0 -139 61 -207 61c-37 0 -63 -14 -84 -31l-49 59c33 34 82 68 139 68c97 0 125 -62 202 -62
c28 0 52 5 88 33l51 -53c-33 -42 -87 -75 -140 -75z" />
    <glyph glyph-name="mho" unicode="&#x2127;" horiz-adv-x="855" 
d="M802 707v-92h-182c82 -43 160 -132 160 -285c0 -203 -138 -340 -360 -340c-236 0 -349 155 -349 336c0 151 80 241 164 289h-185v92h300v-89c-104 -79 -168 -160 -168 -285c0 -138 81 -253 247 -253c162 0 241 109 241 256c0 146 -78 207 -166 282v89h298z" />
    <glyph glyph-name="nabla" unicode="&#x2207;" horiz-adv-x="706" 
d="M556 616h-408l146 -401l47 -143l55 147zM703 707l-294 -707h-143l-265 707h702z" />
    <glyph glyph-name="coproduct" unicode="&#x2210;" horiz-adv-x="740" 
d="M631 706v-840h100v-86h-722v86h101v840h108v-840h305v840h108z" />
    <glyph glyph-name="radical" unicode="&#x221a;" horiz-adv-x="667" 
d="M261 0l-122 457h-139v89h227l91 -370l21 -90l26 90l200 661h106l-263 -837h-147z" />
    <glyph glyph-name="partialdiff" unicode="&#x2202;" horiz-adv-x="590" 
d="M289 -13c-123 0 -236 38 -236 225c0 112 81 232 232 232c60 0 98 -9 129 -14c-30 111 -120 176 -231 205l32 87c119 -29 323 -111 323 -396c0 -239 -90 -339 -249 -339zM282 75c128 0 148 117 148 248c0 6 -1 18 -1 23c-39 7 -77 14 -135 14c-87 0 -137 -61 -137 -155
c0 -79 45 -130 125 -130z" />
    <glyph glyph-name="summation" unicode="&#x2211;" horiz-adv-x="522" 
d="M30 -220v74l183 389l-184 390v74h468v-87h-364l180 -376l-177 -375h361v-89h-467z" />
    <glyph glyph-name="product" unicode="&#x220f;" horiz-adv-x="740" 
d="M109 -219v840h-100v86h722v-86h-101v-840h-108v840h-305v-840h-108z" />
    <glyph glyph-name="lozenge" unicode="&#x25ca;" horiz-adv-x="577" 
d="M214 0l-190 355l201 353h134l190 -355l-201 -353h-134zM283 80l148 271l-140 278l-149 -272z" />
    <glyph glyph-name="integral" unicode="&#x222b;" horiz-adv-x="387" 
d="M-48 -231l-8 88c104 11 176 2 176 120v534c0 182 140 208 278 208l7 -91c-107 -9 -179 0 -179 -117v-534c0 -183 -136 -208 -274 -208z" />
    <glyph glyph-name="uni0400" unicode="&#x400;" horiz-adv-x="590" 
d="M392 746l-239 60l23 87l236 -76zM99 0v707h416v-86h-308v-224h286v-84h-286v-226h331v-87h-439z" />
    <glyph glyph-name="uni0401" unicode="&#x401;" horiz-adv-x="590" 
d="M204 744l-70 71l70 69l69 -69zM414 744l-70 71l70 69l70 -69zM99 0v707h416v-86h-308v-224h286v-84h-286v-226h331v-87h-439z" />
    <glyph glyph-name="uni0402" unicode="&#x402;" horiz-adv-x="771" 
d="M501 -220l-59 73c26 21 180 143 180 356c0 91 -48 145 -134 145c-50 0 -114 -14 -164 -41v-313h-108v619h-205v88h569v-88h-256v-218c59 22 121 39 188 39c156 0 219 -98 219 -225c0 -176 -90 -317 -230 -435z" />
    <glyph glyph-name="uni0403" unicode="&#x403;" horiz-adv-x="545" 
d="M227 746l-19 70l234 79l23 -86zM99 0v707h439v-86h-331v-621h-108z" />
    <glyph glyph-name="uni0404" unicode="&#x404;" horiz-adv-x="678" 
d="M428 -10c-241 0 -374 142 -374 359c0 230 131 367 370 367c121 0 182 -25 208 -37l-29 -83c-39 12 -85 28 -177 28c-132 0 -244 -65 -259 -227h360v-83h-358c17 -162 133 -232 277 -232c66 0 122 10 165 22l25 -83c-39 -15 -98 -31 -208 -31z" />
    <glyph glyph-name="uni0405" unicode="&#x405;" horiz-adv-x="554" 
d="M251 -12c-96 0 -164 25 -209 51l33 85c55 -26 106 -44 176 -44c80 0 154 31 154 108c0 158 -344 112 -344 346c0 120 107 183 224 183c89 0 142 -18 187 -43l-32 -82c-47 22 -92 35 -153 35c-68 0 -121 -31 -121 -92c0 -140 348 -119 348 -341
c0 -141 -124 -206 -263 -206z" />
    <glyph glyph-name="uni0406" unicode="&#x406;" horiz-adv-x="306" 
d="M99 0v707h108v-707h-108z" />
    <glyph glyph-name="uni0407" unicode="&#x407;" horiz-adv-x="306" 
d="M99 0v707h108v-707h-108zM49 744l-70 71l70 69l69 -69zM259 744l-70 71l70 69l70 -69z" />
    <glyph glyph-name="uni0408" unicode="&#x408;" horiz-adv-x="308" 
d="M-1 -190l-42 78c120 67 145 137 145 263v556h108v-554c0 -149 -25 -269 -211 -343z" />
    <glyph glyph-name="uni0409" unicode="&#x409;" horiz-adv-x="1011" 
d="M48 -22l-46 96c52 23 109 61 131 105c32 66 55 249 68 528h402v-621h107c108 0 158 54 158 138c0 97 -66 137 -176 137h-46v87h44c188 0 290 -79 290 -227c0 -132 -93 -221 -261 -221h-224v624h-200c-20 -257 -34 -414 -80 -506c-34 -66 -96 -108 -167 -140z" />
    <glyph glyph-name="uni040A" unicode="&#x40a;" horiz-adv-x="1043" 
d="M99 0v707h108v-289h325v289h108v-621h100c107 0 162 47 162 124c0 88 -66 122 -174 122h-44v86h42c187 0 289 -73 289 -212c0 -123 -105 -206 -272 -206h-211v332h-325v-332h-108z" />
    <glyph glyph-name="uni040B" unicode="&#x40b;" horiz-adv-x="781" 
d="M216 0v619h-205v88h569v-88h-256v-218c59 24 121 42 183 42c161 0 224 -75 224 -193v-250h-108v240c0 103 -80 114 -143 114c-43 0 -102 -14 -156 -43v-311h-108z" />
    <glyph glyph-name="uni040C" unicode="&#x40c;" horiz-adv-x="656" 
d="M510 0l-290 373v11l274 323h137l-291 -328l310 -379h-140zM99 0v707h108v-707h-108zM261 754l-19 70l234 79l23 -86z" />
    <glyph glyph-name="uni040D" unicode="&#x40d;" horiz-adv-x="788" 
d="M477 746l-239 60l23 87l236 -76zM99 0v707h108v-460l-3 -103l63 104l313 459h108v-707h-108v460l4 103l-49 -79l-328 -484h-108z" />
    <glyph glyph-name="uni040E" unicode="&#x40e;" horiz-adv-x="596" 
d="M169 -9l-34 90c66 22 107 40 139 112l14 29h-41l-246 485h120l201 -407l156 407h119l-225 -516c-67 -151 -114 -169 -203 -200zM306 756c-74 0 -138 34 -178 92l50 51c42 -46 90 -59 128 -59s86 13 127 59l51 -51c-41 -58 -105 -92 -178 -92z" />
    <glyph glyph-name="uni040F" unicode="&#x40f;" horiz-adv-x="764" 
d="M329 -153v153h-230v707h108v-621h350v621h108v-707h-228v-153h-108z" />
    </font>
</defs>
</svg>
